  0
SECTION
  2
HEADER
  9
$ACADVER
  1
AC1018
  9
$ACADMAINTVER
 70
   104
  9
$DWGCODEPAGE
  3
ANSI_1252
  9
$LASTSAVEDBY
  1
kamerka
  9
$INSBASE
 10
0.0
 20
0.0
 30
0.0
  9
$EXTMIN
 10
-10.11234571756912
 20
-15.27873285337534
 30
-0.0015258207003583
  9
$EXTMAX
 10
25.42205031796809
 20
7.76973286858346
 30
0.0000000349246037
  9
$LIMMIN
 10
0.0
 20
0.0
  9
$LIMMAX
 10
12.0
 20
9.0
  9
$ORTHOMODE
 70
     0
  9
$REGENMODE
 70
     1
  9
$FILLMODE
 70
     1
  9
$QTEXTMODE
 70
     0
  9
$MIRRTEXT
 70
     0
  9
$LTSCALE
 40
0.1
  9
$ATTMODE
 70
     1
  9
$TEXTSIZE
 40
0.2
  9
$TRACEWID
 40
0.05
  9
$TEXTSTYLE
  7
Standard
  9
$CLAYER
  8
0
  9
$CELTYPE
  6
ByLayer
  9
$CECOLOR
 62
   256
  9
$CELTSCALE
 40
1.0
  9
$DISPSILH
 70
     0
  9
$DIMSCALE
 40
1.0
  9
$DIMASZ
 40
0.18
  9
$DIMEXO
 40
0.0625
  9
$DIMDLI
 40
0.38
  9
$DIMRND
 40
0.0
  9
$DIMDLE
 40
0.0
  9
$DIMEXE
 40
0.18
  9
$DIMTP
 40
0.0
  9
$DIMTM
 40
0.0
  9
$DIMTXT
 40
0.18
  9
$DIMCEN
 40
0.09
  9
$DIMTSZ
 40
0.0
  9
$DIMTOL
 70
     0
  9
$DIMLIM
 70
     0
  9
$DIMTIH
 70
     1
  9
$DIMTOH
 70
     1
  9
$DIMSE1
 70
     0
  9
$DIMSE2
 70
     0
  9
$DIMTAD
 70
     0
  9
$DIMZIN
 70
     0
  9
$DIMBLK
  1

  9
$DIMASO
 70
     1
  9
$DIMSHO
 70
     1
  9
$DIMPOST
  1

  9
$DIMAPOST
  1

  9
$DIMALT
 70
     0
  9
$DIMALTD
 70
     2
  9
$DIMALTF
 40
25.4
  9
$DIMLFAC
 40
1.0
  9
$DIMTOFL
 70
     0
  9
$DIMTVP
 40
0.0
  9
$DIMTIX
 70
     0
  9
$DIMSOXD
 70
     0
  9
$DIMSAH
 70
     0
  9
$DIMBLK1
  1

  9
$DIMBLK2
  1

  9
$DIMSTYLE
  2
Standard
  9
$DIMCLRD
 70
     0
  9
$DIMCLRE
 70
     0
  9
$DIMCLRT
 70
     0
  9
$DIMTFAC
 40
1.0
  9
$DIMGAP
 40
0.09
  9
$DIMJUST
 70
     0
  9
$DIMSD1
 70
     0
  9
$DIMSD2
 70
     0
  9
$DIMTOLJ
 70
     1
  9
$DIMTZIN
 70
     0
  9
$DIMALTZ
 70
     0
  9
$DIMALTTZ
 70
     0
  9
$DIMUPT
 70
     0
  9
$DIMDEC
 70
     4
  9
$DIMTDEC
 70
     4
  9
$DIMALTU
 70
     2
  9
$DIMALTTD
 70
     2
  9
$DIMTXSTY
  7
Standard
  9
$DIMAUNIT
 70
     0
  9
$DIMADEC
 70
     0
  9
$DIMALTRND
 40
0.0
  9
$DIMAZIN
 70
     0
  9
$DIMDSEP
 70
    46
  9
$DIMATFIT
 70
     3
  9
$DIMFRAC
 70
     0
  9
$DIMLDRBLK
  1

  9
$DIMLUNIT
 70
     2
  9
$DIMLWD
 70
    -2
  9
$DIMLWE
 70
    -2
  9
$DIMTMOVE
 70
     0
  9
$LUNITS
 70
     4
  9
$LUPREC
 70
     4
  9
$SKETCHINC
 40
0.1
  9
$FILLETRAD
 40
0.0
  9
$AUNITS
 70
     0
  9
$AUPREC
 70
     0
  9
$MENU
  1
.
  9
$ELEVATION
 40
0.0
  9
$PELEVATION
 40
0.0
  9
$THICKNESS
 40
0.0
  9
$LIMCHECK
 70
     0
  9
$CHAMFERA
 40
0.0
  9
$CHAMFERB
 40
0.0
  9
$CHAMFERC
 40
0.0
  9
$CHAMFERD
 40
0.0
  9
$SKPOLY
 70
     0
  9
$TDCREATE
 40
2456868.619505266
  9
$TDUCREATE
 40
2456868.536171933
  9
$TDUPDATE
 40
2456868.620297743
  9
$TDUUPDATE
 40
2456868.536964410
  9
$TDINDWG
 40
0.0007928472
  9
$TDUSRTIMER
 40
0.0007928472
  9
$USRTIMER
 70
     1
  9
$ANGBASE
 50
0.0
  9
$ANGDIR
 70
     0
  9
$PDMODE
 70
     0
  9
$PDSIZE
 40
0.0
  9
$PLINEWID
 40
0.0
  9
$SPLFRAME
 70
     0
  9
$SPLINETYPE
 70
     6
  9
$SPLINESEGS
 70
     8
  9
$HANDSEED
  5
559
  9
$SURFTAB1
 70
     6
  9
$SURFTAB2
 70
     6
  9
$SURFTYPE
 70
     6
  9
$SURFU
 70
     6
  9
$SURFV
 70
     6
  9
$UCSBASE
  2

  9
$UCSNAME
  2

  9
$UCSORG
 10
0.0
 20
0.0
 30
0.0
  9
$UCSXDIR
 10
1.0
 20
0.0
 30
0.0
  9
$UCSYDIR
 10
0.0
 20
1.0
 30
0.0
  9
$UCSORTHOREF
  2

  9
$UCSORTHOVIEW
 70
     0
  9
$UCSORGTOP
 10
0.0
 20
0.0
 30
0.0
  9
$UCSORGBOTTOM
 10
0.0
 20
0.0
 30
0.0
  9
$UCSORGLEFT
 10
0.0
 20
0.0
 30
0.0
  9
$UCSORGRIGHT
 10
0.0
 20
0.0
 30
0.0
  9
$UCSORGFRONT
 10
0.0
 20
0.0
 30
0.0
  9
$UCSORGBACK
 10
0.0
 20
0.0
 30
0.0
  9
$PUCSBASE
  2

  9
$PUCSNAME
  2

  9
$PUCSORG
 10
0.0
 20
0.0
 30
0.0
  9
$PUCSXDIR
 10
1.0
 20
0.0
 30
0.0
  9
$PUCSYDIR
 10
0.0
 20
1.0
 30
0.0
  9
$PUCSORTHOREF
  2

  9
$PUCSORTHOVIEW
 70
     0
  9
$PUCSORGTOP
 10
0.0
 20
0.0
 30
0.0
  9
$PUCSORGBOTTOM
 10
0.0
 20
0.0
 30
0.0
  9
$PUCSORGLEFT
 10
0.0
 20
0.0
 30
0.0
  9
$PUCSORGRIGHT
 10
0.0
 20
0.0
 30
0.0
  9
$PUCSORGFRONT
 10
0.0
 20
0.0
 30
0.0
  9
$PUCSORGBACK
 10
0.0
 20
0.0
 30
0.0
  9
$USERI1
 70
     0
  9
$USERI2
 70
     0
  9
$USERI3
 70
     0
  9
$USERI4
 70
     0
  9
$USERI5
 70
     0
  9
$USERR1
 40
0.0
  9
$USERR2
 40
0.0
  9
$USERR3
 40
0.0
  9
$USERR4
 40
0.0
  9
$USERR5
 40
0.0
  9
$WORLDVIEW
 70
     1
  9
$SHADEDGE
 70
     3
  9
$SHADEDIF
 70
    70
  9
$TILEMODE
 70
     1
  9
$MAXACTVP
 70
    64
  9
$PINSBASE
 10
0.0
 20
0.0
 30
0.0
  9
$PLIMCHECK
 70
     0
  9
$PEXTMIN
 10
1.000000000000000E+20
 20
1.000000000000000E+20
 30
1.000000000000000E+20
  9
$PEXTMAX
 10
-1.000000000000000E+20
 20
-1.000000000000000E+20
 30
-1.000000000000000E+20
  9
$PLIMMIN
 10
-0.752334686935257
 20
-0.5022431411856947
  9
$PLIMMAX
 10
35.2476662742483
 20
23.49775589763074
  9
$UNITMODE
 70
     0
  9
$VISRETAIN
 70
     1
  9
$PLINEGEN
 70
     0
  9
$PSLTSCALE
 70
     1
  9
$TREEDEPTH
 70
  3020
  9
$CMLSTYLE
  2
Standard
  9
$CMLJUST
 70
     0
  9
$CMLSCALE
 40
1.0
  9
$PROXYGRAPHICS
 70
     1
  9
$MEASUREMENT
 70
     0
  9
$CELWEIGHT
370
    -1
  9
$ENDCAPS
280
     0
  9
$JOINSTYLE
280
     0
  9
$LWDISPLAY
290
     0
  9
$INSUNITS
 70
     1
  9
$HYPERLINKBASE
  1

  9
$STYLESHEET
  1

  9
$XEDIT
290
     1
  9
$CEPSNTYPE
380
     0
  9
$PSTYLEMODE
290
     1
  9
$FINGERPRINTGUID
  2
{45FF287D-9EBE-446F-994B-C0B3C1446A12}
  9
$VERSIONGUID
  2
{7D460A03-561A-4A6D-B875-906024F2DA28}
  9
$EXTNAMES
290
     1
  9
$PSVPSCALE
 40
0.0
  9
$OLESTARTUP
290
     0
  9
$SORTENTS
280
   127
  9
$INDEXCTL
280
     0
  9
$HIDETEXT
280
     0
  9
$XCLIPFRAME
290
     0
  9
$HALOGAP
280
     0
  9
$OBSCOLOR
 70
   257
  9
$OBSLTYPE
280
     0
  9
$INTERSECTIONDISPLAY
280
     0
  9
$INTERSECTIONCOLOR
 70
   257
  9
$DIMASSOC
280
     1
  9
$PROJECTNAME
  1

  0
ENDSEC
  0
SECTION
  2
CLASSES
  0
CLASS
  1
ACDBDICTIONARYWDFLT
  2
AcDbDictionaryWithDefault
  3
ObjectDBX Classes
 90
        0
 91
        1
280
     0
281
     0
  0
CLASS
  1
PLOTSETTINGS
  2
AcDbPlotSettings
  3
ObjectDBX Classes
 90
        0
 91
        0
280
     0
281
     0
  0
CLASS
  1
MATERIAL
  2
AcDbMaterial
  3
ObjectDBX Classes
 90
     1153
 91
        3
280
     0
281
     0
  0
CLASS
  1
VISUALSTYLE
  2
AcDbVisualStyle
  3
ObjectDBX Classes
 90
     4095
 91
       26
280
     0
281
     0
  0
CLASS
  1
TABLESTYLE
  2
AcDbTableStyle
  3
ObjectDBX Classes
 90
     4095
 91
        1
280
     0
281
     0
  0
CLASS
  1
DICTIONARYVAR
  2
AcDbDictionaryVar
  3
ObjectDBX Classes
 90
        0
 91
        4
280
     0
281
     0
  0
CLASS
  1
SCALE
  2
AcDbScale
  3
ObjectDBX Classes
 90
     1153
 91
       17
280
     0
281
     0
  0
CLASS
  1
MLEADERSTYLE
  2
AcDbMLeaderStyle
  3
ACDB_MLEADERSTYLE_CLASS
 90
     4095
 91
        1
280
     0
281
     0
  0
CLASS
  1
CELLSTYLEMAP
  2
AcDbCellStyleMap
  3
ObjectDBX Classes
 90
     1152
 91
        1
280
     0
281
     0
  0
ENDSEC
  0
SECTION
  2
TABLES
  0
TABLE
  2
VPORT
  5
19
330
0
100
AcDbSymbolTable
 70
     1
  0
VPORT
  5
7F
330
19
100
AcDbSymbolTableRecord
100
AcDbViewportTableRecord
  2
*Active
 70
     0
 10
0.0
 20
0.0
 11
1.0
 21
1.0
 12
7.654852300199476
 22
-3.754499992395942
 13
0.0
 23
0.0
 14
0.5
 24
0.5
 15
0.5
 25
0.5
 16
0.0
 26
0.0
 36
1.0
 17
0.0
 27
0.0
 37
0.0
 40
23.26353694175935
 41
1.922118380062305
 42
50.0
 43
0.0
 44
0.0
 50
0.0
 51
0.0
 71
     0
 72
  1000
 73
     1
 74
     3
 75
     0
 76
     0
 77
     0
 78
     0
281
     0
 65
     1
110
0.0
120
0.0
130
0.0
111
1.0
121
0.0
131
0.0
112
0.0
122
1.0
132
0.0
 79
     0
146
0.0
1001
ACAD_NAV_VCDISPLAY
1070
     3
  0
ENDTAB
  0
TABLE
  2
LTYPE
  5
14
330
0
100
AcDbSymbolTable
 70
     2
  0
LTYPE
  5
15
330
14
100
AcDbSymbolTableRecord
100
AcDbLinetypeTableRecord
  2
ByBlock
 70
     0
  3

 72
    65
 73
     0
 40
0.0
  0
LTYPE
  5
16
330
14
100
AcDbSymbolTableRecord
100
AcDbLinetypeTableRecord
  2
ByLayer
 70
     0
  3

 72
    65
 73
     0
 40
0.0
  0
LTYPE
  5
8
330
14
100
AcDbSymbolTableRecord
100
AcDbLinetypeTableRecord
  2
Continuous
 70
     0
  3
Solid line
 72
    65
 73
     0
 40
0.0
  0
LTYPE
  5
101
330
14
100
AcDbSymbolTableRecord
100
AcDbLinetypeTableRecord
  2
CENTER2
 70
     0
  3
Center (.5x) ___ _ ___ _ ___ _ ___ _ ___ _ ___
 72
    65
 73
     4
 40
28.57499999999999
 49
19.05
 74
     0
 49
-3.174999999999998
 74
     0
 49
3.174999999999998
 74
     0
 49
-3.174999999999998
 74
     0
  0
ENDTAB
  0
TABLE
  2
LAYER
  5
10
102
{ACAD_XDICTIONARY
360
111
102
}
330
0
100
AcDbSymbolTable
 70
     7
  0
LAYER
  5
4
102
{ACAD_XDICTIONARY
360
50E
102
}
330
10
100
AcDbSymbolTableRecord
100
AcDbLayerTableRecord
  2
0
 70
     0
 62
     7
  6
Continuous
370
    -3
390
5
  0
LAYER
  5
103
330
10
100
AcDbSymbolTableRecord
100
AcDbLayerTableRecord
  2
Defpoints
 70
     0
 62
     7
  6
Continuous
290
     0
370
    -3
390
5
  0
LAYER
  5
104
102
{ACAD_XDICTIONARY
360
105
102
}
330
10
100
AcDbSymbolTableRecord
100
AcDbLayerTableRecord
  2
1
 70
     0
 62
     4
  6
Continuous
370
    -3
390
5
1001
AcAecLayerStandard
1000

1000

  0
LAYER
  5
106
102
{ACAD_XDICTIONARY
360
107
102
}
330
10
100
AcDbSymbolTableRecord
100
AcDbLayerTableRecord
  2
4
 70
     0
 62
     2
  6
CENTER2
370
    -3
390
5
1001
AcAecLayerStandard
1000

1000

  0
LAYER
  5
108
102
{ACAD_XDICTIONARY
360
109
102
}
330
10
100
AcDbSymbolTableRecord
100
AcDbLayerTableRecord
  2
6
 70
     0
 62
     5
  6
Continuous
370
    -3
390
5
1001
AcAecLayerStandard
1000

1000

  0
LAYER
  5
10A
102
{ACAD_XDICTIONARY
360
10B
102
}
330
10
100
AcDbSymbolTableRecord
100
AcDbLayerTableRecord
  2
2
 70
     0
 62
     7
  6
Continuous
370
    -3
390
5
1001
AcAecLayerStandard
1000

1000

  0
ENDTAB
  0
TABLE
  2
STYLE
  5
11
330
0
100
AcDbSymbolTable
 70
     2
  0
STYLE
  5
12
330
11
100
AcDbSymbolTableRecord
100
AcDbTextStyleTableRecord
  2
Standard
 70
     0
 40
0.0
 41
1.0
 50
0.0
 71
     0
 42
0.2
  3
isocp.shx
  4

  0
ENDTAB
  0
TABLE
  2
VIEW
  5
17
330
0
100
AcDbSymbolTable
 70
     0
  0
ENDTAB
  0
TABLE
  2
UCS
  5
18
330
0
100
AcDbSymbolTable
 70
     0
  0
ENDTAB
  0
TABLE
  2
APPID
  5
1B
330
0
100
AcDbSymbolTable
 70
     8
  0
APPID
  5
1C
330
1B
100
AcDbSymbolTableRecord
100
AcDbRegAppTableRecord
  2
ACAD
 70
     0
  0
APPID
  5
10D
330
1B
100
AcDbSymbolTableRecord
100
AcDbRegAppTableRecord
  2
AcAecLayerStandard
 70
     0
  0
APPID
  5
10E
330
1B
100
AcDbSymbolTableRecord
100
AcDbRegAppTableRecord
  2
ACAD_DSTYLE_DIMJOGGED_JOGANGLE_SYMBOL
 70
     0
  0
APPID
  5
10F
330
1B
100
AcDbSymbolTableRecord
100
AcDbRegAppTableRecord
  2
ACAD_NAV_VCDISPLAY
 70
     0
  0
APPID
  5
110
330
1B
100
AcDbSymbolTableRecord
100
AcDbRegAppTableRecord
  2
ACAD_DSTYLE_DIMRADIAL_EXTENSION
 70
     0
  0
APPID
  5
4E8
330
1B
100
AcDbSymbolTableRecord
100
AcDbRegAppTableRecord
  2
AcadAnnoPO
 70
     0
  0
APPID
  5
557
330
1B
100
AcDbSymbolTableRecord
100
AcDbRegAppTableRecord
  2
ACAD_MLEADERVER
 70
     0
  0
APPID
  5
558
330
1B
100
AcDbSymbolTableRecord
100
AcDbRegAppTableRecord
  2
ACAD_DSTYLE_DIMEXT_LENGTH
 70
     0
  0
ENDTAB
  0
TABLE
  2
DIMSTYLE
  5
1D
330
0
100
AcDbSymbolTable
 70
     2
100
AcDbDimStyleTable
 71
     0
  0
DIMSTYLE
105
23
330
1D
100
AcDbSymbolTableRecord
100
AcDbDimStyleTableRecord
  2
Standard
 70
     0
340
12
  0
DIMSTYLE
105
10C
102
{ACAD_REACTORS
330
116
330
114
330
115
330
2D0
330
2D4
330
2D5
330
2D6
330
490
102
}
330
1D
100
AcDbSymbolTableRecord
100
AcDbDimStyleTableRecord
  2
ISO-25
 70
     0
 41
2.5
 42
0.625
 43
3.75
 44
1.25
 73
     0
 74
     0
 77
     1
 78
     8
140
2.5
141
2.5
143
0.03937007874016
147
0.625
171
     3
172
     1
271
     2
272
     2
274
     3
283
     0
284
     8
340
12
1001
ACAD_DSTYLE_DIMEXT_LENGTH
1070
   378
1040
1.25
1001
ACAD_DSTYLE_DIMJOGGED_JOGANGLE_SYMBOL
1070
   384
1040
1.570796326794896
  0
ENDTAB
  0
TABLE
  2
BLOCK_RECORD
  5
1
330
0
100
AcDbSymbolTable
 70
    10
  0
BLOCK_RECORD
  5
2
330
1
100
AcDbSymbolTableRecord
100
AcDbBlockTableRecord
  2
*Model_Space
340
A
  0
BLOCK_RECORD
  5
C
330
1
100
AcDbSymbolTableRecord
100
AcDbBlockTableRecord
  2
*Paper_Space
340
F
  0
BLOCK_RECORD
  5
491
330
1
100
AcDbSymbolTableRecord
100
AcDbBlockTableRecord
  2
*D6
340
0
  0
BLOCK_RECORD
  5
49D
330
1
100
AcDbSymbolTableRecord
100
AcDbBlockTableRecord
  2
*D7
340
0
  0
BLOCK_RECORD
  5
4AB
330
1
100
AcDbSymbolTableRecord
100
AcDbBlockTableRecord
  2
*D8
340
0
  0
BLOCK_RECORD
  5
4B9
330
1
100
AcDbSymbolTableRecord
100
AcDbBlockTableRecord
  2
*D9
340
0
  0
ENDTAB
  0
ENDSEC
  0
SECTION
  2
BLOCKS
  0
BLOCK
  5
3
330
2
100
AcDbEntity
  8
0
100
AcDbBlockBegin
  2
*Model_Space
 70
     2
 10
0.0
 20
0.0
 30
0.0
  3
*Model_Space
  1

  0
ENDBLK
  5
9
330
2
100
AcDbEntity
  8
0
100
AcDbBlockEnd
  0
BLOCK
  5
D
330
C
100
AcDbEntity
 67
     1
  8
0
100
AcDbBlockBegin
  2
*Paper_Space
 70
     0
 10
0.0
 20
0.0
 30
0.0
  3
*Paper_Space
  1

  0
ENDBLK
  5
E
330
C
100
AcDbEntity
 67
     1
  8
0
100
AcDbBlockEnd
  0
BLOCK
  5
492
330
491
100
AcDbEntity
  8
0
100
AcDbBlockBegin
  2
*D6
 70
     1
 10
0.0
 20
0.0
 30
0.0
  3
*D6
  1

  0
LINE
  5
4E9
330
491
100
AcDbEntity
  8
2
 62
     0
440
 16777216
370
    -2
100
AcDbLine
 10
-3.75
 20
-0.5749999999999887
 30
0.0
 11
-3.75
 21
-9.537526087471349
 31
0.0
  0
LINE
  5
4EA
330
491
100
AcDbEntity
  8
2
 62
     0
440
 16777216
370
    -2
100
AcDbLine
 10
3.75
 20
-0.5749999999999887
 30
0.0
 11
3.749999999999999
 21
-9.537526087471349
 31
0.0
  0
LINE
  5
4EB
330
491
100
AcDbEntity
  8
2
 62
     0
440
 16777216
370
    -2
100
AcDbLine
 10
-2.75
 20
-8.287526087471349
 30
0.0
 11
2.749999999999999
 21
-8.287526087471349
 31
0.0
  0
SOLID
  5
4EC
330
491
100
AcDbEntity
  8
2
 62
     0
440
 16777216
100
AcDbTrace
 10
-2.75
 20
-8.120859420804682
 30
0.0
 11
-2.75
 21
-8.454192754138015
 31
0.0
 12
-3.75
 22
-8.287526087471349
 32
0.0
 13
-3.75
 23
-8.287526087471349
 33
0.0
  0
SOLID
  5
4ED
330
491
100
AcDbEntity
  8
2
 62
     0
440
 16777216
100
AcDbTrace
 10
2.749999999999999
 20
-8.120859420804682
 30
0.0
 11
2.749999999999999
 21
-8.454192754138015
 31
0.0
 12
3.749999999999999
 22
-8.287526087471349
 32
0.0
 13
3.749999999999999
 23
-8.287526087471349
 33
0.0
  0
MTEXT
  5
4EE
330
491
100
AcDbEntity
  8
2
 62
     0
440
 16777216
100
AcDbMText
 10
-0.2440300125489045
 20
-6.912526087471349
 30
0.0
 40
1.5
 41
0.0
 71
     5
 72
     1
  1
%%c7.5
 73
     1
 44
1.0
  0
POINT
  5
4EF
330
491
100
AcDbEntity
  8
Defpoints
 62
     0
440
 16777216
100
AcDbPoint
 10
-3.75
 20
0.0500000000000114
 30
0.0
  0
POINT
  5
4F0
330
491
100
AcDbEntity
  8
Defpoints
 62
     0
440
 16777216
100
AcDbPoint
 10
3.75
 20
0.0500000000000114
 30
0.0
  0
POINT
  5
4F1
330
491
100
AcDbEntity
  8
Defpoints
 62
     0
440
 16777216
100
AcDbPoint
 10
3.749999999999999
 20
-8.287526087471349
 30
0.0
  0
ENDBLK
  5
493
330
491
100
AcDbEntity
  8
0
100
AcDbBlockEnd
  0
BLOCK
  5
49E
330
49D
100
AcDbEntity
  8
0
100
AcDbBlockBegin
  2
*D7
 70
     1
 10
0.0
 20
0.0
 30
0.0
  3
*D7
  1

  0
LINE
  5
4F2
330
49D
100
AcDbEntity
  8
2
 62
     0
440
 16777216
370
    -2
100
AcDbLine
 10
-1.377000000000009
 20
0.6750000000000114
 30
0.0
 11
-1.377000000000009
 21
6.967464781490008
 31
0.0
  0
LINE
  5
4F3
330
49D
100
AcDbEntity
  8
2
 62
     0
440
 16777216
370
    -2
100
AcDbLine
 10
1.377000000000009
 20
0.6750000000000114
 30
0.0
 11
1.377000000000009
 21
6.967464781490008
 31
0.0
  0
LINE
  5
4F4
330
49D
100
AcDbEntity
  8
2
 62
     0
440
 16777216
370
    -2
100
AcDbLine
 10
2.377000000000009
 20
5.717464781490008
 30
0.0
 11
3.377000000000009
 21
5.717464781490008
 31
0.0
  0
LINE
  5
4F5
330
49D
100
AcDbEntity
  8
2
 62
     0
440
 16777216
370
    -2
100
AcDbLine
 10
-2.377000000000009
 20
5.717464781490008
 30
0.0
 11
-10.10806601717799
 21
5.717464781490008
 31
0.0
  0
LINE
  5
4F6
330
49D
100
AcDbEntity
  8
2
 62
     0
440
 16777216
370
    -2
100
AcDbLine
 10
1.377000000000009
 20
5.717464781490008
 30
0.0
 11
-1.377000000000009
 21
5.717464781490008
 31
0.0
  0
SOLID
  5
4F7
330
49D
100
AcDbEntity
  8
2
 62
     0
440
 16777216
100
AcDbTrace
 10
2.377000000000009
 20
5.884131448156675
 30
0.0
 11
2.377000000000009
 21
5.550798114823341
 31
0.0
 12
1.377000000000009
 22
5.717464781490008
 32
0.0
 13
1.377000000000009
 23
5.717464781490008
 33
0.0
  0
SOLID
  5
4F8
330
49D
100
AcDbEntity
  8
2
 62
     0
440
 16777216
100
AcDbTrace
 10
-2.377000000000009
 20
5.884131448156675
 30
0.0
 11
-2.377000000000009
 21
5.550798114823341
 31
0.0
 12
-1.377000000000009
 22
5.717464781490008
 32
0.0
 13
-1.377000000000009
 23
5.717464781490008
 33
0.0
  0
MTEXT
  5
4F9
330
49D
100
AcDbEntity
  8
2
 62
     0
440
 16777216
100
AcDbMText
 10
-7.202000000000012
 20
7.092612419285283
 30
0.0
 40
1.5
 41
0.0
 71
     5
 72
     1
  1
%%c2.75
 73
     1
 44
1.0
  0
POINT
  5
4FA
330
49D
100
AcDbEntity
  8
Defpoints
 62
     0
440
 16777216
100
AcDbPoint
 10
-1.377000000000009
 20
0.0500000000000114
 30
0.0
  0
POINT
  5
4FB
330
49D
100
AcDbEntity
  8
Defpoints
 62
     0
440
 16777216
100
AcDbPoint
 10
1.377000000000009
 20
0.0500000000000114
 30
0.0
  0
POINT
  5
4FC
330
49D
100
AcDbEntity
  8
Defpoints
 62
     0
440
 16777216
100
AcDbPoint
 10
1.377000000000009
 20
5.717464781490008
 30
0.0
  0
ENDBLK
  5
49F
330
49D
100
AcDbEntity
  8
0
100
AcDbBlockEnd
  0
BLOCK
  5
4AC
330
4AB
100
AcDbEntity
  8
0
100
AcDbBlockBegin
  2
*D8
 70
     1
 10
0.0
 20
0.0
 30
0.0
  3
*D8
  1

  0
LINE
  5
4FD
330
4AB
100
AcDbEntity
  8
2
 62
     0
440
 16777216
370
    -2
100
AcDbLine
 10
15.39307344746001
 20
-2.99546945135998
 30
0.0
 11
15.39307344746001
 21
-8.541435822007827
 31
0.0
  0
LINE
  5
4FE
330
4AB
100
AcDbEntity
  8
2
 62
     0
440
 16777216
370
    -2
100
AcDbLine
 10
18.14423480918
 20
-3.706438531869991
 30
0.0
 11
18.14423480918
 21
-8.541435822007827
 31
0.0
  0
LINE
  5
4FF
330
4AB
100
AcDbEntity
  8
2
 62
     0
440
 16777216
370
    -2
100
AcDbLine
 10
14.39307344746001
 20
-7.291435822007827
 30
0.0
 11
13.39307344746001
 21
-7.291435822007827
 31
0.0
  0
LINE
  5
500
330
4AB
100
AcDbEntity
  8
2
 62
     0
440
 16777216
370
    -2
100
AcDbLine
 10
19.14423480918
 20
-7.291435822007827
 30
0.0
 11
25.41934610194855
 21
-7.291435822007827
 31
0.0
  0
LINE
  5
501
330
4AB
100
AcDbEntity
  8
2
 62
     0
440
 16777216
370
    -2
100
AcDbLine
 10
15.39307344746001
 20
-7.291435822007827
 30
0.0
 11
18.14423480918
 21
-7.291435822007827
 31
0.0
  0
SOLID
  5
502
330
4AB
100
AcDbEntity
  8
2
 62
     0
440
 16777216
100
AcDbTrace
 10
14.39307344746001
 20
-7.12476915534116
 30
0.0
 11
14.39307344746001
 21
-7.458102488674493
 31
0.0
 12
15.39307344746001
 22
-7.291435822007827
 32
0.0
 13
15.39307344746001
 23
-7.291435822007827
 33
0.0
  0
SOLID
  5
503
330
4AB
100
AcDbEntity
  8
2
 62
     0
440
 16777216
100
AcDbTrace
 10
19.14423480918
 20
-7.12476915534116
 30
0.0
 11
19.14423480918
 21
-7.458102488674493
 31
0.0
 12
18.14423480918
 22
-7.291435822007827
 32
0.0
 13
18.14423480918
 23
-7.291435822007827
 33
0.0
  0
MTEXT
  5
504
330
4AB
100
AcDbEntity
  8
2
 62
     0
440
 16777216
100
AcDbMText
 10
23.16923480918001
 20
-5.916288184212551
 30
0.0
 40
1.5
 41
0.0
 71
     5
 72
     1
  1
2.75
 73
     1
 44
1.0
  0
POINT
  5
505
330
4AB
100
AcDbEntity
  8
Defpoints
 62
     0
440
 16777216
100
AcDbPoint
 10
15.39307344746001
 20
-2.37046945135998
 30
0.0
  0
POINT
  5
506
330
4AB
100
AcDbEntity
  8
Defpoints
 62
     0
440
 16777216
100
AcDbPoint
 10
18.14423480918
 20
-3.081438531869991
 30
0.0
  0
POINT
  5
507
330
4AB
100
AcDbEntity
  8
Defpoints
 62
     0
440
 16777216
100
AcDbPoint
 10
18.14423480918
 20
-7.291435822007827
 30
0.0
  0
ENDBLK
  5
4AD
330
4AB
100
AcDbEntity
  8
0
100
AcDbBlockEnd
  0
BLOCK
  5
4BA
330
4B9
100
AcDbEntity
  8
0
100
AcDbBlockBegin
  2
*D9
 70
     1
 10
0.0
 20
0.0
 30
0.0
  3
*D9
  1

  0
LINE
  5
508
330
4B9
100
AcDbEntity
  8
2
 62
     0
440
 16777216
370
    -2
100
AcDbLine
 10
6.422472631878894
 20
-8.789046941397923
 30
0.0
 11
2.839957865463021
 21
-4.469137923900373
 31
0.0
  0
MTEXT
  5
509
330
4B9
100
AcDbEntity
  8
2
 62
     0
440
 16777216
100
AcDbMText
 10
6.008790158694305
 20
-6.136231024873936
 30
0.0
 40
1.5
 41
0.0
 71
     5
 72
     1
  1
R0.5
 11
0.6383518321530356
 21
-0.769744722870422
 31
0.0
 73
     1
 44
1.0
  0
LINE
  5
50A
330
4B9
100
AcDbEntity
  8
2
 62
     0
440
 16777216
370
    -2
100
AcDbLine
 10
1.882430117233504
 20
-3.314520839594784
 30
0.0
 11
2.201606033309985
 21
-3.699393201029951
 31
0.0
  0
SOLID
  5
50B
330
4B9
100
AcDbEntity
  8
2
 62
     0
440
 16777216
100
AcDbTrace
 10
2.968248652608092
 20
-4.362745951874867
 30
0.0
 11
2.711667078317951
 21
-4.575529895925879
 31
0.0
 12
2.201606033309985
 22
-3.699393201029951
 32
0.0
 13
2.201606033309985
 23
-3.699393201029951
 33
0.0
  0
POINT
  5
50C
330
4B9
100
AcDbEntity
  8
Defpoints
 62
     0
440
 16777216
100
AcDbPoint
 10
2.201606033309985
 20
-3.699393201029951
 30
0.0
  0
POINT
  5
50D
330
4B9
100
AcDbEntity
  8
Defpoints
 62
     0
440
 16777216
100
AcDbPoint
 10
1.882430117233504
 20
-3.314520839594784
 30
0.0
  0
ENDBLK
  5
4BB
330
4B9
100
AcDbEntity
  8
0
100
AcDbBlockEnd
  0
ENDSEC
  0
SECTION
  2
ENTITIES
  0
DIMENSION
  5
2D4
330
2
100
AcDbEntity
  8
2
100
AcDbDimension
  2
*D6
 10
3.749999999999999
 20
-8.287526087471349
 30
0.0
 11
-0.2440300125489045
 21
-8.287526087471349
 31
0.0
 70
   160
  1
%%c<>
 71
     5
 42
7.5
  3
ISO-25
100
AcDbAlignedDimension
 13
-3.75
 23
0.0500000000000114
 33
0.0
 14
3.75
 24
0.0500000000000114
 34
0.0
100
AcDbRotatedDimension
1001
ACAD
1000
DSTYLE
1002
{
1070
    41
1040
1.0
1070
   140
1040
1.5
1002
}
  0
DIMENSION
  5
2D5
330
2
100
AcDbEntity
  8
2
100
AcDbDimension
  2
*D7
 10
1.377000000000009
 20
5.717464781490008
 30
0.0
 11
-7.202000000000012
 21
5.717464781490008
 31
0.0
 70
   160
  1
%%c<>
 71
     5
 42
2.754000000000019
  3
ISO-25
100
AcDbAlignedDimension
 13
-1.377000000000009
 23
0.0500000000000114
 33
0.0
 14
1.377000000000009
 24
0.0500000000000114
 34
0.0
100
AcDbRotatedDimension
1001
ACAD
1000
DSTYLE
1002
{
1070
    41
1040
1.0
1070
   140
1040
1.5
1002
}
  0
DIMENSION
  5
2D6
330
2
100
AcDbEntity
  8
2
100
AcDbDimension
  2
*D8
 10
18.14423480918
 20
-7.291435822007827
 30
0.0
 11
23.16923480918001
 21
-7.291435822007827
 31
0.0
 70
   160
 71
     5
 42
2.751161361719994
  3
ISO-25
100
AcDbAlignedDimension
 13
15.39307344746001
 23
-2.37046945135998
 33
0.0
 14
18.14423480918
 24
-3.081438531869991
 34
0.0
 50
359.999954101508
100
AcDbRotatedDimension
1001
ACAD
1000
DSTYLE
1002
{
1070
    41
1040
1.0
1070
   140
1040
1.5
1002
}
  0
MTEXT
  5
2D7
330
2
100
AcDbEntity
  8
6
100
AcDbMText
 10
21.55842781847852
 20
-13.37660389548815
 30
0.0
 40
2.0
 41
48.0
 71
     3
 72
     1
  1
PEMT0502ZCTR-HR
 73
     1
 44
1.0
  0
LWPOLYLINE
  5
2D8
330
2
100
AcDbEntity
  8
1
100
AcDbPolyline
 90
        7
 70
     0
 43
0.0
 10
-2.306539905400001
 20
-3.339154493729978
 10
-2.06126238729999
 20
-3.419102665919979
 10
-1.808550111610003
 20
-3.48602194180998
 10
-1.548513234690005
 20
-3.539318593220002
 10
-1.283820300400009
 20
-3.577940716839975
 10
-1.017255904210003
 20
-3.60125416840998
 10
-0.7491391744499936
 20
-3.60906100068999
  0
LWPOLYLINE
  5
2D9
330
2
100
AcDbEntity
  8
1
100
AcDbPolyline
 90
        4
 70
     0
 43
0.0
 10
-2.507439296960001
 20
-3.265425712439991
 10
-2.444053822540013
 20
-3.286955225109977
 10
-2.377095223439994
 20
-3.311955724439997
 10
-2.306551790890011
 20
-3.339190633089998
  0
LWPOLYLINE
  5
2DA
330
2
100
AcDbEntity
  8
1
100
AcDbPolyline
 90
        7
 70
     0
 43
0.0
 10
-2.418382900019992
 20
-3.448302042409977
 10
-2.184438690169997
 20
-3.529069821809997
 10
-1.947464330510001
 20
-3.597451837189993
 10
-1.707618693949996
 20
-3.653272550109988
 10
-1.463668090319998
 20
-3.696646577409978
 10
-1.214339920550003
 20
-3.72747318012
 10
-0.9597330473399949
 20
-3.745375727009985
  0
LINE
  5
2DB
330
2
100
AcDbEntity
  8
1
100
AcDbLine
 10
-2.495246272669987
 20
-3.419406928069975
 30
0.0
 11
-2.65260210368001
 21
-3.360849241559975
 31
0.0
  0
LINE
  5
2DC
330
2
100
AcDbEntity
  8
1
100
AcDbLine
 10
-2.418389329450008
 20
-3.448313393699976
 30
0.0
 11
-2.495246272669987
 21
-3.419406928069975
 31
0.0
  0
LWPOLYLINE
  5
2DD
330
2
100
AcDbEntity
  8
1
100
AcDbPolyline
 90
        4
 70
     0
 43
0.0
 10
-2.677408296919992
 20
-3.190186008479997
 10
-2.624922881559996
 20
-3.219584855239986
 10
-2.567578706190005
 20
-3.243814346959993
 10
-2.507439296960001
 20
-3.265425712439991
  0
LWPOLYLINE
  5
2DE
330
2
100
AcDbEntity
  8
1
100
AcDbPolyline
 90
        3
 70
     0
 43
0.0
 10
-2.763525326910013
 20
-3.106323700839993
 10
-2.723799241319994
 20
-3.152119532459977
 10
-2.677408296919992
 20
-3.190186008479997
  0
LWPOLYLINE
  5
2DF
330
2
100
AcDbEntity
  8
1
100
AcDbPolyline
 90
        6
 70
     0
 43
0.0
 10
-3.888484628899988
 20
1.161794299800021
 10
-3.88871411977999
 20
0.903816700950017
 10
-3.874259317540008
 20
0.6427950353800043
 10
-3.844590670320002
 20
0.3790167483700202
 10
-3.799529108409984
 20
0.1153446472700068
 10
-3.739328799589998
 20
-0.1453765191999992
  0
LINE
  5
2E0
330
2
100
AcDbEntity
  8
1
100
AcDbLine
 10
-4.023122744130006
 20
1.316465378250001
 30
0.0
 11
-4.016056700820001
 21
1.484214984670018
 31
0.0
  0
LWPOLYLINE
  5
2E1
330
2
100
AcDbEntity
  8
1
100
AcDbPolyline
 90
        7
 70
     0
 43
0.0
 10
-3.88850631743
 20
1.161798214110007
 10
-3.880289849099995
 20
1.345628041490016
 10
-3.87911784661
 20
1.428986557030015
 10
-3.872791079179989
 20
1.506799886050004
 10
-3.85348179088001
 20
1.580202177490008
 10
-3.823333981860002
 20
1.646285734370025
 10
-3.780402508650013
 20
1.701031021380003
  0
LINE
  5
2E2
330
2
100
AcDbEntity
  8
1
100
AcDbLine
 10
-4.026864325119987
 20
1.234437490120001
 30
0.0
 11
-4.023122744130006
 21
1.316465378250001
 31
0.0
  0
LWPOLYLINE
  5
2E3
330
2
100
AcDbEntity
  8
1
100
AcDbPolyline
 90
        7
 70
     0
 43
0.0
 10
-0.0703482209599997
 20
4.211224757060023
 10
-0.3070871845399949
 20
4.139058303310008
 10
-0.5389974101900066
 20
4.055090481900009
 10
-0.7658471894999935
 20
3.959272662830016
 10
-0.9887019764099989
 20
3.850972425770009
 10
-1.208532119459988
 20
3.729360252820015
 10
-1.425036260089996
 20
3.594189552230005
  0
LWPOLYLINE
  5
2E4
330
2
100
AcDbEntity
  8
1
100
AcDbPolyline
 90
        7
 70
     0
 43
0.0
 10
1.985282584859987
 20
-3.749966424969983
 10
2.060044927770007
 20
-3.744015617439998
 10
2.132962792429992
 20
-3.726599505039985
 10
2.201606033309985
 20
-3.699393201029977
 10
2.265831256839987
 20
-3.662860503309985
 10
2.32509763645001
 20
-3.616573030940003
 10
2.37661104771999
 20
-3.561291238309991
  0
LINE
  5
2E5
330
2
100
AcDbEntity
  8
1
100
AcDbLine
 10
1.676070044819994
 20
-3.608698638649997
 30
0.0
 11
-0.7491389079000044
 21
-3.609131320679978
 31
0.0
  0
LINE
  5
2E6
330
2
100
AcDbEntity
  8
1
100
AcDbLine
 10
1.676070044819994
 20
-3.608698638649997
 30
0.0
 11
1.831477656019984
 21
-3.608804328369984
 31
0.0
  0
LWPOLYLINE
  5
2E7
330
2
100
AcDbEntity
  8
1
100
AcDbPolyline
 90
        7
 70
     0
 43
0.0
 10
1.831477656019984
 20
-3.608804328369984
 10
1.904098649100006
 20
-3.609525763949989
 10
1.973194153849988
 20
-3.607882263749985
 10
2.038963663149985
 20
-3.601479287839993
 10
2.100313119249989
 20
-3.588175583119976
 10
2.156143576390007
 20
-3.564545513249981
 10
2.206682534630004
 20
-3.532188283839985
  0
LWPOLYLINE
  5
2E8
330
2
100
AcDbEntity
  8
1
100
AcDbPolyline
 90
        7
 70
     0
 43
0.0
 10
-0.959726637779994
 20
-3.745381044059996
 10
-0.924790403190002
 20
-3.746793258079975
 10
-0.8898436271599905
 20
-3.747948627649975
 10
-0.8548874837800042
 20
-3.748847075019995
 10
-0.8199259697200034
 20
-3.749488474119999
 10
-0.7849630832500054
 20
-3.749872774940001
 10
1.985290682629994
 20
-3.749947501359997
  0
LWPOLYLINE
  5
2E9
330
2
100
AcDbEntity
  8
1
100
AcDbPolyline
 90
        7
 70
     0
 43
0.0
 10
-2.95294394151
 20
-3.046919309169993
 10
-2.924181542050007
 20
-3.116183637209985
 10
-2.885084964420002
 20
-3.180150779729984
 10
-2.837998298280012
 20
-3.237027167269985
 10
-2.78340694629
 20
-3.286819756139976
 10
-2.721070607450002
 20
-3.328881818049978
 10
-2.652575950140004
 20
-3.360790968469984
  0
LINE
  5
2EA
330
2
100
AcDbEntity
  8
1
100
AcDbLine
 10
-3.739328799589998
 20
-0.1453765191999992
 30
0.0
 11
-3.66390117393999
 21
-0.4027822253399905
 31
0.0
  0
LWPOLYLINE
  5
2EB
330
2
100
AcDbEntity
  8
1
100
AcDbPolyline
 90
        7
 70
     0
 43
0.0
 10
-3.858640890000003
 20
-0.2446321166600001
 10
-3.849188094990012
 20
-0.2782948489799821
 10
-3.839487768899999
 20
-0.3118882374999998
 10
-3.829540200600007
 20
-0.3454111415599925
 10
-3.819346505220011
 20
-0.3788597211599836
 10
-3.808907870750005
 20
-0.4122301582499972
 10
-2.952923441550012
 20
-3.046921162879982
  0
LWPOLYLINE
  5
2EC
330
2
100
AcDbEntity
  8
1
100
AcDbPolyline
 90
        7
 70
     0
 43
0.0
 10
-3.85888985119999
 20
-0.2446884190299841
 10
-3.919937109440013
 20
0.0014149411200037
 10
-3.96761320281999
 20
0.2491128734200174
 10
-4.002076188440014
 20
0.4980909607200204
 10
-4.023294812350002
 20
0.7463443339900096
 10
-4.031508441800013
 20
0.9918739049700207
 10
-4.027149345780003
 20
1.234444489379995
  0
LWPOLYLINE
  5
2ED
330
2
100
AcDbEntity
  8
1
100
AcDbPolyline
 90
        4
 70
     0
 43
0.0
 10
-3.780402508650013
 20
1.701031021380003
 10
-3.729078513269996
 20
1.749246397090018
 10
-3.672865639909986
 20
1.793384826340002
 10
-3.612525979860009
 20
1.836180720460021
  0
LWPOLYLINE
  5
2EE
330
2
100
AcDbEntity
  8
1
100
AcDbPolyline
 90
        7
 70
     0
 43
0.0
 10
-3.810302324969995
 20
1.866866730800012
 10
-3.867288545320008
 20
1.818108208900014
 10
-3.916043406160014
 20
1.761158219880002
 10
-3.95558548515001
 20
1.698800368820002
 10
-3.986071395739998
 20
1.631494151550015
 10
-4.006811805680001
 20
1.559210878370009
 10
-4.015993197929986
 20
1.484208118550014
  0
LINE
  5
2EF
330
2
100
AcDbEntity
  8
1
100
AcDbLine
 10
-1.515343820200001
 20
3.360204547830022
 30
0.0
 11
-3.485261131709989
 21
1.928366809460015
 31
0.0
  0
LINE
  5
2F0
330
2
100
AcDbEntity
  8
1
100
AcDbLine
 10
-3.612525979860009
 20
1.836180720460021
 30
0.0
 11
-3.485261131709989
 21
1.928366809460015
 31
0.0
  0
LINE
  5
2F1
330
2
100
AcDbEntity
  8
1
100
AcDbLine
 10
-1.293777432529992
 20
3.511389206410001
 30
0.0
 11
-1.515276388509988
 21
3.360110533880003
 31
0.0
  0
LWPOLYLINE
  5
2F2
330
2
100
AcDbEntity
  8
1
100
AcDbPolyline
 90
        7
 70
     0
 43
0.0
 10
-1.425044570820006
 20
3.594190086360015
 10
-1.454138658809995
 20
3.574797586870005
 10
-1.483090305600001
 20
3.555191099720019
 10
-1.511898515650017
 20
3.535371252130005
 10
-1.540559981460006
 20
3.51534029130002
 10
-1.569071438970013
 20
3.495100526880008
 10
-3.810297753120011
 20
1.866846661350024
  0
LWPOLYLINE
  5
2F3
330
2
100
AcDbEntity
  8
1
100
AcDbPolyline
 90
        6
 70
     0
 43
0.0
 10
-0.0966757932500002
 20
4.05718282745002
 10
-0.342097986290014
 20
3.977681624030026
 10
-0.5858775626799968
 20
3.883274159600006
 10
-0.8275775052100016
 20
3.773545625899998
 10
-1.0644197867
 20
3.649210373620007
 10
-1.293777432529992
 20
3.511389206410001
  0
LINE
  5
2F4
330
2
100
AcDbEntity
  8
1
100
AcDbLine
 10
-3.664009142090009
 20
-0.4028175312199949
 30
0.0
 11
-2.866219154730003
 21
-2.857020618649983
 31
0.0
  0
LWPOLYLINE
  5
2F5
330
2
100
AcDbEntity
  8
1
100
AcDbPolyline
 90
        5
 70
     0
 43
0.0
 10
-2.866219154730003
 20
-2.857020618649983
 10
-2.844464158009998
 20
-2.926310220909982
 10
-2.821549410199992
 20
-2.991516079789988
 10
-2.795135923580005
 20
-3.052087971049985
 10
-2.763525326910013
 20
-3.106323700839993
  0
LWPOLYLINE
  5
2F6
330
2
100
AcDbEntity
  8
1
100
AcDbPolyline
 90
        7
 70
     0
 43
0.0
 10
1.508791172599984
 20
-3.609126057279979
 10
1.53012146923001
 20
-3.632639055929985
 10
1.551221179190008
 20
-3.656245711389999
 10
1.571968083669986
 20
-3.680046020039981
 10
1.592724852640003
 20
-3.703739992719988
 10
1.613861256479992
 20
-3.727027640269994
 10
1.635261305379998
 20
-3.750008959079991
  0
LWPOLYLINE
  5
2F7
330
2
100
AcDbEntity
  8
1
100
AcDbPolyline
 90
        3
 70
     0
 43
0.0
 10
-3.061129177829997
 20
-2.714043398729984
 10
-3.045867554229999
 20
-2.686552660990003
 10
-3.030239663819997
 20
-2.65922574600998
  0
LWPOLYLINE
  5
2F8
330
2
100
AcDbEntity
  8
1
100
AcDbPolyline
 90
        4
 70
     0
 43
0.0
 10
-3.030239663819997
 20
-2.65922574600998
 10
-2.997893609639987
 20
-2.605067078139995
 10
-2.981957053900003
 20
-2.577728645929994
 10
-2.966173982009991
 20
-2.55021567788998
  0
LWPOLYLINE
  5
2F9
330
2
100
AcDbEntity
  8
1
100
AcDbPolyline
 90
        4
 70
     0
 43
0.0
 10
-4.027149345780003
 20
1.234444489379995
 10
-4.00418280721999
 20
1.221895195390004
 10
-3.981109612739999
 20
1.209678410670022
 10
-3.934651579370012
 20
1.186232348840007
  0
LINE
  5
2FA
330
2
100
AcDbEntity
  8
1
100
AcDbLine
 10
-0.7491391744499936
 20
-3.60906100068999
 30
0.0
 11
-0.75
 21
-3.75
 31
0.0
  0
LWPOLYLINE
  5
2FB
330
2
100
AcDbEntity
  8
1
100
AcDbPolyline
 90
        3
 70
     0
 43
0.0
 10
-0.0877882909599919
 20
4.107929677240008
 10
-0.0921142985899906
 20
4.082470785200001
 10
-0.0966757932500002
 20
4.05718282745002
  0
LWPOLYLINE
  5
2FC
330
2
100
AcDbEntity
  8
1
100
AcDbPolyline
 90
        4
 70
     0
 43
0.0
 10
-0.0704311113800031
 20
4.211510954150014
 10
-0.0753302298799952
 20
4.185349458550007
 10
-0.0798526750899953
 20
4.159364646410011
 10
-0.0877882909599919
 20
4.107929677240008
  0
LINE
  5
2FD
330
2
100
AcDbEntity
  8
1
100
AcDbLine
 10
3.200924246340008
 20
-1.827734876419981
 30
0.0
 11
3.334699190320009
 21
-1.872106116129998
 31
0.0
  0
LWPOLYLINE
  5
2FE
330
2
100
AcDbEntity
  8
1
100
AcDbPolyline
 90
        3
 70
     0
 43
0.0
 10
-3.934651579370012
 20
1.186232348840007
 10
-3.91153292185001
 20
1.174135257230005
 10
-3.888484628899988
 20
1.161794299800021
  0
LINE
  5
2FF
330
2
100
AcDbEntity
  8
1
100
AcDbLine
 10
-3.798052276399999
 20
-0.4454664856299928
 30
0.0
 11
-3.664011424369988
 21
-0.4028173048699842
 31
0.0
  0
LINE
  5
300
330
2
100
AcDbEntity
  8
4
100
AcDbLine
 10
0.0
 20
0.0
 30
0.0
 11
0.0
 21
-4.633288647499995
 31
0.0
  0
LINE
  5
301
330
2
100
AcDbEntity
  8
4
100
AcDbLine
 10
0.0
 20
0.0
 30
0.0
 11
0.0
 21
4.633288647490019
 31
0.0
  0
LINE
  5
302
330
2
100
AcDbEntity
  8
4
100
AcDbLine
 10
0.0
 20
0.0
 30
0.0
 11
-4.633288647499995
 21
0.0
 31
0.0
  0
LINE
  5
303
330
2
100
AcDbEntity
  8
4
100
AcDbLine
 10
0.0
 20
0.0
 30
0.0
 11
4.63328864748999
 21
0.0
 31
0.0
  0
LINE
  5
304
330
2
100
AcDbEntity
  8
1
100
AcDbLine
 10
2.810957871910005
 20
2.592975374040008
 30
0.0
 11
2.727477438540006
 21
2.479537924470008
 31
0.0
  0
LWPOLYLINE
  5
305
330
2
100
AcDbEntity
  8
1
100
AcDbPolyline
 90
        3
 70
     0
 43
0.0
 10
3.879745235309997
 20
1.352911709900013
 10
3.854195589590005
 20
1.349158758750007
 10
3.828735748309981
 20
1.345682592170021
  0
LWPOLYLINE
  5
306
330
2
100
AcDbEntity
  8
1
100
AcDbPolyline
 90
        4
 70
     0
 43
0.0
 10
3.983620518950004
 20
1.36841241926001
 10
3.957225563899982
 20
1.364987416339999
 10
3.931115036809984
 20
1.361258771700022
 10
3.879745235309997
 20
1.352911709900013
  0
LINE
  5
307
330
2
100
AcDbEntity
  8
1
100
AcDbLine
 10
-1.515276388509988
 20
3.360110533880003
 30
0.0
 11
-1.597431950319986
 21
3.474652668120029
 31
0.0
  0
LWPOLYLINE
  5
308
330
2
100
AcDbEntity
  8
1
100
AcDbPolyline
 90
        3
 70
     0
 43
0.0
 10
2.485950120620003
 20
-3.272412313339998
 10
2.474357230840013
 20
-3.249036765649975
 10
2.462964611199993
 20
-3.225505292529987
  0
LWPOLYLINE
  5
309
330
2
100
AcDbEntity
  8
1
100
AcDbPolyline
 90
        4
 70
     0
 43
0.0
 10
2.532443995839997
 20
-3.365785566269977
 10
2.521239968239996
 20
-3.342133587809996
 10
2.509754209280004
 20
-3.318687921849999
 10
2.485950120620003
 20
-3.272412313339998
  0
LWPOLYLINE
  5
30A
330
2
100
AcDbEntity
  8
1
100
AcDbPolyline
 90
        4
 70
     0
 43
0.0
 10
0.9007712405899894
 20
3.806717663450001
 10
0.8973240799300015
 20
3.838260129760016
 10
0.8941230118799978
 20
3.869749848380024
 10
0.8884622728799911
 20
3.932568776300001
  0
LWPOLYLINE
  5
30B
330
2
100
AcDbEntity
  8
1
100
AcDbPolyline
 90
        3
 70
     0
 43
0.0
 10
0.8884622728799911
 20
3.932568776300001
 10
0.8850506987699873
 20
3.963832545350015
 10
0.8812457758000107
 20
3.995003455890014
  0
LWPOLYLINE
  5
30C
330
2
100
AcDbEntity
  8
1
100
AcDbPolyline
 90
        3
 70
     0
 43
0.0
 10
-2.344048219610016
 20
-3.375510078269996
 10
-2.325399152820011
 20
-3.357261143629983
 10
-2.306539905400001
 20
-3.339154493729978
  0
LWPOLYLINE
  5
30D
330
2
100
AcDbEntity
  8
1
100
AcDbPolyline
 90
        4
 70
     0
 43
0.0
 10
-2.418484062349989
 20
-3.448582301499982
 10
-2.399451929200012
 20
-3.430617775799987
 10
-2.380703070640009
 20
-3.412449061309985
 10
-2.344048219610016
 20
-3.375510078269996
  0
LWPOLYLINE
  5
30E
330
2
100
AcDbEntity
  8
1
100
AcDbPolyline
 90
        4
 70
     0
 43
0.0
 10
-3.342050018140014
 20
2.033024808850029
 10
-3.373113917490002
 20
2.039493522370008
 10
-3.404051604009993
 20
2.046179983940021
 10
-3.465545219299997
 20
2.06020841753002
  0
LWPOLYLINE
  5
30F
330
2
100
AcDbEntity
  8
1
100
AcDbPolyline
 90
        3
 70
     0
 43
0.0
 10
-3.465545219299997
 20
2.06020841753002
 10
-3.496333064959998
 20
2.066624853690029
 10
-3.527154148410005
 20
2.072638497989998
  0
LWPOLYLINE
  5
310
330
2
100
AcDbEntity
  8
1
100
AcDbPolyline
 90
        3
 70
     0
 43
0.0
 10
4.014645101560006
 20
0.3702527492800129
 10
4.043324478500011
 20
0.3831583850200104
 10
4.071793990299994
 20
0.3964094229200157
  0
LWPOLYLINE
  5
311
330
2
100
AcDbEntity
  8
1
100
AcDbPolyline
 90
        4
 70
     0
 43
0.0
 10
3.898724968190009
 20
0.3196643898800175
 10
3.927678582929985
 20
0.3326847913200197
 10
3.95665001539001
 20
0.3454569502600009
 10
4.014645101560006
 20
0.3702527492800129
  0
LINE
  5
312
330
2
100
AcDbEntity
  8
1
100
AcDbLine
 10
2.727475459510003
 20
2.479536766690017
 30
0.0
 11
0.6275225439900112
 21
4.004939983980023
 31
0.0
  0
LWPOLYLINE
  5
313
330
2
100
AcDbEntity
  8
1
100
AcDbPolyline
 90
        4
 70
     0
 43
0.0
 10
0.6275225439900112
 20
4.004939983980023
 10
0.5678035448800074
 20
4.049191464500012
 10
0.5082546587999844
 20
4.089027691020021
 10
0.4463316330399892
 20
4.122449684460008
  0
LWPOLYLINE
  5
314
330
2
100
AcDbEntity
  8
1
100
AcDbPolyline
 90
        5
 70
     0
 43
0.0
 10
2.92290314197001
 20
2.509105127600008
 10
2.89514728860999
 20
2.530381790450007
 10
2.8672359567
 20
2.551453596390018
 10
2.839172352870008
 20
2.572318153829996
 10
0.5980299228600075
 20
4.200695851370028
  0
LINE
  5
315
330
2
100
AcDbEntity
  8
1
100
AcDbLine
 10
2.939730387660006
 20
2.315534409060006
 30
0.0
 11
2.727408874990004
 21
2.47944475685
 31
0.0
  0
LWPOLYLINE
  5
316
330
2
100
AcDbEntity
  8
1
100
AcDbPolyline
 90
        7
 70
     0
 43
0.0
 10
4.179916061699998
 20
0.7293125853700247
 10
4.197359336510004
 20
0.8022546970900066
 10
4.20332848193999
 20
0.8769855850400176
 10
4.19866567547001
 20
0.9506763887400211
 10
4.183767706629993
 20
1.023047424230014
 10
4.158060028879987
 20
1.093716724170008
 10
4.121402441360004
 20
1.159791909070008
  0
LINE
  5
317
330
2
100
AcDbEntity
  8
1
100
AcDbLine
 10
3.200991206999987
 20
-1.827756352989979
 30
0.0
 11
3.998136618610004
 21
0.6266630404600165
 31
0.0
  0
LINE
  5
318
330
2
100
AcDbEntity
  8
1
100
AcDbLine
 10
4.17990056663001
 20
0.7293261345200222
 30
0.0
 11
3.323788597369997
 21
-1.905266804109999
 31
0.0
  0
LWPOLYLINE
  5
319
330
2
100
AcDbEntity
  8
1
100
AcDbPolyline
 90
        7
 70
     0
 43
0.0
 10
3.998136618610004
 20
0.6266630404600165
 10
4.021264455429985
 20
0.6955089564900164
 10
4.041053430879998
 20
0.7617329412600214
 10
4.055288800759996
 20
0.8262647878400173
 10
4.061592521559987
 20
0.8887261188000081
 10
4.056360736940007
 20
0.9491300179900008
 10
4.041193878320001
 20
1.007201160830021
  0
LWPOLYLINE
  5
31A
330
2
100
AcDbEntity
  8
1
100
AcDbPolyline
 90
        4
 70
     0
 43
0.0
 10
3.323788597369997
 20
-1.905266804109999
 10
3.312625182019985
 20
-1.938369002319973
 10
3.301191685369985
 20
-1.971405850959996
 10
3.289541395500009
 20
-2.004390587359978
  0
LINE
  5
31B
330
2
100
AcDbEntity
  8
1
100
AcDbLine
 10
3.110646881669993
 20
-2.080316595539983
 30
0.0
 11
3.200924246340008
 21
-1.827734876419981
 31
0.0
  0
LWPOLYLINE
  5
31C
330
2
100
AcDbEntity
  8
1
100
AcDbPolyline
 90
        3
 70
     0
 43
0.0
 10
3.289541395500009
 20
-2.004390587359978
 10
3.277727156429989
 20
-2.037337984669989
 10
3.265731254799987
 20
-2.070242685499977
  0
LINE
  5
31D
330
2
100
AcDbEntity
  8
1
100
AcDbLine
 10
0.0088196781699992
 20
4.233027276080008
 30
0.0
 11
0.1705425618299898
 21
4.278144548690022
 31
0.0
  0
LINE
  5
31E
330
2
100
AcDbEntity
  8
1
100
AcDbLine
 10
0.0796104557300055
 20
4.105875667350005
 30
0.0
 11
-0.096687419890003
 21
4.057219050870003
 31
0.0
  0
LINE
  5
31F
330
2
100
AcDbEntity
  8
1
100
AcDbLine
 10
-0.0703496915600113
 20
4.211237719570021
 30
0.0
 11
0.0088196781699992
 21
4.233027276080008
 31
0.0
  0
LWPOLYLINE
  5
320
330
2
100
AcDbEntity
  8
1
100
AcDbPolyline
 90
        6
 70
     0
 43
0.0
 10
0.4463316330399892
 20
4.122449684460008
 10
0.3809690541899897
 20
4.145738043550011
 10
0.3093387389799886
 20
4.15356709396002
 10
0.2340158102099963
 20
4.148470780000025
 10
0.1586299448100021
 20
4.130355903030022
 10
0.0796104557300055
 20
4.105875667350005
  0
LWPOLYLINE
  5
321
330
2
100
AcDbEntity
  8
1
100
AcDbPolyline
 90
        7
 70
     0
 43
0.0
 10
0.5980475972600062
 20
4.200706401260021
 10
0.5340657776899889
 20
4.239836304280004
 10
0.4648370386599936
 20
4.268606417140006
 10
0.3933120246699957
 20
4.286943532940028
 10
0.3198793445799879
 20
4.295138592629996
 10
0.2447247263299914
 20
4.29252713611001
 10
0.1705556552300038
 20
4.278082032110006
  0
LWPOLYLINE
  5
322
330
2
100
AcDbEntity
  8
1
100
AcDbPolyline
 90
        3
 70
     0
 43
0.0
 10
2.977938026710006
 20
2.465945341240001
 10
2.950500356179986
 20
2.487626060090008
 10
2.92290314197001
 20
2.509105127600008
  0
LWPOLYLINE
  5
323
330
2
100
AcDbEntity
  8
1
100
AcDbPolyline
 90
        6
 70
     0
 43
0.0
 10
3.828735748309981
 20
1.345682592170021
 10
3.677285969389998
 20
1.55452574181001
 10
3.512167094700004
 20
1.757200384570012
 10
3.333119664399987
 20
1.953162711160018
 10
3.141681520540004
 20
2.139991404940019
 10
2.939730387660006
 20
2.315534409060006
  0
LINE
  5
324
330
2
100
AcDbEntity
  8
1
100
AcDbLine
 10
3.94789652080999
 20
1.168002589500019
 30
0.0
 11
3.90926251207
 21
1.222664904330002
 31
0.0
  0
LWPOLYLINE
  5
325
330
2
100
AcDbEntity
  8
1
100
AcDbPolyline
 90
        7
 70
     0
 43
0.0
 10
3.983373949280007
 20
1.368245150330011
 10
3.841585960939994
 20
1.571092903020002
 10
3.690066836349984
 20
1.765701613020013
 10
3.528841928119987
 20
1.951835918780005
 10
3.356980480210012
 20
2.130313788780028
 10
3.173393668620008
 20
2.301801831080013
 10
2.977940086839993
 20
2.465937269880015
  0
LINE
  5
326
330
2
100
AcDbEntity
  8
1
100
AcDbLine
 10
3.90926251207
 20
1.222664904330002
 30
0.0
 11
3.869799946369994
 21
1.282230568600027
 31
0.0
  0
LINE
  5
327
330
2
100
AcDbEntity
  8
1
100
AcDbLine
 10
4.028570159220009
 20
1.299694593769999
 30
0.0
 11
4.121457855069991
 21
1.159823681960006
 31
0.0
  0
LINE
  5
328
330
2
100
AcDbEntity
  8
1
100
AcDbLine
 10
3.983385825010003
 20
1.368250555450003
 30
0.0
 11
4.028570159220009
 21
1.299694593769999
 31
0.0
  0
LINE
  5
329
330
2
100
AcDbEntity
  8
1
100
AcDbLine
 10
3.869799946369994
 20
1.282230568600027
 30
0.0
 11
3.828766606079994
 21
1.3457048434
 31
0.0
  0
LWPOLYLINE
  5
32A
330
2
100
AcDbEntity
  8
1
100
AcDbPolyline
 90
        6
 70
     0
 43
0.0
 10
2.462964611199993
 20
-3.225505292529987
 10
2.614794762759999
 20
-3.016937854519994
 10
2.756531164030008
 20
-2.797273391469985
 10
2.887575105790006
 20
-2.566433196239984
 10
3.006101543109991
 20
-2.326630148819987
 10
3.110646881669993
 20
-2.080316595539983
  0
LINE
  5
32B
330
2
100
AcDbEntity
  8
1
100
AcDbLine
 10
2.330763065579986
 20
-3.393788509689983
 30
0.0
 11
2.370826039649983
 21
-3.340158332079994
 31
0.0
  0
LWPOLYLINE
  5
32C
330
2
100
AcDbEntity
  8
1
100
AcDbPolyline
 90
        7
 70
     0
 43
0.0
 10
2.532208712520002
 20
-3.365602748819981
 10
2.681316078250006
 20
-3.168067334399978
 10
2.819580244209987
 20
-2.963822707409974
 10
2.946785174060011
 20
-2.752965718869972
 10
3.06342112223001
 20
-2.534358457459973
 10
3.169785548429985
 20
-2.306759456929995
 10
3.265489707920011
 20
-2.070146351329981
  0
LINE
  5
32D
330
2
100
AcDbEntity
  8
1
100
AcDbLine
 10
2.370826039649983
 20
-3.340158332079994
 30
0.0
 11
2.415294265699998
 21
-3.28420250246998
 31
0.0
  0
LINE
  5
32E
330
2
100
AcDbEntity
  8
1
100
AcDbLine
 10
2.48097965606999
 20
-3.429770182539982
 30
0.0
 11
2.37665838929999
 21
-3.561334121499982
 31
0.0
  0
LINE
  5
32F
330
2
100
AcDbEntity
  8
1
100
AcDbLine
 10
2.532217521770007
 20
-3.365612371599979
 30
0.0
 11
2.48097965606999
 21
-3.429770182539982
 31
0.0
  0
LINE
  5
330
330
2
100
AcDbEntity
  8
1
100
AcDbLine
 10
2.415294265699998
 20
-3.28420250246998
 30
0.0
 11
2.462995308959989
 21
-3.225527763999991
 31
0.0
  0
LWPOLYLINE
  5
331
330
2
100
AcDbEntity
  8
1
100
AcDbPolyline
 90
        4
 70
     0
 43
0.0
 10
2.206682534630004
 20
-3.532188283839985
 10
2.250861386660005
 20
-3.491356427949995
 10
2.291625330959988
 20
-3.444306203169986
 10
2.330763065579986
 20
-3.393788509689983
  0
LWPOLYLINE
  5
332
330
2
100
AcDbEntity
  8
1
100
AcDbPolyline
 90
        4
 70
     0
 43
0.0
 10
4.041193878320001
 20
1.007201160830021
 10
4.016012944459987
 20
1.061851852310013
 10
3.983862078599997
 20
1.115173108269999
 10
3.94789652080999
 20
1.168002589500019
  0
LWPOLYLINE
  5
333
330
2
100
AcDbEntity
  8
1
100
AcDbPolyline
 90
        3
 70
     0
 43
0.0
 10
18.09449699688
 20
-3.608429922710001
 10
18.09845423049
 20
-3.607882263749985
 10
18.11048456093999
 20
-3.601479287839993
  0
LINE
  5
334
330
2
100
AcDbEntity
  8
1
100
AcDbLine
 10
18.01859267412001
 20
-3.749872774940001
 30
0.0
 11
18.01615754363999
 21
-3.750000003469978
 31
0.0
  0
LINE
  5
335
330
2
100
AcDbEntity
  8
1
100
AcDbLine
 10
18.00180327672001
 20
-3.749993825779995
 30
0.0
 11
18.01622337368999
 21
-3.749819081269976
 31
0.0
  0
LINE
  5
336
330
2
100
AcDbEntity
  8
1
100
AcDbLine
 10
17.94262574874
 20
-3.749876796590001
 30
0.0
 11
18.00180327672001
 21
-3.749993825779995
 31
0.0
  0
LINE
  5
337
330
2
100
AcDbEntity
  8
1
100
AcDbLine
 10
17.94253293157001
 20
-3.749845835879995
 30
0.0
 11
17.94262574874
 21
-3.749876796590001
 31
0.0
  0
LINE
  5
338
330
2
100
AcDbEntity
  8
1
100
AcDbLine
 10
15.39343271024998
 20
-2.813121636389979
 30
0.0
 11
15.39357685984998
 21
-2.813173854550001
 31
0.0
  0
LINE
  5
339
330
2
100
AcDbEntity
  8
1
100
AcDbLine
 10
15.39357612397
 20
-2.813172681699995
 30
0.0
 11
17.94274237093
 21
-3.749555867809988
 31
0.0
  0
LINE
  5
33A
330
2
100
AcDbEntity
  8
1
100
AcDbLine
 10
18.08774197928
 20
4.295271465460018
 30
0.0
 11
16.28324405206999
 21
3.603676251700022
 31
0.0
  0
LINE
  5
33B
330
2
100
AcDbEntity
  8
1
100
AcDbLine
 10
15.39309407054
 20
3.268072967340003
 30
0.0
 11
18.09288724313998
 21
4.277956830519997
 31
0.0
  0
LINE
  5
33C
330
2
100
AcDbEntity
  8
1
100
AcDbLine
 10
18.09322197815001
 20
-3.360790968469984
 30
0.0
 11
15.39308204009998
 21
-2.565445867829993
 31
0.0
  0
LINE
  5
33D
330
2
100
AcDbEntity
  8
1
100
AcDbLine
 10
18.04769854488998
 20
-3.04682719362998
 30
0.0
 11
15.39307348751001
 21
-2.320469451359997
 31
0.0
  0
LWPOLYLINE
  5
33E
330
2
100
AcDbEntity
  8
1
100
AcDbPolyline
 90
        4
 70
     0
 43
0.0
 10
18.07201283276001
 20
-2.174117545539985
 10
18.07287232357001
 20
-2.173950533789991
 10
18.07474383907998
 20
-2.182594720049991
 10
18.07462748038
 20
-2.20394511134998
  0
LINE
  5
33F
330
2
100
AcDbEntity
  8
1
100
AcDbLine
 10
18.06642606832
 20
-2.284644497299979
 30
0.0
 11
18.05391722442999
 21
-2.282176920729995
 31
0.0
  0
LWPOLYLINE
  5
340
330
2
100
AcDbEntity
  8
1
100
AcDbPolyline
 90
        5
 70
     0
 43
0.0
 10
18.11301964713002
 20
-2.913090551479996
 10
18.11398565781999
 20
-2.91364325392999
 10
18.11653637966
 20
-2.907022095569999
 10
18.11730406666999
 20
-2.884555210519977
 10
18.11631958633998
 20
-2.8526024473
  0
LINE
  5
341
330
2
100
AcDbEntity
  8
1
100
AcDbLine
 10
15.39306206336999
 20
3.268071554870005
 30
0.0
 11
15.39306206336999
 21
-2.813000038259986
 31
0.0
  0
LWPOLYLINE
  5
342
330
2
100
AcDbEntity
  8
1
100
AcDbPolyline
 90
        5
 70
     0
 43
0.0
 10
18.04146327102998
 20
-1.972374887579974
 10
18.04444986933001
 20
-1.972189585059993
 10
18.04833032120999
 20
-1.984934284329995
 10
18.05008112108999
 20
-2.011591974799983
 10
18.04936650047
 20
-2.046680272489993
  0
LWPOLYLINE
  5
343
330
2
100
AcDbEntity
  8
1
100
AcDbPolyline
 90
        3
 70
     0
 43
0.0
 10
18.04642933897
 20
-2.083147959519976
 10
18.03331293811001
 20
-2.081181478849998
 10
18.02340171343999
 20
-2.079452097889998
  0
LWPOLYLINE
  5
344
330
2
100
AcDbEntity
  8
1
100
AcDbPolyline
 90
        3
 70
     0
 43
0.0
 10
18.01835079327
 20
-1.63538936307998
 10
18.02326008459999
 20
-1.635325281249976
 10
18.02772872923
 20
-1.648838608739993
  0
LWPOLYLINE
  5
345
330
2
100
AcDbEntity
  8
1
100
AcDbPolyline
 90
        4
 70
     0
 43
0.0
 10
18.08246511128999
 20
-2.326039494859998
 10
18.08329927607999
 20
-2.326518246679995
 10
18.08314594315999
 20
-2.338812236489985
 10
18.08050515876999
 20
-2.364219934839979
  0
LINE
  5
346
330
2
100
AcDbEntity
  8
1
100
AcDbLine
 10
18.03933515308
 20
-1.183399985819988
 30
0.0
 11
18.04564956286
 21
-1.182969906959982
 31
0.0
  0
LINE
  5
347
330
2
100
AcDbEntity
  8
1
100
AcDbLine
 10
18.04728754767998
 20
2.345832364450018
 30
0.0
 11
18.05468155791001
 21
2.352345829480015
 31
0.0
  0
LINE
  5
348
330
2
100
AcDbEntity
  8
1
100
AcDbLine
 10
18.05468155791001
 20
2.352345829480015
 30
0.0
 11
18.06317710809
 21
2.358651589660013
 31
0.0
  0
LINE
  5
349
330
2
100
AcDbEntity
  8
1
100
AcDbLine
 10
18.04322563667
 20
2.126564796130026
 30
0.0
 11
18.05537399786999
 21
2.135502093230002
 31
0.0
  0
LINE
  5
34A
330
2
100
AcDbEntity
  8
1
100
AcDbLine
 10
18.08314594384998
 20
2.39383232998
 30
0.0
 11
18.08228810521999
 21
2.393248051980009
 31
0.0
  0
LINE
  5
34B
330
2
100
AcDbEntity
  8
1
100
AcDbLine
 10
18.05537399786999
 20
-0.7327474270999801
 30
0.0
 11
18.06375006938
 21
-0.7306255314799728
 31
0.0
  0
LINE
  5
34C
330
2
100
AcDbEntity
  8
1
100
AcDbLine
 10
17.99515934835
 20
-1.821485186829988
 30
0.0
 11
18.00595361077
 21
-1.835054978990001
 31
0.0
  0
LINE
  5
34D
330
2
100
AcDbEntity
  8
1
100
AcDbLine
 10
18.10972671056001
 20
-2.906527278659979
 30
0.0
 11
18.11301964713002
 21
-2.913090551479996
 31
0.0
  0
LINE
  5
34E
330
2
100
AcDbEntity
  8
1
100
AcDbLine
 10
18.08376558878999
 20
-0.3333051775499882
 30
0.0
 11
18.09238676209
 21
-0.332792425459985
 31
0.0
  0
LINE
  5
34F
330
2
100
AcDbEntity
  8
1
100
AcDbLine
 10
18.09238676209
 20
-0.332792425459985
 30
0.0
 11
18.10150811952999
 21
-0.3322992576499928
 31
0.0
  0
LINE
  5
350
330
2
100
AcDbEntity
  8
1
100
AcDbLine
 10
18.10150811952999
 20
-0.3322992576499928
 30
0.0
 11
18.11112734609
 21
-0.3318256338599781
 31
0.0
  0
LINE
  5
351
330
2
100
AcDbEntity
  8
1
100
AcDbLine
 10
18.01297434335001
 20
-1.374259775159998
 30
0.0
 11
18.02361943999
 21
-1.388409811929989
 31
0.0
  0
LINE
  5
352
330
2
100
AcDbEntity
  8
1
100
AcDbLine
 10
18.09421123256999
 20
-2.503505535399995
 30
0.0
 11
18.09054814321999
 21
-2.495422221529992
 31
0.0
  0
LINE
  5
353
330
2
100
AcDbEntity
  8
4
100
AcDbLine
 10
14.99307323580999
 20
0.0
 30
0.0
 11
19.92369645648
 21
0.0
 31
0.0
  0
LWPOLYLINE
  5
354
330
2
100
AcDbEntity
  8
1
100
AcDbPolyline
 90
        3
 70
     0
 43
0.0
 10
18.04871790938
 20
-0.9283184958999868
 10
18.03748196297999
 20
-0.9140648497799759
 10
18.03284022747999
 20
-0.906318509359977
  0
LINE
  5
355
330
2
100
AcDbEntity
  8
1
100
AcDbLine
 10
18.06237072683998
 20
-2.755935380519986
 30
0.0
 11
18.08213819385
 21
-2.815191621929983
 31
0.0
  0
LINE
  5
356
330
2
100
AcDbEntity
  8
1
100
AcDbLine
 10
18.08213819385
 20
-2.815191621929983
 30
0.0
 11
18.08731658006999
 21
-2.831110766599977
 31
0.0
  0
LWPOLYLINE
  5
357
330
2
100
AcDbEntity
  8
1
100
AcDbPolyline
 90
        3
 70
     0
 43
0.0
 10
18.08731658006999
 20
-2.831110766599977
 10
18.09230547614999
 20
-2.846789673659998
 10
18.09472579445
 20
-2.854567951119975
  0
LINE
  5
358
330
2
100
AcDbEntity
  8
1
100
AcDbLine
 10
18.09472579445
 20
-2.854567951119975
 30
0.0
 11
18.09709441309999
 21
-2.862305332649981
 31
0.0
  0
LINE
  5
359
330
2
100
AcDbEntity
  8
1
100
AcDbLine
 10
18.09669365025999
 20
-2.862340222749992
 30
0.0
 11
18.10972671056001
 21
-2.906527278659979
 31
0.0
  0
LINE
  5
35A
330
2
100
AcDbEntity
  8
1
100
AcDbLine
 10
18.09948044470999
 20
-2.721924431949986
 30
0.0
 11
18.06366553063
 21
-2.599437439279995
 31
0.0
  0
LWPOLYLINE
  5
35B
330
2
100
AcDbEntity
  8
1
100
AcDbPolyline
 90
        4
 70
     0
 43
0.0
 10
18.04564956286
 20
-1.182969906959982
 10
18.05106171628
 20
-1.197242440339977
 10
18.05351188893999
 20
-1.225181636709976
 10
18.05266112641999
 20
-1.26276883174998
  0
LINE
  5
35C
330
2
100
AcDbEntity
  8
1
100
AcDbLine
 10
18.09058809479998
 20
-2.495375584409998
 30
0.0
 11
18.08239870995999
 21
-2.468035492789994
 31
0.0
  0
LINE
  5
35D
330
2
100
AcDbEntity
  8
1
100
AcDbLine
 10
18.06407732253999
 20
-2.599302773659985
 30
0.0
 11
18.06222623553
 21
-2.592652083539974
 31
0.0
  0
LINE
  5
35E
330
2
100
AcDbEntity
  8
1
100
AcDbLine
 10
18.06222623553
 20
-2.592652083539974
 30
0.0
 11
18.06041342279999
 21
-2.585918667219999
 31
0.0
  0
LINE
  5
35F
330
2
100
AcDbEntity
  8
1
100
AcDbLine
 10
18.06041342279999
 20
-2.585918667219999
 30
0.0
 11
18.05867822518999
 21
-2.579274489759995
 31
0.0
  0
LWPOLYLINE
  5
360
330
2
100
AcDbEntity
  8
1
100
AcDbPolyline
 90
        3
 70
     0
 43
0.0
 10
18.12955295723
 20
-3.142540679399985
 10
18.13157393929001
 20
-3.152119532459977
 10
18.13870919816
 20
-3.190186008479997
  0
LINE
  5
361
330
2
100
AcDbEntity
  8
1
100
AcDbLine
 10
18.10482486903001
 20
-2.747888165649982
 30
0.0
 11
18.09948044470999
 21
-2.721924431949986
 31
0.0
  0
LWPOLYLINE
  5
362
330
2
100
AcDbEntity
  8
1
100
AcDbPolyline
 90
        3
 70
     0
 43
0.0
 10
18.03898761641
 20
-2.992469596449979
 10
18.02004173204
 20
-2.882395554609985
 10
18.01082725863
 20
-2.826790747699988
  0
LINE
  5
363
330
2
100
AcDbEntity
  8
1
100
AcDbLine
 10
18.04803517530999
 20
-3.046919309169993
 30
0.0
 11
18.07096044722001
 21
-3.180150779729984
 31
0.0
  0
LWPOLYLINE
  5
364
330
2
100
AcDbEntity
  8
1
100
AcDbPolyline
 90
        6
 70
     0
 43
0.0
 10
18.08481624946
 20
-2.915859742559973
 10
18.08657874629
 20
-2.926310220909982
 10
18.09845422843
 20
-2.991516079789988
 10
18.11048455925998
 20
-3.052087971049985
 10
18.12165540728
 20
-3.106323700839993
 10
18.12955295723
 20
-3.142540679399985
  0
LINE
  5
365
330
2
100
AcDbEntity
  8
1
100
AcDbLine
 10
18.04798031692999
 20
-3.046921162879982
 30
0.0
 11
18.03898761641
 21
-2.992469596449979
 31
0.0
  0
LINE
  5
366
330
2
100
AcDbEntity
  8
1
100
AcDbLine
 10
18.07096044722001
 20
-3.180150779729984
 30
0.0
 11
18.08024383858
 21
-3.237027167269985
 31
0.0
  0
LINE
  5
367
330
2
100
AcDbEntity
  8
1
100
AcDbLine
 10
18.01082725863
 20
-2.826790747699988
 30
0.0
 11
18.00183959516999
 21
-2.770659471149997
 31
0.0
  0
LINE
  5
368
330
2
100
AcDbEntity
  8
1
100
AcDbLine
 10
18.00183959516999
 20
-2.770659471149997
 30
0.0
 11
17.99310150789
 21
-2.714043398729984
 31
0.0
  0
LINE
  5
369
330
2
100
AcDbEntity
  8
1
100
AcDbLine
 10
18.11349558584999
 20
-2.815509202769987
 30
0.0
 11
18.10943944671999
 21
-2.778297285719986
 31
0.0
  0
LINE
  5
36A
330
2
100
AcDbEntity
  8
1
100
AcDbLine
 10
18.02973747777
 20
-2.488519989609983
 30
0.0
 11
18.04410770741
 21
-2.635298416989996
 31
0.0
  0
LINE
  5
36B
330
2
100
AcDbEntity
  8
1
100
AcDbLine
 10
18.09401391478999
 20
-2.42288497717999
 30
0.0
 11
18.09585817305
 21
-2.44297400021
 31
0.0
  0
LINE
  5
36C
330
2
100
AcDbEntity
  8
1
100
AcDbLine
 10
17.95492880560999
 20
-2.35972240977
 30
0.0
 11
17.97009639168001
 21
-2.539018733799991
 31
0.0
  0
LINE
  5
36D
330
2
100
AcDbEntity
  8
1
100
AcDbLine
 10
18.02822626169001
 20
-2.55022577695999
 30
0.0
 11
18.00009649175999
 21
-2.215668661639995
 31
0.0
  0
LINE
  5
36E
330
2
100
AcDbEntity
  8
1
100
AcDbLine
 10
17.96357290801001
 20
2.984925264520001
 30
0.0
 11
17.94818354979
 21
2.750349553730018
 31
0.0
  0
LINE
  5
36F
330
2
100
AcDbEntity
  8
1
100
AcDbLine
 10
18.01825349473
 20
2.899834082409995
 30
0.0
 11
18.00185476020999
 21
2.676253882190025
 31
0.0
  0
LINE
  5
370
330
2
100
AcDbEntity
  8
1
100
AcDbLine
 10
18.14026727840999
 20
3.977681624030026
 30
0.0
 11
18.13183099807
 21
3.883274159600006
 31
0.0
  0
LINE
  5
371
330
2
100
AcDbEntity
  8
1
100
AcDbLine
 10
17.98680227962001
 20
3.224041562170015
 30
0.0
 11
17.96357290801001
 21
2.984925264520001
 31
0.0
  0
LINE
  5
372
330
2
100
AcDbEntity
  8
1
100
AcDbLine
 10
18.04085232019
 20
3.128366217920017
 30
0.0
 11
18.01825349473
 21
2.899834082409995
 31
0.0
  0
LINE
  5
373
330
2
100
AcDbEntity
  8
1
100
AcDbLine
 10
18.13183099807
 20
3.883274159600006
 30
0.0
 11
18.11945435225999
 21
3.773545625899998
 31
0.0
  0
LINE
  5
374
330
2
100
AcDbEntity
  8
1
100
AcDbLine
 10
18.06741212609998
 20
3.360204547830022
 30
0.0
 11
18.04085232019
 21
3.128366217920017
 31
0.0
  0
LINE
  5
375
330
2
100
AcDbEntity
  8
1
100
AcDbLine
 10
18.07523494013
 20
3.959272662830016
 30
0.0
 11
18.06269391455001
 21
3.850972425770009
 31
0.0
  0
LINE
  5
376
330
2
100
AcDbEntity
  8
1
100
AcDbLine
 10
18.01859267425999
 20
3.495100526880008
 30
0.0
 11
17.98680227962001
 21
3.224041562170015
 31
0.0
  0
LINE
  5
377
330
2
100
AcDbEntity
  8
1
100
AcDbLine
 10
18.03070752081001
 20
3.594190086360015
 30
0.0
 11
18.01859267425999
 21
3.495100526880008
 31
0.0
  0
LINE
  5
378
330
2
100
AcDbEntity
  8
1
100
AcDbLine
 10
18.06269391455001
 20
3.850972425770009
 30
0.0
 11
18.0306939363
 21
3.594189552230005
 31
0.0
  0
LINE
  5
379
330
2
100
AcDbEntity
  8
1
100
AcDbLine
 10
18.11945435225999
 20
3.773545625899998
 30
0.0
 11
18.06745422943001
 21
3.360110533880003
 31
0.0
  0
LWPOLYLINE
  5
37A
330
2
100
AcDbEntity
  8
1
100
AcDbPolyline
 90
        7
 70
     0
 43
0.0
 10
18.06375006938
 20
-0.7306255314799728
 10
18.06978774792
 20
-0.7447685935399875
 10
18.07339827039999
 20
-0.7726072862499791
 10
18.07398269531998
 20
-0.8098357844999952
 10
18.07073406111001
 20
-0.8501207791499894
 10
18.06485607864999
 20
-0.886709507349991
 10
18.05749722979999
 20
-0.9143256965299997
  0
LINE
  5
37B
330
2
100
AcDbEntity
  8
1
100
AcDbLine
 10
18.06295508497999
 20
-2.784632699529993
 30
0.0
 11
18.08481624946
 21
-2.915859742559973
 31
0.0
  0
LINE
  5
37C
330
2
100
AcDbEntity
  8
1
100
AcDbLine
 10
18.10943944671999
 20
-2.778297285719986
 30
0.0
 11
18.10482486903001
 21
-2.747888165649982
 31
0.0
  0
LWPOLYLINE
  5
37D
330
2
100
AcDbEntity
  8
1
100
AcDbPolyline
 90
        3
 70
     0
 43
0.0
 10
18.13870919816
 20
-3.190186008479997
 10
18.14310254841999
 20
-3.219584855239986
 10
18.14473367971999
 20
-3.243814346959993
  0
LWPOLYLINE
  5
37E
330
2
100
AcDbEntity
  8
1
100
AcDbPolyline
 90
        3
 70
     0
 43
0.0
 10
18.08024383858
 20
-3.237027167269985
 10
18.0874582051
 20
-3.286819756139976
 10
18.09199835430999
 20
-3.328881818049978
  0
LWPOLYLINE
  5
37F
330
2
100
AcDbEntity
  8
1
100
AcDbPolyline
 90
        4
 70
     0
 43
0.0
 10
18.02827171862
 20
-2.55021567788998
 10
18.03924139745001
 20
-2.631057542529987
 10
18.05104859478999
 20
-2.709186541799994
 10
18.06295508497999
 20
-2.784632699529993
  0
LINE
  5
380
330
2
100
AcDbEntity
  8
1
100
AcDbLine
 10
17.97009639168001
 20
-2.539018733799991
 30
0.0
 11
17.99315042702
 21
-2.714038765909975
 31
0.0
  0
LINE
  5
381
330
2
100
AcDbEntity
  8
1
100
AcDbLine
 10
18.12842952880001
 20
-3.102722021769977
 30
0.0
 11
18.09669365025999
 21
-2.862340222749992
 31
0.0
  0
LINE
  5
382
330
2
100
AcDbEntity
  8
1
100
AcDbLine
 10
18.08203569688999
 20
-0.3107169012199904
 30
0.0
 11
18.08381018478999
 21
-0.3329617886199969
 31
0.0
  0
LINE
  5
383
330
2
100
AcDbEntity
  8
1
100
AcDbLine
 10
18.11631958633998
 20
-2.8526024473
 30
0.0
 11
18.11349558584999
 21
-2.815509202769987
 31
0.0
  0
LWPOLYLINE
  5
384
330
2
100
AcDbEntity
  8
1
100
AcDbPolyline
 90
        4
 70
     0
 43
0.0
 10
18.02772872923
 20
-1.648838608739993
 10
18.02958778506999
 20
-1.675381800389999
 10
18.02875743172001
 20
-1.711318147680003
 10
18.02474718019999
 20
-1.752314215039973
  0
LINE
  5
385
330
2
100
AcDbEntity
  8
1
100
AcDbLine
 10
18.11944763214998
 20
-2.566433196239984
 30
0.0
 11
18.10680648349
 21
-2.370602934249973
 31
0.0
  0
LINE
  5
386
330
2
100
AcDbEntity
  8
1
100
AcDbLine
 10
18.00590774112001
 20
2.447144107700012
 30
0.0
 11
17.99924104127998
 21
2.551734019210016
 31
0.0
  0
LINE
  5
387
330
2
100
AcDbEntity
  8
1
100
AcDbLine
 10
17.94361701213
 20
2.515799628180019
 30
0.0
 11
17.95647436856998
 21
2.286731082469998
 31
0.0
  0
LINE
  5
388
330
2
100
AcDbEntity
  8
1
100
AcDbLine
 10
18.13182467459998
 20
-2.797273391469985
 30
0.0
 11
18.11944763214998
 21
-2.566433196239984
 31
0.0
  0
LINE
  5
389
330
2
100
AcDbEntity
  8
1
100
AcDbLine
 10
18.02370523196001
 20
2.632774878740008
 30
0.0
 11
18.01852016977
 21
2.730505431630007
 31
0.0
  0
LINE
  5
38A
330
2
100
AcDbEntity
  8
1
100
AcDbLine
 10
18.09585817305
 20
-2.44297400021
 30
0.0
 11
18.09739329074
 21
-2.476160959099985
 31
0.0
  0
LINE
  5
38B
330
2
100
AcDbEntity
  8
1
100
AcDbLine
 10
18.00876539883001
 20
2.708486468680007
 30
0.0
 11
18.01395495265999
 21
2.595625102790023
 31
0.0
  0
LINE
  5
38C
330
2
100
AcDbEntity
  8
1
100
AcDbLine
 10
18.01894009636999
 20
2.70123125675002
 30
0.0
 11
18.01619923614001
 21
2.769309990350024
 31
0.0
  0
LINE
  5
38D
330
2
100
AcDbEntity
  8
1
100
AcDbLine
 10
18.14026332352
 20
-3.016937854519994
 30
0.0
 11
18.13182467459998
 21
-2.797273391469985
 31
0.0
  0
LINE
  5
38E
330
2
100
AcDbEntity
  8
1
100
AcDbLine
 10
18.09199835430999
 20
-3.328881818049978
 30
0.0
 11
18.09322197815001
 21
-3.360790968469984
 31
0.0
  0
LINE
  5
38F
330
2
100
AcDbEntity
  8
1
100
AcDbLine
 10
18.10404923990998
 20
-1.542246157529973
 30
0.0
 11
18.11351166080001
 21
-1.82593642498
 31
0.0
  0
LINE
  5
390
330
2
100
AcDbEntity
  8
1
100
AcDbLine
 10
18.03540944759999
 20
2.805355715719997
 30
0.0
 11
18.03120969699
 21
2.932382018480012
 31
0.0
  0
LINE
  5
391
330
2
100
AcDbEntity
  8
1
100
AcDbLine
 10
17.99381839841999
 20
2.454492713200011
 30
0.0
 11
18.00006723416001
 21
2.239376493520012
 31
0.0
  0
LWPOLYLINE
  5
392
330
2
100
AcDbEntity
  8
1
100
AcDbPolyline
 90
        4
 70
     0
 43
0.0
 10
18.08382545333998
 20
-2.432714903719983
 10
18.08389561658001
 20
-2.435870713809975
 10
18.08238481888
 20
-2.446592051089993
 10
18.07908190827001
 20
-2.464330281559995
  0
LINE
  5
393
330
2
100
AcDbEntity
  8
1
100
AcDbLine
 10
18.09370181557
 20
-3.375710409639992
 30
0.0
 11
18.09340798497999
 21
-3.360849241559975
 31
0.0
  0
LINE
  5
394
330
2
100
AcDbEntity
  8
1
100
AcDbLine
 10
18.11351166080001
 20
-1.82593642498
 30
0.0
 11
18.11594679660999
 21
-1.955713137700001
 31
0.0
  0
LINE
  5
395
330
2
100
AcDbEntity
  8
1
100
AcDbLine
 10
18.14412960213999
 20
-3.225505292529987
 30
0.0
 11
18.14026332352
 21
-3.016937854519994
 31
0.0
  0
LINE
  5
396
330
2
100
AcDbEntity
  8
1
100
AcDbLine
 10
18.10125441978999
 20
-1.383447120099987
 30
0.0
 11
18.10404923990998
 21
-1.542246157529973
 31
0.0
  0
LINE
  5
397
330
2
100
AcDbEntity
  8
1
100
AcDbLine
 10
18.00009649175999
 20
-2.215668661639995
 30
0.0
 11
17.99410737209999
 21
-1.87098855280999
 31
0.0
  0
LWPOLYLINE
  5
398
330
2
100
AcDbEntity
  8
1
100
AcDbPolyline
 90
        3
 70
     0
 43
0.0
 10
17.9442687936
 20
-1.996233302989992
 10
17.94703383821999
 20
-2.179430496899982
 10
17.95492880560999
 20
-2.35972240977
  0
LWPOLYLINE
  5
399
330
2
100
AcDbEntity
  8
1
100
AcDbPolyline
 90
        3
 70
     0
 43
0.0
 10
18.0193250433
 20
-2.202194094269998
 10
18.02119007089001
 20
-2.343380316419995
 10
18.02973747777
 20
-2.488519989609983
  0
LINE
  5
39A
330
2
100
AcDbEntity
  8
1
100
AcDbLine
 10
18.11594679660999
 20
-1.955713137700001
 30
0.0
 11
18.11709005126999
 21
-2.073994067969977
 31
0.0
  0
LINE
  5
39B
330
2
100
AcDbEntity
  8
1
100
AcDbLine
 10
18.09999291584998
 20
-1.21868791545998
 30
0.0
 11
18.10125441978999
 21
-1.383447120099987
 31
0.0
  0
LINE
  5
39C
330
2
100
AcDbEntity
  8
1
100
AcDbLine
 10
18.09370181559998
 20
1.441854413750007
 30
0.0
 11
18.09340798497999
 21
1.484214984670018
 31
0.0
  0
LWPOLYLINE
  5
39D
330
2
100
AcDbEntity
  8
1
100
AcDbPolyline
 90
        3
 70
     0
 43
0.0
 10
18.08381018495001
 20
2.226944203790026
 10
18.08389555803998
 20
2.213240013910024
 10
18.08238471421001
 20
2.206575544940022
  0
LWPOLYLINE
  5
39E
330
2
100
AcDbEntity
  8
1
100
AcDbPolyline
 90
        5
 70
     0
 43
0.0
 10
18.10021386841001
 20
-1.138316790689998
 10
18.10022552172
 20
-1.14090172278
 10
18.10021386841001
 20
-1.14351942383999
 10
18.10014391600001
 20
-1.14625618414999
 10
18.10002720473
 20
-1.149083846589974
  0
LWPOLYLINE
  5
39F
330
2
100
AcDbEntity
  8
1
100
AcDbPolyline
 90
        3
 70
     0
 43
0.0
 10
18.03466975698001
 20
-2.442471932800003
 10
18.03429112685001
 20
-2.320823494059993
 10
18.03820252080999
 20
-2.201075565819991
  0
LINE
  5
3A0
330
2
100
AcDbEntity
  8
1
100
AcDbLine
 10
18.08381018478999
 20
-0.3329617886199969
 30
0.0
 11
18.08389555798001
 21
-0.3602243809699814
 31
0.0
  0
LINE
  5
3A1
330
2
100
AcDbEntity
  8
1
100
AcDbLine
 10
18.02547504646
 20
2.967012229030018
 30
0.0
 11
18.02586341136001
 21
2.838438719570007
 31
0.0
  0
LWPOLYLINE
  5
3A2
330
2
100
AcDbEntity
  8
1
100
AcDbPolyline
 90
        3
 70
     0
 43
0.0
 10
18.14475966246999
 20
4.130355903030022
 10
18.1447961396
 20
4.105875667350005
 10
18.14432486299
 20
4.082164458670007
  0
LINE
  5
3A3
330
2
100
AcDbEntity
  8
1
100
AcDbLine
 10
18.14473368002999
 20
-3.444306203169986
 30
0.0
 11
18.14471213034
 21
-3.393788509689983
 31
0.0
  0
LINE
  5
3A4
330
2
100
AcDbEntity
  8
1
100
AcDbLine
 10
18.10021386841001
 20
-1.133016180959998
 30
0.0
 11
18.10021386841001
 21
-1.135678753809997
 31
0.0
  0
LINE
  5
3A5
330
2
100
AcDbEntity
  8
1
100
AcDbLine
 10
18.14309029450001
 20
-2.103737811209981
 30
0.0
 11
18.14309029450001
 21
1.009464727240015
 31
0.0
  0
LINE
  5
3A6
330
2
100
AcDbEntity
  8
1
100
AcDbLine
 10
18.14309029450001
 20
1.493864916960006
 30
0.0
 11
18.14309029450001
 21
2.10439822071001
 31
0.0
  0
LWPOLYLINE
  5
3A7
330
2
100
AcDbEntity
  8
1
100
AcDbPolyline
 90
        3
 70
     0
 43
0.0
 10
18.11057509911001
 20
2.103112081810024
 10
18.11057509911001
 20
2.087026601399998
 10
18.11035413586001
 20
2.07959568595001
  0
LWPOLYLINE
  5
3A8
330
2
100
AcDbEntity
  8
1
100
AcDbPolyline
 90
        4
 70
     0
 43
0.0
 10
18.09311638139999
 20
1.234437490120001
 10
18.09315578425
 20
1.275381995710006
 10
18.09276622254001
 20
1.316465378250001
 10
18.09275692170999
 20
1.357856126920012
  0
LWPOLYLINE
  5
3A9
330
2
100
AcDbEntity
  8
1
100
AcDbPolyline
 90
        5
 70
     0
 43
0.0
 10
18.14473367971999
 20
-3.243814346959993
 10
18.14471212974999
 20
-3.265425712439991
 10
18.14460723274999
 20
-3.286955225109977
 10
18.14460394592001
 20
-3.311955724439997
 10
18.14423460270001
 20
-3.339190633089998
  0
LINE
  5
3AA
330
2
100
AcDbEntity
  8
1
100
AcDbLine
 10
18.10002720473
 20
-1.149083846589974
 30
0.0
 11
18.09999291584998
 21
-1.21868791545998
 31
0.0
  0
LWPOLYLINE
  5
3AB
330
2
100
AcDbEntity
  8
1
100
AcDbPolyline
 90
        5
 70
     0
 43
0.0
 10
18.09311638139999
 20
-3.448313393699976
 10
18.09315578428001
 20
-3.43391793376
 10
18.09276622256999
 20
-3.419406928069975
 10
18.09275692168998
 20
-3.404896743119991
 10
18.09370181557
 20
-3.375710409639992
  0
LWPOLYLINE
  5
3AC
330
2
100
AcDbEntity
  8
1
100
AcDbPolyline
 90
        4
 70
     0
 43
0.0
 10
18.09311638139999
 20
4.211237719570021
 10
18.09315578424
 20
4.222147355080011
 10
18.09276622254001
 20
4.233027276080008
 10
18.09275692169999
 20
4.244097981360027
  0
LINE
  5
3AD
330
2
100
AcDbEntity
  8
1
100
AcDbLine
 10
18.14432486299
 20
4.082164458670007
 30
0.0
 11
18.14423461736999
 21
4.057219050870003
 31
0.0
  0
LINE
  5
3AE
330
2
100
AcDbEntity
  8
1
100
AcDbLine
 10
18.14441998834999
 20
1.256528542620003
 30
0.0
 11
18.14488307918
 21
1.428986557030015
 31
0.0
  0
LINE
  5
3AF
330
2
100
AcDbEntity
  8
1
100
AcDbLine
 10
18.14375291683998
 20
1.161798214110007
 30
0.0
 11
18.14441998834999
 21
1.256528542620003
 31
0.0
  0
LINE
  5
3B0
330
2
100
AcDbEntity
  8
1
100
AcDbLine
 10
18.11477173251998
 20
0.0152209901200138
 30
0.0
 11
18.11665697683
 21
0.2830141930900254
 31
0.0
  0
LINE
  5
3B1
330
2
100
AcDbEntity
  8
1
100
AcDbLine
 10
18.09081152030001
 20
0.9918739049700207
 30
0.0
 11
18.0929838376
 21
1.234444489379995
 31
0.0
  0
LINE
  5
3B2
330
2
100
AcDbEntity
  8
1
100
AcDbLine
 10
18.11652242429
 20
-2.129359681229999
 30
0.0
 11
18.11709005126999
 21
-2.073994067969977
 31
0.0
  0
LINE
  5
3B3
330
2
100
AcDbEntity
  8
1
100
AcDbLine
 10
18.09275692170999
 20
1.357856126920012
 30
0.0
 11
18.09370181559998
 21
1.441854413750007
 31
0.0
  0
LINE
  5
3B4
330
2
100
AcDbEntity
  8
1
100
AcDbLine
 10
18.10021386841001
 20
-1.133016180959998
 30
0.0
 11
18.11477173251998
 21
0.0152209901200138
 31
0.0
  0
LINE
  5
3B5
330
2
100
AcDbEntity
  8
1
100
AcDbLine
 10
18.14412961688001
 20
1.161794299800021
 30
0.0
 11
18.14026727840999
 21
0.903816700950017
 31
0.0
  0
LINE
  5
3B6
330
2
100
AcDbEntity
  8
1
100
AcDbLine
 10
18.11576226554999
 20
-2.179061305419992
 30
0.0
 11
18.11652242429
 21
-2.129359681229999
 31
0.0
  0
LINE
  5
3B7
330
2
100
AcDbEntity
  8
1
100
AcDbLine
 10
17.94818354979
 20
2.750349553730018
 30
0.0
 11
17.94361701213
 21
2.515799628180019
 31
0.0
  0
LWPOLYLINE
  5
3B8
330
2
100
AcDbEntity
  8
1
100
AcDbPolyline
 90
        3
 70
     0
 43
0.0
 10
17.94843978833
 20
-1.619277277879973
 10
17.9447194052
 20
-1.808741027019976
 10
17.9442687936
 20
-1.996233302989992
  0
LINE
  5
3B9
330
2
100
AcDbEntity
  8
1
100
AcDbLine
 10
17.99410737209999
 20
-1.87098855280999
 30
0.0
 11
18.00173628414001
 21
-1.511991072089983
 31
0.0
  0
LINE
  5
3BA
330
2
100
AcDbEntity
  8
1
100
AcDbLine
 10
18.10196650783999
 20
1.746290466060003
 30
0.0
 11
18.10842995045002
 21
2.015375540640008
 31
0.0
  0
LINE
  5
3BB
330
2
100
AcDbEntity
  8
1
100
AcDbLine
 10
18.10842995045002
 20
2.015375540640008
 30
0.0
 11
18.10998623703
 21
2.072539490150006
 31
0.0
  0
LINE
  5
3BC
330
2
100
AcDbEntity
  8
1
100
AcDbLine
 10
18.11078264943998
 20
2.110301389270006
 30
0.0
 11
18.11057509911001
 21
2.103112081810024
 31
0.0
  0
LWPOLYLINE
  5
3BD
330
2
100
AcDbEntity
  8
1
100
AcDbPolyline
 90
        4
 70
     0
 43
0.0
 10
18.09307586807
 20
4.211224757060023
 10
18.09092765123
 20
4.139058303310008
 10
18.08480702994998
 20
4.055090481900009
 10
18.07523494013
 20
3.959272662830016
  0
LWPOLYLINE
  5
3BE
330
2
100
AcDbEntity
  8
1
100
AcDbPolyline
 90
        3
 70
     0
 43
0.0
 10
18.14026727840999
 20
0.903816700950017
 10
18.13183099807
 20
0.6427950353800043
 10
18.11945435225999
 20
0.3790167483700202
  0
LINE
  5
3BF
330
2
100
AcDbEntity
  8
1
100
AcDbLine
 10
18.02390867942
 20
-2.064188165709992
 30
0.0
 11
18.0193250433
 21
-2.202194094269998
 31
0.0
  0
LINE
  5
3C0
330
2
100
AcDbEntity
  8
1
100
AcDbLine
 10
18.11112711401
 20
2.116912567510013
 30
0.0
 11
18.11709005099999
 21
2.305935758610019
 31
0.0
  0
LINE
  5
3C1
330
2
100
AcDbEntity
  8
1
100
AcDbLine
 10
17.95506854730999
 20
-1.429171058349993
 30
0.0
 11
17.94843978833
 21
-1.619277277879973
 31
0.0
  0
LINE
  5
3C2
330
2
100
AcDbEntity
  8
1
100
AcDbLine
 10
18.00185476020999
 20
2.676253882190025
 30
0.0
 11
17.99381839841999
 21
2.454492713200011
 31
0.0
  0
LINE
  5
3C3
330
2
100
AcDbEntity
  8
1
100
AcDbLine
 10
18.09275692169999
 20
4.244097981360027
 30
0.0
 11
18.09370181559001
 21
4.266825444790015
 31
0.0
  0
LINE
  5
3C4
330
2
100
AcDbEntity
  8
1
100
AcDbLine
 10
18.00173628414001
 20
-1.511991072089983
 30
0.0
 11
18.01797321999001
 21
-1.149316593399987
 31
0.0
  0
LINE
  5
3C5
330
2
100
AcDbEntity
  8
1
100
AcDbLine
 10
17.96402759189999
 20
-1.238274616360001
 30
0.0
 11
17.95506854730999
 21
-1.429171058349993
 31
0.0
  0
LINE
  5
3C6
330
2
100
AcDbEntity
  8
1
100
AcDbLine
 10
18.14412961688001
 20
4.05718282745002
 30
0.0
 11
18.14026727840999
 21
3.977681624030026
 31
0.0
  0
LINE
  5
3C7
330
2
100
AcDbEntity
  8
1
100
AcDbLine
 10
18.11112711401
 20
2.116912567510013
 30
0.0
 11
18.11078264943998
 21
2.110301389270006
 31
0.0
  0
LINE
  5
3C8
330
2
100
AcDbEntity
  8
1
100
AcDbLine
 10
18.11035413586001
 20
2.07959568595001
 30
0.0
 11
18.10998422880999
 21
2.072566488690029
 31
0.0
  0
LWPOLYLINE
  5
3C9
330
2
100
AcDbEntity
  8
1
100
AcDbPolyline
 90
        3
 70
     0
 43
0.0
 10
18.08389555798001
 20
-0.3602243809699814
 10
18.08238471421001
 20
-0.388355723839993
 10
18.07908166238999
 20
-0.4149064362399884
  0
LINE
  5
3CA
330
2
100
AcDbEntity
  8
1
100
AcDbLine
 10
17.97527156051998
 20
-1.04176013724998
 30
0.0
 11
17.96402759189999
 21
-1.238274616360001
 31
0.0
  0
LINE
  5
3CB
330
2
100
AcDbEntity
  8
1
100
AcDbLine
 10
18.11945435225999
 20
0.3790167483700202
 30
0.0
 11
18.10397429698
 21
0.1153446472700068
 31
0.0
  0
LWPOLYLINE
  5
3CC
330
2
100
AcDbEntity
  8
1
100
AcDbPolyline
 90
        5
 70
     0
 43
0.0
 10
18.04709945427999
 20
0.0014149411200037
 10
18.06209700609
 20
0.2491128734200174
 10
18.07482966378001
 20
0.4980909607200204
 10
18.08460159368999
 20
0.7463443339900096
 10
18.09081152030001
 20
0.9918739049700207
  0
LINE
  5
3CD
330
2
100
AcDbEntity
  8
1
100
AcDbLine
 10
18.01797321999001
 20
-1.149316593399987
 30
0.0
 11
18.04064854627
 21
-0.7786931950399776
 31
0.0
  0
LINE
  5
3CE
330
2
100
AcDbEntity
  8
1
100
AcDbLine
 10
17.98818544758998
 20
-0.8417631825299736
 30
0.0
 11
17.97527156051998
 21
-1.04176013724998
 31
0.0
  0
LINE
  5
3CF
330
2
100
AcDbEntity
  8
1
100
AcDbLine
 10
18.10397429698
 20
0.1153446472700068
 30
0.0
 11
18.08635728921999
 21
-0.1453765191999992
 31
0.0
  0
LINE
  5
3D0
330
2
100
AcDbEntity
  8
1
100
AcDbLine
 10
18.04709945427999
 20
0.0014149411200037
 30
0.0
 11
18.02829332185999
 21
-0.2782948489799821
 31
0.0
  0
LINE
  5
3D1
330
2
100
AcDbEntity
  8
1
100
AcDbLine
 10
18.02829332185999
 20
-0.2782948489799821
 30
0.0
 11
17.98818544758998
 21
-0.8417631825299736
 31
0.0
  0
LINE
  5
3D2
330
2
100
AcDbEntity
  8
1
100
AcDbLine
 10
18.08635728921999
 20
-0.1453765191999992
 30
0.0
 11
18.04064854627
 21
-0.7786931950399776
 31
0.0
  0
LWPOLYLINE
  5
3D3
330
2
100
AcDbEntity
  8
1
100
AcDbPolyline
 90
        3
 70
     0
 43
0.0
 10
18.07579314413999
 20
-0.277530083399995
 10
18.07940101078
 20
-0.2918453771000031
 10
18.08203569688999
 20
-0.3107169012199904
  0
LINE
  5
3D4
330
2
100
AcDbEntity
  8
1
100
AcDbLine
 10
18.03314358905001
 20
2.708310370090003
 30
0.0
 11
18.04757633041998
 21
2.576151800120015
 31
0.0
  0
LINE
  5
3D5
330
2
100
AcDbEntity
  8
1
100
AcDbLine
 10
18.08203569688001
 20
2.244614115830017
 30
0.0
 11
18.08381018495001
 21
2.226944203790026
 31
0.0
  0
LINE
  5
3D6
330
2
100
AcDbEntity
  8
1
100
AcDbLine
 10
18.01395495265999
 20
2.595625102790023
 30
0.0
 11
18.02477778183001
 21
2.482588538270022
 31
0.0
  0
LINE
  5
3D7
330
2
100
AcDbEntity
  8
1
100
AcDbLine
 10
18.02803836893
 20
2.58706647208001
 30
0.0
 11
18.02370523196001
 21
2.632774878740008
 31
0.0
  0
LINE
  5
3D8
330
2
100
AcDbEntity
  8
1
100
AcDbLine
 10
18.04500929552
 20
2.788627819150008
 30
0.0
 11
18.05494334715999
 21
2.681049513820028
 31
0.0
  0
LINE
  5
3D9
330
2
100
AcDbEntity
  8
1
100
AcDbLine
 10
18.07474379441001
 20
2.543084598180001
 30
0.0
 11
18.07494312627
 21
2.540920381500001
 31
0.0
  0
LINE
  5
3DA
330
2
100
AcDbEntity
  8
1
100
AcDbLine
 10
18.04609469267998
 20
2.676225507189997
 30
0.0
 11
18.03540944759999
 21
2.805355715719997
 31
0.0
  0
LINE
  5
3DB
330
2
100
AcDbEntity
  8
1
100
AcDbLine
 10
18.02370462280001
 20
2.632774809280022
 30
0.0
 11
18.01894009636999
 21
2.70123125675002
 31
0.0
  0
LINE
  5
3DC
330
2
100
AcDbEntity
  8
1
100
AcDbLine
 10
18.02586341136001
 20
2.838438719570007
 30
0.0
 11
18.03314358905001
 21
2.708310370090003
 31
0.0
  0
LINE
  5
3DD
330
2
100
AcDbEntity
  8
1
100
AcDbLine
 10
18.0392900642
 20
2.895213191380008
 30
0.0
 11
18.04500929552
 21
2.788627819150008
 31
0.0
  0
LINE
  5
3DE
330
2
100
AcDbEntity
  8
1
100
AcDbLine
 10
18.11605231576999
 20
2.334235608150009
 30
0.0
 11
18.11709005099999
 21
2.305935758610019
 31
0.0
  0
LWPOLYLINE
  5
3DF
330
2
100
AcDbEntity
  8
1
100
AcDbPolyline
 90
        4
 70
     0
 43
0.0
 10
18.14488307918
 20
1.428986557030015
 10
18.14273286230999
 20
1.506799886050004
 10
18.13621690489
 20
1.580202177490008
 10
18.12620699838999
 20
1.646285734370025
  0
LINE
  5
3E0
330
2
100
AcDbEntity
  8
1
100
AcDbLine
 10
18.09370181559001
 20
4.266825444790015
 30
0.0
 11
18.09340798497999
 21
4.278144548690022
 31
0.0
  0
LINE
  5
3E1
330
2
100
AcDbEntity
  8
1
100
AcDbLine
 10
18.11477173111999
 20
-2.223378005969976
 30
0.0
 11
18.11576226554999
 21
-2.179061305419992
 31
0.0
  0
LWPOLYLINE
  5
3E2
330
2
100
AcDbEntity
  8
1
100
AcDbPolyline
 90
        4
 70
     0
 43
0.0
 10
18.09307586807
 20
-3.448302042409977
 10
18.09092765129
 20
-3.529069821809997
 10
18.08480703001001
 20
-3.597451837189993
 10
18.07523493988
 20
-3.653272550109988
  0
LINE
  5
3E3
330
2
100
AcDbEntity
  8
1
100
AcDbLine
 10
18.11363154552001
 20
-2.262067986849984
 30
0.0
 11
18.11477173111999
 21
-2.223378005969976
 31
0.0
  0
LINE
  5
3E4
330
2
100
AcDbEntity
  8
1
100
AcDbLine
 10
18.14310254545
 20
-3.491356427949995
 30
0.0
 11
18.14473368002999
 21
-3.444306203169986
 31
0.0
  0
LINE
  5
3E5
330
2
100
AcDbEntity
  8
1
100
AcDbLine
 10
18.11242811830999
 20
-2.294905829849994
 30
0.0
 11
18.11363154552001
 21
-2.262067986849984
 31
0.0
  0
LINE
  5
3E6
330
2
100
AcDbEntity
  8
1
100
AcDbLine
 10
18.11112711206999
 20
-2.322209899919982
 30
0.0
 11
18.11242811830999
 21
-2.294905829849994
 31
0.0
  0
LINE
  5
3E7
330
2
100
AcDbEntity
  8
1
100
AcDbLine
 10
18.14412960213999
 20
-3.339154493729978
 30
0.0
 11
18.14026332352
 21
-3.419102665919979
 31
0.0
  0
LWPOLYLINE
  5
3E8
330
2
100
AcDbEntity
  8
1
100
AcDbPolyline
 90
        4
 70
     0
 43
0.0
 10
18.04544951641
 20
-2.402010057129984
 10
18.04440093803001
 20
-2.422024670349998
 10
18.04345585184001
 20
-2.441999385679991
 10
18.04261183150998
 20
-2.461944086549976
  0
LINE
  5
3E9
330
2
100
AcDbEntity
  8
1
100
AcDbLine
 10
18.11039219740999
 20
-2.33590613843998
 30
0.0
 11
18.11112711206999
 21
-2.322209899919982
 31
0.0
  0
LINE
  5
3EA
330
2
100
AcDbEntity
  8
1
100
AcDbLine
 10
18.04660304095
 20
-2.38195877228
 30
0.0
 11
18.04544951641
 21
-2.402010057129984
 31
0.0
  0
LINE
  5
3EB
330
2
100
AcDbEntity
  8
1
100
AcDbLine
 10
18.04782164818999
 20
-2.362506001589991
 30
0.0
 11
18.04660304095
 21
-2.38195877228
 31
0.0
  0
LINE
  5
3EC
330
2
100
AcDbEntity
  8
1
100
AcDbLine
 10
18.03820252080999
 20
-2.201075565819991
 30
0.0
 11
18.04641188803001
 21
-2.083146497169991
 31
0.0
  0
LWPOLYLINE
  5
3ED
330
2
100
AcDbEntity
  8
1
100
AcDbPolyline
 90
        3
 70
     0
 43
0.0
 10
18.07462748038
 20
-2.20394511134998
 10
18.07237698752001
 20
-2.234836227610003
 10
18.06817045957999
 20
-2.270011802819993
  0
LINE
  5
3EE
330
2
100
AcDbEntity
  8
1
100
AcDbLine
 10
18.04936650047
 20
-2.046680272489993
 30
0.0
 11
18.04642933897
 21
-2.083147959519976
 31
0.0
  0
LWPOLYLINE
  5
3EF
330
2
100
AcDbEntity
  8
1
100
AcDbPolyline
 90
        3
 70
     0
 43
0.0
 10
18.10876328128
 20
-2.35765878526999
 10
18.10960692251999
 20
-2.347702856309979
 10
18.11039219740999
 20
-2.33590613843998
  0
LWPOLYLINE
  5
3F0
330
2
100
AcDbEntity
  8
1
100
AcDbPolyline
 90
        6
 70
     0
 43
0.0
 10
18.05535058258999
 20
-2.265936662960001
 10
18.05365275509999
 20
-2.285173415429994
 10
18.05205101944
 20
-2.304446734499975
 10
18.05054546623998
 20
-2.32375330264
 10
18.04913576848
 20
-2.343103074089981
 10
18.04782164818999
 20
-2.362506001589991
  0
LWPOLYLINE
  5
3F1
330
2
100
AcDbEntity
  8
1
100
AcDbPolyline
 90
        3
 70
     0
 43
0.0
 10
18.02390266064
 20
-2.064187448819978
 10
18.02718950847
 20
-2.027796318299976
 10
18.03200694563
 20
-1.997386603749987
  0
LWPOLYLINE
  5
3F2
330
2
100
AcDbEntity
  8
1
100
AcDbPolyline
 90
        6
 70
     0
 43
0.0
 10
18.05494334658999
 20
-2.387822499159995
 10
18.05666186502
 20
-2.370554010189977
 10
18.05845850193
 20
-2.353314157559992
 10
18.06033271889001
 20
-2.336102298689979
 10
18.06228449549999
 20
-2.318919538659997
 10
18.06431391947001
 20
-2.301766965499979
  0
LWPOLYLINE
  5
3F3
330
2
100
AcDbEntity
  8
1
100
AcDbPolyline
 90
        3
 70
     0
 43
0.0
 10
18.06817045957999
 20
-2.270011802819993
 10
18.06791014313998
 20
-2.272461940049993
 10
18.06763256385
 20
-2.274918687259997
  0
LWPOLYLINE
  5
3F4
330
2
100
AcDbEntity
  8
1
100
AcDbPolyline
 90
        3
 70
     0
 43
0.0
 10
18.05534884967
 20
-2.26593567063
 10
18.05931525753999
 20
-2.230835201699989
 10
18.06376370249998
 20
-2.201180424609987
  0
LINE
  5
3F5
330
2
100
AcDbEntity
  8
1
100
AcDbLine
 10
18.06341815658999
 20
-2.417612208629975
 30
0.0
 11
18.04609475796999
 21
-2.567866756130001
 31
0.0
  0
LWPOLYLINE
  5
3F6
330
2
100
AcDbEntity
  8
1
100
AcDbPolyline
 90
        4
 70
     0
 43
0.0
 10
18.05266112641999
 20
-1.26276883174998
 10
18.04771000690999
 20
-1.304700230659989
 10
18.04031929672001
 20
-1.343275938529984
 10
18.03226627500001
 20
-1.372798607559985
  0
LINE
  5
3F7
330
2
100
AcDbEntity
  8
1
100
AcDbLine
 10
18.06763256385
 20
-2.274918687259997
 30
0.0
 11
18.06431391947001
 21
-2.301766965499979
 31
0.0
  0
LINE
  5
3F8
330
2
100
AcDbEntity
  8
1
100
AcDbLine
 10
18.08050515876999
 20
-2.364219934839979
 30
0.0
 11
18.07586458493
 21
-2.398594599159991
 31
0.0
  0
LINE
  5
3F9
330
2
100
AcDbEntity
  8
1
100
AcDbLine
 10
18.02474718019999
 20
-1.752314215039973
 30
0.0
 11
18.018854551
 21
-1.790390513089988
 31
0.0
  0
LINE
  5
3FA
330
2
100
AcDbEntity
  8
1
100
AcDbLine
 10
18.00082035981998
 20
-1.555092174899982
 30
0.0
 11
18.00843194430999
 21
-1.511275635819998
 31
0.0
  0
LINE
  5
3FB
330
2
100
AcDbEntity
  8
1
100
AcDbLine
 10
18.07908166238999
 20
-0.4149064362399884
 30
0.0
 11
18.07458867444998
 21
-0.4375992630799886
 31
0.0
  0
LINE
  5
3FC
330
2
100
AcDbEntity
  8
1
100
AcDbLine
 10
18.00843194430999
 20
-1.511275635819998
 30
0.0
 11
18.02755579230998
 21
-1.417046473739986
 31
0.0
  0
LINE
  5
3FD
330
2
100
AcDbEntity
  8
1
100
AcDbLine
 10
18.018854551
 20
-1.790390513089988
 30
0.0
 11
18.01259164337
 21
-1.819361521179985
 31
0.0
  0
LINE
  5
3FE
330
2
100
AcDbEntity
  8
1
100
AcDbLine
 10
18.02755579230998
 20
-1.417046473739986
 30
0.0
 11
18.04924662112
 21
-1.322479113409997
 31
0.0
  0
LINE
  5
3FF
330
2
100
AcDbEntity
  8
1
100
AcDbLine
 10
18.04924662112
 20
-1.322479113409997
 30
0.0
 11
18.07346663043
 21
-1.227784080189991
 31
0.0
  0
LINE
  5
400
330
2
100
AcDbEntity
  8
1
100
AcDbLine
 10
18.07458867444998
 20
-0.4375992630799886
 30
0.0
 11
18.06953345079
 21
-0.454688832239981
 31
0.0
  0
LINE
  5
401
330
2
100
AcDbEntity
  8
1
100
AcDbLine
 10
18.06953345079
 20
-0.454688832239981
 30
0.0
 11
18.06383240495998
 21
-0.4642120188799766
 31
0.0
  0
LINE
  5
402
330
2
100
AcDbEntity
  8
1
100
AcDbLine
 10
18.01622337372001
 20
-0.4454664856299928
 30
0.0
 11
18.06741212598999
 21
-0.4028173048699842
 31
0.0
  0
LWPOLYLINE
  5
403
330
2
100
AcDbEntity
  8
1
100
AcDbPolyline
 90
        6
 70
     0
 43
0.0
 10
18.04798031692999
 20
1.866846661350024
 10
18.03898761652999
 20
1.900595255010017
 10
18.02949841091001
 20
1.934453026620019
 10
18.02004173200001
 20
1.96854478401002
 10
18.01082725846001
 20
2.002932708670016
 10
18.00183959502999
 20
2.037624290570022
  0
LWPOLYLINE
  5
404
330
2
100
AcDbEntity
  8
1
100
AcDbPolyline
 90
        3
 70
     0
 43
0.0
 10
18.06484586035
 20
1.881181172440022
 10
18.052553681
 20
1.928366809460015
 10
18.04006993133001
 20
1.979083430950026
  0
LINE
  5
405
330
2
100
AcDbEntity
  8
1
100
AcDbLine
 10
18.00183959502999
 20
2.037624290570022
 30
0.0
 11
17.99310150789
 21
2.072621318110009
 31
0.0
  0
LWPOLYLINE
  5
406
330
2
100
AcDbEntity
  8
1
100
AcDbPolyline
 90
        7
 70
     0
 43
0.0
 10
18.04803517530999
 20
1.866866730800012
 10
18.06005836508998
 20
1.818108208900014
 10
18.07096044722999
 20
1.761158219880002
 10
18.08024383857
 20
1.698800368820002
 10
18.08745820505999
 20
1.631494151550015
 10
18.09199835427
 20
1.559210878370009
 10
18.09322197815001
 20
1.484208118550014
  0
LINE
  5
407
330
2
100
AcDbEntity
  8
1
100
AcDbLine
 10
18.12620699838999
 20
1.646285734370025
 30
0.0
 11
18.11389728453
 21
1.701031021380003
 31
0.0
  0
LINE
  5
408
330
2
100
AcDbEntity
  8
1
100
AcDbLine
 10
18.04006993133001
 20
1.979083430950026
 30
0.0
 11
18.02830497183001
 21
2.032946308110012
 31
0.0
  0
LINE
  5
409
330
2
100
AcDbEntity
  8
1
100
AcDbLine
 10
18.04876335861999
 20
2.03110154894
 30
0.0
 11
18.02688253899001
 21
2.134781731480018
 31
0.0
  0
LINE
  5
40A
330
2
100
AcDbEntity
  8
1
100
AcDbLine
 10
18.05538406024999
 20
2.135496793700013
 30
0.0
 11
18.03399194208001
 21
2.238867084290006
 31
0.0
  0
LINE
  5
40B
330
2
100
AcDbEntity
  8
1
100
AcDbLine
 10
18.04137555451999
 20
2.368965757420028
 30
0.0
 11
18.06381239974999
 21
2.255167340430006
 31
0.0
  0
LWPOLYLINE
  5
40C
330
2
100
AcDbEntity
  8
1
100
AcDbPolyline
 90
        3
 70
     0
 43
0.0
 10
18.06320906076999
 20
2.358656914340002
 10
18.05437510005998
 20
2.40427340266001
 10
18.04643995521999
 20
2.449937709970015
  0
LINE
  5
40D
330
2
100
AcDbEntity
  8
1
100
AcDbLine
 10
18.09020309246
 20
2.440938862370018
 30
0.0
 11
18.08238959027
 21
2.486690839430025
 31
0.0
  0
LINE
  5
40E
330
2
100
AcDbEntity
  8
1
100
AcDbLine
 10
18.07165886049
 20
2.313950811470022
 30
0.0
 11
18.07579314398001
 21
2.28960014490002
 31
0.0
  0
LINE
  5
40F
330
2
100
AcDbEntity
  8
1
100
AcDbLine
 10
17.95647436856998
 20
2.286731082469998
 30
0.0
 11
17.99273567159
 21
2.072545906310011
 31
0.0
  0
LINE
  5
410
330
2
100
AcDbEntity
  8
1
100
AcDbLine
 10
18.06340995009
 20
2.545682278440011
 30
0.0
 11
18.06944220424
 21
2.509138583620028
 31
0.0
  0
LINE
  5
411
330
2
100
AcDbEntity
  8
1
100
AcDbLine
 10
18.04757633041998
 20
2.576151800120015
 30
0.0
 11
18.06932483244
 21
2.442681113649996
 31
0.0
  0
LINE
  5
412
330
2
100
AcDbEntity
  8
1
100
AcDbLine
 10
18.02688253899001
 20
2.134781731480018
 30
0.0
 11
18.01001356290001
 21
2.238650134350024
 31
0.0
  0
LINE
  5
413
330
2
100
AcDbEntity
  8
1
100
AcDbLine
 10
18.03399194208001
 20
2.238867084290006
 30
0.0
 11
18.0174937804
 21
2.342794659590026
 31
0.0
  0
LINE
  5
414
330
2
100
AcDbEntity
  8
1
100
AcDbLine
 10
18.08238959027
 20
2.486690839430025
 30
0.0
 11
18.07514434418999
 21
2.532751161640021
 31
0.0
  0
LINE
  5
415
330
2
100
AcDbEntity
  8
1
100
AcDbLine
 10
18.07722127081999
 20
2.532774929449999
 30
0.0
 11
18.07543009791001
 21
2.544327852990022
 31
0.0
  0
LINE
  5
416
330
2
100
AcDbEntity
  8
1
100
AcDbLine
 10
18.04643995521999
 20
2.449937709970015
 30
0.0
 11
18.03940585251999
 21
2.495634120630029
 31
0.0
  0
LWPOLYLINE
  5
417
330
2
100
AcDbEntity
  8
1
100
AcDbPolyline
 90
        6
 70
     0
 43
0.0
 10
18.06375006938
 20
2.100036301960017
 10
18.06978774792
 20
2.060587069530015
 10
18.07339827039999
 20
2.023979212420016
 10
18.07398269531998
 20
1.996642049800016
 10
18.07073406111001
 20
1.983631294079998
 10
18.06722688401001
 20
1.98345230676
  0
LWPOLYLINE
  5
418
330
2
100
AcDbEntity
  8
1
100
AcDbPolyline
 90
        3
 70
     0
 43
0.0
 10
18.07579314398001
 20
2.28960014490002
 10
18.07940101068001
 20
2.265894140420016
 10
18.08203569688001
 20
2.244614115830017
  0
LINE
  5
419
330
2
100
AcDbEntity
  8
1
100
AcDbLine
 10
18.06733307751
 20
2.584979903670017
 30
0.0
 11
18.06702586405998
 21
2.587057820050006
 31
0.0
  0
LINE
  5
41A
330
2
100
AcDbEntity
  8
1
100
AcDbLine
 10
18.02477778183001
 20
2.482588538270022
 30
0.0
 11
18.04137555451999
 21
2.368965757420028
 31
0.0
  0
LINE
  5
41B
330
2
100
AcDbEntity
  8
1
100
AcDbLine
 10
18.07514434418999
 20
2.532751161640021
 30
0.0
 11
18.0728721941
 21
2.557745699070011
 31
0.0
  0
LINE
  5
41C
330
2
100
AcDbEntity
  8
1
100
AcDbLine
 10
18.06431391895
 20
2.60615354890001
 30
0.0
 11
18.06642057732
 21
2.591236001920009
 31
0.0
  0
LINE
  5
41D
330
2
100
AcDbEntity
  8
1
100
AcDbLine
 10
18.06944220424
 20
2.509138583620028
 30
0.0
 11
18.0800862591
 21
2.433215184320005
 31
0.0
  0
LINE
  5
41E
330
2
100
AcDbEntity
  8
1
100
AcDbLine
 10
18.0728721941
 20
2.557745699070011
 30
0.0
 11
18.06763256746001
 21
2.582934005470008
 31
0.0
  0
LINE
  5
41F
330
2
100
AcDbEntity
  8
1
100
AcDbLine
 10
18.11499143722
 20
2.341887314390021
 30
0.0
 11
18.11605231576999
 21
2.334235608150009
 31
0.0
  0
LINE
  5
420
330
2
100
AcDbEntity
  8
1
100
AcDbLine
 10
18.00006723416001
 20
2.239376493520012
 30
0.0
 11
18.02834969729
 21
2.033024808850029
 31
0.0
  0
LINE
  5
421
330
2
100
AcDbEntity
  8
1
100
AcDbLine
 10
18.06817070163001
 20
2.579009161510015
 30
0.0
 11
18.06791023752001
 21
2.58094608905003
 31
0.0
  0
LWPOLYLINE
  5
422
330
2
100
AcDbEntity
  8
1
100
AcDbPolyline
 90
        3
 70
     0
 43
0.0
 10
18.03940585251999
 20
2.495634120630029
 10
18.03327222914998
 20
2.541348344990012
 10
18.02803836893
 20
2.58706647208001
  0
LINE
  5
423
330
2
100
AcDbEntity
  8
1
100
AcDbLine
 10
18.06341815780999
 20
2.545682895640027
 30
0.0
 11
18.04609469267998
 21
2.676225507189997
 31
0.0
  0
LWPOLYLINE
  5
424
330
2
100
AcDbEntity
  8
1
100
AcDbPolyline
 90
        3
 70
     0
 43
0.0
 10
18.06033271838001
 20
2.636044186700019
 10
18.06228449488
 20
2.621090212930027
 10
18.06431391895
 20
2.60615354890001
  0
LINE
  5
425
330
2
100
AcDbEntity
  8
1
100
AcDbLine
 10
18.0728721941
 20
2.557745699070011
 30
0.0
 11
18.07474379441001
 21
2.543084598180001
 31
0.0
  0
LINE
  5
426
330
2
100
AcDbEntity
  8
1
100
AcDbLine
 10
18.05845850167
 20
2.651020054360003
 30
0.0
 11
18.06033271838001
 21
2.636044186700019
 31
0.0
  0
LWPOLYLINE
  5
427
330
2
100
AcDbEntity
  8
1
100
AcDbPolyline
 90
        3
 70
     0
 43
0.0
 10
18.0800862591
 20
2.433215184320005
 10
18.083299278
 20
2.406130441790025
 10
18.08314594384998
 20
2.39383232998
  0
LWPOLYLINE
  5
428
330
2
100
AcDbEntity
  8
1
100
AcDbPolyline
 90
        3
 70
     0
 43
0.0
 10
18.05494334715999
 20
2.681049513820028
 10
18.05666186510999
 20
2.666022432480019
 10
18.05845850167
 20
2.651020054360003
  0
LINE
  5
429
330
2
100
AcDbEntity
  8
1
100
AcDbLine
 10
18.01001356290001
 20
2.238650134350024
 30
0.0
 11
17.99813808894001
 21
2.342608010700018
 31
0.0
  0
LINE
  5
42A
330
2
100
AcDbEntity
  8
1
100
AcDbLine
 10
18.0174937804
 20
2.342794659590026
 30
0.0
 11
18.00590774112001
 21
2.447144107700012
 31
0.0
  0
LINE
  5
42B
330
2
100
AcDbEntity
  8
1
100
AcDbLine
 10
18.14296688803
 20
4.148033450800028
 30
0.0
 11
18.14475966246999
 21
4.130355903030022
 31
0.0
  0
LINE
  5
42C
330
2
100
AcDbEntity
  8
1
100
AcDbLine
 10
18.13870919826999
 20
-3.532188283839985
 30
0.0
 11
18.14310254545
 21
-3.491356427949995
 31
0.0
  0
LWPOLYLINE
  5
42D
330
2
100
AcDbEntity
  8
1
100
AcDbPolyline
 90
        3
 70
     0
 43
0.0
 10
18.14026332352
 20
-3.419102665919979
 10
18.13182467459998
 20
-3.48602194180998
 10
18.11944763214998
 20
-3.539318593220002
  0
LWPOLYLINE
  5
42E
330
2
100
AcDbEntity
  8
1
100
AcDbPolyline
 90
        3
 70
     0
 43
0.0
 10
18.06340995165999
 20
-2.417611049379985
 10
18.06944220215999
 20
-2.380228955099994
 10
18.07497037949
 20
-2.349867803919977
  0
LINE
  5
42F
330
2
100
AcDbEntity
  8
1
100
AcDbLine
 10
18.07586458493
 20
-2.398594599159991
 30
0.0
 11
18.06931506921
 21
-2.436107701949993
 31
0.0
  0
LINE
  5
430
330
2
100
AcDbEntity
  8
1
100
AcDbLine
 10
18.06317710695001
 20
-2.524299244539975
 30
0.0
 11
18.06747002402
 21
-2.50135675381
 31
0.0
  0
LINE
  5
431
330
2
100
AcDbEntity
  8
1
100
AcDbLine
 10
18.07908190827001
 20
-2.464330281559995
 30
0.0
 11
18.06953255202998
 21
-2.513989710659984
 31
0.0
  0
LINE
  5
432
330
2
100
AcDbEntity
  8
1
100
AcDbLine
 10
18.06747002402
 20
-2.50135675381
 30
0.0
 11
18.07165886004
 21
-2.479969662879994
 31
0.0
  0
LINE
  5
433
330
2
100
AcDbEntity
  8
1
100
AcDbLine
 10
18.0682172804
 20
-2.270019803159982
 30
0.0
 11
18.07468616482001
 21
-2.237057405809991
 31
0.0
  0
LWPOLYLINE
  5
434
330
2
100
AcDbEntity
  8
1
100
AcDbPolyline
 90
        5
 70
     0
 43
0.0
 10
17.99310150789
 20
-2.714043398729984
 10
17.99853611441
 20
-2.686552660990003
 10
18.00419206908
 20
-2.65922574600998
 10
18.01013019932
 20
-2.63214817911998
 10
18.02827171862
 20
-2.55021567788998
  0
LWPOLYLINE
  5
435
330
2
100
AcDbEntity
  8
1
100
AcDbPolyline
 90
        4
 70
     0
 43
0.0
 10
18.10604072544001
 20
-2.376176776249991
 10
18.10697424788
 20
-2.371879888449996
 10
18.10787937825
 20
-2.36572999034999
 10
18.10876328128
 20
-2.35765878526999
  0
LINE
  5
436
330
2
100
AcDbEntity
  8
1
100
AcDbLine
 10
18.07165886004
 20
-2.479969662879994
 30
0.0
 11
18.07579314371
 21
-2.461123170949974
 31
0.0
  0
LINE
  5
437
330
2
100
AcDbEntity
  8
1
100
AcDbLine
 10
18.08376559473001
 20
-2.432781150949978
 30
0.0
 11
18.08801343738
 21
-2.414221529339982
 31
0.0
  0
LWPOLYLINE
  5
438
330
2
100
AcDbEntity
  8
1
100
AcDbPolyline
 90
        5
 70
     0
 43
0.0
 10
18.08801343738
 20
-2.414221529339982
 10
18.09238676477
 20
-2.395709028959998
 10
18.09688427762
 20
-2.377247876219996
 10
18.10150812282998
 20
-2.358828361389981
 10
18.10626074044001
 20
-2.340440840079992
  0
LINE
  5
439
330
2
100
AcDbEntity
  8
1
100
AcDbLine
 10
18.07579314371
 20
-2.461123170949974
 30
0.0
 11
18.07940101026
 21
-2.446264504269976
 31
0.0
  0
LINE
  5
43A
330
2
100
AcDbEntity
  8
1
100
AcDbLine
 10
18.06376370249998
 20
-2.201180424609987
 30
0.0
 11
18.06878277811
 21
-2.180517435389987
 31
0.0
  0
LINE
  5
43B
330
2
100
AcDbEntity
  8
1
100
AcDbLine
 10
18.09100605955999
 20
-2.434577083919975
 30
0.0
 11
18.10601519843999
 21
-2.376233699609997
 31
0.0
  0
LINE
  5
43C
330
2
100
AcDbEntity
  8
1
100
AcDbLine
 10
18.08963704689998
 20
-2.171467966279976
 30
0.0
 11
18.09811911648998
 21
-2.138846515329987
 31
0.0
  0
LINE
  5
43D
330
2
100
AcDbEntity
  8
1
100
AcDbLine
 10
18.07497037949
 20
-2.349867803919977
 30
0.0
 11
18.08008625579001
 21
-2.330548430059991
 31
0.0
  0
LINE
  5
43E
330
2
100
AcDbEntity
  8
1
100
AcDbLine
 10
18.10626074044001
 20
-2.340440840079992
 30
0.0
 11
18.1111411251
 21
-2.322089597889998
 31
0.0
  0
LINE
  5
43F
330
2
100
AcDbEntity
  8
1
100
AcDbLine
 10
18.09811911648998
 20
-2.138846515329987
 30
0.0
 11
18.10727096574999
 21
-2.106354804729988
 31
0.0
  0
LINE
  5
440
330
2
100
AcDbEntity
  8
1
100
AcDbLine
 10
18.07346663043
 20
-1.227784080189991
 30
0.0
 11
18.10035036035
 21
-1.132887522899977
 31
0.0
  0
LINE
  5
441
330
2
100
AcDbEntity
  8
1
100
AcDbLine
 10
18.03200694563
 20
-1.997386603749987
 30
0.0
 11
18.03841906052
 21
-1.976799937739997
 31
0.0
  0
LINE
  5
442
330
2
100
AcDbEntity
  8
1
100
AcDbLine
 10
18.05749722979999
 20
-0.9143256965299997
 30
0.0
 11
18.04871790938
 21
-0.9283184958999868
 31
0.0
  0
LINE
  5
443
330
2
100
AcDbEntity
  8
1
100
AcDbLine
 10
18.05538406023998
 20
-0.732769905299989
 30
0.0
 11
18.04280723615
 21
-0.74843791684998
 31
0.0
  0
LINE
  5
444
330
2
100
AcDbEntity
  8
1
100
AcDbLine
 10
18.04876335861999
 20
-0.9283062278800002
 30
0.0
 11
18.03008628053001
 21
-0.9513311882299717
 31
0.0
  0
LINE
  5
445
330
2
100
AcDbEntity
  8
1
100
AcDbLine
 10
18.04509402422999
 20
-0.7430013641699987
 30
0.0
 11
18.05537399786999
 21
-0.7327474270999801
 31
0.0
  0
LINE
  5
446
330
2
100
AcDbEntity
  8
1
100
AcDbLine
 10
15.39309407054
 20
1.136871824500019
 30
0.0
 11
18.09288724312
 21
1.484165067700018
 31
0.0
  0
LWPOLYLINE
  5
447
330
2
100
AcDbEntity
  8
1
100
AcDbPolyline
 90
        3
 70
     0
 43
0.0
 10
18.12718039678
 20
1.186232348840007
 10
18.13567764714
 20
1.174135257230005
 10
18.14412961688001
 20
1.161794299800021
  0
LWPOLYLINE
  5
448
330
2
100
AcDbEntity
  8
1
100
AcDbPolyline
 90
        4
 70
     0
 43
0.0
 10
18.0929838376
 20
1.234444489379995
 10
18.10151192289001
 20
1.221895195390004
 10
18.11005360595999
 20
1.209678410670022
 10
18.12718039678
 20
1.186232348840007
  0
LWPOLYLINE
  5
449
330
2
100
AcDbEntity
  8
1
100
AcDbPolyline
 90
        3
 70
     0
 43
0.0
 10
18.06485607864999
 20
1.986090109810021
 10
18.05749722979999
 20
2.002633100510024
 10
18.04871790938
 20
2.031086187140004
  0
LINE
  5
44A
330
2
100
AcDbEntity
  8
1
100
AcDbLine
 10
18.08050515846
 20
2.396749208599999
 30
0.0
 11
18.07586458430001
 21
2.413900785940029
 31
0.0
  0
LWPOLYLINE
  5
44B
330
2
100
AcDbEntity
  8
1
100
AcDbPolyline
 90
        3
 70
     0
 43
0.0
 10
18.11112423515999
 20
2.116770012830016
 10
18.1062543541
 20
2.135041469510014
 10
18.10150906915001
 20
2.153358093450009
  0
LWPOLYLINE
  5
44C
330
2
100
AcDbEntity
  8
1
100
AcDbPolyline
 90
        5
 70
     0
 43
0.0
 10
18.11389728453
 20
1.701031021380003
 10
18.10118729914998
 20
1.749246397090018
 10
18.08894021422
 20
1.793384826340002
 10
18.07684721723999
 20
1.836180720460021
 10
18.06484586035
 20
1.881181172440022
  0
LINE
  5
44D
330
2
100
AcDbEntity
  8
1
100
AcDbLine
 10
18.06953345078
 20
2.232975634910019
 30
0.0
 11
18.06383240495998
 21
2.255172626220002
 31
0.0
  0
LWPOLYLINE
  5
44E
330
2
100
AcDbEntity
  8
1
100
AcDbPolyline
 90
        3
 70
     0
 43
0.0
 10
18.10150906915001
 20
2.153358093450009
 10
18.09689189225
 20
2.171706563080022
 10
18.09239386173999
 20
2.190123865510003
  0
LINE
  5
44F
330
2
100
AcDbEntity
  8
1
100
AcDbLine
 10
18.11494394332001
 20
2.342081571560015
 30
0.0
 11
18.11499143722
 21
2.341887314390021
 31
0.0
  0
LINE
  5
450
330
2
100
AcDbEntity
  8
1
100
AcDbLine
 10
18.09239386173999
 20
2.190123865510003
 30
0.0
 11
18.08800708196
 21
2.208647201610006
 31
0.0
  0
LINE
  5
451
330
2
100
AcDbEntity
  8
1
100
AcDbLine
 10
18.05537399786999
 20
2.135502093230002
 30
0.0
 11
18.06375006938
 21
2.100036301960017
 31
0.0
  0
LINE
  5
452
330
2
100
AcDbEntity
  8
1
100
AcDbLine
 10
18.07494312627
 20
2.540920381500001
 30
0.0
 11
18.07462753823998
 21
2.542292083760003
 31
0.0
  0
LINE
  5
453
330
2
100
AcDbEntity
  8
1
100
AcDbLine
 10
18.08800708196
 20
2.208647201610006
 30
0.0
 11
18.08373613779
 21
2.227263442320008
 31
0.0
  0
LINE
  5
454
330
2
100
AcDbEntity
  8
1
100
AcDbLine
 10
18.07586458430001
 20
2.413900785940029
 30
0.0
 11
18.06931506881
 21
2.442672383730013
 31
0.0
  0
LINE
  5
455
330
2
100
AcDbEntity
  8
1
100
AcDbLine
 10
18.11528437436999
 20
2.341241550590012
 30
0.0
 11
18.10395487702999
 21
2.391430487990021
 31
0.0
  0
LINE
  5
456
330
2
100
AcDbEntity
  8
1
100
AcDbLine
 10
18.11699309886001
 20
2.305913714550001
 30
0.0
 11
18.10749764390999
 21
2.35053554591002
 31
0.0
  0
LWPOLYLINE
  5
457
330
2
100
AcDbEntity
  8
1
100
AcDbPolyline
 90
        3
 70
     0
 43
0.0
 10
18.06317710809
 20
2.358651589660013
 10
18.06747002474
 20
2.337352080890013
 10
18.07165886049
 20
2.313950811470022
  0
LWPOLYLINE
  5
458
330
2
100
AcDbEntity
  8
1
100
AcDbPolyline
 90
        3
 70
     0
 43
0.0
 10
18.10749764390999
 20
2.35053554591002
 10
18.09857162628
 20
2.395539085180018
 10
18.09020309246
 20
2.440938862370018
  0
LINE
  5
459
330
2
100
AcDbEntity
  8
1
100
AcDbLine
 10
18.10395487702999
 20
2.391430487990021
 30
0.0
 11
18.07722127081999
 21
2.532774929449999
 31
0.0
  0
LINE
  5
45A
330
2
100
AcDbEntity
  8
1
100
AcDbLine
 10
18.07462753823998
 20
2.542292083760003
 30
0.0
 11
18.06817070163001
 21
2.579009161510015
 31
0.0
  0
LINE
  5
45B
330
2
100
AcDbEntity
  8
1
100
AcDbLine
 10
18.07940101026
 20
-2.446264504269976
 30
0.0
 11
18.08203569586001
 21
-2.436647723229981
 31
0.0
  0
LINE
  5
45C
330
2
100
AcDbEntity
  8
1
100
AcDbLine
 10
18.10601738828998
 20
-2.37625950492
 30
0.0
 11
18.10604072544001
 21
-2.376176776249991
 31
0.0
  0
LINE
  5
45D
330
2
100
AcDbEntity
  8
1
100
AcDbLine
 10
18.10727096574999
 20
-2.106354804729988
 30
0.0
 11
18.11709422352999
 21
-2.073986469509975
 31
0.0
  0
LINE
  5
45E
330
2
100
AcDbEntity
  8
1
100
AcDbLine
 10
18.01259164337
 20
-1.819361521179985
 30
0.0
 11
18.00592678433
 21
-1.835078450259999
 31
0.0
  0
LINE
  5
45F
330
2
100
AcDbEntity
  8
1
100
AcDbLine
 10
18.03226627500001
 20
-1.372798607559985
 30
0.0
 11
18.02358026921999
 21
-1.388413046399989
 31
0.0
  0
LINE
  5
460
330
2
100
AcDbEntity
  8
1
100
AcDbLine
 10
17.99665034831
 20
-1.849730210869978
 30
0.0
 11
18.00599257319001
 21
-1.835058125030002
 31
0.0
  0
LWPOLYLINE
  5
461
330
2
100
AcDbEntity
  8
1
100
AcDbPolyline
 90
        3
 70
     0
 43
0.0
 10
18.00870335152999
 20
-1.647803889179982
 10
18.00155392056999
 20
-1.657977511769985
 10
17.99853523416999
 20
-1.662624461039996
  0
LINE
  5
462
330
2
100
AcDbEntity
  8
1
100
AcDbLine
 10
18.00617950182999
 20
-1.412745643329998
 30
0.0
 11
18.02356701611001
 21
-1.388411816659981
 31
0.0
  0
LINE
  5
463
330
2
100
AcDbEntity
  8
1
100
AcDbLine
 10
18.01643621134999
 20
-1.637546398099999
 30
0.0
 11
18.00870335152999
 21
-1.647803889179982
 31
0.0
  0
LINE
  5
464
330
2
100
AcDbEntity
  8
1
100
AcDbLine
 10
18.03741043311001
 20
-1.185303753529979
 30
0.0
 11
18.01671339613
 21
-1.211696861989992
 31
0.0
  0
LINE
  5
465
330
2
100
AcDbEntity
  8
1
100
AcDbLine
 10
18.03741180842999
 20
-1.185309733119993
 30
0.0
 11
18.03933515308
 21
-1.183399985819988
 31
0.0
  0
LINE
  5
466
330
2
100
AcDbEntity
  8
1
100
AcDbLine
 10
15.39312774415001
 20
1.378868574770024
 30
0.0
 11
18.04803517530999
 21
1.866866730800012
 31
0.0
  0
LWPOLYLINE
  5
467
330
2
100
AcDbEntity
  8
1
100
AcDbPolyline
 90
        4
 70
     0
 43
0.0
 10
18.01628560999001
 20
2.046179983940021
 10
18.00427091485
 20
2.06020841753002
 10
17.99859626048999
 20
2.066624853690029
 10
17.99314664458998
 20
2.072638497989998
  0
LINE
  5
468
330
2
100
AcDbEntity
  8
1
100
AcDbLine
 10
18.08228810521999
 20
2.393248051980009
 30
0.0
 11
18.08050515846
 21
2.396749208599999
 31
0.0
  0
LWPOLYLINE
  5
469
330
2
100
AcDbEntity
  8
1
100
AcDbPolyline
 90
        3
 70
     0
 43
0.0
 10
18.07908166236998
 20
2.207904680440009
 10
18.07458867444001
 20
2.216977932680009
 10
18.06953345078
 20
2.232975634910019
  0
LINE
  5
46A
330
2
100
AcDbEntity
  8
1
100
AcDbLine
 10
18.07523493988
 20
-3.653272550109988
 30
0.0
 11
18.06283434553001
 21
-3.696269582959985
 31
0.0
  0
LWPOLYLINE
  5
46B
330
2
100
AcDbEntity
  8
1
100
AcDbPolyline
 90
        3
 70
     0
 43
0.0
 10
18.13009890179998
 20
-3.569098063069986
 10
18.13157394109999
 20
-3.564545513249981
 10
18.13870919826999
 20
-3.532188283839985
  0
LINE
  5
46C
330
2
100
AcDbEntity
  8
1
100
AcDbLine
 10
18.11944763214998
 20
-3.539318593220002
 30
0.0
 11
18.11443219345
 21
-3.554284587629979
 31
0.0
  0
LINE
  5
46D
330
2
100
AcDbEntity
  8
1
100
AcDbLine
 10
18.08203569586001
 20
-2.436647723229981
 30
0.0
 11
18.083810183
 21
-2.432725907269997
 31
0.0
  0
LINE
  5
46E
330
2
100
AcDbEntity
  8
1
100
AcDbLine
 10
18.07284254199999
 20
-2.765127548659989
 30
0.0
 11
18.07980810081
 21
-2.749831950589992
 31
0.0
  0
LINE
  5
46F
330
2
100
AcDbEntity
  8
1
100
AcDbLine
 10
18.06878277811
 20
-2.180517435389987
 30
0.0
 11
18.07201283276001
 21
-2.174117545539985
 31
0.0
  0
LINE
  5
470
330
2
100
AcDbEntity
  8
1
100
AcDbLine
 10
18.08008625579001
 20
-2.330548430059991
 30
0.0
 11
18.08246511128999
 21
-2.326039494859998
 31
0.0
  0
LINE
  5
471
330
2
100
AcDbEntity
  8
1
100
AcDbLine
 10
18.03841906052
 20
-1.976799937739997
 30
0.0
 11
18.04146327102998
 21
-1.972374887579974
 31
0.0
  0
LINE
  5
472
330
2
100
AcDbEntity
  8
1
100
AcDbLine
 10
18.01635741046999
 20
-1.637512657829972
 30
0.0
 11
18.01835079327
 21
-1.63538936307998
 31
0.0
  0
LINE
  5
473
330
2
100
AcDbEntity
  8
1
100
AcDbLine
 10
18.0804752539
 20
2.206483554220028
 30
0.0
 11
18.07908166236998
 21
2.207904680440009
 31
0.0
  0
LWPOLYLINE
  5
474
330
2
100
AcDbEntity
  8
1
100
AcDbPolyline
 90
        3
 70
     0
 43
0.0
 10
18.02834969729
 20
2.033024808850029
 10
18.02230927041998
 20
2.039493522370008
 10
18.01628560999001
 20
2.046179983940021
  0
LINE
  5
475
330
2
100
AcDbEntity
  8
1
100
AcDbLine
 10
18.06722688401001
 20
1.98345230676
 30
0.0
 11
18.06485607864999
 21
1.986090109810021
 31
0.0
  0
LINE
  5
476
330
2
100
AcDbEntity
  8
1
100
AcDbLine
 10
18.06745422943001
 20
3.360110533880003
 30
0.0
 11
18.01615753393
 21
3.474652668120029
 31
0.0
  0
LINE
  5
477
330
2
100
AcDbEntity
  8
1
100
AcDbLine
 10
18.14300004635001
 20
4.147924206460004
 30
0.0
 11
18.11299212865
 21
4.237523687550009
 31
0.0
  0
LWPOLYLINE
  5
478
330
2
100
AcDbEntity
  8
1
100
AcDbPolyline
 90
        3
 70
     0
 43
0.0
 10
18.09298383724999
 20
4.211510954150014
 10
18.13582709622
 20
4.082470785200001
 10
18.14412961688001
 20
4.05718282745002
  0
LINE
  5
479
330
2
100
AcDbEntity
  8
1
100
AcDbLine
 10
18.08814776592001
 20
-3.683455958399974
 30
0.0
 11
18.11770202197999
 21
-3.604510946789986
 31
0.0
  0
LINE
  5
47A
330
2
100
AcDbEntity
  8
1
100
AcDbLine
 10
18.07439489685001
 20
-3.718969104489985
 30
0.0
 11
18.08814776592001
 21
-3.683455958399974
 31
0.0
  0
LINE
  5
47B
330
2
100
AcDbEntity
  8
1
100
AcDbLine
 10
18.07096044063999
 20
-3.726599505039985
 30
0.0
 11
18.07413365072
 21
-3.718859906329981
 31
0.0
  0
LINE
  5
47C
330
2
100
AcDbEntity
  8
1
100
AcDbLine
 10
18.12165540969999
 20
-3.588175583119976
 30
0.0
 11
18.13009890179998
 21
-3.569098063069986
 31
0.0
  0
LINE
  5
47D
330
2
100
AcDbEntity
  8
1
100
AcDbLine
 10
18.11005360191998
 20
-3.412449061309985
 30
0.0
 11
18.14412960213999
 21
-3.339154493729978
 31
0.0
  0
LINE
  5
47E
330
2
100
AcDbEntity
  8
1
100
AcDbLine
 10
18.09298383762999
 20
-3.448582301499982
 30
0.0
 11
18.11005360191998
 21
-3.412449061309985
 31
0.0
  0
LINE
  5
47F
330
2
100
AcDbEntity
  8
1
100
AcDbLine
 10
18.07980810081
 20
-2.749831950589992
 30
0.0
 11
18.08884889369
 21
-2.735343717899979
 31
0.0
  0
LINE
  5
480
330
2
100
AcDbEntity
  8
1
100
AcDbLine
 10
18.08238471421001
 20
2.206575544940022
 30
0.0
 11
18.0804752539
 21
2.206483554220028
 31
0.0
  0
LWPOLYLINE
  5
481
330
2
100
AcDbEntity
  8
1
100
AcDbPolyline
 90
        3
 70
     0
 43
0.0
 10
18.09148091065
 20
4.293708905230005
 10
18.09199835467999
 20
4.29252713611001
 10
18.09322197815001
 20
4.278082032110006
  0
LINE
  5
482
330
2
100
AcDbEntity
  8
1
100
AcDbLine
 10
18.11299212865
 20
4.237523687550009
 30
0.0
 11
18.09654710749001
 21
4.279394272740006
 31
0.0
  0
LWPOLYLINE
  5
483
330
2
100
AcDbEntity
  8
1
100
AcDbPolyline
 90
        3
 70
     0
 43
0.0
 10
18.06283434553001
 20
-3.696269582959985
 10
18.04765340155998
 20
-3.72747318012
 10
18.03069393538001
 20
-3.745375727009985
  0
LINE
  5
484
330
2
100
AcDbEntity
  8
1
100
AcDbLine
 10
18.08884889369
 20
-2.735343717899979
 30
0.0
 11
18.09987388635
 21
-2.721944609829989
 31
0.0
  0
LINE
  5
485
330
2
100
AcDbEntity
  8
1
100
AcDbLine
 10
18.06090577245001
 20
-2.639793207179991
 30
0.0
 11
18.07186343024
 21
-2.626562897359974
 31
0.0
  0
LINE
  5
486
330
2
100
AcDbEntity
  8
1
100
AcDbLine
 10
18.083810183
 20
-2.432725907269997
 30
0.0
 11
18.08382545333998
 21
-2.432714903719983
 31
0.0
  0
LINE
  5
487
330
2
100
AcDbEntity
  8
1
100
AcDbLine
 10
18.11048456093999
 20
-3.601479287839993
 30
0.0
 11
18.12165540969999
 21
-3.588175583119976
 31
0.0
  0
LWPOLYLINE
  5
488
330
2
100
AcDbEntity
  8
1
100
AcDbPolyline
 90
        6
 70
     0
 43
0.0
 10
18.03070751989
 20
-3.745381044059996
 10
18.02829332166001
 20
-3.746793258079975
 10
18.02587457874
 20
-3.747948627649975
 10
18.02345137184
 20
-3.748847075019995
 10
18.02102397765
 20
-3.749488474119999
 10
18.01859267412001
 20
-3.749872774940001
  0
LWPOLYLINE
  5
489
330
2
100
AcDbEntity
  8
1
100
AcDbPolyline
 90
        3
 70
     0
 43
0.0
 10
18.04803517293001
 20
-3.749966424969983
 10
18.06005835964001
 20
-3.744015617439998
 10
18.07096044063999
 20
-3.726599505039985
  0
LINE
  5
48A
330
2
100
AcDbEntity
  8
1
100
AcDbLine
 10
17.94260845387
 20
-3.749819081269976
 30
0.0
 11
17.94253293157001
 21
-3.749845835879995
 31
0.0
  0
LINE
  5
48B
330
2
100
AcDbEntity
  8
1
100
AcDbLine
 10
18.08784865780998
 20
4.295312584350028
 30
0.0
 11
18.09148091065
 21
4.293708905230005
 31
0.0
  0
CIRCLE
  5
48C
330
2
100
AcDbEntity
  8
1
100
AcDbCircle
 10
0.0
 20
0.0
 30
0.0
 40
1.967498324109999
  0
CIRCLE
  5
48D
330
2
100
AcDbEntity
  8
1
100
AcDbCircle
 10
0.0
 20
0.0
 30
0.0
 40
1.377
  0
ARC
  5
48E
330
2
100
AcDbEntity
  8
1
100
AcDbCircle
 10
17.14309029450001
 20
2.106498324100016
 30
0.0
 40
1.0
100
AcDbArc
 50
0.0
 51
13.72813861910645
  0
ARC
  5
48F
330
2
100
AcDbEntity
  8
1
100
AcDbCircle
 10
17.14309029450001
 20
-2.106498324109992
 30
0.0
 40
1.0
100
AcDbArc
 50
344.3548662176964
 51
0.0
  0
DIMENSION
  5
490
330
2
100
AcDbEntity
  8
2
100
AcDbDimension
  2
*D9
 10
1.882430117233504
 20
-3.314520839594784
 30
0.0
 11
6.008790158694305
 21
-6.136231024873936
 31
0.0
 70
    36
 71
     5
 42
0.4999999999999432
  3
ISO-25
100
AcDbRadialDimension
 15
2.201606033309985
 25
-3.699393201029951
 35
0.0
 40
0.0
1001
ACAD_DSTYLE_DIMRADIAL_EXTENSION
1070
   387
1070
     1
1070
   388
1040
0.0
1070
   390
1040
0.0
1001
ACAD
1000
DSTYLE
1002
{
1070
   140
1040
1.5
1070
    41
1040
1.0
1002
}
  0
VIEWPORT
  5
52
330
C
100
AcDbEntity
 67
     1
  8
0
100
AcDbViewport
 10
17.24766579365652
 20
11.49775637822252
 30
0.0
 40
36.33732196730226
 41
27.12504315869042
 68
     1
 69
     1
 12
17.24766579365652
 22
11.49775637822252
 13
0.0
 23
0.0
 14
0.5
 24
0.5
 15
0.5
 25
0.5
 16
0.0
 26
0.0
 36
1.0
 17
0.0
 27
0.0
 37
0.0
 42
50.0
 43
0.0
 44
0.0
 45
27.12504315869042
 50
0.0
 51
0.0
 72
  1000
 90
    32864
  1

281
     0
 71
     1
 74
     0
110
0.0
120
0.0
130
0.0
111
1.0
121
0.0
131
0.0
112
0.0
122
1.0
132
0.0
 79
     0
146
0.0
170
     0
  0
ENDSEC
  0
SECTION
  2
OBJECTS
  0
DICTIONARY
  5
7
330
0
100
AcDbDictionary
281
     1
  3
ACAD_CIP_PREVIOUS_PRODUCT_INFO
350
CB
  3
ACAD_COLOR
350
57
  3
ACAD_GROUP
350
1F
  3
ACAD_LAYOUT
350
B
  3
ACAD_MATERIAL
350
56
  3
ACAD_MLEADERSTYLE
350
C3
  3
ACAD_MLINESTYLE
350
20
  3
ACAD_PLOTSETTINGS
350
21
  3
ACAD_PLOTSTYLENAME
350
6
  3
ACAD_SCALELIST
350
B1
  3
ACAD_TABLESTYLE
350
95
  3
ACAD_VISUALSTYLE
350
84
  3
ACDB_RECOMPOSE_DATA
350
51B
  3
AcDbVariableDictionary
350
9D
  0
DICTIONARY
  5
111
330
10
100
AcDbDictionary
280
     1
281
     1
  3
ACAD_LAYERSTATES
360
112
  0
DICTIONARY
  5
50E
330
4
100
AcDbDictionary
280
     1
281
     1
  3
ADSK_XREC_LAYER_RECONCILED
360
50F
  0
DICTIONARY
  5
105
330
104
100
AcDbDictionary
280
     1
281
     1
  3
ADSK_XREC_LAYER_RECONCILED
360
510
  0
DICTIONARY
  5
107
330
106
100
AcDbDictionary
280
     1
281
     1
  3
ADSK_XREC_LAYER_RECONCILED
360
511
  0
DICTIONARY
  5
109
330
108
100
AcDbDictionary
280
     1
281
     1
  3
ADSK_XREC_LAYER_RECONCILED
360
512
  0
DICTIONARY
  5
10B
330
10A
100
AcDbDictionary
280
     1
281
     1
  3
ADSK_XREC_LAYER_RECONCILED
360
513
  0
XRECORD
  5
CB
102
{ACAD_REACTORS
330
7
102
}
330
7
100
AcDbXrecord
280
     1
300
ACDLT
300
2012
300
ACDLT_F_S
  0
DICTIONARY
  5
57
102
{ACAD_REACTORS
330
7
102
}
330
7
100
AcDbDictionary
281
     1
  0
DICTIONARY
  5
1F
102
{ACAD_REACTORS
330
7
102
}
330
7
100
AcDbDictionary
281
     1
  0
DICTIONARY
  5
B
102
{ACAD_REACTORS
330
7
102
}
330
7
100
AcDbDictionary
281
     1
  3
Architectural Title Block
350
F
  3
Model
350
A
  0
DICTIONARY
  5
56
102
{ACAD_REACTORS
330
7
102
}
330
7
100
AcDbDictionary
281
     1
  3
ByBlock
350
82
  3
ByLayer
350
81
  3
Global
350
83
  0
DICTIONARY
  5
C3
102
{ACAD_REACTORS
330
7
102
}
330
7
100
AcDbDictionary
281
     1
  3
Standard
350
C4
  0
DICTIONARY
  5
20
102
{ACAD_REACTORS
330
7
102
}
330
7
100
AcDbDictionary
281
     1
  3
Standard
350
22
  0
DICTIONARY
  5
21
102
{ACAD_REACTORS
330
7
102
}
330
7
100
AcDbDictionary
281
     1
  0
ACDBDICTIONARYWDFLT
  5
6
102
{ACAD_REACTORS
330
7
102
}
330
7
100
AcDbDictionary
281
     1
  3
Normal
350
5
100
AcDbDictionaryWithDefault
340
5
  0
DICTIONARY
  5
B1
102
{ACAD_REACTORS
330
7
102
}
330
7
100
AcDbDictionary
281
     1
  3
A0
350
B2
  3
A1
350
B3
  3
A2
350
B4
  3
A3
350
B5
  3
A4
350
B6
  3
A5
350
B7
  3
A6
350
B8
  3
A7
350
B9
  3
A8
350
BA
  3
A9
350
BB
  3
B0
350
BC
  3
B1
350
BD
  3
B2
350
BE
  3
B3
350
BF
  3
B4
350
C0
  3
B5
350
C1
  3
B6
350
C2
  0
DICTIONARY
  5
95
102
{ACAD_REACTORS
330
7
102
}
330
7
100
AcDbDictionary
281
     1
  3
Standard
350
96
  0
DICTIONARY
  5
84
102
{ACAD_REACTORS
330
7
102
}
330
7
100
AcDbDictionary
281
     1
  3
2dWireframe
350
8A
  3
3D Hidden
350
8C
  3
3dWireframe
350
8B
  3
Basic
350
89
  3
Brighten
350
90
  3
ColorChange
350
94
  3
Conceptual
350
8D
  3
Dim
350
8F
  3
EdgeColorOff
350
B0
  3
Facepattern
350
93
  3
Flat
350
85
  3
FlatWithEdges
350
86
  3
Gouraud
350
87
  3
GouraudWithEdges
350
88
  3
Hidden
350
A8
  3
JitterOff
350
AE
  3
Linepattern
350
92
  3
OverhangOff
350
AF
  3
Realistic
350
8E
  3
Shaded
350
AD
  3
Shaded with edges
350
AC
  3
Shades of Gray
350
A9
  3
Sketchy
350
AA
  3
Thicken
350
91
  3
Wireframe
350
A7
  3
X-Ray
350
AB
  0
XRECORD
  5
51B
102
{ACAD_REACTORS
330
7
102
}
330
7
100
AcDbXrecord
280
     1
 90
        1
330
96
  0
DICTIONARY
  5
9D
102
{ACAD_REACTORS
330
7
102
}
330
7
100
AcDbDictionary
281
     1
  3
CANNOSCALE
350
515
  3
CMLEADERSTYLE
350
514
  3
CTABLESTYLE
350
9E
  3
SOLIDHIST
350
516
  0
DICTIONARY
  5
112
102
{ACAD_REACTORS
330
111
102
}
330
111
100
AcDbDictionary
281
     1
  0
XRECORD
  5
50F
102
{ACAD_REACTORS
330
50E
102
}
330
50E
100
AcDbXrecord
280
     1
290
     1
  0
XRECORD
  5
510
102
{ACAD_REACTORS
330
105
102
}
330
105
100
AcDbXrecord
280
     1
290
     1
  0
XRECORD
  5
511
102
{ACAD_REACTORS
330
107
102
}
330
107
100
AcDbXrecord
280
     1
290
     1
  0
XRECORD
  5
512
102
{ACAD_REACTORS
330
109
102
}
330
109
100
AcDbXrecord
280
     1
290
     1
  0
XRECORD
  5
513
102
{ACAD_REACTORS
330
10B
102
}
330
10B
100
AcDbXrecord
280
     1
290
     1
  0
LAYOUT
  5
F
102
{ACAD_REACTORS
330
B
102
}
330
B
100
AcDbPlotSettings
  1

  2
none_device
  4
ARCH_D_(24.00_x_36.00_Inches)
  6

 40
6.4
 41
19.1
 42
6.4
 43
19.1
 44
609.5999755859375
 45
914.4000244140626
 46
6.349999999999999
 47
0.0
 48
0.0
 49
0.0
140
0.0
141
0.0
142
1.0
143
1.0
 70
   692
 72
     0
 73
     1
 74
     1
  7

 75
    16
147
1.0
 76
     0
 77
     2
 78
   300
148
0.0093010481555268
149
0.0069757861166451
100
AcDbLayout
  1
Architectural Title Block
 70
     1
 71
     1
 10
-0.752334686935257
 20
-0.5022431411856947
 11
35.2476662742483
 21
23.49775589763074
 12
0.0
 22
0.0
 32
0.0
 14
1.000000000000000E+20
 24
1.000000000000000E+20
 34
1.000000000000000E+20
 15
-1.000000000000000E+20
 25
-1.000000000000000E+20
 35
-1.000000000000000E+20
146
0.0
 13
0.0
 23
0.0
 33
0.0
 16
1.0
 26
0.0
 36
0.0
 17
0.0
 27
1.0
 37
0.0
 76
     0
330
C
331
52
  0
LAYOUT
  5
A
102
{ACAD_REACTORS
330
B
102
}
330
B
100
AcDbPlotSettings
  1

  2
none_device
  4
Letter_(8.50_x_11.00_Inches)
  6

 40
6.349999904632568
 41
6.349999904632568
 42
6.350006103515625
 43
6.350006103515625
 44
215.8999938964844
 45
279.3999938964844
 46
24.20864881963554
 47
16.5900080388951
 48
0.0
 49
0.0
140
0.0
141
0.0
142
1.0
143
3.774554220489469
 70
 11956
 72
     0
 73
     1
 74
     1
  7

 75
     0
147
0.2649319473467052
 76
     0
 77
     2
 78
   300
148
5.106895530916343
149
0.0178270089649402
100
AcDbLayout
  1
Model
 70
     1
 71
     0
 10
0.0
 20
0.0
 11
12.0
 21
9.0
 12
0.0
 22
0.0
 32
0.0
 14
0.0
 24
0.0
 34
0.0
 15
0.0
 25
0.0
 35
0.0
146
0.0
 13
0.0
 23
0.0
 33
0.0
 16
1.0
 26
0.0
 36
0.0
 17
0.0
 27
1.0
 37
0.0
 76
     0
330
2
331
7F
  0
MATERIAL
  5
82
102
{ACAD_XDICTIONARY
360
51E
102
}
102
{ACAD_REACTORS
330
56
102
}
330
56
100
AcDbMaterial
  1
ByBlock
 73
     1
 78
     1
172
     1
176
     1
270
     1
274
     1
  0
MATERIAL
  5
81
102
{ACAD_XDICTIONARY
360
51C
102
}
102
{ACAD_REACTORS
330
56
102
}
330
56
100
AcDbMaterial
  1
ByLayer
 73
     1
 78
     1
172
     1
176
     1
270
     1
274
     1
  0
MATERIAL
  5
83
102
{ACAD_XDICTIONARY
360
520
102
}
102
{ACAD_REACTORS
330
56
102
}
330
56
100
AcDbMaterial
  1
Global
 73
     1
 78
     1
172
     1
176
     1
270
     1
274
     1
  0
MLEADERSTYLE
  5
C4
102
{ACAD_XDICTIONARY
360
519
102
}
102
{ACAD_REACTORS
330
C3
102
}
330
C3
100
AcDbMLeaderStyle
170
     2
171
     1
172
     0
 90
        2
 40
0.0
 41
0.0
173
     1
 91
-1056964608
340
15
 92
       -2
290
     1
 42
0.09
291
     1
 43
0.36
  3
Standard
 44
0.18
300

342
12
174
     1
178
     6
175
     1
176
     0
 93
-1056964608
 45
0.18
292
     0
297
     0
 46
0.18
 94
-1056964608
 47
1.0
 49
1.0
140
1.0
293
     1
141
0.0
294
     1
177
     0
142
1.0
295
     0
296
     0
143
0.125
1001
ACAD_MLEADERVER
1070
     2
  0
MLINESTYLE
  5
22
102
{ACAD_REACTORS
330
20
102
}
330
20
100
AcDbMlineStyle
  2
STANDARD
 70
     0
  3

 62
   256
 51
90.0
 52
90.0
 71
     2
 49
0.5
 62
   256
  6
BYLAYER
 49
-0.5
 62
   256
  6
BYLAYER
  0
ACDBPLACEHOLDER
  5
5
102
{ACAD_REACTORS
330
6
102
}
330
6
  0
SCALE
  5
B2
102
{ACAD_REACTORS
330
B1
102
}
330
B1
100
AcDbScale
 70
     0
300
1:1
140
1.0
141
1.0
290
     1
  0
SCALE
  5
B3
102
{ACAD_REACTORS
330
B1
102
}
330
B1
100
AcDbScale
 70
     0
300
1/128" = 1'-0"
140
0.0078125
141
12.0
290
     0
  0
SCALE
  5
B4
102
{ACAD_REACTORS
330
B1
102
}
330
B1
100
AcDbScale
 70
     0
300
1/64" = 1'-0"
140
0.015625
141
12.0
290
     0
  0
SCALE
  5
B5
102
{ACAD_REACTORS
330
B1
102
}
330
B1
100
AcDbScale
 70
     0
300
1/32" = 1'-0"
140
0.03125
141
12.0
290
     0
  0
SCALE
  5
B6
102
{ACAD_REACTORS
330
B1
102
}
330
B1
100
AcDbScale
 70
     0
300
1/16" = 1'-0"
140
0.0625
141
12.0
290
     0
  0
SCALE
  5
B7
102
{ACAD_REACTORS
330
B1
102
}
330
B1
100
AcDbScale
 70
     0
300
3/32" = 1'-0"
140
0.09375
141
12.0
290
     0
  0
SCALE
  5
B8
102
{ACAD_REACTORS
330
B1
102
}
330
B1
100
AcDbScale
 70
     0
300
1/8" = 1'-0"
140
0.125
141
12.0
290
     0
  0
SCALE
  5
B9
102
{ACAD_REACTORS
330
B1
102
}
330
B1
100
AcDbScale
 70
     0
300
3/16" = 1'-0"
140
0.1875
141
12.0
290
     0
  0
SCALE
  5
BA
102
{ACAD_REACTORS
330
B1
102
}
330
B1
100
AcDbScale
 70
     0
300
1/4" = 1'-0"
140
0.25
141
12.0
290
     0
  0
SCALE
  5
BB
102
{ACAD_REACTORS
330
B1
102
}
330
B1
100
AcDbScale
 70
     0
300
3/8" = 1'-0"
140
0.375
141
12.0
290
     0
  0
SCALE
  5
BC
102
{ACAD_REACTORS
330
B1
102
}
330
B1
100
AcDbScale
 70
     0
300
1/2" = 1'-0"
140
0.5
141
12.0
290
     0
  0
SCALE
  5
BD
102
{ACAD_REACTORS
330
B1
102
}
330
B1
100
AcDbScale
 70
     0
300
3/4" = 1'-0"
140
0.75
141
12.0
290
     0
  0
SCALE
  5
BE
102
{ACAD_REACTORS
330
B1
102
}
330
B1
100
AcDbScale
 70
     0
300
1" = 1'-0"
140
1.0
141
12.0
290
     0
  0
SCALE
  5
BF
102
{ACAD_REACTORS
330
B1
102
}
330
B1
100
AcDbScale
 70
     0
300
1-1/2" = 1'-0"
140
1.5
141
12.0
290
     0
  0
SCALE
  5
C0
102
{ACAD_REACTORS
330
B1
102
}
330
B1
100
AcDbScale
 70
     0
300
3" = 1'-0"
140
3.0
141
12.0
290
     0
  0
SCALE
  5
C1
102
{ACAD_REACTORS
330
B1
102
}
330
B1
100
AcDbScale
 70
     0
300
6" = 1'-0"
140
6.0
141
12.0
290
     0
  0
SCALE
  5
C2
102
{ACAD_REACTORS
330
B1
102
}
330
B1
100
AcDbScale
 70
     0
300
1'-0" = 1'-0"
140
12.0
141
12.0
290
     0
  0
TABLESTYLE
  5
96
102
{ACAD_XDICTIONARY
360
517
102
}
102
{ACAD_REACTORS
330
95
102
}
330
95
100
AcDbTableStyle
  3
Standard
 70
     0
 71
     0
 40
0.06
 41
0.06
280
     0
281
     0
  7
Standard
140
0.18
170
     2
 62
     0
 63
     7
283
     0
274
    -2
284
     1
 64
     0
275
    -2
285
     1
 65
     0
276
    -2
286
     1
 66
     0
277
    -2
287
     1
 67
     0
278
    -2
288
     1
 68
     0
279
    -2
289
     1
 69
     0
  7
Standard
140
0.25
170
     5
 62
     0
 63
     7
283
     0
274
    -2
284
     1
 64
     0
275
    -2
285
     1
 65
     0
276
    -2
286
     1
 66
     0
277
    -2
287
     1
 67
     0
278
    -2
288
     1
 68
     0
279
    -2
289
     1
 69
     0
  7
Standard
140
0.18
170
     5
 62
     0
 63
     7
283
     0
274
    -2
284
     1
 64
     0
275
    -2
285
     1
 65
     0
276
    -2
286
     1
 66
     0
277
    -2
287
     1
 67
     0
278
    -2
288
     1
 68
     0
279
    -2
289
     1
 69
     0
  0
VISUALSTYLE
  5
8A
102
{ACAD_XDICTIONARY
360
52C
102
}
102
{ACAD_REACTORS
330
84
102
}
330
84
100
AcDbVisualStyle
  2
2dWireframe
 70
     4
 71
     0
 72
     2
 73
     1
 90
        0
 40
-0.6
 41
-30.0
 62
     5
 63
     7
421
 16777215
 74
     1
 91
        4
 64
     7
 65
   257
 75
     1
175
     1
 42
1.0
 92
        0
 66
   257
 43
1.0
 76
     1
 77
     6
 78
     2
 67
     7
 79
     5
170
     0
171
     0
290
     0
174
     0
 93
        1
 44
0.0
173
     0
291
     0
 45
0.0
1001
ACAD
1000
AcDbSavedByObjectVersion
1070
     0
  0
VISUALSTYLE
  5
8C
102
{ACAD_XDICTIONARY
360
530
102
}
102
{ACAD_REACTORS
330
84
102
}
330
84
100
AcDbVisualStyle
  2
3D Hidden
 70
     6
 71
     1
 72
     2
 73
     2
 90
        0
 40
-0.6
 41
-30.0
 62
     5
 63
     7
421
 16777215
 74
     2
 91
       10
 64
     7
 65
   257
 75
     2
175
     2
 42
40.0
 92
        0
 66
   257
 43
1.0
 76
     1
 77
     6
 78
     2
 67
     7
 79
     3
170
     0
171
     0
290
     0
174
     0
 93
        1
 44
0.0
173
     0
291
     0
 45
0.0
1001
ACAD
1000
AcDbSavedByObjectVersion
1070
     0
  0
VISUALSTYLE
  5
8B
102
{ACAD_XDICTIONARY
360
52E
102
}
102
{ACAD_REACTORS
330
84
102
}
330
84
100
AcDbVisualStyle
  2
3dWireframe
 70
     5
 71
     0
 72
     2
 73
     1
 90
        0
 40
-0.6
 41
-30.0
 62
     5
 63
     7
421
 16777215
 74
     1
 91
        4
 64
     7
 65
   257
 75
     1
175
     1
 42
1.0
 92
        0
 66
   257
 43
1.0
 76
     1
 77
     6
 78
     2
 67
     7
 79
     5
170
     0
171
     0
290
     0
174
     0
 93
        1
 44
0.0
173
     0
291
     0
 45
0.0
1001
ACAD
1000
AcDbSavedByObjectVersion
1070
     0
  0
VISUALSTYLE
  5
89
102
{ACAD_XDICTIONARY
360
52A
102
}
102
{ACAD_REACTORS
330
84
102
}
330
84
100
AcDbVisualStyle
  2
Basic
 70
     7
 71
     1
 72
     0
 73
     1
 90
        0
 40
-0.6
 41
-30.0
 62
     5
 63
     7
421
 16777215
 74
     0
 91
        4
 64
     7
 65
   257
 75
     1
175
     1
 42
1.0
 92
        8
 66
     7
 43
1.0
 76
     1
 77
     6
 78
     2
 67
     7
 79
     5
170
     0
171
     0
290
     0
174
     0
 93
        1
 44
0.0
173
     0
291
     1
 45
0.0
1001
ACAD
1000
AcDbSavedByObjectVersion
1070
     0
  0
VISUALSTYLE
  5
90
102
{ACAD_XDICTIONARY
360
538
102
}
102
{ACAD_REACTORS
330
84
102
}
330
84
100
AcDbVisualStyle
  2
Brighten
 70
    12
 71
     2
 72
     2
 73
     1
 90
        0
 40
-0.6
 41
-30.0
 62
     5
 63
     7
421
 16777215
 74
     1
 91
        4
 64
     7
 65
   257
 75
     1
175
     1
 42
1.0
 92
        8
 66
     7
 43
1.0
 76
     1
 77
     6
 78
     2
 67
     7
 79
     5
170
     0
171
     0
290
     0
174
     0
 93
        1
 44
50.0
173
     0
291
     1
 45
0.0
1001
ACAD
1000
AcDbSavedByObjectVersion
1070
     0
  0
VISUALSTYLE
  5
94
102
{ACAD_XDICTIONARY
360
540
102
}
102
{ACAD_REACTORS
330
84
102
}
330
84
100
AcDbVisualStyle
  2
ColorChange
 70
    16
 71
     2
 72
     2
 73
     3
 90
        0
 40
-0.6
 41
-30.0
 62
     5
 63
     8
421
  8421504
 74
     1
 91
        4
 64
     7
 65
   257
 75
     1
175
     1
 42
1.0
 92
        8
 66
     8
424
  8421504
 43
1.0
 76
     1
 77
     6
 78
     2
 67
     7
 79
     5
170
     0
171
     0
290
     0
174
     0
 93
        1
 44
0.0
173
     0
291
     1
 45
0.0
1001
ACAD
1000
AcDbSavedByObjectVersion
1070
     0
  0
VISUALSTYLE
  5
8D
102
{ACAD_XDICTIONARY
360
532
102
}
102
{ACAD_REACTORS
330
84
102
}
330
84
100
AcDbVisualStyle
  2
Conceptual
 70
     9
 71
     3
 72
     2
 73
     1
 90
        0
 40
-0.6
 41
-30.0
 62
     5
 63
     7
421
 16777215
 74
     2
 91
        2
 64
     7
 65
   257
 75
     1
175
     1
 42
40.0
 92
        8
 66
     7
 43
1.0
 76
     1
 77
     6
 78
     2
 67
     7
 79
     5
170
     0
171
     0
290
     0
174
     0
 93
        1
 44
0.0
173
     0
291
     0
 45
0.0
1001
ACAD
1000
AcDbSavedByObjectVersion
1070
     0
  0
VISUALSTYLE
  5
8F
102
{ACAD_XDICTIONARY
360
536
102
}
102
{ACAD_REACTORS
330
84
102
}
330
84
100
AcDbVisualStyle
  2
Dim
 70
    11
 71
     2
 72
     2
 73
     1
 90
        0
 40
-0.6
 41
-30.0
 62
     5
 63
     7
421
 16777215
 74
     1
 91
        4
 64
     7
 65
   257
 75
     1
175
     1
 42
1.0
 92
        8
 66
     7
 43
1.0
 76
     1
 77
     6
 78
     2
 67
     7
 79
     5
170
     0
171
     0
290
     0
174
     0
 93
        1
 44
-50.0
173
     0
291
     1
 45
0.0
1001
ACAD
1000
AcDbSavedByObjectVersion
1070
     0
  0
VISUALSTYLE
  5
B0
102
{ACAD_XDICTIONARY
360
555
102
}
102
{ACAD_REACTORS
330
84
102
}
330
84
100
AcDbVisualStyle
  2
EdgeColorOff
 70
    22
 71
     2
 72
     2
 73
     0
 90
        0
 40
-0.6
 41
-30.0
 62
     5
 63
     7
421
 16777215
 74
     1
 91
        4
 64
     7
 65
   257
 75
     1
175
     1
 42
1.0
 92
        8
 66
     7
 43
1.0
 76
     1
 77
     6
 78
     2
 67
     7
 79
     5
170
     0
171
     0
290
     0
174
     0
 93
        1
 44
0.0
173
     0
291
     1
 45
0.0
1001
ACAD
1000
AcDbSavedByObjectVersion
1070
     0
  0
VISUALSTYLE
  5
93
102
{ACAD_XDICTIONARY
360
53E
102
}
102
{ACAD_REACTORS
330
84
102
}
330
84
100
AcDbVisualStyle
  2
Facepattern
 70
    15
 71
     2
 72
     2
 73
     1
 90
        0
 40
-0.6
 41
-30.0
 62
     5
 63
     7
421
 16777215
 74
     1
 91
        4
 64
     7
 65
   257
 75
     1
175
     1
 42
1.0
 92
        8
 66
     7
 43
1.0
 76
     1
 77
     6
 78
     2
 67
     7
 79
     5
170
     0
171
     0
290
     0
174
     0
 93
        1
 44
0.0
173
     0
291
     1
 45
0.0
1001
ACAD
1000
AcDbSavedByObjectVersion
1070
     0
  0
VISUALSTYLE
  5
85
102
{ACAD_XDICTIONARY
360
522
102
}
102
{ACAD_REACTORS
330
84
102
}
330
84
100
AcDbVisualStyle
  2
Flat
 70
     0
 71
     2
 72
     1
 73
     1
 90
        2
 40
-0.6
 41
30.0
 62
     5
 63
     7
421
 16777215
 74
     0
 91
        4
 64
     7
 65
   257
 75
     1
175
     1
 42
1.0
 92
        8
 66
     7
 43
1.0
 76
     1
 77
     6
 78
     2
 67
     7
 79
     5
170
     0
171
     0
290
     0
174
     0
 93
        1
 44
0.0
173
     0
291
     1
 45
0.0
1001
ACAD
1000
AcDbSavedByObjectVersion
1070
     0
  0
VISUALSTYLE
  5
86
102
{ACAD_XDICTIONARY
360
524
102
}
102
{ACAD_REACTORS
330
84
102
}
330
84
100
AcDbVisualStyle
  2
FlatWithEdges
 70
     1
 71
     2
 72
     1
 73
     1
 90
        2
 40
-0.6
 41
30.0
 62
     5
 63
     7
421
 16777215
 74
     1
 91
        4
 64
     7
 65
   257
 75
     1
175
     1
 42
1.0
 92
        0
 66
   257
 43
1.0
 76
     1
 77
     6
 78
     2
 67
     7
 79
     5
170
     0
171
     0
290
     0
174
     0
 93
        1
 44
0.0
173
     0
291
     1
 45
0.0
1001
ACAD
1000
AcDbSavedByObjectVersion
1070
     0
  0
VISUALSTYLE
  5
87
102
{ACAD_XDICTIONARY
360
526
102
}
102
{ACAD_REACTORS
330
84
102
}
330
84
100
AcDbVisualStyle
  2
Gouraud
 70
     2
 71
     2
 72
     2
 73
     1
 90
        2
 40
-0.6
 41
30.0
 62
     5
 63
     7
421
 16777215
 74
     0
 91
        4
 64
     7
 65
   257
 75
     1
175
     1
 42
1.0
 92
        0
 66
     7
 43
1.0
 76
     1
 77
     6
 78
     2
 67
     7
 79
     5
170
     0
171
     0
290
     0
174
     0
 93
        1
 44
0.0
173
     0
291
     1
 45
0.0
1001
ACAD
1000
AcDbSavedByObjectVersion
1070
     0
  0
VISUALSTYLE
  5
88
102
{ACAD_XDICTIONARY
360
528
102
}
102
{ACAD_REACTORS
330
84
102
}
330
84
100
AcDbVisualStyle
  2
GouraudWithEdges
 70
     3
 71
     2
 72
     2
 73
     1
 90
        2
 40
-0.6
 41
30.0
 62
     5
 63
     7
421
 16777215
 74
     1
 91
        4
 64
     7
 65
   257
 75
     1
175
     1
 42
1.0
 92
        0
 66
   257
 43
1.0
 76
     1
 77
     6
 78
     2
 67
     7
 79
     5
170
     0
171
     0
290
     0
174
     0
 93
        1
 44
0.0
173
     0
291
     1
 45
0.0
1001
ACAD
1000
AcDbSavedByObjectVersion
1070
     0
  0
VISUALSTYLE
  5
A8
102
{ACAD_XDICTIONARY
360
545
102
}
102
{ACAD_REACTORS
330
84
102
}
330
84
100
AcDbVisualStyle
  2
Hidden
 70
     6
 71
     1
 72
     2
 73
     2
 90
        0
 40
-0.6
 41
-30.0
 62
     5
 63
     7
421
 16777215
 74
     2
 91
        2
 64
     7
 65
   257
 75
     2
175
     1
 42
40.0
 92
        0
 66
   257
 43
1.0
 76
     1
 77
     6
 78
     2
 67
     7
 79
     3
170
     0
171
     0
290
     0
174
     0
 93
        1
 44
0.0
173
     0
291
     0
 45
0.0
1001
ACAD
1000
AcDbSavedByObjectVersion
1070
     0
  0
VISUALSTYLE
  5
AE
102
{ACAD_XDICTIONARY
360
551
102
}
102
{ACAD_REACTORS
330
84
102
}
330
84
100
AcDbVisualStyle
  2
JitterOff
 70
    20
 71
     2
 72
     2
 73
     0
 90
        0
 40
-0.6
 41
-30.0
 62
     5
 63
     7
421
 16777215
 74
     1
 91
        4
 64
     7
 65
   257
 75
     1
175
     1
 42
1.0
 92
       10
 66
     7
 43
1.0
 76
     1
 77
     6
 78
     2
 67
     7
 79
     5
170
     0
171
     0
290
     0
174
     0
 93
        1
 44
0.0
173
     0
291
     1
 45
0.0
1001
ACAD
1000
AcDbSavedByObjectVersion
1070
     0
  0
VISUALSTYLE
  5
92
102
{ACAD_XDICTIONARY
360
53C
102
}
102
{ACAD_REACTORS
330
84
102
}
330
84
100
AcDbVisualStyle
  2
Linepattern
 70
    14
 71
     2
 72
     2
 73
     1
 90
        0
 40
-0.6
 41
-30.0
 62
     5
 63
     7
421
 16777215
 74
     1
 91
        4
 64
     7
 65
   257
 75
     7
175
     7
 42
1.0
 92
        8
 66
     7
 43
1.0
 76
     1
 77
     6
 78
     2
 67
     7
 79
     5
170
     0
171
     0
290
     0
174
     0
 93
        1
 44
0.0
173
     0
291
     1
 45
0.0
1001
ACAD
1000
AcDbSavedByObjectVersion
1070
     0
  0
VISUALSTYLE
  5
AF
102
{ACAD_XDICTIONARY
360
553
102
}
102
{ACAD_REACTORS
330
84
102
}
330
84
100
AcDbVisualStyle
  2
OverhangOff
 70
    21
 71
     2
 72
     2
 73
     0
 90
        0
 40
-0.6
 41
-30.0
 62
     5
 63
     7
421
 16777215
 74
     1
 91
        4
 64
     7
 65
   257
 75
     1
175
     1
 42
1.0
 92
        9
 66
     7
 43
1.0
 76
     1
 77
     6
 78
     2
 67
     7
 79
     5
170
     0
171
     0
290
     0
174
     0
 93
        1
 44
0.0
173
     0
291
     1
 45
0.0
1001
ACAD
1000
AcDbSavedByObjectVersion
1070
     0
  0
VISUALSTYLE
  5
8E
102
{ACAD_XDICTIONARY
360
534
102
}
102
{ACAD_REACTORS
330
84
102
}
330
84
100
AcDbVisualStyle
  2
Realistic
 70
     8
 71
     2
 72
     2
 73
     1
 90
        0
 40
-0.6
 41
-30.0
 62
     5
 63
     7
421
 16777215
 74
     1
 91
        0
 64
     7
 65
   257
 75
     1
175
     1
 42
1.0
 92
        8
 66
     7
 43
1.0
 76
     1
 77
     6
 78
     2
 67
     7
 79
     5
170
     0
171
     0
290
     0
174
     0
 93
       13
 44
0.0
173
     0
291
     0
 45
0.0
1001
ACAD
1000
AcDbSavedByObjectVersion
1070
     0
  0
VISUALSTYLE
  5
AD
102
{ACAD_XDICTIONARY
360
54F
102
}
102
{ACAD_REACTORS
330
84
102
}
330
84
100
AcDbVisualStyle
  2
Shaded
 70
    27
 71
     2
 72
     2
 73
     1
 90
        2
 40
-0.6
 41
30.0
 62
     5
 63
     7
421
 16777215
 74
     0
 91
        4
 64
     7
 65
   257
 75
     1
175
     1
 42
1.0
 92
        8
 66
   257
 43
1.0
 76
     1
 77
     6
 78
     2
 67
     8
425
  7895160
 79
     3
170
     0
171
     0
290
     0
174
     0
 93
        5
 44
0.0
173
     0
291
     0
 45
0.0
1001
ACAD
1000
AcDbSavedByObjectVersion
1070
     0
  0
VISUALSTYLE
  5
AC
102
{ACAD_XDICTIONARY
360
54D
102
}
102
{ACAD_REACTORS
330
84
102
}
330
84
100
AcDbVisualStyle
  2
Shaded with edges
 70
    26
 71
     2
 72
     2
 73
     1
 90
        2
 40
-0.6
 41
30.0
 62
     5
 63
     7
421
 16777215
 74
     1
 91
       10
 64
     7
 65
   257
 75
     2
175
     1
 42
1.0
 92
        8
 66
   257
 43
1.0
 76
     1
 77
     6
 78
     2
 67
     7
 79
     3
170
     0
171
     0
290
     0
174
     0
 93
        5
 44
0.0
173
     0
291
     0
 45
0.0
1001
ACAD
1000
AcDbSavedByObjectVersion
1070
     0
  0
VISUALSTYLE
  5
A9
102
{ACAD_XDICTIONARY
360
547
102
}
102
{ACAD_REACTORS
330
84
102
}
330
84
100
AcDbVisualStyle
  2
Shades of Gray
 70
    23
 71
     2
 72
     2
 73
     3
 90
        0
 40
-0.6
 41
-30.0
 62
     5
 63
     7
421
 16777215
 74
     2
 91
        2
 64
     7
 65
     7
 75
     1
175
     1
 42
40.0
 92
        8
 66
     7
 43
1.0
 76
     1
 77
     6
 78
     2
 67
     7
 79
     3
170
     0
171
     0
290
     0
174
     0
 93
        1
 44
0.0
173
     0
291
     0
 45
0.0
1001
ACAD
1000
AcDbSavedByObjectVersion
1070
     0
  0
VISUALSTYLE
  5
AA
102
{ACAD_XDICTIONARY
360
549
102
}
102
{ACAD_REACTORS
330
84
102
}
330
84
100
AcDbVisualStyle
  2
Sketchy
 70
    24
 71
     1
 72
     2
 73
     2
 90
        0
 40
-0.6
 41
-30.0
 62
     5
 63
     7
421
 16777215
 74
     2
 91
        2
 64
     7
 65
     7
 75
     1
175
     1
 42
40.0
 92
       11
 66
     7
 43
1.0
 76
     1
 77
     6
 78
     2
 67
     7
 79
     6
170
     0
171
     0
290
     0
174
     0
 93
        1
 44
0.0
173
     0
291
     0
 45
0.0
1001
ACAD
1000
AcDbSavedByObjectVersion
1070
     0
  0
VISUALSTYLE
  5
91
102
{ACAD_XDICTIONARY
360
53A
102
}
102
{ACAD_REACTORS
330
84
102
}
330
84
100
AcDbVisualStyle
  2
Thicken
 70
    13
 71
     2
 72
     2
 73
     1
 90
        0
 40
-0.6
 41
-30.0
 62
     5
 63
     7
421
 16777215
 74
     1
 91
        4
 64
     7
 65
   257
 75
     1
175
     1
 42
1.0
 92
       12
 66
     7
 43
1.0
 76
     1
 77
     6
 78
     2
 67
     7
 79
     5
170
     0
171
     0
290
     0
174
     0
 93
        1
 44
0.0
173
     0
291
     1
 45
0.0
1001
ACAD
1000
AcDbSavedByObjectVersion
1070
     0
  0
VISUALSTYLE
  5
A7
102
{ACAD_XDICTIONARY
360
543
102
}
102
{ACAD_REACTORS
330
84
102
}
330
84
100
AcDbVisualStyle
  2
Wireframe
 70
     5
 71
     0
 72
     2
 73
     0
 90
        0
 40
-0.6
 41
-30.0
 62
     5
 63
     7
421
 16777215
 74
     1
 91
        4
 64
     7
 65
   257
 75
     1
175
     1
 42
1.0
 92
        0
 66
   257
 43
1.0
 76
     1
 77
     6
 78
     2
 67
     7
 79
     3
170
     0
171
     0
290
     0
174
     0
 93
        1
 44
0.0
173
     0
291
     0
 45
0.0
1001
ACAD
1000
AcDbSavedByObjectVersion
1070
     0
  0
VISUALSTYLE
  5
AB
102
{ACAD_XDICTIONARY
360
54B
102
}
102
{ACAD_REACTORS
330
84
102
}
330
84
100
AcDbVisualStyle
  2
X-Ray
 70
    25
 71
     2
 72
     2
 73
     1
 90
        1
 40
0.5
 41
-30.0
 62
     5
 63
     7
421
 16777215
 74
     1
 91
        0
 64
     7
 65
   257
 75
     1
175
     1
 42
1.0
 92
        8
 66
     7
 43
1.0
 76
     1
 77
     6
 78
     2
 67
     7
 79
     3
170
     0
171
     0
290
     0
174
     0
 93
       13
 44
0.0
173
     0
291
     0
 45
0.0
1001
ACAD
1000
AcDbSavedByObjectVersion
1070
     0
  0
DICTIONARYVAR
  5
515
102
{ACAD_REACTORS
330
9D
102
}
330
9D
100
DictionaryVariables
280
     0
  1
1:1
  0
DICTIONARYVAR
  5
514
102
{ACAD_REACTORS
330
9D
102
}
330
9D
100
DictionaryVariables
280
     0
  1
STANDARD
  0
DICTIONARYVAR
  5
9E
102
{ACAD_REACTORS
330
9D
102
}
330
9D
100
DictionaryVariables
280
     0
  1
STANDARD
  0
DICTIONARYVAR
  5
516
102
{ACAD_REACTORS
330
9D
102
}
330
9D
100
DictionaryVariables
280
     0
  1
1
  0
DICTIONARY
  5
51E
330
82
100
AcDbDictionary
280
     1
281
     1
  3
ACAD_XREC_ROUNDTRIP
360
51F
  0
DICTIONARY
  5
51C
330
81
100
AcDbDictionary
280
     1
281
     1
  3
ACAD_XREC_ROUNDTRIP
360
51D
  0
DICTIONARY
  5
520
330
83
100
AcDbDictionary
280
     1
281
     1
  3
ACAD_XREC_ROUNDTRIP
360
521
  0
DICTIONARY
  5
519
330
C4
100
AcDbDictionary
280
     1
281
     1
  3
ACAD_XREC_ROUNDTRIP
360
51A
  0
DICTIONARY
  5
517
330
96
100
AcDbDictionary
280
     1
281
     1
  3
ACAD_ROUNDTRIP_2008_TABLESTYLE_CELLSTYLEMAP
360
518
  3
ACAD_XREC_ROUNDTRIP
360
542
  0
DICTIONARY
  5
52C
330
8A
100
AcDbDictionary
280
     1
281
     1
  3
ACAD_XREC_ROUNDTRIP
360
52D
  0
DICTIONARY
  5
530
330
8C
100
AcDbDictionary
280
     1
281
     1
  3
ACAD_XREC_ROUNDTRIP
360
531
  0
DICTIONARY
  5
52E
330
8B
100
AcDbDictionary
280
     1
281
     1
  3
ACAD_XREC_ROUNDTRIP
360
52F
  0
DICTIONARY
  5
52A
330
89
100
AcDbDictionary
280
     1
281
     1
  3
ACAD_XREC_ROUNDTRIP
360
52B
  0
DICTIONARY
  5
538
330
90
100
AcDbDictionary
280
     1
281
     1
  3
ACAD_XREC_ROUNDTRIP
360
539
  0
DICTIONARY
  5
540
330
94
100
AcDbDictionary
280
     1
281
     1
  3
ACAD_XREC_ROUNDTRIP
360
541
  0
DICTIONARY
  5
532
330
8D
100
AcDbDictionary
280
     1
281
     1
  3
ACAD_XREC_ROUNDTRIP
360
533
  0
DICTIONARY
  5
536
330
8F
100
AcDbDictionary
280
     1
281
     1
  3
ACAD_XREC_ROUNDTRIP
360
537
  0
DICTIONARY
  5
555
330
B0
100
AcDbDictionary
280
     1
281
     1
  3
ACAD_XREC_ROUNDTRIP
360
556
  0
DICTIONARY
  5
53E
330
93
100
AcDbDictionary
280
     1
281
     1
  3
ACAD_XREC_ROUNDTRIP
360
53F
  0
DICTIONARY
  5
522
330
85
100
AcDbDictionary
280
     1
281
     1
  3
ACAD_XREC_ROUNDTRIP
360
523
  0
DICTIONARY
  5
524
330
86
100
AcDbDictionary
280
     1
281
     1
  3
ACAD_XREC_ROUNDTRIP
360
525
  0
DICTIONARY
  5
526
330
87
100
AcDbDictionary
280
     1
281
     1
  3
ACAD_XREC_ROUNDTRIP
360
527
  0
DICTIONARY
  5
528
330
88
100
AcDbDictionary
280
     1
281
     1
  3
ACAD_XREC_ROUNDTRIP
360
529
  0
DICTIONARY
  5
545
330
A8
100
AcDbDictionary
280
     1
281
     1
  3
ACAD_XREC_ROUNDTRIP
360
546
  0
DICTIONARY
  5
551
330
AE
100
AcDbDictionary
280
     1
281
     1
  3
ACAD_XREC_ROUNDTRIP
360
552
  0
DICTIONARY
  5
53C
330
92
100
AcDbDictionary
280
     1
281
     1
  3
ACAD_XREC_ROUNDTRIP
360
53D
  0
DICTIONARY
  5
553
330
AF
100
AcDbDictionary
280
     1
281
     1
  3
ACAD_XREC_ROUNDTRIP
360
554
  0
DICTIONARY
  5
534
330
8E
100
AcDbDictionary
280
     1
281
     1
  3
ACAD_XREC_ROUNDTRIP
360
535
  0
DICTIONARY
  5
54F
330
AD
100
AcDbDictionary
280
     1
281
     1
  3
ACAD_XREC_ROUNDTRIP
360
550
  0
DICTIONARY
  5
54D
330
AC
100
AcDbDictionary
280
     1
281
     1
  3
ACAD_XREC_ROUNDTRIP
360
54E
  0
DICTIONARY
  5
547
330
A9
100
AcDbDictionary
280
     1
281
     1
  3
ACAD_XREC_ROUNDTRIP
360
548
  0
DICTIONARY
  5
549
330
AA
100
AcDbDictionary
280
     1
281
     1
  3
ACAD_XREC_ROUNDTRIP
360
54A
  0
DICTIONARY
  5
53A
330
91
100
AcDbDictionary
280
     1
281
     1
  3
ACAD_XREC_ROUNDTRIP
360
53B
  0
DICTIONARY
  5
543
330
A7
100
AcDbDictionary
280
     1
281
     1
  3
ACAD_XREC_ROUNDTRIP
360
544
  0
DICTIONARY
  5
54B
330
AB
100
AcDbDictionary
280
     1
281
     1
  3
ACAD_XREC_ROUNDTRIP
360
54C
  0
XRECORD
  5
51F
102
{ACAD_REACTORS
330
51E
102
}
330
51E
100
AcDbXrecord
280
     1
102
MATERIAL
148
0.0
149
0.0
149
0.0
 93
        0
 94
       63
282
     0
 72
     1
 77
     1
171
     1
175
     1
179
     1
273
     0
  0
XRECORD
  5
51D
102
{ACAD_REACTORS
330
51C
102
}
330
51C
100
AcDbXrecord
280
     1
102
MATERIAL
148
0.0
149
0.0
149
0.0
 93
        0
 94
       63
282
     0
 72
     1
 77
     1
171
     1
175
     1
179
     1
273
     0
  0
XRECORD
  5
521
102
{ACAD_REACTORS
330
520
102
}
330
520
100
AcDbXrecord
280
     1
102
MATERIAL
148
0.0
149
0.0
149
0.0
 93
        0
 94
       63
282
     0
 72
     1
 77
     1
171
     1
175
     1
179
     1
273
     0
  0
XRECORD
  5
51A
102
{ACAD_REACTORS
330
519
102
}
330
519
100
AcDbXrecord
280
     1
102
ACAD_ROUNDTRIP_2012_MLEADER_STYLE
298
     1
  0
CELLSTYLEMAP
  5
518
102
{ACAD_REACTORS
330
517
102
}
330
517
100
AcDbCellStyleMap
 90
        3
300
CELLSTYLE
  1
TABLEFORMAT_BEGIN
 90
        5
170
     1
 91
        0
 92
    32768
 62
   257
 93
        1
300
CONTENTFORMAT
  1
CONTENTFORMAT_BEGIN
 90
        0
 91
        0
 92
      512
 93
        0
300

 40
0.0
140
1.0
 94
        5
 62
     0
340
12
144
0.25
309
CONTENTFORMAT_END
171
     0
 94
        6
 95
        1
302
GRIDFORMAT
  1
GRIDFORMAT_BEGIN
 90
        0
 91
        1
 62
     0
 92
       -2
340
0
 93
        0
 40
0.045
309
GRIDFORMAT_END
 95
        2
302
GRIDFORMAT
  1
GRIDFORMAT_BEGIN
 90
        0
 91
        1
 62
     0
 92
       -2
340
0
 93
        0
 40
0.045
309
GRIDFORMAT_END
 95
        4
302
GRIDFORMAT
  1
GRIDFORMAT_BEGIN
 90
        0
 91
        1
 62
     0
 92
       -2
340
0
 93
        0
 40
0.045
309
GRIDFORMAT_END
 95
        8
302
GRIDFORMAT
  1
GRIDFORMAT_BEGIN
 90
        0
 91
        1
 62
     0
 92
       -2
340
0
 93
        0
 40
0.045
309
GRIDFORMAT_END
 95
       16
302
GRIDFORMAT
  1
GRIDFORMAT_BEGIN
 90
        0
 91
        1
 62
     0
 92
       -2
340
0
 93
        0
 40
0.045
309
GRIDFORMAT_END
 95
       32
302
GRIDFORMAT
  1
GRIDFORMAT_BEGIN
 90
        0
 91
        1
 62
     0
 92
       -2
340
0
 93
        0
 40
0.045
309
GRIDFORMAT_END
309
TABLEFORMAT_END
  1
CELLSTYLE_BEGIN
 90
        1
 91
        1
300
_TITLE
309
CELLSTYLE_END
300
CELLSTYLE
  1
TABLEFORMAT_BEGIN
 90
        5
170
     1
 91
        0
 92
        0
 62
   257
 93
        1
300
CONTENTFORMAT
  1
CONTENTFORMAT_BEGIN
 90
        0
 91
        0
 92
      512
 93
        0
300

 40
0.0
140
1.0
 94
        5
 62
     0
340
12
144
0.18
309
CONTENTFORMAT_END
171
     0
 94
        6
 95
        1
302
GRIDFORMAT
  1
GRIDFORMAT_BEGIN
 90
        0
 91
        1
 62
     0
 92
       -2
340
0
 93
        0
 40
0.045
309
GRIDFORMAT_END
 95
        2
302
GRIDFORMAT
  1
GRIDFORMAT_BEGIN
 90
        0
 91
        1
 62
     0
 92
       -2
340
0
 93
        0
 40
0.045
309
GRIDFORMAT_END
 95
        4
302
GRIDFORMAT
  1
GRIDFORMAT_BEGIN
 90
        0
 91
        1
 62
     0
 92
       -2
340
0
 93
        0
 40
0.045
309
GRIDFORMAT_END
 95
        8
302
GRIDFORMAT
  1
GRIDFORMAT_BEGIN
 90
        0
 91
        1
 62
     0
 92
       -2
340
0
 93
        0
 40
0.045
309
GRIDFORMAT_END
 95
       16
302
GRIDFORMAT
  1
GRIDFORMAT_BEGIN
 90
        0
 91
        1
 62
     0
 92
       -2
340
0
 93
        0
 40
0.045
309
GRIDFORMAT_END
 95
       32
302
GRIDFORMAT
  1
GRIDFORMAT_BEGIN
 90
        0
 91
        1
 62
     0
 92
       -2
340
0
 93
        0
 40
0.045
309
GRIDFORMAT_END
309
TABLEFORMAT_END
  1
CELLSTYLE_BEGIN
 90
        2
 91
        1
300
_HEADER
309
CELLSTYLE_END
300
CELLSTYLE
  1
TABLEFORMAT_BEGIN
 90
        5
170
     1
 91
        0
 92
        0
 62
   257
 93
        1
300
CONTENTFORMAT
  1
CONTENTFORMAT_BEGIN
 90
        0
 91
        0
 92
      512
 93
        0
300

 40
0.0
140
1.0
 94
        2
 62
     0
340
12
144
0.18
309
CONTENTFORMAT_END
171
     0
 94
        6
 95
        1
302
GRIDFORMAT
  1
GRIDFORMAT_BEGIN
 90
        0
 91
        1
 62
     0
 92
       -2
340
0
 93
        0
 40
0.045
309
GRIDFORMAT_END
 95
        2
302
GRIDFORMAT
  1
GRIDFORMAT_BEGIN
 90
        0
 91
        1
 62
     0
 92
       -2
340
0
 93
        0
 40
0.045
309
GRIDFORMAT_END
 95
        4
302
GRIDFORMAT
  1
GRIDFORMAT_BEGIN
 90
        0
 91
        1
 62
     0
 92
       -2
340
0
 93
        0
 40
0.045
309
GRIDFORMAT_END
 95
        8
302
GRIDFORMAT
  1
GRIDFORMAT_BEGIN
 90
        0
 91
        1
 62
     0
 92
       -2
340
0
 93
        0
 40
0.045
309
GRIDFORMAT_END
 95
       16
302
GRIDFORMAT
  1
GRIDFORMAT_BEGIN
 90
        0
 91
        1
 62
     0
 92
       -2
340
0
 93
        0
 40
0.045
309
GRIDFORMAT_END
 95
       32
302
GRIDFORMAT
  1
GRIDFORMAT_BEGIN
 90
        0
 91
        1
 62
     0
 92
       -2
340
0
 93
        0
 40
0.045
309
GRIDFORMAT_END
309
TABLEFORMAT_END
  1
CELLSTYLE_BEGIN
 90
        3
 91
        2
300
_DATA
309
CELLSTYLE_END
  0
XRECORD
  5
542
102
{ACAD_REACTORS
330
517
102
}
330
517
100
AcDbXrecord
280
     1
102
ACAD_ROUNDTRIP_PRE2007_TABLESTYLE
 90
      512
 91
        0
  1

 92
      512
 93
        0
  2

 94
      512
 95
        0
  3

  0
XRECORD
  5
52D
102
{ACAD_REACTORS
330
52C
102
}
330
52C
100
AcDbXrecord
280
     1
102
RTVSPropertyOp0
 70
     1
102
RTVSPropertyOp1
 70
     1
102
RTVSPropertyOp2
 70
     1
102
RTVSPropertyOp3
 70
     1
102
RTVSPropertyOp4
 70
     1
102
RTVSPropertyOp5
 70
     1
102
RTVSPropertyOp6
 70
     1
102
RTVSPropertyOp7
 70
     1
102
RTVSPropertyOp8
 70
     1
102
RTVSPropertyOp9
 70
     1
102
RTVSPropertyOp10
 70
     1
102
RTVSPropertyOp11
 70
     1
102
RTVSPropertyOp12
 70
     1
102
RTVSPropertyOp13
 70
     1
102
RTVSPropertyOp14
 70
     1
102
RTVSPropertyOp15
 70
     1
102
RTVSPropertyOp16
 70
     1
102
RTVSPropertyOp17
 70
     1
102
RTVSPropertyOp18
 70
     1
102
RTVSPropertyOp19
 70
     1
102
RTVSPropertyOp20
 70
     1
102
RTVSPropertyOp21
 70
     1
102
RTVSPropertyOp22
 70
     1
102
RTVSPropertyOp23
 70
     1
102
RTVSPropertyOp24
 70
     1
102
RTVSPropertyOp25
 70
     1
102
RTVSPropertyOp26
 70
     1
102
RTVSPropertyOp27
 70
     1
102
RTVSPropertyOp28
 70
     1
102
RTVSPropertyOp29
 70
     1
102
RTVSPropertyOp30
 70
     1
102
RTVSPropertyOp31
 70
     1
102
RTVSPropertyOp32
 70
     1
  0
XRECORD
  5
531
102
{ACAD_REACTORS
330
530
102
}
330
530
100
AcDbXrecord
280
     1
102
RTVSPropertyOp0
 70
     1
102
RTVSPropertyOp1
 70
     1
102
RTVSPropertyOp2
 70
     1
102
RTVSPropertyOp3
 70
     1
102
RTVSPropertyOp4
 70
     1
102
RTVSPropertyOp5
 70
     1
102
RTVSPropertyOp6
 70
     1
102
RTVSPropertyOp7
 70
     1
102
RTVSPropertyOp8
 70
     1
102
RTVSPropertyOp9
 70
     1
102
RTVSPropertyOp10
 70
     1
102
RTVSPropertyOp11
 70
     1
102
RTVSPropertyOp12
 70
     1
102
RTVSPropertyOp13
 70
     1
102
RTVSPropertyOp14
 70
     1
102
RTVSPropertyOp15
 70
     1
102
RTVSPropertyOp16
 70
     1
102
RTVSPropertyOp17
 70
     1
102
RTVSPropertyOp18
 70
     1
102
RTVSPropertyOp19
 70
     1
102
RTVSPropertyOp20
 70
     1
102
RTVSPropertyOp21
 70
     1
102
RTVSPropertyOp22
 70
     1
102
RTVSPropertyOp23
 70
     1
102
RTVSPropertyOp24
 70
     1
102
RTVSPropertyOp25
 70
     1
102
RTVSPropertyOp26
 70
     1
102
RTVSPropertyOp27
 70
     1
102
RTVSPropertyOp28
 70
     1
102
RTVSPropertyOp29
 70
     1
102
RTVSPropertyOp30
 70
     1
102
RTVSPropertyOp31
 70
     1
102
RTVSPropertyOp32
 70
     1
  0
XRECORD
  5
52F
102
{ACAD_REACTORS
330
52E
102
}
330
52E
100
AcDbXrecord
280
     1
102
RTVSPropertyOp0
 70
     1
102
RTVSPropertyOp1
 70
     1
102
RTVSPropertyOp2
 70
     1
102
RTVSPropertyOp3
 70
     1
102
RTVSPropertyOp4
 70
     1
102
RTVSPropertyOp5
 70
     1
102
RTVSPropertyOp6
 70
     1
102
RTVSPropertyOp7
 70
     1
102
RTVSPropertyOp8
 70
     1
102
RTVSPropertyOp9
 70
     1
102
RTVSPropertyOp10
 70
     1
102
RTVSPropertyOp11
 70
     1
102
RTVSPropertyOp12
 70
     1
102
RTVSPropertyOp13
 70
     1
102
RTVSPropertyOp14
 70
     1
102
RTVSPropertyOp15
 70
     1
102
RTVSPropertyOp16
 70
     1
102
RTVSPropertyOp17
 70
     1
102
RTVSPropertyOp18
 70
     1
102
RTVSPropertyOp19
 70
     1
102
RTVSPropertyOp20
 70
     1
102
RTVSPropertyOp21
 70
     1
102
RTVSPropertyOp22
 70
     1
102
RTVSPropertyOp23
 70
     1
102
RTVSPropertyOp24
 70
     1
102
RTVSPropertyOp25
 70
     1
102
RTVSPropertyOp26
 70
     1
102
RTVSPropertyOp27
 70
     1
102
RTVSPropertyOp28
 70
     1
102
RTVSPropertyOp29
 70
     1
102
RTVSPropertyOp30
 70
     1
102
RTVSPropertyOp31
 70
     1
102
RTVSPropertyOp32
 70
     1
  0
XRECORD
  5
52B
102
{ACAD_REACTORS
330
52A
102
}
330
52A
100
AcDbXrecord
280
     1
102
RTVSPropertyOp0
 70
     1
102
RTVSPropertyOp1
 70
     1
102
RTVSPropertyOp2
 70
     1
102
RTVSPropertyOp3
 70
     1
102
RTVSPropertyOp4
 70
     1
102
RTVSPropertyOp5
 70
     1
102
RTVSPropertyOp6
 70
     1
102
RTVSPropertyOp7
 70
     1
102
RTVSPropertyOp8
 70
     1
102
RTVSPropertyOp9
 70
     1
102
RTVSPropertyOp10
 70
     1
102
RTVSPropertyOp11
 70
     1
102
RTVSPropertyOp12
 70
     1
102
RTVSPropertyOp13
 70
     1
102
RTVSPropertyOp14
 70
     1
102
RTVSPropertyOp15
 70
     1
102
RTVSPropertyOp16
 70
     1
102
RTVSPropertyOp17
 70
     1
102
RTVSPropertyOp18
 70
     1
102
RTVSPropertyOp19
 70
     1
102
RTVSPropertyOp20
 70
     1
102
RTVSPropertyOp21
 70
     1
102
RTVSPropertyOp22
 70
     1
102
RTVSPropertyOp23
 70
     1
102
RTVSPropertyOp24
 70
     1
102
RTVSPropertyOp25
 70
     1
102
RTVSPropertyOp26
 70
     1
102
RTVSPropertyOp27
 70
     1
102
RTVSPropertyOp28
 70
     1
102
RTVSPropertyOp29
 70
     1
102
RTVSPropertyOp30
 70
     1
102
RTVSPropertyOp31
 70
     1
102
RTVSPropertyOp32
 70
     1
  0
XRECORD
  5
539
102
{ACAD_REACTORS
330
538
102
}
330
538
100
AcDbXrecord
280
     1
102
RTVSPropertyOp0
 70
     1
102
RTVSPropertyOp1
 70
     1
102
RTVSPropertyOp2
 70
     1
102
RTVSPropertyOp3
 70
     1
102
RTVSPropertyOp4
 70
     1
102
RTVSPropertyOp5
 70
     1
102
RTVSPropertyOp6
 70
     1
102
RTVSPropertyOp7
 70
     1
102
RTVSPropertyOp8
 70
     1
102
RTVSPropertyOp9
 70
     1
102
RTVSPropertyOp10
 70
     1
102
RTVSPropertyOp11
 70
     1
102
RTVSPropertyOp12
 70
     1
102
RTVSPropertyOp13
 70
     1
102
RTVSPropertyOp14
 70
     1
102
RTVSPropertyOp15
 70
     1
102
RTVSPropertyOp16
 70
     1
102
RTVSPropertyOp17
 70
     1
102
RTVSPropertyOp18
 70
     1
102
RTVSPropertyOp19
 70
     1
102
RTVSPropertyOp20
 70
     1
102
RTVSPropertyOp21
 70
     1
102
RTVSPropertyOp22
 70
     1
102
RTVSPropertyOp23
 70
     1
102
RTVSPropertyOp24
 70
     1
102
RTVSPropertyOp25
 70
     1
102
RTVSPropertyOp26
 70
     1
102
RTVSPropertyOp27
 70
     1
102
RTVSPropertyOp28
 70
     1
102
RTVSPropertyOp29
 70
     1
102
RTVSPropertyOp30
 70
     1
102
RTVSPropertyOp31
 70
     1
102
RTVSPropertyOp32
 70
     1
  0
XRECORD
  5
541
102
{ACAD_REACTORS
330
540
102
}
330
540
100
AcDbXrecord
280
     1
102
RTVSPropertyOp0
 70
     1
102
RTVSPropertyOp1
 70
     1
102
RTVSPropertyOp2
 70
     1
102
RTVSPropertyOp3
 70
     1
102
RTVSPropertyOp4
 70
     1
102
RTVSPropertyOp5
 70
     1
102
RTVSPropertyOp6
 70
     1
102
RTVSPropertyOp7
 70
     1
102
RTVSPropertyOp8
 70
     1
102
RTVSPropertyOp9
 70
     1
102
RTVSPropertyOp10
 70
     1
102
RTVSPropertyOp11
 70
     1
102
RTVSPropertyOp12
 70
     1
102
RTVSPropertyOp13
 70
     1
102
RTVSPropertyOp14
 70
     1
102
RTVSPropertyOp15
 70
     1
102
RTVSPropertyOp16
 70
     1
102
RTVSPropertyOp17
 70
     1
102
RTVSPropertyOp18
 70
     1
102
RTVSPropertyOp19
 70
     1
102
RTVSPropertyOp20
 70
     1
102
RTVSPropertyOp21
 70
     1
102
RTVSPropertyOp22
 70
     1
102
RTVSPropertyOp23
 70
     1
102
RTVSPropertyOp24
 70
     1
102
RTVSPropertyOp25
 70
     1
102
RTVSPropertyOp26
 70
     1
102
RTVSPropertyOp27
 70
     1
102
RTVSPropertyOp28
 70
     1
102
RTVSPropertyOp29
 70
     1
102
RTVSPropertyOp30
 70
     1
102
RTVSPropertyOp31
 70
     1
102
RTVSPropertyOp32
 70
     1
  0
XRECORD
  5
533
102
{ACAD_REACTORS
330
532
102
}
330
532
100
AcDbXrecord
280
     1
102
RTVSPropertyOp0
 70
     1
102
RTVSPropertyOp1
 70
     1
102
RTVSPropertyOp2
 70
     1
102
RTVSPropertyOp3
 70
     1
102
RTVSPropertyOp4
 70
     1
102
RTVSPropertyOp5
 70
     1
102
RTVSPropertyOp6
 70
     1
102
RTVSPropertyOp7
 70
     1
102
RTVSPropertyOp8
 70
     1
102
RTVSPropertyOp9
 70
     1
102
RTVSPropertyOp10
 70
     1
102
RTVSPropertyOp11
 70
     1
102
RTVSPropertyOp12
 70
     1
102
RTVSPropertyOp13
 70
     1
102
RTVSPropertyOp14
 70
     1
102
RTVSPropertyOp15
 70
     1
102
RTVSPropertyOp16
 70
     1
102
RTVSPropertyOp17
 70
     1
102
RTVSPropertyOp18
 70
     1
102
RTVSPropertyOp19
 70
     1
102
RTVSPropertyOp20
 70
     1
102
RTVSPropertyOp21
 70
     1
102
RTVSPropertyOp22
 70
     1
102
RTVSPropertyOp23
 70
     1
102
RTVSPropertyOp24
 70
     1
102
RTVSPropertyOp25
 70
     1
102
RTVSPropertyOp26
 70
     1
102
RTVSPropertyOp27
 70
     1
102
RTVSPropertyOp28
 70
     1
102
RTVSPropertyOp29
 70
     1
102
RTVSPropertyOp30
 70
     1
102
RTVSPropertyOp31
 70
     1
102
RTVSPropertyOp32
 70
     1
  0
XRECORD
  5
537
102
{ACAD_REACTORS
330
536
102
}
330
536
100
AcDbXrecord
280
     1
102
RTVSPropertyOp0
 70
     1
102
RTVSPropertyOp1
 70
     1
102
RTVSPropertyOp2
 70
     1
102
RTVSPropertyOp3
 70
     1
102
RTVSPropertyOp4
 70
     1
102
RTVSPropertyOp5
 70
     1
102
RTVSPropertyOp6
 70
     1
102
RTVSPropertyOp7
 70
     1
102
RTVSPropertyOp8
 70
     1
102
RTVSPropertyOp9
 70
     1
102
RTVSPropertyOp10
 70
     1
102
RTVSPropertyOp11
 70
     1
102
RTVSPropertyOp12
 70
     1
102
RTVSPropertyOp13
 70
     1
102
RTVSPropertyOp14
 70
     1
102
RTVSPropertyOp15
 70
     1
102
RTVSPropertyOp16
 70
     1
102
RTVSPropertyOp17
 70
     1
102
RTVSPropertyOp18
 70
     1
102
RTVSPropertyOp19
 70
     1
102
RTVSPropertyOp20
 70
     1
102
RTVSPropertyOp21
 70
     1
102
RTVSPropertyOp22
 70
     1
102
RTVSPropertyOp23
 70
     1
102
RTVSPropertyOp24
 70
     1
102
RTVSPropertyOp25
 70
     1
102
RTVSPropertyOp26
 70
     1
102
RTVSPropertyOp27
 70
     1
102
RTVSPropertyOp28
 70
     1
102
RTVSPropertyOp29
 70
     1
102
RTVSPropertyOp30
 70
     1
102
RTVSPropertyOp31
 70
     1
102
RTVSPropertyOp32
 70
     1
  0
XRECORD
  5
556
102
{ACAD_REACTORS
330
555
102
}
330
555
100
AcDbXrecord
280
     1
102
RTVSPropertyOp0
 70
     0
102
RTVSPropertyOp1
 70
     0
102
RTVSPropertyOp2
 70
     0
102
RTVSPropertyOp3
 70
     0
102
RTVSPropertyOp4
 70
     0
102
RTVSPropertyOp5
 70
     0
102
RTVSPropertyOp6
 70
     0
102
RTVSPropertyOp7
 70
     0
102
RTVSPropertyOp8
 70
     0
102
RTVSPropertyOp9
 70
     0
102
RTVSPropertyOp10
 70
     0
102
RTVSPropertyOp11
 70
     0
102
RTVSPropertyOp12
 70
     0
102
RTVSPropertyOp13
 70
     0
102
RTVSPropertyOp14
 70
     2
102
RTVSPropertyOp15
 70
     0
102
RTVSPropertyOp16
 70
     0
102
RTVSPropertyOp17
 70
     0
102
RTVSPropertyOp18
 70
     0
102
RTVSPropertyOp19
 70
     0
102
RTVSPropertyOp20
 70
     0
102
RTVSPropertyOp21
 70
     0
102
RTVSPropertyOp22
 70
     0
102
RTVSPropertyOp23
 70
     0
102
RTVSPropertyOp24
 70
     0
102
RTVSPropertyOp25
 70
     0
102
RTVSPropertyOp26
 70
     0
102
RTVSPropertyOp27
 70
     0
102
RTVSPropertyOp28
 70
     0
102
RTVSPropertyOp29
 70
     0
102
RTVSPropertyOp30
 70
     0
102
RTVSPropertyOp31
 70
     0
102
RTVSPropertyOp32
 70
     0
  0
XRECORD
  5
53F
102
{ACAD_REACTORS
330
53E
102
}
330
53E
100
AcDbXrecord
280
     1
102
RTVSPropertyOp0
 70
     1
102
RTVSPropertyOp1
 70
     1
102
RTVSPropertyOp2
 70
     1
102
RTVSPropertyOp3
 70
     1
102
RTVSPropertyOp4
 70
     1
102
RTVSPropertyOp5
 70
     1
102
RTVSPropertyOp6
 70
     1
102
RTVSPropertyOp7
 70
     1
102
RTVSPropertyOp8
 70
     1
102
RTVSPropertyOp9
 70
     1
102
RTVSPropertyOp10
 70
     1
102
RTVSPropertyOp11
 70
     1
102
RTVSPropertyOp12
 70
     1
102
RTVSPropertyOp13
 70
     1
102
RTVSPropertyOp14
 70
     1
102
RTVSPropertyOp15
 70
     1
102
RTVSPropertyOp16
 70
     1
102
RTVSPropertyOp17
 70
     1
102
RTVSPropertyOp18
 70
     1
102
RTVSPropertyOp19
 70
     1
102
RTVSPropertyOp20
 70
     1
102
RTVSPropertyOp21
 70
     1
102
RTVSPropertyOp22
 70
     1
102
RTVSPropertyOp23
 70
     1
102
RTVSPropertyOp24
 70
     1
102
RTVSPropertyOp25
 70
     1
102
RTVSPropertyOp26
 70
     1
102
RTVSPropertyOp27
 70
     1
102
RTVSPropertyOp28
 70
     1
102
RTVSPropertyOp29
 70
     1
102
RTVSPropertyOp30
 70
     1
102
RTVSPropertyOp31
 70
     1
102
RTVSPropertyOp32
 70
     1
  0
XRECORD
  5
523
102
{ACAD_REACTORS
330
522
102
}
330
522
100
AcDbXrecord
280
     1
102
RTVSPropertyOp0
 70
     1
102
RTVSPropertyOp1
 70
     1
102
RTVSPropertyOp2
 70
     1
102
RTVSPropertyOp3
 70
     1
102
RTVSPropertyOp4
 70
     1
102
RTVSPropertyOp5
 70
     1
102
RTVSPropertyOp6
 70
     1
102
RTVSPropertyOp7
 70
     1
102
RTVSPropertyOp8
 70
     1
102
RTVSPropertyOp9
 70
     1
102
RTVSPropertyOp10
 70
     1
102
RTVSPropertyOp11
 70
     1
102
RTVSPropertyOp12
 70
     1
102
RTVSPropertyOp13
 70
     1
102
RTVSPropertyOp14
 70
     1
102
RTVSPropertyOp15
 70
     1
102
RTVSPropertyOp16
 70
     1
102
RTVSPropertyOp17
 70
     1
102
RTVSPropertyOp18
 70
     1
102
RTVSPropertyOp19
 70
     1
102
RTVSPropertyOp20
 70
     1
102
RTVSPropertyOp21
 70
     1
102
RTVSPropertyOp22
 70
     1
102
RTVSPropertyOp23
 70
     1
102
RTVSPropertyOp24
 70
     1
102
RTVSPropertyOp25
 70
     1
102
RTVSPropertyOp26
 70
     1
102
RTVSPropertyOp27
 70
     1
102
RTVSPropertyOp28
 70
     1
102
RTVSPropertyOp29
 70
     1
102
RTVSPropertyOp30
 70
     1
102
RTVSPropertyOp31
 70
     1
102
RTVSPropertyOp32
 70
     1
  0
XRECORD
  5
525
102
{ACAD_REACTORS
330
524
102
}
330
524
100
AcDbXrecord
280
     1
102
RTVSPropertyOp0
 70
     1
102
RTVSPropertyOp1
 70
     1
102
RTVSPropertyOp2
 70
     1
102
RTVSPropertyOp3
 70
     1
102
RTVSPropertyOp4
 70
     1
102
RTVSPropertyOp5
 70
     1
102
RTVSPropertyOp6
 70
     1
102
RTVSPropertyOp7
 70
     1
102
RTVSPropertyOp8
 70
     1
102
RTVSPropertyOp9
 70
     1
102
RTVSPropertyOp10
 70
     1
102
RTVSPropertyOp11
 70
     1
102
RTVSPropertyOp12
 70
     1
102
RTVSPropertyOp13
 70
     1
102
RTVSPropertyOp14
 70
     1
102
RTVSPropertyOp15
 70
     1
102
RTVSPropertyOp16
 70
     1
102
RTVSPropertyOp17
 70
     1
102
RTVSPropertyOp18
 70
     1
102
RTVSPropertyOp19
 70
     1
102
RTVSPropertyOp20
 70
     1
102
RTVSPropertyOp21
 70
     1
102
RTVSPropertyOp22
 70
     1
102
RTVSPropertyOp23
 70
     1
102
RTVSPropertyOp24
 70
     1
102
RTVSPropertyOp25
 70
     1
102
RTVSPropertyOp26
 70
     1
102
RTVSPropertyOp27
 70
     1
102
RTVSPropertyOp28
 70
     1
102
RTVSPropertyOp29
 70
     1
102
RTVSPropertyOp30
 70
     1
102
RTVSPropertyOp31
 70
     1
102
RTVSPropertyOp32
 70
     1
  0
XRECORD
  5
527
102
{ACAD_REACTORS
330
526
102
}
330
526
100
AcDbXrecord
280
     1
102
RTVSPropertyOp0
 70
     1
102
RTVSPropertyOp1
 70
     1
102
RTVSPropertyOp2
 70
     1
102
RTVSPropertyOp3
 70
     1
102
RTVSPropertyOp4
 70
     1
102
RTVSPropertyOp5
 70
     1
102
RTVSPropertyOp6
 70
     1
102
RTVSPropertyOp7
 70
     1
102
RTVSPropertyOp8
 70
     1
102
RTVSPropertyOp9
 70
     1
102
RTVSPropertyOp10
 70
     1
102
RTVSPropertyOp11
 70
     1
102
RTVSPropertyOp12
 70
     1
102
RTVSPropertyOp13
 70
     1
102
RTVSPropertyOp14
 70
     1
102
RTVSPropertyOp15
 70
     1
102
RTVSPropertyOp16
 70
     1
102
RTVSPropertyOp17
 70
     1
102
RTVSPropertyOp18
 70
     1
102
RTVSPropertyOp19
 70
     1
102
RTVSPropertyOp20
 70
     1
102
RTVSPropertyOp21
 70
     1
102
RTVSPropertyOp22
 70
     1
102
RTVSPropertyOp23
 70
     1
102
RTVSPropertyOp24
 70
     1
102
RTVSPropertyOp25
 70
     1
102
RTVSPropertyOp26
 70
     1
102
RTVSPropertyOp27
 70
     1
102
RTVSPropertyOp28
 70
     1
102
RTVSPropertyOp29
 70
     1
102
RTVSPropertyOp30
 70
     1
102
RTVSPropertyOp31
 70
     1
102
RTVSPropertyOp32
 70
     1
  0
XRECORD
  5
529
102
{ACAD_REACTORS
330
528
102
}
330
528
100
AcDbXrecord
280
     1
102
RTVSPropertyOp0
 70
     1
102
RTVSPropertyOp1
 70
     1
102
RTVSPropertyOp2
 70
     1
102
RTVSPropertyOp3
 70
     1
102
RTVSPropertyOp4
 70
     1
102
RTVSPropertyOp5
 70
     1
102
RTVSPropertyOp6
 70
     1
102
RTVSPropertyOp7
 70
     1
102
RTVSPropertyOp8
 70
     1
102
RTVSPropertyOp9
 70
     1
102
RTVSPropertyOp10
 70
     1
102
RTVSPropertyOp11
 70
     1
102
RTVSPropertyOp12
 70
     1
102
RTVSPropertyOp13
 70
     1
102
RTVSPropertyOp14
 70
     1
102
RTVSPropertyOp15
 70
     1
102
RTVSPropertyOp16
 70
     1
102
RTVSPropertyOp17
 70
     1
102
RTVSPropertyOp18
 70
     1
102
RTVSPropertyOp19
 70
     1
102
RTVSPropertyOp20
 70
     1
102
RTVSPropertyOp21
 70
     1
102
RTVSPropertyOp22
 70
     1
102
RTVSPropertyOp23
 70
     1
102
RTVSPropertyOp24
 70
     1
102
RTVSPropertyOp25
 70
     1
102
RTVSPropertyOp26
 70
     1
102
RTVSPropertyOp27
 70
     1
102
RTVSPropertyOp28
 70
     1
102
RTVSPropertyOp29
 70
     1
102
RTVSPropertyOp30
 70
     1
102
RTVSPropertyOp31
 70
     1
102
RTVSPropertyOp32
 70
     1
  0
XRECORD
  5
546
102
{ACAD_REACTORS
330
545
102
}
330
545
100
AcDbXrecord
280
     1
102
RTVSPropertyOp0
 70
     1
102
RTVSPropertyOp1
 70
     1
102
RTVSPropertyOp2
 70
     1
102
RTVSPropertyOp3
 70
     1
102
RTVSPropertyOp4
 70
     1
102
RTVSPropertyOp5
 70
     1
102
RTVSPropertyOp6
 70
     1
102
RTVSPropertyOp7
 70
     1
102
RTVSPropertyOp8
 70
     1
102
RTVSPropertyOp9
 70
     1
102
RTVSPropertyOp10
 70
     1
102
RTVSPropertyOp11
 70
     1
102
RTVSPropertyOp12
 70
     1
102
RTVSPropertyOp13
 70
     1
102
RTVSPropertyOp14
 70
     1
102
RTVSPropertyOp15
 70
     1
102
RTVSPropertyOp16
 70
     1
102
RTVSPropertyOp17
 70
     1
102
RTVSPropertyOp18
 70
     1
102
RTVSPropertyOp19
 70
     1
102
RTVSPropertyOp20
 70
     1
102
RTVSPropertyOp21
 70
     1
102
RTVSPropertyOp22
 70
     1
102
RTVSPropertyOp23
 70
     1
102
RTVSPropertyOp24
 70
     1
102
RTVSPropertyOp25
 70
     1
102
RTVSPropertyOp26
 70
     1
102
RTVSPropertyOp27
 70
     1
102
RTVSPropertyOp28
 70
     1
102
RTVSPropertyOp29
 70
     1
102
RTVSPropertyOp30
 70
     1
102
RTVSPropertyOp31
 70
     1
102
RTVSPropertyOp32
 70
     1
  0
XRECORD
  5
552
102
{ACAD_REACTORS
330
551
102
}
330
551
100
AcDbXrecord
280
     1
102
RTVSPropertyOp0
 70
     0
102
RTVSPropertyOp1
 70
     0
102
RTVSPropertyOp2
 70
     0
102
RTVSPropertyOp3
 70
     0
102
RTVSPropertyOp4
 70
     0
102
RTVSPropertyOp5
 70
     0
102
RTVSPropertyOp6
 70
     0
102
RTVSPropertyOp7
 70
     0
102
RTVSPropertyOp8
 70
     0
102
RTVSPropertyOp9
 70
     0
102
RTVSPropertyOp10
 70
     0
102
RTVSPropertyOp11
 70
     0
102
RTVSPropertyOp12
 70
     0
102
RTVSPropertyOp13
 70
     0
102
RTVSPropertyOp14
 70
     2
102
RTVSPropertyOp15
 70
     0
102
RTVSPropertyOp16
 70
     0
102
RTVSPropertyOp17
 70
     0
102
RTVSPropertyOp18
 70
     0
102
RTVSPropertyOp19
 70
     0
102
RTVSPropertyOp20
 70
     0
102
RTVSPropertyOp21
 70
     0
102
RTVSPropertyOp22
 70
     0
102
RTVSPropertyOp23
 70
     0
102
RTVSPropertyOp24
 70
     0
102
RTVSPropertyOp25
 70
     0
102
RTVSPropertyOp26
 70
     0
102
RTVSPropertyOp27
 70
     0
102
RTVSPropertyOp28
 70
     0
102
RTVSPropertyOp29
 70
     0
102
RTVSPropertyOp30
 70
     0
102
RTVSPropertyOp31
 70
     0
102
RTVSPropertyOp32
 70
     0
  0
XRECORD
  5
53D
102
{ACAD_REACTORS
330
53C
102
}
330
53C
100
AcDbXrecord
280
     1
102
RTVSPropertyOp0
 70
     1
102
RTVSPropertyOp1
 70
     1
102
RTVSPropertyOp2
 70
     1
102
RTVSPropertyOp3
 70
     1
102
RTVSPropertyOp4
 70
     1
102
RTVSPropertyOp5
 70
     1
102
RTVSPropertyOp6
 70
     1
102
RTVSPropertyOp7
 70
     1
102
RTVSPropertyOp8
 70
     1
102
RTVSPropertyOp9
 70
     1
102
RTVSPropertyOp10
 70
     1
102
RTVSPropertyOp11
 70
     1
102
RTVSPropertyOp12
 70
     1
102
RTVSPropertyOp13
 70
     1
102
RTVSPropertyOp14
 70
     1
102
RTVSPropertyOp15
 70
     1
102
RTVSPropertyOp16
 70
     1
102
RTVSPropertyOp17
 70
     1
102
RTVSPropertyOp18
 70
     1
102
RTVSPropertyOp19
 70
     1
102
RTVSPropertyOp20
 70
     1
102
RTVSPropertyOp21
 70
     1
102
RTVSPropertyOp22
 70
     1
102
RTVSPropertyOp23
 70
     1
102
RTVSPropertyOp24
 70
     1
102
RTVSPropertyOp25
 70
     1
102
RTVSPropertyOp26
 70
     1
102
RTVSPropertyOp27
 70
     1
102
RTVSPropertyOp28
 70
     1
102
RTVSPropertyOp29
 70
     1
102
RTVSPropertyOp30
 70
     1
102
RTVSPropertyOp31
 70
     1
102
RTVSPropertyOp32
 70
     1
  0
XRECORD
  5
554
102
{ACAD_REACTORS
330
553
102
}
330
553
100
AcDbXrecord
280
     1
102
RTVSPropertyOp0
 70
     0
102
RTVSPropertyOp1
 70
     0
102
RTVSPropertyOp2
 70
     0
102
RTVSPropertyOp3
 70
     0
102
RTVSPropertyOp4
 70
     0
102
RTVSPropertyOp5
 70
     0
102
RTVSPropertyOp6
 70
     0
102
RTVSPropertyOp7
 70
     0
102
RTVSPropertyOp8
 70
     0
102
RTVSPropertyOp9
 70
     0
102
RTVSPropertyOp10
 70
     0
102
RTVSPropertyOp11
 70
     0
102
RTVSPropertyOp12
 70
     0
102
RTVSPropertyOp13
 70
     0
102
RTVSPropertyOp14
 70
     2
102
RTVSPropertyOp15
 70
     0
102
RTVSPropertyOp16
 70
     0
102
RTVSPropertyOp17
 70
     0
102
RTVSPropertyOp18
 70
     0
102
RTVSPropertyOp19
 70
     0
102
RTVSPropertyOp20
 70
     0
102
RTVSPropertyOp21
 70
     0
102
RTVSPropertyOp22
 70
     0
102
RTVSPropertyOp23
 70
     0
102
RTVSPropertyOp24
 70
     0
102
RTVSPropertyOp25
 70
     0
102
RTVSPropertyOp26
 70
     0
102
RTVSPropertyOp27
 70
     0
102
RTVSPropertyOp28
 70
     0
102
RTVSPropertyOp29
 70
     0
102
RTVSPropertyOp30
 70
     0
102
RTVSPropertyOp31
 70
     0
102
RTVSPropertyOp32
 70
     0
  0
XRECORD
  5
535
102
{ACAD_REACTORS
330
534
102
}
330
534
100
AcDbXrecord
280
     1
102
RTVSPropertyOp0
 70
     1
102
RTVSPropertyOp1
 70
     1
102
RTVSPropertyOp2
 70
     1
102
RTVSPropertyOp3
 70
     1
102
RTVSPropertyOp4
 70
     1
102
RTVSPropertyOp5
 70
     1
102
RTVSPropertyOp6
 70
     1
102
RTVSPropertyOp7
 70
     1
102
RTVSPropertyOp8
 70
     1
102
RTVSPropertyOp9
 70
     1
102
RTVSPropertyOp10
 70
     1
102
RTVSPropertyOp11
 70
     1
102
RTVSPropertyOp12
 70
     1
102
RTVSPropertyOp13
 70
     1
102
RTVSPropertyOp14
 70
     1
102
RTVSPropertyOp15
 70
     1
102
RTVSPropertyOp16
 70
     1
102
RTVSPropertyOp17
 70
     1
102
RTVSPropertyOp18
 70
     1
102
RTVSPropertyOp19
 70
     1
102
RTVSPropertyOp20
 70
     1
102
RTVSPropertyOp21
 70
     1
102
RTVSPropertyOp22
 70
     1
102
RTVSPropertyOp23
 70
     1
102
RTVSPropertyOp24
 70
     1
102
RTVSPropertyOp25
 70
     1
102
RTVSPropertyOp26
 70
     1
102
RTVSPropertyOp27
 70
     1
102
RTVSPropertyOp28
 70
     1
102
RTVSPropertyOp29
 70
     1
102
RTVSPropertyOp30
 70
     1
102
RTVSPropertyOp31
 70
     1
102
RTVSPropertyOp32
 70
     1
  0
XRECORD
  5
550
102
{ACAD_REACTORS
330
54F
102
}
330
54F
100
AcDbXrecord
280
     1
102
RTVSPropertyOp0
 70
     1
102
RTVSPropertyOp1
 70
     1
102
RTVSPropertyOp2
 70
     1
102
RTVSPropertyOp3
 70
     1
102
RTVSPropertyOp4
 70
     1
102
RTVSPropertyOp5
 70
     1
102
RTVSPropertyOp6
 70
     1
102
RTVSPropertyOp7
 70
     1
102
RTVSPropertyOp8
 70
     1
102
RTVSPropertyOp9
 70
     1
102
RTVSPropertyOp10
 70
     1
102
RTVSPropertyOp11
 70
     1
102
RTVSPropertyOp12
 70
     1
102
RTVSPropertyOp13
 70
     1
102
RTVSPropertyOp14
 70
     1
102
RTVSPropertyOp15
 70
     1
102
RTVSPropertyOp16
 70
     1
102
RTVSPropertyOp17
 70
     1
102
RTVSPropertyOp18
 70
     1
102
RTVSPropertyOp19
 70
     1
102
RTVSPropertyOp20
 70
     1
102
RTVSPropertyOp21
 70
     1
102
RTVSPropertyOp22
 70
     1
102
RTVSPropertyOp23
 70
     1
102
RTVSPropertyOp24
 70
     1
102
RTVSPropertyOp25
 70
     1
102
RTVSPropertyOp26
 70
     1
102
RTVSPropertyOp27
 70
     1
102
RTVSPropertyOp28
 70
     1
102
RTVSPropertyOp29
 70
     1
102
RTVSPropertyOp30
 70
     1
102
RTVSPropertyOp31
 70
     1
102
RTVSPropertyOp32
 70
     1
  0
XRECORD
  5
54E
102
{ACAD_REACTORS
330
54D
102
}
330
54D
100
AcDbXrecord
280
     1
102
RTVSPropertyOp0
 70
     1
102
RTVSPropertyOp1
 70
     1
102
RTVSPropertyOp2
 70
     1
102
RTVSPropertyOp3
 70
     1
102
RTVSPropertyOp4
 70
     1
102
RTVSPropertyOp5
 70
     1
102
RTVSPropertyOp6
 70
     1
102
RTVSPropertyOp7
 70
     1
102
RTVSPropertyOp8
 70
     1
102
RTVSPropertyOp9
 70
     1
102
RTVSPropertyOp10
 70
     1
102
RTVSPropertyOp11
 70
     1
102
RTVSPropertyOp12
 70
     1
102
RTVSPropertyOp13
 70
     1
102
RTVSPropertyOp14
 70
     1
102
RTVSPropertyOp15
 70
     1
102
RTVSPropertyOp16
 70
     1
102
RTVSPropertyOp17
 70
     1
102
RTVSPropertyOp18
 70
     1
102
RTVSPropertyOp19
 70
     1
102
RTVSPropertyOp20
 70
     1
102
RTVSPropertyOp21
 70
     1
102
RTVSPropertyOp22
 70
     1
102
RTVSPropertyOp23
 70
     1
102
RTVSPropertyOp24
 70
     1
102
RTVSPropertyOp25
 70
     1
102
RTVSPropertyOp26
 70
     1
102
RTVSPropertyOp27
 70
     1
102
RTVSPropertyOp28
 70
     1
102
RTVSPropertyOp29
 70
     1
102
RTVSPropertyOp30
 70
     1
102
RTVSPropertyOp31
 70
     1
102
RTVSPropertyOp32
 70
     1
  0
XRECORD
  5
548
102
{ACAD_REACTORS
330
547
102
}
330
547
100
AcDbXrecord
280
     1
102
RTVSPropertyOp0
 70
     1
102
RTVSPropertyOp1
 70
     1
102
RTVSPropertyOp2
 70
     1
102
RTVSPropertyOp3
 70
     1
102
RTVSPropertyOp4
 70
     1
102
RTVSPropertyOp5
 70
     1
102
RTVSPropertyOp6
 70
     1
102
RTVSPropertyOp7
 70
     1
102
RTVSPropertyOp8
 70
     1
102
RTVSPropertyOp9
 70
     1
102
RTVSPropertyOp10
 70
     1
102
RTVSPropertyOp11
 70
     1
102
RTVSPropertyOp12
 70
     1
102
RTVSPropertyOp13
 70
     1
102
RTVSPropertyOp14
 70
     1
102
RTVSPropertyOp15
 70
     1
102
RTVSPropertyOp16
 70
     1
102
RTVSPropertyOp17
 70
     1
102
RTVSPropertyOp18
 70
     1
102
RTVSPropertyOp19
 70
     1
102
RTVSPropertyOp20
 70
     1
102
RTVSPropertyOp21
 70
     1
102
RTVSPropertyOp22
 70
     1
102
RTVSPropertyOp23
 70
     1
102
RTVSPropertyOp24
 70
     1
102
RTVSPropertyOp25
 70
     1
102
RTVSPropertyOp26
 70
     1
102
RTVSPropertyOp27
 70
     1
102
RTVSPropertyOp28
 70
     1
102
RTVSPropertyOp29
 70
     1
102
RTVSPropertyOp30
 70
     1
102
RTVSPropertyOp31
 70
     1
102
RTVSPropertyOp32
 70
     1
  0
XRECORD
  5
54A
102
{ACAD_REACTORS
330
549
102
}
330
549
100
AcDbXrecord
280
     1
102
RTVSPropertyOp0
 70
     1
102
RTVSPropertyOp1
 70
     1
102
RTVSPropertyOp2
 70
     1
102
RTVSPropertyOp3
 70
     1
102
RTVSPropertyOp4
 70
     1
102
RTVSPropertyOp5
 70
     1
102
RTVSPropertyOp6
 70
     1
102
RTVSPropertyOp7
 70
     1
102
RTVSPropertyOp8
 70
     1
102
RTVSPropertyOp9
 70
     1
102
RTVSPropertyOp10
 70
     1
102
RTVSPropertyOp11
 70
     1
102
RTVSPropertyOp12
 70
     1
102
RTVSPropertyOp13
 70
     1
102
RTVSPropertyOp14
 70
     1
102
RTVSPropertyOp15
 70
     1
102
RTVSPropertyOp16
 70
     1
102
RTVSPropertyOp17
 70
     1
102
RTVSPropertyOp18
 70
     1
102
RTVSPropertyOp19
 70
     1
102
RTVSPropertyOp20
 70
     1
102
RTVSPropertyOp21
 70
     1
102
RTVSPropertyOp22
 70
     1
102
RTVSPropertyOp23
 70
     1
102
RTVSPropertyOp24
 70
     1
102
RTVSPropertyOp25
 70
     1
102
RTVSPropertyOp26
 70
     1
102
RTVSPropertyOp27
 70
     1
102
RTVSPropertyOp28
 70
     1
102
RTVSPropertyOp29
 70
     1
102
RTVSPropertyOp30
 70
     1
102
RTVSPropertyOp31
 70
     1
102
RTVSPropertyOp32
 70
     1
  0
XRECORD
  5
53B
102
{ACAD_REACTORS
330
53A
102
}
330
53A
100
AcDbXrecord
280
     1
102
RTVSPropertyOp0
 70
     1
102
RTVSPropertyOp1
 70
     1
102
RTVSPropertyOp2
 70
     1
102
RTVSPropertyOp3
 70
     1
102
RTVSPropertyOp4
 70
     1
102
RTVSPropertyOp5
 70
     1
102
RTVSPropertyOp6
 70
     1
102
RTVSPropertyOp7
 70
     1
102
RTVSPropertyOp8
 70
     1
102
RTVSPropertyOp9
 70
     1
102
RTVSPropertyOp10
 70
     1
102
RTVSPropertyOp11
 70
     1
102
RTVSPropertyOp12
 70
     1
102
RTVSPropertyOp13
 70
     1
102
RTVSPropertyOp14
 70
     1
102
RTVSPropertyOp15
 70
     1
102
RTVSPropertyOp16
 70
     1
102
RTVSPropertyOp17
 70
     1
102
RTVSPropertyOp18
 70
     1
102
RTVSPropertyOp19
 70
     1
102
RTVSPropertyOp20
 70
     1
102
RTVSPropertyOp21
 70
     1
102
RTVSPropertyOp22
 70
     1
102
RTVSPropertyOp23
 70
     1
102
RTVSPropertyOp24
 70
     1
102
RTVSPropertyOp25
 70
     1
102
RTVSPropertyOp26
 70
     1
102
RTVSPropertyOp27
 70
     1
102
RTVSPropertyOp28
 70
     1
102
RTVSPropertyOp29
 70
     1
102
RTVSPropertyOp30
 70
     1
102
RTVSPropertyOp31
 70
     1
102
RTVSPropertyOp32
 70
     1
  0
XRECORD
  5
544
102
{ACAD_REACTORS
330
543
102
}
330
543
100
AcDbXrecord
280
     1
102
RTVSPropertyOp0
 70
     1
102
RTVSPropertyOp1
 70
     1
102
RTVSPropertyOp2
 70
     1
102
RTVSPropertyOp3
 70
     1
102
RTVSPropertyOp4
 70
     1
102
RTVSPropertyOp5
 70
     1
102
RTVSPropertyOp6
 70
     1
102
RTVSPropertyOp7
 70
     1
102
RTVSPropertyOp8
 70
     1
102
RTVSPropertyOp9
 70
     1
102
RTVSPropertyOp10
 70
     1
102
RTVSPropertyOp11
 70
     1
102
RTVSPropertyOp12
 70
     1
102
RTVSPropertyOp13
 70
     1
102
RTVSPropertyOp14
 70
     1
102
RTVSPropertyOp15
 70
     1
102
RTVSPropertyOp16
 70
     1
102
RTVSPropertyOp17
 70
     1
102
RTVSPropertyOp18
 70
     1
102
RTVSPropertyOp19
 70
     1
102
RTVSPropertyOp20
 70
     1
102
RTVSPropertyOp21
 70
     1
102
RTVSPropertyOp22
 70
     1
102
RTVSPropertyOp23
 70
     1
102
RTVSPropertyOp24
 70
     1
102
RTVSPropertyOp25
 70
     1
102
RTVSPropertyOp26
 70
     1
102
RTVSPropertyOp27
 70
     1
102
RTVSPropertyOp28
 70
     1
102
RTVSPropertyOp29
 70
     1
102
RTVSPropertyOp30
 70
     1
102
RTVSPropertyOp31
 70
     1
102
RTVSPropertyOp32
 70
     1
  0
XRECORD
  5
54C
102
{ACAD_REACTORS
330
54B
102
}
330
54B
100
AcDbXrecord
280
     1
102
RTVSPropertyOp0
 70
     1
102
RTVSPropertyOp1
 70
     1
102
RTVSPropertyOp2
 70
     1
102
RTVSPropertyOp3
 70
     1
102
RTVSPropertyOp4
 70
     1
102
RTVSPropertyOp5
 70
     1
102
RTVSPropertyOp6
 70
     1
102
RTVSPropertyOp7
 70
     1
102
RTVSPropertyOp8
 70
     1
102
RTVSPropertyOp9
 70
     1
102
RTVSPropertyOp10
 70
     1
102
RTVSPropertyOp11
 70
     1
102
RTVSPropertyOp12
 70
     1
102
RTVSPropertyOp13
 70
     1
102
RTVSPropertyOp14
 70
     1
102
RTVSPropertyOp15
 70
     1
102
RTVSPropertyOp16
 70
     1
102
RTVSPropertyOp17
 70
     1
102
RTVSPropertyOp18
 70
     1
102
RTVSPropertyOp19
 70
     1
102
RTVSPropertyOp20
 70
     1
102
RTVSPropertyOp21
 70
     1
102
RTVSPropertyOp22
 70
     1
102
RTVSPropertyOp23
 70
     1
102
RTVSPropertyOp24
 70
     1
102
RTVSPropertyOp25
 70
     1
102
RTVSPropertyOp26
 70
     1
102
RTVSPropertyOp27
 70
     1
102
RTVSPropertyOp28
 70
     1
102
RTVSPropertyOp29
 70
     1
102
RTVSPropertyOp30
 70
     1
102
RTVSPropertyOp31
 70
     1
102
RTVSPropertyOp32
 70
     1
  0
ENDSEC
  0
EOF
