  0
SECTION
  2
HEADER
  9
$ACADVER
  1
AC1018
  9
$ACADMAINTVER
 70
   104
  9
$DWGCODEPAGE
  3
ANSI_1252
  9
$LASTSAVEDBY
  1
kamerka
  9
$INSBASE
 10
0.0
 20
0.0
 30
0.0
  9
$EXTMIN
 10
-15.52537948318442
 20
-20.33391110944251
 30
-0.0015258207003583
  9
$EXTMAX
 10
12.55072663945991
 20
21.84175233656453
 30
0.0000000349246037
  9
$LIMMIN
 10
0.0
 20
0.0
  9
$LIMMAX
 10
12.0
 20
9.0
  9
$ORTHOMODE
 70
     0
  9
$REGENMODE
 70
     1
  9
$FILLMODE
 70
     1
  9
$QTEXTMODE
 70
     0
  9
$MIRRTEXT
 70
     0
  9
$LTSCALE
 40
0.2
  9
$ATTMODE
 70
     1
  9
$TEXTSIZE
 40
0.2
  9
$TRACEWID
 40
0.05
  9
$TEXTSTYLE
  7
Standard
  9
$CLAYER
  8
0
  9
$CELTYPE
  6
ByLayer
  9
$CECOLOR
 62
   256
  9
$CELTSCALE
 40
1.0
  9
$DISPSILH
 70
     0
  9
$DIMSCALE
 40
1.0
  9
$DIMASZ
 40
0.18
  9
$DIMEXO
 40
0.0625
  9
$DIMDLI
 40
0.38
  9
$DIMRND
 40
0.0
  9
$DIMDLE
 40
0.0
  9
$DIMEXE
 40
0.18
  9
$DIMTP
 40
0.0
  9
$DIMTM
 40
0.0
  9
$DIMTXT
 40
0.18
  9
$DIMCEN
 40
0.09
  9
$DIMTSZ
 40
0.0
  9
$DIMTOL
 70
     0
  9
$DIMLIM
 70
     0
  9
$DIMTIH
 70
     1
  9
$DIMTOH
 70
     1
  9
$DIMSE1
 70
     0
  9
$DIMSE2
 70
     0
  9
$DIMTAD
 70
     0
  9
$DIMZIN
 70
     0
  9
$DIMBLK
  1

  9
$DIMASO
 70
     1
  9
$DIMSHO
 70
     1
  9
$DIMPOST
  1

  9
$DIMAPOST
  1

  9
$DIMALT
 70
     0
  9
$DIMALTD
 70
     2
  9
$DIMALTF
 40
25.4
  9
$DIMLFAC
 40
1.0
  9
$DIMTOFL
 70
     0
  9
$DIMTVP
 40
0.0
  9
$DIMTIX
 70
     0
  9
$DIMSOXD
 70
     0
  9
$DIMSAH
 70
     0
  9
$DIMBLK1
  1

  9
$DIMBLK2
  1

  9
$DIMSTYLE
  2
Standard
  9
$DIMCLRD
 70
     0
  9
$DIMCLRE
 70
     0
  9
$DIMCLRT
 70
     0
  9
$DIMTFAC
 40
1.0
  9
$DIMGAP
 40
0.09
  9
$DIMJUST
 70
     0
  9
$DIMSD1
 70
     0
  9
$DIMSD2
 70
     0
  9
$DIMTOLJ
 70
     1
  9
$DIMTZIN
 70
     0
  9
$DIMALTZ
 70
     0
  9
$DIMALTTZ
 70
     0
  9
$DIMUPT
 70
     0
  9
$DIMDEC
 70
     4
  9
$DIMTDEC
 70
     4
  9
$DIMALTU
 70
     2
  9
$DIMALTTD
 70
     2
  9
$DIMTXSTY
  7
Standard
  9
$DIMAUNIT
 70
     0
  9
$DIMADEC
 70
     0
  9
$DIMALTRND
 40
0.0
  9
$DIMAZIN
 70
     0
  9
$DIMDSEP
 70
    46
  9
$DIMATFIT
 70
     3
  9
$DIMFRAC
 70
     0
  9
$DIMLDRBLK
  1

  9
$DIMLUNIT
 70
     2
  9
$DIMLWD
 70
    -2
  9
$DIMLWE
 70
    -2
  9
$DIMTMOVE
 70
     0
  9
$LUNITS
 70
     4
  9
$LUPREC
 70
     4
  9
$SKETCHINC
 40
0.1
  9
$FILLETRAD
 40
0.0
  9
$AUNITS
 70
     0
  9
$AUPREC
 70
     0
  9
$MENU
  1
.
  9
$ELEVATION
 40
0.0
  9
$PELEVATION
 40
0.0
  9
$THICKNESS
 40
0.0
  9
$LIMCHECK
 70
     0
  9
$CHAMFERA
 40
0.0
  9
$CHAMFERB
 40
0.0
  9
$CHAMFERC
 40
0.0
  9
$CHAMFERD
 40
0.0
  9
$SKPOLY
 70
     0
  9
$TDCREATE
 40
2456869.558333657
  9
$TDUCREATE
 40
2456869.475000324
  9
$TDUPDATE
 40
2456869.558767882
  9
$TDUUPDATE
 40
2456869.475434549
  9
$TDINDWG
 40
0.0004345718
  9
$TDUSRTIMER
 40
0.0004343981
  9
$USRTIMER
 70
     1
  9
$ANGBASE
 50
0.0
  9
$ANGDIR
 70
     0
  9
$PDMODE
 70
     0
  9
$PDSIZE
 40
0.0
  9
$PLINEWID
 40
0.0
  9
$SPLFRAME
 70
     0
  9
$SPLINETYPE
 70
     6
  9
$SPLINESEGS
 70
     8
  9
$HANDSEED
  5
319
  9
$SURFTAB1
 70
     6
  9
$SURFTAB2
 70
     6
  9
$SURFTYPE
 70
     6
  9
$SURFU
 70
     6
  9
$SURFV
 70
     6
  9
$UCSBASE
  2

  9
$UCSNAME
  2

  9
$UCSORG
 10
0.0
 20
0.0
 30
0.0
  9
$UCSXDIR
 10
1.0
 20
0.0
 30
0.0
  9
$UCSYDIR
 10
0.0
 20
1.0
 30
0.0
  9
$UCSORTHOREF
  2

  9
$UCSORTHOVIEW
 70
     0
  9
$UCSORGTOP
 10
0.0
 20
0.0
 30
0.0
  9
$UCSORGBOTTOM
 10
0.0
 20
0.0
 30
0.0
  9
$UCSORGLEFT
 10
0.0
 20
0.0
 30
0.0
  9
$UCSORGRIGHT
 10
0.0
 20
0.0
 30
0.0
  9
$UCSORGFRONT
 10
0.0
 20
0.0
 30
0.0
  9
$UCSORGBACK
 10
0.0
 20
0.0
 30
0.0
  9
$PUCSBASE
  2

  9
$PUCSNAME
  2

  9
$PUCSORG
 10
0.0
 20
0.0
 30
0.0
  9
$PUCSXDIR
 10
1.0
 20
0.0
 30
0.0
  9
$PUCSYDIR
 10
0.0
 20
1.0
 30
0.0
  9
$PUCSORTHOREF
  2

  9
$PUCSORTHOVIEW
 70
     0
  9
$PUCSORGTOP
 10
0.0
 20
0.0
 30
0.0
  9
$PUCSORGBOTTOM
 10
0.0
 20
0.0
 30
0.0
  9
$PUCSORGLEFT
 10
0.0
 20
0.0
 30
0.0
  9
$PUCSORGRIGHT
 10
0.0
 20
0.0
 30
0.0
  9
$PUCSORGFRONT
 10
0.0
 20
0.0
 30
0.0
  9
$PUCSORGBACK
 10
0.0
 20
0.0
 30
0.0
  9
$USERI1
 70
     0
  9
$USERI2
 70
     0
  9
$USERI3
 70
     0
  9
$USERI4
 70
     0
  9
$USERI5
 70
     0
  9
$USERR1
 40
0.0
  9
$USERR2
 40
0.0
  9
$USERR3
 40
0.0
  9
$USERR4
 40
0.0
  9
$USERR5
 40
0.0
  9
$WORLDVIEW
 70
     1
  9
$SHADEDGE
 70
     3
  9
$SHADEDIF
 70
    70
  9
$TILEMODE
 70
     1
  9
$MAXACTVP
 70
    64
  9
$PINSBASE
 10
0.0
 20
0.0
 30
0.0
  9
$PLIMCHECK
 70
     0
  9
$PEXTMIN
 10
1.000000000000000E+20
 20
1.000000000000000E+20
 30
1.000000000000000E+20
  9
$PEXTMAX
 10
-1.000000000000000E+20
 20
-1.000000000000000E+20
 30
-1.000000000000000E+20
  9
$PLIMMIN
 10
-0.752334686935257
 20
-0.5022431411856947
  9
$PLIMMAX
 10
35.2476662742483
 20
23.49775589763074
  9
$UNITMODE
 70
     0
  9
$VISRETAIN
 70
     1
  9
$PLINEGEN
 70
     0
  9
$PSLTSCALE
 70
     1
  9
$TREEDEPTH
 70
  3020
  9
$CMLSTYLE
  2
Standard
  9
$CMLJUST
 70
     0
  9
$CMLSCALE
 40
1.0
  9
$PROXYGRAPHICS
 70
     1
  9
$MEASUREMENT
 70
     0
  9
$CELWEIGHT
370
    -1
  9
$ENDCAPS
280
     0
  9
$JOINSTYLE
280
     0
  9
$LWDISPLAY
290
     0
  9
$INSUNITS
 70
     1
  9
$HYPERLINKBASE
  1

  9
$STYLESHEET
  1

  9
$XEDIT
290
     1
  9
$CEPSNTYPE
380
     0
  9
$PSTYLEMODE
290
     1
  9
$FINGERPRINTGUID
  2
{83B650E5-CD63-48FE-A293-49397CFA9FC5}
  9
$VERSIONGUID
  2
{BE098751-FDBF-4B08-A845-9A4DEA8770E4}
  9
$EXTNAMES
290
     1
  9
$PSVPSCALE
 40
0.0
  9
$OLESTARTUP
290
     0
  9
$SORTENTS
280
   127
  9
$INDEXCTL
280
     0
  9
$HIDETEXT
280
     0
  9
$XCLIPFRAME
290
     0
  9
$HALOGAP
280
     0
  9
$OBSCOLOR
 70
   257
  9
$OBSLTYPE
280
     0
  9
$INTERSECTIONDISPLAY
280
     0
  9
$INTERSECTIONCOLOR
 70
   257
  9
$DIMASSOC
280
     1
  9
$PROJECTNAME
  1

  0
ENDSEC
  0
SECTION
  2
CLASSES
  0
CLASS
  1
ACDBDICTIONARYWDFLT
  2
AcDbDictionaryWithDefault
  3
ObjectDBX Classes
 90
        0
 91
        1
280
     0
281
     0
  0
CLASS
  1
PLOTSETTINGS
  2
AcDbPlotSettings
  3
ObjectDBX Classes
 90
        0
 91
        0
280
     0
281
     0
  0
CLASS
  1
MATERIAL
  2
AcDbMaterial
  3
ObjectDBX Classes
 90
     1153
 91
        3
280
     0
281
     0
  0
CLASS
  1
VISUALSTYLE
  2
AcDbVisualStyle
  3
ObjectDBX Classes
 90
     4095
 91
       26
280
     0
281
     0
  0
CLASS
  1
TABLESTYLE
  2
AcDbTableStyle
  3
ObjectDBX Classes
 90
     4095
 91
        1
280
     0
281
     0
  0
CLASS
  1
DICTIONARYVAR
  2
AcDbDictionaryVar
  3
ObjectDBX Classes
 90
        0
 91
        4
280
     0
281
     0
  0
CLASS
  1
SCALE
  2
AcDbScale
  3
ObjectDBX Classes
 90
     1153
 91
       17
280
     0
281
     0
  0
CLASS
  1
MLEADERSTYLE
  2
AcDbMLeaderStyle
  3
ACDB_MLEADERSTYLE_CLASS
 90
     4095
 91
        1
280
     0
281
     0
  0
CLASS
  1
CELLSTYLEMAP
  2
AcDbCellStyleMap
  3
ObjectDBX Classes
 90
     1152
 91
        1
280
     0
281
     0
  0
ENDSEC
  0
SECTION
  2
TABLES
  0
TABLE
  2
VPORT
  5
19
330
0
100
AcDbSymbolTable
 70
     1
  0
VPORT
  5
7F
330
19
100
AcDbSymbolTableRecord
100
AcDbViewportTableRecord
  2
*Active
 70
     0
 10
0.0
 20
0.0
 11
1.0
 21
1.0
 12
-1.48732642186226
 22
0.7539206135610073
 13
0.0
 23
0.0
 14
0.5
 24
0.5
 15
0.5
 25
0.5
 16
0.0
 26
0.0
 36
1.0
 17
0.0
 27
0.0
 37
0.0
 40
42.56921551548766
 41
1.922118380062305
 42
50.0
 43
0.0
 44
0.0
 50
0.0
 51
0.0
 71
     0
 72
  1000
 73
     1
 74
     3
 75
     0
 76
     0
 77
     0
 78
     0
281
     0
 65
     1
110
0.0
120
0.0
130
0.0
111
1.0
121
0.0
131
0.0
112
0.0
122
1.0
132
0.0
 79
     0
146
0.0
1001
ACAD_NAV_VCDISPLAY
1070
     3
  0
ENDTAB
  0
TABLE
  2
LTYPE
  5
14
330
0
100
AcDbSymbolTable
 70
     2
  0
LTYPE
  5
15
330
14
100
AcDbSymbolTableRecord
100
AcDbLinetypeTableRecord
  2
ByBlock
 70
     0
  3

 72
    65
 73
     0
 40
0.0
  0
LTYPE
  5
16
330
14
100
AcDbSymbolTableRecord
100
AcDbLinetypeTableRecord
  2
ByLayer
 70
     0
  3

 72
    65
 73
     0
 40
0.0
  0
LTYPE
  5
8
330
14
100
AcDbSymbolTableRecord
100
AcDbLinetypeTableRecord
  2
Continuous
 70
     0
  3
Solid line
 72
    65
 73
     0
 40
0.0
  0
LTYPE
  5
FE
330
14
100
AcDbSymbolTableRecord
100
AcDbLinetypeTableRecord
  2
CENTER2
 70
     0
  3
Center (.5x) ___ _ ___ _ ___ _ ___ _ ___ _ ___
 72
    65
 73
     4
 40
28.57499999999999
 49
19.05
 74
     0
 49
-3.174999999999998
 74
     0
 49
3.174999999999998
 74
     0
 49
-3.174999999999998
 74
     0
  0
ENDTAB
  0
TABLE
  2
LAYER
  5
10
102
{ACAD_XDICTIONARY
360
10E
102
}
330
0
100
AcDbSymbolTable
 70
     7
  0
LAYER
  5
4
102
{ACAD_XDICTIONARY
360
2CE
102
}
330
10
100
AcDbSymbolTableRecord
100
AcDbLayerTableRecord
  2
0
 70
     0
 62
     7
  6
Continuous
370
    -3
390
5
  0
LAYER
  5
100
330
10
100
AcDbSymbolTableRecord
100
AcDbLayerTableRecord
  2
Defpoints
 70
     0
 62
     7
  6
Continuous
290
     0
370
    -3
390
5
  0
LAYER
  5
101
102
{ACAD_XDICTIONARY
360
102
102
}
330
10
100
AcDbSymbolTableRecord
100
AcDbLayerTableRecord
  2
1
 70
     0
 62
     4
  6
Continuous
370
    -3
390
5
1001
AcAecLayerStandard
1000

1000

  0
LAYER
  5
103
102
{ACAD_XDICTIONARY
360
104
102
}
330
10
100
AcDbSymbolTableRecord
100
AcDbLayerTableRecord
  2
4
 70
     0
 62
     2
  6
CENTER2
370
    -3
390
5
1001
AcAecLayerStandard
1000

1000

  0
LAYER
  5
105
102
{ACAD_XDICTIONARY
360
106
102
}
330
10
100
AcDbSymbolTableRecord
100
AcDbLayerTableRecord
  2
6
 70
     0
 62
     5
  6
Continuous
370
    -3
390
5
1001
AcAecLayerStandard
1000

1000

  0
LAYER
  5
107
102
{ACAD_XDICTIONARY
360
108
102
}
330
10
100
AcDbSymbolTableRecord
100
AcDbLayerTableRecord
  2
2
 70
     0
 62
     7
  6
Continuous
370
    -3
390
5
1001
AcAecLayerStandard
1000

1000

  0
ENDTAB
  0
TABLE
  2
STYLE
  5
11
330
0
100
AcDbSymbolTable
 70
     2
  0
STYLE
  5
12
330
11
100
AcDbSymbolTableRecord
100
AcDbTextStyleTableRecord
  2
Standard
 70
     0
 40
0.0
 41
1.0
 50
0.0
 71
     0
 42
0.2
  3
isocp.shx
  4

  0
ENDTAB
  0
TABLE
  2
VIEW
  5
17
330
0
100
AcDbSymbolTable
 70
     0
  0
ENDTAB
  0
TABLE
  2
UCS
  5
18
330
0
100
AcDbSymbolTable
 70
     0
  0
ENDTAB
  0
TABLE
  2
APPID
  5
1B
330
0
100
AcDbSymbolTable
 70
     8
  0
APPID
  5
1C
330
1B
100
AcDbSymbolTableRecord
100
AcDbRegAppTableRecord
  2
ACAD
 70
     0
  0
APPID
  5
10A
330
1B
100
AcDbSymbolTableRecord
100
AcDbRegAppTableRecord
  2
AcAecLayerStandard
 70
     0
  0
APPID
  5
10B
330
1B
100
AcDbSymbolTableRecord
100
AcDbRegAppTableRecord
  2
ACAD_DSTYLE_DIMJOGGED_JOGANGLE_SYMBOL
 70
     0
  0
APPID
  5
10C
330
1B
100
AcDbSymbolTableRecord
100
AcDbRegAppTableRecord
  2
ACAD_NAV_VCDISPLAY
 70
     0
  0
APPID
  5
10D
330
1B
100
AcDbSymbolTableRecord
100
AcDbRegAppTableRecord
  2
ACAD_DSTYLE_DIMRADIAL_EXTENSION
 70
     0
  0
APPID
  5
2AB
330
1B
100
AcDbSymbolTableRecord
100
AcDbRegAppTableRecord
  2
AcadAnnoPO
 70
     0
  0
APPID
  5
317
330
1B
100
AcDbSymbolTableRecord
100
AcDbRegAppTableRecord
  2
ACAD_MLEADERVER
 70
     0
  0
APPID
  5
318
330
1B
100
AcDbSymbolTableRecord
100
AcDbRegAppTableRecord
  2
ACAD_DSTYLE_DIMEXT_LENGTH
 70
     0
  0
ENDTAB
  0
TABLE
  2
DIMSTYLE
  5
1D
330
0
100
AcDbSymbolTable
 70
     2
100
AcDbDimStyleTable
 71
     0
  0
DIMSTYLE
105
23
330
1D
100
AcDbSymbolTableRecord
100
AcDbDimStyleTableRecord
  2
Standard
 70
     0
340
12
  0
DIMSTYLE
105
109
102
{ACAD_REACTORS
330
111
330
112
330
113
330
1B3
330
1B7
330
1B8
330
1B9
330
259
102
}
330
1D
100
AcDbSymbolTableRecord
100
AcDbDimStyleTableRecord
  2
ISO-25
 70
     0
 41
2.5
 42
0.625
 43
3.75
 44
1.25
 73
     0
 74
     0
 77
     1
 78
     8
140
2.5
141
2.5
143
0.03937007874016
147
0.625
171
     3
172
     1
271
     2
272
     2
274
     3
283
     0
284
     8
340
12
1001
ACAD_DSTYLE_DIMEXT_LENGTH
1070
   378
1040
1.25
1001
ACAD_DSTYLE_DIMJOGGED_JOGANGLE_SYMBOL
1070
   384
1040
1.570796326794896
  0
ENDTAB
  0
TABLE
  2
BLOCK_RECORD
  5
1
330
0
100
AcDbSymbolTable
 70
    10
  0
BLOCK_RECORD
  5
2
330
1
100
AcDbSymbolTableRecord
100
AcDbBlockTableRecord
  2
*Model_Space
340
A
  0
BLOCK_RECORD
  5
C
330
1
100
AcDbSymbolTableRecord
100
AcDbBlockTableRecord
  2
*Paper_Space
340
F
  0
BLOCK_RECORD
  5
25A
330
1
100
AcDbSymbolTableRecord
100
AcDbBlockTableRecord
  2
*D6
340
0
  0
BLOCK_RECORD
  5
266
330
1
100
AcDbSymbolTableRecord
100
AcDbBlockTableRecord
  2
*D7
340
0
  0
BLOCK_RECORD
  5
272
330
1
100
AcDbSymbolTableRecord
100
AcDbBlockTableRecord
  2
*D8
340
0
  0
BLOCK_RECORD
  5
27F
330
1
100
AcDbSymbolTableRecord
100
AcDbBlockTableRecord
  2
*D9
340
0
  0
ENDTAB
  0
ENDSEC
  0
SECTION
  2
BLOCKS
  0
BLOCK
  5
3
330
2
100
AcDbEntity
  8
0
100
AcDbBlockBegin
  2
*Model_Space
 70
     2
 10
0.0
 20
0.0
 30
0.0
  3
*Model_Space
  1

  0
ENDBLK
  5
9
330
2
100
AcDbEntity
  8
0
100
AcDbBlockEnd
  0
BLOCK
  5
D
330
C
100
AcDbEntity
 67
     1
  8
0
100
AcDbBlockBegin
  2
*Paper_Space
 70
     0
 10
0.0
 20
0.0
 30
0.0
  3
*Paper_Space
  1

  0
ENDBLK
  5
E
330
C
100
AcDbEntity
 67
     1
  8
0
100
AcDbBlockEnd
  0
BLOCK
  5
25B
330
25A
100
AcDbEntity
  8
0
100
AcDbBlockBegin
  2
*D6
 70
     1
 10
0.0
 20
0.0
 30
0.0
  3
*D6
  1

  0
LINE
  5
2AC
330
25A
100
AcDbEntity
  8
2
 62
     0
440
 16777216
370
    -2
100
AcDbLine
 10
-7.085000198580004
 20
-2.625000002339987
 30
0.0
 11
-7.085000198580005
 21
-13.71070524900091
 31
0.0
  0
LINE
  5
2AD
330
25A
100
AcDbEntity
  8
2
 62
     0
440
 16777216
370
    -2
100
AcDbLine
 10
7.08500012831999
 20
2.477279329460003
 30
0.0
 11
7.085000128319989
 21
-13.71070524900091
 31
0.0
  0
LINE
  5
2AE
330
25A
100
AcDbEntity
  8
2
 62
     0
440
 16777216
370
    -2
100
AcDbLine
 10
-6.085000198580005
 20
-12.46070524900091
 30
0.0
 11
6.085000128319989
 21
-12.46070524900091
 31
0.0
  0
SOLID
  5
2AF
330
25A
100
AcDbEntity
  8
2
 62
     0
440
 16777216
100
AcDbTrace
 10
-6.085000198580005
 20
-12.29403858233424
 30
0.0
 11
-6.085000198580005
 21
-12.62737191566757
 31
0.0
 12
-7.085000198580005
 22
-12.46070524900091
 32
0.0
 13
-7.085000198580005
 23
-12.46070524900091
 33
0.0
  0
SOLID
  5
2B0
330
25A
100
AcDbEntity
  8
2
 62
     0
440
 16777216
100
AcDbTrace
 10
6.085000128319989
 20
-12.29403858233424
 30
0.0
 11
6.085000128319989
 21
-12.62737191566757
 31
0.0
 12
7.085000128319989
 22
-12.46070524900091
 32
0.0
 13
7.085000128319989
 23
-12.46070524900091
 33
0.0
  0
MTEXT
  5
2B1
330
25A
100
AcDbEntity
  8
2
 62
     0
440
 16777216
100
AcDbMText
 10
0.3996563283386934
 20
-11.08570524900091
 30
0.0
 40
1.5
 41
0.0
 71
     5
 72
     1
  1
14.17
 73
     1
 44
1.0
  0
POINT
  5
2B2
330
25A
100
AcDbEntity
  8
Defpoints
 62
     0
440
 16777216
100
AcDbPoint
 10
-7.085000198580004
 20
-2.000000002339987
 30
0.0
  0
POINT
  5
2B3
330
25A
100
AcDbEntity
  8
Defpoints
 62
     0
440
 16777216
100
AcDbPoint
 10
7.08500012831999
 20
3.102279329460003
 30
0.0
  0
POINT
  5
2B4
330
25A
100
AcDbEntity
  8
Defpoints
 62
     0
440
 16777216
100
AcDbPoint
 10
7.085000128319989
 20
-12.46070524900091
 30
0.0
  0
ENDBLK
  5
25C
330
25A
100
AcDbEntity
  8
0
100
AcDbBlockEnd
  0
BLOCK
  5
267
330
266
100
AcDbEntity
  8
0
100
AcDbBlockBegin
  2
*D7
 70
     1
 10
0.0
 20
0.0
 30
0.0
  3
*D7
  1

  0
LINE
  5
2B5
330
266
100
AcDbEntity
  8
2
 62
     0
440
 16777216
370
    -2
100
AcDbLine
 10
-0.7249999999999944
 20
-4.063716962399979
 30
0.0
 11
-13.01561515814509
 21
-4.063716962399976
 31
0.0
  0
LINE
  5
2B6
330
266
100
AcDbEntity
  8
2
 62
     0
440
 16777216
370
    -2
100
AcDbLine
 10
-0.7249999999999944
 20
4.063876044240004
 30
0.0
 11
-13.01561515814509
 21
4.063876044240007
 31
0.0
  0
LINE
  5
2B7
330
266
100
AcDbEntity
  8
2
 62
     0
440
 16777216
370
    -2
100
AcDbLine
 10
-11.76561515814509
 20
-3.063716962399976
 30
0.0
 11
-11.76561515814509
 21
3.063876044240007
 31
0.0
  0
SOLID
  5
2B8
330
266
100
AcDbEntity
  8
2
 62
     0
440
 16777216
100
AcDbTrace
 10
-11.93228182481176
 20
-3.063716962399976
 30
0.0
 11
-11.59894849147843
 21
-3.063716962399976
 31
0.0
 12
-11.76561515814509
 22
-4.063716962399976
 32
0.0
 13
-11.76561515814509
 23
-4.063716962399976
 33
0.0
  0
SOLID
  5
2B9
330
266
100
AcDbEntity
  8
2
 62
     0
440
 16777216
100
AcDbTrace
 10
-11.93228182481176
 20
3.063876044240007
 30
0.0
 11
-11.59894849147843
 21
3.063876044240007
 31
0.0
 12
-11.76561515814509
 22
4.063876044240007
 32
0.0
 13
-11.76561515814509
 23
4.063876044240007
 33
0.0
  0
MTEXT
  5
2BA
330
266
100
AcDbEntity
  8
2
 62
     0
440
 16777216
100
AcDbMText
 10
-13.14061515814509
 20
0.0530248533627288
 30
0.0
 40
1.5
 41
0.0
 71
     5
 72
     1
  1
8.13
 11
0.0000000000000001
 21
1.0
 31
0.0
 73
     1
 44
1.0
  0
POINT
  5
2BB
330
266
100
AcDbEntity
  8
Defpoints
 62
     0
440
 16777216
100
AcDbPoint
 10
-0.0999999999999943
 20
-4.063716962399979
 30
0.0
  0
POINT
  5
2BC
330
266
100
AcDbEntity
  8
Defpoints
 62
     0
440
 16777216
100
AcDbPoint
 10
-0.0999999999999943
 20
4.063876044240004
 30
0.0
  0
POINT
  5
2BD
330
266
100
AcDbEntity
  8
Defpoints
 62
     0
440
 16777216
100
AcDbPoint
 10
-11.76561515814509
 20
4.063876044240007
 30
0.0
  0
ENDBLK
  5
268
330
266
100
AcDbEntity
  8
0
100
AcDbBlockEnd
  0
BLOCK
  5
273
330
272
100
AcDbEntity
  8
0
100
AcDbBlockBegin
  2
*D8
 70
     1
 10
0.0
 20
0.0
 30
0.0
  3
*D8
  1

  0
LINE
  5
2BE
330
272
100
AcDbEntity
  8
2
 62
     0
440
 16777216
370
    -2
100
AcDbLine
 10
-5.890510653939998
 20
16.16569654978002
 30
0.0
 11
-12.45332351561077
 21
16.16569654978002
 31
0.0
  0
LINE
  5
2BF
330
272
100
AcDbEntity
  8
2
 62
     0
440
 16777216
370
    -2
100
AcDbLine
 10
-7.686294331360002
 20
21.0156974093
 30
0.0
 11
-12.45332351561077
 21
21.01569740930001
 31
0.0
  0
LINE
  5
2C0
330
272
100
AcDbEntity
  8
2
 62
     0
440
 16777216
370
    -2
100
AcDbLine
 10
-11.20332351561077
 20
20.01569740930001
 30
0.0
 11
-11.20332351561077
 21
17.16569654978003
 31
0.0
  0
LINE
  5
2C1
330
272
100
AcDbEntity
  8
2
 62
     0
440
 16777216
370
    -2
100
AcDbLine
 10
-11.20332351561077
 20
16.16569654978002
 30
0.0
 11
-11.20332351561077
 21
9.944008461714961
 31
0.0
  0
SOLID
  5
2C2
330
272
100
AcDbEntity
  8
2
 62
     0
440
 16777216
100
AcDbTrace
 10
-11.36999018227744
 20
20.01569740930001
 30
0.0
 11
-11.0366568489441
 21
20.01569740930001
 31
0.0
 12
-11.20332351561077
 22
21.01569740930001
 32
0.0
 13
-11.20332351561077
 23
21.01569740930001
 33
0.0
  0
SOLID
  5
2C3
330
272
100
AcDbEntity
  8
2
 62
     0
440
 16777216
100
AcDbTrace
 10
-11.36999018227744
 20
17.16569654978003
 30
0.0
 11
-11.0366568489441
 21
17.16569654978003
 31
0.0
 12
-11.20332351561077
 22
16.16569654978002
 32
0.0
 13
-11.20332351561077
 23
16.16569654978002
 33
0.0
  0
MTEXT
  5
2C4
330
272
100
AcDbEntity
  8
2
 62
     0
440
 16777216
100
AcDbMText
 10
-12.57832351561077
 20
12.25007447889294
 30
0.0
 40
1.5
 41
0.0
 71
     5
 72
     1
  1
4.85
 11
0.0000000000000001
 21
1.0
 31
0.0
 73
     1
 44
1.0
  0
POINT
  5
2C5
330
272
100
AcDbEntity
  8
Defpoints
 62
     0
440
 16777216
100
AcDbPoint
 10
-5.265510653939998
 20
16.16569654978002
 30
0.0
  0
POINT
  5
2C6
330
272
100
AcDbEntity
  8
Defpoints
 62
     0
440
 16777216
100
AcDbPoint
 10
-7.061294331360002
 20
21.0156974093
 30
0.0
  0
POINT
  5
2C7
330
272
100
AcDbEntity
  8
Defpoints
 62
     0
440
 16777216
100
AcDbPoint
 10
-11.20332351561077
 20
21.01569740930001
 30
0.0
  0
ENDBLK
  5
274
330
272
100
AcDbEntity
  8
0
100
AcDbBlockEnd
  0
BLOCK
  5
280
330
27F
100
AcDbEntity
  8
0
100
AcDbBlockBegin
  2
*D9
 70
     1
 10
0.0
 20
0.0
 30
0.0
  3
*D9
  1

  0
LINE
  5
2C8
330
27F
100
AcDbEntity
  8
2
 62
     0
440
 16777216
370
    -2
100
AcDbLine
 10
12.54961991377791
 20
6.982861608287648
 30
0.0
 11
7.71673010855583
 21
4.254184982049118
 31
0.0
  0
MTEXT
  5
2C9
330
27F
100
AcDbEntity
  8
2
 62
     0
440
 16777216
100
AcDbMText
 10
9.892547000632289
 20
7.061687582609757
 30
0.0
 40
1.5
 41
0.0
 71
     5
 72
     1
  1
R0.8
 11
0.8707909558958705
 21
0.4916534461691041
 31
0.0
 73
     1
 44
1.0
  0
LINE
  5
2CA
330
27F
100
AcDbEntity
  8
2
 62
     0
440
 16777216
370
    -2
100
AcDbLine
 10
6.149306387943425
 20
3.369208778944823
 30
0.0
 11
6.845939152659959
 21
3.762531535880015
 31
0.0
  0
SOLID
  5
2CB
330
27F
100
AcDbEntity
  8
2
 62
     0
440
 16777216
100
AcDbTrace
 10
7.634787867527645
 20
4.399316808031763
 30
0.0
 11
7.798672349584014
 21
4.109053156066473
 31
0.0
 12
6.845939152659959
 22
3.762531535880015
 32
0.0
 13
6.845939152659959
 23
3.762531535880015
 33
0.0
  0
POINT
  5
2CC
330
27F
100
AcDbEntity
  8
Defpoints
 62
     0
440
 16777216
100
AcDbPoint
 10
6.845939152659959
 20
3.762531535880015
 30
0.0
  0
POINT
  5
2CD
330
27F
100
AcDbEntity
  8
Defpoints
 62
     0
440
 16777216
100
AcDbPoint
 10
6.149306387943425
 20
3.369208778944823
 30
0.0
  0
ENDBLK
  5
281
330
27F
100
AcDbEntity
  8
0
100
AcDbBlockEnd
  0
ENDSEC
  0
SECTION
  2
ENTITIES
  0
DIMENSION
  5
1B7
330
2
100
AcDbEntity
  8
2
100
AcDbDimension
  2
*D6
 10
7.085000128319989
 20
-12.46070524900091
 30
0.0
 11
0.3996563283386933
 21
-12.46070524900091
 31
0.0
 70
   160
 71
     5
 42
14.17000032689999
  3
ISO-25
100
AcDbAlignedDimension
 13
-7.085000198580004
 23
-2.000000002339987
 33
0.0
 14
7.08500012831999
 24
3.102279329460003
 34
0.0
 50
359.9999973711011
100
AcDbRotatedDimension
1001
ACAD
1000
DSTYLE
1002
{
1070
   140
1040
1.5
1070
    41
1040
1.0
1002
}
  0
DIMENSION
  5
1B8
330
2
100
AcDbEntity
  8
2
100
AcDbDimension
  2
*D7
 10
-11.76561515814509
 20
4.063876044240007
 30
0.0
 11
-11.76561515814509
 21
0.0530248533627287
 31
0.0
 70
   160
 71
     5
 42
8.127593006639983
  3
ISO-25
100
AcDbAlignedDimension
 13
-0.0999999999999943
 23
-4.063716962399979
 33
0.0
 14
-0.0999999999999943
 24
4.063876044240004
 34
0.0
 50
90.0
100
AcDbRotatedDimension
1001
ACAD
1000
DSTYLE
1002
{
1070
   140
1040
1.5
1070
    41
1040
1.0
1002
}
  0
DIMENSION
  5
1B9
330
2
100
AcDbEntity
  8
2
100
AcDbDimension
  2
*D8
 10
-11.20332351561077
 20
21.01569740930001
 30
0.0
 11
-11.20332351561077
 21
12.25007447889294
 31
0.0
 70
   160
 71
     5
 42
4.85000085951998
  3
ISO-25
100
AcDbAlignedDimension
 13
-5.265510653939998
 23
16.16569654978002
 33
0.0
 14
-7.061294331360002
 24
21.0156974093
 34
0.0
 50
90.0
100
AcDbRotatedDimension
1001
ACAD
1000
DSTYLE
1002
{
1070
    41
1040
1.0
1070
   140
1040
1.5
1002
}
  0
MTEXT
  5
1BA
330
2
100
AcDbEntity
  8
6
100
AcDbMText
 10
0.2757168062349535
 20
-18.43026101731812
 30
0.0
 40
2.0
 41
35.2
 71
     3
 72
     1
  1
BOMT130408R
 73
     1
 44
1.0
  0
LINE
  5
1BB
330
2
100
AcDbEntity
  8
1
100
AcDbLine
 10
-6.107173993220001
 20
17.78359504645999
 30
0.0
 11
-5.612371886099992
 21
16.16569654978002
 31
0.0
  0
LINE
  5
1BC
330
2
100
AcDbEntity
  8
1
100
AcDbLine
 10
-6.399091961739998
 20
18.74122574276
 30
0.0
 11
-6.107173993220001
 21
17.78359504645999
 31
0.0
  0
LINE
  5
1BD
330
2
100
AcDbEntity
  8
1
100
AcDbLine
 10
-7.085000178219999
 20
21.0156974093
 30
0.0
 11
-5.610530650859999
 21
16.16569654994001
 31
0.0
  0
LINE
  5
1BE
330
2
100
AcDbEntity
  8
1
100
AcDbLine
 10
-7.054700698419992
 20
20.90251828654002
 30
0.0
 11
-6.399091961739998
 21
18.74122574276
 31
0.0
  0
LWPOLYLINE
  5
1BF
330
2
100
AcDbEntity
  8
1
100
AcDbPolyline
 90
        7
 70
     0
 43
0.0
 10
-7.085000193979993
 20
21.01569718984001
 10
-7.084338576299998
 20
21.01270037886002
 10
-7.082136840380002
 20
21.00322766320002
 10
-7.078082324359996
 20
20.98666702174
 10
-7.071853197279992
 20
20.96264751524001
 10
-7.0630984724
 20
20.93101237864002
 10
-7.054701052360002
 20
20.90251826286001
  0
LWPOLYLINE
  5
1C0
330
2
100
AcDbEntity
  8
1
100
AcDbPolyline
 90
        3
 70
     0
 43
0.0
 10
-5.165510653940003
 20
16.16562730268
 10
-5.281852829779992
 20
16.68144064816002
 10
-5.847307698180003
 20
19.1777052928
  0
LWPOLYLINE
  5
1C1
330
2
100
AcDbEntity
  8
1
100
AcDbPolyline
 90
        3
 70
     0
 43
0.0
 10
-5.847307698180003
 20
19.1777052928
 10
-5.909039968520005
 20
19.45613072182002
 10
-5.970707655240005
 20
19.73905235074002
  0
LINE
  5
1C2
330
2
100
AcDbEntity
  8
1
100
AcDbLine
 10
-6.159429311920007
 20
20.61582227896002
 30
0.0
 11
-6.225189785259999
 21
20.91792233699999
 31
0.0
  0
LINE
  5
1C3
330
2
100
AcDbEntity
  8
1
100
AcDbLine
 10
-5.970707655240005
 20
19.73905235074002
 30
0.0
 11
-6.159429311920007
 21
20.61582227896002
 31
0.0
  0
LWPOLYLINE
  5
1C4
330
2
100
AcDbEntity
  8
1
100
AcDbPolyline
 90
       19
 70
     0
 43
0.0
 10
-6.563757255319998
 20
19.30113393002
 10
-6.559568976080001
 20
19.29532795102
 10
-6.549508356639989
 20
19.28713154362003
 10
-6.534383052539993
 20
19.2775544895
 10
-6.514867469379993
 20
19.2672782715
 10
-6.491573498859992
 20
19.25682501710003
 10
-6.4639454757
 20
19.24592135402003
 10
-6.430558906100003
 20
19.23408864888
 10
-6.392210969519993
 20
19.22225006386003
 10
-6.350126913300002
 20
19.21159455968001
 10
-6.3038265494
 20
19.20240340766003
 10
-6.252745212159993
 20
19.19459411680003
 10
-6.197071164540005
 20
19.1880963845
 10
-6.138929544399999
 20
19.18298540214002
 10
-6.080942954479994
 20
19.17938652746
 10
-6.023466251619993
 20
19.17721637196001
 10
-5.965734126339995
 20
19.17630980640001
 10
-5.907182815200002
 20
19.17651893026001
 10
-5.847307698180003
 20
19.1777052928
  0
LINE
  5
1C5
330
2
100
AcDbEntity
  8
1
100
AcDbLine
 10
-6.225189785259999
 20
20.91792233699999
 30
0.0
 11
-6.242701458059997
 21
20.93912979188002
 31
0.0
  0
LINE
  5
1C6
330
2
100
AcDbEntity
  8
1
100
AcDbLine
 10
-5.612368780759993
 20
16.16569654978002
 30
0.0
 11
5.612346193659988
 21
16.16569654978002
 31
0.0
  0
LINE
  5
1C7
330
2
100
AcDbEntity
  8
1
100
AcDbLine
 10
5.606880471099998
 20
19.59211118506002
 30
0.0
 11
5.587924757720003
 21
19.58837597220002
 31
0.0
  0
LINE
  5
1C8
330
2
100
AcDbEntity
  8
1
100
AcDbLine
 10
5.599281215820013
 20
19.58987476600001
 30
0.0
 11
5.597014191580001
 21
19.58944178800001
 31
0.0
  0
LINE
  5
1C9
330
2
100
AcDbEntity
  8
4
100
AcDbLine
 10
0.0
 20
21.83922840576002
 30
0.0
 11
0.0
 21
15.29050101356
 31
0.0
  0
LWPOLYLINE
  5
1CA
330
2
100
AcDbEntity
  8
1
100
AcDbPolyline
 90
       18
 70
     0
 43
0.0
 10
5.597014191580001
 20
19.58944178800001
 10
5.593122704740011
 20
19.58886952360001
 10
5.588941447220008
 20
19.58844248376002
 10
5.584482119479986
 20
19.58815075566002
 10
5.579762408020002
 20
19.58798629732001
 10
5.574770804020005
 20
19.58793469126002
 10
5.569509600380001
 20
19.58798829144001
 10
5.563954782420012
 20
19.58813126392002
 10
5.558098569440005
 20
19.58835787228003
 10
5.551893854880006
 20
19.58865970508003
 10
5.545296841560002
 20
19.58903501899999
 10
5.538289017960011
 20
19.58949205312001
 10
5.530855140980008
 20
19.59004570302002
 10
5.522940808680004
 20
19.59070809532
 10
5.514455754859994
 20
19.59148889764
 10
5.505492441000001
 20
19.59240565566
 10
5.496074355079997
 20
19.59344042936001
 10
5.486320910440014
 20
19.59459257984002
  0
LINE
  5
1CB
330
2
100
AcDbEntity
  8
1
100
AcDbLine
 10
6.906670046279998
 20
21.03138554748
 30
0.0
 11
6.894868015959985
 21
21.02751880224003
 31
0.0
  0
LINE
  5
1CC
330
2
100
AcDbEntity
  8
1
100
AcDbLine
 10
-4.897305556800006
 20
19.20275851214
 30
0.0
 11
-5.847307698180003
 21
19.1777052928
 31
0.0
  0
LINE
  5
1CD
330
2
100
AcDbEntity
  8
1
100
AcDbLine
 10
-4.039388955879999
 20
19.22380076342
 30
0.0
 11
-4.897305556800006
 21
19.20275851214
 31
0.0
  0
LINE
  5
1CE
330
2
100
AcDbEntity
  8
1
100
AcDbLine
 10
-3.423657851859985
 20
19.23780303312003
 30
0.0
 11
-4.039388955879999
 21
19.22380076342
 31
0.0
  0
LINE
  5
1CF
330
2
100
AcDbEntity
  8
1
100
AcDbLine
 10
-2.814797923599996
 20
19.25054814130001
 30
0.0
 11
-3.423657851859985
 21
19.23780303312003
 31
0.0
  0
LINE
  5
1D0
330
2
100
AcDbEntity
  8
1
100
AcDbLine
 10
-2.230038091859995
 20
19.26156273450002
 30
0.0
 11
-2.814797923599996
 21
19.25054814130001
 31
0.0
  0
LINE
  5
1D1
330
2
100
AcDbEntity
  8
1
100
AcDbLine
 10
-1.682206473099995
 20
19.27067056094
 30
0.0
 11
-2.230038091859995
 21
19.26156273450002
 31
0.0
  0
LINE
  5
1D2
330
2
100
AcDbEntity
  8
1
100
AcDbLine
 10
-1.137487788040004
 20
19.27848412768003
 30
0.0
 11
-1.682206473099995
 21
19.27067056094
 31
0.0
  0
LINE
  5
1D3
330
2
100
AcDbEntity
  8
1
100
AcDbLine
 10
-0.7643924281399848
 20
19.28306606504003
 30
0.0
 11
-1.137487788040004
 21
19.27848412768003
 31
0.0
  0
LINE
  5
1D4
330
2
100
AcDbEntity
  8
1
100
AcDbLine
 10
-0.3907062419000056
 20
19.28693994862001
 30
0.0
 11
-0.7643924281399848
 21
19.28306606504003
 31
0.0
  0
LINE
  5
1D5
330
2
100
AcDbEntity
  8
1
100
AcDbLine
 10
-0.0217008868999926
 20
19.28993822114
 30
0.0
 11
-0.3907062419000056
 21
19.28693994862001
 31
0.0
  0
LINE
  5
1D6
330
2
100
AcDbEntity
  8
1
100
AcDbLine
 10
0.3390211606200069
 20
19.29195615536002
 30
0.0
 11
-0.0217008868999926
 21
19.28993822114
 31
0.0
  0
LINE
  5
1D7
330
2
100
AcDbEntity
  8
1
100
AcDbLine
 10
0.6860867844199845
 20
19.2929454408
 30
0.0
 11
0.3390211606200069
 21
19.29195615536002
 31
0.0
  0
LINE
  5
1D8
330
2
100
AcDbEntity
  8
1
100
AcDbLine
 10
1.016173228259987
 20
19.29294576588
 30
0.0
 11
0.6860867844199845
 21
19.2929454408
 31
0.0
  0
LINE
  5
1D9
330
2
100
AcDbEntity
  8
1
100
AcDbLine
 10
1.329526089900014
 20
19.2919958937
 30
0.0
 11
1.016173228259987
 21
19.29294576588
 31
0.0
  0
LINE
  5
1DA
330
2
100
AcDbEntity
  8
1
100
AcDbLine
 10
1.628934563920012
 20
19.29004201148001
 30
0.0
 11
1.329526089900014
 21
19.2919958937
 31
0.0
  0
LINE
  5
1DB
330
2
100
AcDbEntity
  8
1
100
AcDbLine
 10
1.916641233000007
 20
19.28711294548003
 30
0.0
 11
1.628934563920012
 21
19.29004201148001
 31
0.0
  0
LINE
  5
1DC
330
2
100
AcDbEntity
  8
1
100
AcDbLine
 10
2.194173172720013
 20
19.28342520303999
 30
0.0
 11
1.916641233000007
 21
19.28711294548003
 31
0.0
  0
LINE
  5
1DD
330
2
100
AcDbEntity
  8
1
100
AcDbLine
 10
2.469751430780007
 20
19.27904961204001
 30
0.0
 11
2.194173172720013
 21
19.28342520303999
 31
0.0
  0
LWPOLYLINE
  5
1DE
330
2
100
AcDbEntity
  8
1
100
AcDbPolyline
 90
       15
 70
     0
 43
0.0
 10
5.326691866320004
 20
19.15460722736003
 10
5.07997521147999
 20
19.17205844904001
 10
4.842158492419997
 20
19.18778536080003
 10
4.613423648500003
 20
19.20171979150001
 10
4.393224861579994
 20
19.21406625462001
 10
4.181136576980009
 20
19.22497171392001
 10
3.976979943759999
 20
19.23454064752002
 10
3.780458681739986
 20
19.24289008874001
 10
3.591499524020008
 20
19.25012933570002
 10
3.409931923420003
 20
19.25636780164001
 10
3.235751440439997
 20
19.26172217452
 10
3.068966153459996
 20
19.2663136626
 10
2.909367961560008
 20
19.27023811808001
 10
2.757329650280013
 20
19.27359679044002
 10
2.469751430780007
 20
19.27904961204001
  0
LWPOLYLINE
  5
1DF
330
2
100
AcDbEntity
  8
1
100
AcDbPolyline
 90
        3
 70
     0
 43
0.0
 10
-6.906686492239998
 20
21.03138412454001
 10
-6.904782603179995
 20
21.03102631596002
 10
-6.889914359339996
 20
21.02832068686002
  0
LINE
  5
1E0
330
2
100
AcDbEntity
  8
1
100
AcDbLine
 10
5.849015350439998
 20
20.66199707914001
 30
0.0
 11
5.777333772519995
 21
20.63472931324003
 31
0.0
  0
LWPOLYLINE
  5
1E1
330
2
100
AcDbEntity
  8
1
100
AcDbPolyline
 90
        3
 70
     0
 43
0.0
 10
6.890478418139991
 20
21.02833451498003
 10
6.899378488619987
 20
21.02998301402002
 10
6.904850447799987
 20
21.03102639444001
  0
LWPOLYLINE
  5
1E2
330
2
100
AcDbEntity
  8
1
100
AcDbPolyline
 90
        4
 70
     0
 43
0.0
 10
6.84430032777999
 20
21.02043640276002
 10
6.863054990239987
 20
21.0235414782
 10
6.87837486922001
 20
21.02617435056001
 10
6.890478418139991
 20
21.02833451498003
  0
LINE
  5
1E3
330
2
100
AcDbEntity
  8
1
100
AcDbLine
 10
6.794439419700012
 20
21.01259719692001
 30
0.0
 11
6.84430032777999
 21
21.02043640276002
 31
0.0
  0
LWPOLYLINE
  5
1E4
330
2
100
AcDbEntity
  8
1
100
AcDbPolyline
 90
        6
 70
     0
 43
0.0
 10
6.395602688220009
 20
20.95649101966001
 10
6.468125467500016
 20
20.96526974908002
 10
6.532130415219995
 20
20.97364210672001
 10
6.588435920519998
 20
20.9815654052
 10
6.638336817260011
 20
20.98891536504002
 10
6.794439419700012
 20
21.01259719692001
  0
LINE
  5
1E5
330
2
100
AcDbEntity
  8
1
100
AcDbLine
 10
0.0000019356799896
 20
20.22245281050002
 30
0.0
 11
6.242701458059997
 21
20.93912979188002
 31
0.0
  0
LINE
  5
1E6
330
2
100
AcDbEntity
  8
1
100
AcDbLine
 10
6.242701458059997
 20
20.93912979188002
 30
0.0
 11
6.395602688220009
 21
20.95649101966001
 31
0.0
  0
LINE
  5
1E7
330
2
100
AcDbEntity
  8
1
100
AcDbLine
 10
5.727524802840008
 20
19.58043926746
 30
0.0
 11
5.751489645280003
 21
19.57823164038001
 31
0.0
  0
LINE
  5
1E8
330
2
100
AcDbEntity
  8
1
100
AcDbLine
 10
5.606880471099998
 20
19.59211118506002
 30
0.0
 11
5.654897028120018
 21
19.58756914724
 31
0.0
  0
LINE
  5
1E9
330
2
100
AcDbEntity
  8
1
100
AcDbLine
 10
5.654897028120018
 20
19.58756914724
 30
0.0
 11
5.727524802840008
 21
19.58043926746
 31
0.0
  0
LWPOLYLINE
  5
1EA
330
2
100
AcDbEntity
  8
1
100
AcDbPolyline
 90
       23
 70
     0
 43
0.0
 10
5.445354147279999
 20
19.58056471646
 10
5.458591987760001
 20
19.57915729900003
 10
5.473091807340011
 20
19.57781151824002
 10
5.488819715599987
 20
19.57653231116001
 10
5.505371877440012
 20
19.57535253082
 10
5.522258939279993
 20
19.57430022312002
 10
5.539482714559994
 20
19.57336856796002
 10
5.556936167060001
 20
19.57256127362001
 10
5.574525970980005
 20
19.57188342310002
 10
5.592208070639998
 20
19.57134099642002
 10
5.609723095540005
 20
19.57094803218001
 10
5.626849257340012
 20
19.57071543570001
 10
5.643422990999994
 20
19.57065075496001
 10
5.659313196239992
 20
19.57075186528001
 10
5.674365212439994
 20
19.57101231430002
 10
5.688407985560019
 20
19.5714232944
 10
5.701410532139988
 20
19.57197975130003
 10
5.71327551440001
 20
19.57267692862001
 10
5.723950188480017
 20
19.57351586902001
 10
5.733385821620004
 20
19.57450706806003
 10
5.741248379620003
 20
19.57563425886002
 10
5.747311032860011
 20
19.57687685531999
 10
5.751489645259994
 20
19.57823164038001
  0
LINE
  5
1EB
330
2
100
AcDbEntity
  8
1
100
AcDbLine
 10
5.44560196302001
 20
19.59976777060001
 30
0.0
 11
2.379764148639992
 21
19.95001743540001
 31
0.0
  0
LINE
  5
1EC
330
2
100
AcDbEntity
  8
1
100
AcDbLine
 10
5.445354147279999
 20
19.58056471646
 30
0.0
 11
1.559100683140002
 21
20.02470035728001
 31
0.0
  0
LINE
  5
1ED
330
2
100
AcDbEntity
  8
1
100
AcDbLine
 10
2.379764148639992
 20
19.95001743540001
 30
0.0
 11
-0.6908423533600115
 21
20.30159459284002
 31
0.0
  0
LINE
  5
1EE
330
2
100
AcDbEntity
  8
1
100
AcDbLine
 10
1.559100683140002
 20
20.02470035728001
 30
0.0
 11
-4.277793830260009
 21
20.69401360312003
 31
0.0
  0
LINE
  5
1EF
330
2
100
AcDbEntity
  8
1
100
AcDbLine
 10
-7.085000178219999
 20
21.0156974093
 30
0.0
 11
-6.244877770199991
 21
20.92018389238001
 31
0.0
  0
LINE
  5
1F0
330
2
100
AcDbEntity
  8
1
100
AcDbLine
 10
-6.244877770199991
 20
20.92018389238001
 30
0.0
 11
-4.277793830260009
 21
20.69401360312003
 31
0.0
  0
LINE
  5
1F1
330
2
100
AcDbEntity
  8
1
100
AcDbLine
 10
-0.6908423533600115
 20
20.30159459284002
 30
0.0
 11
-4.951768067119999
 21
20.79057617196003
 31
0.0
  0
LINE
  5
1F2
330
2
100
AcDbEntity
  8
1
100
AcDbLine
 10
-4.951768067119999
 20
20.79057617196003
 30
0.0
 11
-6.392938968259997
 21
20.95640765391999
 31
0.0
  0
LWPOLYLINE
  5
1F3
330
2
100
AcDbEntity
  8
1
100
AcDbPolyline
 90
        5
 70
     0
 43
0.0
 10
-6.552607108779994
 20
20.97694566086
 10
-6.513875755300006
 20
20.97160473558
 10
-6.474253334579998
 20
20.96638004320002
 10
-6.433809890399999
 20
20.96131441142
 10
-6.392938968259997
 20
20.95640765391999
  0
LINE
  5
1F4
330
2
100
AcDbEntity
  8
1
100
AcDbLine
 10
-6.628075987919999
 20
20.98783261177999
 30
0.0
 11
-6.552607108779994
 21
20.97694566086
 31
0.0
  0
LWPOLYLINE
  5
1F5
330
2
100
AcDbEntity
  8
1
100
AcDbPolyline
 90
        7
 70
     0
 43
0.0
 10
-6.889914359339996
 20
21.02832068686002
 10
-6.877270474759995
 20
21.02609769966
 10
-6.861481344680001
 20
21.02340247836003
 10
-6.842807489500003
 20
21.02032396110002
 10
-6.820606248040007
 20
21.01678578146001
 10
-6.795019353499995
 20
21.01282327876001
 10
-6.628075987919999
 20
20.98783261177999
  0
LWPOLYLINE
  5
1F6
330
2
100
AcDbEntity
  8
1
100
AcDbPolyline
 90
        4
 70
     0
 43
0.0
 10
5.606880471099998
 20
19.59211118506002
 10
5.603896954459997
 20
19.59105813338002
 10
5.600609422139996
 20
19.59016962048002
 10
5.599281215820013
 20
19.58987476600001
  0
LWPOLYLINE
  5
1F7
330
2
100
AcDbEntity
  8
1
100
AcDbPolyline
 90
        3
 70
     0
 43
0.0
 10
5.486320910440014
 20
19.59459257984002
 10
5.466192421680005
 20
19.59711282950002
 10
5.445666539220013
 20
19.59977953624002
  0
LWPOLYLINE
  5
1F8
330
2
100
AcDbEntity
  8
1
100
AcDbPolyline
 90
       31
 70
     0
 43
0.0
 10
5.751489645259994
 20
19.57823164038001
 10
5.783176210779998
 20
19.59233522286001
 10
5.814839593959987
 20
19.60663293845999
 10
5.846449477860005
 20
19.62109395762002
 10
5.878096813240006
 20
19.63581076898001
 10
5.90983968558001
 20
19.65083427748001
 10
5.941746373860013
 20
19.66625840445999
 10
5.973900626900018
 20
19.68215937542001
 10
6.00631412077999
 20
19.69864118270001
 10
6.039054552539994
 20
19.71580374550001
 10
6.072037608180011
 20
19.73373550894001
 10
6.105209183379997
 20
19.75254288502003
 10
6.138546345999998
 20
19.77227189224001
 10
6.171991744660004
 20
19.7929613176
 10
6.205594532579993
 20
19.81473926772003
 10
6.239364473980003
 20
19.83770317764001
 10
6.273362384480009
 20
19.86198384926001
 10
6.307635411780012
 20
19.88774108050001
 10
6.342234323659994
 20
19.91498531826002
 10
6.377218817879992
 20
19.94374931546002
 10
6.412609252240002
 20
19.97412595188001
 10
6.448456889780004
 20
20.00622587898002
 10
6.484728712500015
 20
20.04002853482001
 10
6.521391580039988
 20
20.07553469392002
 10
6.558497122359995
 20
20.11279099832001
 10
6.596059695359997
 20
20.15181213334
 10
6.634157980899999
 20
20.19269474354002
 10
6.672872108640007
 20
20.23552632320002
 10
6.712212091140003
 20
20.28034900830002
 10
6.752219241219989
 20
20.32724301216001
 10
6.792879787919986
 20
20.37618159698002
  0
LWPOLYLINE
  5
1F9
330
2
100
AcDbEntity
  8
1
100
AcDbPolyline
 90
       19
 70
     0
 43
0.0
 10
5.637482585360004
 20
19.16860771594002
 10
5.632341615320001
 20
19.16683946424001
 10
5.625020970299999
 20
19.16512288306001
 10
5.615650171179993
 20
19.16345739512002
 10
5.604370214020008
 20
19.16184449038002
 10
5.591345193340004
 20
19.16028760004002
 10
5.576606832200013
 20
19.15878820338003
 10
5.560129589479998
 20
19.15736677374002
 10
5.541783375400001
 20
19.15604005272001
 10
5.521466273620006
 20
19.15482961104001
 10
5.499535083560004
 20
19.15376524466001
 10
5.476566840900005
 20
19.15288188592001
 10
5.453433697000008
 20
19.15222898922002
 10
5.430651388900002
 20
19.15184470498002
 10
5.408433981800015
 20
19.15175357636002
 10
5.386917126560007
 20
19.15197188362003
 10
5.366103690079995
 20
19.15251282938001
 10
5.346038218240011
 20
19.15338717926002
 10
5.326691866320004
 20
19.15460722736003
  0
LINE
  5
1FA
330
2
100
AcDbEntity
  8
1
100
AcDbLine
 10
6.650770665999999
 20
20.38834512376002
 30
0.0
 11
6.792879787919986
 21
20.37618159698002
 31
0.0
  0
LINE
  5
1FB
330
2
100
AcDbEntity
  8
1
100
AcDbLine
 10
-6.906686492239998
 20
21.03138412454001
 30
0.0
 11
-7.085000178299992
 21
21.0156974093
 31
0.0
  0
LINE
  5
1FC
330
2
100
AcDbEntity
  8
1
100
AcDbLine
 10
7.085000126799997
 20
21.01569736822
 30
0.0
 11
6.906691552159998
 21
21.03138363298001
 31
0.0
  0
LWPOLYLINE
  5
1FD
330
2
100
AcDbEntity
  8
1
100
AcDbPolyline
 90
       13
 70
     0
 43
0.0
 10
6.650770665999999
 20
20.38834512376002
 10
6.699931503919998
 20
20.45575468710001
 10
6.741476004040009
 20
20.52606678446
 10
6.776220049599999
 20
20.59612647858001
 10
6.805210667560004
 20
20.66408594550001
 10
6.829312576919988
 20
20.72883183210001
 10
6.84913935386001
 20
20.78921665720003
 10
6.865295622079997
 20
20.84450022842
 10
6.878151974540003
 20
20.89357839646002
 10
6.888108907960003
 20
20.93572579548001
 10
6.895553166599995
 20
20.97046254690003
 10
6.90083503400001
 20
20.99745908372
 10
6.904266164840009
 20
21.01653970458
  0
LWPOLYLINE
  5
1FE
330
2
100
AcDbEntity
  8
1
100
AcDbPolyline
 90
       11
 70
     0
 43
0.0
 10
6.650770665999999
 20
20.38834512376002
 10
6.558645888260002
 20
20.27932539104
 10
6.464473521460007
 20
20.17467757120002
 10
6.368205636660007
 20
20.07562018868001
 10
6.27008342773999
 20
19.98368588636001
 10
6.170090314079999
 20
19.90003513940002
 10
6.067438763459989
 20
19.82506814346001
 10
5.96127206154
 20
19.75856195238003
 10
5.850374753539995
 20
19.69910966702002
 10
5.733047113059996
 20
19.64458323332002
 10
5.606880471099998
 20
19.59211118506002
  0
LWPOLYLINE
  5
1FF
330
2
100
AcDbEntity
  8
1
100
AcDbPolyline
 90
        9
 70
     0
 43
0.0
 10
6.792879787919986
 20
20.37618159698002
 10
6.846056324820011
 20
20.44785354770002
 10
6.892287308579994
 20
20.52175449706002
 10
6.931803478999995
 20
20.59455758178001
 10
6.965360408020018
 20
20.66449091680002
 10
6.993683391339999
 20
20.73038770895999
 10
7.017149540860003
 20
20.79079013964002
 10
7.036255265779999
 20
20.84487136794002
 10
7.051409111660007
 20
20.89175255178003
  0
LINE
  5
200
330
2
100
AcDbEntity
  8
1
100
AcDbLine
 10
5.445533256739992
 20
19.59331248358001
 30
0.0
 11
5.44560196302001
 21
19.59976777060001
 31
0.0
  0
LWPOLYLINE
  5
201
330
2
100
AcDbEntity
  8
1
100
AcDbPolyline
 90
        3
 70
     0
 43
0.0
 10
5.445354147279999
 20
19.58056471646
 10
5.445430879060012
 20
19.58691596890003
 10
5.445533256739992
 20
19.59331248358001
  0
LINE
  5
202
330
2
100
AcDbEntity
  8
1
100
AcDbLine
 10
4.890890869960003
 20
16.16569654978002
 30
0.0
 11
5.122466078080009
 21
17.26140404226001
 31
0.0
  0
LINE
  5
203
330
2
100
AcDbEntity
  8
1
100
AcDbLine
 10
5.122466078080009
 20
17.26140404226001
 30
0.0
 11
5.214002963019993
 21
17.60747440596
 31
0.0
  0
LINE
  5
204
330
2
100
AcDbEntity
  8
1
100
AcDbLine
 10
5.213862161820003
 20
17.60751194430003
 30
0.0
 11
5.313759957739989
 21
17.98139711084002
 31
0.0
  0
LINE
  5
205
330
2
100
AcDbEntity
  8
1
100
AcDbLine
 10
5.313759957739989
 20
17.98139711084002
 30
0.0
 11
5.377150443419992
 21
18.21712438342001
 31
0.0
  0
LWPOLYLINE
  5
206
330
2
100
AcDbEntity
  8
1
100
AcDbPolyline
 90
        3
 70
     0
 43
0.0
 10
5.377274267320018
 20
18.21709080502001
 10
5.462513201820001
 20
18.53141842588002
 10
5.549586495179994
 20
18.84983409836002
  0
LINE
  5
207
330
2
100
AcDbEntity
  8
1
100
AcDbLine
 10
5.549586495179994
 20
18.84983409836002
 30
0.0
 11
5.675335797020011
 21
19.30508826726003
 31
0.0
  0
LINE
  5
208
330
2
100
AcDbEntity
  8
1
100
AcDbLine
 10
5.675335797020011
 20
19.30508826726003
 30
0.0
 11
5.751489645259994
 21
19.57823164038001
 31
0.0
  0
LINE
  5
209
330
2
100
AcDbEntity
  8
1
100
AcDbLine
 10
6.706804778620011
 20
19.75474652846
 30
0.0
 11
7.054877907199994
 21
20.90308388170001
 31
0.0
  0
LINE
  5
20A
330
2
100
AcDbEntity
  8
1
100
AcDbLine
 10
6.388549846160003
 20
18.70805029886003
 30
0.0
 11
6.706804778620011
 21
19.75474652846
 31
0.0
  0
LINE
  5
20B
330
2
100
AcDbEntity
  8
1
100
AcDbLine
 10
5.612349322480014
 20
16.16569654978002
 30
0.0
 11
6.388549846160003
 21
18.70805029886003
 31
0.0
  0
LWPOLYLINE
  5
20C
330
2
100
AcDbEntity
  8
1
100
AcDbPolyline
 90
        3
 70
     0
 43
0.0
 10
6.904266164840009
 20
21.01653970458
 10
6.906129151019996
 20
21.02774269124001
 10
6.906691552159998
 20
21.03138363298001
  0
LWPOLYLINE
  5
20D
330
2
100
AcDbEntity
  8
1
100
AcDbPolyline
 90
        7
 70
     0
 43
0.0
 10
7.054877788340007
 20
20.90308348918
 10
7.063106656540014
 20
20.93102066798002
 10
7.071858412000011
 20
20.96264039010001
 10
7.078081446400005
 20
20.98663751144002
 10
7.08213045267999
 20
21.00319465392002
 10
7.084331978280005
 20
21.01268451072002
 10
7.085000126799997
 20
21.01569736822
  0
LWPOLYLINE
  5
20E
330
2
100
AcDbEntity
  8
1
100
AcDbPolyline
 90
       25
 70
     0
 43
0.0
 10
-6.906686492239998
 20
-3.224997422759997
 10
-6.904782603179995
 20
-3.263781498019994
 10
-6.899126347939997
 20
-3.305505397119986
 10
-6.889914359339996
 20
-3.348228972459992
 10
-6.877270474759995
 20
-3.391171604539977
 10
-6.861481344680001
 20
-3.433704034339996
 10
-6.842807489500003
 20
-3.475601285539994
 10
-6.820606248040007
 20
-3.517713091839993
 10
-6.795019353499995
 20
-3.559137503979997
 10
-6.766088506360006
 20
-3.599799783599991
 10
-6.734142909599995
 20
-3.639575561179981
 10
-6.700116276839992
 20
-3.677562682859985
 10
-6.664629965139994
 20
-3.713221344060002
 10
-6.628075987919999
 20
-3.746211979279991
 10
-6.590586416500002
 20
-3.776429117779997
 10
-6.552607108779994
 20
-3.803555432599978
 10
-6.513875755300006
 20
-3.827785998899969
 10
-6.474253334579998
 20
-3.849079875619992
 10
-6.433809890399999
 20
-3.867322774640001
 10
-6.392938968259997
 20
-3.882437918359983
 10
-6.354590000819996
 20
-3.893548072139992
 10
-6.320604309960003
 20
-3.90072564671999
 10
-6.290963109279999
 20
-3.904866386059978
 10
-6.265721918739998
 20
-3.907007543879984
 10
-6.24270147224
 20
-3.908057850579979
  0
LWPOLYLINE
  5
20F
330
2
100
AcDbEntity
  8
1
100
AcDbPolyline
 90
       21
 70
     0
 43
0.0
 10
-7.085000178299992
 20
-3.202279317579979
 10
-7.082903945720005
 20
-3.255515276439979
 10
-7.076409720819995
 20
-3.311018415239971
 10
-7.065176977180001
 20
-3.36858582425998
 10
-7.049016895340002
 20
-3.427320924959985
 10
-7.027850013079998
 20
-3.486381976259991
 10
-7.001640606119991
 20
-3.545042987259989
 10
-6.970559584720007
 20
-3.602315296599982
 10
-6.934384025200003
 20
-3.657996741079983
 10
-6.89275699286
 20
-3.711795522639988
 10
-6.845937747159993
 20
-3.762533689459985
 10
-6.794120081179997
 20
-3.80933523023998
 10
-6.738070596680003
 20
-3.851540766459976
 10
-6.679083934280001
 20
-3.888736471439983
 10
-6.617542887399991
 20
-3.921192580939987
 10
-6.554053617619999
 20
-3.948947345039982
 10
-6.489048950019991
 20
-3.972061944499984
 10
-6.422881748839998
 20
-3.990541325759977
 10
-6.356361310539995
 20
-4.004219979339978
 10
-6.290217005459993
 20
-4.01297492467998
 10
-6.225189785259999
 20
-4.016684628219991
  0
LINE
  5
210
330
2
100
AcDbEntity
  8
1
100
AcDbLine
 10
-7.085000253740005
 20
-3.202279317579979
 30
0.0
 11
-7.085000193979993
 21
-1.900000002339993
 31
0.0
  0
LWPOLYLINE
  5
211
330
2
100
AcDbEntity
  8
1
100
AcDbPolyline
 90
       15
 70
     0
 43
0.0
 10
-7.085000193979993
 20
-1.900000002339993
 10
-7.084338576299998
 20
-1.795392981279974
 10
-7.082136840380002
 20
-1.683826257839996
 10
-7.078082324359996
 20
-1.565921681299982
 10
-7.071853197279992
 20
-1.442902154639995
 10
-7.0630984724
 20
-1.316044803539995
 10
-7.051401456319993
 20
-1.186056772339981
 10
-7.036253628279993
 20
-1.052563089379987
 10
-7.017154213660006
 20
-0.9153199403799874
 10
-6.993691845740002
 20
-0.7743401505399845
 10
-6.965369845780003
 20
-0.6290051015799918
 10
-6.931810685979996
 20
-0.479614563680002
 10
-6.892289103199999
 20
-0.3251647956199974
 10
-6.846052742479997
 20
-0.1649490832199945
 10
-6.79287978792
 20
-0.0003645172999995
  0
LINE
  5
212
330
2
100
AcDbEntity
  8
1
100
AcDbLine
 10
-6.906686492239998
 20
-3.224997422759997
 30
0.0
 11
-6.906691552500006
 21
-1.899999999499982
 31
0.0
  0
LWPOLYLINE
  5
213
330
2
100
AcDbEntity
  8
1
100
AcDbPolyline
 90
       15
 70
     0
 43
0.0
 10
-6.906691552500006
 20
-1.899999999499982
 10
-6.906253985079999
 20
-1.789542061799977
 10
-6.904611464699996
 20
-1.673965380639998
 10
-6.901477993040003
 20
-1.553709702359981
 10
-6.896585891
 20
-1.429858150320001
 10
-6.889619879539992
 20
-1.303318647439994
 10
-6.880153220080003
 20
-1.174589546079971
 10
-6.867716064540005
 20
-1.043731914579979
 10
-6.851744742199997
 20
-0.9104475154599924
 10
-6.831755323519999
 20
-0.7748727862999943
 10
-6.807207624599996
 20
-0.6362868203399899
 10
-6.777552976999999
 20
-0.4944256723999843
 10
-6.742073358859997
 20
-0.3485850175799783
 10
-6.699986124380004
 20
-0.1982588526599898
 10
-6.650770665999999
 20
-0.0442777421999949
  0
LINE
  5
214
330
2
100
AcDbEntity
  8
1
100
AcDbLine
 10
-5.973841862100002
 20
2.853756093339995
 30
0.0
 11
-6.038985629699993
 21
2.594961897660027
 31
0.0
  0
LINE
  5
215
330
2
100
AcDbEntity
  8
1
100
AcDbLine
 10
-6.038985629699993
 20
2.594961897660027
 30
0.0
 11
-6.105132633300001
 21
2.335990707300027
 31
0.0
  0
LWPOLYLINE
  5
216
330
2
100
AcDbEntity
  8
1
100
AcDbPolyline
 90
       19
 70
     0
 43
0.0
 10
-6.105132633300001
 20
2.335990707300027
 10
-6.171910731099998
 20
2.079462793560026
 10
-6.205512597959994
 20
1.952505340580017
 10
-6.239282569500005
 20
1.826500452980013
 10
-6.273281429660002
 20
1.701353062999999
 10
-6.307556374100002
 20
1.577074930380007
 10
-6.342157997979995
 20
1.45344199854
 10
-6.377145852760008
 20
1.330220694920001
 10
-6.412540265099991
 20
1.207451327200004
 10
-6.448392403560006
 20
1.08505442176002
 10
-6.484669294019994
 20
0.9631557498200038
 10
-6.521337827020005
 20
0.8419130838800015
 10
-6.558449577000004
 20
0.7211509466600035
 10
-6.596018862760004
 20
0.6008230042200183
 10
-6.634124341519992
 20
0.4806995991600047
 10
-6.672846076560006
 20
0.3605306137800142
 10
-6.712194168439992
 20
0.2403310952400091
 10
-6.752210004120001
 20
0.1200241775600261
 10
-6.79287978792
 20
-0.0003645172999995
  0
LINE
  5
217
330
2
100
AcDbEntity
  8
1
100
AcDbLine
 10
-6.225189785259999
 20
-4.016684628219991
 30
0.0
 11
-6.242701458059997
 21
-3.908057801719991
 31
0.0
  0
LINE
  5
218
330
2
100
AcDbEntity
  8
1
100
AcDbLine
 10
-5.751489645420008
 20
3.753279211740021
 30
0.0
 11
-5.846418587040005
 21
3.366998830800014
 31
0.0
  0
LWPOLYLINE
  5
219
330
2
100
AcDbEntity
  8
1
100
AcDbPolyline
 90
        3
 70
     0
 43
0.0
 10
-5.846418587040005
 20
3.366998830800014
 10
-5.941693536800002
 20
2.982510652080009
 10
-5.973841862100002
 20
2.853756093339995
  0
LWPOLYLINE
  5
21A
330
2
100
AcDbEntity
  8
1
100
AcDbPolyline
 90
       25
 70
     0
 43
0.0
 10
-5.606880471099998
 20
3.718544095360016
 10
-5.603942574499995
 20
3.728812757640014
 10
-5.600662514479992
 20
3.73895648104002
 10
-5.597041476179995
 20
3.74898116864
 10
-5.593076193099989
 20
3.758872733000004
 10
-5.588752010340002
 20
3.768616607280023
 10
-5.584104872080004
 20
3.778227577839999
 10
-5.579146818319998
 20
3.787709333480023
 10
-5.573934952979996
 20
3.797081181859994
 10
-5.568537450760004
 20
3.806382089840013
 10
-5.562932809659997
 20
3.815552638340022
 10
-5.557160313460002
 20
3.824576862960014
 10
-5.551105012980002
 20
3.833353759220017
 10
-5.544696989299993
 20
3.841826481120023
 10
-5.537839610299997
 20
3.84983624614
 10
-5.530401082620002
 20
3.857217772560005
 10
-5.522416269060002
 20
3.863924913420021
 10
-5.513826126460003
 20
3.869837861500002
 10
-5.504780995659999
 20
3.875017532060013
 10
-5.495397479359994
 20
3.879501714580015
 10
-5.485719838139999
 20
3.883266166520002
 10
-5.475809592099992
 20
3.886296592840011
 10
-5.465733994939995
 20
3.888631395239997
 10
-5.455591720360004
 20
3.890307704340017
 10
-5.445351524979997
 20
3.891333797920026
  0
LWPOLYLINE
  5
21B
330
2
100
AcDbEntity
  8
1
100
AcDbPolyline
 90
       11
 70
     0
 43
0.0
 10
-6.650770665999999
 20
-0.0442777421999949
 10
-6.558036081880004
 20
0.2354589673600174
 10
-6.462951872359994
 20
0.5376582167000095
 10
-6.365809512979993
 20
0.862347395520004
 10
-6.267120571740008
 20
1.208184852900018
 10
-6.166720780600002
 20
1.57505213856001
 10
-6.063719942380004
 20
1.964400072860001
 10
-5.957353664159995
 20
2.375496194760017
 10
-5.846750442299992
 20
2.805836669280012
 10
-5.730631201459999
 20
3.253233246140013
 10
-5.606880471099998
 20
3.718544095360016
  0
LINE
  5
21C
330
2
100
AcDbEntity
  8
1
100
AcDbLine
 10
-5.445354345659993
 20
3.999945200240006
 30
0.0
 11
-5.445217951640003
 21
3.891377858920009
 31
0.0
  0
LWPOLYLINE
  5
21D
330
2
100
AcDbEntity
  8
1
100
AcDbPolyline
 90
       23
 70
     0
 43
0.0
 10
5.445354147279999
 20
-3.999938672099972
 10
5.458591987760001
 20
-3.998900068499978
 10
5.473091807340011
 20
-3.996314991819986
 10
5.488819715599987
 20
-3.99217662159998
 10
5.505371877440012
 20
-3.986591564519983
 10
5.522258939279993
 20
-3.97977583299999
 10
5.539482714559994
 20
-3.971778636779987
 10
5.556936167060001
 20
-3.962665450159988
 10
5.574525970980005
 20
-3.95247976057999
 10
5.592208070639998
 20
-3.941215911039989
 10
5.609723095540005
 20
-3.928994701379991
 10
5.626849257340012
 20
-3.915927598579969
 10
5.643422990999994
 20
-3.902100651059981
 10
5.659313196239992
 20
-3.887643682579977
 10
5.674365212439994
 20
-3.872738917479978
 10
5.688407985560019
 20
-3.857600029460002
 10
5.701410532139988
 20
-3.842292212739977
 10
5.71327551440001
 20
-3.826935761139992
 10
5.723950188480017
 20
-3.811569992499983
 10
5.733385821620004
 20
-3.796161648459985
 10
5.741248379620003
 20
-3.781120016999977
 10
5.747311032860011
 20
-3.76679328519998
 10
5.751489645259994
 20
-3.753279212579997
  0
LWPOLYLINE
  5
21E
330
2
100
AcDbEntity
  8
1
100
AcDbPolyline
 90
        7
 70
     0
 43
0.0
 10
5.44560196302001
 20
-3.891477758500002
 10
3.913279419519994
 20
-3.919418352119976
 10
2.379764148639992
 20
-3.939552951400003
 10
0.8444486675400071
 20
-3.951864543179993
 10
-0.6908423533600115
 20
-3.956402240459993
 10
-2.224283616939999
 20
-3.953216118319971
 10
-3.756481979780005
 20
-3.942290124999999
  0
LWPOLYLINE
  5
21F
330
2
100
AcDbEntity
  8
1
100
AcDbPolyline
 90
        7
 70
     0
 43
0.0
 10
5.445354147279999
 20
-3.999938672099972
 10
3.502743917859987
 20
-4.033928712019985
 10
1.559100683140002
 20
-4.055452876939995
 10
-0.3856106247399964
 20
-4.064522860179977
 10
-2.33127911148
 20
-4.061101431119993
 10
-4.277793830260009
 20
-4.04515143177997
 10
-6.225189785259999
 20
-4.016684628219991
  0
LWPOLYLINE
  5
220
330
2
100
AcDbEntity
  8
1
100
AcDbPolyline
 90
        7
 70
     0
 43
0.0
 10
-3.756481979780005
 20
-3.942290124999999
 10
-4.164896335779999
 20
-3.938496710039999
 10
-4.563325825479992
 20
-3.934063722339999
 10
-4.951768067119999
 20
-3.928910642419992
 10
-5.330227555660002
 20
-3.923283098759981
 10
-5.698708804540004
 20
-3.917426694259972
 10
-6.057209487159994
 20
-3.911260832459987
  0
LINE
  5
221
330
2
100
AcDbEntity
  8
1
100
AcDbLine
 10
-6.057209487159994
 20
-3.911260832459987
 30
0.0
 11
-6.184613806279998
 21
-3.909479300919997
 31
0.0
  0
LWPOLYLINE
  5
222
330
2
100
AcDbEntity
  8
1
100
AcDbPolyline
 90
        3
 70
     0
 43
0.0
 10
-6.184613806279998
 20
-3.909479300919997
 10
-6.214087995299991
 20
-3.908845394099984
 10
-6.242701458059997
 20
-3.908057801719991
  0
LINE
  5
223
330
2
100
AcDbEntity
  8
1
100
AcDbLine
 10
-6.906686492239998
 20
-3.224997422759997
 30
0.0
 11
-7.085000178299992
 21
-3.202279317579979
 31
0.0
  0
LINE
  5
224
330
2
100
AcDbEntity
  8
1
100
AcDbLine
 10
-2.868861996920003
 20
0.1102415484000119
 30
0.0
 11
-2.869288911620003
 21
0.1142169978800211
 31
0.0
  0
LINE
  5
225
330
2
100
AcDbEntity
  8
1
100
AcDbLine
 10
-2.869288911620003
 20
0.1142169978800211
 30
0.0
 11
-2.869606603779999
 21
0.1173034864400222
 31
0.0
  0
LINE
  5
226
330
2
100
AcDbEntity
  8
1
100
AcDbLine
 10
-2.869606603779999
 20
0.1173034864400222
 30
0.0
 11
-2.869791650379994
 21
0.1191793764000124
 31
0.0
  0
LINE
  5
227
330
2
100
AcDbEntity
  8
1
100
AcDbLine
 10
-2.86982736985999
 20
0.1195541561000084
 30
0.0
 11
-2.869753914279982
 21
0.1187475230800032
 31
0.0
  0
LINE
  5
228
330
2
100
AcDbEntity
  8
1
100
AcDbLine
 10
-2.869753914279982
 20
0.1187475230800032
 30
0.0
 11
-2.869176806839988
 21
0.1120977512400145
 31
0.0
  0
LINE
  5
229
330
2
100
AcDbEntity
  8
1
100
AcDbLine
 10
-2.863144016659987
 20
0.0653560911800071
 30
0.0
 11
-2.864372642780011
 21
0.0741644687799976
 31
0.0
  0
LINE
  5
22A
330
2
100
AcDbEntity
  8
1
100
AcDbLine
 10
-2.864372642780011
 20
0.0741644687799976
 30
0.0
 11
-2.865393090080004
 21
0.0817436725000107
 31
0.0
  0
LINE
  5
22B
330
2
100
AcDbEntity
  8
1
100
AcDbLine
 10
-2.865393090080004
 20
0.0817436725000107
 30
0.0
 11
-2.866360459619983
 21
0.0891996568799982
 31
0.0
  0
LINE
  5
22C
330
2
100
AcDbEntity
  8
1
100
AcDbLine
 10
-2.866360459619983
 20
0.0891996568799982
 30
0.0
 11
-2.867144260900005
 21
0.0954776775600124
 31
0.0
  0
LINE
  5
22D
330
2
100
AcDbEntity
  8
1
100
AcDbLine
 10
-2.867144260900005
 20
0.0954776775600124
 30
0.0
 11
-2.867880985480013
 21
0.1016139275000114
 31
0.0
  0
LINE
  5
22E
330
2
100
AcDbEntity
  8
1
100
AcDbLine
 10
-2.867880985480013
 20
0.1016139275000114
 30
0.0
 11
-2.868557622739984
 21
0.1074984143800179
 31
0.0
  0
LINE
  5
22F
330
2
100
AcDbEntity
  8
1
100
AcDbLine
 10
-2.868557622739984
 20
0.1074984143800179
 30
0.0
 11
-2.868861996920003
 21
0.1102415484000119
 31
0.0
  0
LINE
  5
230
330
2
100
AcDbEntity
  8
1
100
AcDbLine
 10
5.606880471099998
 20
-3.718544095339979
 30
0.0
 11
5.751489645280003
 21
-3.753279212579997
 31
0.0
  0
LINE
  5
231
330
2
100
AcDbEntity
  8
1
100
AcDbLine
 10
-7.085000209040003
 20
-1.900000002339993
 30
0.0
 11
-6.906691552500006
 21
-1.899999999499982
 31
0.0
  0
LINE
  5
232
330
2
100
AcDbEntity
  8
1
100
AcDbLine
 10
-6.650770665999999
 20
-0.0442777421999949
 30
0.0
 11
-6.79287978792
 21
-0.0003645172999995
 31
0.0
  0
LINE
  5
233
330
2
100
AcDbEntity
  8
1
100
AcDbLine
 10
5.014750872760004
 20
-2.226511657399981
 30
0.0
 11
5.007028986239987
 21
-2.22411725178
 31
0.0
  0
LINE
  5
234
330
2
100
AcDbEntity
  8
4
100
AcDbLine
 10
0.0
 20
0.0
 30
0.0
 11
0.0
 21
-5.433169533159997
 31
0.0
  0
LINE
  5
235
330
2
100
AcDbEntity
  8
4
100
AcDbLine
 10
0.0
 20
0.0
 30
0.0
 11
0.0
 21
4.87592137592
 31
0.0
  0
LINE
  5
236
330
2
100
AcDbEntity
  8
4
100
AcDbLine
 10
0.0
 20
0.0
 30
0.0
 11
-7.808439803439995
 21
0.0
 31
0.0
  0
LINE
  5
237
330
2
100
AcDbEntity
  8
4
100
AcDbLine
 10
0.0
 20
0.0
 30
0.0
 11
7.515884520880007
 21
0.0
 31
0.0
  0
LINE
  5
238
330
2
100
AcDbEntity
  8
1
100
AcDbLine
 10
7.085000126799997
 20
1.90000000274
 30
0.0
 11
6.906691552159998
 21
1.900000000000005
 31
0.0
  0
LINE
  5
239
330
2
100
AcDbEntity
  8
1
100
AcDbLine
 10
6.650770665999999
 20
0.0442777422200038
 30
0.0
 11
6.792879787919986
 21
0.0003645173200084
 31
0.0
  0
LINE
  5
23A
330
2
100
AcDbEntity
  8
1
100
AcDbLine
 10
-5.606880471099998
 20
3.718544095360016
 30
0.0
 11
-5.751489645420008
 21
3.753279211740021
 31
0.0
  0
LWPOLYLINE
  5
23B
330
2
100
AcDbEntity
  8
1
100
AcDbPolyline
 90
       23
 70
     0
 43
0.0
 10
-5.445354345659993
 20
3.999945200240006
 10
-5.458593302799997
 20
3.998905262580024
 10
-5.473094088940001
 20
3.996318711240007
 10
-5.48882268794
 20
3.99217884342002
 10
-5.505375282480002
 20
3.986592367360003
 10
-5.522262522559998
 20
3.97977537632002
 10
-5.539486316259996
 20
3.971777065940017
 10
-5.556939774520003
 20
3.962662851140009
 10
-5.574529524719991
 20
3.95247624416001
 10
-5.592211521620001
 20
3.941211584720008
 10
-5.609726380059996
 20
3.928989697180014
 10
-5.626852300259997
 20
3.91592207264
 10
-5.643425743479994
 20
3.902094765560008
 10
-5.65931563798
 20
3.887637601580024
 10
-5.674367311279993
 20
3.872732822200021
 10
-5.68840969659999
 20
3.857594124840005
 10
-5.701411860340002
 20
3.8422866585
 10
-5.713276517479997
 20
3.826930655479998
 10
-5.723950883499995
 20
3.811565493300008
 10
-5.733386237979999
 20
3.796157928260015
 10
-5.741248548680005
 20
3.781117300020014
 10
-5.747311022099992
 20
3.766791840240017
 10
-5.751489645420008
 20
3.753279211740021
  0
LWPOLYLINE
  5
23C
330
2
100
AcDbEntity
  8
1
100
AcDbPolyline
 90
        7
 70
     0
 43
0.0
 10
-5.445217951640003
 20
3.891377858920009
 10
-3.913135402639994
 20
3.919380870740013
 10
-2.379764148639992
 20
3.939552951420012
 10
-0.844472556200003
 20
3.951869980240019
 10
0.6908423533600115
 20
3.956402240480002
 10
2.224282906859997
 20
3.953221015860009
 10
3.756480086039999
 20
3.942303185380012
  0
LWPOLYLINE
  5
23D
330
2
100
AcDbEntity
  8
1
100
AcDbPolyline
 90
        7
 70
     0
 43
0.0
 10
-5.445354345659993
 20
3.999945200240006
 10
-3.504827500080011
 20
4.034028440640014
 10
-1.562434578579996
 20
4.055601312340002
 10
0.3818598285999997
 20
4.064668215040001
 10
2.327944905780015
 20
4.061212129920022
 10
4.275709780239992
 20
4.045216110660021
 10
6.225189785259999
 20
4.016684628220019
  0
LWPOLYLINE
  5
23E
330
2
100
AcDbEntity
  8
1
100
AcDbPolyline
 90
        4
 70
     0
 43
0.0
 10
3.756480086039999
 20
3.942303185380012
 10
4.155140530339991
 20
3.938085675660005
 10
4.547716810860009
 20
3.933410186960003
 10
4.934206196120015
 20
3.92820731946
  0
LINE
  5
23F
330
2
100
AcDbEntity
  8
1
100
AcDbLine
 10
4.934206196120015
 20
3.92820731946
 30
0.0
 11
5.688950596599994
 21
3.917062036680022
 31
0.0
  0
LINE
  5
240
330
2
100
AcDbEntity
  8
1
100
AcDbLine
 10
5.688950596599994
 20
3.917062036680022
 30
0.0
 11
6.182473852260017
 21
3.90928228300001
 31
0.0
  0
LINE
  5
241
330
2
100
AcDbEntity
  8
1
100
AcDbLine
 10
6.182473852260017
 20
3.90928228300001
 30
0.0
 11
6.242701458059997
 21
3.908057801740028
 31
0.0
  0
LWPOLYLINE
  5
242
330
2
100
AcDbEntity
  8
1
100
AcDbPolyline
 90
       19
 70
     0
 43
0.0
 10
6.242701458059997
 20
3.908057801740028
 10
6.319613129720011
 20
3.901616258399997
 10
6.395602688220009
 20
3.882309259040027
 10
6.468125467500016
 20
3.853219950780015
 10
6.532130415219995
 20
3.81852989598002
 10
6.588435920519998
 20
3.779757400820017
 10
6.638336817260011
 20
3.738722373360019
 10
6.683761293960003
 20
3.69573240370002
 10
6.725122129439995
 20
3.651211149940024
 10
6.762311068160016
 20
3.605825620700016
 10
6.794439419700012
 20
3.561012597260003
 10
6.821573955119987
 20
3.516965473980008
 10
6.84430032777999
 20
3.473327133580028
 10
6.863054990239987
 20
3.430356840040019
 10
6.87837486922001
 20
3.387579957720021
 10
6.890478418139991
 20
3.344915804500004
 10
6.899378488619987
 20
3.302861355320004
 10
6.904850447799987
 20
3.262464908680016
 10
6.906686491940007
 20
3.224997422800015
  0
LINE
  5
243
330
2
100
AcDbEntity
  8
1
100
AcDbLine
 10
6.906686491940007
 20
3.224997422800015
 30
0.0
 11
7.085000132900006
 21
3.202279329459997
 31
0.0
  0
LINE
  5
244
330
2
100
AcDbEntity
  8
1
100
AcDbLine
 10
5.445354147279999
 20
-3.999938672099972
 30
0.0
 11
5.44560196302001
 21
-3.891477758500002
 31
0.0
  0
LINE
  5
245
330
2
100
AcDbEntity
  8
1
100
AcDbLine
 10
5.014750872760004
 20
-2.226511657399981
 30
0.0
 11
5.013918092979992
 21
-2.22943200589998
 31
0.0
  0
LINE
  5
246
330
2
100
AcDbEntity
  8
1
100
AcDbLine
 10
5.751489645259994
 20
-3.753279212579997
 30
0.0
 11
5.846449477860005
 21
-3.36703441395997
 31
0.0
  0
LINE
  5
247
330
2
100
AcDbEntity
  8
1
100
AcDbLine
 10
5.846449477860005
 20
-3.36703441395997
 30
0.0
 11
5.941746373860013
 21
-2.982580147139998
 31
0.0
  0
LINE
  5
248
330
2
100
AcDbEntity
  8
1
100
AcDbLine
 10
5.941746373860013
 20
-2.982580147139998
 30
0.0
 11
6.00631412077999
 21
-2.724716128620002
 31
0.0
  0
LINE
  5
249
330
2
100
AcDbEntity
  8
1
100
AcDbLine
 10
6.00631412077999
 20
-2.724716128620002
 30
0.0
 11
6.072037608180011
 21
-2.465371367219972
 31
0.0
  0
LWPOLYLINE
  5
24A
330
2
100
AcDbEntity
  8
1
100
AcDbPolyline
 90
       20
 70
     0
 43
0.0
 10
6.072037608180011
 20
-2.465371367219972
 10
6.138546345999998
 20
-2.207372923479994
 10
6.171991744660004
 20
-2.079559803879988
 10
6.205594532579993
 20
-1.952602703159982
 10
6.239364473980003
 20
-1.82659870147998
 10
6.273362384480009
 20
-1.701452410659982
 10
6.307635411780012
 20
-1.577175745960005
 10
6.342234323659994
 20
-1.453543877299978
 10
6.377218817879992
 20
-1.330322525839989
 10
6.412609252240002
 20
-1.207551953179972
 10
6.448456889780004
 20
-1.085152335079982
 10
6.484728712500015
 20
-0.9632496501399998
 10
6.521391580039988
 20
-0.8420018305399707
 10
6.558497122359995
 20
-0.721233191399989
 10
6.596059695359997
 20
-0.6008974069000033
 10
6.634157980899999
 20
-0.4807643321800015
 10
6.672872108640007
 20
-0.3605835175199843
 10
6.712212091140003
 20
-0.2403695516399864
 10
6.752219241219989
 20
-0.1200449282199827
 10
6.792879787919986
 20
0.0003645173200084
  0
LWPOLYLINE
  5
24B
330
2
100
AcDbEntity
  8
1
100
AcDbPolyline
 90
        3
 70
     0
 43
0.0
 10
5.850374753539995
 20
-2.804493982359986
 10
5.733047113059996
 20
-3.252472192639999
 10
5.606880471099998
 20
-3.718544095339979
  0
LWPOLYLINE
  5
24C
330
2
100
AcDbEntity
  8
1
100
AcDbPolyline
 90
       25
 70
     0
 43
0.0
 10
5.606880471099998
 20
-3.718544095339979
 10
5.603896954459997
 20
-3.728782527899994
 10
5.600609422139996
 20
-3.738902882199994
 10
5.597014191580001
 20
-3.748906671879979
 10
5.593122704740011
 20
-3.758794298259999
 10
5.588941447220008
 20
-3.768564169659981
 10
5.584482119479986
 20
-3.77823021975999
 10
5.579762408020002
 20
-3.787811359499983
 10
5.574770804020005
 20
-3.797290609939977
 10
5.569509600380001
 20
-3.806682570919974
 10
5.563954782420012
 20
-3.815907708339977
 10
5.558098569440005
 20
-3.824913480459997
 10
5.551893854880006
 20
-3.833624764979987
 10
5.545296841560002
 20
-3.841967576039991
 10
5.538289017960011
 20
-3.849875898959993
 10
5.530855140980008
 20
-3.857287451579992
 10
5.522940808680004
 20
-3.864107028359995
 10
5.514455754859994
 20
-3.870242002839972
 10
5.505492441000001
 20
-3.875623755479978
 10
5.496074355079997
 20
-3.880148989119987
 10
5.486320910440014
 20
-3.883863691719994
 10
5.476341351879995
 20
-3.886755300939995
 10
5.466192421680005
 20
-3.888930622099991
 10
5.455978565479995
 20
-3.890500635179989
 10
5.445666539220013
 20
-3.891448039919993
  0
LWPOLYLINE
  5
24D
330
2
100
AcDbEntity
  8
1
100
AcDbPolyline
 90
       15
 70
     0
 43
0.0
 10
6.650770665999999
 20
0.0442777422200038
 10
6.699931503919998
 20
0.1996875814200223
 10
6.741476004040009
 20
0.351765656800012
 10
6.776220049599999
 20
0.4990075809400026
 10
6.805210667560004
 20
0.6416870369200183
 10
6.829312576919988
 20
0.780751809800023
 10
6.84913935386001
 20
0.9165217201800146
 10
6.865295622079997
 20
1.049839757080007
 10
6.878151974540003
 20
1.18053258398001
 10
6.888108907960003
 20
1.308772236539994
 10
6.895553166599995
 20
1.434606234560021
 10
6.90083503400001
 20
1.557551222100016
 10
6.904266164840009
 20
1.676695457400001
 10
6.906129151019996
 20
1.790996724900026
 10
6.906691552159998
 20
1.900000000000005
  0
LWPOLYLINE
  5
24E
330
2
100
AcDbEntity
  8
1
100
AcDbPolyline
 90
       15
 70
     0
 43
0.0
 10
6.792879787919986
 20
0.0003645173200084
 10
6.846056324820011
 20
0.1650679224800058
 10
6.892287308579994
 20
0.3253822202400158
 10
6.931803478999995
 20
0.4799040949400251
 10
6.965360408020018
 20
0.6293441590000271
 10
6.993683391339999
 20
0.7747104758200294
 10
7.017149540860003
 20
0.9157016527400116
 10
7.036255265779999
 20
1.052937880680019
 10
7.051409111660007
 20
1.186412830560016
 10
7.063106656540014
 20
1.316374794859996
 10
7.071858412000011
 20
1.443197173340024
 10
7.078081446400005
 20
1.566167528460027
 10
7.08213045267999
 20
1.684006357859999
 10
7.084331978280005
 20
1.795491031380009
 10
7.085000126799997
 20
1.90000000274
  0
LWPOLYLINE
  5
24F
330
2
100
AcDbEntity
  8
1
100
AcDbPolyline
 90
        8
 70
     0
 43
0.0
 10
6.650770665999999
 20
0.0442777422200038
 10
6.558645888260002
 20
-0.2342104063399972
 10
6.464473521460007
 20
-0.5348994331599784
 10
6.368205636660007
 20
-0.8587400596999827
 10
6.27008342773999
 20
-1.204969355599985
 10
6.170090314079999
 20
-1.572652193240003
 10
6.067438763459989
 20
-1.962603101439981
 10
5.850374753539995
 20
-2.804493982359986
  0
LINE
  5
250
330
2
100
AcDbEntity
  8
1
100
AcDbLine
 10
6.906686491940007
 20
3.224997422800015
 30
0.0
 11
6.906691552159998
 21
1.900000000000005
 31
0.0
  0
LINE
  5
251
330
2
100
AcDbEntity
  8
1
100
AcDbLine
 10
7.085000126799997
 20
1.90000000274
 30
0.0
 11
7.085000132900006
 21
3.202279329459997
 31
0.0
  0
LINE
  5
252
330
2
100
AcDbEntity
  8
1
100
AcDbLine
 10
6.225189785259999
 20
4.016684628220019
 30
0.0
 11
6.242701458059997
 21
3.908057801740028
 31
0.0
  0
LWPOLYLINE
  5
253
330
2
100
AcDbEntity
  8
1
100
AcDbPolyline
 90
       21
 70
     0
 43
0.0
 10
7.085000132900006
 20
3.202279329459997
 10
7.082903938700013
 20
3.255514584059994
 10
7.076409825719991
 20
3.311017141400014
 10
7.065177252259985
 20
3.368584097340004
 10
7.04901737546001
 20
3.427318865300009
 10
7.027850714099997
 20
3.486379697800003
 10
7.001641525220009
 20
3.545040594960028
 10
6.970560696739994
 20
3.602312884560006
 10
6.93438529170001
 20
3.657994377240015
 10
6.892758364580004
 20
3.71179324932001
 10
6.845939152660008
 20
3.762531535880015
 10
6.794121428099998
 20
3.809333207999998
 10
6.738071803860009
 20
3.851538870020021
 10
6.679084964059995
 20
3.888734697200021
 10
6.617543732960001
 20
3.92119093876002
 10
6.554054328820001
 20
3.948945845940016
 10
6.489049537999989
 20
3.972060638660025
 10
6.422882208320004
 20
3.990540276420006
 10
6.356361626360012
 20
4.004219247100024
 10
6.290217138919985
 20
4.01297455528001
 10
6.225189785259999
 20
4.016684628220019
  0
CIRCLE
  5
254
330
2
100
AcDbEntity
  8
1
100
AcDbCircle
 10
0.0
 20
0.0
 30
0.0
 40
2.695686624
  0
CIRCLE
  5
255
330
2
100
AcDbEntity
  8
1
100
AcDbCircle
 10
0.0
 20
0.0
 30
0.0
 40
2.546474318
  0
CIRCLE
  5
256
330
2
100
AcDbEntity
  8
1
100
AcDbCircle
 10
0.0
 20
0.0
 30
0.0
 40
2.023340603
  0
CIRCLE
  5
257
330
2
100
AcDbEntity
  8
1
100
AcDbCircle
 10
0.0
 20
0.0
 30
0.0
 40
2.010716916
  0
CIRCLE
  5
258
330
2
100
AcDbEntity
  8
1
100
AcDbCircle
 10
0.0
 20
0.0
 30
0.0
 40
1.978759671999999
  0
DIMENSION
  5
259
330
2
100
AcDbEntity
  8
2
100
AcDbDimension
  2
*D9
 10
6.149306387943425
 20
3.369208778944823
 30
0.0
 11
9.892547000632289
 21
7.061687582609757
 31
0.0
 70
    36
 71
     5
 42
0.7999999999998133
  3
ISO-25
100
AcDbRadialDimension
 15
6.845939152659959
 25
3.762531535880015
 35
0.0
 40
0.0
1001
ACAD_DSTYLE_DIMRADIAL_EXTENSION
1070
   387
1070
     1
1070
   388
1040
0.0
1070
   390
1040
0.0
1001
ACAD
1000
DSTYLE
1002
{
1070
   140
1040
1.5
1070
    41
1040
1.0
1002
}
  0
VIEWPORT
  5
52
330
C
100
AcDbEntity
 67
     1
  8
0
100
AcDbViewport
 10
17.24766579365652
 20
11.49775637822252
 30
0.0
 40
36.33732196730226
 41
27.12504315869042
 68
     1
 69
     1
 12
17.24766579365652
 22
11.49775637822252
 13
0.0
 23
0.0
 14
0.5
 24
0.5
 15
0.5
 25
0.5
 16
0.0
 26
0.0
 36
1.0
 17
0.0
 27
0.0
 37
0.0
 42
50.0
 43
0.0
 44
0.0
 45
27.12504315869042
 50
0.0
 51
0.0
 72
  1000
 90
    32864
  1

281
     0
 71
     1
 74
     0
110
0.0
120
0.0
130
0.0
111
1.0
121
0.0
131
0.0
112
0.0
122
1.0
132
0.0
 79
     0
146
0.0
170
     0
  0
ENDSEC
  0
SECTION
  2
OBJECTS
  0
DICTIONARY
  5
7
330
0
100
AcDbDictionary
281
     1
  3
ACAD_CIP_PREVIOUS_PRODUCT_INFO
350
CB
  3
ACAD_COLOR
350
57
  3
ACAD_GROUP
350
1F
  3
ACAD_LAYOUT
350
B
  3
ACAD_MATERIAL
350
56
  3
ACAD_MLEADERSTYLE
350
C3
  3
ACAD_MLINESTYLE
350
20
  3
ACAD_PLOTSETTINGS
350
21
  3
ACAD_PLOTSTYLENAME
350
6
  3
ACAD_SCALELIST
350
B1
  3
ACAD_TABLESTYLE
350
95
  3
ACAD_VISUALSTYLE
350
84
  3
ACDB_RECOMPOSE_DATA
350
2DB
  3
AcDbVariableDictionary
350
9D
  0
DICTIONARY
  5
10E
330
10
100
AcDbDictionary
280
     1
281
     1
  3
ACAD_LAYERSTATES
360
10F
  0
DICTIONARY
  5
2CE
330
4
100
AcDbDictionary
280
     1
281
     1
  3
ADSK_XREC_LAYER_RECONCILED
360
2CF
  0
DICTIONARY
  5
102
330
101
100
AcDbDictionary
280
     1
281
     1
  3
ADSK_XREC_LAYER_RECONCILED
360
2D0
  0
DICTIONARY
  5
104
330
103
100
AcDbDictionary
280
     1
281
     1
  3
ADSK_XREC_LAYER_RECONCILED
360
2D1
  0
DICTIONARY
  5
106
330
105
100
AcDbDictionary
280
     1
281
     1
  3
ADSK_XREC_LAYER_RECONCILED
360
2D2
  0
DICTIONARY
  5
108
330
107
100
AcDbDictionary
280
     1
281
     1
  3
ADSK_XREC_LAYER_RECONCILED
360
2D3
  0
XRECORD
  5
CB
102
{ACAD_REACTORS
330
7
102
}
330
7
100
AcDbXrecord
280
     1
300
ACDLT
300
2012
300
ACDLT_F_S
  0
DICTIONARY
  5
57
102
{ACAD_REACTORS
330
7
102
}
330
7
100
AcDbDictionary
281
     1
  0
DICTIONARY
  5
1F
102
{ACAD_REACTORS
330
7
102
}
330
7
100
AcDbDictionary
281
     1
  0
DICTIONARY
  5
B
102
{ACAD_REACTORS
330
7
102
}
330
7
100
AcDbDictionary
281
     1
  3
Architectural Title Block
350
F
  3
Model
350
A
  0
DICTIONARY
  5
56
102
{ACAD_REACTORS
330
7
102
}
330
7
100
AcDbDictionary
281
     1
  3
ByBlock
350
82
  3
ByLayer
350
81
  3
Global
350
83
  0
DICTIONARY
  5
C3
102
{ACAD_REACTORS
330
7
102
}
330
7
100
AcDbDictionary
281
     1
  3
Standard
350
C4
  0
DICTIONARY
  5
20
102
{ACAD_REACTORS
330
7
102
}
330
7
100
AcDbDictionary
281
     1
  3
Standard
350
22
  0
DICTIONARY
  5
21
102
{ACAD_REACTORS
330
7
102
}
330
7
100
AcDbDictionary
281
     1
  0
ACDBDICTIONARYWDFLT
  5
6
102
{ACAD_REACTORS
330
7
102
}
330
7
100
AcDbDictionary
281
     1
  3
Normal
350
5
100
AcDbDictionaryWithDefault
340
5
  0
DICTIONARY
  5
B1
102
{ACAD_REACTORS
330
7
102
}
330
7
100
AcDbDictionary
281
     1
  3
A0
350
B2
  3
A1
350
B3
  3
A2
350
B4
  3
A3
350
B5
  3
A4
350
B6
  3
A5
350
B7
  3
A6
350
B8
  3
A7
350
B9
  3
A8
350
BA
  3
A9
350
BB
  3
B0
350
BC
  3
B1
350
BD
  3
B2
350
BE
  3
B3
350
BF
  3
B4
350
C0
  3
B5
350
C1
  3
B6
350
C2
  0
DICTIONARY
  5
95
102
{ACAD_REACTORS
330
7
102
}
330
7
100
AcDbDictionary
281
     1
  3
Standard
350
96
  0
DICTIONARY
  5
84
102
{ACAD_REACTORS
330
7
102
}
330
7
100
AcDbDictionary
281
     1
  3
2dWireframe
350
8A
  3
3D Hidden
350
8C
  3
3dWireframe
350
8B
  3
Basic
350
89
  3
Brighten
350
90
  3
ColorChange
350
94
  3
Conceptual
350
8D
  3
Dim
350
8F
  3
EdgeColorOff
350
B0
  3
Facepattern
350
93
  3
Flat
350
85
  3
FlatWithEdges
350
86
  3
Gouraud
350
87
  3
GouraudWithEdges
350
88
  3
Hidden
350
A8
  3
JitterOff
350
AE
  3
Linepattern
350
92
  3
OverhangOff
350
AF
  3
Realistic
350
8E
  3
Shaded
350
AD
  3
Shaded with edges
350
AC
  3
Shades of Gray
350
A9
  3
Sketchy
350
AA
  3
Thicken
350
91
  3
Wireframe
350
A7
  3
X-Ray
350
AB
  0
XRECORD
  5
2DB
102
{ACAD_REACTORS
330
7
102
}
330
7
100
AcDbXrecord
280
     1
 90
        1
330
96
  0
DICTIONARY
  5
9D
102
{ACAD_REACTORS
330
7
102
}
330
7
100
AcDbDictionary
281
     1
  3
CANNOSCALE
350
2D5
  3
CMLEADERSTYLE
350
2D4
  3
CTABLESTYLE
350
9E
  3
SOLIDHIST
350
2D6
  0
DICTIONARY
  5
10F
102
{ACAD_REACTORS
330
10E
102
}
330
10E
100
AcDbDictionary
281
     1
  0
XRECORD
  5
2CF
102
{ACAD_REACTORS
330
2CE
102
}
330
2CE
100
AcDbXrecord
280
     1
290
     1
  0
XRECORD
  5
2D0
102
{ACAD_REACTORS
330
102
102
}
330
102
100
AcDbXrecord
280
     1
290
     1
  0
XRECORD
  5
2D1
102
{ACAD_REACTORS
330
104
102
}
330
104
100
AcDbXrecord
280
     1
290
     1
  0
XRECORD
  5
2D2
102
{ACAD_REACTORS
330
106
102
}
330
106
100
AcDbXrecord
280
     1
290
     1
  0
XRECORD
  5
2D3
102
{ACAD_REACTORS
330
108
102
}
330
108
100
AcDbXrecord
280
     1
290
     1
  0
LAYOUT
  5
F
102
{ACAD_REACTORS
330
B
102
}
330
B
100
AcDbPlotSettings
  1

  2
none_device
  4
ARCH_D_(24.00_x_36.00_Inches)
  6

 40
6.4
 41
19.1
 42
6.4
 43
19.1
 44
609.5999755859375
 45
914.4000244140626
 46
6.349999999999999
 47
0.0
 48
0.0
 49
0.0
140
0.0
141
0.0
142
1.0
143
1.0
 70
   692
 72
     0
 73
     1
 74
     1
  7

 75
    16
147
1.0
 76
     0
 77
     2
 78
   300
148
0.0093010481555268
149
0.0069757861166451
100
AcDbLayout
  1
Architectural Title Block
 70
     1
 71
     1
 10
-0.752334686935257
 20
-0.5022431411856947
 11
35.2476662742483
 21
23.49775589763074
 12
0.0
 22
0.0
 32
0.0
 14
1.000000000000000E+20
 24
1.000000000000000E+20
 34
1.000000000000000E+20
 15
-1.000000000000000E+20
 25
-1.000000000000000E+20
 35
-1.000000000000000E+20
146
0.0
 13
0.0
 23
0.0
 33
0.0
 16
1.0
 26
0.0
 36
0.0
 17
0.0
 27
1.0
 37
0.0
 76
     0
330
C
331
52
  0
LAYOUT
  5
A
102
{ACAD_REACTORS
330
B
102
}
330
B
100
AcDbPlotSettings
  1

  2
none_device
  4
Letter_(8.50_x_11.00_Inches)
  6

 40
6.349999904632568
 41
6.349999904632568
 42
6.350006103515625
 43
6.350006103515625
 44
215.8999938964844
 45
279.3999938964844
 46
24.20864881963554
 47
16.5900080388951
 48
0.0
 49
0.0
140
0.0
141
0.0
142
1.0
143
3.774554220489469
 70
 11956
 72
     0
 73
     1
 74
     1
  7

 75
     0
147
0.2649319473467052
 76
     0
 77
     2
 78
   300
148
5.106895530916343
149
0.0178270089649402
100
AcDbLayout
  1
Model
 70
     1
 71
     0
 10
0.0
 20
0.0
 11
12.0
 21
9.0
 12
0.0
 22
0.0
 32
0.0
 14
0.0
 24
0.0
 34
0.0
 15
0.0
 25
0.0
 35
0.0
146
0.0
 13
0.0
 23
0.0
 33
0.0
 16
1.0
 26
0.0
 36
0.0
 17
0.0
 27
1.0
 37
0.0
 76
     0
330
2
331
7F
  0
MATERIAL
  5
82
102
{ACAD_XDICTIONARY
360
2DE
102
}
102
{ACAD_REACTORS
330
56
102
}
330
56
100
AcDbMaterial
  1
ByBlock
 73
     1
 78
     1
172
     1
176
     1
270
     1
274
     1
  0
MATERIAL
  5
81
102
{ACAD_XDICTIONARY
360
2DC
102
}
102
{ACAD_REACTORS
330
56
102
}
330
56
100
AcDbMaterial
  1
ByLayer
 73
     1
 78
     1
172
     1
176
     1
270
     1
274
     1
  0
MATERIAL
  5
83
102
{ACAD_XDICTIONARY
360
2E0
102
}
102
{ACAD_REACTORS
330
56
102
}
330
56
100
AcDbMaterial
  1
Global
 73
     1
 78
     1
172
     1
176
     1
270
     1
274
     1
  0
MLEADERSTYLE
  5
C4
102
{ACAD_XDICTIONARY
360
2D9
102
}
102
{ACAD_REACTORS
330
C3
102
}
330
C3
100
AcDbMLeaderStyle
170
     2
171
     1
172
     0
 90
        2
 40
0.0
 41
0.0
173
     1
 91
-1056964608
340
15
 92
       -2
290
     1
 42
0.09
291
     1
 43
0.36
  3
Standard
 44
0.18
300

342
12
174
     1
178
     6
175
     1
176
     0
 93
-1056964608
 45
0.18
292
     0
297
     0
 46
0.18
 94
-1056964608
 47
1.0
 49
1.0
140
1.0
293
     1
141
0.0
294
     1
177
     0
142
1.0
295
     0
296
     0
143
0.125
1001
ACAD_MLEADERVER
1070
     2
  0
MLINESTYLE
  5
22
102
{ACAD_REACTORS
330
20
102
}
330
20
100
AcDbMlineStyle
  2
STANDARD
 70
     0
  3

 62
   256
 51
90.0
 52
90.0
 71
     2
 49
0.5
 62
   256
  6
BYLAYER
 49
-0.5
 62
   256
  6
BYLAYER
  0
ACDBPLACEHOLDER
  5
5
102
{ACAD_REACTORS
330
6
102
}
330
6
  0
SCALE
  5
B2
102
{ACAD_REACTORS
330
B1
102
}
330
B1
100
AcDbScale
 70
     0
300
1:1
140
1.0
141
1.0
290
     1
  0
SCALE
  5
B3
102
{ACAD_REACTORS
330
B1
102
}
330
B1
100
AcDbScale
 70
     0
300
1/128" = 1'-0"
140
0.0078125
141
12.0
290
     0
  0
SCALE
  5
B4
102
{ACAD_REACTORS
330
B1
102
}
330
B1
100
AcDbScale
 70
     0
300
1/64" = 1'-0"
140
0.015625
141
12.0
290
     0
  0
SCALE
  5
B5
102
{ACAD_REACTORS
330
B1
102
}
330
B1
100
AcDbScale
 70
     0
300
1/32" = 1'-0"
140
0.03125
141
12.0
290
     0
  0
SCALE
  5
B6
102
{ACAD_REACTORS
330
B1
102
}
330
B1
100
AcDbScale
 70
     0
300
1/16" = 1'-0"
140
0.0625
141
12.0
290
     0
  0
SCALE
  5
B7
102
{ACAD_REACTORS
330
B1
102
}
330
B1
100
AcDbScale
 70
     0
300
3/32" = 1'-0"
140
0.09375
141
12.0
290
     0
  0
SCALE
  5
B8
102
{ACAD_REACTORS
330
B1
102
}
330
B1
100
AcDbScale
 70
     0
300
1/8" = 1'-0"
140
0.125
141
12.0
290
     0
  0
SCALE
  5
B9
102
{ACAD_REACTORS
330
B1
102
}
330
B1
100
AcDbScale
 70
     0
300
3/16" = 1'-0"
140
0.1875
141
12.0
290
     0
  0
SCALE
  5
BA
102
{ACAD_REACTORS
330
B1
102
}
330
B1
100
AcDbScale
 70
     0
300
1/4" = 1'-0"
140
0.25
141
12.0
290
     0
  0
SCALE
  5
BB
102
{ACAD_REACTORS
330
B1
102
}
330
B1
100
AcDbScale
 70
     0
300
3/8" = 1'-0"
140
0.375
141
12.0
290
     0
  0
SCALE
  5
BC
102
{ACAD_REACTORS
330
B1
102
}
330
B1
100
AcDbScale
 70
     0
300
1/2" = 1'-0"
140
0.5
141
12.0
290
     0
  0
SCALE
  5
BD
102
{ACAD_REACTORS
330
B1
102
}
330
B1
100
AcDbScale
 70
     0
300
3/4" = 1'-0"
140
0.75
141
12.0
290
     0
  0
SCALE
  5
BE
102
{ACAD_REACTORS
330
B1
102
}
330
B1
100
AcDbScale
 70
     0
300
1" = 1'-0"
140
1.0
141
12.0
290
     0
  0
SCALE
  5
BF
102
{ACAD_REACTORS
330
B1
102
}
330
B1
100
AcDbScale
 70
     0
300
1-1/2" = 1'-0"
140
1.5
141
12.0
290
     0
  0
SCALE
  5
C0
102
{ACAD_REACTORS
330
B1
102
}
330
B1
100
AcDbScale
 70
     0
300
3" = 1'-0"
140
3.0
141
12.0
290
     0
  0
SCALE
  5
C1
102
{ACAD_REACTORS
330
B1
102
}
330
B1
100
AcDbScale
 70
     0
300
6" = 1'-0"
140
6.0
141
12.0
290
     0
  0
SCALE
  5
C2
102
{ACAD_REACTORS
330
B1
102
}
330
B1
100
AcDbScale
 70
     0
300
1'-0" = 1'-0"
140
12.0
141
12.0
290
     0
  0
TABLESTYLE
  5
96
102
{ACAD_XDICTIONARY
360
2D7
102
}
102
{ACAD_REACTORS
330
95
102
}
330
95
100
AcDbTableStyle
  3
Standard
 70
     0
 71
     0
 40
0.06
 41
0.06
280
     0
281
     0
  7
Standard
140
0.18
170
     2
 62
     0
 63
     7
283
     0
274
    -2
284
     1
 64
     0
275
    -2
285
     1
 65
     0
276
    -2
286
     1
 66
     0
277
    -2
287
     1
 67
     0
278
    -2
288
     1
 68
     0
279
    -2
289
     1
 69
     0
  7
Standard
140
0.25
170
     5
 62
     0
 63
     7
283
     0
274
    -2
284
     1
 64
     0
275
    -2
285
     1
 65
     0
276
    -2
286
     1
 66
     0
277
    -2
287
     1
 67
     0
278
    -2
288
     1
 68
     0
279
    -2
289
     1
 69
     0
  7
Standard
140
0.18
170
     5
 62
     0
 63
     7
283
     0
274
    -2
284
     1
 64
     0
275
    -2
285
     1
 65
     0
276
    -2
286
     1
 66
     0
277
    -2
287
     1
 67
     0
278
    -2
288
     1
 68
     0
279
    -2
289
     1
 69
     0
  0
VISUALSTYLE
  5
8A
102
{ACAD_XDICTIONARY
360
2EC
102
}
102
{ACAD_REACTORS
330
84
102
}
330
84
100
AcDbVisualStyle
  2
2dWireframe
 70
     4
 71
     0
 72
     2
 73
     1
 90
        0
 40
-0.6
 41
-30.0
 62
     5
 63
     7
421
 16777215
 74
     1
 91
        4
 64
     7
 65
   257
 75
     1
175
     1
 42
1.0
 92
        0
 66
   257
 43
1.0
 76
     1
 77
     6
 78
     2
 67
     7
 79
     5
170
     0
171
     0
290
     0
174
     0
 93
        1
 44
0.0
173
     0
291
     0
 45
0.0
1001
ACAD
1000
AcDbSavedByObjectVersion
1070
     0
  0
VISUALSTYLE
  5
8C
102
{ACAD_XDICTIONARY
360
2F0
102
}
102
{ACAD_REACTORS
330
84
102
}
330
84
100
AcDbVisualStyle
  2
3D Hidden
 70
     6
 71
     1
 72
     2
 73
     2
 90
        0
 40
-0.6
 41
-30.0
 62
     5
 63
     7
421
 16777215
 74
     2
 91
       10
 64
     7
 65
   257
 75
     2
175
     2
 42
40.0
 92
        0
 66
   257
 43
1.0
 76
     1
 77
     6
 78
     2
 67
     7
 79
     3
170
     0
171
     0
290
     0
174
     0
 93
        1
 44
0.0
173
     0
291
     0
 45
0.0
1001
ACAD
1000
AcDbSavedByObjectVersion
1070
     0
  0
VISUALSTYLE
  5
8B
102
{ACAD_XDICTIONARY
360
2EE
102
}
102
{ACAD_REACTORS
330
84
102
}
330
84
100
AcDbVisualStyle
  2
3dWireframe
 70
     5
 71
     0
 72
     2
 73
     1
 90
        0
 40
-0.6
 41
-30.0
 62
     5
 63
     7
421
 16777215
 74
     1
 91
        4
 64
     7
 65
   257
 75
     1
175
     1
 42
1.0
 92
        0
 66
   257
 43
1.0
 76
     1
 77
     6
 78
     2
 67
     7
 79
     5
170
     0
171
     0
290
     0
174
     0
 93
        1
 44
0.0
173
     0
291
     0
 45
0.0
1001
ACAD
1000
AcDbSavedByObjectVersion
1070
     0
  0
VISUALSTYLE
  5
89
102
{ACAD_XDICTIONARY
360
2EA
102
}
102
{ACAD_REACTORS
330
84
102
}
330
84
100
AcDbVisualStyle
  2
Basic
 70
     7
 71
     1
 72
     0
 73
     1
 90
        0
 40
-0.6
 41
-30.0
 62
     5
 63
     7
421
 16777215
 74
     0
 91
        4
 64
     7
 65
   257
 75
     1
175
     1
 42
1.0
 92
        8
 66
     7
 43
1.0
 76
     1
 77
     6
 78
     2
 67
     7
 79
     5
170
     0
171
     0
290
     0
174
     0
 93
        1
 44
0.0
173
     0
291
     1
 45
0.0
1001
ACAD
1000
AcDbSavedByObjectVersion
1070
     0
  0
VISUALSTYLE
  5
90
102
{ACAD_XDICTIONARY
360
2F8
102
}
102
{ACAD_REACTORS
330
84
102
}
330
84
100
AcDbVisualStyle
  2
Brighten
 70
    12
 71
     2
 72
     2
 73
     1
 90
        0
 40
-0.6
 41
-30.0
 62
     5
 63
     7
421
 16777215
 74
     1
 91
        4
 64
     7
 65
   257
 75
     1
175
     1
 42
1.0
 92
        8
 66
     7
 43
1.0
 76
     1
 77
     6
 78
     2
 67
     7
 79
     5
170
     0
171
     0
290
     0
174
     0
 93
        1
 44
50.0
173
     0
291
     1
 45
0.0
1001
ACAD
1000
AcDbSavedByObjectVersion
1070
     0
  0
VISUALSTYLE
  5
94
102
{ACAD_XDICTIONARY
360
300
102
}
102
{ACAD_REACTORS
330
84
102
}
330
84
100
AcDbVisualStyle
  2
ColorChange
 70
    16
 71
     2
 72
     2
 73
     3
 90
        0
 40
-0.6
 41
-30.0
 62
     5
 63
     8
421
  8421504
 74
     1
 91
        4
 64
     7
 65
   257
 75
     1
175
     1
 42
1.0
 92
        8
 66
     8
424
  8421504
 43
1.0
 76
     1
 77
     6
 78
     2
 67
     7
 79
     5
170
     0
171
     0
290
     0
174
     0
 93
        1
 44
0.0
173
     0
291
     1
 45
0.0
1001
ACAD
1000
AcDbSavedByObjectVersion
1070
     0
  0
VISUALSTYLE
  5
8D
102
{ACAD_XDICTIONARY
360
2F2
102
}
102
{ACAD_REACTORS
330
84
102
}
330
84
100
AcDbVisualStyle
  2
Conceptual
 70
     9
 71
     3
 72
     2
 73
     1
 90
        0
 40
-0.6
 41
-30.0
 62
     5
 63
     7
421
 16777215
 74
     2
 91
        2
 64
     7
 65
   257
 75
     1
175
     1
 42
40.0
 92
        8
 66
     7
 43
1.0
 76
     1
 77
     6
 78
     2
 67
     7
 79
     5
170
     0
171
     0
290
     0
174
     0
 93
        1
 44
0.0
173
     0
291
     0
 45
0.0
1001
ACAD
1000
AcDbSavedByObjectVersion
1070
     0
  0
VISUALSTYLE
  5
8F
102
{ACAD_XDICTIONARY
360
2F6
102
}
102
{ACAD_REACTORS
330
84
102
}
330
84
100
AcDbVisualStyle
  2
Dim
 70
    11
 71
     2
 72
     2
 73
     1
 90
        0
 40
-0.6
 41
-30.0
 62
     5
 63
     7
421
 16777215
 74
     1
 91
        4
 64
     7
 65
   257
 75
     1
175
     1
 42
1.0
 92
        8
 66
     7
 43
1.0
 76
     1
 77
     6
 78
     2
 67
     7
 79
     5
170
     0
171
     0
290
     0
174
     0
 93
        1
 44
-50.0
173
     0
291
     1
 45
0.0
1001
ACAD
1000
AcDbSavedByObjectVersion
1070
     0
  0
VISUALSTYLE
  5
B0
102
{ACAD_XDICTIONARY
360
315
102
}
102
{ACAD_REACTORS
330
84
102
}
330
84
100
AcDbVisualStyle
  2
EdgeColorOff
 70
    22
 71
     2
 72
     2
 73
     0
 90
        0
 40
-0.6
 41
-30.0
 62
     5
 63
     7
421
 16777215
 74
     1
 91
        4
 64
     7
 65
   257
 75
     1
175
     1
 42
1.0
 92
        8
 66
     7
 43
1.0
 76
     1
 77
     6
 78
     2
 67
     7
 79
     5
170
     0
171
     0
290
     0
174
     0
 93
        1
 44
0.0
173
     0
291
     1
 45
0.0
1001
ACAD
1000
AcDbSavedByObjectVersion
1070
     0
  0
VISUALSTYLE
  5
93
102
{ACAD_XDICTIONARY
360
2FE
102
}
102
{ACAD_REACTORS
330
84
102
}
330
84
100
AcDbVisualStyle
  2
Facepattern
 70
    15
 71
     2
 72
     2
 73
     1
 90
        0
 40
-0.6
 41
-30.0
 62
     5
 63
     7
421
 16777215
 74
     1
 91
        4
 64
     7
 65
   257
 75
     1
175
     1
 42
1.0
 92
        8
 66
     7
 43
1.0
 76
     1
 77
     6
 78
     2
 67
     7
 79
     5
170
     0
171
     0
290
     0
174
     0
 93
        1
 44
0.0
173
     0
291
     1
 45
0.0
1001
ACAD
1000
AcDbSavedByObjectVersion
1070
     0
  0
VISUALSTYLE
  5
85
102
{ACAD_XDICTIONARY
360
2E2
102
}
102
{ACAD_REACTORS
330
84
102
}
330
84
100
AcDbVisualStyle
  2
Flat
 70
     0
 71
     2
 72
     1
 73
     1
 90
        2
 40
-0.6
 41
30.0
 62
     5
 63
     7
421
 16777215
 74
     0
 91
        4
 64
     7
 65
   257
 75
     1
175
     1
 42
1.0
 92
        8
 66
     7
 43
1.0
 76
     1
 77
     6
 78
     2
 67
     7
 79
     5
170
     0
171
     0
290
     0
174
     0
 93
        1
 44
0.0
173
     0
291
     1
 45
0.0
1001
ACAD
1000
AcDbSavedByObjectVersion
1070
     0
  0
VISUALSTYLE
  5
86
102
{ACAD_XDICTIONARY
360
2E4
102
}
102
{ACAD_REACTORS
330
84
102
}
330
84
100
AcDbVisualStyle
  2
FlatWithEdges
 70
     1
 71
     2
 72
     1
 73
     1
 90
        2
 40
-0.6
 41
30.0
 62
     5
 63
     7
421
 16777215
 74
     1
 91
        4
 64
     7
 65
   257
 75
     1
175
     1
 42
1.0
 92
        0
 66
   257
 43
1.0
 76
     1
 77
     6
 78
     2
 67
     7
 79
     5
170
     0
171
     0
290
     0
174
     0
 93
        1
 44
0.0
173
     0
291
     1
 45
0.0
1001
ACAD
1000
AcDbSavedByObjectVersion
1070
     0
  0
VISUALSTYLE
  5
87
102
{ACAD_XDICTIONARY
360
2E6
102
}
102
{ACAD_REACTORS
330
84
102
}
330
84
100
AcDbVisualStyle
  2
Gouraud
 70
     2
 71
     2
 72
     2
 73
     1
 90
        2
 40
-0.6
 41
30.0
 62
     5
 63
     7
421
 16777215
 74
     0
 91
        4
 64
     7
 65
   257
 75
     1
175
     1
 42
1.0
 92
        0
 66
     7
 43
1.0
 76
     1
 77
     6
 78
     2
 67
     7
 79
     5
170
     0
171
     0
290
     0
174
     0
 93
        1
 44
0.0
173
     0
291
     1
 45
0.0
1001
ACAD
1000
AcDbSavedByObjectVersion
1070
     0
  0
VISUALSTYLE
  5
88
102
{ACAD_XDICTIONARY
360
2E8
102
}
102
{ACAD_REACTORS
330
84
102
}
330
84
100
AcDbVisualStyle
  2
GouraudWithEdges
 70
     3
 71
     2
 72
     2
 73
     1
 90
        2
 40
-0.6
 41
30.0
 62
     5
 63
     7
421
 16777215
 74
     1
 91
        4
 64
     7
 65
   257
 75
     1
175
     1
 42
1.0
 92
        0
 66
   257
 43
1.0
 76
     1
 77
     6
 78
     2
 67
     7
 79
     5
170
     0
171
     0
290
     0
174
     0
 93
        1
 44
0.0
173
     0
291
     1
 45
0.0
1001
ACAD
1000
AcDbSavedByObjectVersion
1070
     0
  0
VISUALSTYLE
  5
A8
102
{ACAD_XDICTIONARY
360
305
102
}
102
{ACAD_REACTORS
330
84
102
}
330
84
100
AcDbVisualStyle
  2
Hidden
 70
     6
 71
     1
 72
     2
 73
     2
 90
        0
 40
-0.6
 41
-30.0
 62
     5
 63
     7
421
 16777215
 74
     2
 91
        2
 64
     7
 65
   257
 75
     2
175
     1
 42
40.0
 92
        0
 66
   257
 43
1.0
 76
     1
 77
     6
 78
     2
 67
     7
 79
     3
170
     0
171
     0
290
     0
174
     0
 93
        1
 44
0.0
173
     0
291
     0
 45
0.0
1001
ACAD
1000
AcDbSavedByObjectVersion
1070
     0
  0
VISUALSTYLE
  5
AE
102
{ACAD_XDICTIONARY
360
311
102
}
102
{ACAD_REACTORS
330
84
102
}
330
84
100
AcDbVisualStyle
  2
JitterOff
 70
    20
 71
     2
 72
     2
 73
     0
 90
        0
 40
-0.6
 41
-30.0
 62
     5
 63
     7
421
 16777215
 74
     1
 91
        4
 64
     7
 65
   257
 75
     1
175
     1
 42
1.0
 92
       10
 66
     7
 43
1.0
 76
     1
 77
     6
 78
     2
 67
     7
 79
     5
170
     0
171
     0
290
     0
174
     0
 93
        1
 44
0.0
173
     0
291
     1
 45
0.0
1001
ACAD
1000
AcDbSavedByObjectVersion
1070
     0
  0
VISUALSTYLE
  5
92
102
{ACAD_XDICTIONARY
360
2FC
102
}
102
{ACAD_REACTORS
330
84
102
}
330
84
100
AcDbVisualStyle
  2
Linepattern
 70
    14
 71
     2
 72
     2
 73
     1
 90
        0
 40
-0.6
 41
-30.0
 62
     5
 63
     7
421
 16777215
 74
     1
 91
        4
 64
     7
 65
   257
 75
     7
175
     7
 42
1.0
 92
        8
 66
     7
 43
1.0
 76
     1
 77
     6
 78
     2
 67
     7
 79
     5
170
     0
171
     0
290
     0
174
     0
 93
        1
 44
0.0
173
     0
291
     1
 45
0.0
1001
ACAD
1000
AcDbSavedByObjectVersion
1070
     0
  0
VISUALSTYLE
  5
AF
102
{ACAD_XDICTIONARY
360
313
102
}
102
{ACAD_REACTORS
330
84
102
}
330
84
100
AcDbVisualStyle
  2
OverhangOff
 70
    21
 71
     2
 72
     2
 73
     0
 90
        0
 40
-0.6
 41
-30.0
 62
     5
 63
     7
421
 16777215
 74
     1
 91
        4
 64
     7
 65
   257
 75
     1
175
     1
 42
1.0
 92
        9
 66
     7
 43
1.0
 76
     1
 77
     6
 78
     2
 67
     7
 79
     5
170
     0
171
     0
290
     0
174
     0
 93
        1
 44
0.0
173
     0
291
     1
 45
0.0
1001
ACAD
1000
AcDbSavedByObjectVersion
1070
     0
  0
VISUALSTYLE
  5
8E
102
{ACAD_XDICTIONARY
360
2F4
102
}
102
{ACAD_REACTORS
330
84
102
}
330
84
100
AcDbVisualStyle
  2
Realistic
 70
     8
 71
     2
 72
     2
 73
     1
 90
        0
 40
-0.6
 41
-30.0
 62
     5
 63
     7
421
 16777215
 74
     1
 91
        0
 64
     7
 65
   257
 75
     1
175
     1
 42
1.0
 92
        8
 66
     7
 43
1.0
 76
     1
 77
     6
 78
     2
 67
     7
 79
     5
170
     0
171
     0
290
     0
174
     0
 93
       13
 44
0.0
173
     0
291
     0
 45
0.0
1001
ACAD
1000
AcDbSavedByObjectVersion
1070
     0
  0
VISUALSTYLE
  5
AD
102
{ACAD_XDICTIONARY
360
30F
102
}
102
{ACAD_REACTORS
330
84
102
}
330
84
100
AcDbVisualStyle
  2
Shaded
 70
    27
 71
     2
 72
     2
 73
     1
 90
        2
 40
-0.6
 41
30.0
 62
     5
 63
     7
421
 16777215
 74
     0
 91
        4
 64
     7
 65
   257
 75
     1
175
     1
 42
1.0
 92
        8
 66
   257
 43
1.0
 76
     1
 77
     6
 78
     2
 67
     8
425
  7895160
 79
     3
170
     0
171
     0
290
     0
174
     0
 93
        5
 44
0.0
173
     0
291
     0
 45
0.0
1001
ACAD
1000
AcDbSavedByObjectVersion
1070
     0
  0
VISUALSTYLE
  5
AC
102
{ACAD_XDICTIONARY
360
30D
102
}
102
{ACAD_REACTORS
330
84
102
}
330
84
100
AcDbVisualStyle
  2
Shaded with edges
 70
    26
 71
     2
 72
     2
 73
     1
 90
        2
 40
-0.6
 41
30.0
 62
     5
 63
     7
421
 16777215
 74
     1
 91
       10
 64
     7
 65
   257
 75
     2
175
     1
 42
1.0
 92
        8
 66
   257
 43
1.0
 76
     1
 77
     6
 78
     2
 67
     7
 79
     3
170
     0
171
     0
290
     0
174
     0
 93
        5
 44
0.0
173
     0
291
     0
 45
0.0
1001
ACAD
1000
AcDbSavedByObjectVersion
1070
     0
  0
VISUALSTYLE
  5
A9
102
{ACAD_XDICTIONARY
360
307
102
}
102
{ACAD_REACTORS
330
84
102
}
330
84
100
AcDbVisualStyle
  2
Shades of Gray
 70
    23
 71
     2
 72
     2
 73
     3
 90
        0
 40
-0.6
 41
-30.0
 62
     5
 63
     7
421
 16777215
 74
     2
 91
        2
 64
     7
 65
     7
 75
     1
175
     1
 42
40.0
 92
        8
 66
     7
 43
1.0
 76
     1
 77
     6
 78
     2
 67
     7
 79
     3
170
     0
171
     0
290
     0
174
     0
 93
        1
 44
0.0
173
     0
291
     0
 45
0.0
1001
ACAD
1000
AcDbSavedByObjectVersion
1070
     0
  0
VISUALSTYLE
  5
AA
102
{ACAD_XDICTIONARY
360
309
102
}
102
{ACAD_REACTORS
330
84
102
}
330
84
100
AcDbVisualStyle
  2
Sketchy
 70
    24
 71
     1
 72
     2
 73
     2
 90
        0
 40
-0.6
 41
-30.0
 62
     5
 63
     7
421
 16777215
 74
     2
 91
        2
 64
     7
 65
     7
 75
     1
175
     1
 42
40.0
 92
       11
 66
     7
 43
1.0
 76
     1
 77
     6
 78
     2
 67
     7
 79
     6
170
     0
171
     0
290
     0
174
     0
 93
        1
 44
0.0
173
     0
291
     0
 45
0.0
1001
ACAD
1000
AcDbSavedByObjectVersion
1070
     0
  0
VISUALSTYLE
  5
91
102
{ACAD_XDICTIONARY
360
2FA
102
}
102
{ACAD_REACTORS
330
84
102
}
330
84
100
AcDbVisualStyle
  2
Thicken
 70
    13
 71
     2
 72
     2
 73
     1
 90
        0
 40
-0.6
 41
-30.0
 62
     5
 63
     7
421
 16777215
 74
     1
 91
        4
 64
     7
 65
   257
 75
     1
175
     1
 42
1.0
 92
       12
 66
     7
 43
1.0
 76
     1
 77
     6
 78
     2
 67
     7
 79
     5
170
     0
171
     0
290
     0
174
     0
 93
        1
 44
0.0
173
     0
291
     1
 45
0.0
1001
ACAD
1000
AcDbSavedByObjectVersion
1070
     0
  0
VISUALSTYLE
  5
A7
102
{ACAD_XDICTIONARY
360
303
102
}
102
{ACAD_REACTORS
330
84
102
}
330
84
100
AcDbVisualStyle
  2
Wireframe
 70
     5
 71
     0
 72
     2
 73
     0
 90
        0
 40
-0.6
 41
-30.0
 62
     5
 63
     7
421
 16777215
 74
     1
 91
        4
 64
     7
 65
   257
 75
     1
175
     1
 42
1.0
 92
        0
 66
   257
 43
1.0
 76
     1
 77
     6
 78
     2
 67
     7
 79
     3
170
     0
171
     0
290
     0
174
     0
 93
        1
 44
0.0
173
     0
291
     0
 45
0.0
1001
ACAD
1000
AcDbSavedByObjectVersion
1070
     0
  0
VISUALSTYLE
  5
AB
102
{ACAD_XDICTIONARY
360
30B
102
}
102
{ACAD_REACTORS
330
84
102
}
330
84
100
AcDbVisualStyle
  2
X-Ray
 70
    25
 71
     2
 72
     2
 73
     1
 90
        1
 40
0.5
 41
-30.0
 62
     5
 63
     7
421
 16777215
 74
     1
 91
        0
 64
     7
 65
   257
 75
     1
175
     1
 42
1.0
 92
        8
 66
     7
 43
1.0
 76
     1
 77
     6
 78
     2
 67
     7
 79
     3
170
     0
171
     0
290
     0
174
     0
 93
       13
 44
0.0
173
     0
291
     0
 45
0.0
1001
ACAD
1000
AcDbSavedByObjectVersion
1070
     0
  0
DICTIONARYVAR
  5
2D5
102
{ACAD_REACTORS
330
9D
102
}
330
9D
100
DictionaryVariables
280
     0
  1
1:1
  0
DICTIONARYVAR
  5
2D4
102
{ACAD_REACTORS
330
9D
102
}
330
9D
100
DictionaryVariables
280
     0
  1
STANDARD
  0
DICTIONARYVAR
  5
9E
102
{ACAD_REACTORS
330
9D
102
}
330
9D
100
DictionaryVariables
280
     0
  1
STANDARD
  0
DICTIONARYVAR
  5
2D6
102
{ACAD_REACTORS
330
9D
102
}
330
9D
100
DictionaryVariables
280
     0
  1
1
  0
DICTIONARY
  5
2DE
330
82
100
AcDbDictionary
280
     1
281
     1
  3
ACAD_XREC_ROUNDTRIP
360
2DF
  0
DICTIONARY
  5
2DC
330
81
100
AcDbDictionary
280
     1
281
     1
  3
ACAD_XREC_ROUNDTRIP
360
2DD
  0
DICTIONARY
  5
2E0
330
83
100
AcDbDictionary
280
     1
281
     1
  3
ACAD_XREC_ROUNDTRIP
360
2E1
  0
DICTIONARY
  5
2D9
330
C4
100
AcDbDictionary
280
     1
281
     1
  3
ACAD_XREC_ROUNDTRIP
360
2DA
  0
DICTIONARY
  5
2D7
330
96
100
AcDbDictionary
280
     1
281
     1
  3
ACAD_ROUNDTRIP_2008_TABLESTYLE_CELLSTYLEMAP
360
2D8
  3
ACAD_XREC_ROUNDTRIP
360
302
  0
DICTIONARY
  5
2EC
330
8A
100
AcDbDictionary
280
     1
281
     1
  3
ACAD_XREC_ROUNDTRIP
360
2ED
  0
DICTIONARY
  5
2F0
330
8C
100
AcDbDictionary
280
     1
281
     1
  3
ACAD_XREC_ROUNDTRIP
360
2F1
  0
DICTIONARY
  5
2EE
330
8B
100
AcDbDictionary
280
     1
281
     1
  3
ACAD_XREC_ROUNDTRIP
360
2EF
  0
DICTIONARY
  5
2EA
330
89
100
AcDbDictionary
280
     1
281
     1
  3
ACAD_XREC_ROUNDTRIP
360
2EB
  0
DICTIONARY
  5
2F8
330
90
100
AcDbDictionary
280
     1
281
     1
  3
ACAD_XREC_ROUNDTRIP
360
2F9
  0
DICTIONARY
  5
300
330
94
100
AcDbDictionary
280
     1
281
     1
  3
ACAD_XREC_ROUNDTRIP
360
301
  0
DICTIONARY
  5
2F2
330
8D
100
AcDbDictionary
280
     1
281
     1
  3
ACAD_XREC_ROUNDTRIP
360
2F3
  0
DICTIONARY
  5
2F6
330
8F
100
AcDbDictionary
280
     1
281
     1
  3
ACAD_XREC_ROUNDTRIP
360
2F7
  0
DICTIONARY
  5
315
330
B0
100
AcDbDictionary
280
     1
281
     1
  3
ACAD_XREC_ROUNDTRIP
360
316
  0
DICTIONARY
  5
2FE
330
93
100
AcDbDictionary
280
     1
281
     1
  3
ACAD_XREC_ROUNDTRIP
360
2FF
  0
DICTIONARY
  5
2E2
330
85
100
AcDbDictionary
280
     1
281
     1
  3
ACAD_XREC_ROUNDTRIP
360
2E3
  0
DICTIONARY
  5
2E4
330
86
100
AcDbDictionary
280
     1
281
     1
  3
ACAD_XREC_ROUNDTRIP
360
2E5
  0
DICTIONARY
  5
2E6
330
87
100
AcDbDictionary
280
     1
281
     1
  3
ACAD_XREC_ROUNDTRIP
360
2E7
  0
DICTIONARY
  5
2E8
330
88
100
AcDbDictionary
280
     1
281
     1
  3
ACAD_XREC_ROUNDTRIP
360
2E9
  0
DICTIONARY
  5
305
330
A8
100
AcDbDictionary
280
     1
281
     1
  3
ACAD_XREC_ROUNDTRIP
360
306
  0
DICTIONARY
  5
311
330
AE
100
AcDbDictionary
280
     1
281
     1
  3
ACAD_XREC_ROUNDTRIP
360
312
  0
DICTIONARY
  5
2FC
330
92
100
AcDbDictionary
280
     1
281
     1
  3
ACAD_XREC_ROUNDTRIP
360
2FD
  0
DICTIONARY
  5
313
330
AF
100
AcDbDictionary
280
     1
281
     1
  3
ACAD_XREC_ROUNDTRIP
360
314
  0
DICTIONARY
  5
2F4
330
8E
100
AcDbDictionary
280
     1
281
     1
  3
ACAD_XREC_ROUNDTRIP
360
2F5
  0
DICTIONARY
  5
30F
330
AD
100
AcDbDictionary
280
     1
281
     1
  3
ACAD_XREC_ROUNDTRIP
360
310
  0
DICTIONARY
  5
30D
330
AC
100
AcDbDictionary
280
     1
281
     1
  3
ACAD_XREC_ROUNDTRIP
360
30E
  0
DICTIONARY
  5
307
330
A9
100
AcDbDictionary
280
     1
281
     1
  3
ACAD_XREC_ROUNDTRIP
360
308
  0
DICTIONARY
  5
309
330
AA
100
AcDbDictionary
280
     1
281
     1
  3
ACAD_XREC_ROUNDTRIP
360
30A
  0
DICTIONARY
  5
2FA
330
91
100
AcDbDictionary
280
     1
281
     1
  3
ACAD_XREC_ROUNDTRIP
360
2FB
  0
DICTIONARY
  5
303
330
A7
100
AcDbDictionary
280
     1
281
     1
  3
ACAD_XREC_ROUNDTRIP
360
304
  0
DICTIONARY
  5
30B
330
AB
100
AcDbDictionary
280
     1
281
     1
  3
ACAD_XREC_ROUNDTRIP
360
30C
  0
XRECORD
  5
2DF
102
{ACAD_REACTORS
330
2DE
102
}
330
2DE
100
AcDbXrecord
280
     1
102
MATERIAL
148
0.0
149
0.0
149
0.0
 93
        0
 94
       63
282
     0
 72
     1
 77
     1
171
     1
175
     1
179
     1
273
     0
  0
XRECORD
  5
2DD
102
{ACAD_REACTORS
330
2DC
102
}
330
2DC
100
AcDbXrecord
280
     1
102
MATERIAL
148
0.0
149
0.0
149
0.0
 93
        0
 94
       63
282
     0
 72
     1
 77
     1
171
     1
175
     1
179
     1
273
     0
  0
XRECORD
  5
2E1
102
{ACAD_REACTORS
330
2E0
102
}
330
2E0
100
AcDbXrecord
280
     1
102
MATERIAL
148
0.0
149
0.0
149
0.0
 93
        0
 94
       63
282
     0
 72
     1
 77
     1
171
     1
175
     1
179
     1
273
     0
  0
XRECORD
  5
2DA
102
{ACAD_REACTORS
330
2D9
102
}
330
2D9
100
AcDbXrecord
280
     1
102
ACAD_ROUNDTRIP_2012_MLEADER_STYLE
298
     1
  0
CELLSTYLEMAP
  5
2D8
102
{ACAD_REACTORS
330
2D7
102
}
330
2D7
100
AcDbCellStyleMap
 90
        3
300
CELLSTYLE
  1
TABLEFORMAT_BEGIN
 90
        5
170
     1
 91
        0
 92
    32768
 62
   257
 93
        1
300
CONTENTFORMAT
  1
CONTENTFORMAT_BEGIN
 90
        0
 91
        0
 92
      512
 93
        0
300

 40
0.0
140
1.0
 94
        5
 62
     0
340
12
144
0.25
309
CONTENTFORMAT_END
171
     0
 94
        6
 95
        1
302
GRIDFORMAT
  1
GRIDFORMAT_BEGIN
 90
        0
 91
        1
 62
     0
 92
       -2
340
0
 93
        0
 40
0.045
309
GRIDFORMAT_END
 95
        2
302
GRIDFORMAT
  1
GRIDFORMAT_BEGIN
 90
        0
 91
        1
 62
     0
 92
       -2
340
0
 93
        0
 40
0.045
309
GRIDFORMAT_END
 95
        4
302
GRIDFORMAT
  1
GRIDFORMAT_BEGIN
 90
        0
 91
        1
 62
     0
 92
       -2
340
0
 93
        0
 40
0.045
309
GRIDFORMAT_END
 95
        8
302
GRIDFORMAT
  1
GRIDFORMAT_BEGIN
 90
        0
 91
        1
 62
     0
 92
       -2
340
0
 93
        0
 40
0.045
309
GRIDFORMAT_END
 95
       16
302
GRIDFORMAT
  1
GRIDFORMAT_BEGIN
 90
        0
 91
        1
 62
     0
 92
       -2
340
0
 93
        0
 40
0.045
309
GRIDFORMAT_END
 95
       32
302
GRIDFORMAT
  1
GRIDFORMAT_BEGIN
 90
        0
 91
        1
 62
     0
 92
       -2
340
0
 93
        0
 40
0.045
309
GRIDFORMAT_END
309
TABLEFORMAT_END
  1
CELLSTYLE_BEGIN
 90
        1
 91
        1
300
_TITLE
309
CELLSTYLE_END
300
CELLSTYLE
  1
TABLEFORMAT_BEGIN
 90
        5
170
     1
 91
        0
 92
        0
 62
   257
 93
        1
300
CONTENTFORMAT
  1
CONTENTFORMAT_BEGIN
 90
        0
 91
        0
 92
      512
 93
        0
300

 40
0.0
140
1.0
 94
        5
 62
     0
340
12
144
0.18
309
CONTENTFORMAT_END
171
     0
 94
        6
 95
        1
302
GRIDFORMAT
  1
GRIDFORMAT_BEGIN
 90
        0
 91
        1
 62
     0
 92
       -2
340
0
 93
        0
 40
0.045
309
GRIDFORMAT_END
 95
        2
302
GRIDFORMAT
  1
GRIDFORMAT_BEGIN
 90
        0
 91
        1
 62
     0
 92
       -2
340
0
 93
        0
 40
0.045
309
GRIDFORMAT_END
 95
        4
302
GRIDFORMAT
  1
GRIDFORMAT_BEGIN
 90
        0
 91
        1
 62
     0
 92
       -2
340
0
 93
        0
 40
0.045
309
GRIDFORMAT_END
 95
        8
302
GRIDFORMAT
  1
GRIDFORMAT_BEGIN
 90
        0
 91
        1
 62
     0
 92
       -2
340
0
 93
        0
 40
0.045
309
GRIDFORMAT_END
 95
       16
302
GRIDFORMAT
  1
GRIDFORMAT_BEGIN
 90
        0
 91
        1
 62
     0
 92
       -2
340
0
 93
        0
 40
0.045
309
GRIDFORMAT_END
 95
       32
302
GRIDFORMAT
  1
GRIDFORMAT_BEGIN
 90
        0
 91
        1
 62
     0
 92
       -2
340
0
 93
        0
 40
0.045
309
GRIDFORMAT_END
309
TABLEFORMAT_END
  1
CELLSTYLE_BEGIN
 90
        2
 91
        1
300
_HEADER
309
CELLSTYLE_END
300
CELLSTYLE
  1
TABLEFORMAT_BEGIN
 90
        5
170
     1
 91
        0
 92
        0
 62
   257
 93
        1
300
CONTENTFORMAT
  1
CONTENTFORMAT_BEGIN
 90
        0
 91
        0
 92
      512
 93
        0
300

 40
0.0
140
1.0
 94
        2
 62
     0
340
12
144
0.18
309
CONTENTFORMAT_END
171
     0
 94
        6
 95
        1
302
GRIDFORMAT
  1
GRIDFORMAT_BEGIN
 90
        0
 91
        1
 62
     0
 92
       -2
340
0
 93
        0
 40
0.045
309
GRIDFORMAT_END
 95
        2
302
GRIDFORMAT
  1
GRIDFORMAT_BEGIN
 90
        0
 91
        1
 62
     0
 92
       -2
340
0
 93
        0
 40
0.045
309
GRIDFORMAT_END
 95
        4
302
GRIDFORMAT
  1
GRIDFORMAT_BEGIN
 90
        0
 91
        1
 62
     0
 92
       -2
340
0
 93
        0
 40
0.045
309
GRIDFORMAT_END
 95
        8
302
GRIDFORMAT
  1
GRIDFORMAT_BEGIN
 90
        0
 91
        1
 62
     0
 92
       -2
340
0
 93
        0
 40
0.045
309
GRIDFORMAT_END
 95
       16
302
GRIDFORMAT
  1
GRIDFORMAT_BEGIN
 90
        0
 91
        1
 62
     0
 92
       -2
340
0
 93
        0
 40
0.045
309
GRIDFORMAT_END
 95
       32
302
GRIDFORMAT
  1
GRIDFORMAT_BEGIN
 90
        0
 91
        1
 62
     0
 92
       -2
340
0
 93
        0
 40
0.045
309
GRIDFORMAT_END
309
TABLEFORMAT_END
  1
CELLSTYLE_BEGIN
 90
        3
 91
        2
300
_DATA
309
CELLSTYLE_END
  0
XRECORD
  5
302
102
{ACAD_REACTORS
330
2D7
102
}
330
2D7
100
AcDbXrecord
280
     1
102
ACAD_ROUNDTRIP_PRE2007_TABLESTYLE
 90
      512
 91
        0
  1

 92
      512
 93
        0
  2

 94
      512
 95
        0
  3

  0
XRECORD
  5
2ED
102
{ACAD_REACTORS
330
2EC
102
}
330
2EC
100
AcDbXrecord
280
     1
102
RTVSPropertyOp0
 70
     1
102
RTVSPropertyOp1
 70
     1
102
RTVSPropertyOp2
 70
     1
102
RTVSPropertyOp3
 70
     1
102
RTVSPropertyOp4
 70
     1
102
RTVSPropertyOp5
 70
     1
102
RTVSPropertyOp6
 70
     1
102
RTVSPropertyOp7
 70
     1
102
RTVSPropertyOp8
 70
     1
102
RTVSPropertyOp9
 70
     1
102
RTVSPropertyOp10
 70
     1
102
RTVSPropertyOp11
 70
     1
102
RTVSPropertyOp12
 70
     1
102
RTVSPropertyOp13
 70
     1
102
RTVSPropertyOp14
 70
     1
102
RTVSPropertyOp15
 70
     1
102
RTVSPropertyOp16
 70
     1
102
RTVSPropertyOp17
 70
     1
102
RTVSPropertyOp18
 70
     1
102
RTVSPropertyOp19
 70
     1
102
RTVSPropertyOp20
 70
     1
102
RTVSPropertyOp21
 70
     1
102
RTVSPropertyOp22
 70
     1
102
RTVSPropertyOp23
 70
     1
102
RTVSPropertyOp24
 70
     1
102
RTVSPropertyOp25
 70
     1
102
RTVSPropertyOp26
 70
     1
102
RTVSPropertyOp27
 70
     1
102
RTVSPropertyOp28
 70
     1
102
RTVSPropertyOp29
 70
     1
102
RTVSPropertyOp30
 70
     1
102
RTVSPropertyOp31
 70
     1
102
RTVSPropertyOp32
 70
     1
  0
XRECORD
  5
2F1
102
{ACAD_REACTORS
330
2F0
102
}
330
2F0
100
AcDbXrecord
280
     1
102
RTVSPropertyOp0
 70
     1
102
RTVSPropertyOp1
 70
     1
102
RTVSPropertyOp2
 70
     1
102
RTVSPropertyOp3
 70
     1
102
RTVSPropertyOp4
 70
     1
102
RTVSPropertyOp5
 70
     1
102
RTVSPropertyOp6
 70
     1
102
RTVSPropertyOp7
 70
     1
102
RTVSPropertyOp8
 70
     1
102
RTVSPropertyOp9
 70
     1
102
RTVSPropertyOp10
 70
     1
102
RTVSPropertyOp11
 70
     1
102
RTVSPropertyOp12
 70
     1
102
RTVSPropertyOp13
 70
     1
102
RTVSPropertyOp14
 70
     1
102
RTVSPropertyOp15
 70
     1
102
RTVSPropertyOp16
 70
     1
102
RTVSPropertyOp17
 70
     1
102
RTVSPropertyOp18
 70
     1
102
RTVSPropertyOp19
 70
     1
102
RTVSPropertyOp20
 70
     1
102
RTVSPropertyOp21
 70
     1
102
RTVSPropertyOp22
 70
     1
102
RTVSPropertyOp23
 70
     1
102
RTVSPropertyOp24
 70
     1
102
RTVSPropertyOp25
 70
     1
102
RTVSPropertyOp26
 70
     1
102
RTVSPropertyOp27
 70
     1
102
RTVSPropertyOp28
 70
     1
102
RTVSPropertyOp29
 70
     1
102
RTVSPropertyOp30
 70
     1
102
RTVSPropertyOp31
 70
     1
102
RTVSPropertyOp32
 70
     1
  0
XRECORD
  5
2EF
102
{ACAD_REACTORS
330
2EE
102
}
330
2EE
100
AcDbXrecord
280
     1
102
RTVSPropertyOp0
 70
     1
102
RTVSPropertyOp1
 70
     1
102
RTVSPropertyOp2
 70
     1
102
RTVSPropertyOp3
 70
     1
102
RTVSPropertyOp4
 70
     1
102
RTVSPropertyOp5
 70
     1
102
RTVSPropertyOp6
 70
     1
102
RTVSPropertyOp7
 70
     1
102
RTVSPropertyOp8
 70
     1
102
RTVSPropertyOp9
 70
     1
102
RTVSPropertyOp10
 70
     1
102
RTVSPropertyOp11
 70
     1
102
RTVSPropertyOp12
 70
     1
102
RTVSPropertyOp13
 70
     1
102
RTVSPropertyOp14
 70
     1
102
RTVSPropertyOp15
 70
     1
102
RTVSPropertyOp16
 70
     1
102
RTVSPropertyOp17
 70
     1
102
RTVSPropertyOp18
 70
     1
102
RTVSPropertyOp19
 70
     1
102
RTVSPropertyOp20
 70
     1
102
RTVSPropertyOp21
 70
     1
102
RTVSPropertyOp22
 70
     1
102
RTVSPropertyOp23
 70
     1
102
RTVSPropertyOp24
 70
     1
102
RTVSPropertyOp25
 70
     1
102
RTVSPropertyOp26
 70
     1
102
RTVSPropertyOp27
 70
     1
102
RTVSPropertyOp28
 70
     1
102
RTVSPropertyOp29
 70
     1
102
RTVSPropertyOp30
 70
     1
102
RTVSPropertyOp31
 70
     1
102
RTVSPropertyOp32
 70
     1
  0
XRECORD
  5
2EB
102
{ACAD_REACTORS
330
2EA
102
}
330
2EA
100
AcDbXrecord
280
     1
102
RTVSPropertyOp0
 70
     1
102
RTVSPropertyOp1
 70
     1
102
RTVSPropertyOp2
 70
     1
102
RTVSPropertyOp3
 70
     1
102
RTVSPropertyOp4
 70
     1
102
RTVSPropertyOp5
 70
     1
102
RTVSPropertyOp6
 70
     1
102
RTVSPropertyOp7
 70
     1
102
RTVSPropertyOp8
 70
     1
102
RTVSPropertyOp9
 70
     1
102
RTVSPropertyOp10
 70
     1
102
RTVSPropertyOp11
 70
     1
102
RTVSPropertyOp12
 70
     1
102
RTVSPropertyOp13
 70
     1
102
RTVSPropertyOp14
 70
     1
102
RTVSPropertyOp15
 70
     1
102
RTVSPropertyOp16
 70
     1
102
RTVSPropertyOp17
 70
     1
102
RTVSPropertyOp18
 70
     1
102
RTVSPropertyOp19
 70
     1
102
RTVSPropertyOp20
 70
     1
102
RTVSPropertyOp21
 70
     1
102
RTVSPropertyOp22
 70
     1
102
RTVSPropertyOp23
 70
     1
102
RTVSPropertyOp24
 70
     1
102
RTVSPropertyOp25
 70
     1
102
RTVSPropertyOp26
 70
     1
102
RTVSPropertyOp27
 70
     1
102
RTVSPropertyOp28
 70
     1
102
RTVSPropertyOp29
 70
     1
102
RTVSPropertyOp30
 70
     1
102
RTVSPropertyOp31
 70
     1
102
RTVSPropertyOp32
 70
     1
  0
XRECORD
  5
2F9
102
{ACAD_REACTORS
330
2F8
102
}
330
2F8
100
AcDbXrecord
280
     1
102
RTVSPropertyOp0
 70
     1
102
RTVSPropertyOp1
 70
     1
102
RTVSPropertyOp2
 70
     1
102
RTVSPropertyOp3
 70
     1
102
RTVSPropertyOp4
 70
     1
102
RTVSPropertyOp5
 70
     1
102
RTVSPropertyOp6
 70
     1
102
RTVSPropertyOp7
 70
     1
102
RTVSPropertyOp8
 70
     1
102
RTVSPropertyOp9
 70
     1
102
RTVSPropertyOp10
 70
     1
102
RTVSPropertyOp11
 70
     1
102
RTVSPropertyOp12
 70
     1
102
RTVSPropertyOp13
 70
     1
102
RTVSPropertyOp14
 70
     1
102
RTVSPropertyOp15
 70
     1
102
RTVSPropertyOp16
 70
     1
102
RTVSPropertyOp17
 70
     1
102
RTVSPropertyOp18
 70
     1
102
RTVSPropertyOp19
 70
     1
102
RTVSPropertyOp20
 70
     1
102
RTVSPropertyOp21
 70
     1
102
RTVSPropertyOp22
 70
     1
102
RTVSPropertyOp23
 70
     1
102
RTVSPropertyOp24
 70
     1
102
RTVSPropertyOp25
 70
     1
102
RTVSPropertyOp26
 70
     1
102
RTVSPropertyOp27
 70
     1
102
RTVSPropertyOp28
 70
     1
102
RTVSPropertyOp29
 70
     1
102
RTVSPropertyOp30
 70
     1
102
RTVSPropertyOp31
 70
     1
102
RTVSPropertyOp32
 70
     1
  0
XRECORD
  5
301
102
{ACAD_REACTORS
330
300
102
}
330
300
100
AcDbXrecord
280
     1
102
RTVSPropertyOp0
 70
     1
102
RTVSPropertyOp1
 70
     1
102
RTVSPropertyOp2
 70
     1
102
RTVSPropertyOp3
 70
     1
102
RTVSPropertyOp4
 70
     1
102
RTVSPropertyOp5
 70
     1
102
RTVSPropertyOp6
 70
     1
102
RTVSPropertyOp7
 70
     1
102
RTVSPropertyOp8
 70
     1
102
RTVSPropertyOp9
 70
     1
102
RTVSPropertyOp10
 70
     1
102
RTVSPropertyOp11
 70
     1
102
RTVSPropertyOp12
 70
     1
102
RTVSPropertyOp13
 70
     1
102
RTVSPropertyOp14
 70
     1
102
RTVSPropertyOp15
 70
     1
102
RTVSPropertyOp16
 70
     1
102
RTVSPropertyOp17
 70
     1
102
RTVSPropertyOp18
 70
     1
102
RTVSPropertyOp19
 70
     1
102
RTVSPropertyOp20
 70
     1
102
RTVSPropertyOp21
 70
     1
102
RTVSPropertyOp22
 70
     1
102
RTVSPropertyOp23
 70
     1
102
RTVSPropertyOp24
 70
     1
102
RTVSPropertyOp25
 70
     1
102
RTVSPropertyOp26
 70
     1
102
RTVSPropertyOp27
 70
     1
102
RTVSPropertyOp28
 70
     1
102
RTVSPropertyOp29
 70
     1
102
RTVSPropertyOp30
 70
     1
102
RTVSPropertyOp31
 70
     1
102
RTVSPropertyOp32
 70
     1
  0
XRECORD
  5
2F3
102
{ACAD_REACTORS
330
2F2
102
}
330
2F2
100
AcDbXrecord
280
     1
102
RTVSPropertyOp0
 70
     1
102
RTVSPropertyOp1
 70
     1
102
RTVSPropertyOp2
 70
     1
102
RTVSPropertyOp3
 70
     1
102
RTVSPropertyOp4
 70
     1
102
RTVSPropertyOp5
 70
     1
102
RTVSPropertyOp6
 70
     1
102
RTVSPropertyOp7
 70
     1
102
RTVSPropertyOp8
 70
     1
102
RTVSPropertyOp9
 70
     1
102
RTVSPropertyOp10
 70
     1
102
RTVSPropertyOp11
 70
     1
102
RTVSPropertyOp12
 70
     1
102
RTVSPropertyOp13
 70
     1
102
RTVSPropertyOp14
 70
     1
102
RTVSPropertyOp15
 70
     1
102
RTVSPropertyOp16
 70
     1
102
RTVSPropertyOp17
 70
     1
102
RTVSPropertyOp18
 70
     1
102
RTVSPropertyOp19
 70
     1
102
RTVSPropertyOp20
 70
     1
102
RTVSPropertyOp21
 70
     1
102
RTVSPropertyOp22
 70
     1
102
RTVSPropertyOp23
 70
     1
102
RTVSPropertyOp24
 70
     1
102
RTVSPropertyOp25
 70
     1
102
RTVSPropertyOp26
 70
     1
102
RTVSPropertyOp27
 70
     1
102
RTVSPropertyOp28
 70
     1
102
RTVSPropertyOp29
 70
     1
102
RTVSPropertyOp30
 70
     1
102
RTVSPropertyOp31
 70
     1
102
RTVSPropertyOp32
 70
     1
  0
XRECORD
  5
2F7
102
{ACAD_REACTORS
330
2F6
102
}
330
2F6
100
AcDbXrecord
280
     1
102
RTVSPropertyOp0
 70
     1
102
RTVSPropertyOp1
 70
     1
102
RTVSPropertyOp2
 70
     1
102
RTVSPropertyOp3
 70
     1
102
RTVSPropertyOp4
 70
     1
102
RTVSPropertyOp5
 70
     1
102
RTVSPropertyOp6
 70
     1
102
RTVSPropertyOp7
 70
     1
102
RTVSPropertyOp8
 70
     1
102
RTVSPropertyOp9
 70
     1
102
RTVSPropertyOp10
 70
     1
102
RTVSPropertyOp11
 70
     1
102
RTVSPropertyOp12
 70
     1
102
RTVSPropertyOp13
 70
     1
102
RTVSPropertyOp14
 70
     1
102
RTVSPropertyOp15
 70
     1
102
RTVSPropertyOp16
 70
     1
102
RTVSPropertyOp17
 70
     1
102
RTVSPropertyOp18
 70
     1
102
RTVSPropertyOp19
 70
     1
102
RTVSPropertyOp20
 70
     1
102
RTVSPropertyOp21
 70
     1
102
RTVSPropertyOp22
 70
     1
102
RTVSPropertyOp23
 70
     1
102
RTVSPropertyOp24
 70
     1
102
RTVSPropertyOp25
 70
     1
102
RTVSPropertyOp26
 70
     1
102
RTVSPropertyOp27
 70
     1
102
RTVSPropertyOp28
 70
     1
102
RTVSPropertyOp29
 70
     1
102
RTVSPropertyOp30
 70
     1
102
RTVSPropertyOp31
 70
     1
102
RTVSPropertyOp32
 70
     1
  0
XRECORD
  5
316
102
{ACAD_REACTORS
330
315
102
}
330
315
100
AcDbXrecord
280
     1
102
RTVSPropertyOp0
 70
     0
102
RTVSPropertyOp1
 70
     0
102
RTVSPropertyOp2
 70
     0
102
RTVSPropertyOp3
 70
     0
102
RTVSPropertyOp4
 70
     0
102
RTVSPropertyOp5
 70
     0
102
RTVSPropertyOp6
 70
     0
102
RTVSPropertyOp7
 70
     0
102
RTVSPropertyOp8
 70
     0
102
RTVSPropertyOp9
 70
     0
102
RTVSPropertyOp10
 70
     0
102
RTVSPropertyOp11
 70
     0
102
RTVSPropertyOp12
 70
     0
102
RTVSPropertyOp13
 70
     0
102
RTVSPropertyOp14
 70
     2
102
RTVSPropertyOp15
 70
     0
102
RTVSPropertyOp16
 70
     0
102
RTVSPropertyOp17
 70
     0
102
RTVSPropertyOp18
 70
     0
102
RTVSPropertyOp19
 70
     0
102
RTVSPropertyOp20
 70
     0
102
RTVSPropertyOp21
 70
     0
102
RTVSPropertyOp22
 70
     0
102
RTVSPropertyOp23
 70
     0
102
RTVSPropertyOp24
 70
     0
102
RTVSPropertyOp25
 70
     0
102
RTVSPropertyOp26
 70
     0
102
RTVSPropertyOp27
 70
     0
102
RTVSPropertyOp28
 70
     0
102
RTVSPropertyOp29
 70
     0
102
RTVSPropertyOp30
 70
     0
102
RTVSPropertyOp31
 70
     0
102
RTVSPropertyOp32
 70
     0
  0
XRECORD
  5
2FF
102
{ACAD_REACTORS
330
2FE
102
}
330
2FE
100
AcDbXrecord
280
     1
102
RTVSPropertyOp0
 70
     1
102
RTVSPropertyOp1
 70
     1
102
RTVSPropertyOp2
 70
     1
102
RTVSPropertyOp3
 70
     1
102
RTVSPropertyOp4
 70
     1
102
RTVSPropertyOp5
 70
     1
102
RTVSPropertyOp6
 70
     1
102
RTVSPropertyOp7
 70
     1
102
RTVSPropertyOp8
 70
     1
102
RTVSPropertyOp9
 70
     1
102
RTVSPropertyOp10
 70
     1
102
RTVSPropertyOp11
 70
     1
102
RTVSPropertyOp12
 70
     1
102
RTVSPropertyOp13
 70
     1
102
RTVSPropertyOp14
 70
     1
102
RTVSPropertyOp15
 70
     1
102
RTVSPropertyOp16
 70
     1
102
RTVSPropertyOp17
 70
     1
102
RTVSPropertyOp18
 70
     1
102
RTVSPropertyOp19
 70
     1
102
RTVSPropertyOp20
 70
     1
102
RTVSPropertyOp21
 70
     1
102
RTVSPropertyOp22
 70
     1
102
RTVSPropertyOp23
 70
     1
102
RTVSPropertyOp24
 70
     1
102
RTVSPropertyOp25
 70
     1
102
RTVSPropertyOp26
 70
     1
102
RTVSPropertyOp27
 70
     1
102
RTVSPropertyOp28
 70
     1
102
RTVSPropertyOp29
 70
     1
102
RTVSPropertyOp30
 70
     1
102
RTVSPropertyOp31
 70
     1
102
RTVSPropertyOp32
 70
     1
  0
XRECORD
  5
2E3
102
{ACAD_REACTORS
330
2E2
102
}
330
2E2
100
AcDbXrecord
280
     1
102
RTVSPropertyOp0
 70
     1
102
RTVSPropertyOp1
 70
     1
102
RTVSPropertyOp2
 70
     1
102
RTVSPropertyOp3
 70
     1
102
RTVSPropertyOp4
 70
     1
102
RTVSPropertyOp5
 70
     1
102
RTVSPropertyOp6
 70
     1
102
RTVSPropertyOp7
 70
     1
102
RTVSPropertyOp8
 70
     1
102
RTVSPropertyOp9
 70
     1
102
RTVSPropertyOp10
 70
     1
102
RTVSPropertyOp11
 70
     1
102
RTVSPropertyOp12
 70
     1
102
RTVSPropertyOp13
 70
     1
102
RTVSPropertyOp14
 70
     1
102
RTVSPropertyOp15
 70
     1
102
RTVSPropertyOp16
 70
     1
102
RTVSPropertyOp17
 70
     1
102
RTVSPropertyOp18
 70
     1
102
RTVSPropertyOp19
 70
     1
102
RTVSPropertyOp20
 70
     1
102
RTVSPropertyOp21
 70
     1
102
RTVSPropertyOp22
 70
     1
102
RTVSPropertyOp23
 70
     1
102
RTVSPropertyOp24
 70
     1
102
RTVSPropertyOp25
 70
     1
102
RTVSPropertyOp26
 70
     1
102
RTVSPropertyOp27
 70
     1
102
RTVSPropertyOp28
 70
     1
102
RTVSPropertyOp29
 70
     1
102
RTVSPropertyOp30
 70
     1
102
RTVSPropertyOp31
 70
     1
102
RTVSPropertyOp32
 70
     1
  0
XRECORD
  5
2E5
102
{ACAD_REACTORS
330
2E4
102
}
330
2E4
100
AcDbXrecord
280
     1
102
RTVSPropertyOp0
 70
     1
102
RTVSPropertyOp1
 70
     1
102
RTVSPropertyOp2
 70
     1
102
RTVSPropertyOp3
 70
     1
102
RTVSPropertyOp4
 70
     1
102
RTVSPropertyOp5
 70
     1
102
RTVSPropertyOp6
 70
     1
102
RTVSPropertyOp7
 70
     1
102
RTVSPropertyOp8
 70
     1
102
RTVSPropertyOp9
 70
     1
102
RTVSPropertyOp10
 70
     1
102
RTVSPropertyOp11
 70
     1
102
RTVSPropertyOp12
 70
     1
102
RTVSPropertyOp13
 70
     1
102
RTVSPropertyOp14
 70
     1
102
RTVSPropertyOp15
 70
     1
102
RTVSPropertyOp16
 70
     1
102
RTVSPropertyOp17
 70
     1
102
RTVSPropertyOp18
 70
     1
102
RTVSPropertyOp19
 70
     1
102
RTVSPropertyOp20
 70
     1
102
RTVSPropertyOp21
 70
     1
102
RTVSPropertyOp22
 70
     1
102
RTVSPropertyOp23
 70
     1
102
RTVSPropertyOp24
 70
     1
102
RTVSPropertyOp25
 70
     1
102
RTVSPropertyOp26
 70
     1
102
RTVSPropertyOp27
 70
     1
102
RTVSPropertyOp28
 70
     1
102
RTVSPropertyOp29
 70
     1
102
RTVSPropertyOp30
 70
     1
102
RTVSPropertyOp31
 70
     1
102
RTVSPropertyOp32
 70
     1
  0
XRECORD
  5
2E7
102
{ACAD_REACTORS
330
2E6
102
}
330
2E6
100
AcDbXrecord
280
     1
102
RTVSPropertyOp0
 70
     1
102
RTVSPropertyOp1
 70
     1
102
RTVSPropertyOp2
 70
     1
102
RTVSPropertyOp3
 70
     1
102
RTVSPropertyOp4
 70
     1
102
RTVSPropertyOp5
 70
     1
102
RTVSPropertyOp6
 70
     1
102
RTVSPropertyOp7
 70
     1
102
RTVSPropertyOp8
 70
     1
102
RTVSPropertyOp9
 70
     1
102
RTVSPropertyOp10
 70
     1
102
RTVSPropertyOp11
 70
     1
102
RTVSPropertyOp12
 70
     1
102
RTVSPropertyOp13
 70
     1
102
RTVSPropertyOp14
 70
     1
102
RTVSPropertyOp15
 70
     1
102
RTVSPropertyOp16
 70
     1
102
RTVSPropertyOp17
 70
     1
102
RTVSPropertyOp18
 70
     1
102
RTVSPropertyOp19
 70
     1
102
RTVSPropertyOp20
 70
     1
102
RTVSPropertyOp21
 70
     1
102
RTVSPropertyOp22
 70
     1
102
RTVSPropertyOp23
 70
     1
102
RTVSPropertyOp24
 70
     1
102
RTVSPropertyOp25
 70
     1
102
RTVSPropertyOp26
 70
     1
102
RTVSPropertyOp27
 70
     1
102
RTVSPropertyOp28
 70
     1
102
RTVSPropertyOp29
 70
     1
102
RTVSPropertyOp30
 70
     1
102
RTVSPropertyOp31
 70
     1
102
RTVSPropertyOp32
 70
     1
  0
XRECORD
  5
2E9
102
{ACAD_REACTORS
330
2E8
102
}
330
2E8
100
AcDbXrecord
280
     1
102
RTVSPropertyOp0
 70
     1
102
RTVSPropertyOp1
 70
     1
102
RTVSPropertyOp2
 70
     1
102
RTVSPropertyOp3
 70
     1
102
RTVSPropertyOp4
 70
     1
102
RTVSPropertyOp5
 70
     1
102
RTVSPropertyOp6
 70
     1
102
RTVSPropertyOp7
 70
     1
102
RTVSPropertyOp8
 70
     1
102
RTVSPropertyOp9
 70
     1
102
RTVSPropertyOp10
 70
     1
102
RTVSPropertyOp11
 70
     1
102
RTVSPropertyOp12
 70
     1
102
RTVSPropertyOp13
 70
     1
102
RTVSPropertyOp14
 70
     1
102
RTVSPropertyOp15
 70
     1
102
RTVSPropertyOp16
 70
     1
102
RTVSPropertyOp17
 70
     1
102
RTVSPropertyOp18
 70
     1
102
RTVSPropertyOp19
 70
     1
102
RTVSPropertyOp20
 70
     1
102
RTVSPropertyOp21
 70
     1
102
RTVSPropertyOp22
 70
     1
102
RTVSPropertyOp23
 70
     1
102
RTVSPropertyOp24
 70
     1
102
RTVSPropertyOp25
 70
     1
102
RTVSPropertyOp26
 70
     1
102
RTVSPropertyOp27
 70
     1
102
RTVSPropertyOp28
 70
     1
102
RTVSPropertyOp29
 70
     1
102
RTVSPropertyOp30
 70
     1
102
RTVSPropertyOp31
 70
     1
102
RTVSPropertyOp32
 70
     1
  0
XRECORD
  5
306
102
{ACAD_REACTORS
330
305
102
}
330
305
100
AcDbXrecord
280
     1
102
RTVSPropertyOp0
 70
     1
102
RTVSPropertyOp1
 70
     1
102
RTVSPropertyOp2
 70
     1
102
RTVSPropertyOp3
 70
     1
102
RTVSPropertyOp4
 70
     1
102
RTVSPropertyOp5
 70
     1
102
RTVSPropertyOp6
 70
     1
102
RTVSPropertyOp7
 70
     1
102
RTVSPropertyOp8
 70
     1
102
RTVSPropertyOp9
 70
     1
102
RTVSPropertyOp10
 70
     1
102
RTVSPropertyOp11
 70
     1
102
RTVSPropertyOp12
 70
     1
102
RTVSPropertyOp13
 70
     1
102
RTVSPropertyOp14
 70
     1
102
RTVSPropertyOp15
 70
     1
102
RTVSPropertyOp16
 70
     1
102
RTVSPropertyOp17
 70
     1
102
RTVSPropertyOp18
 70
     1
102
RTVSPropertyOp19
 70
     1
102
RTVSPropertyOp20
 70
     1
102
RTVSPropertyOp21
 70
     1
102
RTVSPropertyOp22
 70
     1
102
RTVSPropertyOp23
 70
     1
102
RTVSPropertyOp24
 70
     1
102
RTVSPropertyOp25
 70
     1
102
RTVSPropertyOp26
 70
     1
102
RTVSPropertyOp27
 70
     1
102
RTVSPropertyOp28
 70
     1
102
RTVSPropertyOp29
 70
     1
102
RTVSPropertyOp30
 70
     1
102
RTVSPropertyOp31
 70
     1
102
RTVSPropertyOp32
 70
     1
  0
XRECORD
  5
312
102
{ACAD_REACTORS
330
311
102
}
330
311
100
AcDbXrecord
280
     1
102
RTVSPropertyOp0
 70
     0
102
RTVSPropertyOp1
 70
     0
102
RTVSPropertyOp2
 70
     0
102
RTVSPropertyOp3
 70
     0
102
RTVSPropertyOp4
 70
     0
102
RTVSPropertyOp5
 70
     0
102
RTVSPropertyOp6
 70
     0
102
RTVSPropertyOp7
 70
     0
102
RTVSPropertyOp8
 70
     0
102
RTVSPropertyOp9
 70
     0
102
RTVSPropertyOp10
 70
     0
102
RTVSPropertyOp11
 70
     0
102
RTVSPropertyOp12
 70
     0
102
RTVSPropertyOp13
 70
     0
102
RTVSPropertyOp14
 70
     2
102
RTVSPropertyOp15
 70
     0
102
RTVSPropertyOp16
 70
     0
102
RTVSPropertyOp17
 70
     0
102
RTVSPropertyOp18
 70
     0
102
RTVSPropertyOp19
 70
     0
102
RTVSPropertyOp20
 70
     0
102
RTVSPropertyOp21
 70
     0
102
RTVSPropertyOp22
 70
     0
102
RTVSPropertyOp23
 70
     0
102
RTVSPropertyOp24
 70
     0
102
RTVSPropertyOp25
 70
     0
102
RTVSPropertyOp26
 70
     0
102
RTVSPropertyOp27
 70
     0
102
RTVSPropertyOp28
 70
     0
102
RTVSPropertyOp29
 70
     0
102
RTVSPropertyOp30
 70
     0
102
RTVSPropertyOp31
 70
     0
102
RTVSPropertyOp32
 70
     0
  0
XRECORD
  5
2FD
102
{ACAD_REACTORS
330
2FC
102
}
330
2FC
100
AcDbXrecord
280
     1
102
RTVSPropertyOp0
 70
     1
102
RTVSPropertyOp1
 70
     1
102
RTVSPropertyOp2
 70
     1
102
RTVSPropertyOp3
 70
     1
102
RTVSPropertyOp4
 70
     1
102
RTVSPropertyOp5
 70
     1
102
RTVSPropertyOp6
 70
     1
102
RTVSPropertyOp7
 70
     1
102
RTVSPropertyOp8
 70
     1
102
RTVSPropertyOp9
 70
     1
102
RTVSPropertyOp10
 70
     1
102
RTVSPropertyOp11
 70
     1
102
RTVSPropertyOp12
 70
     1
102
RTVSPropertyOp13
 70
     1
102
RTVSPropertyOp14
 70
     1
102
RTVSPropertyOp15
 70
     1
102
RTVSPropertyOp16
 70
     1
102
RTVSPropertyOp17
 70
     1
102
RTVSPropertyOp18
 70
     1
102
RTVSPropertyOp19
 70
     1
102
RTVSPropertyOp20
 70
     1
102
RTVSPropertyOp21
 70
     1
102
RTVSPropertyOp22
 70
     1
102
RTVSPropertyOp23
 70
     1
102
RTVSPropertyOp24
 70
     1
102
RTVSPropertyOp25
 70
     1
102
RTVSPropertyOp26
 70
     1
102
RTVSPropertyOp27
 70
     1
102
RTVSPropertyOp28
 70
     1
102
RTVSPropertyOp29
 70
     1
102
RTVSPropertyOp30
 70
     1
102
RTVSPropertyOp31
 70
     1
102
RTVSPropertyOp32
 70
     1
  0
XRECORD
  5
314
102
{ACAD_REACTORS
330
313
102
}
330
313
100
AcDbXrecord
280
     1
102
RTVSPropertyOp0
 70
     0
102
RTVSPropertyOp1
 70
     0
102
RTVSPropertyOp2
 70
     0
102
RTVSPropertyOp3
 70
     0
102
RTVSPropertyOp4
 70
     0
102
RTVSPropertyOp5
 70
     0
102
RTVSPropertyOp6
 70
     0
102
RTVSPropertyOp7
 70
     0
102
RTVSPropertyOp8
 70
     0
102
RTVSPropertyOp9
 70
     0
102
RTVSPropertyOp10
 70
     0
102
RTVSPropertyOp11
 70
     0
102
RTVSPropertyOp12
 70
     0
102
RTVSPropertyOp13
 70
     0
102
RTVSPropertyOp14
 70
     2
102
RTVSPropertyOp15
 70
     0
102
RTVSPropertyOp16
 70
     0
102
RTVSPropertyOp17
 70
     0
102
RTVSPropertyOp18
 70
     0
102
RTVSPropertyOp19
 70
     0
102
RTVSPropertyOp20
 70
     0
102
RTVSPropertyOp21
 70
     0
102
RTVSPropertyOp22
 70
     0
102
RTVSPropertyOp23
 70
     0
102
RTVSPropertyOp24
 70
     0
102
RTVSPropertyOp25
 70
     0
102
RTVSPropertyOp26
 70
     0
102
RTVSPropertyOp27
 70
     0
102
RTVSPropertyOp28
 70
     0
102
RTVSPropertyOp29
 70
     0
102
RTVSPropertyOp30
 70
     0
102
RTVSPropertyOp31
 70
     0
102
RTVSPropertyOp32
 70
     0
  0
XRECORD
  5
2F5
102
{ACAD_REACTORS
330
2F4
102
}
330
2F4
100
AcDbXrecord
280
     1
102
RTVSPropertyOp0
 70
     1
102
RTVSPropertyOp1
 70
     1
102
RTVSPropertyOp2
 70
     1
102
RTVSPropertyOp3
 70
     1
102
RTVSPropertyOp4
 70
     1
102
RTVSPropertyOp5
 70
     1
102
RTVSPropertyOp6
 70
     1
102
RTVSPropertyOp7
 70
     1
102
RTVSPropertyOp8
 70
     1
102
RTVSPropertyOp9
 70
     1
102
RTVSPropertyOp10
 70
     1
102
RTVSPropertyOp11
 70
     1
102
RTVSPropertyOp12
 70
     1
102
RTVSPropertyOp13
 70
     1
102
RTVSPropertyOp14
 70
     1
102
RTVSPropertyOp15
 70
     1
102
RTVSPropertyOp16
 70
     1
102
RTVSPropertyOp17
 70
     1
102
RTVSPropertyOp18
 70
     1
102
RTVSPropertyOp19
 70
     1
102
RTVSPropertyOp20
 70
     1
102
RTVSPropertyOp21
 70
     1
102
RTVSPropertyOp22
 70
     1
102
RTVSPropertyOp23
 70
     1
102
RTVSPropertyOp24
 70
     1
102
RTVSPropertyOp25
 70
     1
102
RTVSPropertyOp26
 70
     1
102
RTVSPropertyOp27
 70
     1
102
RTVSPropertyOp28
 70
     1
102
RTVSPropertyOp29
 70
     1
102
RTVSPropertyOp30
 70
     1
102
RTVSPropertyOp31
 70
     1
102
RTVSPropertyOp32
 70
     1
  0
XRECORD
  5
310
102
{ACAD_REACTORS
330
30F
102
}
330
30F
100
AcDbXrecord
280
     1
102
RTVSPropertyOp0
 70
     1
102
RTVSPropertyOp1
 70
     1
102
RTVSPropertyOp2
 70
     1
102
RTVSPropertyOp3
 70
     1
102
RTVSPropertyOp4
 70
     1
102
RTVSPropertyOp5
 70
     1
102
RTVSPropertyOp6
 70
     1
102
RTVSPropertyOp7
 70
     1
102
RTVSPropertyOp8
 70
     1
102
RTVSPropertyOp9
 70
     1
102
RTVSPropertyOp10
 70
     1
102
RTVSPropertyOp11
 70
     1
102
RTVSPropertyOp12
 70
     1
102
RTVSPropertyOp13
 70
     1
102
RTVSPropertyOp14
 70
     1
102
RTVSPropertyOp15
 70
     1
102
RTVSPropertyOp16
 70
     1
102
RTVSPropertyOp17
 70
     1
102
RTVSPropertyOp18
 70
     1
102
RTVSPropertyOp19
 70
     1
102
RTVSPropertyOp20
 70
     1
102
RTVSPropertyOp21
 70
     1
102
RTVSPropertyOp22
 70
     1
102
RTVSPropertyOp23
 70
     1
102
RTVSPropertyOp24
 70
     1
102
RTVSPropertyOp25
 70
     1
102
RTVSPropertyOp26
 70
     1
102
RTVSPropertyOp27
 70
     1
102
RTVSPropertyOp28
 70
     1
102
RTVSPropertyOp29
 70
     1
102
RTVSPropertyOp30
 70
     1
102
RTVSPropertyOp31
 70
     1
102
RTVSPropertyOp32
 70
     1
  0
XRECORD
  5
30E
102
{ACAD_REACTORS
330
30D
102
}
330
30D
100
AcDbXrecord
280
     1
102
RTVSPropertyOp0
 70
     1
102
RTVSPropertyOp1
 70
     1
102
RTVSPropertyOp2
 70
     1
102
RTVSPropertyOp3
 70
     1
102
RTVSPropertyOp4
 70
     1
102
RTVSPropertyOp5
 70
     1
102
RTVSPropertyOp6
 70
     1
102
RTVSPropertyOp7
 70
     1
102
RTVSPropertyOp8
 70
     1
102
RTVSPropertyOp9
 70
     1
102
RTVSPropertyOp10
 70
     1
102
RTVSPropertyOp11
 70
     1
102
RTVSPropertyOp12
 70
     1
102
RTVSPropertyOp13
 70
     1
102
RTVSPropertyOp14
 70
     1
102
RTVSPropertyOp15
 70
     1
102
RTVSPropertyOp16
 70
     1
102
RTVSPropertyOp17
 70
     1
102
RTVSPropertyOp18
 70
     1
102
RTVSPropertyOp19
 70
     1
102
RTVSPropertyOp20
 70
     1
102
RTVSPropertyOp21
 70
     1
102
RTVSPropertyOp22
 70
     1
102
RTVSPropertyOp23
 70
     1
102
RTVSPropertyOp24
 70
     1
102
RTVSPropertyOp25
 70
     1
102
RTVSPropertyOp26
 70
     1
102
RTVSPropertyOp27
 70
     1
102
RTVSPropertyOp28
 70
     1
102
RTVSPropertyOp29
 70
     1
102
RTVSPropertyOp30
 70
     1
102
RTVSPropertyOp31
 70
     1
102
RTVSPropertyOp32
 70
     1
  0
XRECORD
  5
308
102
{ACAD_REACTORS
330
307
102
}
330
307
100
AcDbXrecord
280
     1
102
RTVSPropertyOp0
 70
     1
102
RTVSPropertyOp1
 70
     1
102
RTVSPropertyOp2
 70
     1
102
RTVSPropertyOp3
 70
     1
102
RTVSPropertyOp4
 70
     1
102
RTVSPropertyOp5
 70
     1
102
RTVSPropertyOp6
 70
     1
102
RTVSPropertyOp7
 70
     1
102
RTVSPropertyOp8
 70
     1
102
RTVSPropertyOp9
 70
     1
102
RTVSPropertyOp10
 70
     1
102
RTVSPropertyOp11
 70
     1
102
RTVSPropertyOp12
 70
     1
102
RTVSPropertyOp13
 70
     1
102
RTVSPropertyOp14
 70
     1
102
RTVSPropertyOp15
 70
     1
102
RTVSPropertyOp16
 70
     1
102
RTVSPropertyOp17
 70
     1
102
RTVSPropertyOp18
 70
     1
102
RTVSPropertyOp19
 70
     1
102
RTVSPropertyOp20
 70
     1
102
RTVSPropertyOp21
 70
     1
102
RTVSPropertyOp22
 70
     1
102
RTVSPropertyOp23
 70
     1
102
RTVSPropertyOp24
 70
     1
102
RTVSPropertyOp25
 70
     1
102
RTVSPropertyOp26
 70
     1
102
RTVSPropertyOp27
 70
     1
102
RTVSPropertyOp28
 70
     1
102
RTVSPropertyOp29
 70
     1
102
RTVSPropertyOp30
 70
     1
102
RTVSPropertyOp31
 70
     1
102
RTVSPropertyOp32
 70
     1
  0
XRECORD
  5
30A
102
{ACAD_REACTORS
330
309
102
}
330
309
100
AcDbXrecord
280
     1
102
RTVSPropertyOp0
 70
     1
102
RTVSPropertyOp1
 70
     1
102
RTVSPropertyOp2
 70
     1
102
RTVSPropertyOp3
 70
     1
102
RTVSPropertyOp4
 70
     1
102
RTVSPropertyOp5
 70
     1
102
RTVSPropertyOp6
 70
     1
102
RTVSPropertyOp7
 70
     1
102
RTVSPropertyOp8
 70
     1
102
RTVSPropertyOp9
 70
     1
102
RTVSPropertyOp10
 70
     1
102
RTVSPropertyOp11
 70
     1
102
RTVSPropertyOp12
 70
     1
102
RTVSPropertyOp13
 70
     1
102
RTVSPropertyOp14
 70
     1
102
RTVSPropertyOp15
 70
     1
102
RTVSPropertyOp16
 70
     1
102
RTVSPropertyOp17
 70
     1
102
RTVSPropertyOp18
 70
     1
102
RTVSPropertyOp19
 70
     1
102
RTVSPropertyOp20
 70
     1
102
RTVSPropertyOp21
 70
     1
102
RTVSPropertyOp22
 70
     1
102
RTVSPropertyOp23
 70
     1
102
RTVSPropertyOp24
 70
     1
102
RTVSPropertyOp25
 70
     1
102
RTVSPropertyOp26
 70
     1
102
RTVSPropertyOp27
 70
     1
102
RTVSPropertyOp28
 70
     1
102
RTVSPropertyOp29
 70
     1
102
RTVSPropertyOp30
 70
     1
102
RTVSPropertyOp31
 70
     1
102
RTVSPropertyOp32
 70
     1
  0
XRECORD
  5
2FB
102
{ACAD_REACTORS
330
2FA
102
}
330
2FA
100
AcDbXrecord
280
     1
102
RTVSPropertyOp0
 70
     1
102
RTVSPropertyOp1
 70
     1
102
RTVSPropertyOp2
 70
     1
102
RTVSPropertyOp3
 70
     1
102
RTVSPropertyOp4
 70
     1
102
RTVSPropertyOp5
 70
     1
102
RTVSPropertyOp6
 70
     1
102
RTVSPropertyOp7
 70
     1
102
RTVSPropertyOp8
 70
     1
102
RTVSPropertyOp9
 70
     1
102
RTVSPropertyOp10
 70
     1
102
RTVSPropertyOp11
 70
     1
102
RTVSPropertyOp12
 70
     1
102
RTVSPropertyOp13
 70
     1
102
RTVSPropertyOp14
 70
     1
102
RTVSPropertyOp15
 70
     1
102
RTVSPropertyOp16
 70
     1
102
RTVSPropertyOp17
 70
     1
102
RTVSPropertyOp18
 70
     1
102
RTVSPropertyOp19
 70
     1
102
RTVSPropertyOp20
 70
     1
102
RTVSPropertyOp21
 70
     1
102
RTVSPropertyOp22
 70
     1
102
RTVSPropertyOp23
 70
     1
102
RTVSPropertyOp24
 70
     1
102
RTVSPropertyOp25
 70
     1
102
RTVSPropertyOp26
 70
     1
102
RTVSPropertyOp27
 70
     1
102
RTVSPropertyOp28
 70
     1
102
RTVSPropertyOp29
 70
     1
102
RTVSPropertyOp30
 70
     1
102
RTVSPropertyOp31
 70
     1
102
RTVSPropertyOp32
 70
     1
  0
XRECORD
  5
304
102
{ACAD_REACTORS
330
303
102
}
330
303
100
AcDbXrecord
280
     1
102
RTVSPropertyOp0
 70
     1
102
RTVSPropertyOp1
 70
     1
102
RTVSPropertyOp2
 70
     1
102
RTVSPropertyOp3
 70
     1
102
RTVSPropertyOp4
 70
     1
102
RTVSPropertyOp5
 70
     1
102
RTVSPropertyOp6
 70
     1
102
RTVSPropertyOp7
 70
     1
102
RTVSPropertyOp8
 70
     1
102
RTVSPropertyOp9
 70
     1
102
RTVSPropertyOp10
 70
     1
102
RTVSPropertyOp11
 70
     1
102
RTVSPropertyOp12
 70
     1
102
RTVSPropertyOp13
 70
     1
102
RTVSPropertyOp14
 70
     1
102
RTVSPropertyOp15
 70
     1
102
RTVSPropertyOp16
 70
     1
102
RTVSPropertyOp17
 70
     1
102
RTVSPropertyOp18
 70
     1
102
RTVSPropertyOp19
 70
     1
102
RTVSPropertyOp20
 70
     1
102
RTVSPropertyOp21
 70
     1
102
RTVSPropertyOp22
 70
     1
102
RTVSPropertyOp23
 70
     1
102
RTVSPropertyOp24
 70
     1
102
RTVSPropertyOp25
 70
     1
102
RTVSPropertyOp26
 70
     1
102
RTVSPropertyOp27
 70
     1
102
RTVSPropertyOp28
 70
     1
102
RTVSPropertyOp29
 70
     1
102
RTVSPropertyOp30
 70
     1
102
RTVSPropertyOp31
 70
     1
102
RTVSPropertyOp32
 70
     1
  0
XRECORD
  5
30C
102
{ACAD_REACTORS
330
30B
102
}
330
30B
100
AcDbXrecord
280
     1
102
RTVSPropertyOp0
 70
     1
102
RTVSPropertyOp1
 70
     1
102
RTVSPropertyOp2
 70
     1
102
RTVSPropertyOp3
 70
     1
102
RTVSPropertyOp4
 70
     1
102
RTVSPropertyOp5
 70
     1
102
RTVSPropertyOp6
 70
     1
102
RTVSPropertyOp7
 70
     1
102
RTVSPropertyOp8
 70
     1
102
RTVSPropertyOp9
 70
     1
102
RTVSPropertyOp10
 70
     1
102
RTVSPropertyOp11
 70
     1
102
RTVSPropertyOp12
 70
     1
102
RTVSPropertyOp13
 70
     1
102
RTVSPropertyOp14
 70
     1
102
RTVSPropertyOp15
 70
     1
102
RTVSPropertyOp16
 70
     1
102
RTVSPropertyOp17
 70
     1
102
RTVSPropertyOp18
 70
     1
102
RTVSPropertyOp19
 70
     1
102
RTVSPropertyOp20
 70
     1
102
RTVSPropertyOp21
 70
     1
102
RTVSPropertyOp22
 70
     1
102
RTVSPropertyOp23
 70
     1
102
RTVSPropertyOp24
 70
     1
102
RTVSPropertyOp25
 70
     1
102
RTVSPropertyOp26
 70
     1
102
RTVSPropertyOp27
 70
     1
102
RTVSPropertyOp28
 70
     1
102
RTVSPropertyOp29
 70
     1
102
RTVSPropertyOp30
 70
     1
102
RTVSPropertyOp31
 70
     1
102
RTVSPropertyOp32
 70
     1
  0
ENDSEC
  0
EOF
