  0
SECTION
  2
HEADER
  9
$ACADVER
  1
AC1015
  9
$ACADMAINTVER
 70
    20
  9
$DWGCODEPAGE
  3
ANSI_1252
  9
$INSBASE
 10
0.0
 20
0.0
 30
0.0
  9
$EXTMIN
 10
139.6598471604466
 20
120.2212530050228
 30
-0.0015258207003583
  9
$EXTMAX
 10
174.0047872190541
 20
152.2881014387465
 30
0.0000000349246037
  9
$LIMMIN
 10
0.0
 20
0.0
  9
$LIMMAX
 10
12.0
 20
9.0
  9
$ORTHOMODE
 70
     0
  9
$REGENMODE
 70
     1
  9
$FILLMODE
 70
     1
  9
$QTEXTMODE
 70
     0
  9
$MIRRTEXT
 70
     1
  9
$LTSCALE
 40
15.0
  9
$ATTMODE
 70
     1
  9
$TEXTSIZE
 40
0.2
  9
$TRACEWID
 40
0.05
  9
$TEXTSTYLE
  7
STANDARD
  9
$CLAYER
  8
0
  9
$CELTYPE
  6
ByLayer
  9
$CECOLOR
 62
   256
  9
$CELTSCALE
 40
1.0
  9
$DISPSILH
 70
     0
  9
$DIMSCALE
 40
1.0
  9
$DIMASZ
 40
2.5
  9
$DIMEXO
 40
0.625
  9
$DIMDLI
 40
3.75
  9
$DIMRND
 40
0.0
  9
$DIMDLE
 40
0.0
  9
$DIMEXE
 40
1.25
  9
$DIMTP
 40
0.0
  9
$DIMTM
 40
0.0
  9
$DIMTXT
 40
2.0
  9
$DIMCEN
 40
2.5
  9
$DIMTSZ
 40
0.0
  9
$DIMTOL
 70
     0
  9
$DIMLIM
 70
     0
  9
$DIMTIH
 70
     0
  9
$DIMTOH
 70
     0
  9
$DIMSE1
 70
     0
  9
$DIMSE2
 70
     0
  9
$DIMTAD
 70
     1
  9
$DIMZIN
 70
     8
  9
$DIMBLK
  1

  9
$DIMASO
 70
     1
  9
$DIMSHO
 70
     1
  9
$DIMPOST
  1

  9
$DIMAPOST
  1

  9
$DIMALT
 70
     0
  9
$DIMALTD
 70
     3
  9
$DIMALTF
 40
0.03937007874016
  9
$DIMLFAC
 40
1.0
  9
$DIMTOFL
 70
     1
  9
$DIMTVP
 40
0.0
  9
$DIMTIX
 70
     0
  9
$DIMSOXD
 70
     0
  9
$DIMSAH
 70
     0
  9
$DIMBLK1
  1

  9
$DIMBLK2
  1

  9
$DIMSTYLE
  2
ISO-25
  9
$DIMCLRD
 70
     0
  9
$DIMCLRE
 70
     0
  9
$DIMCLRT
 70
     0
  9
$DIMTFAC
 40
1.0
  9
$DIMGAP
 40
0.625
  9
$DIMJUST
 70
     0
  9
$DIMSD1
 70
     0
  9
$DIMSD2
 70
     0
  9
$DIMTOLJ
 70
     0
  9
$DIMTZIN
 70
     8
  9
$DIMALTZ
 70
     0
  9
$DIMALTTZ
 70
     0
  9
$DIMUPT
 70
     0
  9
$DIMDEC
 70
     2
  9
$DIMTDEC
 70
     2
  9
$DIMALTU
 70
     2
  9
$DIMALTTD
 70
     3
  9
$DIMTXSTY
  7
STANDARD
  9
$DIMAUNIT
 70
     0
  9
$DIMADEC
 70
     0
  9
$DIMALTRND
 40
0.0
  9
$DIMAZIN
 70
     0
  9
$DIMDSEP
 70
    44
  9
$DIMATFIT
 70
     3
  9
$DIMFRAC
 70
     0
  9
$DIMLDRBLK
  1

  9
$DIMLUNIT
 70
     2
  9
$DIMLWD
 70
    -2
  9
$DIMLWE
 70
    -2
  9
$DIMTMOVE
 70
     0
  9
$LUNITS
 70
     2
  9
$LUPREC
 70
     4
  9
$SKETCHINC
 40
0.1
  9
$FILLETRAD
 40
0.5
  9
$AUNITS
 70
     0
  9
$AUPREC
 70
     0
  9
$MENU
  1
acad
  9
$ELEVATION
 40
0.0
  9
$PELEVATION
 40
0.0
  9
$THICKNESS
 40
0.0
  9
$LIMCHECK
 70
     0
  9
$CHAMFERA
 40
0.0
  9
$CHAMFERB
 40
0.0
  9
$CHAMFERC
 40
0.0
  9
$CHAMFERD
 40
0.0
  9
$SKPOLY
 70
     0
  9
$TDCREATE
 40
2305814.125509387
  9
$TDUCREATE
 40
6.0000000000
  9
$TDUPDATE
 40
2453915.486550775
  9
$TDUUPDATE
 40
2453915.403217443
  9
$TDINDWG
 40
0.0342204630
  9
$TDUSRTIMER
 40
0.0342204630
  9
$USRTIMER
 70
     1
  9
$ANGBASE
 50
0.0
  9
$ANGDIR
 70
     0
  9
$PDMODE
 70
     0
  9
$PDSIZE
 40
0.0
  9
$PLINEWID
 40
0.0
  9
$SPLFRAME
 70
     0
  9
$SPLINETYPE
 70
     6
  9
$SPLINESEGS
 70
     8
  9
$HANDSEED
  5
11F9
  9
$SURFTAB1
 70
     6
  9
$SURFTAB2
 70
     6
  9
$SURFTYPE
 70
     6
  9
$SURFU
 70
     6
  9
$SURFV
 70
     6
  9
$UCSBASE
  2

  9
$UCSNAME
  2

  9
$UCSORG
 10
0.0
 20
0.0
 30
0.0
  9
$UCSXDIR
 10
1.0
 20
0.0
 30
0.0
  9
$UCSYDIR
 10
0.0
 20
1.0
 30
0.0
  9
$UCSORTHOREF
  2

  9
$UCSORTHOVIEW
 70
     0
  9
$UCSORGTOP
 10
0.0
 20
0.0
 30
0.0
  9
$UCSORGBOTTOM
 10
0.0
 20
0.0
 30
0.0
  9
$UCSORGLEFT
 10
0.0
 20
0.0
 30
0.0
  9
$UCSORGRIGHT
 10
0.0
 20
0.0
 30
0.0
  9
$UCSORGFRONT
 10
0.0
 20
0.0
 30
0.0
  9
$UCSORGBACK
 10
0.0
 20
0.0
 30
0.0
  9
$PUCSBASE
  2

  9
$PUCSNAME
  2

  9
$PUCSORG
 10
0.0
 20
0.0
 30
0.0
  9
$PUCSXDIR
 10
1.0
 20
0.0
 30
0.0
  9
$PUCSYDIR
 10
0.0
 20
1.0
 30
0.0
  9
$PUCSORTHOREF
  2

  9
$PUCSORTHOVIEW
 70
     0
  9
$PUCSORGTOP
 10
0.0
 20
0.0
 30
0.0
  9
$PUCSORGBOTTOM
 10
0.0
 20
0.0
 30
0.0
  9
$PUCSORGLEFT
 10
0.0
 20
0.0
 30
0.0
  9
$PUCSORGRIGHT
 10
0.0
 20
0.0
 30
0.0
  9
$PUCSORGFRONT
 10
0.0
 20
0.0
 30
0.0
  9
$PUCSORGBACK
 10
0.0
 20
0.0
 30
0.0
  9
$USERI1
 70
     0
  9
$USERI2
 70
     0
  9
$USERI3
 70
     0
  9
$USERI4
 70
     0
  9
$USERI5
 70
     0
  9
$USERR1
 40
0.0
  9
$USERR2
 40
0.0
  9
$USERR3
 40
0.0
  9
$USERR4
 40
0.0
  9
$USERR5
 40
0.0
  9
$WORLDVIEW
 70
     1
  9
$SHADEDGE
 70
     3
  9
$SHADEDIF
 70
    70
  9
$TILEMODE
 70
     1
  9
$MAXACTVP
 70
    16
  9
$PINSBASE
 10
0.0
 20
0.0
 30
0.0
  9
$PLIMCHECK
 70
     0
  9
$PEXTMIN
 10
1.000000000000000E+20
 20
1.000000000000000E+20
 30
1.000000000000000E+20
  9
$PEXTMAX
 10
-1.000000000000000E+20
 20
-1.000000000000000E+20
 30
-1.000000000000000E+20
  9
$PLIMMIN
 10
0.0
 20
0.0
  9
$PLIMMAX
 10
12.0
 20
9.0
  9
$UNITMODE
 70
     0
  9
$VISRETAIN
 70
     0
  9
$PLINEGEN
 70
     0
  9
$PSLTSCALE
 70
     1
  9
$TREEDEPTH
 70
  3020
  9
$CMLSTYLE
  2
Standard
  9
$CMLJUST
 70
     0
  9
$CMLSCALE
 40
1.0
  9
$PROXYGRAPHICS
 70
     1
  9
$MEASUREMENT
 70
     0
  9
$CELWEIGHT
370
    -1
  9
$ENDCAPS
280
     0
  9
$JOINSTYLE
280
     0
  9
$LWDISPLAY
290
     0
  9
$INSUNITS
 70
     0
  9
$HYPERLINKBASE
  1

  9
$STYLESHEET
  1

  9
$XEDIT
290
     1
  9
$CEPSNTYPE
380
     0
  9
$PSTYLEMODE
290
     1
  9
$FINGERPRINTGUID
  2
{C107E6F6-484E-4BCD-9F6F-0AF8EC536214}
  9
$VERSIONGUID
  2
{214A20BB-A4BE-4566-B43B-756942C30E32}
  9
$EXTNAMES
290
     1
  9
$PSVPSCALE
 40
0.0
  9
$OLESTARTUP
290
     0
  0
ENDSEC
  0
SECTION
  2
CLASSES
  0
CLASS
  1
ACDBDICTIONARYWDFLT
  2
AcDbDictionaryWithDefault
  3
ObjectDBX Classes
 90
        0
280
     0
281
     0
  0
CLASS
  1
TABLESTYLE
  2
AcDbTableStyle
  3
ObjectDBX Classes
 90
     2047
280
     0
281
     0
  0
CLASS
  1
DICTIONARYVAR
  2
AcDbDictionaryVar
  3
ObjectDBX Classes
 90
        0
280
     0
281
     0
  0
CLASS
  1
SORTENTSTABLE
  2
AcDbSortentsTable
  3
ObjectDBX Classes
 90
        0
280
     0
281
     0
  0
CLASS
  1
ACDBPLACEHOLDER
  2
AcDbPlaceHolder
  3
ObjectDBX Classes
 90
        0
280
     0
281
     0
  0
CLASS
  1
LAYOUT
  2
AcDbLayout
  3
ObjectDBX Classes
 90
        0
280
     0
281
     0
  0
ENDSEC
  0
SECTION
  2
TABLES
  0
TABLE
  2
VPORT
  5
8
330
0
100
AcDbSymbolTable
 70
     6
  0
VPORT
  5
11F0
330
8
100
AcDbSymbolTableRecord
100
AcDbViewportTableRecord
  2
*Active
 70
     0
 10
0.0
 20
0.0
 11
1.0
 21
1.0
 12
156.8323171897503
 22
136.2546772218846
 13
0.0
 23
0.0
 14
1.0
 24
1.0
 15
0.0
 25
0.0
 16
0.0
 26
0.0
 36
1.0
 17
0.0
 27
0.0
 37
0.0
 40
32.31101225428499
 41
1.532401524777636
 42
50.0
 43
0.0
 44
0.0
 50
0.0
 51
0.0
 71
     0
 72
  1000
 73
     1
 74
     1
 75
     0
 76
     0
 77
     0
 78
     0
281
     0
 65
     1
110
0.0
120
0.0
130
0.0
111
1.0
121
0.0
131
0.0
112
0.0
122
1.0
132
0.0
 79
     0
146
0.0
  0
ENDTAB
  0
TABLE
  2
LTYPE
  5
5
330
0
100
AcDbSymbolTable
 70
    39
  0
LTYPE
  5
13
330
5
100
AcDbSymbolTableRecord
100
AcDbLinetypeTableRecord
  2
ByBlock
 70
     0
  3

 72
    65
 73
     0
 40
0.0
  0
LTYPE
  5
14
330
5
100
AcDbSymbolTableRecord
100
AcDbLinetypeTableRecord
  2
ByLayer
 70
     0
  3

 72
    65
 73
     0
 40
0.0
  0
LTYPE
  5
15
330
5
100
AcDbSymbolTableRecord
100
AcDbLinetypeTableRecord
  2
CONTINUOUS
 70
     0
  3
Solid line
 72
    65
 73
     0
 40
0.0
  0
LTYPE
  5
2A
330
5
100
AcDbSymbolTableRecord
100
AcDbLinetypeTableRecord
  2
CENTER
 70
     0
  3
____ _ ____ _ ____ _ ____ _ ____ _ ____ _ ____
 72
    65
 73
     4
 40
2.0
 49
1.25
 74
     0
 49
-0.25
 74
     0
 49
0.25
 74
     0
 49
-0.25
 74
     0
  0
ENDTAB
  0
TABLE
  2
LAYER
  5
2
330
0
100
AcDbSymbolTable
 70
     6
  0
LAYER
  5
10
330
2
100
AcDbSymbolTableRecord
100
AcDbLayerTableRecord
  2
0
 70
     0
 62
     7
  6
CONTINUOUS
370
    -3
390
F
  0
LAYER
  5
A59
330
2
100
AcDbSymbolTableRecord
100
AcDbLayerTableRecord
  2
Defpoints
 70
     0
 62
     7
  6
CONTINUOUS
290
     0
370
    -3
390
F
  0
LAYER
  5
A5A
330
2
100
AcDbSymbolTableRecord
100
AcDbLayerTableRecord
  2
4
 70
     0
 62
     2
  6
CENTER
370
    -3
390
F
  0
LAYER
  5
A5B
330
2
100
AcDbSymbolTableRecord
100
AcDbLayerTableRecord
  2
2
 70
     0
 62
     7
  6
CONTINUOUS
370
    -3
390
F
  0
LAYER
  5
A5C
330
2
100
AcDbSymbolTableRecord
100
AcDbLayerTableRecord
  2
1
 70
     0
 62
     4
  6
CONTINUOUS
370
    -3
390
F
  0
LAYER
  5
A5D
330
2
100
AcDbSymbolTableRecord
100
AcDbLayerTableRecord
  2
6
 70
     0
 62
     5
  6
CONTINUOUS
370
    -3
390
F
  0
ENDTAB
  0
TABLE
  2
STYLE
  5
3
330
0
100
AcDbSymbolTable
 70
     4
  0
STYLE
  5
11
330
3
100
AcDbSymbolTableRecord
100
AcDbTextStyleTableRecord
  2
STANDARD
 70
     0
 40
0.0
 41
1.0
 50
0.0
 71
     0
 42
0.2
  3
isocp.shx
  4

  0
ENDTAB
  0
TABLE
  2
VIEW
  5
6
330
0
100
AcDbSymbolTable
 70
     0
  0
ENDTAB
  0
TABLE
  2
UCS
  5
7
330
0
100
AcDbSymbolTable
 70
     0
  0
ENDTAB
  0
TABLE
  2
APPID
  5
9
330
0
100
AcDbSymbolTable
 70
     2
  0
APPID
  5
12
330
9
100
AcDbSymbolTableRecord
100
AcDbRegAppTableRecord
  2
ACAD
 70
     0
  0
APPID
  5
1044
330
9
100
AcDbSymbolTableRecord
100
AcDbRegAppTableRecord
  2
ACAD_DSTYLE_DIMTEXT_FILL
 70
     0
  0
ENDTAB
  0
TABLE
  2
DIMSTYLE
  5
A
330
0
100
AcDbSymbolTable
 70
     3
100
AcDbDimStyleTable
 71
     2
340
A5E
340
50
  0
DIMSTYLE
105
50
330
A
100
AcDbSymbolTableRecord
100
AcDbDimStyleTableRecord
  2
STANDARD
 70
     0
279
     2
340
11
  0
DIMSTYLE
105
A5E
102
{ACAD_REACTORS
330
D0C
330
D0B
330
D0D
330
D0E
330
D0F
330
D10
330
106D
330
107D
330
108A
330
1105
330
11C3
102
}
330
A
100
AcDbSymbolTableRecord
100
AcDbDimStyleTableRecord
  2
ISO-25
 70
     0
 41
2.5
 42
0.625
 43
3.75
 44
1.25
 73
     0
 74
     0
 77
     1
 78
     8
140
2.0
141
2.5
143
0.03937007874016
147
0.625
171
     3
172
     1
271
     2
272
     2
274
     3
278
    44
283
     0
284
     8
340
11
  0
ENDTAB
  0
TABLE
  2
BLOCK_RECORD
  5
1
330
0
100
AcDbSymbolTable
 70
    35
  0
BLOCK_RECORD
  5
22
330
1
100
AcDbSymbolTableRecord
100
AcDbBlockTableRecord
  2
*Model_Space
340
25
  0
BLOCK_RECORD
  5
1E
330
1
100
AcDbSymbolTableRecord
100
AcDbBlockTableRecord
  2
*Paper_Space
340
21
  0
BLOCK_RECORD
  5
106E
330
1
100
AcDbSymbolTableRecord
100
AcDbBlockTableRecord
  2
*D30
340
0
  0
BLOCK_RECORD
  5
107E
330
1
100
AcDbSymbolTableRecord
100
AcDbBlockTableRecord
  2
*D31
340
0
  0
BLOCK_RECORD
  5
108B
330
1
100
AcDbSymbolTableRecord
100
AcDbBlockTableRecord
  2
*D32
340
0
  0
BLOCK_RECORD
  5
1106
330
1
100
AcDbSymbolTableRecord
100
AcDbBlockTableRecord
  2
*D33
340
0
  0
BLOCK_RECORD
  5
11C4
330
1
100
AcDbSymbolTableRecord
100
AcDbBlockTableRecord
  2
*D34
340
0
  0
ENDTAB
  0
ENDSEC
  0
SECTION
  2
BLOCKS
  0
BLOCK
  5
23
330
22
100
AcDbEntity
  8
0
100
AcDbBlockBegin
  2
*Model_Space
 70
     0
 10
0.0
 20
0.0
 30
0.0
  3
*Model_Space
  1

  0
ENDBLK
  5
24
330
22
100
AcDbEntity
  8
0
100
AcDbBlockEnd
  0
BLOCK
  5
1F
330
1E
100
AcDbEntity
 67
     1
  8
0
100
AcDbBlockBegin
  2
*Paper_Space
 70
     0
 10
0.0
 20
0.0
 30
0.0
  3
*Paper_Space
  1

  0
ENDBLK
  5
20
330
1E
100
AcDbEntity
 67
     1
  8
0
100
AcDbBlockEnd
  0
BLOCK
  5
107A
330
106E
100
AcDbEntity
  8
0
100
AcDbBlockBegin
  2
*D30
 70
     1
 10
0.0
 20
0.0
 30
0.0
  3
*D30
  1

  0
LINE
  5
11E5
330
106E
100
AcDbEntity
  8
2
 62
     0
370
    -2
100
AcDbLine
 10
148.5756651682718
 20
146.2348083679918
 30
0.0
 11
152.897111996286
 21
146.2348083679918
 31
0.0
  0
LINE
  5
11E6
330
106E
100
AcDbEntity
  8
2
 62
     0
370
    -2
100
AcDbLine
 10
148.5029878998395
 20
142.6954831679918
 30
0.0
 11
152.897111996286
 21
142.6954831679918
 31
0.0
  0
LINE
  5
11E7
330
106E
100
AcDbEntity
  8
2
 62
     0
370
    -2
100
AcDbLine
 10
151.647111996286
 20
143.6954831679918
 30
0.0
 11
151.647111996286
 21
145.2348083679918
 31
0.0
  0
LINE
  5
11E8
330
106E
100
AcDbEntity
  8
2
 62
     0
370
    -2
100
AcDbLine
 10
151.647111996286
 20
146.2348083679918
 30
0.0
 11
151.647111996286
 21
152.2863356675841
 31
0.0
  0
SOLID
  5
11E9
330
106E
100
AcDbEntity
  8
2
 62
     0
100
AcDbTrace
 10
151.4804453296193
 20
143.6954831679918
 30
0.0
 11
151.8137786629526
 21
143.6954831679918
 31
0.0
 12
151.647111996286
 22
142.6954831679918
 32
0.0
 13
151.647111996286
 23
142.6954831679918
 33
0.0
  0
SOLID
  5
11EA
330
106E
100
AcDbEntity
  8
2
 62
     0
100
AcDbTrace
 10
151.4804453296193
 20
145.2348083679918
 30
0.0
 11
151.8137786629526
 21
145.2348083679918
 31
0.0
 12
151.647111996286
 22
146.2348083679918
 32
0.0
 13
151.647111996286
 23
146.2348083679918
 33
0.0
  0
MTEXT
  5
11EB
330
106E
100
AcDbEntity
  8
2
 62
     0
100
AcDbMText
 10
150.4387786629526
 20
150.0780023342509
 30
0.0
 40
1.0
 41
0.0
 71
     5
 72
     1
  1
3,54
 11
0.0000000000000001
 21
1.0
 31
0.0
 73
     1
 44
1.0
1001
ACAD
1000
MTEXTBEGIN
1070
    73
1070
     1
1070
    44
1040
1.0
1070
    74
1070
     0
1000
MTEXTEND
  0
POINT
  5
11EC
330
106E
100
AcDbEntity
  8
Defpoints
 62
     0
100
AcDbPoint
 10
147.9506651682718
 20
146.2348083679918
 30
0.0
  0
POINT
  5
11ED
330
106E
100
AcDbEntity
  8
Defpoints
 62
     0
100
AcDbPoint
 10
147.8779878998396
 20
142.6954831679918
 30
0.0
  0
POINT
  5
11EE
330
106E
100
AcDbEntity
  8
Defpoints
 62
     0
100
AcDbPoint
 10
151.647111996286
 20
142.6954831679918
 30
0.0
  0
ENDBLK
  5
107B
330
106E
100
AcDbEntity
  8
0
100
AcDbBlockEnd
  0
BLOCK
  5
1088
330
107E
100
AcDbEntity
  8
0
100
AcDbBlockBegin
  2
*D31
 70
     1
 10
0.0
 20
0.0
 30
0.0
  3
*D31
  1

  0
LINE
  5
116A
330
107E
100
AcDbEntity
  8
2
 62
     0
370
    -2
100
AcDbLine
 10
148.1642491
 20
124.8760404344714
 30
0.0
 11
148.1642491
 21
134.9998722822565
 31
0.0
  0
LINE
  5
116B
330
107E
100
AcDbEntity
  8
2
 62
     0
370
    -2
100
AcDbLine
 10
139.8738074
 20
123.55697689766
 30
0.0
 11
139.8738074
 21
134.9998722822565
 31
0.0
  0
LINE
  5
116C
330
107E
100
AcDbEntity
  8
2
 62
     0
370
    -2
100
AcDbLine
 10
147.1642491
 20
133.7498722822565
 30
0.0
 11
140.8738074
 21
133.7498722822565
 31
0.0
  0
SOLID
  5
116D
330
107E
100
AcDbEntity
  8
2
 62
     0
100
AcDbTrace
 10
147.1642491
 20
133.9165389489232
 30
0.0
 11
147.1642491
 21
133.5832056155899
 31
0.0
 12
148.1642491
 22
133.7498722822565
 32
0.0
 13
148.1642491
 23
133.7498722822565
 33
0.0
  0
SOLID
  5
116E
330
107E
100
AcDbEntity
  8
2
 62
     0
100
AcDbTrace
 10
140.8738074
 20
133.9165389489232
 30
0.0
 11
140.8738074
 21
133.5832056155899
 31
0.0
 12
139.8738074
 22
133.7498722822565
 32
0.0
 13
139.8738074
 23
133.7498722822565
 33
0.0
  0
MTEXT
  5
116F
330
107E
100
AcDbEntity
  8
2
 62
     0
100
AcDbMText
 10
144.01902825
 20
134.8748722822565
 30
0.0
 40
1.0
 41
0.0
 71
     5
 72
     1
  1
8.2
 73
     1
 44
1.0
1001
ACAD
1000
MTEXTBEGIN
1070
    73
1070
     1
1070
    44
1040
1.0
1070
    74
1070
     0
1000
MTEXTEND
  0
POINT
  5
1170
330
107E
100
AcDbEntity
  8
Defpoints
 62
     0
100
AcDbPoint
 10
148.1642491
 20
124.2510404344714
 30
0.0
  0
POINT
  5
1171
330
107E
100
AcDbEntity
  8
Defpoints
 62
     0
100
AcDbPoint
 10
139.8738074
 20
122.93197689766
 30
0.0
  0
POINT
  5
1172
330
107E
100
AcDbEntity
  8
Defpoints
 62
     0
100
AcDbPoint
 10
139.8738074
 20
133.7498722822565
 30
0.0
  0
ENDBLK
  5
1089
330
107E
100
AcDbEntity
  8
0
100
AcDbBlockEnd
  0
BLOCK
  5
1095
330
108B
100
AcDbEntity
  8
0
100
AcDbBlockBegin
  2
*D32
 70
     1
 10
0.0
 20
0.0
 30
0.0
  3
*D32
  1

  0
LINE
  5
1161
330
108B
100
AcDbEntity
  8
2
 62
     0
370
    -2
100
AcDbLine
 10
148.1642491
 20
129.4295297
 30
0.0
 11
148.1642491
 21
132.2700286375999
 31
0.0
  0
LINE
  5
1162
330
108B
100
AcDbEntity
  8
2
 62
     0
370
    -2
100
AcDbLine
 10
140.1967519
 20
127.9495991909463
 30
0.0
 11
140.1967519
 21
132.2700286375999
 31
0.0
  0
LINE
  5
1163
330
108B
100
AcDbEntity
  8
2
 62
     0
370
    -2
100
AcDbLine
 10
147.1642491
 20
131.0200286375999
 30
0.0
 11
141.1967519
 21
131.0200286375999
 31
0.0
  0
SOLID
  5
1164
330
108B
100
AcDbEntity
  8
2
 62
     0
100
AcDbTrace
 10
147.1642491
 20
131.1866953042666
 30
0.0
 11
147.1642491
 21
130.8533619709332
 31
0.0
 12
148.1642491
 22
131.0200286375999
 32
0.0
 13
148.1642491
 23
131.0200286375999
 33
0.0
  0
SOLID
  5
1165
330
108B
100
AcDbEntity
  8
2
 62
     0
100
AcDbTrace
 10
141.1967519
 20
131.1866953042666
 30
0.0
 11
141.1967519
 21
130.8533619709332
 31
0.0
 12
140.1967519
 22
131.0200286375999
 32
0.0
 13
140.1967519
 23
131.0200286375999
 33
0.0
  0
MTEXT
  5
1166
330
108B
100
AcDbEntity
  8
2
 62
     0
100
AcDbMText
 10
144.1805005
 20
132.1450286375999
 30
0.0
 40
1.0
 41
0.0
 71
     5
 72
     1
  1
7.91
 73
     1
 44
1.0
1001
ACAD
1000
MTEXTBEGIN
1070
    73
1070
     1
1070
    44
1040
1.0
1070
    74
1070
     0
1000
MTEXTEND
  0
POINT
  5
1167
330
108B
100
AcDbEntity
  8
Defpoints
 62
     0
100
AcDbPoint
 10
148.1642491
 20
128.8045297
 30
0.0
  0
POINT
  5
1168
330
108B
100
AcDbEntity
  8
Defpoints
 62
     0
100
AcDbPoint
 10
140.1967519
 20
127.3245991909463
 30
0.0
  0
POINT
  5
1169
330
108B
100
AcDbEntity
  8
Defpoints
 62
     0
100
AcDbPoint
 10
140.1967519
 20
131.0200286375999
 30
0.0
  0
ENDBLK
  5
1096
330
108B
100
AcDbEntity
  8
0
100
AcDbBlockEnd
  0
BLOCK
  5
1112
330
1106
100
AcDbEntity
  8
0
100
AcDbBlockBegin
  2
*D33
 70
     1
 10
0.0
 20
0.0
 30
0.0
  3
*D33
  1

  0
LINE
  5
11B9
330
1106
100
AcDbEntity
  8
2
 62
     0
370
    -2
100
AcDbLine
 10
149.005219297675
 20
127.1092021
 30
0.0
 11
155.2248822967633
 21
127.1092021
 31
0.0
  0
LINE
  5
11BA
330
1106
100
AcDbEntity
  8
2
 62
     0
370
    -2
100
AcDbLine
 10
148.5402949893191
 20
120.9197273
 30
0.0
 11
155.2248822967633
 21
120.9197273
 31
0.0
  0
LINE
  5
11BB
330
1106
100
AcDbEntity
  8
2
 62
     0
370
    -2
100
AcDbLine
 10
153.9748822967633
 20
126.1092021
 30
0.0
 11
153.9748822967633
 21
121.9197273
 31
0.0
  0
SOLID
  5
11BC
330
1106
100
AcDbEntity
  8
2
 62
     0
100
AcDbTrace
 10
153.8082156300967
 20
126.1092021
 30
0.0
 11
154.14154896343
 21
126.1092021
 31
0.0
 12
153.9748822967633
 22
127.1092021
 32
0.0
 13
153.9748822967633
 23
127.1092021
 33
0.0
  0
SOLID
  5
11BD
330
1106
100
AcDbEntity
  8
2
 62
     0
100
AcDbTrace
 10
153.8082156300967
 20
121.9197273
 30
0.0
 11
154.14154896343
 21
121.9197273
 31
0.0
 12
153.9748822967633
 22
120.9197273
 32
0.0
 13
153.9748822967633
 23
120.9197273
 33
0.0
  0
MTEXT
  5
11BE
330
1106
100
AcDbEntity
  8
2
 62
     0
100
AcDbMText
 10
152.76654896343
 20
123.5231326244589
 30
0.0
 40
1.0
 41
0.0
 71
     5
 72
     1
  1
6,2
 11
0.0000000000000001
 21
1.0
 31
0.0
 73
     1
 44
1.0
1001
ACAD
1000
MTEXTBEGIN
1070
    73
1070
     1
1070
    44
1040
1.0
1070
    74
1070
     0
1000
MTEXTEND
  0
POINT
  5
11BF
330
1106
100
AcDbEntity
  8
Defpoints
 62
     0
100
AcDbPoint
 10
148.380219297675
 20
127.1092021
 30
0.0
  0
POINT
  5
11C0
330
1106
100
AcDbEntity
  8
Defpoints
 62
     0
100
AcDbPoint
 10
147.9152949893191
 20
120.9197273
 30
0.0
  0
POINT
  5
11C1
330
1106
100
AcDbEntity
  8
Defpoints
 62
     0
100
AcDbPoint
 10
153.9748822967633
 20
120.9197273
 30
0.0
  0
ENDBLK
  5
1113
330
1106
100
AcDbEntity
  8
0
100
AcDbBlockEnd
  0
BLOCK
  5
11CB
330
11C4
100
AcDbEntity
  8
0
100
AcDbBlockBegin
  2
*D34
 70
     1
 10
0.0
 20
0.0
 30
0.0
  3
*D34
  1

  0
LINE
  5
11DF
330
11C4
100
AcDbEntity
  8
2
 62
     0
370
    -2
100
AcDbLine
 10
153.7516441615272
 20
129.4844124443197
 30
0.0
 11
148.9438602618444
 21
127.3754520430911
 31
0.0
  0
MTEXT
  5
11E0
330
11C4
100
AcDbEntity
  8
2
 62
     0
100
AcDbMText
 10
151.3202407447061
 20
129.7373390524796
 30
0.0
 40
1.0
 41
0.0
 71
     5
 72
     1
  1
R0,4
 11
0.9157683618443524
 21
0.4017067430911651
 31
0.0
 73
     1
 44
1.0
1001
ACAD
1000
MTEXTBEGIN
1070
    73
1070
     1
1070
    44
1040
1.0
1070
    74
1070
     0
1000
MTEXTEND
  0
LINE
  5
11E1
330
11C4
100
AcDbEntity
  8
2
 62
     0
370
    -2
100
AcDbLine
 10
147.6617845552624
 20
126.8130626027636
 30
0.0
 11
148.0280919
 21
126.9737453
 31
0.0
  0
SOLID
  5
11E2
330
11C4
100
AcDbEntity
  8
2
 62
     0
100
AcDbTrace
 10
148.8769091379958
 20
127.5280801033985
 30
0.0
 11
149.0108113856929
 21
127.2228239827837
 31
0.0
 12
148.0280919
 22
126.9737453
 32
0.0
 13
148.0280919
 23
126.9737453
 33
0.0
  0
POINT
  5
11E3
330
11C4
100
AcDbEntity
  8
Defpoints
 62
     0
100
AcDbPoint
 10
148.0280919
 20
126.9737453
 30
0.0
  0
POINT
  5
11E4
330
11C4
100
AcDbEntity
  8
Defpoints
 62
     0
100
AcDbPoint
 10
147.6617845552624
 20
126.8130626027636
 30
0.0
  0
ENDBLK
  5
11CC
330
11C4
100
AcDbEntity
  8
0
100
AcDbBlockEnd
  0
ENDSEC
  0
SECTION
  2
ENTITIES
  0
TEXT
  5
15B
330
22
100
AcDbEntity
  8
6
100
AcDbText
 10
157.8195634455953
 20
121.5052783913453
 30
0.0
 40
2.0
  1
APKT 080304R
 41
0.933333
 11
157.8195634455953
 21
122.5052783913453
 31
0.0
100
AcDbText
 73
     2
  0
ARC
  5
181
330
22
100
AcDbEntity
  8
1
100
AcDbCircle
 10
142.093179
 20
123.2000354
 30
0.0
 40
2.0610528
100
AcDbArc
 50
184.2155629999999
 51
191.109126
  0
LINE
  5
183
330
22
100
AcDbEntity
  8
4
100
AcDbLine
 10
139.6760429
 20
124.0538721
 30
0.0
 11
148.555528
 21
124.0538721
 31
0.0
  0
LINE
  5
184
330
22
100
AcDbEntity
  8
4
100
AcDbLine
 10
144.019027
 20
120.2330692
 30
0.0
 11
144.019027
 21
127.7530249
 31
0.0
  0
LINE
  5
188
330
22
100
AcDbEntity
  8
1
100
AcDbLine
 10
147.8161221
 20
121.0981582
 30
0.0
 11
147.8415846
 21
121.209424
 31
0.0
  0
LINE
  5
189
330
22
100
AcDbEntity
  8
1
100
AcDbLine
 10
147.7511184
 20
121.0044996
 30
0.0
 11
147.8161221
 21
121.0981582
 31
0.0
  0
LINE
  5
18A
330
22
100
AcDbEntity
  8
1
100
AcDbLine
 10
147.6559455
 20
120.9420029
 30
0.0
 11
147.7511184
 21
121.0044996
 31
0.0
  0
LINE
  5
18B
330
22
100
AcDbEntity
  8
1
100
AcDbLine
 10
147.5444035
 20
120.9197281
 30
0.0
 11
147.6559455
 21
120.9420029
 31
0.0
  0
LINE
  5
18C
330
22
100
AcDbEntity
  8
1
100
AcDbLine
 10
143.3067171
 20
120.9381148
 30
0.0
 11
147.5444035
 21
120.9197281
 31
0.0
  0
LINE
  5
18D
330
22
100
AcDbEntity
  8
1
100
AcDbLine
 10
142.5957106
 20
120.9489706
 30
0.0
 11
143.3067171
 21
120.9381148
 31
0.0
  0
ARC
  5
198
330
22
100
AcDbEntity
  8
1
100
AcDbCircle
 10
144.01903
 20
124.053904
 30
0.0
 40
1.909993199999999
100
AcDbArc
 50
240.872383
 51
60.87193400000004
  0
LINE
  5
199
330
22
100
AcDbEntity
  8
1
100
AcDbLine
 10
144.9999014
 20
125.8141733
 30
0.0
 11
145.3587835
 21
125.5569282
 31
0.0
  0
LINE
  5
19A
330
22
100
AcDbEntity
  8
1
100
AcDbLine
 10
145.3587835
 20
125.5569282
 30
0.0
 11
145.6550621
 21
125.2299494
 31
0.0
  0
LINE
  5
19B
330
22
100
AcDbEntity
  8
1
100
AcDbLine
 10
145.6550621
 20
125.2299494
 30
0.0
 11
145.8281649
 21
124.9416794
 31
0.0
  0
LINE
  5
19C
330
22
100
AcDbEntity
  8
1
100
AcDbLine
 10
145.8281649
 20
124.9416794
 30
0.0
 11
145.9504022
 21
124.6284684
 31
0.0
  0
LINE
  5
19D
330
22
100
AcDbEntity
  8
1
100
AcDbLine
 10
145.9504022
 20
124.6284684
 30
0.0
 11
146.0192562
 21
124.2993507
 31
0.0
  0
LINE
  5
19E
330
22
100
AcDbEntity
  8
1
100
AcDbLine
 10
146.0192562
 20
124.2993507
 30
0.0
 11
146.0322091
 21
123.9633604
 31
0.0
  0
LINE
  5
19F
330
22
100
AcDbEntity
  8
1
100
AcDbLine
 10
145.9855582
 20
123.6149
 30
0.0
 11
146.0322091
 21
123.9633604
 31
0.0
  0
LINE
  5
1A0
330
22
100
AcDbEntity
  8
1
100
AcDbLine
 10
145.8796992
 20
123.2796363
 30
0.0
 11
145.9855582
 21
123.6149
 31
0.0
  0
LINE
  5
1A1
330
22
100
AcDbEntity
  8
1
100
AcDbLine
 10
145.6955752
 20
122.9368731
 30
0.0
 11
145.8796992
 21
123.2796363
 31
0.0
  0
LINE
  5
1A2
330
22
100
AcDbEntity
  8
1
100
AcDbLine
 10
145.4483176
 20
122.6360309
 30
0.0
 11
145.6955752
 21
122.9368731
 31
0.0
  0
LINE
  5
1A3
330
22
100
AcDbEntity
  8
1
100
AcDbLine
 10
145.1223337
 20
122.364324
 30
0.0
 11
145.4483176
 21
122.6360309
 31
0.0
  0
LINE
  5
1A4
330
22
100
AcDbEntity
  8
1
100
AcDbLine
 10
145.0003816
 20
122.2922647
 30
0.0
 11
145.1223337
 21
122.364324
 31
0.0
  0
LINE
  5
1A5
330
22
100
AcDbEntity
  8
1
100
AcDbLine
 10
144.9999013
 20
125.8141733
 30
0.0
 11
145.3587835
 21
125.5569282
 31
0.0
  0
LINE
  5
1A6
330
22
100
AcDbEntity
  8
1
100
AcDbLine
 10
145.3587835
 20
125.5569282
 30
0.0
 11
145.6550621
 21
125.2299494
 31
0.0
  0
LINE
  5
1A7
330
22
100
AcDbEntity
  8
1
100
AcDbLine
 10
145.6550621
 20
125.2299494
 30
0.0
 11
145.8281649
 21
124.9416794
 31
0.0
  0
LINE
  5
1A8
330
22
100
AcDbEntity
  8
1
100
AcDbLine
 10
145.8281649
 20
124.9416794
 30
0.0
 11
145.9504021
 21
124.6284684
 31
0.0
  0
LINE
  5
1A9
330
22
100
AcDbEntity
  8
1
100
AcDbLine
 10
145.9504021
 20
124.6284684
 30
0.0
 11
146.0192562
 21
124.2993507
 31
0.0
  0
LINE
  5
1AA
330
22
100
AcDbEntity
  8
1
100
AcDbLine
 10
146.0192562
 20
124.2993507
 30
0.0
 11
146.0322091
 21
123.9633604
 31
0.0
  0
LINE
  5
1AB
330
22
100
AcDbEntity
  8
1
100
AcDbLine
 10
145.9855582
 20
123.6149
 30
0.0
 11
146.0322091
 21
123.9633604
 31
0.0
  0
LINE
  5
1AC
330
22
100
AcDbEntity
  8
1
100
AcDbLine
 10
145.8796992
 20
123.2796362
 30
0.0
 11
145.9855582
 21
123.6149
 31
0.0
  0
LINE
  5
1AD
330
22
100
AcDbEntity
  8
1
100
AcDbLine
 10
145.695575
 20
122.9368732
 30
0.0
 11
145.8796992
 21
123.2796362
 31
0.0
  0
LINE
  5
1AE
330
22
100
AcDbEntity
  8
1
100
AcDbLine
 10
145.4483175
 20
122.636031
 30
0.0
 11
145.695575
 21
122.9368732
 31
0.0
  0
LINE
  5
1AF
330
22
100
AcDbEntity
  8
1
100
AcDbLine
 10
145.1223337
 20
122.364324
 30
0.0
 11
145.4483175
 21
122.636031
 31
0.0
  0
LINE
  5
1B0
330
22
100
AcDbEntity
  8
1
100
AcDbLine
 10
145.0003816
 20
122.2922647
 30
0.0
 11
145.1223337
 21
122.364324
 31
0.0
  0
ARC
  5
1B1
330
22
100
AcDbEntity
  8
1
100
AcDbCircle
 10
144.0204336
 20
124.0539046
 30
0.0
 40
2.0138147
100
AcDbArc
 50
357.423029
 51
35.73331599999997
  0
ARC
  5
1B2
330
22
100
AcDbEntity
  8
1
100
AcDbCircle
 10
143.997261
 20
124.0585049
 30
0.0
 40
2.037192099999999
100
AcDbArc
 50
337.522473
 51
357.32308
  0
LINE
  5
1B3
330
22
100
AcDbEntity
  8
1
100
AcDbLine
 10
144.6889354
 20
122.1532182
 30
0.0
 11
145.0003759
 21
122.292264
 31
0.0
  0
LINE
  5
1B4
330
22
100
AcDbEntity
  8
1
100
AcDbLine
 10
144.3588511
 20
122.0675513
 30
0.0
 11
144.6889354
 21
122.1532182
 31
0.0
  0
LINE
  5
1B5
330
22
100
AcDbEntity
  8
1
100
AcDbLine
 10
144.0190193
 20
122.038757
 30
0.0
 11
144.3588511
 21
122.0675513
 31
0.0
  0
LINE
  5
1B6
330
22
100
AcDbEntity
  8
1
100
AcDbLine
 10
143.6791399
 20
122.0676151
 30
0.0
 11
144.0190193
 21
122.038757
 31
0.0
  0
LINE
  5
1B7
330
22
100
AcDbEntity
  8
1
100
AcDbLine
 10
143.3488944
 20
122.1533528
 30
0.0
 11
143.6791399
 21
122.0676151
 31
0.0
  0
LINE
  5
1B8
330
22
100
AcDbEntity
  8
1
100
AcDbLine
 10
143.0381361
 20
122.2935974
 30
0.0
 11
143.3488944
 21
122.1533528
 31
0.0
  0
LINE
  5
1B9
330
22
100
AcDbEntity
  8
1
100
AcDbLine
 10
145.0003664
 20
122.2922618
 30
0.0
 11
145.2284005
 21
121.8829124
 31
0.0
  0
ARC
  5
1BA
330
22
100
AcDbEntity
  8
1
100
AcDbCircle
 10
144.0190265
 20
124.0538669
 30
0.0
 40
1.909993199999999
100
AcDbArc
 50
60.872383
 51
240.871934
  0
LINE
  5
1BB
330
22
100
AcDbEntity
  8
1
100
AcDbLine
 10
142.679273
 20
122.5508427
 30
0.0
 11
143.0381551
 21
122.2935976
 31
0.0
  0
LINE
  5
1BC
330
22
100
AcDbEntity
  8
1
100
AcDbLine
 10
142.3829944
 20
122.8778215
 30
0.0
 11
142.679273
 21
122.5508427
 31
0.0
  0
LINE
  5
1BD
330
22
100
AcDbEntity
  8
1
100
AcDbLine
 10
142.2098916
 20
123.1660915
 30
0.0
 11
142.3829944
 21
122.8778215
 31
0.0
  0
LINE
  5
1BE
330
22
100
AcDbEntity
  8
1
100
AcDbLine
 10
142.0876543
 20
123.4793025
 30
0.0
 11
142.2098916
 21
123.1660915
 31
0.0
  0
LINE
  5
1BF
330
22
100
AcDbEntity
  8
1
100
AcDbLine
 10
142.0188003
 20
123.8084202
 30
0.0
 11
142.0876543
 21
123.4793025
 31
0.0
  0
LINE
  5
1C0
330
22
100
AcDbEntity
  8
1
100
AcDbLine
 10
142.0058474
 20
124.1444105
 30
0.0
 11
142.0188003
 21
123.8084202
 31
0.0
  0
LINE
  5
1C1
330
22
100
AcDbEntity
  8
1
100
AcDbLine
 10
142.0058474
 20
124.1444105
 30
0.0
 11
142.0524983
 21
124.4928709
 31
0.0
  0
LINE
  5
1C2
330
22
100
AcDbEntity
  8
1
100
AcDbLine
 10
142.0524983
 20
124.4928709
 30
0.0
 11
142.1583573
 21
124.8281347
 31
0.0
  0
LINE
  5
1C3
330
22
100
AcDbEntity
  8
1
100
AcDbLine
 10
142.1583573
 20
124.8281347
 30
0.0
 11
142.3424813
 21
125.1708978
 31
0.0
  0
LINE
  5
1C4
330
22
100
AcDbEntity
  8
1
100
AcDbLine
 10
142.3424813
 20
125.1708978
 30
0.0
 11
142.5897389
 21
125.47174
 31
0.0
  0
LINE
  5
1C5
330
22
100
AcDbEntity
  8
1
100
AcDbLine
 10
142.5897389
 20
125.47174
 30
0.0
 11
142.9157228
 21
125.7434469
 31
0.0
  0
LINE
  5
1C6
330
22
100
AcDbEntity
  8
1
100
AcDbLine
 10
142.9157228
 20
125.7434469
 30
0.0
 11
143.0376748
 21
125.8155062
 31
0.0
  0
LINE
  5
1C7
330
22
100
AcDbEntity
  8
1
100
AcDbLine
 10
142.679273
 20
122.5508427
 30
0.0
 11
143.0381552
 21
122.2935976
 31
0.0
  0
LINE
  5
1C8
330
22
100
AcDbEntity
  8
1
100
AcDbLine
 10
142.3829944
 20
122.8778215
 30
0.0
 11
142.679273
 21
122.5508427
 31
0.0
  0
LINE
  5
1C9
330
22
100
AcDbEntity
  8
1
100
AcDbLine
 10
142.2098916
 20
123.1660915
 30
0.0
 11
142.3829944
 21
122.8778215
 31
0.0
  0
LINE
  5
1CA
330
22
100
AcDbEntity
  8
1
100
AcDbLine
 10
142.0876543
 20
123.4793025
 30
0.0
 11
142.2098916
 21
123.1660915
 31
0.0
  0
LINE
  5
1CB
330
22
100
AcDbEntity
  8
1
100
AcDbLine
 10
142.0188003
 20
123.8084202
 30
0.0
 11
142.0876543
 21
123.4793025
 31
0.0
  0
LINE
  5
1CC
330
22
100
AcDbEntity
  8
1
100
AcDbLine
 10
142.0058474
 20
124.1444105
 30
0.0
 11
142.0188003
 21
123.8084202
 31
0.0
  0
LINE
  5
1CD
330
22
100
AcDbEntity
  8
1
100
AcDbLine
 10
142.0058474
 20
124.1444105
 30
0.0
 11
142.0524983
 21
124.4928709
 31
0.0
  0
LINE
  5
1CE
330
22
100
AcDbEntity
  8
1
100
AcDbLine
 10
142.0524983
 20
124.4928709
 30
0.0
 11
142.1583573
 21
124.8281347
 31
0.0
  0
LINE
  5
1CF
330
22
100
AcDbEntity
  8
1
100
AcDbLine
 10
142.1583573
 20
124.8281347
 30
0.0
 11
142.3424814
 21
125.1708977
 31
0.0
  0
LINE
  5
1D0
330
22
100
AcDbEntity
  8
1
100
AcDbLine
 10
142.3424814
 20
125.1708977
 30
0.0
 11
142.5897389
 21
125.4717399
 31
0.0
  0
LINE
  5
1D1
330
22
100
AcDbEntity
  8
1
100
AcDbLine
 10
142.5897389
 20
125.4717399
 30
0.0
 11
142.9157228
 21
125.7434469
 31
0.0
  0
LINE
  5
1D2
330
22
100
AcDbEntity
  8
1
100
AcDbLine
 10
142.9157228
 20
125.7434469
 30
0.0
 11
143.0376748
 21
125.8155062
 31
0.0
  0
ARC
  5
1D3
330
22
100
AcDbEntity
  8
1
100
AcDbCircle
 10
144.0407955
 20
124.049266
 30
0.0
 40
2.037192099999999
100
AcDbArc
 50
157.522473
 51
177.32308
  0
ARC
  5
1D4
330
22
100
AcDbEntity
  8
1
100
AcDbCircle
 10
144.0176229
 20
124.0538663
 30
0.0
 40
2.0138147
100
AcDbArc
 50
177.423029
 51
215.733316
  0
LINE
  5
1D5
330
22
100
AcDbEntity
  8
1
100
AcDbLine
 10
143.0376806
 20
125.8155069
 30
0.0
 11
143.3491211
 21
125.9545527
 31
0.0
  0
LINE
  5
1D6
330
22
100
AcDbEntity
  8
1
100
AcDbLine
 10
143.3491211
 20
125.9545527
 30
0.0
 11
143.6792054
 21
126.0402196
 31
0.0
  0
LINE
  5
1D7
330
22
100
AcDbEntity
  8
1
100
AcDbLine
 10
143.6792054
 20
126.0402196
 30
0.0
 11
144.0190372
 21
126.0690139
 31
0.0
  0
LINE
  5
1D8
330
22
100
AcDbEntity
  8
1
100
AcDbLine
 10
144.0190372
 20
126.0690139
 30
0.0
 11
144.3589166
 21
126.0401558
 31
0.0
  0
LINE
  5
1D9
330
22
100
AcDbEntity
  8
1
100
AcDbLine
 10
144.3589166
 20
126.0401558
 30
0.0
 11
144.6891621
 21
125.9544181
 31
0.0
  0
LINE
  5
1DA
330
22
100
AcDbEntity
  8
1
100
AcDbLine
 10
144.6891621
 20
125.9544181
 30
0.0
 11
144.9999204
 21
125.8141735
 31
0.0
  0
LINE
  5
1DB
330
22
100
AcDbEntity
  8
1
100
AcDbLine
 10
142.809656
 20
126.2248585
 30
0.0
 11
143.0376901
 21
125.8155091
 31
0.0
  0
LINE
  5
1DC
330
22
100
AcDbEntity
  8
1
100
AcDbLine
 10
145.1913895
 20
126.1578024
 30
0.0
 11
145.9778771
 21
126.0736183
 31
0.0
  0
LINE
  5
1DD
330
22
100
AcDbEntity
  8
1
100
AcDbLine
 10
145.9778771
 20
126.0736183
 30
0.0
 11
146.1760358
 21
126.0027077
 31
0.0
  0
LINE
  5
1DE
330
22
100
AcDbEntity
  8
1
100
AcDbLine
 10
146.1760358
 20
126.0027077
 30
0.0
 11
146.3755751
 21
125.8303509
 31
0.0
  0
LINE
  5
1DF
330
22
100
AcDbEntity
  8
1
100
AcDbLine
 10
146.3755751
 20
125.8303509
 30
0.0
 11
146.6087899
 21
125.2380915
 31
0.0
  0
LINE
  5
1E0
330
22
100
AcDbEntity
  8
1
100
AcDbLine
 10
146.6087899
 20
125.2380915
 30
0.0
 11
146.864691
 21
124.3454543
 31
0.0
  0
LINE
  5
1E1
330
22
100
AcDbEntity
  8
1
100
AcDbLine
 10
146.864691
 20
124.3454543
 30
0.0
 11
146.95689
 21
123.8315507
 31
0.0
  0
LINE
  5
1E2
330
22
100
AcDbEntity
  8
1
100
AcDbLine
 10
146.929782
 20
123.3008668
 30
0.0
 11
146.95689
 21
123.8315507
 31
0.0
  0
LINE
  5
1E3
330
22
100
AcDbEntity
  8
1
100
AcDbLine
 10
146.811388
 20
122.7795412
 30
0.0
 11
146.929782
 21
123.3008668
 31
0.0
  0
LINE
  5
1E4
330
22
100
AcDbEntity
  8
1
100
AcDbLine
 10
146.6610459
 20
122.3579275
 30
0.0
 11
146.811388
 21
122.7795412
 31
0.0
  0
LINE
  5
1E5
330
22
100
AcDbEntity
  8
1
100
AcDbLine
 10
146.5270254
 20
122.1812504
 30
0.0
 11
146.6610459
 21
122.3579275
 31
0.0
  0
LINE
  5
1E6
330
22
100
AcDbEntity
  8
1
100
AcDbLine
 10
146.3626239
 20
122.096893
 30
0.0
 11
146.5270254
 21
122.1812504
 31
0.0
  0
LINE
  5
1E7
330
22
100
AcDbEntity
  8
1
100
AcDbLine
 10
145.5456504
 20
121.9201161
 30
0.0
 11
146.3626239
 21
122.096893
 31
0.0
  0
LINE
  5
1E8
330
22
100
AcDbEntity
  8
1
100
AcDbLine
 10
145.2284005
 20
121.8829124
 30
0.0
 11
145.5456504
 21
121.9201161
 31
0.0
  0
LINE
  5
1E9
330
22
100
AcDbEntity
  8
1
100
AcDbLine
 10
142.0601794
 20
122.0341526
 30
0.0
 11
142.846667
 21
121.9499685
 31
0.0
  0
LINE
  5
1EA
330
22
100
AcDbEntity
  8
1
100
AcDbLine
 10
141.8620207
 20
122.1050632
 30
0.0
 11
142.0601794
 21
122.0341526
 31
0.0
  0
LINE
  5
1EB
330
22
100
AcDbEntity
  8
1
100
AcDbLine
 10
141.6624814
 20
122.27742
 30
0.0
 11
141.8620207
 21
122.1050632
 31
0.0
  0
LINE
  5
1EC
330
22
100
AcDbEntity
  8
1
100
AcDbLine
 10
141.4292666
 20
122.8696794
 30
0.0
 11
141.6624814
 21
122.27742
 31
0.0
  0
LINE
  5
1ED
330
22
100
AcDbEntity
  8
1
100
AcDbLine
 10
141.1733655
 20
123.7623166
 30
0.0
 11
141.4292666
 21
122.8696794
 31
0.0
  0
LINE
  5
1EE
330
22
100
AcDbEntity
  8
1
100
AcDbLine
 10
141.0811664
 20
124.2762202
 30
0.0
 11
141.1733655
 21
123.7623166
 31
0.0
  0
LINE
  5
1EF
330
22
100
AcDbEntity
  8
1
100
AcDbLine
 10
141.0811664
 20
124.2762202
 30
0.0
 11
141.1082745
 21
124.8069041
 31
0.0
  0
LINE
  5
1F0
330
22
100
AcDbEntity
  8
1
100
AcDbLine
 10
141.1082745
 20
124.8069041
 30
0.0
 11
141.2266685
 21
125.3282298
 31
0.0
  0
LINE
  5
1F1
330
22
100
AcDbEntity
  8
1
100
AcDbLine
 10
141.2266685
 20
125.3282298
 30
0.0
 11
141.3770106
 21
125.7498434
 31
0.0
  0
LINE
  5
1F2
330
22
100
AcDbEntity
  8
1
100
AcDbLine
 10
141.3770106
 20
125.7498434
 30
0.0
 11
141.5110311
 21
125.9265205
 31
0.0
  0
LINE
  5
1F3
330
22
100
AcDbEntity
  8
1
100
AcDbLine
 10
141.5110311
 20
125.9265205
 30
0.0
 11
141.6754326
 21
126.010878
 31
0.0
  0
LINE
  5
1F4
330
22
100
AcDbEntity
  8
1
100
AcDbLine
 10
141.6754326
 20
126.010878
 30
0.0
 11
142.492406
 21
126.1876548
 31
0.0
  0
LINE
  5
1F5
330
22
100
AcDbEntity
  8
1
100
AcDbLine
 10
142.492406
 20
126.1876548
 30
0.0
 11
142.809656
 21
126.2248585
 31
0.0
  0
LINE
  5
1F6
330
22
100
AcDbEntity
  8
1
100
AcDbLine
 10
145.4423459
 20
127.0791047
 30
0.0
 11
147.6289189
 21
127.03143
 31
0.0
  0
LINE
  5
1F7
330
22
100
AcDbEntity
  8
1
100
AcDbLine
 10
147.6289189
 20
127.03143
 30
0.0
 11
147.8408664
 21
126.972796
 31
0.0
  0
LINE
  5
1F8
330
22
100
AcDbEntity
  8
1
100
AcDbLine
 10
147.8408664
 20
126.972796
 30
0.0
 11
147.9581943
 21
126.8689486
 31
0.0
  0
LINE
  5
1F9
330
22
100
AcDbEntity
  8
1
100
AcDbLine
 10
147.9581943
 20
126.8689486
 30
0.0
 11
148.0107218
 21
126.7331759
 31
0.0
  0
LINE
  5
1FA
330
22
100
AcDbEntity
  8
1
100
AcDbLine
 10
148.0107218
 20
126.7331759
 30
0.0
 11
148.0214724
 21
125.8601464
 31
0.0
  0
LINE
  5
1FB
330
22
100
AcDbEntity
  8
1
100
AcDbLine
 10
147.8698757
 20
124.1430495
 30
0.0
 11
148.0214724
 21
125.8601464
 31
0.0
  0
LINE
  5
1FC
330
22
100
AcDbEntity
  8
1
100
AcDbLine
 10
147.7615846
 20
121.209424
 30
0.0
 11
147.8698757
 21
124.1430495
 31
0.0
  0
LINE
  5
1FD
330
22
100
AcDbEntity
  8
1
100
AcDbLine
 10
147.7200353
 20
121.087941
 30
0.0
 11
147.7615846
 21
121.209424
 31
0.0
  0
LINE
  5
1FE
330
22
100
AcDbEntity
  8
1
100
AcDbLine
 10
147.6131876
 20
121.0107433
 30
0.0
 11
147.7200353
 21
121.087941
 31
0.0
  0
LINE
  5
1FF
330
22
100
AcDbEntity
  8
1
100
AcDbLine
 10
143.9325218
 20
121.010119
 30
0.0
 11
147.6131876
 21
121.0107433
 31
0.0
  0
LINE
  5
200
330
22
100
AcDbEntity
  8
1
100
AcDbLine
 10
142.5957105
 20
121.0286662
 30
0.0
 11
143.9325218
 21
121.010119
 31
0.0
  0
LINE
  5
201
330
22
100
AcDbEntity
  8
1
100
AcDbLine
 10
140.4091376
 20
121.076341
 30
0.0
 11
142.5957105
 21
121.0286662
 31
0.0
  0
LINE
  5
202
330
22
100
AcDbEntity
  8
1
100
AcDbLine
 10
140.1971901
 20
121.1349749
 30
0.0
 11
140.4091376
 21
121.076341
 31
0.0
  0
LINE
  5
203
330
22
100
AcDbEntity
  8
1
100
AcDbLine
 10
140.0798621
 20
121.2388223
 30
0.0
 11
140.1971901
 21
121.1349749
 31
0.0
  0
LINE
  5
204
330
22
100
AcDbEntity
  8
1
100
AcDbLine
 10
140.0273347
 20
121.374595
 30
0.0
 11
140.0798621
 21
121.2388223
 31
0.0
  0
LINE
  5
205
330
22
100
AcDbEntity
  8
1
100
AcDbLine
 10
140.0165841
 20
122.2476245
 30
0.0
 11
140.0273347
 21
121.374595
 31
0.0
  0
LINE
  5
206
330
22
100
AcDbEntity
  8
1
100
AcDbLine
 10
140.0165841
 20
122.2476245
 30
0.0
 11
140.1681808
 21
123.9647214
 31
0.0
  0
LINE
  5
207
330
22
100
AcDbEntity
  8
1
100
AcDbLine
 10
140.1681808
 20
123.9647214
 30
0.0
 11
140.2764719
 21
126.8983469
 31
0.0
  0
LINE
  5
208
330
22
100
AcDbEntity
  8
1
100
AcDbLine
 10
140.2764719
 20
126.8983469
 30
0.0
 11
140.3180212
 21
127.0198299
 31
0.0
  0
LINE
  5
209
330
22
100
AcDbEntity
  8
1
100
AcDbLine
 10
140.3180212
 20
127.0198299
 30
0.0
 11
140.4248689
 21
127.0970276
 31
0.0
  0
LINE
  5
20A
330
22
100
AcDbEntity
  8
1
100
AcDbLine
 10
140.4248689
 20
127.0970276
 30
0.0
 11
144.1055346
 21
127.0976519
 31
0.0
  0
LINE
  5
20B
330
22
100
AcDbEntity
  8
1
100
AcDbLine
 10
144.1055346
 20
127.0976519
 30
0.0
 11
145.4423459
 21
127.0791047
 31
0.0
  0
LINE
  5
20C
330
22
100
AcDbEntity
  8
1
100
AcDbLine
 10
140.298095
 20
120.9992252
 30
0.0
 11
142.5957105
 21
120.9489706
 31
0.0
  0
LINE
  5
20D
330
22
100
AcDbEntity
  8
1
100
AcDbLine
 10
140.0878987
 20
121.0564526
 30
0.0
 11
140.298095
 21
120.9992252
 31
0.0
  0
LINE
  5
20E
330
22
100
AcDbEntity
  8
1
100
AcDbLine
 10
139.9320305
 20
121.2115986
 30
0.0
 11
140.0878987
 21
121.0564526
 31
0.0
  0
LINE
  5
20F
330
22
100
AcDbEntity
  8
1
100
AcDbLine
 10
139.8738099
 20
121.4230126
 30
0.0
 11
139.9320305
 21
121.2115986
 31
0.0
  0
LINE
  5
210
330
22
100
AcDbEntity
  8
1
100
AcDbLine
 10
139.8703331
 20
122.3286406
 30
0.0
 11
139.8738099
 21
121.4230126
 31
0.0
  0
LINE
  5
211
330
22
100
AcDbEntity
  8
1
100
AcDbLine
 10
139.8703331
 20
122.3286406
 30
0.0
 11
139.973614
 21
122.604454
 31
0.0
  0
LINE
  5
212
330
22
100
AcDbEntity
  8
1
100
AcDbLine
 10
139.973614
 20
122.604454
 30
0.0
 11
140.0870243
 21
123.9406097
 31
0.0
  0
LINE
  5
213
330
22
100
AcDbEntity
  8
1
100
AcDbLine
 10
140.0870243
 20
123.9406097
 30
0.0
 11
140.1964719
 21
126.8983469
 31
0.0
  0
LINE
  5
214
330
22
100
AcDbEntity
  8
1
100
AcDbLine
 10
140.1964719
 20
126.8983469
 30
0.0
 11
140.2289704
 21
127.0244354
 31
0.0
  0
LINE
  5
215
330
22
100
AcDbEntity
  8
1
100
AcDbLine
 10
140.2289704
 20
127.0244354
 30
0.0
 11
140.3115724
 21
127.1247877
 31
0.0
  0
LINE
  5
216
330
22
100
AcDbEntity
  8
1
100
AcDbLine
 10
140.3115724
 20
127.1247877
 30
0.0
 11
140.4288717
 21
127.1806087
 31
0.0
  0
LINE
  5
217
330
22
100
AcDbEntity
  8
1
100
AcDbLine
 10
140.4288717
 20
127.1806087
 30
0.0
 11
140.493653
 21
127.1880428
 31
0.0
  0
LINE
  5
218
330
22
100
AcDbEntity
  8
1
100
AcDbLine
 10
140.493653
 20
127.1880428
 30
0.0
 11
144.8329916
 21
127.168242
 31
0.0
  0
LINE
  5
219
330
22
100
AcDbEntity
  8
1
100
AcDbLine
 10
144.8329916
 20
127.168242
 30
0.0
 11
145.442346
 21
127.1588003
 31
0.0
  0
LINE
  5
21A
330
22
100
AcDbEntity
  8
1
100
AcDbLine
 10
145.442346
 20
127.1588003
 30
0.0
 11
147.7399615
 21
127.1085457
 31
0.0
  0
LINE
  5
21B
330
22
100
AcDbEntity
  8
1
100
AcDbLine
 10
147.7399615
 20
127.1085457
 30
0.0
 11
147.9501578
 21
127.0513183
 31
0.0
  0
LINE
  5
21C
330
22
100
AcDbEntity
  8
1
100
AcDbLine
 10
147.9501578
 20
127.0513183
 30
0.0
 11
148.106026
 21
126.8961723
 31
0.0
  0
LINE
  5
21D
330
22
100
AcDbEntity
  8
1
100
AcDbLine
 10
148.106026
 20
126.8961723
 30
0.0
 11
148.1642466
 21
126.6847583
 31
0.0
  0
LINE
  5
21E
330
22
100
AcDbEntity
  8
1
100
AcDbLine
 10
148.1642466
 20
126.6847583
 30
0.0
 11
148.1677234
 21
125.7791303
 31
0.0
  0
LINE
  5
21F
330
22
100
AcDbEntity
  8
1
100
AcDbLine
 10
148.0644425
 20
125.5033169
 30
0.0
 11
148.1677234
 21
125.7791303
 31
0.0
  0
LINE
  5
220
330
22
100
AcDbEntity
  8
1
100
AcDbLine
 10
147.9510322
 20
124.1671612
 30
0.0
 11
148.0644425
 21
125.5033169
 31
0.0
  0
LINE
  5
221
330
22
100
AcDbEntity
  8
1
100
AcDbLine
 10
147.8415846
 20
121.209424
 30
0.0
 11
147.9510322
 21
124.1671612
 31
0.0
  0
LINE
  5
222
330
22
100
AcDbEntity
  8
1
100
AcDbLine
 10
147.8090861
 20
121.0833356
 30
0.0
 11
147.8415846
 21
121.209424
 31
0.0
  0
LINE
  5
223
330
22
100
AcDbEntity
  8
1
100
AcDbLine
 10
147.7264841
 20
120.9829832
 30
0.0
 11
147.8090861
 21
121.0833356
 31
0.0
  0
LINE
  5
224
330
22
100
AcDbEntity
  8
1
100
AcDbLine
 10
147.6091847
 20
120.9271623
 30
0.0
 11
147.7264841
 21
120.9829832
 31
0.0
  0
LINE
  5
225
330
22
100
AcDbEntity
  8
1
100
AcDbLine
 10
147.5444035
 20
120.9197281
 30
0.0
 11
147.6091847
 21
120.9271623
 31
0.0
  0
LINE
  5
226
330
22
100
AcDbEntity
  8
1
100
AcDbLine
 10
143.2050649
 20
120.939529
 30
0.0
 11
147.5444035
 21
120.9197281
 31
0.0
  0
LINE
  5
227
330
22
100
AcDbEntity
  8
1
100
AcDbLine
 10
142.5957105
 20
120.9489706
 30
0.0
 11
143.2050649
 21
120.939529
 31
0.0
  0
ARC
  5
228
330
22
100
AcDbEntity
  8
1
100
AcDbCircle
 10
144.0190295
 20
124.0538988
 30
0.0
 40
1.377613299999999
100
AcDbArc
 50
240.872408
 51
60.87195900000002
  0
ARC
  5
229
330
22
100
AcDbEntity
  8
1
100
AcDbCircle
 10
144.019027
 20
124.0538721
 30
0.0
 40
1.377613299999999
100
AcDbArc
 50
60.872408
 51
240.871959
  0
LINE
  5
337
330
22
100
AcDbEntity
  8
4
100
AcDbLine
 10
160.1033544
 20
141.8642138679918
 30
0.0
 11
160.1033544
 21
147.0848311679918
 31
0.0
  0
LINE
  5
340
330
22
100
AcDbEntity
  8
1
100
AcDbLine
 10
157.9994375
 20
145.5810938679918
 30
0.0
 11
158.5755225
 21
145.6365351679918
 31
0.0
  0
LINE
  5
341
330
22
100
AcDbEntity
  8
1
100
AcDbLine
 10
158.5755225
 20
145.6365351679918
 30
0.0
 11
159.0025181
 21
145.5727917679918
 31
0.0
  0
LINE
  5
342
330
22
100
AcDbEntity
  8
1
100
AcDbLine
 10
159.0025181
 20
145.5727917679918
 30
0.0
 11
159.1681013
 21
145.5305336679918
 31
0.0
  0
LINE
  5
343
330
22
100
AcDbEntity
  8
1
100
AcDbLine
 10
157.0781351
 20
145.9909046679918
 30
0.0
 11
157.1258099
 21
146.1821381679918
 31
0.0
  0
LINE
  5
344
330
22
100
AcDbEntity
  8
1
100
AcDbLine
 10
157.1258099
 20
146.1821381679918
 30
0.0
 11
157.4193021
 21
146.2343469679918
 31
0.0
  0
LINE
  5
345
330
22
100
AcDbEntity
  8
1
100
AcDbLine
 10
157.4193021
 20
146.2343469679918
 30
0.0
 11
158.2888657
 21
146.2429731679918
 31
0.0
  0
LINE
  5
346
330
22
100
AcDbEntity
  8
1
100
AcDbLine
 10
158.2888657
 20
146.2429731679918
 30
0.0
 11
158.7382059
 21
146.1342740679918
 31
0.0
  0
LINE
  5
347
330
22
100
AcDbEntity
  8
1
100
AcDbLine
 10
158.7382059
 20
146.1342740679918
 30
0.0
 11
159.2556366
 21
145.9145682679918
 31
0.0
  0
LINE
  5
348
330
22
100
AcDbEntity
  8
1
100
AcDbLine
 10
159.2556366
 20
145.9145682679918
 30
0.0
 11
159.7478694
 21
145.6434449679918
 31
0.0
  0
LINE
  5
349
330
22
100
AcDbEntity
  8
1
100
AcDbLine
 10
159.7478694
 20
145.6434449679918
 30
0.0
 11
160.1018446
 21
145.5321701679918
 31
0.0
  0
LINE
  5
34A
330
22
100
AcDbEntity
  8
1
100
AcDbLine
 10
157.0634343
 20
145.5626775679919
 30
0.0
 11
157.2588928
 21
145.5386760679918
 31
0.0
  0
LINE
  5
34B
330
22
100
AcDbEntity
  8
1
100
AcDbLine
 10
157.0586809
 20
145.8669367679918
 30
0.0
 11
157.0634343
 21
145.5626775679919
 31
0.0
  0
LINE
  5
34C
330
22
100
AcDbEntity
  8
1
100
AcDbLine
 10
157.0586809
 20
145.8669367679918
 30
0.0
 11
157.0781351
 21
145.9909046679918
 31
0.0
  0
LINE
  5
34D
330
22
100
AcDbEntity
  8
1
100
AcDbLine
 10
160.402327
 20
145.6175880679919
 30
0.0
 11
160.5997765
 21
145.7165601679919
 31
0.0
  0
LINE
  5
34E
330
22
100
AcDbEntity
  8
1
100
AcDbLine
 10
160.2476624
 20
145.5611920679919
 30
0.0
 11
160.3108407
 21
145.5814067679918
 31
0.0
  0
LINE
  5
34F
330
22
100
AcDbEntity
  8
1
100
AcDbLine
 10
162.0089115
 20
146.2399075679918
 30
0.0
 11
162.190759
 21
146.2356508679918
 31
0.0
  0
LINE
  5
350
330
22
100
AcDbEntity
  8
1
100
AcDbLine
 10
156.969197
 20
145.5649867679918
 30
0.0
 11
156.986268
 21
145.3332093679918
 31
0.0
  0
LINE
  5
351
330
22
100
AcDbEntity
  8
1
100
AcDbLine
 10
161.8285993
 20
146.2348083679918
 30
0.0
 11
162.9379355
 21
146.2309974679918
 31
0.0
  0
LINE
  5
352
330
22
100
AcDbEntity
  8
1
100
AcDbLine
 10
161.4487418
 20
146.1318012679918
 30
0.0
 11
161.8285993
 21
146.2348083679918
 31
0.0
  0
LINE
  5
353
330
22
100
AcDbEntity
  8
1
100
AcDbLine
 10
160.9642685
 20
145.9243970679918
 30
0.0
 11
161.4487418
 21
146.1318012679918
 31
0.0
  0
LINE
  5
354
330
22
100
AcDbEntity
  8
1
100
AcDbLine
 10
160.4345851
 20
145.6275264679918
 30
0.0
 11
160.9642685
 21
145.9243970679918
 31
0.0
  0
LINE
  5
355
330
22
100
AcDbEntity
  8
1
100
AcDbLine
 10
160.1493094
 20
145.5389794679918
 30
0.0
 11
160.4345851
 21
145.6275264679918
 31
0.0
  0
LINE
  5
356
330
22
100
AcDbEntity
  8
1
100
AcDbLine
 10
157.1941059
 20
145.5395609679918
 30
0.0
 11
160.1493094
 21
145.5389794679918
 31
0.0
  0
LINE
  5
357
330
22
100
AcDbEntity
  8
1
100
AcDbLine
 10
156.9766312
 20
145.5593113679918
 30
0.0
 11
157.1941059
 21
145.5395609679918
 31
0.0
  0
LINE
  5
358
330
22
100
AcDbEntity
  8
1
100
AcDbLine
 10
156.969197
 20
145.5649868679919
 30
0.0
 11
156.9766312
 21
145.5593113679918
 31
0.0
  0
LINE
  5
359
330
22
100
AcDbEntity
  8
1
100
AcDbLine
 10
156.969197
 20
145.5649868679919
 30
0.0
 11
156.9889979
 21
145.9445794679918
 31
0.0
  0
LINE
  5
35A
330
22
100
AcDbEntity
  8
1
100
AcDbLine
 10
156.9889979
 20
145.9445794679918
 30
0.0
 11
156.9984396
 21
145.9978766679918
 31
0.0
  0
LINE
  5
35B
330
22
100
AcDbEntity
  8
1
100
AcDbLine
 10
156.986268
 20
145.3332093679918
 30
0.0
 11
157.2754345
 21
143.8455276679918
 31
0.0
  0
LINE
  5
35C
330
22
100
AcDbEntity
  8
1
100
AcDbLine
 10
156.9984396
 20
145.9978766679918
 30
0.0
 11
157.0478166
 21
146.1968314679918
 31
0.0
  0
LINE
  5
35D
330
22
100
AcDbEntity
  8
1
100
AcDbLine
 10
157.0478166
 20
146.1968314679918
 30
0.0
 11
157.3155323
 21
146.2329161679918
 31
0.0
  0
LINE
  5
35E
330
22
100
AcDbEntity
  8
1
100
AcDbLine
 10
158.4856035
 20
146.2118336679918
 30
0.0
 11
158.8270275
 21
146.1050463679918
 31
0.0
  0
LINE
  5
35F
330
22
100
AcDbEntity
  8
1
100
AcDbLine
 10
159.2033101
 20
145.9439726679918
 30
0.0
 11
159.2957135
 21
145.8960056679918
 31
0.0
  0
ARC
  5
360
330
22
100
AcDbEntity
  8
1
100
AcDbCircle
 10
-199.4668275
 20
215.5854376679918
 30
0.0
 40
369.4386796000001
100
AcDbArc
 50
348.7797130000001
 51
348.997363
  0
LINE
  5
361
330
22
100
AcDbEntity
  8
1
100
AcDbLine
 10
163.171874
 20
145.0783903679918
 30
0.0
 11
163.2204408
 21
145.3332093679918
 31
0.0
  0
LINE
  5
362
330
22
100
AcDbEntity
  8
1
100
AcDbLine
 10
162.8812724
 20
145.2191633679918
 30
0.0
 11
163.2204408
 21
145.3332093679918
 31
0.0
  0
LINE
  5
363
330
22
100
AcDbEntity
  8
1
100
AcDbLine
 10
161.3428617
 20
144.9258063679918
 30
0.0
 11
162.8812724
 21
145.2191633679918
 31
0.0
  0
LINE
  5
364
330
22
100
AcDbEntity
  8
1
100
AcDbLine
 10
160.5735829
 20
144.8305078679918
 30
0.0
 11
161.3428617
 21
144.9258063679918
 31
0.0
  0
LINE
  5
365
330
22
100
AcDbEntity
  8
1
100
AcDbLine
 10
159.281018
 20
144.8232400679918
 30
0.0
 11
160.5735829
 21
144.8305078679918
 31
0.0
  0
LINE
  5
366
330
22
100
AcDbEntity
  8
1
100
AcDbLine
 10
157.6300657
 20
144.8222436679919
 30
0.0
 11
159.281018
 21
144.8232400679918
 31
0.0
  0
LINE
  5
367
330
22
100
AcDbEntity
  8
1
100
AcDbLine
 10
157.0596968
 20
144.9584600679918
 30
0.0
 11
157.6300657
 21
144.8222436679919
 31
0.0
  0
LINE
  5
368
330
22
100
AcDbEntity
  8
1
100
AcDbLine
 10
157.0348349
 20
145.0783903679918
 30
0.0
 11
157.0596968
 21
144.9584600679918
 31
0.0
  0
LINE
  5
369
330
22
100
AcDbEntity
  8
1
100
AcDbLine
 10
162.730862
 20
142.8154132679918
 30
0.0
 11
162.7767976
 21
143.0519688679918
 31
0.0
  0
LINE
  5
36A
330
22
100
AcDbEntity
  8
1
100
AcDbLine
 10
162.7767976
 20
143.0519688679918
 30
0.0
 11
162.8506268
 21
143.3978987679918
 31
0.0
  0
LINE
  5
36B
330
22
100
AcDbEntity
  8
1
100
AcDbLine
 10
157.2754345
 20
143.8455276679918
 30
0.0
 11
157.4756662
 21
142.8154132679918
 31
0.0
  0
LINE
  5
36C
330
22
100
AcDbEntity
  8
1
100
AcDbLine
 10
162.8504641
 20
143.3979311679918
 30
0.0
 11
162.9105197
 21
143.6994433679918
 31
0.0
  0
LINE
  5
36D
330
22
100
AcDbEntity
  8
1
100
AcDbLine
 10
157.4756662
 20
142.8154131679918
 30
0.0
 11
162.730862
 21
142.8154131679918
 31
0.0
  0
LINE
  5
36E
330
22
100
AcDbEntity
  8
1
100
AcDbLine
 10
157.6590819
 20
142.8154132679918
 30
0.0
 11
157.7340224
 21
142.6954831679918
 31
0.0
  0
LINE
  5
36F
330
22
100
AcDbEntity
  8
1
100
AcDbLine
 10
162.4739034
 20
142.6954831679918
 30
0.0
 11
162.5488439
 21
142.8154132679918
 31
0.0
  0
LINE
  5
370
330
22
100
AcDbEntity
  8
1
100
AcDbLine
 10
157.7340224
 20
142.6954831679918
 30
0.0
 11
162.4739034
 21
142.6954831679918
 31
0.0
  0
LINE
  5
371
330
22
100
AcDbEntity
  8
1
100
AcDbLine
 10
163.2204408
 20
145.3332093679918
 30
0.0
 11
163.243328
 21
146.2072353679918
 31
0.0
  0
LINE
  5
372
330
22
100
AcDbEntity
  8
1
100
AcDbLine
 10
162.9379355
 20
146.2309974679918
 30
0.0
 11
163.243328
 21
146.2072353679918
 31
0.0
  0
LINE
  5
373
330
22
100
AcDbEntity
  8
4
100
AcDbLine
 10
160.1033544
 20
141.9002917679918
 30
0.0
 11
160.1033544
 21
146.4479755679918
 31
0.0
  0
LINE
  5
376
330
22
100
AcDbEntity
  8
1
100
AcDbLine
 10
161.5791519
 20
142.8154131679918
 30
0.0
 11
161.8783134
 21
146.2348453679918
 31
0.0
  0
LINE
  5
377
330
22
100
AcDbEntity
  8
1
100
AcDbLine
 10
141.0101801
 20
142.8154132679918
 30
0.0
 11
141.0850812
 21
142.6954831679918
 31
0.0
  0
LINE
  5
378
330
22
100
AcDbEntity
  8
1
100
AcDbLine
 10
147.480261
 20
142.6954831679918
 30
0.0
 11
147.5551621
 21
142.8154132679918
 31
0.0
  0
LINE
  5
379
330
22
100
AcDbEntity
  8
1
100
AcDbLine
 10
148.2831841
 20
146.2399293679918
 30
0.0
 11
148.4313663
 21
146.2348083679918
 31
0.0
  0
LINE
  5
37A
330
22
100
AcDbEntity
  8
1
100
AcDbLine
 10
148.2831858
 20
146.2399283679918
 30
0.0
 11
148.2851515
 21
146.2430057679918
 31
0.0
  0
LINE
  5
37B
330
22
100
AcDbEntity
  8
1
100
AcDbLine
 10
148.1357838
 20
145.5560263679918
 30
0.0
 11
148.2851515
 21
146.2430057679918
 31
0.0
  0
LINE
  5
37C
330
22
100
AcDbEntity
  8
1
100
AcDbLine
 10
148.1264799
 20
145.5280131679918
 30
0.0
 11
148.1357838
 21
145.5560263679918
 31
0.0
  0
LINE
  5
37D
330
22
100
AcDbEntity
  8
1
100
AcDbLine
 10
147.3463026
 20
145.6063303679918
 30
0.0
 11
147.9503671
 21
145.5540543679918
 31
0.0
  0
LINE
  5
37E
330
22
100
AcDbEntity
  8
1
100
AcDbLine
 10
145.7059888
 20
145.9909046679918
 30
0.0
 11
147.9372991
 21
146.1864991679918
 31
0.0
  0
LINE
  5
37F
330
22
100
AcDbEntity
  8
1
100
AcDbLine
 10
147.9372991
 20
146.1864991679918
 30
0.0
 11
148.2710604
 21
146.2339502679919
 31
0.0
  0
LINE
  5
380
330
22
100
AcDbEntity
  8
1
100
AcDbLine
 10
140.2821565
 20
146.2399283679918
 30
0.0
 11
140.2850866
 21
146.2356423679918
 31
0.0
  0
LINE
  5
381
330
22
100
AcDbEntity
  8
1
100
AcDbLine
 10
144.3223141
 20
145.8699109679918
 30
0.0
 11
145.7059888
 21
145.9909046679918
 31
0.0
  0
LINE
  5
382
330
22
100
AcDbEntity
  8
1
100
AcDbLine
 10
140.2874529
 20
146.2354815679918
 30
0.0
 11
140.4553097
 21
146.2078100679918
 31
0.0
  0
LINE
  5
383
330
22
100
AcDbEntity
  8
1
100
AcDbLine
 10
140.4475926
 20
145.0551845679918
 30
0.0
 11
140.5137983
 21
144.8222436679919
 31
0.0
  0
LINE
  5
384
330
22
100
AcDbEntity
  8
1
100
AcDbLine
 10
140.133976
 20
146.2348083679918
 30
0.0
 11
140.4949227
 21
144.8133740679919
 31
0.0
  0
LINE
  5
385
330
22
100
AcDbEntity
  8
1
100
AcDbLine
 10
140.1374528
 20
146.2354820679918
 30
0.0
 11
142.8593534
 21
145.9978766679918
 31
0.0
  0
LINE
  5
386
330
22
100
AcDbEntity
  8
1
100
AcDbLine
 10
140.133976
 20
146.2348083679918
 30
0.0
 11
140.1374528
 21
146.2354820679918
 31
0.0
  0
LINE
  5
387
330
22
100
AcDbEntity
  8
1
100
AcDbLine
 10
140.133976
 20
146.2348083679918
 30
0.0
 11
140.2372568
 21
146.1680671679918
 31
0.0
  0
LINE
  5
388
330
22
100
AcDbEntity
  8
1
100
AcDbLine
 10
140.2372568
 20
146.1680671679918
 30
0.0
 11
140.3506461
 21
145.5514490679918
 31
0.0
  0
LINE
  5
389
330
22
100
AcDbEntity
  8
1
100
AcDbLine
 10
140.3506461
 20
145.5514490679918
 30
0.0
 11
145.7059888
 21
145.9978766679918
 31
0.0
  0
LINE
  5
38A
330
22
100
AcDbEntity
  8
1
100
AcDbLine
 10
140.1374528
 20
146.2354820679918
 30
0.0
 11
142.8593534
 21
145.9978766679918
 31
0.0
  0
LINE
  5
38B
330
22
100
AcDbEntity
  8
1
100
AcDbLine
 10
140.133976
 20
146.2348083679918
 30
0.0
 11
140.1374528
 21
146.2354820679918
 31
0.0
  0
LINE
  5
38C
330
22
100
AcDbEntity
  8
1
100
AcDbLine
 10
140.133976
 20
146.2348083679918
 30
0.0
 11
140.2372568
 21
146.1680671679918
 31
0.0
  0
LINE
  5
38D
330
22
100
AcDbEntity
  8
1
100
AcDbLine
 10
140.2372568
 20
146.1680671679918
 30
0.0
 11
140.3506461
 21
145.5514490679918
 31
0.0
  0
LINE
  5
38E
330
22
100
AcDbEntity
  8
1
100
AcDbLine
 10
140.3506461
 20
145.5514490679918
 30
0.0
 11
145.7059888
 21
145.9978766679918
 31
0.0
  0
LINE
  5
38F
330
22
100
AcDbEntity
  8
1
100
AcDbLine
 10
140.7015146
 20
143.7765695679918
 30
0.0
 11
140.7422895
 21
143.5654777679918
 31
0.0
  0
LINE
  5
390
330
22
100
AcDbEntity
  8
1
100
AcDbLine
 10
140.6606441
 20
143.9850040679918
 30
0.0
 11
140.7015146
 21
143.7765695679918
 31
0.0
  0
LINE
  5
391
330
22
100
AcDbEntity
  8
1
100
AcDbLine
 10
140.6199791
 20
144.1908807679918
 30
0.0
 11
140.6606441
 21
143.9850040679918
 31
0.0
  0
LINE
  5
392
330
22
100
AcDbEntity
  8
1
100
AcDbLine
 10
140.5795882
 20
144.3955459679918
 30
0.0
 11
140.6199791
 21
144.1908807679918
 31
0.0
  0
LINE
  5
393
330
22
100
AcDbEntity
  8
1
100
AcDbLine
 10
140.5388155
 20
144.6024410679918
 30
0.0
 11
140.5389786
 21
144.6016301679918
 31
0.0
  0
LINE
  5
394
330
22
100
AcDbEntity
  8
1
100
AcDbLine
 10
140.4949227
 20
144.8133740679919
 30
0.0
 11
140.5389844
 21
144.6024763679918
 31
0.0
  0
LINE
  5
395
330
22
100
AcDbEntity
  8
1
100
AcDbLine
 10
140.5388155
 20
144.6024410679918
 30
0.0
 11
140.5389753
 21
144.6016302679918
 31
0.0
  0
LINE
  5
396
330
22
100
AcDbEntity
  8
1
100
AcDbLine
 10
140.5389753
 20
144.6016302679918
 30
0.0
 11
140.5795882
 21
144.3955459679918
 31
0.0
  0
LINE
  5
397
330
22
100
AcDbEntity
  8
1
100
AcDbLine
 10
140.5137983
 20
144.8222436679919
 30
0.0
 11
140.6917522
 21
144.0440273679918
 31
0.0
  0
LINE
  5
398
330
22
100
AcDbEntity
  8
1
100
AcDbLine
 10
140.6917522
 20
144.0440273679918
 30
0.0
 11
140.7533158
 21
143.6277227679918
 31
0.0
  0
LINE
  5
399
330
22
100
AcDbEntity
  8
1
100
AcDbLine
 10
140.5389844
 20
144.6024763679918
 30
0.0
 11
140.5796992
 21
144.3991866679918
 31
0.0
  0
LINE
  5
39A
330
22
100
AcDbEntity
  8
1
100
AcDbLine
 10
140.4949227
 20
144.8133740679919
 30
0.0
 11
140.5055178
 21
144.8160129679918
 31
0.0
  0
LINE
  5
39B
330
22
100
AcDbEntity
  8
1
100
AcDbLine
 10
140.5137983
 20
144.8222436679919
 30
0.0
 11
140.5837208
 21
144.8373448679918
 31
0.0
  0
LINE
  5
39C
330
22
100
AcDbEntity
  8
1
100
AcDbLine
 10
140.5137983
 20
144.8222436679919
 30
0.0
 11
140.5351236
 21
144.9103178679918
 31
0.0
  0
LINE
  5
39D
330
22
100
AcDbEntity
  8
1
100
AcDbLine
 10
140.5351236
 20
144.9103178679918
 30
0.0
 11
140.6737133
 21
144.9584600679918
 31
0.0
  0
LINE
  5
39E
330
22
100
AcDbEntity
  8
1
100
AcDbLine
 10
140.6737133
 20
144.9584600679918
 30
0.0
 11
142.9418521
 21
145.0783877679918
 31
0.0
  0
LINE
  5
39F
330
22
100
AcDbEntity
  8
1
100
AcDbLine
 10
148.3024062
 20
145.7639035679918
 30
0.0
 11
148.4086975
 21
146.1520319679918
 31
0.0
  0
LINE
  5
3A0
330
22
100
AcDbEntity
  8
1
100
AcDbLine
 10
148.0704195
 20
144.8133740679919
 30
0.0
 11
148.216594
 21
145.5592509679918
 31
0.0
  0
LINE
  5
3A1
330
22
100
AcDbEntity
  8
1
100
AcDbLine
 10
148.1177497
 20
145.0551845679918
 30
0.0
 11
148.4313663
 21
146.2348083679918
 31
0.0
  0
LINE
  5
3A2
330
22
100
AcDbEntity
  8
1
100
AcDbLine
 10
145.7059888
 20
145.9978766679918
 30
0.0
 11
148.4278894
 21
146.2354820679918
 31
0.0
  0
LINE
  5
3A3
330
22
100
AcDbEntity
  8
1
100
AcDbLine
 10
148.4278894
 20
146.2354820679918
 30
0.0
 11
148.4313663
 21
146.2348083679918
 31
0.0
  0
LINE
  5
3A4
330
22
100
AcDbEntity
  8
1
100
AcDbLine
 10
148.3280854
 20
146.1680671679918
 30
0.0
 11
148.4313663
 21
146.2348083679918
 31
0.0
  0
LINE
  5
3A5
330
22
100
AcDbEntity
  8
1
100
AcDbLine
 10
148.2146962
 20
145.5514490679918
 30
0.0
 11
148.3280854
 21
146.1680671679918
 31
0.0
  0
LINE
  5
3A6
330
22
100
AcDbEntity
  8
1
100
AcDbLine
 10
142.8593534
 20
145.9978766679918
 30
0.0
 11
148.2146962
 21
145.5514490679918
 31
0.0
  0
LINE
  5
3A7
330
22
100
AcDbEntity
  8
1
100
AcDbLine
 10
145.7059888
 20
145.9978766679918
 30
0.0
 11
148.1099909
 21
146.2081137679918
 31
0.0
  0
LINE
  5
3A8
330
22
100
AcDbEntity
  8
1
100
AcDbLine
 10
147.8230527
 20
143.5654777679918
 30
0.0
 11
147.8638277
 21
143.7765695679918
 31
0.0
  0
LINE
  5
3A9
330
22
100
AcDbEntity
  8
1
100
AcDbLine
 10
148.0265267
 20
144.6024410679918
 30
0.0
 11
148.0704195
 21
144.8133740679919
 31
0.0
  0
LINE
  5
3AA
330
22
100
AcDbEntity
  8
1
100
AcDbLine
 10
147.9453631
 20
144.1908807679918
 30
0.0
 11
147.985754
 21
144.3955459679918
 31
0.0
  0
LINE
  5
3AB
330
22
100
AcDbEntity
  8
1
100
AcDbLine
 10
147.8638277
 20
143.7765695679918
 30
0.0
 11
147.9046982
 21
143.9850040679918
 31
0.0
  0
LINE
  5
3AC
330
22
100
AcDbEntity
  8
1
100
AcDbLine
 10
147.9046982
 20
143.9850040679918
 30
0.0
 11
147.9453631
 21
144.1908807679918
 31
0.0
  0
LINE
  5
3AD
330
22
100
AcDbEntity
  8
1
100
AcDbLine
 10
147.985754
 20
144.3955459679918
 30
0.0
 11
148.0265267
 21
144.6024410679918
 31
0.0
  0
LINE
  5
3AE
330
22
100
AcDbEntity
  8
1
100
AcDbLine
 10
147.7008543
 20
142.8154132679918
 30
0.0
 11
147.7034805
 21
142.8541046679918
 31
0.0
  0
LINE
  5
3AF
330
22
100
AcDbEntity
  8
1
100
AcDbLine
 10
147.7242648
 20
143.0241843679918
 30
0.0
 11
147.7627686
 21
143.2740977679918
 31
0.0
  0
LINE
  5
3B0
330
22
100
AcDbEntity
  8
1
100
AcDbLine
 10
147.6987523
 20
142.8154132679918
 30
0.0
 11
147.7034805
 21
142.8541046679918
 31
0.0
  0
LINE
  5
3B1
330
22
100
AcDbEntity
  8
1
100
AcDbLine
 10
147.7034805
 20
142.8541046679918
 30
0.0
 11
147.7242648
 21
143.0241843679918
 31
0.0
  0
LINE
  5
3B2
330
22
100
AcDbEntity
  8
1
100
AcDbLine
 10
147.7322695
 20
142.8154132679918
 30
0.0
 11
147.781209
 21
143.3431353679918
 31
0.0
  0
LINE
  5
3B3
330
22
100
AcDbEntity
  8
1
100
AcDbLine
 10
147.781209
 20
143.3431353679918
 30
0.0
 11
147.8230527
 21
143.5654777679918
 31
0.0
  0
LINE
  5
3B4
330
22
100
AcDbEntity
  8
1
100
AcDbLine
 10
147.8168032
 20
143.5508356679918
 30
0.0
 11
147.8230505
 21
143.5654788679918
 31
0.0
  0
LINE
  5
3B5
330
22
100
AcDbEntity
  8
1
100
AcDbLine
 10
140.7533158
 20
143.6277227679918
 30
0.0
 11
140.8353774
 21
142.8154132679918
 31
0.0
  0
LINE
  5
3B6
330
22
100
AcDbEntity
  8
1
100
AcDbLine
 10
140.7422917
 20
143.5654788679918
 30
0.0
 11
140.7563013
 21
143.5933174679918
 31
0.0
  0
LINE
  5
3B7
330
22
100
AcDbEntity
  8
1
100
AcDbLine
 10
140.7563013
 20
143.5933174679918
 30
0.0
 11
140.764
 21
143.5937756679918
 31
0.0
  0
LINE
  5
3B8
330
22
100
AcDbEntity
  8
1
100
AcDbLine
 10
142.914803
 20
142.8154131679918
 30
0.0
 11
147.7322695
 21
142.8154229679918
 31
0.0
  0
LINE
  5
3B9
330
22
100
AcDbEntity
  8
1
100
AcDbLine
 10
142.9147619
 20
142.6954831679918
 30
0.0
 11
147.480261
 21
142.6954831679918
 31
0.0
  0
LINE
  5
3BA
330
22
100
AcDbEntity
  8
1
100
AcDbLine
 10
140.8330727
 20
142.8154229679918
 30
0.0
 11
142.914803
 21
142.8154187679918
 31
0.0
  0
LINE
  5
3BB
330
22
100
AcDbEntity
  8
1
100
AcDbLine
 10
141.0850812
 20
142.6954831679918
 30
0.0
 11
142.9147619
 21
142.6954831679918
 31
0.0
  0
LINE
  5
3BC
330
22
100
AcDbEntity
  8
4
100
AcDbLine
 10
144.2826711
 20
141.8164239679918
 30
0.0
 11
144.2826711
 21
146.8743992679918
 31
0.0
  0
LINE
  5
3BD
330
22
100
AcDbEntity
  8
1
100
AcDbLine
 10
142.9418521
 20
145.0783877679918
 30
0.0
 11
148.1865838
 21
145.4061195679918
 31
0.0
  0
DIMENSION
  5
106D
330
22
100
AcDbEntity
  8
2
100
AcDbDimension
  2
*D30
 10
151.647111996286
 20
142.6954831679918
 30
0.0
 11
151.6471119962859
 21
150.0780023342509
 31
0.0
 70
   160
 71
     5
 42
3.539325200000007
  3
ISO-25
100
AcDbAlignedDimension
 13
147.9506651682718
 23
146.2348083679918
 33
0.0
 14
147.8779878998396
 24
142.6954831679918
 34
0.0
 50
90.0
100
AcDbRotatedDimension
1001
ACAD
1000
DSTYLE
1002
{
1070
   140
1040
1.0
1070
    41
1040
1.0
1002
}
  0
DIMENSION
  5
107D
330
22
100
AcDbEntity
  8
2
100
AcDbDimension
  2
*D31
 10
139.8738074
 20
133.7498722822565
 30
0.0
 11
144.01902825
 21
133.7498722822565
 31
0.0
 70
   160
  1
8.2
 71
     5
 42
8.290441700000002
  3
ISO-25
100
AcDbAlignedDimension
 13
148.1642491
 23
124.2510404344714
 33
0.0
 14
139.8738074
 24
122.93197689766
 34
0.0
100
AcDbRotatedDimension
1001
ACAD
1000
DSTYLE
1002
{
1070
    41
1040
1.0
1070
   140
1040
1.0
1002
}
  0
DIMENSION
  5
108A
330
22
100
AcDbEntity
  8
2
100
AcDbDimension
  2
*D32
 10
140.1967519
 20
131.0200286375999
 30
0.0
 11
144.1805005
 21
131.0200286375999
 31
0.0
 70
   160
  1
7.91
 71
     5
 42
7.967497199999996
  3
ISO-25
100
AcDbAlignedDimension
 13
148.1642491
 23
128.8045297
 33
0.0
 14
140.1967519
 24
127.3245991909463
 34
0.0
100
AcDbRotatedDimension
1001
ACAD
1000
DSTYLE
1002
{
1070
   140
1040
1.0
1070
    41
1040
1.0
1002
}
  0
DIMENSION
  5
1105
330
22
100
AcDbEntity
  8
2
100
AcDbDimension
  2
*D33
 10
153.9748822967633
 20
120.9197273
 30
0.0
 11
153.9748822967633
 21
123.5231326244589
 31
0.0
 70
   160
 71
     5
 42
6.189474799999999
  3
ISO-25
100
AcDbAlignedDimension
 13
148.380219297675
 23
127.1092021
 33
0.0
 14
147.9152949893191
 24
120.9197273
 34
0.0
 50
90.0
100
AcDbRotatedDimension
1001
ACAD
1000
DSTYLE
1002
{
1070
   140
1040
1.0
1070
    41
1040
1.0
1070
   271
1070
     1
1002
}
  0
DIMENSION
  5
11C3
330
22
100
AcDbEntity
  8
2
100
AcDbDimension
  2
*D34
 10
147.6617845552624
 20
126.8130626027636
 30
0.0
 11
151.3202407447061
 21
129.7373390524796
 31
0.0
 70
    36
 71
     5
 42
0.3999999999997783
  3
ISO-25
100
AcDbRadialDimension
 15
148.0280919
 25
126.9737453
 35
0.0
 40
0.0
1001
ACAD
1000
DSTYLE
1002
{
1070
   140
1040
1.0
1070
    41
1040
1.0
1070
   288
1070
     1
1002
}
  0
VIEWPORT
  5
121
102
{ACAD_XDICTIONARY
360
11F7
102
}
330
1E
100
AcDbEntity
 67
     1
  8
0
 62
     0
100
AcDbViewport
 10
0.0
 20
0.0
 30
0.0
 40
1000.0
 41
1000.0
 68
     1
 69
     1
 12
0.0
 22
0.0
 13
0.0
 23
0.0
 14
1.0
 24
1.0
 15
1.0
 25
1.0
 16
0.0
 26
0.0
 36
1.0
 17
0.0
 27
0.0
 37
0.0
 42
50.0
 43
0.0
 44
0.0
 45
1000.0
 50
0.0
 51
0.0
 72
   100
 90
    32800
  1

281
     0
 71
     0
 74
     0
110
0.0
120
0.0
130
0.0
111
0.0
121
0.0
131
0.0
112
0.0
122
0.0
132
0.0
 79
     0
146
0.0
  0
ENDSEC
  0
SECTION
  2
OBJECTS
  0
DICTIONARY
  5
C
330
0
100
AcDbDictionary
281
     1
  3
ACAD_COLOR
350
1B
  3
ACAD_GROUP
350
D
  3
ACAD_LAYOUT
350
19
  3
ACAD_MATERIAL
350
1A
  3
ACAD_MLINESTYLE
350
16
  3
ACAD_PLOTSETTINGS
350
18
  3
ACAD_PLOTSTYLENAME
350
E
  3
ACAD_TABLESTYLE
350
1C
  3
ACDBHEADERROUNDTRIPXREC
350
11F2
  3
AcDbVariableDictionary
350
3D4
  3
DWGPROPS
350
11F1
  0
DICTIONARY
  5
11F7
330
121
100
AcDbDictionary
280
     1
281
     1
  3
ACAD_XREC_ROUNDTRIP
360
11F8
  0
DICTIONARY
  5
1B
102
{ACAD_REACTORS
330
C
102
}
330
C
100
AcDbDictionary
281
     1
  0
DICTIONARY
  5
D
102
{ACAD_REACTORS
330
C
102
}
330
C
100
AcDbDictionary
281
     1
  0
DICTIONARY
  5
19
102
{ACAD_REACTORS
330
C
102
}
330
C
100
AcDbDictionary
281
     1
  3
Layout1
350
21
  3
Model
350
25
  0
DICTIONARY
  5
1A
102
{ACAD_REACTORS
330
C
102
}
330
C
100
AcDbDictionary
281
     1
  0
DICTIONARY
  5
16
102
{ACAD_REACTORS
330
C
102
}
330
C
100
AcDbDictionary
281
     1
  3
Standard
350
17
  0
DICTIONARY
  5
18
102
{ACAD_REACTORS
330
C
102
}
330
C
100
AcDbDictionary
281
     1
  0
ACDBDICTIONARYWDFLT
  5
E
102
{ACAD_REACTORS
330
C
102
}
330
C
100
AcDbDictionary
281
     1
  3
Normal
350
F
100
AcDbDictionaryWithDefault
340
F
  0
DICTIONARY
  5
1C
102
{ACAD_REACTORS
330
C
102
}
330
C
100
AcDbDictionary
281
     1
  3
Standard
350
1D
  0
DICTIONARY
  5
11F2
102
{ACAD_REACTORS
330
C
102
}
330
C
100
AcDbDictionary
281
     1
  0
DICTIONARY
  5
3D4
102
{ACAD_REACTORS
330
C
102
}
330
C
100
AcDbDictionary
281
     1
  3
CTABLESTYLE
350
3D5
  3
DIMASSOC
350
3D6
  3
PROJECTNAME
350
3D7
  0
XRECORD
  5
11F1
102
{ACAD_REACTORS
330
C
102
}
330
C
100
AcDbXrecord
280
     1
  1
DWGPROPS COOKIE
  2

  3

  4

  6

  7

  8

  9

300
=
301
=
302
=
303
=
304
=
305
=
306
=
307
=
308
=
309
=
 40
0.034220462962963
 41
2305814.125509387
 42
2453915.486550775
  1

 90
        0
  0
XRECORD
  5
11F8
102
{ACAD_REACTORS
330
11F7
102
}
330
11F7
100
AcDbXrecord
280
     1
102
SHADEPLOT
 70
     0
  0
LAYOUT
  5
21
102
{ACAD_XDICTIONARY
360
11F3
102
}
102
{ACAD_REACTORS
330
19
102
}
330
19
100
AcDbPlotSettings
  1

  2
\\ingdom02\ITB3
  4

  6

 40
0.0
 41
0.0
 42
0.0
 43
0.0
 44
0.0
 45
0.0
 46
0.0
 47
0.0
 48
0.0
 49
0.0
140
0.0
141
0.0
142
1.0
143
1.0
 70
   688
 72
     0
 73
     0
 74
     5
  7

 75
    16
147
1.0
148
0.0
149
0.0
100
AcDbLayout
  1
Layout1
 70
     1
 71
     1
 10
0.0
 20
0.0
 11
12.0
 21
9.0
 12
0.0
 22
0.0
 32
0.0
 14
1.000000000000000E+20
 24
1.000000000000000E+20
 34
1.000000000000000E+20
 15
-1.000000000000000E+20
 25
-1.000000000000000E+20
 35
-1.000000000000000E+20
146
0.0
 13
0.0
 23
0.0
 33
0.0
 16
1.0
 26
0.0
 36
0.0
 17
0.0
 27
1.0
 37
0.0
 76
     0
330
1E
331
121
  0
LAYOUT
  5
25
102
{ACAD_XDICTIONARY
360
11F5
102
}
102
{ACAD_REACTORS
330
19
102
}
330
19
100
AcDbPlotSettings
  1

  2
\\ingdom02\ITB3
  4

  6

 40
0.0
 41
0.0
 42
0.0
 43
0.0
 44
0.0
 45
0.0
 46
0.0
 47
0.0
 48
0.0
 49
0.0
140
0.0
141
0.0
142
1.0
143
1.0
 70
  1712
 72
     0
 73
     0
 74
     0
  7

 75
     0
147
1.0
148
0.0
149
0.0
100
AcDbLayout
  1
Model
 70
     1
 71
     0
 10
0.0
 20
0.0
 11
12.0
 21
9.0
 12
0.0
 22
0.0
 32
0.0
 14
0.0
 24
0.0
 34
0.0
 15
0.0
 25
0.0
 35
0.0
146
0.0
 13
0.0
 23
0.0
 33
0.0
 16
1.0
 26
0.0
 36
0.0
 17
0.0
 27
1.0
 37
0.0
 76
     0
330
22
  0
MLINESTYLE
  5
17
102
{ACAD_REACTORS
330
16
102
}
330
16
100
AcDbMlineStyle
  2
STANDARD
 70
     0
  3

 62
   256
 51
90.0
 52
90.0
 71
     2
 49
0.5
 62
   256
  6
BYLAYER
 49
-0.5
 62
   256
  6
BYLAYER
  0
ACDBPLACEHOLDER
  5
F
102
{ACAD_REACTORS
330
E
102
}
330
E
  0
TABLESTYLE
  5
1D
102
{ACAD_REACTORS
330
1C
102
}
330
1C
100
AcDbTableStyle
  3
Standard
 70
     0
 71
     0
 40
0.06
 41
0.06
280
     0
281
     0
  7
STANDARD
140
0.18
170
     2
 62
     0
 63
     7
283
     0
274
    -2
284
     1
 64
     0
275
    -2
285
     1
 65
     0
276
    -2
286
     1
 66
     0
277
    -2
287
     1
 67
     0
278
    -2
288
     1
 68
     0
279
    -2
289
     1
 69
     0
  7
STANDARD
140
0.25
170
     5
 62
     0
 63
     7
283
     0
274
    -2
284
     1
 64
     0
275
    -2
285
     1
 65
     0
276
    -2
286
     1
 66
     0
277
    -2
287
     1
 67
     0
278
    -2
288
     1
 68
     0
279
    -2
289
     1
 69
     0
  7
STANDARD
140
0.18
170
     5
 62
     0
 63
     7
283
     0
274
    -2
284
     1
 64
     0
275
    -2
285
     1
 65
     0
276
    -2
286
     1
 66
     0
277
    -2
287
     1
 67
     0
278
    -2
288
     1
 68
     0
279
    -2
289
     1
 69
     0
  0
DICTIONARYVAR
  5
3D5
102
{ACAD_REACTORS
330
3D4
102
}
330
3D4
100
DictionaryVariables
280
     0
  1
STANDARD
  0
DICTIONARYVAR
  5
3D6
102
{ACAD_REACTORS
330
3D4
102
}
330
3D4
100
DictionaryVariables
280
     0
  1
1
  0
DICTIONARYVAR
  5
3D7
102
{ACAD_REACTORS
330
3D4
102
}
330
3D4
100
DictionaryVariables
280
     0
  1

  0
DICTIONARY
  5
11F3
330
21
100
AcDbDictionary
280
     1
281
     1
  3
ACAD_XREC_ROUNDTRIP
360
11F4
  0
DICTIONARY
  5
11F5
330
25
100
AcDbDictionary
280
     1
281
     1
  3
ACAD_XREC_ROUNDTRIP
360
11F6
  0
XRECORD
  5
11F4
102
{ACAD_REACTORS
330
11F3
102
}
330
11F3
100
AcDbXrecord
280
     1
102
SHADEPLOT
 70
     0
102
SHADEPLOTRESLEVEL
 70
     2
102
SHADEPLOTCUSTOMDPI
 70
   300
  0
XRECORD
  5
11F6
102
{ACAD_REACTORS
330
11F5
102
}
330
11F5
100
AcDbXrecord
280
     1
102
SHADEPLOT
 70
     0
102
SHADEPLOTRESLEVEL
 70
     2
102
SHADEPLOTCUSTOMDPI
 70
   300
  0
ENDSEC
  0
EOF
