  0
SECTION
  2
HEADER
  9
$ACADVER
  1
AC1015
  9
$ACADMAINTVER
 70
    20
  9
$DWGCODEPAGE
  3
ANSI_1252
  9
$INSBASE
 10
0.0
 20
0.0
 30
0.0
  9
$EXTMIN
 10
-20.66868173354351
 20
-45.26622664961331
 30
0.0
  9
$EXTMAX
 10
29.33131826645649
 20
22.73377335038669
 30
0.0
  9
$LIMMIN
 10
0.0
 20
0.0
  9
$LIMMAX
 10
420.0
 20
297.0
  9
$ORTHOMODE
 70
     0
  9
$REGENMODE
 70
     1
  9
$FILLMODE
 70
     1
  9
$QTEXTMODE
 70
     0
  9
$MIRRTEXT
 70
     1
  9
$LTSCALE
 40
1.0
  9
$ATTMODE
 70
     1
  9
$TEXTSIZE
 40
0.0
  9
$TRACEWID
 40
1.0
  9
$TEXTSTYLE
  7
STANDARD
  9
$CLAYER
  8
0
  9
$CELTYPE
  6
ByLayer
  9
$CECOLOR
 62
   256
  9
$CELTSCALE
 40
1.0
  9
$DISPSILH
 70
     0
  9
$DIMSCALE
 40
1.0
  9
$DIMASZ
 40
2.5
  9
$DIMEXO
 40
0.0
  9
$DIMDLI
 40
3.75
  9
$DIMRND
 40
0.0
  9
$DIMDLE
 40
0.0
  9
$DIMEXE
 40
1.25
  9
$DIMTP
 40
0.0
  9
$DIMTM
 40
0.0
  9
$DIMTXT
 40
3.5
  9
$DIMCEN
 40
0.0
  9
$DIMTSZ
 40
0.0
  9
$DIMTOL
 70
     0
  9
$DIMLIM
 70
     0
  9
$DIMTIH
 70
     0
  9
$DIMTOH
 70
     0
  9
$DIMSE1
 70
     0
  9
$DIMSE2
 70
     0
  9
$DIMTAD
 70
     1
  9
$DIMZIN
 70
     8
  9
$DIMBLK
  1

  9
$DIMASO
 70
     1
  9
$DIMSHO
 70
     1
  9
$DIMPOST
  1

  9
$DIMAPOST
  1

  9
$DIMALT
 70
     0
  9
$DIMALTD
 70
     3
  9
$DIMALTF
 40
0.039370078
  9
$DIMLFAC
 40
1.0
  9
$DIMTOFL
 70
     0
  9
$DIMTVP
 40
0.0
  9
$DIMTIX
 70
     0
  9
$DIMSOXD
 70
     0
  9
$DIMSAH
 70
     0
  9
$DIMBLK1
  1

  9
$DIMBLK2
  1

  9
$DIMSTYLE
  2
STANDARD
  9
$DIMCLRD
 70
     0
  9
$DIMCLRE
 70
     0
  9
$DIMCLRT
 70
     0
  9
$DIMTFAC
 40
1.0
  9
$DIMGAP
 40
0.625
  9
$DIMJUST
 70
     0
  9
$DIMSD1
 70
     0
  9
$DIMSD2
 70
     0
  9
$DIMTOLJ
 70
     0
  9
$DIMTZIN
 70
     8
  9
$DIMALTZ
 70
     0
  9
$DIMALTTZ
 70
     0
  9
$DIMUPT
 70
     0
  9
$DIMDEC
 70
     2
  9
$DIMTDEC
 70
     2
  9
$DIMALTU
 70
     2
  9
$DIMALTTD
 70
     3
  9
$DIMTXSTY
  7
STANDARD
  9
$DIMAUNIT
 70
     0
  9
$DIMADEC
 70
     2
  9
$DIMALTRND
 40
0.0
  9
$DIMAZIN
 70
     2
  9
$DIMDSEP
 70
    46
  9
$DIMATFIT
 70
     3
  9
$DIMFRAC
 70
     0
  9
$DIMLDRBLK
  1

  9
$DIMLUNIT
 70
     2
  9
$DIMLWD
 70
    -2
  9
$DIMLWE
 70
    -2
  9
$DIMTMOVE
 70
     0
  9
$LUNITS
 70
     2
  9
$LUPREC
 70
     4
  9
$SKETCHINC
 40
1.0
  9
$FILLETRAD
 40
2.5
  9
$AUNITS
 70
     0
  9
$AUPREC
 70
     0
  9
$MENU
  1
.
  9
$ELEVATION
 40
0.0
  9
$PELEVATION
 40
0.0
  9
$THICKNESS
 40
0.0
  9
$LIMCHECK
 70
     0
  9
$CHAMFERA
 40
2.5
  9
$CHAMFERB
 40
2.5
  9
$CHAMFERC
 40
0.0
  9
$CHAMFERD
 40
0.0
  9
$SKPOLY
 70
     0
  9
$TDCREATE
 40
2455454.069686829
  9
$TDUCREATE
 40
2455454.028020162
  9
$TDUPDATE
 40
2457715.654796737
  9
$TDUUPDATE
 40
2457715.613130069
  9
$TDINDWG
 40
0.0071090394
  9
$TDUSRTIMER
 40
0.0071088079
  9
$USRTIMER
 70
     1
  9
$ANGBASE
 50
0.0
  9
$ANGDIR
 70
     0
  9
$PDMODE
 70
     0
  9
$PDSIZE
 40
0.0
  9
$PLINEWID
 40
0.0
  9
$SPLFRAME
 70
     0
  9
$SPLINETYPE
 70
     6
  9
$SPLINESEGS
 70
     8
  9
$HANDSEED
  5
963
  9
$SURFTAB1
 70
     6
  9
$SURFTAB2
 70
     6
  9
$SURFTYPE
 70
     6
  9
$SURFU
 70
     6
  9
$SURFV
 70
     6
  9
$UCSBASE
  2

  9
$UCSNAME
  2

  9
$UCSORG
 10
0.0
 20
0.0
 30
0.0
  9
$UCSXDIR
 10
1.0
 20
0.0
 30
0.0
  9
$UCSYDIR
 10
0.0
 20
1.0
 30
0.0
  9
$UCSORTHOREF
  2

  9
$UCSORTHOVIEW
 70
     1
  9
$UCSORGTOP
 10
0.0
 20
0.0
 30
0.0
  9
$UCSORGBOTTOM
 10
0.0
 20
0.0
 30
0.0
  9
$UCSORGLEFT
 10
0.0
 20
0.0
 30
0.0
  9
$UCSORGRIGHT
 10
0.0
 20
0.0
 30
0.0
  9
$UCSORGFRONT
 10
0.0
 20
0.0
 30
0.0
  9
$UCSORGBACK
 10
0.0
 20
0.0
 30
0.0
  9
$PUCSBASE
  2

  9
$PUCSNAME
  2

  9
$PUCSORG
 10
0.0
 20
0.0
 30
0.0
  9
$PUCSXDIR
 10
1.0
 20
0.0
 30
0.0
  9
$PUCSYDIR
 10
0.0
 20
1.0
 30
0.0
  9
$PUCSORTHOREF
  2

  9
$PUCSORTHOVIEW
 70
     0
  9
$PUCSORGTOP
 10
0.0
 20
0.0
 30
0.0
  9
$PUCSORGBOTTOM
 10
0.0
 20
0.0
 30
0.0
  9
$PUCSORGLEFT
 10
0.0
 20
0.0
 30
0.0
  9
$PUCSORGRIGHT
 10
0.0
 20
0.0
 30
0.0
  9
$PUCSORGFRONT
 10
0.0
 20
0.0
 30
0.0
  9
$PUCSORGBACK
 10
0.0
 20
0.0
 30
0.0
  9
$USERI1
 70
     0
  9
$USERI2
 70
     0
  9
$USERI3
 70
     0
  9
$USERI4
 70
     0
  9
$USERI5
 70
     0
  9
$USERR1
 40
0.0
  9
$USERR2
 40
0.0
  9
$USERR3
 40
0.0
  9
$USERR4
 40
0.0
  9
$USERR5
 40
0.0
  9
$WORLDVIEW
 70
     1
  9
$SHADEDGE
 70
     3
  9
$SHADEDIF
 70
    70
  9
$TILEMODE
 70
     1
  9
$MAXACTVP
 70
    48
  9
$PINSBASE
 10
0.0
 20
0.0
 30
0.0
  9
$PLIMCHECK
 70
     0
  9
$PEXTMIN
 10
0.0
 20
0.0
 30
0.0
  9
$PEXTMAX
 10
288.986298
 20
202.107193
 30
2.0
  9
$PLIMMIN
 10
0.0
 20
0.0
  9
$PLIMMAX
 10
420.0
 20
297.0
  9
$UNITMODE
 70
     0
  9
$VISRETAIN
 70
     0
  9
$PLINEGEN
 70
     0
  9
$PSLTSCALE
 70
     1
  9
$TREEDEPTH
 70
  3020
  9
$CMLSTYLE
  2
Standard
  9
$CMLJUST
 70
     0
  9
$CMLSCALE
 40
20.0
  9
$PROXYGRAPHICS
 70
     1
  9
$MEASUREMENT
 70
     1
  9
$CELWEIGHT
370
    -1
  9
$ENDCAPS
280
     0
  9
$JOINSTYLE
280
     0
  9
$LWDISPLAY
290
     0
  9
$INSUNITS
 70
     0
  9
$HYPERLINKBASE
  1

  9
$STYLESHEET
  1

  9
$XEDIT
290
     1
  9
$CEPSNTYPE
380
     0
  9
$PSTYLEMODE
290
     0
  9
$FINGERPRINTGUID
  2

  9
$VERSIONGUID
  2
{79517549-62FA-4A6E-8605-4FE8FAA25D69}
  9
$EXTNAMES
290
     0
  9
$PSVPSCALE
 40
0.0
  9
$OLESTARTUP
290
     0
  0
ENDSEC
  0
SECTION
  2
CLASSES
  0
CLASS
  1
IMAGE
  2
AcDbRasterImage
  3
ISM
 90
    34943
280
     0
281
     1
  0
CLASS
  1
DICTIONARYVAR
  2
AcDbDictionaryVar
  3
ObjectDBX Classes
 90
        0
280
     0
281
     0
  0
CLASS
  1
RASTERVARIABLES
  2
AcDbRasterVariables
  3
ISM
 90
    32768
280
     0
281
     0
  0
CLASS
  1
IMAGEDEF
  2
AcDbRasterImageDef
  3
ISM
 90
    32768
280
     0
281
     0
  0
CLASS
  1
IMAGEDEF_REACTOR
  2
AcDbRasterImageDefReactor
  3
ISM
 90
    32769
280
     0
281
     0
  0
CLASS
  1
IDBUFFER
  2
AcDbIdBuffer
  3
ObjectDBX Classes
 90
    32768
280
     0
281
     0
  0
CLASS
  1
SPATIAL_FILTER
  2
AcDbSpatialFilter
  3
ObjectDBX Classes
 90
    32768
280
     0
281
     0
  0
CLASS
  1
SORTENTSTABLE
  2
AcDbSortentsTable
  3
ObjectDBX Classes
 90
        0
280
     0
281
     0
  0
CLASS
  1
LAYER_INDEX
  2
AcDbLayerIndex
  3
ObjectDBX Classes
 90
    32768
280
     0
281
     0
  0
CLASS
  1
SPATIAL_INDEX
  2
AcDbSpatialIndex
  3
ObjectDBX Classes
 90
    32768
280
     0
281
     0
  0
CLASS
  1
OBJECT_PTR
  2
CAseDLPNTableRecord
  3
ASE-LPNTableRecord
 90
    32769
280
     0
281
     0
  0
CLASS
  1
LAYOUT
  2
AcDbLayout
  3
ObjectDBX Classes
 90
        0
280
     0
281
     0
  0
CLASS
  1
PLOTSETTINGS
  2
AcDbPlotSettings
  3
ObjectDBX Classes
 90
    32768
280
     0
281
     0
  0
CLASS
  1
ACDBDICTIONARYWDFLT
  2
AcDbDictionaryWithDefault
  3
ObjectDBX Classes
 90
        0
280
     0
281
     0
  0
CLASS
  1
ACDBPLACEHOLDER
  2
AcDbPlaceHolder
  3
ObjectDBX Classes
 90
        0
280
     0
281
     0
  0
CLASS
  1
VBA_PROJECT
  2
AcDbVbaProject
  3
acad
 90
    32768
280
     0
281
     0
  0
CLASS
  1
WIPEOUT
  2
AcDbWipeout
  3
WipeOut|Product Desc: Object Enabler for WipeOut entity | Company: Autodesk, Inc. | WEB Address: www.autodesk.com
 90
    34943
280
     0
281
     1
  0
CLASS
  1
WIPEOUTVARIABLES
  2
AcDbWipeoutVariables
  3
"WipeOut|Product Desc:     WipeOut Dbx Application|Company:          Autodesk, Inc.|WEB Address:      www.autodesk.com"
 90
        0
280
     0
281
     0
  0
CLASS
  1
RTEXT
  2
RText
  3
RText|AutoCAD Express Tool|expresstools@autodesk.com
 90
    32768
280
     0
281
     1
  0
CLASS
  1
ARCALIGNEDTEXT
  2
AcDbArcAlignedText
  3
ATEXT|AutoCAD Express Tool|expresstools@autodesk.com
 90
    32768
280
     0
281
     1
  0
CLASS
  1
MATERIAL
  2
AcDbMaterial
  3
ObjectDBX Classes
 90
     1153
280
     0
281
     0
  0
CLASS
  1
VISUALSTYLE
  2
AcDbVisualStyle
  3
ObjectDBX Classes
 90
     4095
280
     0
281
     0
  0
CLASS
  1
TABLESTYLE
  2
AcDbTableStyle
  3
ObjectDBX Classes
 90
     4095
280
     0
281
     0
  0
CLASS
  1
SCALE
  2
AcDbScale
  3
ObjectDBX Classes
 90
     1153
280
     0
281
     0
  0
CLASS
  1
MLEADERSTYLE
  2
AcDbMLeaderStyle
  3
ACDB_MLEADERSTYLE_CLASS
 90
     4095
280
     0
281
     0
  0
CLASS
  1
CELLSTYLEMAP
  2
AcDbCellStyleMap
  3
ObjectDBX Classes
 90
     1152
280
     0
281
     0
  0
CLASS
  1
ACDBSECTIONVIEWSTYLE
  2
AcDbSectionViewStyle
  3
ObjectDBX Classes
 90
     1025
280
     0
281
     0
  0
CLASS
  1
ACDBDETAILVIEWSTYLE
  2
AcDbDetailViewStyle
  3
ObjectDBX Classes
 90
     1025
280
     0
281
     0
  0
ENDSEC
  0
SECTION
  2
TABLES
  0
TABLE
  2
VPORT
  5
7
330
0
100
AcDbSymbolTable
 70
     1
  0
VPORT
  5
15
330
7
100
AcDbSymbolTableRecord
100
AcDbViewportTableRecord
  2
*ACTIVE
 70
     0
 10
0.0
 20
0.0
 11
1.0
 21
1.0
 12
4.334537624208806
 22
-8.66428335500241
 13
0.0
 23
0.0
 14
1.0
 24
1.0
 15
0.0
 25
0.0
 16
0.0
 26
0.0
 36
1.0
 17
0.0
 27
0.0
 37
0.0
 40
67.9913601384482
 41
2.336194563662374
 42
50.0
 43
0.0
 44
0.0
 50
0.0
 51
0.0
 71
     0
 72
   100
 73
     1
 74
     3
 75
     0
 76
     0
 77
     0
 78
     0
281
     0
 65
     0
110
0.0
120
0.0
130
0.0
111
1.0
121
0.0
131
0.0
112
0.0
122
1.0
132
0.0
 79
     0
146
0.0
1001
ACAD_NAV_VCDISPLAY
1070
     3
  0
ENDTAB
  0
TABLE
  2
LTYPE
  5
4
330
0
100
AcDbSymbolTable
 70
     2
  0
LTYPE
  5
11
330
4
100
AcDbSymbolTableRecord
100
AcDbLinetypeTableRecord
  2
ByBlock
 70
     0
  3

 72
    65
 73
     0
 40
0.0
  0
LTYPE
  5
12
330
4
100
AcDbSymbolTableRecord
100
AcDbLinetypeTableRecord
  2
ByLayer
 70
     0
  3

 72
    65
 73
     0
 40
0.0
  0
LTYPE
  5
13
330
4
100
AcDbSymbolTableRecord
100
AcDbLinetypeTableRecord
  2
Continuous
 70
     0
  3
Solid line
 72
    65
 73
     0
 40
0.0
  0
LTYPE
  5
422
330
4
100
AcDbSymbolTableRecord
100
AcDbLinetypeTableRecord
  2
CENTER2
 70
     0
  3
Center (.5x) ___ _ ___ _ ___ _ ___ _ ___ _ ___
 72
    65
 73
     4
 40
28.575
 49
19.05
 74
     0
 49
-3.174999999999998
 74
     0
 49
3.174999999999998
 74
     0
 49
-3.174999999999998
 74
     0
  0
ENDTAB
  0
TABLE
  2
LAYER
  5
2
102
{ACAD_XDICTIONARY
360
451
102
}
330
0
100
AcDbSymbolTable
 70
     8
  0
LAYER
  5
14
102
{ACAD_XDICTIONARY
360
560
102
}
330
2
100
AcDbSymbolTableRecord
100
AcDbLayerTableRecord
  2
0
 70
     0
 62
     7
  6
Continuous
370
    13
390
1D
  0
LAYER
  5
425
102
{ACAD_XDICTIONARY
360
426
102
}
330
2
100
AcDbSymbolTableRecord
100
AcDbLayerTableRecord
  2
1
 70
     0
 62
     4
  6
Continuous
370
    50
390
1D
  0
LAYER
  5
427
102
{ACAD_XDICTIONARY
360
428
102
}
330
2
100
AcDbSymbolTableRecord
100
AcDbLayerTableRecord
  2
2
 70
     0
 62
     7
  6
Continuous
370
    25
390
1D
  0
LAYER
  5
42D
102
{ACAD_XDICTIONARY
360
42E
102
}
330
2
100
AcDbSymbolTableRecord
100
AcDbLayerTableRecord
  2
4
 70
     0
 62
     2
  6
CENTER2
370
    25
390
1D
  0
LAYER
  5
431
102
{ACAD_XDICTIONARY
360
432
102
}
330
2
100
AcDbSymbolTableRecord
100
AcDbLayerTableRecord
  2
SK6
 70
     0
 62
     5
  6
Continuous
370
    -3
390
1D
  0
LAYER
  5
437
102
{ACAD_XDICTIONARY
360
438
102
}
330
2
100
AcDbSymbolTableRecord
100
AcDbLayerTableRecord
  2
INFTOTAL
 70
     0
 62
     9
  6
Continuous
370
    18
390
1D
1001
AcAecLayerStandard
1000

1000

  0
LAYER
  5
43C
330
2
100
AcDbSymbolTableRecord
100
AcDbLayerTableRecord
  2
Defpoints
 70
     0
 62
     7
  6
Continuous
290
     0
370
    -3
390
1D
  0
LAYER
  5
6AE
330
2
100
AcDbSymbolTableRecord
100
AcDbLayerTableRecord
  2
CUT
 70
     0
 62
     1
  6
Continuous
370
    13
390
1D
1001
AcAecLayerStandard
1000

1000

1001
AcCmTransparency
1071
        0
  0
ENDTAB
  0
TABLE
  2
STYLE
  5
3
330
0
100
AcDbSymbolTable
 70
     1
  0
STYLE
  5
17
330
3
100
AcDbSymbolTableRecord
100
AcDbTextStyleTableRecord
  2
STANDARD
 70
     0
 40
0.0
 41
1.0
 50
0.0
 71
     0
 42
0.0
  3
monos.ttf
  4

1001
ACAD
1000
Monospac821 BT
1071
       49
  0
ENDTAB
  0
TABLE
  2
VIEW
  5
5
330
0
100
AcDbSymbolTable
 70
     0
  0
ENDTAB
  0
TABLE
  2
UCS
  5
6
330
0
100
AcDbSymbolTable
 70
     0
  0
ENDTAB
  0
TABLE
  2
APPID
  5
8
330
0
100
AcDbSymbolTable
 70
    21
  0
APPID
  5
16
330
8
100
AcDbSymbolTableRecord
100
AcDbRegAppTableRecord
  2
ACAD
 70
     0
  0
APPID
  5
43F
330
8
100
AcDbSymbolTableRecord
100
AcDbRegAppTableRecord
  2
ACAD_PSEXT
 70
     0
  0
APPID
  5
440
330
8
100
AcDbSymbolTableRecord
100
AcDbRegAppTableRecord
  2
ACAD_EXEMPT_FROM_CAD_STANDARDS
 70
     0
  0
APPID
  5
441
330
8
100
AcDbSymbolTableRecord
100
AcDbRegAppTableRecord
  2
ACAD_MLEADERVER
 70
     0
  0
APPID
  5
442
330
8
100
AcDbSymbolTableRecord
100
AcDbRegAppTableRecord
  2
ACAD_DSTYLE_DIMJAG
 70
     0
  0
APPID
  5
443
330
8
100
AcDbSymbolTableRecord
100
AcDbRegAppTableRecord
  2
ACAD_DSTYLE_DIMBREAK
 70
     0
  0
APPID
  5
444
330
8
100
AcDbSymbolTableRecord
100
AcDbRegAppTableRecord
  2
ACAD_DSTYLE_DIMTALN
 70
     0
  0
APPID
  5
445
330
8
100
AcDbSymbolTableRecord
100
AcDbRegAppTableRecord
  2
AcAecLayerStandard
 70
     0
  0
APPID
  5
446
330
8
100
AcDbSymbolTableRecord
100
AcDbRegAppTableRecord
  2
DCO15
 70
     0
  0
APPID
  5
447
330
8
100
AcDbSymbolTableRecord
100
AcDbRegAppTableRecord
  2
AcadAnnoPO
 70
     0
  0
APPID
  5
448
330
8
100
AcDbSymbolTableRecord
100
AcDbRegAppTableRecord
  2
ACAD_DSTYLE_DIMRADIAL_EXTENSION
 70
     0
  0
APPID
  5
449
330
8
100
AcDbSymbolTableRecord
100
AcDbRegAppTableRecord
  2
ACAD_DSTYLE_DIMTEXT_FILL
 70
     0
  0
APPID
  5
44A
330
8
100
AcDbSymbolTableRecord
100
AcDbRegAppTableRecord
  2
ACAD_DSTYLE_DIMEXT_LENGTH
 70
     0
  0
APPID
  5
44B
330
8
100
AcDbSymbolTableRecord
100
AcDbRegAppTableRecord
  2
ACAD_DSTYLE_DIMEXT_ENABLED
 70
     0
  0
APPID
  5
44C
330
8
100
AcDbSymbolTableRecord
100
AcDbRegAppTableRecord
  2
ACAD_DSTYLE_DIM_LINETYPE
 70
     0
  0
APPID
  5
44D
330
8
100
AcDbSymbolTableRecord
100
AcDbRegAppTableRecord
  2
ACAD_DSTYLE_DIM_EXT1_LINETYPE
 70
     0
  0
APPID
  5
44E
330
8
100
AcDbSymbolTableRecord
100
AcDbRegAppTableRecord
  2
ACAD_DSTYLE_DIM_EXT2_LINETYPE
 70
     0
  0
APPID
  5
44F
330
8
100
AcDbSymbolTableRecord
100
AcDbRegAppTableRecord
  2
ACAD_DSTYLE_DIMJOGGED_JOGANGLE_SYMBOL
 70
     0
  0
APPID
  5
450
330
8
100
AcDbSymbolTableRecord
100
AcDbRegAppTableRecord
  2
ACAD_DSTYLE_DIMARC_LENGTH_SYMBOL
 70
     0
  0
APPID
  5
632
330
8
100
AcDbSymbolTableRecord
100
AcDbRegAppTableRecord
  2
ACAD_NAV_VCDISPLAY
 70
     0
  0
APPID
  5
6AF
330
8
100
AcDbSymbolTableRecord
100
AcDbRegAppTableRecord
  2
AcCmTransparency
 70
     0
  0
ENDTAB
  0
TABLE
  2
DIMSTYLE
  5
9
330
0
100
AcDbSymbolTable
 70
     1
100
AcDbDimStyleTable
 71
     1
340
43D
  0
DIMSTYLE
105
43D
102
{ACAD_REACTORS
330
7D8
330
7D9
330
7DA
330
7A7
102
}
330
9
100
AcDbSymbolTableRecord
100
AcDbDimStyleTableRecord
  2
STANDARD
 70
     0
 41
2.5
 42
0.0
 43
3.75
 44
1.25
 73
     0
 74
     0
 77
     1
 78
     8
 79
     2
140
3.5
141
0.0
143
0.039370078
147
0.625
171
     3
179
     2
271
     2
272
     2
274
     3
283
     0
284
     8
340
17
1001
ACAD_DSTYLE_DIMJAG
1070
   388
1040
1.5
1001
ACAD_DSTYLE_DIMTALN
1070
   392
1070
     0
  0
ENDTAB
  0
TABLE
  2
BLOCK_RECORD
  5
1
330
0
100
AcDbSymbolTable
 70
    12
  0
BLOCK_RECORD
  5
A
102
{ACAD_XDICTIONARY
360
469
102
}
330
1
100
AcDbSymbolTableRecord
100
AcDbBlockTableRecord
  2
*MODEL_SPACE
340
20
  0
BLOCK_RECORD
  5
B
330
1
100
AcDbSymbolTableRecord
100
AcDbBlockTableRecord
  2
*PAPER_SPACE
340
21
  0
BLOCK_RECORD
  5
27
330
1
100
AcDbSymbolTableRecord
100
AcDbBlockTableRecord
  2
*D0
340
0
  0
BLOCK_RECORD
  5
46D
330
1
100
AcDbSymbolTableRecord
100
AcDbBlockTableRecord
  2
*D1
340
0
  0
BLOCK_RECORD
  5
489
330
1
100
AcDbSymbolTableRecord
100
AcDbBlockTableRecord
  2
*D2
340
0
  0
BLOCK_RECORD
  5
4B3
330
1
100
AcDbSymbolTableRecord
100
AcDbBlockTableRecord
  2
*D3
340
0
  0
BLOCK_RECORD
  5
735
330
1
100
AcDbSymbolTableRecord
100
AcDbBlockTableRecord
  2
*D4
340
0
  0
BLOCK_RECORD
  5
741
330
1
100
AcDbSymbolTableRecord
100
AcDbBlockTableRecord
  2
*D5
340
0
  0
BLOCK_RECORD
  5
74E
330
1
100
AcDbSymbolTableRecord
100
AcDbBlockTableRecord
  2
*D6
340
0
  0
BLOCK_RECORD
  5
75E
330
1
100
AcDbSymbolTableRecord
100
AcDbBlockTableRecord
  2
*D7
340
0
  0
BLOCK_RECORD
  5
7DD
330
1
100
AcDbSymbolTableRecord
100
AcDbBlockTableRecord
  2
*D8
340
0
  0
BLOCK_RECORD
  5
7E9
330
1
100
AcDbSymbolTableRecord
100
AcDbBlockTableRecord
  2
*D9
340
0
  0
BLOCK_RECORD
  5
7F6
330
1
100
AcDbSymbolTableRecord
100
AcDbBlockTableRecord
  2
*D10
340
0
  0
BLOCK_RECORD
  5
803
330
1
100
AcDbSymbolTableRecord
100
AcDbBlockTableRecord
  2
*D11
340
0
  0
ENDTAB
  0
ENDSEC
  0
SECTION
  2
BLOCKS
  0
BLOCK
  5
D
330
A
100
AcDbEntity
  8
0
100
AcDbBlockBegin
  2
*MODEL_SPACE
 70
     0
 10
0.0
 20
0.0
 30
0.0
  3
*MODEL_SPACE
  1

  0
ENDBLK
  5
E
330
A
100
AcDbEntity
  8
0
100
AcDbBlockEnd
  0
BLOCK
  5
F
330
B
100
AcDbEntity
 67
     1
  8
0
100
AcDbBlockBegin
  2
*PAPER_SPACE
 70
     0
 10
0.0
 20
0.0
 30
0.0
  3
*PAPER_SPACE
  1

  0
ENDBLK
  5
10
330
B
100
AcDbEntity
 67
     1
  8
0
100
AcDbBlockEnd
  0
BLOCK
  5
43
330
27
100
AcDbEntity
  8
0
370
     0
100
AcDbBlockBegin
  2
*D0
 70
     1
 10
0.0
 20
0.0
 30
0.0
  3
*D0
  1

  0
LINE
  5
536
330
27
100
AcDbEntity
  8
2
 62
     0
370
    -2
100
AcDbLine
 10
0.0
 20
0.9766549999999936
 30
0.0
 11
-0.000000000000004
 21
-19.92627438981014
 31
0.0
  0
LINE
  5
537
330
27
100
AcDbEntity
  8
2
 62
     0
370
    -2
100
AcDbLine
 10
0.4379699999999789
 20
-0.6578590000000304
 30
0.0
 11
5.410071744675016
 21
-19.21402607222507
 31
0.0
  0
ARC
  5
538
330
27
100
AcDbEntity
  8
2
 62
     0
370
    -2
100
AcDbCircle
 10
-0.0000000000000001
 20
0.9766699999999847
 30
0.0
 40
19.65294438981014
100
AcDbArc
 50
262.706629616191
 51
270.0
  0
LINE
  5
539
330
27
100
AcDbEntity
  8
2
 62
     0
370
    -2
100
AcDbLine
 10
-2.494938086920869
 20
-18.51726513714976
 30
0.0
 11
-11.3564229073515
 21
-17.38312491201735
 31
0.0
  0
ARC
  5
53A
330
27
100
AcDbEntity
  8
2
 62
     0
370
    -2
100
AcDbCircle
 10
-0.0000000000000001
 20
0.9766699999999847
 30
0.0
 40
19.65294438981014
100
AcDbArc
 50
277.293370383809
 51
277.7066058867171
  0
SOLID
  5
53B
330
27
100
AcDbEntity
  8
2
 62
     0
100
AcDbTrace
 10
2.521439629030933
 20
-18.93308815163656
 30
0.0
 11
2.468436544810803
 21
-18.10144212266295
 31
0.0
 12
-0.0000000000000036
 22
-18.67627438981014
 32
0.0
 13
-0.0000000000000036
 23
-18.67627438981014
 33
0.0
  0
SOLID
  5
53C
330
27
100
AcDbEntity
  8
2
 62
     0
100
AcDbTrace
 10
2.553444256050909
 20
-18.09025066307239
 30
0.0
 11
2.717492700834305
 21
-18.90727731637607
 31
0.0
 12
5.086548438353612
 22
-18.00661865537404
 32
0.0
 13
5.086548438353612
 23
-18.00661865537404
 33
0.0
  0
MTEXT
  5
53D
102
{ACAD_XDICTIONARY
360
612
102
}
330
27
100
AcDbEntity
  8
2
 62
     0
100
AcDbMText
 10
-6.616368512863529
 20
-15.53341851611485
 30
0.0
 40
3.5
 41
0.0
 71
     5
 72
     1
  1
15\U+00B0
 11
0.9919091384218825
 21
-0.1269498370032773
 31
0.0
 73
     1
 44
1.0
1001
ACAD
1000
MTEXTBEGIN
1070
    73
1070
     1
1070
    44
1040
1.0
1070
    74
1070
     0
1000
MTEXTEND
  0
POINT
  5
53E
330
27
100
AcDbEntity
  8
Defpoints
 62
     0
100
AcDbPoint
 10
3.412692635241683
 20
-18.37770294686494
 30
0.0
  0
POINT
  5
53F
330
27
100
AcDbEntity
  8
Defpoints
 62
     0
100
AcDbPoint
 10
0.0
 20
0.9766699999999843
 30
0.0
  0
POINT
  5
540
330
27
100
AcDbEntity
  8
Defpoints
 62
     0
100
AcDbPoint
 10
0.0
 20
5.889905999999996
 30
0.0
  0
POINT
  5
541
330
27
100
AcDbEntity
  8
Defpoints
 62
     0
100
AcDbPoint
 10
0.0
 20
0.9766549999999936
 30
0.0
  0
POINT
  5
542
330
27
100
AcDbEntity
  8
Defpoints
 62
     0
100
AcDbPoint
 10
0.4379699999999789
 20
-0.6578590000000304
 30
0.0
  0
ENDBLK
  5
53
330
27
100
AcDbEntity
  8
0
100
AcDbBlockEnd
  0
BLOCK
  5
46E
330
46D
100
AcDbEntity
  8
0
100
AcDbBlockBegin
  2
*D1
 70
     1
 10
0.0
 20
0.0
 30
0.0
  3
*D1
  1

  0
LINE
  5
543
330
46D
100
AcDbEntity
  8
2
 62
     0
370
    -2
100
AcDbLine
 10
-0.000000750225297
 20
0.9766554880104363
 30
0.0
 11
-0.0000007502252962
 21
13.76728299999999
 31
0.0
  0
LINE
  5
544
330
46D
100
AcDbEntity
  8
2
 62
     0
370
    -2
100
AcDbLine
 10
19.82452701916011
 20
-0.9766564395627879
 30
0.0
 11
19.82452701916011
 21
13.76728299999999
 31
0.0
  0
LINE
  5
545
330
46D
100
AcDbEntity
  8
2
 62
     0
370
    -2
100
AcDbLine
 10
2.499999249774703
 20
12.51728299999999
 30
0.0
 11
17.32452701916011
 21
12.51728299999999
 31
0.0
  0
SOLID
  5
546
330
46D
100
AcDbEntity
  8
2
 62
     0
100
AcDbTrace
 10
2.499999249774703
 20
12.93394966666666
 30
0.0
 11
2.499999249774703
 21
12.10061633333332
 31
0.0
 12
-0.0000007502252963
 22
12.51728299999999
 32
0.0
 13
-0.0000007502252963
 23
12.51728299999999
 33
0.0
  0
SOLID
  5
547
330
46D
100
AcDbEntity
  8
2
 62
     0
100
AcDbTrace
 10
17.32452701916011
 20
12.93394966666666
 30
0.0
 11
17.32452701916011
 21
12.10061633333332
 31
0.0
 12
19.82452701916011
 22
12.51728299999999
 32
0.0
 13
19.82452701916011
 23
12.51728299999999
 33
0.0
  0
MTEXT
  5
548
330
46D
100
AcDbEntity
  8
2
 62
     0
100
AcDbMText
 10
9.912263134467409
 20
14.95377281026
 30
0.0
 40
3.5
 41
0.0
 71
     5
 72
     1
  1
19.8
 73
     1
 44
1.0
1001
ACAD
1000
MTEXTBEGIN
1070
    73
1070
     1
1070
    44
1040
1.0
1070
    74
1070
     0
1000
MTEXTEND
  0
POINT
  5
549
330
46D
100
AcDbEntity
  8
Defpoints
 62
     0
100
AcDbPoint
 10
-0.000000750225297
 20
0.9766554880104363
 30
0.0
  0
POINT
  5
54A
330
46D
100
AcDbEntity
  8
Defpoints
 62
     0
100
AcDbPoint
 10
19.82452701916011
 20
-0.9766564395627879
 30
0.0
  0
POINT
  5
54B
330
46D
100
AcDbEntity
  8
Defpoints
 62
     0
100
AcDbPoint
 10
19.82452701916011
 20
12.51728299999999
 30
0.0
  0
ENDBLK
  5
46F
330
46D
100
AcDbEntity
  8
0
100
AcDbBlockEnd
  0
BLOCK
  5
48A
330
489
100
AcDbEntity
  8
0
100
AcDbBlockBegin
  2
*D2
 70
     1
 10
0.0
 20
0.0
 30
0.0
  3
*D2
  1

  0
LINE
  5
54C
330
489
100
AcDbEntity
  8
2
 62
     0
370
    -2
100
AcDbLine
 10
17.66028
 20
0.8499999999999943
 30
0.0
 11
14.52375899999998
 21
0.8499999999999952
 31
0.0
  0
LINE
  5
54D
330
489
100
AcDbEntity
  8
2
 62
     0
370
    -2
100
AcDbLine
 10
17.66028
 20
-0.8500000000000227
 30
0.0
 11
14.52375899999998
 21
-0.8500000000000218
 31
0.0
  0
LINE
  5
54E
330
489
100
AcDbEntity
  8
2
 62
     0
370
    -2
100
AcDbLine
 10
15.77375899999998
 20
3.349999999999993
 30
0.0
 11
15.77375899999998
 21
5.849999999999994
 31
0.0
  0
LINE
  5
54F
330
489
100
AcDbEntity
  8
2
 62
     0
370
    -2
100
AcDbLine
 10
15.77375899999998
 20
-3.350000000000021
 30
0.0
 11
15.77375899999998
 21
-15.29044272663389
 31
0.0
  0
SOLID
  5
550
330
489
100
AcDbEntity
  8
2
 62
     0
100
AcDbTrace
 10
15.35709233333332
 20
3.349999999999993
 30
0.0
 11
16.19042566666665
 21
3.349999999999993
 31
0.0
 12
15.77375899999998
 22
0.8499999999999946
 32
0.0
 13
15.77375899999998
 23
0.8499999999999946
 33
0.0
  0
SOLID
  5
551
330
489
100
AcDbEntity
  8
2
 62
     0
100
AcDbTrace
 10
15.35709233333332
 20
-3.350000000000021
 30
0.0
 11
16.19042566666665
 21
-3.350000000000021
 31
0.0
 12
15.77375899999998
 22
-0.8500000000000223
 32
0.0
 13
15.77375899999998
 23
-0.8500000000000223
 33
0.0
  0
MTEXT
  5
552
330
489
100
AcDbEntity
  8
2
 62
     0
100
AcDbMText
 10
13.38769083415318
 20
-10.57022136331695
 30
0.0
 40
3.5
 41
0.0
 71
     5
 72
     1
  1
1.7
 11
0.0000000000000001
 21
1.0
 31
0.0
 73
     1
 44
1.0
1001
ACAD
1000
MTEXTBEGIN
1070
    73
1070
     1
1070
    44
1040
1.0
1070
    74
1070
     0
1000
MTEXTEND
  0
POINT
  5
553
330
489
100
AcDbEntity
  8
Defpoints
 62
     0
100
AcDbPoint
 10
17.66028
 20
0.8499999999999943
 30
0.0
  0
POINT
  5
554
330
489
100
AcDbEntity
  8
Defpoints
 62
     0
100
AcDbPoint
 10
17.66028
 20
-0.8500000000000227
 30
0.0
  0
POINT
  5
555
330
489
100
AcDbEntity
  8
Defpoints
 62
     0
100
AcDbPoint
 10
15.77375899999998
 20
-0.8500000000000223
 30
0.0
  0
ENDBLK
  5
48B
330
489
100
AcDbEntity
  8
0
100
AcDbBlockEnd
  0
BLOCK
  5
4B4
330
4B3
100
AcDbEntity
  8
0
100
AcDbBlockBegin
  2
*D3
 70
     1
 10
0.0
 20
0.0
 30
0.0
  3
*D3
  1

  0
LINE
  5
556
330
4B3
100
AcDbEntity
  8
2
 62
     0
370
    -2
100
AcDbLine
 10
0.0953370000000007
 20
0.9999919999999915
 30
0.0
 11
-10.257948
 21
0.9999919999999947
 31
0.0
  0
LINE
  5
557
330
4B3
100
AcDbEntity
  8
2
 62
     0
370
    -2
100
AcDbLine
 10
0.5274807137458595
 20
-0.9847082245474323
 30
0.0
 11
-10.257948
 21
-0.9847082245474291
 31
0.0
  0
LINE
  5
558
330
4B3
100
AcDbEntity
  8
2
 62
     0
370
    -2
100
AcDbLine
 10
-9.007947999999997
 20
3.499991999999993
 30
0.0
 11
-9.007947999999997
 21
5.999991999999994
 31
0.0
  0
LINE
  5
559
330
4B3
100
AcDbEntity
  8
2
 62
     0
370
    -2
100
AcDbLine
 10
-9.007947999999997
 20
-3.484708224547428
 30
0.0
 11
-9.007947999999997
 21
-9.637730009508779
 31
0.0
  0
SOLID
  5
55A
330
4B3
100
AcDbEntity
  8
2
 62
     0
100
AcDbTrace
 10
-9.424614666666663
 20
3.499991999999993
 30
0.0
 11
-8.591281333333332
 21
3.499991999999993
 31
0.0
 12
-9.007947999999997
 22
0.9999919999999942
 32
0.0
 13
-9.007947999999997
 23
0.9999919999999942
 33
0.0
  0
SOLID
  5
55B
330
4B3
100
AcDbEntity
  8
2
 62
     0
100
AcDbTrace
 10
-9.424614666666663
 20
-3.484708224547428
 30
0.0
 11
-8.591281333333332
 21
-3.484708224547428
 31
0.0
 12
-9.007947999999997
 22
-0.98470822454743
 32
0.0
 13
-9.007947999999997
 23
-0.98470822454743
 33
0.0
  0
MTEXT
  5
55C
330
4B3
100
AcDbEntity
  8
2
 62
     0
100
AcDbMText
 10
-11.3940161658468
 20
-7.811219117028104
 30
0.0
 40
3.5
 41
0.0
 71
     5
 72
     1
  1
2
 11
0.0000000000000001
 21
1.0
 31
0.0
 73
     1
 44
1.0
1001
ACAD
1000
MTEXTBEGIN
1070
    73
1070
     1
1070
    44
1040
1.0
1070
    74
1070
     0
1000
MTEXTEND
  0
POINT
  5
55D
330
4B3
100
AcDbEntity
  8
Defpoints
 62
     0
100
AcDbPoint
 10
0.0953370000000007
 20
0.9999919999999915
 30
0.0
  0
POINT
  5
55E
330
4B3
100
AcDbEntity
  8
Defpoints
 62
     0
100
AcDbPoint
 10
0.5274807137458595
 20
-0.9847082245474323
 30
0.0
  0
POINT
  5
55F
330
4B3
100
AcDbEntity
  8
Defpoints
 62
     0
100
AcDbPoint
 10
-9.007947999999997
 20
-0.98470822454743
 30
0.0
  0
ENDBLK
  5
4B5
330
4B3
100
AcDbEntity
  8
0
100
AcDbBlockEnd
  0
BLOCK
  5
736
330
735
100
AcDbEntity
  8
0
100
AcDbBlockBegin
  2
*D4
 70
     1
 10
0.0
 20
0.0
 30
0.0
  3
*D4
  1

  0
LINE
  5
737
330
735
100
AcDbEntity
  8
2
 62
     0
370
    -2
100
AcDbLine
 10
-0.0000007502252785
 20
54.44420218878381
 30
0.0
 11
-0.0000007502252778
 21
67.23482970077334
 31
0.0
  0
LINE
  5
738
330
735
100
AcDbEntity
  8
2
 62
     0
370
    -2
100
AcDbLine
 10
19.82452701916012
 20
52.49089026121056
 30
0.0
 11
19.82452701916012
 21
67.23482970077334
 31
0.0
  0
LINE
  5
739
330
735
100
AcDbEntity
  8
2
 62
     0
370
    -2
100
AcDbLine
 10
2.49999924977472
 20
65.98482970077334
 30
0.0
 11
17.32452701916012
 21
65.98482970077334
 31
0.0
  0
SOLID
  5
73A
330
735
100
AcDbEntity
  8
2
 62
     0
100
AcDbTrace
 10
2.49999924977472
 20
66.40149636744002
 30
0.0
 11
2.49999924977472
 21
65.56816303410667
 31
0.0
 12
-0.0000007502252778
 22
65.98482970077334
 32
0.0
 13
-0.0000007502252778
 23
65.98482970077334
 33
0.0
  0
SOLID
  5
73B
330
735
100
AcDbEntity
  8
2
 62
     0
100
AcDbTrace
 10
17.32452701916012
 20
66.40149636744002
 30
0.0
 11
17.32452701916012
 21
65.56816303410667
 31
0.0
 12
19.82452701916012
 22
65.98482970077334
 32
0.0
 13
19.82452701916012
 23
65.98482970077334
 33
0.0
  0
MTEXT
  5
73C
330
735
100
AcDbEntity
  8
2
 62
     0
100
AcDbMText
 10
9.912263134467425
 20
68.42131951103336
 30
0.0
 40
3.5
 41
0.0
 71
     5
 72
     1
  1
19.8
 73
     1
 44
1.0
1001
ACAD
1000
MTEXTBEGIN
1070
    73
1070
     1
1070
    44
1040
1.0
1070
    74
1070
     0
1000
MTEXTEND
  0
POINT
  5
73D
330
735
100
AcDbEntity
  8
Defpoints
 62
     0
100
AcDbPoint
 10
-0.0000007502252785
 20
54.44420218878381
 30
0.0
  0
POINT
  5
73E
330
735
100
AcDbEntity
  8
Defpoints
 62
     0
100
AcDbPoint
 10
19.82452701916012
 20
52.49089026121056
 30
0.0
  0
POINT
  5
73F
330
735
100
AcDbEntity
  8
Defpoints
 62
     0
100
AcDbPoint
 10
19.82452701916012
 20
65.98482970077334
 30
0.0
  0
ENDBLK
  5
740
330
735
100
AcDbEntity
  8
0
100
AcDbBlockEnd
  0
BLOCK
  5
742
330
741
100
AcDbEntity
  8
0
100
AcDbBlockBegin
  2
*D5
 70
     1
 10
0.0
 20
0.0
 30
0.0
  3
*D5
  1

  0
LINE
  5
743
330
741
100
AcDbEntity
  8
2
 62
     0
370
    -2
100
AcDbLine
 10
17.66028000000002
 20
54.31754670077335
 30
0.0
 11
14.523759
 21
54.31754670077335
 31
0.0
  0
LINE
  5
744
330
741
100
AcDbEntity
  8
2
 62
     0
370
    -2
100
AcDbLine
 10
17.66028000000002
 20
52.61754670077332
 30
0.0
 11
14.523759
 21
52.61754670077332
 31
0.0
  0
LINE
  5
745
330
741
100
AcDbEntity
  8
2
 62
     0
370
    -2
100
AcDbLine
 10
15.773759
 20
56.81754670077335
 30
0.0
 11
15.773759
 21
59.31754670077335
 31
0.0
  0
LINE
  5
746
330
741
100
AcDbEntity
  8
2
 62
     0
370
    -2
100
AcDbLine
 10
15.773759
 20
50.11754670077332
 30
0.0
 11
15.77375899999999
 21
38.17710397413947
 31
0.0
  0
SOLID
  5
747
330
741
100
AcDbEntity
  8
2
 62
     0
100
AcDbTrace
 10
15.35709233333333
 20
56.81754670077335
 30
0.0
 11
16.19042566666666
 21
56.81754670077335
 31
0.0
 12
15.773759
 22
54.31754670077335
 32
0.0
 13
15.773759
 23
54.31754670077335
 33
0.0
  0
SOLID
  5
748
330
741
100
AcDbEntity
  8
2
 62
     0
100
AcDbTrace
 10
15.35709233333333
 20
50.11754670077332
 30
0.0
 11
16.19042566666666
 21
50.11754670077332
 31
0.0
 12
15.773759
 22
52.61754670077332
 32
0.0
 13
15.773759
 23
52.61754670077332
 33
0.0
  0
MTEXT
  5
749
330
741
100
AcDbEntity
  8
2
 62
     0
100
AcDbMText
 10
13.38769083415318
 20
42.8973253374564
 30
0.0
 40
3.5
 41
0.0
 71
     5
 72
     1
  1
1.7
 11
0.0000000000000001
 21
1.0
 31
0.0
 73
     1
 44
1.0
1001
ACAD
1000
MTEXTBEGIN
1070
    73
1070
     1
1070
    44
1040
1.0
1070
    74
1070
     0
1000
MTEXTEND
  0
POINT
  5
74A
330
741
100
AcDbEntity
  8
Defpoints
 62
     0
100
AcDbPoint
 10
17.66028000000002
 20
54.31754670077335
 30
0.0
  0
POINT
  5
74B
330
741
100
AcDbEntity
  8
Defpoints
 62
     0
100
AcDbPoint
 10
17.66028000000002
 20
52.61754670077332
 30
0.0
  0
POINT
  5
74C
330
741
100
AcDbEntity
  8
Defpoints
 62
     0
100
AcDbPoint
 10
15.773759
 20
52.61754670077332
 30
0.0
  0
ENDBLK
  5
74D
330
741
100
AcDbEntity
  8
0
100
AcDbBlockEnd
  0
BLOCK
  5
74F
330
74E
100
AcDbEntity
  8
0
100
AcDbBlockBegin
  2
*D6
 70
     1
 10
0.0
 20
0.0
 30
0.0
  3
*D6
  1

  0
LINE
  5
750
330
74E
100
AcDbEntity
  8
2
 62
     0
370
    -2
100
AcDbLine
 10
0.0000000000000178
 20
54.44420170077336
 30
0.0
 11
-0.0000000000000036
 21
33.54127231096321
 31
0.0
  0
LINE
  5
751
330
74E
100
AcDbEntity
  8
2
 62
     0
370
    -2
100
AcDbLine
 10
0.4379699999999965
 20
52.80968770077334
 30
0.0
 11
5.410071744675016
 21
34.25352062854829
 31
0.0
  0
ARC
  5
752
330
74E
100
AcDbEntity
  8
2
 62
     0
370
    -2
100
AcDbCircle
 10
0.0000000000000187
 20
54.44421670077336
 30
0.0
 40
19.65294438981014
100
AcDbArc
 50
262.706629616191
 51
269.9999999999999
  0
LINE
  5
753
330
74E
100
AcDbEntity
  8
2
 62
     0
370
    -2
100
AcDbLine
 10
-2.494938086920869
 20
34.95028156362361
 30
0.0
 11
-11.3564229073515
 21
36.08442178875602
 31
0.0
  0
ARC
  5
754
330
74E
100
AcDbEntity
  8
2
 62
     0
370
    -2
100
AcDbCircle
 10
0.0000000000000187
 20
54.44421670077336
 30
0.0
 40
19.65294438981014
100
AcDbArc
 50
277.2933703838089
 51
277.7066058867171
  0
SOLID
  5
755
330
74E
100
AcDbEntity
  8
2
 62
     0
100
AcDbTrace
 10
2.521439629030933
 20
34.5344585491368
 30
0.0
 11
2.468436544810804
 21
35.3661045781104
 31
0.0
 12
-0.0000000000000027
 22
34.79127231096321
 32
0.0
 13
-0.0000000000000027
 23
34.79127231096321
 33
0.0
  0
SOLID
  5
756
330
74E
100
AcDbEntity
  8
2
 62
     0
100
AcDbTrace
 10
2.553444256050911
 20
35.37729603770098
 30
0.0
 11
2.717492700834305
 21
34.5602693843973
 31
0.0
 12
5.086548438353617
 22
35.46092804539932
 32
0.0
 13
5.086548438353617
 23
35.46092804539932
 33
0.0
  0
MTEXT
  5
757
102
{ACAD_XDICTIONARY
360
909
102
}
330
74E
100
AcDbEntity
  8
2
 62
     0
100
AcDbMText
 10
-6.616368512863527
 20
37.93412818465853
 30
0.0
 40
3.5
 41
0.0
 71
     5
 72
     1
  1
15\U+00B0
 11
0.9919091384218823
 21
-0.1269498370032782
 31
0.0
 73
     1
 44
1.0
1001
ACAD
1000
MTEXTBEGIN
1070
    73
1070
     1
1070
    44
1040
1.0
1070
    74
1070
     0
1000
MTEXTEND
  0
POINT
  5
758
330
74E
100
AcDbEntity
  8
Defpoints
 62
     0
100
AcDbPoint
 10
3.412692635241683
 20
35.08984375390841
 30
0.0
  0
POINT
  5
759
330
74E
100
AcDbEntity
  8
Defpoints
 62
     0
100
AcDbPoint
 10
0.0000000000000187
 20
54.44421670077336
 30
0.0
  0
POINT
  5
75A
330
74E
100
AcDbEntity
  8
Defpoints
 62
     0
100
AcDbPoint
 10
0.0000000000000222
 20
59.35745270077337
 30
0.0
  0
POINT
  5
75B
330
74E
100
AcDbEntity
  8
Defpoints
 62
     0
100
AcDbPoint
 10
0.0000000000000178
 20
54.44420170077336
 30
0.0
  0
POINT
  5
75C
330
74E
100
AcDbEntity
  8
Defpoints
 62
     0
100
AcDbPoint
 10
0.4379699999999965
 20
52.80968770077334
 30
0.0
  0
ENDBLK
  5
75D
330
74E
100
AcDbEntity
  8
0
100
AcDbBlockEnd
  0
BLOCK
  5
75F
330
75E
100
AcDbEntity
  8
0
100
AcDbBlockBegin
  2
*D7
 70
     1
 10
0.0
 20
0.0
 30
0.0
  3
*D7
  1

  0
LINE
  5
760
330
75E
100
AcDbEntity
  8
2
 62
     0
370
    -2
100
AcDbLine
 10
0.0953370000000192
 20
54.46753870077336
 30
0.0
 11
-10.25794799999998
 21
54.46753870077336
 31
0.0
  0
LINE
  5
761
330
75E
100
AcDbEntity
  8
2
 62
     0
370
    -2
100
AcDbLine
 10
0.5274807137458766
 20
52.48283847622594
 30
0.0
 11
-10.25794799999998
 21
52.48283847622594
 31
0.0
  0
LINE
  5
762
330
75E
100
AcDbEntity
  8
2
 62
     0
370
    -2
100
AcDbLine
 10
-9.007947999999981
 20
56.96753870077336
 30
0.0
 11
-9.007947999999981
 21
59.46753870077336
 31
0.0
  0
LINE
  5
763
330
75E
100
AcDbEntity
  8
2
 62
     0
370
    -2
100
AcDbLine
 10
-9.007947999999981
 20
49.98283847622594
 30
0.0
 11
-9.007947999999982
 21
43.82981669126459
 31
0.0
  0
SOLID
  5
764
330
75E
100
AcDbEntity
  8
2
 62
     0
100
AcDbTrace
 10
-9.424614666666645
 20
56.96753870077336
 30
0.0
 11
-8.591281333333311
 21
56.96753870077336
 31
0.0
 12
-9.007947999999981
 22
54.46753870077336
 32
0.0
 13
-9.007947999999981
 23
54.46753870077336
 33
0.0
  0
SOLID
  5
765
330
75E
100
AcDbEntity
  8
2
 62
     0
100
AcDbTrace
 10
-9.424614666666649
 20
49.98283847622594
 30
0.0
 11
-8.591281333333315
 21
49.98283847622594
 31
0.0
 12
-9.007947999999981
 22
52.48283847622594
 32
0.0
 13
-9.007947999999981
 23
52.48283847622594
 33
0.0
  0
MTEXT
  5
766
330
75E
100
AcDbEntity
  8
2
 62
     0
100
AcDbMText
 10
-11.39401616584679
 20
45.65632758374525
 30
0.0
 40
3.5
 41
0.0
 71
     5
 72
     1
  1
2
 11
0.0000000000000001
 21
1.0
 31
0.0
 73
     1
 44
1.0
1001
ACAD
1000
MTEXTBEGIN
1070
    73
1070
     1
1070
    44
1040
1.0
1070
    74
1070
     0
1000
MTEXTEND
  0
POINT
  5
767
330
75E
100
AcDbEntity
  8
Defpoints
 62
     0
100
AcDbPoint
 10
0.0953370000000192
 20
54.46753870077336
 30
0.0
  0
POINT
  5
768
330
75E
100
AcDbEntity
  8
Defpoints
 62
     0
100
AcDbPoint
 10
0.5274807137458766
 20
52.48283847622594
 30
0.0
  0
POINT
  5
769
330
75E
100
AcDbEntity
  8
Defpoints
 62
     0
100
AcDbPoint
 10
-9.007947999999981
 20
52.48283847622594
 30
0.0
  0
ENDBLK
  5
76A
330
75E
100
AcDbEntity
  8
0
100
AcDbBlockEnd
  0
BLOCK
  5
7DE
330
7DD
100
AcDbEntity
  8
0
100
AcDbBlockBegin
  2
*D8
 70
     1
 10
0.0
 20
0.0
 30
0.0
  3
*D8
  1

  0
LINE
  5
84A
330
7DD
100
AcDbEntity
  8
2
 62
     0
370
    -2
100
AcDbLine
 10
0.0072392707167595
 20
0.9705007364821105
 30
0.0
 11
0.0072392707167602
 21
13.76112824847165
 31
0.0
  0
LINE
  5
84B
330
7DD
100
AcDbEntity
  8
2
 62
     0
370
    -2
100
AcDbLine
 10
19.83176704010217
 20
-0.9828111910911283
 30
0.0
 11
19.83176704010217
 21
13.76112824847165
 31
0.0
  0
LINE
  5
84C
330
7DD
100
AcDbEntity
  8
2
 62
     0
370
    -2
100
AcDbLine
 10
2.507239270716759
 20
12.51112824847165
 30
0.0
 11
17.33176704010217
 21
12.51112824847165
 31
0.0
  0
SOLID
  5
84D
330
7DD
100
AcDbEntity
  8
2
 62
     0
100
AcDbTrace
 10
2.507239270716759
 20
12.92779491513831
 30
0.0
 11
2.507239270716759
 21
12.09446158180498
 31
0.0
 12
0.0072392707167602
 22
12.51112824847165
 32
0.0
 13
0.0072392707167602
 23
12.51112824847165
 33
0.0
  0
SOLID
  5
84E
330
7DD
100
AcDbEntity
  8
2
 62
     0
100
AcDbTrace
 10
17.33176704010217
 20
12.92779491513831
 30
0.0
 11
17.33176704010217
 21
12.09446158180498
 31
0.0
 12
19.83176704010217
 22
12.51112824847165
 32
0.0
 13
19.83176704010217
 23
12.51112824847165
 33
0.0
  0
MTEXT
  5
84F
330
7DD
100
AcDbEntity
  8
2
 62
     0
100
AcDbMText
 10
9.919503155409461
 20
14.94761805873166
 30
0.0
 40
3.5
 41
0.0
 71
     5
 72
     1
  1
19.8
 73
     1
 44
1.0
1001
ACAD
1000
MTEXTBEGIN
1070
    73
1070
     1
1070
    44
1040
1.0
1070
    74
1070
     0
1000
MTEXTEND
  0
POINT
  5
850
330
7DD
100
AcDbEntity
  8
Defpoints
 62
     0
100
AcDbPoint
 10
0.0072392707167595
 20
0.9705007364821105
 30
0.0
  0
POINT
  5
851
330
7DD
100
AcDbEntity
  8
Defpoints
 62
     0
100
AcDbPoint
 10
19.83176704010217
 20
-0.9828111910911283
 30
0.0
  0
POINT
  5
852
330
7DD
100
AcDbEntity
  8
Defpoints
 62
     0
100
AcDbPoint
 10
19.83176704010217
 20
12.51112824847165
 30
0.0
  0
ENDBLK
  5
7DF
330
7DD
100
AcDbEntity
  8
0
100
AcDbBlockEnd
  0
BLOCK
  5
7EA
330
7E9
100
AcDbEntity
  8
0
100
AcDbBlockBegin
  2
*D9
 70
     1
 10
0.0
 20
0.0
 30
0.0
  3
*D9
  1

  0
LINE
  5
853
330
7E9
100
AcDbEntity
  8
2
 62
     0
370
    -2
100
AcDbLine
 10
17.66752002094206
 20
0.8438452484716536
 30
0.0
 11
14.53099902094204
 21
0.8438452484716545
 31
0.0
  0
LINE
  5
854
330
7E9
100
AcDbEntity
  8
2
 62
     0
370
    -2
100
AcDbLine
 10
17.66752002094206
 20
-0.856154751528363
 30
0.0
 11
14.53099902094204
 21
-0.8561547515283621
 31
0.0
  0
LINE
  5
855
330
7E9
100
AcDbEntity
  8
2
 62
     0
370
    -2
100
AcDbLine
 10
15.78099902094204
 20
3.343845248471653
 30
0.0
 11
15.78099902094204
 21
5.843845248471652
 31
0.0
  0
LINE
  5
856
330
7E9
100
AcDbEntity
  8
2
 62
     0
370
    -2
100
AcDbLine
 10
15.78099902094204
 20
-3.356154751528361
 30
0.0
 11
15.78099902094203
 21
-15.29659747816223
 31
0.0
  0
SOLID
  5
857
330
7E9
100
AcDbEntity
  8
2
 62
     0
100
AcDbTrace
 10
15.36433235427537
 20
3.343845248471653
 30
0.0
 11
16.19766568760871
 21
3.343845248471653
 31
0.0
 12
15.78099902094204
 22
0.8438452484716542
 32
0.0
 13
15.78099902094204
 23
0.8438452484716542
 33
0.0
  0
SOLID
  5
858
330
7E9
100
AcDbEntity
  8
2
 62
     0
100
AcDbTrace
 10
15.36433235427537
 20
-3.356154751528361
 30
0.0
 11
16.19766568760871
 21
-3.356154751528361
 31
0.0
 12
15.78099902094204
 22
-0.8561547515283628
 32
0.0
 13
15.78099902094204
 23
-0.8561547515283628
 33
0.0
  0
MTEXT
  5
859
330
7E9
100
AcDbEntity
  8
2
 62
     0
100
AcDbMText
 10
13.39493085509524
 20
-10.57637611484529
 30
0.0
 40
3.5
 41
0.0
 71
     5
 72
     1
  1
1.7
 11
0.0000000000000001
 21
1.0
 31
0.0
 73
     1
 44
1.0
1001
ACAD
1000
MTEXTBEGIN
1070
    73
1070
     1
1070
    44
1040
1.0
1070
    74
1070
     0
1000
MTEXTEND
  0
POINT
  5
85A
330
7E9
100
AcDbEntity
  8
Defpoints
 62
     0
100
AcDbPoint
 10
17.66752002094206
 20
0.8438452484716536
 30
0.0
  0
POINT
  5
85B
330
7E9
100
AcDbEntity
  8
Defpoints
 62
     0
100
AcDbPoint
 10
17.66752002094206
 20
-0.856154751528363
 30
0.0
  0
POINT
  5
85C
330
7E9
100
AcDbEntity
  8
Defpoints
 62
     0
100
AcDbPoint
 10
15.78099902094204
 20
-0.8561547515283628
 30
0.0
  0
ENDBLK
  5
7EB
330
7E9
100
AcDbEntity
  8
0
100
AcDbBlockEnd
  0
BLOCK
  5
7F7
330
7F6
100
AcDbEntity
  8
0
100
AcDbBlockBegin
  2
*D10
 70
     1
 10
0.0
 20
0.0
 30
0.0
  3
*D10
  1

  0
LINE
  5
85D
330
7F6
100
AcDbEntity
  8
2
 62
     0
370
    -2
100
AcDbLine
 10
0.1025770209420571
 20
0.9938372484716655
 30
0.0
 11
-10.25070797905793
 21
0.9938372484716683
 31
0.0
  0
LINE
  5
85E
330
7F6
100
AcDbEntity
  8
2
 62
     0
370
    -2
100
AcDbLine
 10
0.534720734687916
 20
-0.9908629760757587
 30
0.0
 11
-10.25070797905793
 21
-0.9908629760757555
 31
0.0
  0
LINE
  5
85F
330
7F6
100
AcDbEntity
  8
2
 62
     0
370
    -2
100
AcDbLine
 10
-9.000707979057935
 20
3.493837248471667
 30
0.0
 11
-9.000707979057931
 21
5.993837248471667
 31
0.0
  0
LINE
  5
860
330
7F6
100
AcDbEntity
  8
2
 62
     0
370
    -2
100
AcDbLine
 10
-9.000707979057935
 20
-3.490862976075754
 30
0.0
 11
-9.000707979057937
 21
-9.643884761037103
 31
0.0
  0
SOLID
  5
861
330
7F6
100
AcDbEntity
  8
2
 62
     0
100
AcDbTrace
 10
-9.417374645724599
 20
3.493837248471667
 30
0.0
 11
-8.584041312391267
 21
3.493837248471667
 31
0.0
 12
-9.000707979057935
 22
0.9938372484716676
 32
0.0
 13
-9.000707979057935
 23
0.9938372484716676
 33
0.0
  0
SOLID
  5
862
330
7F6
100
AcDbEntity
  8
2
 62
     0
100
AcDbTrace
 10
-9.417374645724599
 20
-3.490862976075754
 30
0.0
 11
-8.584041312391267
 21
-3.490862976075756
 31
0.0
 12
-9.000707979057935
 22
-0.9908629760757559
 32
0.0
 13
-9.000707979057935
 23
-0.9908629760757559
 33
0.0
  0
MTEXT
  5
863
330
7F6
100
AcDbEntity
  8
2
 62
     0
100
AcDbMText
 10
-11.38677614490473
 20
-7.817373868556432
 30
0.0
 40
3.5
 41
0.0
 71
     5
 72
     1
  1
2
 11
0.0000000000000001
 21
1.0
 31
0.0
 73
     1
 44
1.0
1001
ACAD
1000
MTEXTBEGIN
1070
    73
1070
     1
1070
    44
1040
1.0
1070
    74
1070
     0
1000
MTEXTEND
  0
POINT
  5
864
330
7F6
100
AcDbEntity
  8
Defpoints
 62
     0
100
AcDbPoint
 10
0.1025770209420571
 20
0.9938372484716655
 30
0.0
  0
POINT
  5
865
330
7F6
100
AcDbEntity
  8
Defpoints
 62
     0
100
AcDbPoint
 10
0.534720734687916
 20
-0.9908629760757587
 30
0.0
  0
POINT
  5
866
330
7F6
100
AcDbEntity
  8
Defpoints
 62
     0
100
AcDbPoint
 10
-9.000707979057935
 20
-0.9908629760757559
 30
0.0
  0
ENDBLK
  5
7F8
330
7F6
100
AcDbEntity
  8
0
100
AcDbBlockEnd
  0
BLOCK
  5
804
330
803
100
AcDbEntity
  8
0
100
AcDbBlockBegin
  2
*D11
 70
     1
 10
0.0
 20
0.0
 30
0.0
  3
*D11
  1

  0
LINE
  5
83D
330
803
100
AcDbEntity
  8
2
 62
     0
370
    -2
100
AcDbLine
 10
0.0072400209420564
 20
0.9705002484716676
 30
0.0
 11
0.0072400209420342
 21
-19.93242914133849
 31
0.0
  0
LINE
  5
83E
330
803
100
AcDbEntity
  8
2
 62
     0
370
    -2
100
AcDbLine
 10
0.4452100209420351
 20
-0.6640137515283567
 30
0.0
 11
5.417311765617057
 21
-19.22018082375341
 31
0.0
  0
ARC
  5
83F
330
803
100
AcDbEntity
  8
2
 62
     0
370
    -2
100
AcDbCircle
 10
0.0072400209420564
 20
0.9705152484716583
 30
0.0
 40
19.65294438981015
100
AcDbArc
 50
262.706629616191
 51
269.9999999999999
  0
LINE
  5
840
330
803
100
AcDbEntity
  8
2
 62
     0
370
    -2
100
AcDbLine
 10
-2.487698065978832
 20
-18.5234198886781
 30
0.0
 11
-11.34918288640946
 21
-17.38927966354568
 31
0.0
  0
ARC
  5
841
330
803
100
AcDbEntity
  8
2
 62
     0
370
    -2
100
AcDbCircle
 10
0.0072400209420564
 20
0.9705152484716583
 30
0.0
 40
19.65294438981015
100
AcDbArc
 50
277.2933703838089
 51
277.7066058867171
  0
SOLID
  5
842
330
803
100
AcDbEntity
  8
2
 62
     0
100
AcDbTrace
 10
2.528679649972973
 20
-18.93924290316491
 30
0.0
 11
2.475676565752841
 21
-18.10759687419128
 31
0.0
 12
0.0072400209420356
 22
-18.68242914133849
 32
0.0
 13
0.0072400209420356
 23
-18.68242914133849
 33
0.0
  0
SOLID
  5
843
330
803
100
AcDbEntity
  8
2
 62
     0
100
AcDbTrace
 10
2.56068427699295
 20
-18.09640541460073
 30
0.0
 11
2.724732721776346
 21
-18.9134320679044
 31
0.0
 12
5.093788459295655
 22
-18.01277340690238
 32
0.0
 13
5.093788459295655
 23
-18.01277340690238
 33
0.0
  0
MTEXT
  5
844
102
{ACAD_XDICTIONARY
360
90B
102
}
330
803
100
AcDbEntity
  8
2
 62
     0
100
AcDbMText
 10
-6.60912849192149
 20
-15.53957326764318
 30
0.0
 40
3.5
 41
0.0
 71
     5
 72
     1
  1
15\U+00B0
 11
0.9919091384218823
 21
-0.1269498370032782
 31
0.0
 73
     1
 44
1.0
1001
ACAD
1000
MTEXTBEGIN
1070
    73
1070
     1
1070
    44
1040
1.0
1070
    74
1070
     0
1000
MTEXTEND
  0
POINT
  5
845
330
803
100
AcDbEntity
  8
Defpoints
 62
     0
100
AcDbPoint
 10
3.419932656183723
 20
-18.38385769839329
 30
0.0
  0
POINT
  5
846
330
803
100
AcDbEntity
  8
Defpoints
 62
     0
100
AcDbPoint
 10
0.0072400209420564
 20
0.9705152484716583
 30
0.0
  0
POINT
  5
847
330
803
100
AcDbEntity
  8
Defpoints
 62
     0
100
AcDbPoint
 10
0.0072400209420636
 20
5.88375124847167
 30
0.0
  0
POINT
  5
848
330
803
100
AcDbEntity
  8
Defpoints
 62
     0
100
AcDbPoint
 10
0.0072400209420564
 20
0.9705002484716676
 30
0.0
  0
POINT
  5
849
330
803
100
AcDbEntity
  8
Defpoints
 62
     0
100
AcDbPoint
 10
0.4452100209420351
 20
-0.6640137515283567
 30
0.0
  0
ENDBLK
  5
805
330
803
100
AcDbEntity
  8
0
100
AcDbBlockEnd
  0
ENDSEC
  0
SECTION
  2
ENTITIES
  0
MTEXT
  5
45F
330
A
100
AcDbEntity
  8
SK6
100
AcDbMText
 10
4.213778339512481
 20
-24.27808982318481
 30
0.0
 40
5.0
 41
37.83636580088503
 71
     2
 72
     5
  1
{\H0.7x;TDC 2-15RS}
 73
     1
 44
1.0
1001
ACAD
1000
MTEXTBEGIN
1070
    73
1070
     1
1070
    44
1040
1.0
1070
    74
1070
     0
1000
MTEXTEND
  0
LINE
  5
461
330
A
100
AcDbEntity
  8
INFTOTAL
100
AcDbLine
 10
-20.66868173354351
 20
22.73377335038669
 30
0.0
 11
29.33131826645649
 21
22.73377335038667
 31
0.0
  0
LINE
  5
462
330
A
100
AcDbEntity
  8
INFTOTAL
100
AcDbLine
 10
29.33131826645648
 20
4.733773350386671
 30
0.0
 11
29.33131826645649
 21
-45.26622664961331
 31
0.0
  0
LINE
  5
463
330
A
100
AcDbEntity
  8
INFTOTAL
100
AcDbLine
 10
29.33131826645649
 20
-45.26622664961331
 30
0.0
 11
-20.66868173354351
 21
-45.26622664961331
 31
0.0
  0
LINE
  5
464
330
A
100
AcDbEntity
  8
INFTOTAL
100
AcDbLine
 10
-20.66868173354351
 20
-27.26622664961331
 30
0.0
 11
-20.66868173354351
 21
22.73377335038669
 31
0.0
  0
DIMENSION
  5
7A7
330
A
100
AcDbEntity
  8
2
100
AcDbDimension
  2
*D11
 10
0.4452100209420351
 20
-0.6640137515283567
 30
0.0
 11
-6.60912849192149
 21
-15.53957326764318
 31
0.0
 70
    34
 71
     5
 42
0.2617989736416995
  3
STANDARD
100
AcDb2LineAngularDimension
 13
0.0072400209420636
 23
5.88375124847167
 33
0.0
 14
0.0072400209420564
 24
0.9705002484716676
 34
0.0
 15
0.0072400209420564
 25
0.9705152484716579
 35
0.0
 16
3.419932656183723
 26
-18.38385769839329
 36
0.0
  0
LINE
  5
7A8
330
A
100
AcDbEntity
  8
1
 48
0.018952
100
AcDbLine
 10
3.299934020942038
 20
-0.8561547515283205
 30
0.0
 11
4.058007020942064
 21
-0.8561547515283205
 31
0.0
  0
LINE
  5
7A9
330
A
100
AcDbEntity
  8
1
 48
0.028211
100
AcDbLine
 10
2.171486020942047
 20
-0.8561547515283205
 30
0.0
 11
3.299934020942038
 21
-0.8561547515283205
 31
0.0
  0
ARC
  5
7AA
330
A
100
AcDbEntity
  8
1
100
AcDbCircle
 10
2.171486020942047
 20
-1.022821751528337
 30
0.0
 40
0.166667
100
AcDbArc
 50
90.0
 51
134.9999999999999
  0
LINE
  5
7AB
330
A
100
AcDbEntity
  8
1
 48
0.001206
100
AcDbLine
 10
2.019518020942063
 20
-0.9390867515283199
 30
0.0
 11
2.053635020942046
 21
-0.9049707515283367
 31
0.0
  0
LINE
  5
7AC
330
A
100
AcDbEntity
  8
1
 48
0.005335
100
AcDbLine
 10
1.806235020942047
 20
-0.946562751528317
 30
0.0
 11
2.019518020942063
 21
-0.9390867515283199
 31
0.0
  0
LINE
  5
7AD
330
A
100
AcDbEntity
  8
1
 48
0.036311
100
AcDbLine
 10
5.510438020942054
 20
0.8438452484716608
 30
0.0
 11
4.058007020942064
 21
0.8438452484716679
 31
0.0
  0
LINE
  5
7AE
330
A
100
AcDbEntity
  8
1
 48
0.036311
100
AcDbLine
 10
5.510438020942054
 20
-0.8561547515283276
 30
0.0
 11
4.058007020942064
 21
-0.8561547515283205
 31
0.0
  0
LINE
  5
7AF
330
A
100
AcDbEntity
  8
1
 48
0.028211
100
AcDbLine
 10
17.66752002094206
 20
-0.8561547515283345
 30
0.0
 11
16.53907202094206
 21
-0.8561547515283345
 31
0.0
  0
LINE
  5
7B0
330
A
100
AcDbEntity
  8
1
 48
0.018952
100
AcDbLine
 10
16.53907202094206
 20
-0.8561547515283345
 30
0.0
 11
15.78099902094204
 21
-0.8561547515283345
 31
0.0
  0
LINE
  5
7B1
330
A
100
AcDbEntity
  8
1
 48
0.036311
100
AcDbLine
 10
14.32856802094205
 20
-0.8561547515283276
 30
0.0
 11
15.78099902094204
 21
-0.8561547515283345
 31
0.0
  0
LINE
  5
7B2
330
A
100
AcDbEntity
  8
1
 48
0.110227
100
AcDbLine
 10
9.919503020942052
 20
-0.8561547515283276
 30
0.0
 11
14.32858402094207
 21
-0.8561547515283276
 31
0.0
  0
LINE
  5
7B3
330
A
100
AcDbEntity
  8
1
 48
0.110227
100
AcDbLine
 10
5.510422020942066
 20
-0.8561547515283276
 30
0.0
 11
9.919503020942052
 21
-0.8561547515283276
 31
0.0
  0
LINE
  5
7B4
330
A
100
AcDbEntity
  8
1
 48
0.004005
100
AcDbLine
 10
1.646106020942063
 20
-0.9509747515283192
 30
0.0
 11
1.806235020942047
 21
-0.946562751528317
 31
0.0
  0
LINE
  5
7B5
330
A
100
AcDbEntity
  8
1
 48
0.000987
100
AcDbLine
 10
1.60665002094206
 20
-0.9519447515283143
 30
0.0
 11
1.646106020942063
 21
-0.9509747515283192
 31
0.0
  0
LINE
  5
7B6
330
A
100
AcDbEntity
  8
1
 48
0.018952
100
AcDbLine
 10
3.299934020942038
 20
0.8438452484716679
 30
0.0
 11
4.058007020942064
 21
0.8438452484716679
 31
0.0
  0
LINE
  5
7B7
330
A
100
AcDbEntity
  8
1
 48
0.028211
100
AcDbLine
 10
2.171486020942047
 20
0.8438452484716679
 30
0.0
 11
3.299934020942038
 21
0.8438452484716679
 31
0.0
  0
LINE
  5
7B8
330
A
100
AcDbEntity
  8
1
 48
0.110227
100
AcDbLine
 10
5.510422020942066
 20
0.8438452484716608
 30
0.0
 11
9.919503020942052
 21
0.8438452484716608
 31
0.0
  0
LINE
  5
7B9
330
A
100
AcDbEntity
  8
1
 48
0.110227
100
AcDbLine
 10
9.919503020942052
 20
0.8438452484716608
 30
0.0
 11
14.32858402094207
 21
0.8438452484716608
 31
0.0
  0
LINE
  5
7BA
330
A
100
AcDbEntity
  8
1
 48
0.036311
100
AcDbLine
 10
14.32856802094205
 20
0.8438452484716608
 30
0.0
 11
15.78099902094204
 21
0.8438452484716536
 31
0.0
  0
LINE
  5
7BB
330
A
100
AcDbEntity
  8
1
 48
0.018952
100
AcDbLine
 10
16.53907202094206
 20
0.8438452484716536
 30
0.0
 11
15.78099902094204
 21
0.8438452484716536
 31
0.0
  0
LINE
  5
7BC
330
A
100
AcDbEntity
  8
1
 48
0.028211
100
AcDbLine
 10
17.66752002094206
 20
0.8438452484716536
 30
0.0
 11
16.53907202094206
 21
0.8438452484716536
 31
0.0
  0
LINE
  5
7BD
330
A
100
AcDbEntity
  8
1
 48
0.037626
100
AcDbLine
 10
18.23235602094204
 20
-0.9519447515283284
 30
0.0
 11
19.73643302094207
 21
-1.00614675152833
 31
0.0
  0
LINE
  5
7BE
330
A
100
AcDbEntity
  8
1
 48
0.000987
100
AcDbLine
 10
18.23235602094204
 20
-0.9519447515283284
 30
0.0
 11
18.19290002094204
 21
-0.9509747515283331
 31
0.0
  0
LINE
  5
7BF
330
A
100
AcDbEntity
  8
1
 48
0.004005
100
AcDbLine
 10
18.19290002094204
 20
-0.9509747515283331
 30
0.0
 11
18.03277102094206
 21
-0.9465627515283312
 31
0.0
  0
LINE
  5
7C0
330
A
100
AcDbEntity
  8
1
 48
0.005335
100
AcDbLine
 10
18.03277102094206
 20
-0.9465627515283312
 30
0.0
 11
17.81948802094207
 21
-0.9390867515283344
 31
0.0
  0
ARC
  5
7C1
330
A
100
AcDbEntity
  8
1
100
AcDbCircle
 10
17.66752002094206
 20
-1.022821751528351
 30
0.0
 40
0.166667
100
AcDbArc
 50
45.00000000000006
 51
90.0
  0
LINE
  5
7C2
330
A
100
AcDbEntity
  8
1
 48
0.001206
100
AcDbLine
 10
17.81948802094207
 20
-0.9390867515283344
 30
0.0
 11
17.78537102094206
 21
-0.9049707515283511
 31
0.0
  0
LINE
  5
7C3
330
A
100
AcDbEntity
  8
1
 48
0.026816
100
AcDbLine
 10
1.60665002094206
 20
-0.9519447515283143
 30
0.0
 11
0.534721020942051
 21
-0.9908627515283379
 31
0.0
  0
SPLINE
  5
7C4
330
A
100
AcDbEntity
  8
1
100
AcDbSpline
210
0.0
220
0.0
230
1.0
 70
     8
 71
     5
 72
    60
 73
    54
 74
     0
 42
0.000000001
 43
0.0000000001
 40
0.0885947856742789
 40
0.0885947856742789
 40
0.0885947856742789
 40
0.0885947856742789
 40
0.0885947856742789
 40
0.0885947856742789
 40
0.1259896900321681
 40
0.1259896900321681
 40
0.1259896900321681
 40
0.1679667611470961
 40
0.1679667611470961
 40
0.1679667611470961
 40
0.2537378830086606
 40
0.2537378830086606
 40
0.2537378830086606
 40
0.3388709900928889
 40
0.3388709900928889
 40
0.3388709900928889
 40
0.4224742973683667
 40
0.4224742973683667
 40
0.4224742973683667
 40
0.506077604643844
 40
0.506077604643844
 40
0.506077604643844
 40
0.6723713636126886
 40
0.6723713636126886
 40
0.6723713636126886
 40
0.8419838220695096
 40
0.8419838220695096
 40
0.8419838220695096
 40
1.016186856506896
 40
1.016186856506896
 40
1.016186856506896
 40
1.104433288314196
 40
1.104433288314196
 40
1.104433288314196
 40
1.192679720121498
 40
1.192679720121498
 40
1.192679720121498
 40
1.282793304677077
 40
1.282793304677077
 40
1.282793304677077
 40
1.372906889232656
 40
1.372906889232656
 40
1.372906889232656
 40
1.464894155178805
 40
1.464894155178805
 40
1.464894155178805
 40
1.556198347476879
 40
1.556198347476879
 40
1.556198347476879
 40
1.64738793667541
 40
1.64738793667541
 40
1.64738793667541
 40
1.710284233832638
 40
1.710284233832638
 40
1.710284233832638
 40
1.710284233832638
 40
1.710284233832638
 40
1.710284233832638
 10
0.3050389453750668
 20
-0.063018399856956
 30
0.0
 10
0.3059624515497106
 20
-0.0666681072373461
 30
0.0
 10
0.3069031113940426
 20
-0.0703759883363073
 30
0.0
 10
0.3078714742254718
 20
-0.0741776574928661
 30
0.0
 10
0.3099825265434006
 20
-0.0824281575271169
 30
0.0
 10
0.3122050133806979
 20
-0.0910500229880125
 30
0.0
 10
0.3134093305284935
 20
-0.0957079891631434
 30
0.0
 10
0.3171206854793596
 20
-0.1100433426877299
 30
0.0
 10
0.3209214826878011
 20
-0.124730219029912
 30
0.0
 10
0.3233542413249566
 20
-0.1341925747518911
 30
0.0
 10
0.3282468310523896
 20
-0.1534111083614089
 30
0.0
 10
0.3328397901831366
 20
-0.1718100106343439
 30
0.0
 10
0.3350495814294234
 20
-0.1807519865114369
 30
0.0
 10
0.3393056363408746
 20
-0.1980870895467301
 30
0.0
 10
0.3434506184313264
 20
-0.2150793294676969
 30
0.0
 10
0.3455057431169237
 20
-0.2235013729082009
 30
0.0
 10
0.3496642937223058
 20
-0.2404975030896974
 30
0.0
 10
0.3539221592655579
 20
-0.2578301490167387
 30
0.0
 10
0.3560790518635102
 20
-0.2665969935787285
 30
0.0
 10
0.3625707574642618
 20
-0.2929948110732123
 30
0.0
 10
0.3691421607266605
 20
-0.3198537312694878
 30
0.0
 10
0.3735485164263892
 20
-0.3380383554277255
 30
0.0
 10
0.3823820799925173
 20
-0.3746045192059437
 30
0.0
 10
0.3914624295709714
 20
-0.4122295449845394
 30
0.0
 10
0.3961418789060431
 20
-0.4315822717037729
 30
0.0
 10
0.4056326016645146
 20
-0.4709669664968015
 30
0.0
 10
0.4151531593492522
 20
-0.5106972024710485
 30
0.0
 10
0.4199779464628435
 20
-0.53087722645685
 30
0.0
 10
0.4273019236750672
 20
-0.5614214531410635
 30
0.0
 10
0.434716295401991
 20
-0.5922211407705316
 30
0.0
 10
0.4372200363790812
 20
-0.602608623980812
 30
0.0
 10
0.4422442049473787
 20
-0.623442495638356
 30
0.0
 10
0.4472780794476209
 20
-0.6443725489989145
 30
0.0
 10
0.4497919280603428
 20
-0.6548568813937532
 30
0.0
 10
0.4548530868586698
 20
-0.6760657684403652
 30
0.0
 10
0.4599343381232546
 20
-0.6973571824063624
 30
0.0
 10
0.4625241105261253
 20
-0.7081559937630555
 30
0.0
 10
0.4677990930810624
 20
-0.7298376844271087
 30
0.0
 10
0.4732471534472964
 20
-0.7516740382910694
 30
0.0
 10
0.476008706095918
 20
-0.7626223279099503
 30
0.0
 10
0.481596380505529
 20
-0.7847734361507701
 30
0.0
 10
0.4871286827116779
 20
-0.8069597483745365
 30
0.0
 10
0.4897871946982735
 20
-0.8177586139458393
 30
0.0
 10
0.4952219990534348
 20
-0.8400641106746871
 30
0.0
 10
0.5006618160850353
 20
-0.8624097570756799
 30
0.0
 10
0.5034062694098012
 20
-0.8735872164534708
 30
0.0
 10
0.5090246911937371
 20
-0.895993856206557
 30
0.0
 10
0.5149223760156545
 20
-0.9185004615869996
 30
0.0
 10
0.5179477812764972
 20
-0.9297824972527715
 30
0.0
 10
0.5231141928437994
 20
-0.948751849744722
 30
0.0
 10
0.5283373230456974
 20
-0.9676843612760119
 30
0.0
 10
0.5304718636941246
 20
-0.9754091951277509
 30
0.0
 10
0.5326015720295702
 20
-0.9831346791240758
 30
0.0
 10
0.534720734687916
 20
-0.9908629760757587
 30
0.0
  0
LINE
  5
7C5
330
A
100
AcDbEntity
  8
1
 48
0.002951
100
AcDbLine
 10
0.305074020942051
 20
-0.0631027515283318
 30
0.0
 11
0.2739140209420512
 21
0.0507322484716628
 31
0.0
  0
SPLINE
  5
7C6
330
A
100
AcDbEntity
  8
1
100
AcDbSpline
210
0.0
220
0.0
230
1.0
 70
     8
 71
     5
 72
    48
 73
    42
 74
     0
 42
0.000000001
 43
0.0000000001
 40
0.1042674950092055
 40
0.1042674950092055
 40
0.1042674950092055
 40
0.1042674950092055
 40
0.1042674950092055
 40
0.1042674950092055
 40
0.1494249172116343
 40
0.1494249172116343
 40
0.1494249172116343
 40
0.199259146490665
 40
0.199259146490665
 40
0.199259146490665
 40
0.3900748230436331
 40
0.3900748230436331
 40
0.3900748230436331
 40
0.4813201064472026
 40
0.4813201064472026
 40
0.4813201064472026
 40
0.5725653898507722
 40
0.5725653898507722
 40
0.5725653898507722
 40
0.7507127874868919
 40
0.7507127874868919
 40
0.7507127874868919
 40
0.9287860206110751
 40
0.9287860206110751
 40
0.9287860206110751
 40
1.108423179304715
 40
1.108423179304715
 40
1.108423179304715
 40
1.290972069973349
 40
1.290972069973349
 40
1.290972069973349
 40
1.382304764381414
 40
1.382304764381414
 40
1.382304764381414
 40
1.473637458789478
 40
1.473637458789478
 40
1.473637458789478
 40
1.660669244482113
 40
1.660669244482113
 40
1.660669244482113
 40
1.787180276302569
 40
1.787180276302569
 40
1.787180276302569
 40
1.787180276302569
 40
1.787180276302569
 40
1.787180276302569
 10
0.2739155932806412
 20
0.0506533717735938
 30
0.0
 10
0.2727991317801539
 20
0.0544406222198592
 30
0.0
 10
0.2716629906666768
 20
0.0583024769703986
 30
0.0
 10
0.2704968865361152
 20
0.062280431792745
 30
0.0
 10
0.2679792161142771
 20
0.0709065785670209
 30
0.0
 10
0.2653332747116863
 20
0.0800416853157646
 30
0.0
 10
0.2639120885604669
 20
0.0849651386034527
 30
0.0
 10
0.2569462123509325
 20
0.109146344195695
 30
0.0
 10
0.2496516780629534
 20
0.1345558576386754
 30
0.0
 10
0.2443625316265994
 20
0.1526394448800108
 30
0.0
 10
0.2366122837233391
 20
0.1789516746482622
 30
0.0
 10
0.2289547116720954
 20
0.2049369728098345
 30
0.0
 10
0.2264662071344574
 20
0.2133943979798705
 30
0.0
 10
0.221434177935528
 20
0.2305259571518565
 30
0.0
 10
0.2162780195731457
 20
0.2481081260070841
 30
0.0
 10
0.2136641229163345
 20
0.2570212968153118
 30
0.0
 10
0.2058650658065133
 20
0.2835890121675408
 30
0.0
 10
0.1978576879869322
 20
0.3107764210115267
 30
0.0
 10
0.1924316171283706
 20
0.3291519790035426
 30
0.0
 10
0.1815674508872362
 20
0.3659762378051443
 30
0.0
 10
0.1702679328949799
 20
0.4042646978078628
 30
0.0
 10
0.164493394353606
 20
0.4238139902983298
 30
0.0
 10
0.1527857944478868
 20
0.463432026550125
 30
0.0
 10
0.1409185301736286
 20
0.5036554958154529
 30
0.0
 10
0.1349386708305147
 20
0.523963134913574
 30
0.0
 10
0.1228205450279702
 20
0.5651818044069064
 30
0.0
 10
0.1105473523583456
 20
0.606981648842778
 30
0.0
 10
0.1046474963214408
 20
0.6270613705550563
 30
0.0
 10
0.0952552654853563
 20
0.659038613760318
 30
0.0
 10
0.0858054975721601
 20
0.6913437403669624
 30
0.0
 10
0.0826470402983901
 20
0.7021606091549888
 30
0.0
 10
0.0763080824484135
 20
0.7238903836822335
 30
0.0
 10
0.0699318470798929
 20
0.7457769295361079
 30
0.0
 10
0.0667360709897551
 20
0.7567506608855315
 30
0.0
 10
0.0569976385378155
 20
0.7902449856817971
 30
0.0
 10
0.0473427006205114
 20
0.8238602347782393
 30
0.0
 10
0.0414196205305544
 20
0.8449148562886268
 30
0.0
 10
0.0309045860465247
 20
0.8830592612890786
 30
0.0
 10
0.0204804664515521
 20
0.9214977534522308
 30
0.0
 10
0.0159734441130937
 20
0.9381591792295028
 30
0.0
 10
0.0115500154037207
 20
0.9545334076055967
 30
0.0
 10
0.007247240534447
 20
0.9704854644744802
 30
0.0
  0
LINE
  5
7C7
330
A
100
AcDbEntity
  8
1
 48
0.005335
100
AcDbLine
 10
1.806235020942047
 20
0.9342532484716643
 30
0.0
 11
2.019518020942063
 21
0.9267772484716676
 31
0.0
  0
LINE
  5
7C8
330
A
100
AcDbEntity
  8
1
 48
0.001206
100
AcDbLine
 10
2.019518020942063
 20
0.9267772484716676
 30
0.0
 11
2.053635020942046
 21
0.8926612484716843
 31
0.0
  0
ARC
  5
7C9
330
A
100
AcDbEntity
  8
1
100
AcDbCircle
 10
2.171486020942047
 20
1.010512248471685
 30
0.0
 40
0.166667
100
AcDbArc
 50
225.0000000000001
 51
270.0
  0
LINE
  5
7CA
330
A
100
AcDbEntity
  8
1
 48
0.026816
100
AcDbLine
 10
18.23235602094204
 20
0.9396352484716475
 30
0.0
 11
19.30428502094204
 21
0.9785532484716712
 31
0.0
  0
LINE
  5
7CB
330
A
100
AcDbEntity
  8
1
 48
0.005335
100
AcDbLine
 10
18.03277102094206
 20
0.9342532484716503
 30
0.0
 11
17.81948802094207
 21
0.9267772484716534
 31
0.0
  0
LINE
  5
7CC
330
A
100
AcDbEntity
  8
1
 48
0.004005
100
AcDbLine
 10
18.19290002094204
 20
0.9386652484716524
 30
0.0
 11
18.03277102094206
 21
0.9342532484716503
 31
0.0
  0
LINE
  5
7CD
330
A
100
AcDbEntity
  8
1
 48
0.000987
100
AcDbLine
 10
18.23235602094204
 20
0.9396352484716475
 30
0.0
 11
18.19290002094204
 21
0.9386652484716524
 31
0.0
  0
ARC
  5
7CE
330
A
100
AcDbEntity
  8
1
100
AcDbCircle
 10
17.66752002094206
 20
1.010512248471669
 30
0.0
 40
0.166667
100
AcDbArc
 50
270.0
 51
314.9999999999999
  0
LINE
  5
7CF
330
A
100
AcDbEntity
  8
1
 48
0.001206
100
AcDbLine
 10
17.81948802094207
 20
0.9267772484716534
 30
0.0
 11
17.78537102094206
 21
0.89266124847167
 31
0.0
  0
LINE
  5
7D0
330
A
100
AcDbEntity
  8
1
 48
0.000987
100
AcDbLine
 10
1.60665002094206
 20
0.9396352484716619
 30
0.0
 11
1.646106020942063
 21
0.9386652484716664
 31
0.0
  0
LINE
  5
7D1
330
A
100
AcDbEntity
  8
1
 48
0.004005
100
AcDbLine
 10
1.646106020942063
 20
0.9386652484716664
 30
0.0
 11
1.806235020942047
 21
0.9342532484716643
 31
0.0
  0
LINE
  5
7D2
330
A
100
AcDbEntity
  8
1
 48
0.037626
100
AcDbLine
 10
1.60665002094206
 20
0.9396352484716619
 30
0.0
 11
0.1025770209420571
 21
0.9938372484716655
 31
0.0
  0
ARC
  5
7D3
330
A
100
AcDbEntity
  8
1
100
AcDbCircle
 10
19.74311202094206
 20
-0.8269177515283399
 30
0.0
 40
0.179339
100
AcDbArc
 50
267.8659489999998
 51
299.6264509999995
  0
SPLINE
  5
7D4
330
A
100
AcDbEntity
  8
1
100
AcDbSpline
210
0.0
220
0.0
230
1.0
 70
     8
 71
     5
 72
    48
 73
    42
 74
     0
 42
0.000000001
 43
0.0000000001
 40
0.1042674941692607
 40
0.1042674941692607
 40
0.1042674941692607
 40
0.1042674941692607
 40
0.1042674941692607
 40
0.1042674941692607
 40
0.1494250638004956
 40
0.1494250638004956
 40
0.1494250638004956
 40
0.1992593419776278
 40
0.1992593419776278
 40
0.1992593419776278
 40
0.3900751803505873
 40
0.3900751803505873
 40
0.3900751803505873
 40
0.4813205440390682
 40
0.4813205440390682
 40
0.4813205440390682
 40
0.572565907727549
 40
0.572565907727549
 40
0.572565907727549
 40
0.7507135025458736
 40
0.7507135025458736
 40
0.7507135025458736
 40
0.9287869182970942
 40
0.9287869182970942
 40
0.9287869182970942
 40
1.108424259255807
 40
1.108424259255807
 40
1.108424259255807
 40
1.290973273801014
 40
1.290973273801014
 40
1.290973273801014
 40
1.382306064519039
 40
1.382306064519039
 40
1.382306064519039
 40
1.473638855237064
 40
1.473638855237064
 40
1.473638855237064
 40
1.660670808517606
 40
1.660670808517606
 40
1.660670808517606
 40
1.787182628154531
 40
1.787182628154531
 40
1.787182628154531
 40
1.787182628154531
 40
1.787182628154531
 40
1.787182628154531
 10
19.56509050461265
 20
-0.0629630792010527
 30
0.0
 10
19.56620696979288
 20
-0.0667503421110052
 30
0.0
 10
19.56734311471121
 20
-0.0706122097979698
 30
0.0
 10
19.5685092229009
 20
-0.0745901785515297
 30
0.0
 10
19.57102689925973
 20
-0.083216345978185
 30
0.0
 10
19.57367284700923
 20
-0.0923514750291883
 30
0.0
 10
19.57509403496821
 20
-0.0972749347550188
 30
0.0
 10
19.58205991892037
 20
-0.1214561677885353
 30
0.0
 10
19.58935445910675
 20
-0.146865700772322
 30
0.0
 10
19.59464361196874
 20
-0.1649493081242337
 30
0.0
 10
19.602393864563
 20
-0.1912615528885464
 30
0.0
 10
19.61005144349874
 20
-0.2172468750876089
 30
0.0
 10
19.61253995064049
 20
-0.2257043094608218
 30
0.0
 10
19.61757198544166
 20
-0.2428358882839472
 30
0.0
 10
19.62272814985297
 20
-0.2604180778978513
 30
0.0
 10
19.62534204955728
 20
-0.2693312590013317
 30
0.0
 10
19.63314111670159
 20
-0.2958990079240902
 30
0.0
 10
19.64114850419441
 20
-0.3230864486308587
 30
0.0
 10
19.646574578535
 20
-0.3414620183382748
 30
0.0
 10
19.65743875947167
 20
-0.3782863271857604
 30
0.0
 10
19.66873829361308
 20
-0.4165748417058648
 30
0.0
 10
19.67451283978057
 20
-0.4361241596430272
 30
0.0
 10
19.68622045381111
 20
-0.4757422438332651
 30
0.0
 10
19.69808773127205
 20
-0.5159657592544261
 30
0.0
 10
19.70406759721701
 20
-0.5362734217652429
 30
0.0
 10
19.71618573481701
 20
-0.5774921327691072
 30
0.0
 10
19.72845894001771
 20
-0.6192920200715104
 30
0.0
 10
19.73435881311017
 20
-0.6393717991329151
 30
0.0
 10
19.74375105231386
 20
-0.6713490725598899
 30
0.0
 10
19.75320082899669
 20
-0.7036542323300079
 30
0.0
 10
19.75635929011364
 20
-0.7144711152912305
 30
0.0
 10
19.76269825592982
 20
-0.7362009182042595
 30
0.0
 10
19.7690744990124
 20
-0.7580874911770491
 30
0.0
 10
19.77227027872866
 20
-0.7690612355203951
 30
0.0
 10
19.78200871991333
 20
-0.8025555951351588
 30
0.0
 10
19.79166366256194
 20
-0.8361708777210719
 30
0.0
 10
19.79758674620928
 20
-0.857225530886394
 30
0.0
 10
19.80810180881588
 20
-0.8953700597385656
 30
0.0
 10
19.81852595930824
 20
-0.9338086750645242
 30
0.0
 10
19.82303301554864
 20
-0.9504702280396042
 30
0.0
 10
19.82745647207512
 20
-0.9668445609011779
 30
0.0
 10
19.83175927156609
 20
-0.9827967109650456
 30
0.0
  0
ARC
  5
7D5
330
A
100
AcDbEntity
  8
1
100
AcDbCircle
 10
0.09589702094204
 20
0.8146042484716833
 30
0.0
 40
0.179343
100
AcDbArc
 50
87.86535199999969
 51
119.626727999999
  0
SPLINE
  5
7D6
330
A
100
AcDbEntity
  8
1
100
AcDbSpline
210
0.0
220
0.0
230
1.0
 70
     8
 71
     5
 72
    60
 73
    54
 74
     0
 42
0.000000001
 43
0.0000000001
 40
0.0885947825457902
 40
0.0885947825457902
 40
0.0885947825457902
 40
0.0885947825457902
 40
0.0885947825457902
 40
0.0885947825457902
 40
0.1259896936516348
 40
0.1259896936516348
 40
0.1259896936516348
 40
0.1679667659771139
 40
0.1679667659771139
 40
0.1679667659771139
 40
0.2537378008021634
 40
0.2537378008021634
 40
0.2537378008021634
 40
0.3388708219540091
 40
0.3388708219540091
 40
0.3388708219540091
 40
0.4224740451051395
 40
0.4224740451051395
 40
0.4224740451051395
 40
0.5060772682562699
 40
0.5060772682562699
 40
0.5060772682562699
 40
0.6723708416020822
 40
0.6723708416020822
 40
0.6723708416020822
 40
0.8419831157474126
 40
0.8419831157474126
 40
0.8419831157474126
 40
1.016185963527614
 40
1.016185963527614
 40
1.016185963527614
 40
1.104432300165925
 40
1.104432300165925
 40
1.104432300165925
 40
1.192678636804241
 40
1.192678636804241
 40
1.192678636804241
 40
1.282792119715542
 40
1.282792119715542
 40
1.282792119715542
 40
1.37290560262684
 40
1.37290560262684
 40
1.37290560262684
 40
1.464892786278583
 40
1.464892786278583
 40
1.464892786278583
 40
1.556196890220166
 40
1.556196890220166
 40
1.556196890220166
 40
1.647386291076534
 40
1.647386291076534
 40
1.647386291076534
 40
1.710284552781305
 40
1.710284552781305
 40
1.710284552781305
 40
1.710284552781305
 40
1.710284552781305
 40
1.710284552781305
 10
19.5339671524497
 20
0.0507086922987004
 30
0.0
 10
19.5330436460958
 20
0.0543584003788045
 30
0.0
 10
19.5321029860688
 20
0.0580662821877116
 30
0.0
 10
19.53113462304274
 20
0.0618679520925003
 30
0.0
 10
19.52902357046296
 20
0.0701184531022978
 30
0.0
 10
19.52680108334898
 20
0.0787403195694356
 30
0.0
 10
19.52559676614123
 20
0.0833982859373794
 30
0.0
 10
19.52188541361303
 20
0.0977336299781246
 30
0.0
 10
19.51808461897469
 20
0.1124204962438444
 30
0.0
 10
19.51565186267167
 20
0.1218828426590779
 30
0.0
 10
19.51075927744848
 20
0.1411013578004816
 30
0.0
 10
19.50616632211233
 20
0.1595002437258461
 30
0.0
 10
19.5039565326018
 20
0.1684422119743818
 30
0.0
 10
19.49970048115964
 20
0.1857772998844371
 30
0.0
 10
19.49555550297098
 20
0.2027695234051112
 30
0.0
 10
19.49350038043287
 20
0.2111915580495225
 30
0.0
 10
19.48934183441792
 20
0.22818766966755
 30
0.0
 10
19.48508397374775
 20
0.245520295911108
 30
0.0
 10
19.48292708358429
 20
0.2542871305508232
 30
0.0
 10
19.47643538554035
 20
0.2806849167434553
 30
0.0
 10
19.46986398923588
 20
0.3075438065822471
 30
0.0
 10
19.46545763663705
 20
0.3257284162935594
 30
0.0
 10
19.45662408367961
 20
0.3622945348561064
 30
0.0
 10
19.44754374599461
 20
0.3999195115651606
 30
0.0
 10
19.44286430241627
 20
0.4192722142467621
 30
0.0
 10
19.43337359024992
 20
0.4586568629254534
 30
0.0
 10
19.42385304282761
 20
0.4983870541831711
 30
0.0
 10
19.41902826115903
 20
0.5185670553035937
 30
0.0
 10
19.41170429285825
 20
0.5491112462923004
 30
0.0
 10
19.40428993032226
 20
0.5799108971973102
 30
0.0
 10
19.40178619244685
 20
0.5902983679265664
 30
0.0
 10
19.39676202986175
 20
0.611132214679218
 30
0.0
 10
19.3917281606147
 20
0.632062243681121
 30
0.0
 10
19.38921431440039
 20
0.642546564119856
 30
0.0
 10
19.3841531606127
 20
0.6637554265535801
 30
0.0
 10
19.37907191648083
 20
0.6850468142829575
 30
0.0
 10
19.37648214881714
 20
0.6958456109581324
 30
0.0
 10
19.3712071770316
 20
0.7175272725146602
 30
0.0
 10
19.36575912692117
 20
0.7393635983970786
 30
0.0
 10
19.36299757840319
 20
0.7503118748794737
 30
0.0
 10
19.35740990966614
 20
0.7724629590242547
 30
0.0
 10
19.3518776098747
 20
0.7946492486328101
 30
0.0
 10
19.34921909911941
 20
0.8054481011118513
 30
0.0
 10
19.3437842973595
 20
0.8277535774859519
 30
0.0
 10
19.3383444881817
 20
0.8500992002769168
 30
0.0
 10
19.3356000408935
 20
0.8612766452134097
 30
0.0
 10
19.32998163635724
 20
0.8836832459212065
 30
0.0
 10
19.32408396966804
 20
0.906189815828684
 30
0.0
 10
19.32105857416878
 20
0.9174718298769324
 30
0.0
 10
19.31589210739456
 20
0.9364414030742851
 30
0.0
 10
19.31066891727145
 20
0.9553741335665382
 30
0.0
 10
19.308534309692
 20
0.9630992085371747
 30
0.0
 10
19.3064045346645
 20
0.9708249336487867
 30
0.0
 10
19.304285306054
 20
0.9785534719589056
 30
0.0
  0
LINE
  5
7D7
330
A
100
AcDbEntity
  8
1
 48
0.002951
100
AcDbLine
 10
19.53393502094204
 20
0.0507802484716695
 30
0.0
 11
19.56509902094208
 21
-0.0630637515283308
 31
0.0
  0
DIMENSION
  5
7D8
330
A
100
AcDbEntity
  8
2
100
AcDbDimension
  2
*D8
 10
19.83176704010217
 20
12.51112824847165
 30
0.0
 11
9.919503155409461
 21
14.94761805873166
 31
0.0
 70
    32
 71
     5
 42
19.82452776938541
  3
STANDARD
100
AcDbAlignedDimension
 13
0.0072392707167595
 23
0.9705007364821105
 33
0.0
 14
19.83176704010217
 24
-0.9828111910911283
 34
0.0
100
AcDbRotatedDimension
1001
ACAD
1000
DSTYLE
1002
{
1070
   271
1070
     1
1002
}
  0
DIMENSION
  5
7D9
330
A
100
AcDbEntity
  8
2
100
AcDbDimension
  2
*D9
 10
15.78099902094204
 20
-0.8561547515283628
 30
0.0
 11
13.39493085509524
 21
-10.57637611484529
 31
0.0
 70
    32
 71
     5
 42
1.700000000000017
  3
STANDARD
100
AcDbAlignedDimension
 13
17.66752002094206
 23
0.8438452484716536
 33
0.0
 14
17.66752002094206
 24
-0.856154751528363
 34
0.0
 50
90.0
100
AcDbRotatedDimension
  0
DIMENSION
  5
7DA
330
A
100
AcDbEntity
  8
2
100
AcDbDimension
  2
*D10
 10
-9.000707979057935
 20
-0.9908629760757559
 30
0.0
 11
-11.38677614490473
 21
-7.817373868556432
 31
0.0
 70
    32
 71
     5
 42
1.984700224547424
  3
STANDARD
100
AcDbAlignedDimension
 13
0.1025770209420571
 23
0.9938372484716655
 33
0.0
 14
0.534720734687916
 24
-0.9908629760757587
 34
0.0
 50
90.0
100
AcDbRotatedDimension
1001
ACAD
1000
DSTYLE
1002
{
1070
   271
1070
     1
1002
}
  0
LINE
  5
7DB
330
A
100
AcDbEntity
  8
4
100
AcDbLine
 10
0.2894856721916649
 20
-0.0061547515283276
 30
0.0
 11
19.54952057960128
 21
-0.006154751528339
 31
0.0
  0
LWPOLYLINE
  5
7DC
330
A
100
AcDbEntity
  8
CUT
100
AcDbPolyline
 90
     1144
 70
     1
 43
0.0
 10
4.058007307196213
 20
-0.8561545269809068
 10
5.510438307196203
 20
-0.8561545269809068
 10
9.919503307196194
 20
-0.8561545269809139
 10
14.32858430719621
 20
-0.8561545269809139
 10
15.78099930719619
 20
-0.8561545269809139
 10
16.53907230719621
 20
-0.8561545269809212
 10
17.6675203071962
 20
-0.8561545269809212
 42
-0.1995737847856552
 10
17.78537167309621
 20
-0.9049701610809162
 10
17.81948830719622
 20
-0.9390865269809207
 10
18.03277130719621
 20
-0.9465625269809175
 10
18.19290030719619
 20
-0.9509745269809195
 10
18.23235630719619
 20
-0.951944526980915
 10
19.73643330719621
 20
-1.006146526980917
 42
0.1392793964292824
 10
19.83176732635632
 20
-0.982810966543715
 10
19.83055845845251
 20
-0.9783443196315939
 10
19.829350483499
 20
-0.9738682060515396
 10
19.82813653275462
 20
-0.969371486616458
 10
19.82691777192352
 20
-0.9648585110034968
 10
19.82569556544498
 20
-0.9603343910124147
 10
19.82447140931905
 20
-0.9558047539500034
 10
19.82324686393242
 20
-0.9512754960145651
 10
19.822023486884
 20
-0.946752535680309
 10
19.82080276581087
 20
-0.9422415670818562
 10
19.81958605121395
 20
-0.9377478133986423
 10
19.81837448928369
 20
-0.933275780239354
 10
19.81716895472595
 20
-0.9288290090264208
 10
19.81596998358767
 20
-0.9244098303804102
 10
19.81477770608266
 20
-0.9200191175045
 10
19.81359177941731
 20
-0.9156560395689135
 10
19.81241132061644
 20
-0.911317815095364
 10
19.81123483934895
 20
-0.9069994653415047
 10
19.81006017078143
 20
-0.9026935677877412
 10
19.80888525825346
 20
-0.8983931356447865
 10
19.80771050529156
 20
-0.8941002505741604
 10
19.80653668731543
 20
-0.8898183475107027
 10
19.80536431803177
 20
-0.8855498761838358
 10
19.80419367425426
 20
-0.8812963886219176
 10
19.80302482072357
 20
-0.8770586266565825
 10
19.80185763492728
 20
-0.8728366094270523
 10
19.80069183191991
 20
-0.86862972088449
 10
19.79952698914292
 20
-0.8644367972963332
 10
19.7983625712446
 20
-0.8602562147506469
 10
19.79719795490018
 20
-0.8560859766604147
 10
19.79603245363167
 20
-0.8519238012679204
 10
19.79486534262796
 20
-0.8477672091490601
 10
19.79369588356476
 20
-0.8436136107176801
 10
19.79252334942455
 20
-0.8394603937299134
 10
19.79134704931658
 20
-0.8353050107885291
 10
19.79016635329687
 20
-0.8311450668472469
 10
19.78898071718822
 20
-0.8269784067150759
 10
19.78778970740007
 20
-0.8228032025606831
 10
19.78659302574864
 20
-0.8186180414166821
 10
19.78539053427676
 20
-0.8144220126839892
 10
19.78418228007398
 20
-0.8102147956361687
 10
19.78296852009647
 20
-0.8059967469237514
 10
19.78174974598703
 20
-0.8017689880785905
 10
19.78052670889507
 20
-0.7975334930181841
 10
19.77930044429658
 20
-0.7932931755499962
 10
19.77807227063217
 20
-0.7890518870035576
 10
19.77684310301868
 20
-0.7848120737591541
 10
19.77561320583043
 20
-0.7805739791296471
 10
19.77438280488488
 20
-0.7763377683167843
 10
19.77315211992431
 20
-0.7721036418012286
 10
19.77192136255021
 20
-0.767871829636162
 10
19.7706907341576
 20
-0.7636425857409872
 10
19.76946042386949
 20
-0.7594161821949667
 10
19.76823060647118
 20
-0.7551929035308742
 10
19.76700144034465
 20
-0.7509730410286917
 10
19.76577306540292
 20
-0.7467568870092105
 10
19.76454560102446
 20
-0.7425447291277491
 10
19.76331914398751
 20
-0.7383368446677691
 10
19.76209376644103
 20
-0.7341334948101644
 10
19.76086951552053
 20
-0.7299349146361945
 10
19.75964641630313
 20
-0.7257412937589561
 10
19.75842447463733
 20
-0.7215527718034576
 10
19.75720367992735
 20
-0.7173694414079446
 10
19.75598400793098
 20
-0.7131913513572439
 10
19.75476542355757
 20
-0.7090185097161719
 10
19.75354788366585
 20
-0.7048508869628362
 10
19.75233133986186
 20
-0.7006884191220646
 10
19.75111574129689
 20
-0.6965310108987293
 10
19.74990103746537
 20
-0.6923785388111324
 10
19.74868718100274
 20
-0.6882308543243579
 10
19.74747413048342
 20
-0.6840877869836373
 10
19.74626188156278
 20
-0.6799492431048773
 10
19.74505096865182
 20
-0.6758168997039232
 10
19.74384226811681
 20
-0.6716935726960413
 10
19.74263644712841
 20
-0.6675813730835625
 10
19.74143396286916
 20
-0.6634817053932931
 10
19.74023508254505
 20
-0.6593953360061331
 10
19.73903990339709
 20
-0.6553224614866818
 10
19.73784837271285
 20
-0.6512627769128283
 10
19.7366603078381
 20
-0.6472155442053574
 10
19.73547541618829
 20
-0.6431796604575535
 10
19.73429331526018
 20
-0.6391537262647926
 10
19.73311355264337
 20
-0.6351361140541468
 10
19.7319356260319
 20
-0.6311250364139749
 10
19.73075900323582
 20
-0.6271186144235497
 10
19.72958314219271
 20
-0.6231149459826125
 10
19.72840751097933
 20
-0.6191121741410353
 10
19.72723160782308
 20
-0.6151085554283481
 10
19.72605498111367
 20
-0.6111025281834071
 10
19.72487724941465
 20
-0.607092780883944
 10
19.72369812147496
 20
-0.6030783204762056
 10
19.72251741624052
 20
-0.5990585407045172
 10
19.72133508286581
 20
-0.5950332904409077
 10
19.72015122072539
 20
-0.5910029420147094
 10
19.71896609942553
 20
-0.5869684595421401
 10
19.71778017881572
 20
-0.5829314672559232
 10
19.7165941290003
 20
-0.5788943178348786
 10
19.71540880633068
 20
-0.5748600097851746
 10
19.714224627518
 20
-0.5708300391322024
 10
19.71304157583852
 20
-0.566804414190001
 10
19.71185962296372
 20
-0.56278309968536
 10
19.71067874078879
 20
-0.5587660570882047
 10
19.7094989017962
 20
-0.5547532456535561
 10
19.70832007941944
 20
-0.5507446234634143
 10
19.70714224840649
 20
-0.5467401484686985
 10
19.70596538518352
 20
-0.5427397795311446
 10
19.70478946821851
 20
-0.5387434774652303
 10
19.70361447838483
 20
-0.5347512060800863
 10
19.70244039932483
 20
-0.5307629332214301
 10
19.70126721781354
 20
-0.5267786318134693
 10
19.70009492412223
 20
-0.5227982809008065
 10
19.69892351238203
 20
-0.5188218666903932
 10
19.69775298094753
 20
-0.5148493835934059
 10
19.69658333276045
 20
-0.5108808352671855
 10
19.69541457571319
 20
-0.5069162356571635
 10
19.69424672301249
 20
-0.502955610038752
 10
19.69307979354305
 20
-0.4989989960592692
 10
19.69191381223108
 20
-0.495046444779872
 10
19.69074881040803
 20
-0.491098021717468
 10
19.68958482617406
 20
-0.4871538078866121
 10
19.68842190476179
 20
-0.4832139008414398
 10
19.68726009889985
 20
-0.4792784157175999
 10
19.6860994691737
 20
-0.4753474862635854
 10
19.68494008053754
 20
-0.4714212517534462
 10
19.68378199764327
 20
-0.4674998438189474
 10
19.68262529762878
 20
-0.4635834396901668
 10
19.68147007111603
 20
-0.4596722670908078
 10
19.68031642049822
 20
-0.4557665985311825
 10
19.67916445822703
 20
-0.4518667456012775
 10
19.67801430509978
 20
-0.4479730532637145
 10
19.67686608854672
 20
-0.4440858941468149
 10
19.67571994091813
 20
-0.4402056628376041
 10
19.67457599777156
 20
-0.4363327701748272
 10
19.67343439615905
 20
-0.4324676375419596
 10
19.67229527291437
 20
-0.428610691160243
 10
19.67115876294013
 20
-0.424762356381704
 10
19.67002499749503
 20
-0.4209230519821486
 10
19.6688941024811
 20
-0.4170931844542152
 10
19.66776619673084
 20
-0.413273142300346
 10
19.66664139029448
 20
-0.4094632903258725
 10
19.66551978272714
 20
-0.4056639639319555
 10
19.66440146137603
 20
-0.4018754634086843
 10
19.66328649966774
 20
-0.3980980482280271
 10
19.66217495539532
 20
-0.3943319313368914
 10
19.66106686900554
 20
-0.390577273450118
 10
19.65996226188613
 20
-0.3868341773435215
 10
19.65886113465291
 20
-0.3831026821468892
 10
19.65776346543708
 20
-0.3793827576370159
 10
19.65666918250978
 20
-0.3756742122996126
 10
19.65557802405391
 20
-0.3719762154258728
 10
19.65448969530657
 20
-0.3682878088571524
 10
19.65340395901641
 20
-0.3646082085812932
 10
19.65232063133221
 20
-0.3609367925597109
 10
19.65123957730069
 20
-0.3572730872504817
 10
19.6501607063643
 20
-0.353616754131421
 10
19.64908396785897
 20
-0.3499675762231842
 10
19.64800934651209
 20
-0.3463254446123312
 10
19.64693685794018
 20
-0.3426903449744056
 10
19.64586654414675
 20
-0.3390623440970284
 10
19.64479846902015
 20
-0.3354415764029905
 10
19.64373271383136
 20
-0.3318282304732971
 10
19.64266937273178
 20
-0.3282225355702888
 10
19.64160854825111
 20
-0.3246247481607209
 10
19.64055034679509
 20
-0.3210351384388144
 10
19.6394948741434
 20
-0.3174539768493698
 10
19.63844223094741
 20
-0.3138815206108401
 10
19.63739250822804
 20
-0.3103180002383947
 10
19.63634578287351
 20
-0.3067636060670491
 10
19.63530211313726
 20
-0.3032184747746935
 10
19.63426153413569
 20
-0.299682675905208
 10
19.63322405334597
 20
-0.2961561983915271
 10
19.63218964610392
 20
-0.2926389370787472
 10
19.63115825110177
 20
-0.2891306792471777
 10
19.63012977149771
 20
-0.2856311103744229
 10
19.62910419987909
 20
-0.2821402454261683
 10
19.6280816510778
 20
-0.2786585458691899
 10
19.62706225468462
 20
-0.2751865505687316
 10
19.62604614448308
 20
-0.2717248366011997
 10
19.62503345279536
 20
-0.2682739968647763
 10
19.62402430482833
 20
-0.2648346176899974
 10
19.62301881301945
 20
-0.2614072564503811
 10
19.62201707138268
 20
-0.2579924191730125
 10
19.62101914985449
 20
-0.2545905381491504
 10
19.62002508863977
 20
-0.251201949544841
 10
19.61903489255781
 20
-0.2478268710114886
 10
19.61804852538818
 20
-0.244465379296491
 10
19.61706590517574
 20
-0.2411173916300893
 10
19.61608691613087
 20
-0.2377827073051559
 10
19.61511140585653
 20
-0.2344609758344145
 10
19.6141391725613
 20
-0.2311516368324415
 10
19.61316996709735
 20
-0.2278539257383425
 10
19.61220349553601
 20
-0.2245668817821791
 10
19.61123942174348
 20
-0.2212893559513827
 10
19.61027736995641
 20
-0.2180200189571675
 10
19.60931692735763
 20
-0.2147573692009654
 10
19.60835764665179
 20
-0.2114997407408321
 10
19.60739904864096
 20
-0.2082453112578744
 10
19.60644062480036
 20
-0.2049921100226566
 10
19.60548183985394
 20
-0.2017380258616566
 10
19.60452215333577
 20
-0.1984808805543263
 10
19.60356128751883
 20
-0.1952193560357909
 10
19.60259912625141
 20
-0.1919526642494542
 10
19.60163548182073
 20
-0.188679755240619
 10
19.60067010138567
 20
-0.1853993456935381
 10
19.59970268007702
 20
-0.1821099703722861
 10
19.59873287409733
 20
-0.178810033561609
 10
19.59776031382116
 20
-0.1754978605077522
 10
19.59678461689516
 20
-0.1721717488593395
 10
19.59580540133805
 20
-0.1688300201082225
 10
19.59482229864077
 20
-0.165471071030316
 10
19.59383496686658
 20
-0.1620934251264696
 10
19.59284310375114
 20
-0.1586957840633243
 10
19.5918464598025
 20
-0.155277079114148
 10
19.59084485140131
 20
-0.1518365225996927
 10
19.58983817390082
 20
-0.1483736593290583
 10
19.588826414727
 20
-0.1448884180405425
 10
19.5878096664786
 20
-0.1413811628424906
 10
19.58678814002727
 20
-0.137852744654138
 10
19.58576217761759
 20
-0.1343045526464888
 10
19.58473226596719
 20
-0.1307385656831368
 10
19.58369904936683
 20
-0.1271574037611582
 10
19.58266334278046
 20
-0.1235643794519188
 10
19.58162614494531
 20
-0.1199635493419731
 10
19.58058865147202
 20
-0.1163597654738862
 10
19.57955226794465
 20
-0.1127587267870904
 10
19.5785186230208
 20
-0.1091670305587424
 10
19.5774895638929
 20
-0.1055921593546625
 10
19.57646675096254
 20
-0.1020409827605331
 10
19.5754515832519
 20
-0.0985193974949876
 10
19.57444551530123
 20
-0.0950334372759851
 10
19.57344998166868
 20
-0.0915889817728921
 10
19.57246630182978
 20
-0.0881913946543005
 10
19.57149558507732
 20
-0.084845161635803
 10
19.57053863605575
 20
-0.0815535322051684
 10
19.56959591500097
 20
-0.0783183853799638
 10
19.56866761693929
 20
-0.0751404238959435
 10
19.56775364660425
 20
-0.0720190124450024
 10
19.56685354219355
 20
-0.0689519479880669
 10
19.56596639863739
 20
-0.0659352339898458
 10
19.56509079086678
 20
-0.0629628546536392
 10
19.53393530719619
 20
0.0507804730190831
 10
19.53331995961927
 20
0.0532657338254996
 10
19.53266439282885
 20
0.0558498816447344
 10
19.53199974553836
 20
0.0584645516534526
 10
19.53132541857865
 20
0.061111564384662
 10
19.53064113044025
 20
0.0637916816654727
 10
19.52994684130804
 20
0.0665049187279028
 10
19.52924267709584
 20
0.0692508563195506
 10
19.52852886139939
 20
0.0720289094258551
 10
19.52780576918577
 20
0.0748380291826383
 10
19.52707402401579
 20
0.0776762971701732
 10
19.5263344497129
 20
0.0805411147234683
 10
19.52558800066237
 20
0.0834294550667654
 10
19.52483569211181
 20
0.0863381153560798
 10
19.52407853047172
 20
0.0892639687217045
 10
19.52331744361587
 20
0.0922042163107495
 10
19.52255332631562
 20
0.0951561945675028
 10
19.52178772164226
 20
0.0981147210387494
 10
19.52102219597135
 20
0.1010744846191347
 10
19.52025792054986
 20
0.1040316557329977
 10
19.51949572266094
 20
0.1069836868502154
 10
19.51873613955622
 20
0.1099291023230311
 10
19.51797947238804
 20
0.1128672882228034
 10
19.5172258401419
 20
0.1157982821768062
 10
19.5164752335686
 20
0.1187225632050559
 10
19.51572756911664
 20
0.1216408415570616
 10
19.5149827428645
 20
0.1245538485486239
 10
19.51424068445292
 20
0.1274621263986493
 10
19.51350141101726
 20
0.1303658180659202
 10
19.5127650811197
 20
0.1332644570859021
 10
19.51203204868167
 20
0.1361567574075142
 10
19.51130291691603
 20
0.1390404032299362
 10
19.51057858445852
 20
0.1419118693729917
 10
19.50985978291162
 20
0.1447682326649176
 10
19.50914659733262
 20
0.1476090523982538
 10
19.50843901981988
 20
0.1504342079901679
 10
19.50773700989567
 20
0.1532436665580068
 10
19.50704049459487
 20
0.1560374864609617
 10
19.50634936855371
 20
0.1588158208416974
 10
19.50566349409857
 20
0.1615789211680028
 10
19.50498270133473
 20
0.1643271407744482
 10
19.50430678823503
 20
0.1670609384040151
 10
19.50363552072877
 20
0.1697808817497464
 10
19.50296863279031
 20
0.1724876509963895
 10
19.50230582652796
 20
0.1751820423620618
 10
19.50164677227266
 20
0.1778649716398721
 10
19.50099110866672
 20
0.1805374777395787
 10
19.50033844275261
 20
0.1832007262292254
 10
19.49968835006172
 20
0.1858560128768065
 10
19.49904038555238
 20
0.1885047217817561
 10
19.4983941302981
 20
0.1911481380446975
 10
19.49774918518931
 20
0.1937874843681815
 10
19.49710516559492
 20
0.1964239463898156
 10
19.49646170318432
 20
0.1990586669152865
 10
19.49581844774955
 20
0.2016927401514383
 10
19.49517506902729
 20
0.2043272059393022
 10
19.49453125852084
 20
0.2069630439871535
 10
19.4938867313224
 20
0.2096011681035481
 10
19.49324122793494
 20
0.2122424204303659
 10
19.49259451609438
 20
0.2148875656758822
 10
19.49194639259156
 20
0.2175372853477828
 10
19.49129668509445
 20
0.220192171986243
 10
19.49064525396999
 20
0.2228527233969419
 10
19.48999199410641
 20
0.2255193368841351
 10
19.48933683673511
 20
0.2281923034836968
 10
19.4886797453916
 20
0.2308718215044525
 10
19.48802069372859
 20
0.2335580658922201
 10
19.48735967618159
 20
0.2362511458308791
 10
19.48669671137984
 20
0.2389510922598124
 10
19.48603183951545
 20
0.2416578664058608
 10
19.48536511971223
 20
0.2443713683158979
 10
19.48469662739459
 20
0.2470914453893531
 10
19.48402645165647
 20
0.2498179009107648
 10
19.48335469263019
 20
0.2525505025822898
 10
19.48268145885534
 20
0.2552889910562701
 10
19.48200686464774
 20
0.2580330884677711
 10
19.48133102746821
 20
0.2607825069670913
 10
19.48065406529159
 20
0.2635369572523363
 10
19.47997609397556
 20
0.2662961571019284
 10
19.47929722462951
 20
0.2690598399071877
 10
19.47861756098353
 20
0.271827763204799
 10
19.47793718592475
 20
0.2745997670707272
 10
19.47725612383146
 20
0.2773759427561178
 10
19.47657438801489
 20
0.280156410266466
 10
19.47589199771044
 20
0.2829412402372586
 10
19.4752089772623
 20
0.2857304584143652
 10
19.47452535530461
 20
0.2885240501505723
 10
19.47384116394246
 20
0.2913219649020409
 10
19.47315643793319
 20
0.2941241207248328
 10
19.47247121386736
 20
0.2969304087713542
 10
19.47178552934992
 20
0.2997406977868895
 10
19.47109942218139
 20
0.3025548386060652
 10
19.47041292953893
 20
0.3053726686493565
 10
19.46972608715745
 20
0.3081940164195647
 10
19.46903892851076
 20
0.3110187059983094
 10
19.46835148399271
 20
0.313846561542535
 10
19.46766378009828
 20
0.3166774117809741
 10
19.46697583860473
 20
0.3195110945106609
 10
19.46628767575266
 20
0.3223474610934165
 10
19.46559930142724
 20
0.3251863809523261
 10
19.46491071833925
 20
0.328027746068253
 10
19.46422192120622
 20
0.3308714754763091
 10
19.4635328959336
 20
0.3337175197623399
 10
19.46284361879579
 20
0.3365658655594519
 10
19.46215405561737
 20
0.3394165400444624
 10
19.46146416095413
 20
0.3422696154344056
 10
19.46077387727427
 20
0.3451252134830245
 10
19.46008313413947
 20
0.3479835099772632
 10
19.45939184738605
 20
0.350844739233759
 10
19.45869991830604
 20
0.3537091985953129
 10
19.45800723282838
 20
0.3565772529274103
 10
19.45731366069999
 20
0.3594493391146845
 10
19.4566190546688
 20
0.3623259705494437
 10
19.45592327384355
 20
0.3652076428914928
 10
19.45522625430667
 20
0.3680945485123832
 10
19.4545279606352
 20
0.370986777328989
 10
19.45382836914712
 20
0.3738843848127065
 10
19.45312746717659
 20
0.3767873941219921
 10
19.45242525234909
 20
0.3796957982349429
 10
19.45172173185663
 20
0.3826095620818126
 10
19.45101692173288
 20
0.3855286246776206
 10
19.45031084612844
 20
0.3884529012546469
 10
19.44960353658596
 20
0.3913822853950126
 10
19.44889503131534
 20
0.3943166511632459
 10
19.44818537446891
 20
0.3972558552388126
 10
19.44747461541667
 20
0.4001997390486756
 10
19.44676280802135
 20
0.4031481308998526
 10
19.44605000991371
 20
0.4061008481119777
 10
19.4453362817677
 20
0.4090576991498214
 10
19.44462168657558
 20
0.412018485755903
 10
19.44390628892319
 20
0.4149830050829755
 10
19.44319015426507
 20
0.4179510518266217
 10
19.44247334819969
 20
0.4209224203578207
 10
19.4417559357446
 20
0.4238969068554417
 10
19.44103798061162
 20
0.4268743114388604
 10
19.44031954448206
 20
0.4298544403004759
 10
19.43960068628183
 20
0.4328371078382835
 10
19.43888146145669
 20
0.4358221387884118
 10
19.43816192124746
 20
0.4388093703576832
 10
19.43744211196506
 20
0.4417986543561643
 10
19.43672207426589
 20
0.4447898593297471
 10
19.43600184242684
 20
0.4477828726926365
 10
19.43528144362057
 20
0.4507776028599884
 10
19.43456089719073
 20
0.4537739813803885
 10
19.43384021392698
 20
0.4567719650684501
 10
19.43311939580176
 20
0.4597715363068338
 10
19.43239844548901
 20
0.4627726649599584
 10
19.43167736943189
 20
0.4657752975401639
 10
19.43095617066247
 20
0.4687793867531715
 10
19.4302348486779
 20
0.4717848925405212
 10
19.42951339965564
 20
0.4747917817652071
 10
19.42879181666891
 20
0.477800027897219
 10
19.42807008990197
 20
0.4808096106991134
 10
19.42734820686549
 20
0.4838205159116261
 10
19.42662615261188
 20
0.4868327349392292
 10
19.42590390995063
 20
0.4898462645357089
 10
19.42518145966364
 20
0.492861106489757
 10
19.42445878072058
 20
0.495877267310542
 10
19.42373585049427
 20
0.4988947579132719
 10
19.42301264497592
 20
0.501913593304808
 10
19.42228913899054
 20
0.5049337922692151
 10
19.42156530641231
 20
0.5079553770533371
 10
19.42084112037984
 20
0.5109783730524189
 10
19.42011655351155
 20
0.5140028084956132
 10
19.41939157812107
 20
0.5170287141316427
 10
19.41866616643248
 20
0.5200561229142995
 10
19.4179402907957
 20
0.5230850696880811
 10
19.41721392390185
 20
0.5261155908737383
 10
19.41648703899854
 20
0.5291477241538747
 10
19.41575961010529
 20
0.5321815081584962
 10
19.41503161222879
 20
0.5352169821506312
 10
19.41430302157827
 20
0.5382541857118728
 10
19.41357381578088
 20
0.5412931584279637
 10
19.41284397409695
 20
0.5443339395743953
 10
19.41211347763544
 20
0.5473765678019637
 10
19.41138230956917
 20
0.5504210808223693
 10
19.41065045535023
 20
0.5534675150937664
 10
19.40991790292532
 20
0.5565159055063749
 10
19.40918464295084
 20
0.5595662850681526
 10
19.40845066885915
 20
0.5626186844844785
 10
19.40771597718118
 20
0.5656731302182739
 10
19.40698056858117
 20
0.5687296426109416
 10
19.40624444805458
 20
0.5717882357820319
 10
19.40550762498517
 20
0.5748489177022851
 10
19.40477011320215
 20
0.577911690266733
 10
19.40403193103746
 20
0.580976549367728
 10
19.40329310138285
 20
0.5840434849680083
 10
19.40255365174708
 20
0.5871124811737776
 10
19.40181361431315
 20
0.5901835163077413
 10
19.40107302599537
 20
0.5932565629821786
 10
19.40033192849664
 20
0.5963315881719871
 10
19.39959036836557
 20
0.5994085532877822
 10
19.39884839705362
 20
0.6024874142489143
 10
19.39810607097237
 20
0.6055681215565603
 10
19.39736345155061
 20
0.6086506203667473
 10
19.3966206052859
 20
0.6117348505723914
 10
19.39587760211412
 20
0.6148207489448314
 10
19.39513451115382
 20
0.6179082513530805
 10
19.39439140051859
 20
0.6209972892138202
 10
19.39364833575858
 20
0.6240877910088704
 10
19.39290537791482
 20
0.6271796845998754
 10
19.39216258157363
 20
0.6302728995429681
 10
19.39141999292096
 20
0.6333673694034605
 10
19.39067764779677
 20
0.6364630340705038
 10
19.38993556974933
 20
0.6395598420717638
 10
19.38919376808969
 20
0.6426577528881216
 10
19.38845223594593
 20
0.6457567392683165
 10
19.38771094831757
 20
0.6488567895436522
 10
19.38696986012997
 20
0.6519579099426469
 10
19.38622890428863
 20
0.6550601269057328
 10
19.3854879897336
 20
0.6581634893999198
 10
19.38474699949375
 20
0.6612680712334669
 10
19.38400578868167
 20
0.6643739736715038
 10
19.38326417818187
 20
0.6674813543314162
 10
19.38252196034761
 20
0.6705904248849866
 10
19.381778919156
 20
0.6737013789100832
 10
19.38103483474607
 20
0.6768143856863153
 10
19.38028948632763
 20
0.6799295914776753
 10
19.37954265509041
 20
0.6830471208152336
 10
19.37879412711289
 20
0.6861670777797873
 10
19.3780436962714
 20
0.6892895472845542
 10
19.377291167149
 20
0.6924145963577875
 10
19.37653635794454
 20
0.6955422754255114
 10
19.37577910338155
 20
0.6986726195941362
 10
19.37501925761733
 20
0.7018056499331511
 10
19.37425669715184
 20
0.7049413747578033
 10
19.37349132373668
 20
0.7080797909117198
 10
19.37272306728415
 20
0.7112208850496434
 10
19.37195188877613
 20
0.7143646349200257
 10
19.3711777831731
 20
0.7175110106477707
 10
19.37040078458622
 20
0.7206599662570046
 10
19.36962097462514
 20
0.7238114076543685
 10
19.36883847211273
 20
0.7269652208896124
 10
19.36805342689909
 20
0.7301212840505702
 10
19.36726601634857
 20
0.7332794688498672
 10
19.36647644182665
 20
0.7364396422115167
 10
19.36568492518696
 20
0.7396016678575297
 10
19.36489170525815
 20
0.7427654078945471
 10
19.36409703433092
 20
0.7459307244004468
 10
19.36330117464487
 20
0.7490974810109581
 10
19.36250439487562
 20
0.7522655445062885
 10
19.36170696662153
 20
0.7554347863977445
 10
19.36090916089083
 20
0.7586050845143097
 10
19.36011124458851
 20
0.7617763245893148
 10
19.35931347700327
 20
0.7649484018470166
 10
19.35851610629444
 20
0.7681212225892243
 10
19.35771936597896
 20
0.7712947057819282
 10
19.35692353274087
 20
0.77446854073221
 10
19.35612941863791
 20
0.7776402129418845
 10
19.35533790047997
 20
0.7808068550563636
 10
19.35454952664798
 20
0.7839668044279568
 10
19.35376455405026
 20
0.7871194543984164
 10
19.35298299026377
 20
0.7902650849851316
 10
19.35220463567537
 20
0.7934046935673341
 10
19.35142912562305
 20
0.7965398255722196
 10
19.35065597253725
 20
0.7996724051612123
 10
19.34988460808206
 20
0.80280456591605
 10
19.34911442529653
 20
0.8059384815250556
 10
19.34834482073586
 20
0.8090761964692577
 10
19.34757523661275
 20
0.8122194567085916
 10
19.34680520293853
 20
0.815369540368083
 10
19.34603437966456
 20
0.8185270884240143
 10
19.34526259882339
 20
0.8216919353901364
 10
19.34448990667007
 20
0.8248629400038128
 10
19.34371660578294
 20
0.8280378160798225
 10
19.34294305805267
 20
0.8312139552209476
 10
19.34216903499381
 20
0.8343911346271557
 10
19.3413941687103
 20
0.8375696665611034
 10
19.34061809737707
 20
0.8407498081475084
 10
19.33984046719849
 20
0.8439317653965492
 10
19.33906093436688
 20
0.8471156972272684
 10
19.33827916702116
 20
0.8503017194909945
 10
19.33749484720537
 20
0.8534899089947758
 10
19.33670767282722
 20
0.8566803075247495
 10
19.33591735961664
 20
0.859872925869597
 10
19.33512364308439
 20
0.8630677478439299
 10
19.33432628048052
 20
0.8662647343117074
 10
19.33352505275297
 20
0.8694638272096657
 10
19.33271976650618
 20
0.8726649535707069
 10
19.33191025595959
 20
0.8758680295473427
 10
19.33109638490619
 20
0.8790729644350552
 10
19.3302780486711
 20
0.8822796646957813
 10
19.329455174541
 20
0.8854880432773144
 10
19.32862770192306
 20
0.8886980949925716
 10
19.32779560397223
 20
0.8919098117949264
 10
19.32695891328897
 20
0.8951230845842506
 10
19.32611771635452
 20
0.8983377171688522
 10
19.32527214700173
 20
0.9015534436448453
 10
19.32442237988594
 20
0.9047699457755218
 10
19.32356862395573
 20
0.9079868703707079
 10
19.32271111592383
 20
0.9112038466661703
 10
19.3218501137379
 20
0.914420503702944
 10
19.32098589005138
 20
0.9176364877067175
 10
19.32011872569433
 20
0.9208514794672327
 10
19.31924890314426
 20
0.9240652117175988
 10
19.31837669999692
 20
0.9272774865137185
 10
19.3175023824372
 20
0.9304881926136181
 10
19.31662619870992
 20
0.9336973228568384
 10
19.31574837259065
 20
0.9369049915437928
 10
19.31486909686065
 20
0.9401114517996608
 10
19.31398854916895
 20
0.9433170277372243
 10
19.3131069555231
 20
0.9465218687970152
 10
19.31222455545805
 20
0.9497260814000528
 10
19.31134158883393
 20
0.9529297748337075
 10
19.31045829487915
 20
0.9561330599940678
 10
19.30957491123332
 20
0.9593360481282163
 10
19.30869167299023
 20
0.9625388495765195
 10
19.30780881174088
 20
0.9657415725149947
 10
19.30692655461635
 20
0.9689443216975648
 10
19.30604512333098
 20
0.9721471971983691
 10
19.30516473322509
 20
0.9753502931541095
 10
19.30428559230815
 20
0.9785536965063259
 10
18.23235630719619
 20
0.9396354730190612
 10
18.19290030719619
 20
0.9386654730190659
 10
18.03277130719621
 20
0.934253473019064
 10
17.81948830719622
 20
0.9267774730190668
 10
17.78537130719619
 20
0.8926614730190838
 42
-0.198874849027054
 10
17.6675203071962
 20
0.8438454730190887
 10
16.53907230719621
 20
0.8438454730190674
 10
15.78099930719619
 20
0.8438454730190745
 10
14.3285683071962
 20
0.8438454730190745
 10
9.919503307196194
 20
0.8438454730190745
 10
5.510422307196215
 20
0.8438454730190816
 10
4.058007307196213
 20
0.8438454730190816
 10
3.299934307196186
 20
0.8438454730190816
 10
2.171486307196195
 20
0.8438454730190816
 42
-0.1997835286380191
 10
2.053634941296174
 20
0.8926611071190766
 10
2.019518307196214
 20
0.9267774730190811
 10
1.806235307196196
 20
0.9342534730190779
 10
1.646106307196211
 20
0.9386654730190802
 10
1.606650307196209
 20
0.9396354730190752
 10
0.1025773071962064
 20
0.993837473019079
 42
0.139000854302903
 10
0.0072395569708945
 20
0.9705009610295379
 10
0.0084486250186657
 20
0.9660335269773783
 10
0.0096565986800172
 20
0.9615574186999767
 10
0.010870547959037
 20
0.9570607052068158
 10
0.0120893071429649
 20
0.9525477362166171
 10
0.0133115117932832
 20
0.9480236235372547
 10
0.0145356659190341
 20
0.9434939944532647
 10
0.0157602091502085
 20
0.9389647451134111
 10
0.0169835839111627
 20
0.9344417939182195
 10
0.0182043025939507
 20
0.9299308349075108
 10
0.019421014731698
 20
0.9254370911479499
 10
0.0206325741720193
 20
0.9209650681205674
 10
0.0218381062503355
 20
0.916518307108342
 10
0.0230370749632911
 20
0.9120991385836791
 10
0.0242293501421003
 20
0.9077084355960083
 10
0.0254152746259635
 20
0.9033453671592909
 10
0.0265957314353713
 20
0.8990071516395675
 10
0.0277722109455496
 20
0.8946888101425063
 10
0.0289468780317819
 20
0.8903829200041162
 10
0.0301217891840295
 20
0.8860824950700861
 10
0.0312965407191044
 20
0.8817896175784998
 10
0.032470357238374
 20
0.8775077223818801
 10
0.0336427250540581
 20
0.8732392591321998
 10
0.0348133673691322
 20
0.8689857797854916
 10
0.0359822194575301
 20
0.864748026106378
 10
0.0371494038440048
 20
0.860526017172704
 10
0.0383152054842739
 20
0.8563191368800621
 10
0.0394800469449948
 20
0.8521262214464059
 10
0.0406444635837815
 20
0.8479456469166366
 10
0.041809078729294
 20
0.8437754166671512
 10
0.0429745788611982
 20
0.8396132489104477
 10
0.044141688790198
 20
0.8354566641996914
 10
0.0453111468381238
 20
0.8313030729333037
 10
0.0464836800178929
 20
0.8271498628595439
 10
0.0476599792135843
 20
0.8229944865810541
 10
0.0488406743604557
 20
0.8188345490595041
 10
0.0500263096249043
 20
0.8146678951201112
 10
0.0512173185846407
 20
0.8104926969562471
 10
0.052413999408536
 20
0.8063075416340144
 10
0.0536164900368093
 20
0.8021115185968117
 10
0.0548247433609745
 20
0.7979043071699527
 10
0.0560385024038439
 20
0.7936862640651885
 10
0.0572572754996301
 20
0.7894585108853481
 10
0.0584803114739359
 20
0.7852230216288536
 10
0.0597065748237569
 20
0.7809827101943672
 10
0.0609347470919701
 20
0.7767414279703521
 10
0.0621639132264065
 20
0.7725016211234053
 10
0.0633938088683621
 20
0.7682635329274367
 10
0.0646242082026376
 20
0.7640273285929471
 10
0.0658548914899555
 20
0.75979320860821
 10
0.0670856471325507
 20
0.7555614030328091
 10
0.068316273739633
 20
0.751332165791249
 10
0.0695465821930057
 20
0.7471057689664793
 10
0.0707763977126561
 20
0.7428824970934702
 10
0.0720055619222322
 20
0.7386626414527929
 10
0.073233934914704
 20
0.7344464943641516
 10
0.0744613973178119
 20
0.73023434347998
 10
0.075687852359728
 20
0.7260264660789934
 10
0.0769132278980251
 20
0.7218231233352787
 10
0.0781374768037964
 20
0.7176245503196288
 10
0.0793605740060528
 20
0.7134309366321167
 10
0.0805825136613905
 20
0.7092424218849251
 10
0.0818033063696717
 20
0.7050590987039005
 10
0.0830229763762205
 20
0.7008810158621106
 10
0.0842415587739751
 20
0.6967081814133797
 10
0.0854590967055842
 20
0.6925405658258104
 10
0.0866756385655876
 20
0.6883781051153211
 10
0.087891235202541
 20
0.6842207039791735
 10
0.0891059371212109
 20
0.6800682389294809
 10
0.0903197916846423
 20
0.6759205614267945
 10
0.0915328403163685
 20
0.6717775010135814
 10
0.0927450873472466
 20
0.6676389640426043
 10
0.093955998297453
 20
0.6635066277557744
 10
0.0951646967766848
 20
0.6593833081476408
 10
0.0963705156048249
 20
0.6552711162513793
 10
0.097572997595826
 20
0.6511714566052352
 10
0.0987718755455305
 20
0.6470850955842611
 10
0.0999670522193341
 20
0.6430122297321664
 10
0.1011585803400763
 20
0.6389525540930894
 10
0.1023466425756609
 20
0.6349053305433703
 10
0.1035315315269614
 20
0.6308694561234081
 10
0.1047136297154694
 20
0.6268435313694046
 10
0.1058933895711291
 20
0.6228259286451863
 10
0.1070713134201
 20
0.6188148604739912
 10
0.1082479334724766
 20
0.6148084478702618
 10
0.1094237918100802
 20
0.6108047886714818
 10
0.1105994203742497
 20
0.6068020258698983
 10
0.1117753209535763
 20
0.6027984159444007
 10
0.1129519451716234
 20
0.5987923971922573
 10
0.1141296744748175
 20
0.5947826580609377
 10
0.1153088001200828
 20
0.5907682054799058
 10
0.1164895031626614
 20
0.5867484331924278
 10
0.1176718344438896
 20
0.5827231900873448
 10
0.1188556945789472
 20
0.5786928485308938
 10
0.1200408139446196
 20
0.5746583726984884
 10
0.1212267326670613
 20
0.5706213869065257
 10
0.1224127806095865
 20
0.5665842439441793
 10
0.1235981013912308
 20
0.5625499424173146
 10
0.1247822783205734
 20
0.5585199782826127
 10
0.1259653281251118
 20
0.55449435984084
 10
0.1271472791334034
 20
0.5504730518180329
 10
0.128328159450227
 20
0.5464560156836118
 10
0.1295079965929133
 20
0.5424432106922854
 10
0.1306868171278026
 20
0.5384345949259332
 10
0.131864646306532
 20
0.5344301263355451
 10
0.1330415077025222
 20
0.5304297637831345
 10
0.1342174228473496
 20
0.5264334680836546
 10
0.1353924108670768
 20
0.5224412030469116
 10
0.1365664881186959
 20
0.5184529365194468
 10
0.1377396678264873
 20
0.51446864142652
 10
0.1389119597184631
 20
0.5104882968139624
 10
0.1400833696626833
 20
0.5065118888901044
 10
0.1412538993036563
 20
0.5025394120677138
 10
0.1424235456987972
 20
0.4985708700058871
 10
0.1435923009547579
 20
0.4946062766519665
 10
0.1447601518637853
 20
0.4906456572834819
 10
0.1459270795402077
 20
0.4866890495500106
 10
0.1470930590567221
 20
0.4827365045151473
 10
0.1482580590808666
 20
0.4787880876983781
 10
0.1494220415113219
 20
0.4748438801170228
 10
0.1505849611144114
 20
0.4709039793281369
 10
0.1517467651603752
 20
0.4669685004704168
 10
0.1529073930626126
 20
0.4630375772955821
 10
0.1540667798661204
 20
0.4591113490799489
 10
0.1552248609177624
 20
0.4551899474593757
 10
0.1563815590782909
 20
0.4512735496687787
 10
0.1575367837246873
 20
0.4473623834359818
 10
0.1586904324629401
 20
0.4434567212747158
 10
0.1598423928408081
 20
0.439556874777674
 10
0.1609925440606119
 20
0.4356631889095032
 10
0.1621407586920824
 20
0.4317760362998744
 10
0.1632869043850533
 20
0.4278958115364821
 10
0.1644308455823378
 20
0.424022925458063
 10
0.1655724452324208
 20
0.4201577994474608
 10
0.1667115665023644
 20
0.4163008597246094
 10
0.1678480744905002
 20
0.4124525316395893
 10
0.1689818379392349
 20
0.4086132339656479
 10
0.1701127309479133
 20
0.4047833731922116
 10
0.171240634685482
 20
0.4009633378179365
 10
0.1723654391033804
 20
0.3971534926437261
 10
0.1734870446482759
 20
0.3933541730657399
 10
0.1746053639748695
 20
0.389565679368447
 10
0.1757203236587017
 20
0.3857882710176543
 10
0.1768318659088877
 20
0.3820221609534986
 10
0.1779399502809653
 20
0.378267509883516
 10
0.1790445553896447
 20
0.3745244205756339
 10
0.1801456806215853
 20
0.3707929321512342
 10
0.1812433478482589
 20
0.3670730143781373
 10
0.1823376288045963
 20
0.3633644757209513
 10
0.1834287853212189
 20
0.359666485423924
 10
0.1845171121691251
 20
0.3559780852993146
 10
0.1856028466049295
 20
0.3522984913153184
 10
0.1866861724827586
 20
0.3486270814218546
 10
0.187767224756719
 20
0.3449633820728355
 10
0.1888460939832939
 20
0.3413070547484498
 10
0.1899228308237397
 20
0.3376578824773748
 10
0.190997450546611
 20
0.3340157563590953
 10
0.1920699375300998
 20
0.3303806620861298
 10
0.1931402497644896
 20
0.3267526664662927
 10
0.1942083233545944
 20
0.3231319039449705
 10
0.1952740770221979
 20
0.3195185631273976
 10
0.1963374166084222
 20
0.3159128733008689
 10
0.1973982395762519
 20
0.3123150909570658
 10
0.1984564395128743
 20
0.3087254863142537
 10
0.1995119106321468
 20
0.3051443298396013
 10
0.2005645522770223
 20
0.3015718787714068
 10
0.2016142734220025
 20
0.2980083636413813
 10
0.202660997175478
 20
0.2944539747968822
 10
0.2037046652822951
 20
0.2909088489232179
 10
0.2047452426260392
 20
0.2873730555658671
 10
0.2057827217315733
 20
0.2838465836527693
 10
0.2068171272674064
 20
0.2803293280165793
 10
0.2078485205481613
 20
0.2768210759169225
 10
0.208876998424337
 20
0.2733215128047082
 10
0.2099025683105893
 20
0.2698306536416357
 10
0.210925115374998
 20
0.26634895989684
 10
0.2119445100274433
 20
0.2628769704351672
 10
0.2129606184854893
 20
0.2594152623311405
 10
0.2139733084282582
 20
0.2559644284796665
 10
0.2149824546505457
 20
0.2525250552066982
 10
0.2159879447168365
 20
0.2490976998799343
 10
0.2169896846152923
 20
0.2456828685195251
 10
0.2179876044117961
 20
0.2422809934087073
 10
0.2189816639039677
 20
0.2388924107045387
 10
0.2199718582752226
 20
0.2355173380485755
 10
0.2209582237487311
 20
0.2321558521775291
 10
0.2219408422824713
 20
0.2288078703105061
 10
0.2229198296685908
 20
0.2254731917296073
 10
0.2238953383070097
 20
0.2221514659351857
 10
0.224867569991865
 20
0.2188421325292058
 10
0.2258367738736027
 20
0.2155444269385089
 10
0.2268032438832321
 20
0.2122573883815964
 10
0.2277673161565943
 20
0.2089798678354189
 10
0.2287293664586301
 20
0.2057105360021882
 10
0.2296898076076204
 20
0.2024478912761456
 10
0.2306490868994828
 20
0.1991902677103869
 10
0.2316076835320402
 20
0.1959358429836104
 10
0.2325661060292603
 20
0.1926826463669773
 10
0.2335248896655386
 20
0.1894285666908448
 10
0.2344845749034405
 20
0.1861714257452593
 10
0.2354454394595606
 20
0.1829099055003187
 10
0.2364075994749228
 20
0.1796432179358778
 10
0.2373712426534595
 20
0.1763703131281051
 10
0.2383366218288998
 20
0.1730899077874444
 10
0.2393040418646066
 20
0.169800536699805
 10
0.2402738465534
 20
0.1665006041676822
 10
0.2412464055173373
 20
0.1631884354513691
 10
0.2422221011075223
 20
0.1598623282100835
 10
0.2432013153039136
 20
0.1565206039431519
 10
0.2441844166151341
 20
0.1531616594311789
 10
0.2451717469782793
 20
0.149784018177181
 10
0.2461636086587404
 20
0.1463863818477922
 10
0.2471602511499711
 20
0.1429676817143903
 10
0.2481618580733382
 20
0.1395271300942884
 10
0.2491685340778744
 20
0.1360642717918896
 10
0.2501802917401719
 20
0.1325790355398357
 10
0.2511970384640776
 20
0.1290717854401979
 10
0.252218563380616
 20
0.1255433724056392
 10
0.2532445242476839
 20
0.1219951856005554
 10
0.2542744343499592
 20
0.1184292038822452
 10
0.2553076493986239
 20
0.1148480472420932
 10
0.2563433544312588
 20
0.1112550282467328
 10
0.2573805507115381
 20
0.1076542034791874
 10
0.2584180426291383
 20
0.1040504249800396
 10
0.2594544245994896
 20
0.1004493916886151
 10
0.2604880679636281
 20
0.0968577008841383
 10
0.2615171255259767
 20
0.0932828351397195
 10
0.262539936881133
 20
0.0897316640509392
 10
0.2635551030131822
 20
0.0862100843100056
 10
0.2645611693892746
 20
0.0827241296040544
 10
0.2655567014583298
 20
0.0792796795727657
 10
0.2665403797513122
 20
0.07588209785707
 10
0.2675110949812236
 20
0.0725358701478971
 10
0.2684680425085091
 20
0.0692442459119906
 10
0.2694107621016641
 20
0.0660091041484652
 10
0.2703390587389478
 20
0.062831147576242
 10
0.2712530276911096
 20
0.059709740871897
 10
0.272153130762895
 20
0.0566426809881708
 10
0.2730402730231063
 20
0.0536259713950731
 10
0.2739158795347905
 20
0.0506535963210073
 10
0.3050743071962003
 20
-0.0631025269809182
 10
0.3056867105760901
 20
-0.0655749917517508
 10
0.3063422772261006
 20
-0.0681591390252674
 10
0.3070069243727076
 20
-0.0707738084775311
 10
0.3076812511847535
 20
-0.0734208206407043
 10
0.3083655391716249
 20
-0.076100937342046
 10
0.3090598281486123
 20
-0.0788141738142638
 10
0.3097639922021571
 20
-0.0815601108059152
 10
0.3104778077367953
 20
-0.0843381633032987
 10
0.3112008997858524
 20
-0.087147282443544
 10
0.3119326447890742
 20
-0.0899855498086151
 10
0.312672218923602
 20
-0.0928503667353464
 10
0.313418667804747
 20
-0.0957387064497919
 10
0.3141709761855012
 20
-0.098647366109601
 10
0.3149281376558477
 20
-0.1015732188464025
 10
0.3156892243423712
 20
-0.1045134658081732
 10
0.3164533414747481
 20
-0.1074654434427256
 10
0.3172189459843864
 20
-0.1104239693065576
 10
0.3179844714964091
 20
-0.1133837322966595
 10
0.3187487467635108
 20
-0.1163409028357716
 10
0.3195109445015376
 20
-0.1192929333894082
 10
0.3202705274573319
 20
-0.1222383483035667
 10
0.3210271944767484
 20
-0.1251765336424722
 10
0.3217808265725424
 20
-0.1281075270262857
 10
0.3225314329923279
 20
-0.131031807468835
 10
0.3232790972865374
 20
-0.1339500852153659
 10
0.3240239233763091
 20
-0.1368630915802438
 10
0.3247659816214892
 20
-0.1397713687847055
 10
0.3255052548885047
 20
-0.1426750597945752
 10
0.3262415846183515
 20
-0.1455736981579729
 10
0.3269746168945247
 20
-0.1484659978430951
 10
0.3277037485109204
 20
-0.1513496430758803
 10
0.3284280808392097
 20
-0.1542211087052916
 10
0.3291468822637924
 20
-0.1570774715085914
 10
0.3298600677217891
 20
-0.1599182907565844
 10
0.3305676451147761
 20
-0.1627434458666439
 10
0.331269654920483
 20
-0.1655529039564723
 10
0.3319661701040459
 20
-0.1683467233856373
 10
0.3326572960291898
 20
-0.1711250572971092
 10
0.3333431703694956
 20
-0.1738881571588688
 10
0.3340239630196109
 20
-0.1766363763054155
 10
0.3346998760064466
 20
-0.1793701734793256
 10
0.3353711434004722
 20
-0.182090116372839
 10
0.3360380312268703
 20
-0.1847968851693817
 10
0.3367008373767888
 20
-0.1874912760851526
 10
0.3373598915185809
 20
-0.1901742049106385
 10
0.3380155550090151
 20
-0.1928467105522085
 10
0.3386682208045002
 20
-0.1955099585736359
 10
0.3393183133723099
 20
-0.1981652447376785
 10
0.3399662777539945
 20
-0.2008139531437134
 10
0.3406125328772518
 20
-0.2034573688971673
 10
0.341257477851947
 20
-0.2060967147015571
 10
0.3419014973093155
 20
-0.208733176194988
 10
0.3425449595799748
 20
-0.2113678961832743
 10
0.3431882148718941
 20
-0.214001968873097
 10
0.3438315934483356
 20
-0.216636434105153
 10
0.3444754038058235
 20
-0.2192722715872915
 10
0.3451199308520998
 20
-0.2219103951276562
 10
0.3457654340841501
 20
-0.224551646867857
 10
0.346412145766088
 20
-0.2271967915160769
 10
0.3470602691071676
 20
-0.2298465105802503
 10
0.3477099764397664
 20
-0.2325013966011777
 10
0.3483614073972987
 20
-0.2351619473857038
 10
0.3490146670922272
 20
-0.2378285602398389
 10
0.3496698242939757
 20
-0.2405015262019159
 10
0.3503269154670292
 20
-0.2431810435802841
 10
0.3509859669581985
 20
-0.2458672873191485
 10
0.3516469843325396
 20
-0.2485603666043072
 10
0.3523099489612989
 20
-0.2512603123769619
 10
0.352974820652868
 20
-0.2539670858656589
 10
0.3536415402838955
 20
-0.2566805871188205
 10
0.3543100324303552
 20
-0.2594006635372192
 10
0.3549802079986719
 20
-0.2621271184065019
 10
0.3556519668567617
 20
-0.2648597194296922
 10
0.3563252004652284
 20
-0.2675982072596721
 10
0.3569997945083756
 20
-0.270342304031713
 10
0.3576756315253462
 20
-0.2730917218959572
 10
0.3583525935411913
 20
-0.2758461715499347
 10
0.3590305646980099
 20
-0.278605370771059
 10
0.3597094338860032
 20
-0.2813690529491293
 10
0.3603890973746147
 20
-0.2841369756188268
 10
0.3610694722729377
 20
-0.2869089788394827
 10
0.3617505341974763
 20
-0.2896851538397254
 10
0.3624322698357574
 20
-0.2924656206208791
 10
0.3631146599516555
 20
-0.295250449816292
 10
0.3637976802006833
 20
-0.2980396671715137
 10
0.3644813019489064
 20
-0.3008332580406101
 10
0.3651654930917019
 20
-0.3036311718824702
 10
0.3658502188725876
 20
-0.3064333267570998
 10
0.3665354427020944
 20
-0.3092396138219424
 10
0.3672211269766095
 20
-0.3120499018281801
 10
0.367907233897121
 20
-0.3148640416170334
 10
0.3685937262881609
 20
-0.3176818706160827
 10
0.369280568416535
 20
-0.3205032173355615
 10
0.3699677268102235
 20
-0.3233279058646712
 10
0.3706551710771677
 20
-0.3261557603678664
 10
0.3713428747241565
 20
-0.3289866095811984
 10
0.3720308159755703
 20
-0.3318202913085866
 10
0.3727189785922818
 20
-0.3346566569181473
 10
0.3734073526904993
 20
-0.3374955758384868
 10
0.3740959355605113
 20
-0.3403369400550087
 10
0.3747847324856153
 20
-0.3431806686062355
 10
0.3754737575608757
 20
-0.3460267120800946
 10
0.3761630345119968
 20
-0.3488750571102397
 10
0.3768525975141372
 20
-0.3517257308723369
 10
0.3775424920107255
 20
-0.3545788055804007
 10
0.3782327755323465
 20
-0.3574344029830723
 10
0.3789235185154993
 20
-0.3602926988599417
 10
0.3796148051214843
 20
-0.3631539275178621
 10
0.3803067340552175
 20
-0.3660183862872213
 10
0.380999419384004
 20
-0.3688864400182847
 10
0.381692991356509
 20
-0.371758525577496
 10
0.3823875972194841
 20
-0.3746351563358257
 10
0.3830833778674147
 20
-0.377516827965982
 10
0.3837803972239229
 20
-0.3804037328641225
 10
0.3844786907124913
 20
-0.383295960948784
 10
0.3851782820156231
 20
-0.3861935676930397
 10
0.3858791837996662
 20
-0.3890965762569944
 10
0.3865813984396239
 20
-0.3920049796203795
 10
0.3872849187439939
 20
-0.3949187427150544
 10
0.3879897286795071
 20
-0.3978378045575734
 10
0.3886958040960238
 20
-0.4007620803817087
 10
0.3894031134513014
 20
-0.4036914637710165
 10
0.3901116185358191
 20
-0.4066258287913397
 10
0.3908212751976165
 20
-0.4095650321234017
 10
0.3915320340670334
 20
-0.4125089151953019
 10
0.3922438412816049
 20
-0.415457306315096
 10
0.3929566392108299
 20
-0.4184100228033059
 10
0.3936703671809809
 20
-0.4213668731254768
 10
0.3943849621999718
 20
-0.4243276590247246
 10
0.3951003596820826
 20
-0.4272921776542642
 10
0.3958164941728412
 20
-0.4302602237099631
 10
0.3965333000738198
 20
-0.433231591562871
 10
0.3972507123674305
 20
-0.436206077391793
 10
0.3979686673417646
 20
-0.4391834813157784
 10
0.3986871033153747
 20
-0.4421636095267143
 10
0.3994059613621275
 20
-0.4451462764218431
 10
0.4001251860359716
 20
-0.4481313067362989
 10
0.4008447260957766
 20
-0.4511185376756597
 10
0.4015645352301719
 20
-0.4541078210485079
 10
0.4022845727822997
 20
-0.4570990253989307
 10
0.4030048044746837
 20
-0.4600920381390863
 10
0.4037252031339805
 20
-0.4630867676817643
 10
0.4044457494158637
 20
-0.4660831455728867
 10
0.4051664325298037
 20
-0.4690811286240744
 10
0.4058872505029072
 20
-0.4720806992164255
 10
0.4066082006630796
 20
-0.4750818272219687
 10
0.4073292765674596
 20
-0.4780844591544862
 10
0.4080504751839201
 20
-0.4810885477197413
 10
0.4087717970152981
 20
-0.4840940528593105
 10
0.4094932458840719
 20
-0.487100941436202
 10
0.4102148287169669
 20
-0.4901091869203979
 10
0.4109365553296628
 20
-0.4931187690744621
 10
0.411658438211454
 20
-0.4961296736390948
 10
0.4123804923098719
 20
-0.4991418920187254
 10
0.4131027348153893
 20
-0.5021554209671049
 10
0.4138251849460417
 20
-0.5051702622728538
 10
0.4145478637320751
 20
-0.5081864224450552
 10
0.4152707938006799
 20
-0.5112039123988536
 10
0.4159939991605698
 20
-0.5142227471410035
 10
0.4167175049866856
 20
-0.517242945455477
 10
0.4174413374048174
 20
-0.520264529589019
 10
0.418165523276308
 20
-0.5232875249367323
 10
0.4188900899826751
 20
-0.5263119597276768
 10
0.4196150652103017
 20
-0.5293378647104117
 10
0.4203404767350565
 20
-0.5323652728386305
 10
0.4210663522069851
 20
-0.5353942189566734
 10
0.4217927189349738
 20
-0.5384247394851496
 10
0.4225196036713684
 20
-0.5414568721065205
 10
0.4232470323966809
 20
-0.544490655450657
 10
0.4239750301041953
 20
-0.5475261287804171
 10
0.4247036205846868
 20
-0.5505633316772443
 10
0.4254328262110434
 20
-0.5536023037267466
 10
0.4261626677229275
 20
-0.5566430842042589
 10
0.4268931640114248
 20
-0.5596857117604355
 10
0.4276243319037647
 20
-0.5627302241068062
 10
0.4283561859478695
 20
-0.5657766577014112
 10
0.4290887381971304
 20
-0.5688250474343075
 10
0.4298219979952125
 20
-0.5718754263133175
 10
0.4305559719097616
 20
-0.5749278250438206
 10
0.4312906634101739
 20
-0.5779822700893345
 10
0.432026071832489
 20
-0.581038781791902
 10
0.4327621921815492
 20
-0.5840973742716269
 10
0.4334990150738565
 20
-0.5871580554997477
 10
0.4342365266803159
 20
-0.5902208273716934
 10
0.4349747086692092
 20
-0.5932856857801651
 10
0.4357135381489102
 20
-0.5963526206881921
 10
0.4364529876107568
 20
-0.5994216162022054
 10
0.437193024871938
 20
-0.602492650645095
 10
0.4379336130182523
 20
-0.6055656966292827
 10
0.4386747103470088
 20
-0.6086407211298078
 10
0.4394162703097991
 20
-0.6117176855573643
 10
0.4401582414554002
 20
-0.6147965458313946
 10
0.440900567372573
 20
-0.6178772524531322
 10
0.4416431866328665
 20
-0.6209597505786828
 10
0.442386032739158
 20
-0.6240439801009982
 10
0.4431290357552271
 20
-0.6271298777905212
 10
0.443872126562262
 20
-0.6302173795164503
 10
0.4446152370467118
 20
-0.6333064166962627
 10
0.4453583016584517
 20
-0.636396917812446
 10
0.446101259356361
 20
-0.6394888107271708
 10
0.4468440555540313
 20
-0.6425820249969175
 10
0.4475866440652754
 20
-0.6456764941871978
 10
0.4483289890498483
 20
-0.6487721581871409
 10
0.4490710669589859
 20
-0.6518689655242138
 10
0.4498128684811249
 20
-0.6549668756788503
 10
0.4505544004874267
 20
-0.6580658613991215
 10
0.451295687977485
 20
-0.6611659110154005
 10
0.4520367760248761
 20
-0.6642670307550045
 10
0.45277773172284
 20
-0.6673692470568735
 10
0.4535186461298438
 20
-0.6704726088862199
 10
0.4542596362152909
 20
-0.6735771900492065
 10
0.4550008468644722
 20
-0.6766830918076732
 10
0.4557424571887128
 20
-0.6797904717639991
 10
0.4564846748352879
 20
-0.6828995415942725
 10
0.4572277158288716
 20
-0.6860104948861318
 10
0.4579718000318067
 20
-0.6891235009265682
 10
0.4587171482351309
 20
-0.6922387059848401
 10
0.4594639792497546
 20
-0.695356234595371
 10
0.4602125069974721
 20
-0.6984761908406494
 10
0.4609629376020976
 20
-0.7015986596341559
 10
0.4617154664805341
 20
-0.7047237080032485
 10
0.4624702754338801
 20
-0.7078513863720897
 10
0.4632275297384825
 20
-0.7109817298445247
 10
0.4639873752370606
 20
-0.7141147594870301
 10
0.4647499354297723
 20
-0.7172504836115703
 10
0.4655153085653084
 20
-0.7203888990585538
 10
0.4662835647319882
 20
-0.7235299924796959
 10
0.4670547429488252
 20
-0.7266737416209548
 10
0.4678288482566657
 20
-0.7298201166054295
 10
0.4686058465479094
 20
-0.7329690714639039
 10
0.4693856562159411
 20
-0.7361205121095349
 10
0.4701681584389449
 20
-0.7392743245909923
 10
0.4709532033680901
 20
-0.7424303869962455
 10
0.4717406136405132
 20
-0.7455885710389705
 10
0.4725301878923105
 20
-0.7487487436449653
 10
0.4733217042715057
 20
-0.7519107685385205
 10
0.474114923951028
 20
-0.7550745078287929
 10
0.4749095946416518
 20
-0.7582398235961973
 10
0.4757054541050465
 20
-0.7614065794787717
 10
0.4765022336666578
 20
-0.7645746422585999
 10
0.4772996617287859
 20
-0.7677438834481322
 10
0.4780974672834404
 20
-0.7709141808766287
 10
0.4788953834254457
 20
-0.7740854202764833
 10
0.479693150865309
 20
-0.7772574968696642
 10
0.480490521442242
 20
-0.7804303169540372
 10
0.4812872616371564
 20
-0.7836037994898019
 10
0.4820830948396875
 20
-0.7867776340809609
 10
0.4828772091648477
 20
-0.7899493069244114
 10
0.4836687277266023
 20
-0.7931159503715702
 10
0.4844571020619881
 20
-0.796275901454882
 10
0.4852420751906338
 20
-0.7994285532339786
 10
0.4860236394740485
 20
-0.8025741854842092
 10
0.4868019944747389
 20
-0.8057137953851221
 10
0.4875775048154268
 20
-0.8088489282090003
 10
0.4883506580382928
 20
-0.8119815080093298
 10
0.489122022464109
 20
-0.8151136683093563
 10
0.4898922050514827
 20
-0.8182475827905387
 10
0.490661809256075
 20
-0.8213852959811145
 10
0.4914313928897303
 20
-0.8245285539445371
 10
0.4922014259797365
 20
-0.82767863496805
 10
0.4929722486280144
 20
-0.8308361802511521
 10
0.4937440288702888
 20
-0.8340010245941209
 10
0.4945167205353373
 20
-0.8371720270865148
 10
0.4952900211439373
 20
-0.8403469019606486
 10
0.4960635687027022
 20
-0.8435230404015339
 10
0.4968375915644361
 20
-0.8467002190637114
 10
0.4976124576302894
 20
-0.849878750234458
 10
0.4983885287293007
 20
-0.8530588910571792
 10
0.4991661586599109
 20
-0.8562408475554459
 10
0.4999456912316094
 20
-0.8594247786569635
 10
0.5007274583065069
 20
-0.8626108002175508
 10
0.5015117778408822
 20
-0.8657989890451585
 10
0.5022989519267825
 20
-0.8689893869238414
 10
0.5030892648336547
 20
-0.8721820046377555
 10
0.5038829810498484
 20
-0.8753768259951595
 10
0.5046803433242744
 20
-0.8785738118523822
 10
0.5054815707079074
 20
-0.8817729041378239
 10
0.5062868565954731
 20
-0.8849740298759678
 10
0.5070963667669517
 20
-0.8881771052113387
 10
0.5079102374291651
 20
-0.8913820394325123
 10
0.5087285732574074
 20
-0.8945887389960969
 10
0.5095514469633075
 20
-0.897797116836953
 10
0.5103789191304955
 20
-0.9010071677294799
 10
0.5112110166111635
 20
-0.9042188836469248
 10
0.5120477068138669
 20
-0.9074321555160532
 10
0.512888903266024
 20
-0.9106467871708812
 10
0.5137344721428079
 20
-0.9138625127313472
 10
0.5145842387961537
 20
-0.9170790139819812
 10
0.5154379942837366
 20
-0.9202959377505861
 10
0.5162955018979929
 20
-0.9235129132869117
 10
0.5171565036950412
 20
-0.9267295696413151
 10
0.5180207270236892
 20
-0.9299455530434439
 10
0.5188878910544262
 20
-0.9331605442809143
 10
0.519757713308387
 20
-0.9363742760779823
 10
0.5206299161863585
 20
-0.9395865504741943
 10
0.5215042334977156
 20
-0.9427972562031056
 10
0.5223804169894564
 20
-0.9460063860709107
 10
0.5232582428751372
 20
-0.9492140543351419
 10
0.524137518359929
 20
-0.9524205140681145
 10
0.5250180658032022
 20
-0.9556260894141651
 10
0.5258996592133869
 20
-0.9588309298732847
 10
0.5267820590574175
 20
-0.9620351418715442
 10
0.5276650254763596
 20
-0.9652388346997096
 10
0.5285483192425389
 20
-0.9684421192557676
 10
0.5294317027166571
 20
-0.9716451067874823
 10
0.5303149408048072
 20
-0.9748479076348941
 10
0.5311978019156172
 20
-0.9780506299728823
 10
0.5320800589172805
 20
-0.9812533785536583
 10
0.5329614900946851
 20
-0.9844562534493215
 10
0.5338418801064579
 20
-0.9876593487944004
 10
0.534721020942051
 20
-0.9908627515283379
 10
1.606650307196209
 20
-0.9519445269809008
 10
1.646106307196211
 20
-0.9509745269809055
 10
1.806235307196196
 20
-0.9465625269809031
 10
2.019518307196214
 20
-0.9390865269809063
 10
2.053635307196195
 20
-0.9049705269809232
 42
-0.2005956140913553
 10
2.171486307196195
 20
-0.8561545269809212
 10
3.299934307196186
 20
-0.8561545269809068
  0
VIEWPORT
  5
2D
102
{ACAD_XDICTIONARY
360
925
102
}
330
B
100
AcDbEntity
 67
     1
  8
0
 62
     0
370
     0
100
AcDbViewport
 10
0.0
 20
0.0
 30
0.0
 40
1000.0
 41
1000.0
 68
     1
 69
     1
 12
0.0
 22
0.0
 13
0.0
 23
0.0
 14
1.0
 24
1.0
 15
1.0
 25
1.0
 16
0.0
 26
0.0
 36
1.0
 17
0.0
 27
0.0
 37
0.0
 42
50.0
 43
0.0
 44
0.0
 45
1000.0
 50
0.0
 51
0.0
 72
   100
 90
        0
  1

281
     0
 71
     0
 74
     1
110
0.0
120
0.0
130
0.0
111
1.0
121
0.0
131
0.0
112
0.0
122
1.0
132
0.0
 79
     0
146
0.0
  0
ENDSEC
  0
SECTION
  2
OBJECTS
  0
DICTIONARY
  5
19
330
0
100
AcDbDictionary
281
     1
  3
ACAD_CIP_PREVIOUS_PRODUCT_INFO
350
626
  3
ACAD_COLOR
350
D8
  3
ACAD_DETAILVIEWSTYLE
350
621
  3
ACAD_GROUP
350
1A
  3
ACAD_LAYOUT
350
1E
  3
ACAD_MATERIAL
350
AB
  3
ACAD_MLEADERSTYLE
350
ED
  3
ACAD_MLINESTYLE
350
1B
  3
ACAD_PLOTSETTINGS
350
22
  3
ACAD_PLOTSTYLENAME
350
1F
  3
ACAD_SCALELIST
350
DB
  3
ACAD_SECTIONVIEWSTYLE
350
61F
  3
ACAD_TABLESTYLE
350
D9
  3
ACAD_VISUALSTYLE
350
C4
  3
ACAD_WIPEOUT_VARS
350
23
  3
ACDB_RECOMPOSE_DATA
350
91F
  3
AcDbVariableDictionary
350
914
  3
ASE_INDEX_DICTIONARY
350
568
  3
DWGPROPS
350
920
  0
DICTIONARY
  5
451
330
2
100
AcDbDictionary
280
     1
281
     1
  3
ACAD_LAYERSTATES
360
452
  0
DICTIONARY
  5
560
330
14
100
AcDbDictionary
280
     1
281
     1
  3
ADSK_XREC_LAYER_RECONCILED
360
561
  0
DICTIONARY
  5
426
330
425
100
AcDbDictionary
280
     1
281
     1
  3
ADSK_XREC_LAYER_RECONCILED
360
562
  0
DICTIONARY
  5
428
330
427
100
AcDbDictionary
280
     1
281
     1
  3
ADSK_XREC_LAYER_RECONCILED
360
563
  0
DICTIONARY
  5
42E
330
42D
100
AcDbDictionary
280
     1
281
     1
  3
ADSK_XREC_LAYER_RECONCILED
360
564
  0
DICTIONARY
  5
432
330
431
100
AcDbDictionary
280
     1
281
     1
  3
ADSK_XREC_LAYER_RECONCILED
360
565
  0
DICTIONARY
  5
438
330
437
100
AcDbDictionary
280
     1
281
     1
  3
ADSK_XREC_LAYER_RECONCILED
360
566
  0
DICTIONARY
  5
469
330
A
100
AcDbDictionary
280
     1
281
     1
  3
ACAD_SORTENTS
360
46A
  0
DICTIONARY
  5
612
330
53D
100
AcDbDictionary
280
     1
281
     1
  3
ACAD_MTEXT_RT
360
94E
  0
DICTIONARY
  5
909
330
757
100
AcDbDictionary
280
     1
281
     1
  3
ACAD_MTEXT_RT
360
961
  0
DICTIONARY
  5
90B
330
844
100
AcDbDictionary
280
     1
281
     1
  3
ACAD_MTEXT_RT
360
962
  0
DICTIONARY
  5
925
330
2D
100
AcDbDictionary
280
     1
281
     1
  3
ACAD_XREC_ROUNDTRIP
360
926
  0
XRECORD
  5
626
102
{ACAD_REACTORS
330
19
102
}
330
19
100
AcDbXrecord
280
     1
300
ACDLT
300
2015
300
ACDLT_F_S
  0
DICTIONARY
  5
D8
102
{ACAD_REACTORS
330
19
102
}
330
19
100
AcDbDictionary
281
     1
  0
DICTIONARY
  5
621
102
{ACAD_REACTORS
330
19
102
}
330
19
100
AcDbDictionary
281
     1
  3
METRIC50
350
622
  0
DICTIONARY
  5
1A
102
{ACAD_REACTORS
330
19
102
}
330
19
100
AcDbDictionary
281
     1
  0
DICTIONARY
  5
1E
102
{ACAD_REACTORS
330
19
102
}
330
19
100
AcDbDictionary
281
     1
  3
Layout1
350
21
  3
Model
350
20
  0
DICTIONARY
  5
AB
102
{ACAD_REACTORS
330
19
102
}
330
19
100
AcDbDictionary
281
     1
  3
ByBlock
350
B4
  3
ByLayer
350
AC
  3
Global
350
BC
  0
DICTIONARY
  5
ED
102
{ACAD_REACTORS
330
19
102
}
330
19
100
AcDbDictionary
281
     1
  3
Standard
350
EE
  0
DICTIONARY
  5
1B
102
{ACAD_REACTORS
330
19
102
}
330
19
100
AcDbDictionary
281
     1
  3
Standard
350
1C
  0
DICTIONARY
  5
22
102
{ACAD_REACTORS
330
19
102
}
330
19
100
AcDbDictionary
281
     1
  0
ACDBDICTIONARYWDFLT
  5
1F
102
{ACAD_REACTORS
330
19
102
}
330
19
100
AcDbDictionary
281
     1
  3
Normal
350
1D
100
AcDbDictionaryWithDefault
340
1D
  0
DICTIONARY
  5
DB
102
{ACAD_REACTORS
330
19
102
}
330
19
100
AcDbDictionary
281
     1
  3
A0
350
DC
  3
A1
350
DD
  3
A2
350
DE
  3
A3
350
DF
  3
A4
350
E0
  3
A5
350
E1
  3
A6
350
E2
  3
A7
350
E3
  3
A8
350
E4
  3
A9
350
E5
  3
B0
350
E6
  3
B1
350
E7
  3
B2
350
E8
  3
B3
350
E9
  3
B4
350
EA
  3
B5
350
EB
  3
B6
350
EC
  0
DICTIONARY
  5
61F
102
{ACAD_REACTORS
330
19
102
}
330
19
100
AcDbDictionary
281
     1
  3
METRIC50
350
620
  0
DICTIONARY
  5
D9
102
{ACAD_REACTORS
330
19
102
}
330
19
100
AcDbDictionary
281
     1
  3
Standard
350
DA
  0
DICTIONARY
  5
C4
102
{ACAD_REACTORS
330
19
102
}
330
19
100
AcDbDictionary
281
     1
  3
2dWireframe
350
CA
  3
3D Hidden
350
CC
  3
3dWireframe
350
CB
  3
Basic
350
C9
  3
Brighten
350
D0
  3
ColorChange
350
D4
  3
Conceptual
350
CD
  3
Dim
350
CF
  3
EdgeColorOff
350
D7
  3
Facepattern
350
D3
  3
Flat
350
C5
  3
FlatWithEdges
350
C6
  3
Gouraud
350
C7
  3
GouraudWithEdges
350
C8
  3
Hidden
350
619
  3
JitterOff
350
D5
  3
Linepattern
350
D2
  3
OverhangOff
350
D6
  3
Realistic
350
CE
  3
Shaded
350
61E
  3
Shaded with edges
350
61D
  3
Shades of Gray
350
61A
  3
Sketchy
350
61B
  3
Thicken
350
D1
  3
Wireframe
350
618
  3
X-Ray
350
61C
  0
WIPEOUTVARIABLES
  5
23
330
19
100
AcDbWipeoutVariables
 70
     1
  0
XRECORD
  5
91F
102
{ACAD_REACTORS
330
19
102
}
330
19
100
AcDbXrecord
280
     1
 90
        1
330
DA
  0
DICTIONARY
  5
914
102
{ACAD_REACTORS
330
19
102
}
330
19
100
AcDbDictionary
281
     1
  3
CANNOSCALE
350
919
  3
CMLEADERSTYLE
350
916
  3
CTABLESTYLE
350
915
  3
CVIEWDETAILSTYLE
350
917
  3
CVIEWSECTIONSTYLE
350
918
  3
DIMASSOC
350
91C
  3
INDEXCTL
350
91B
  3
SORTENTS
350
91A
  3
XCLIPFRAME
350
91D
  0
DICTIONARY
  5
568
102
{ACAD_REACTORS
330
19
102
}
330
19
100
AcDbDictionary
281
     1
  3
ASEBlockHierarchyIndexRecord
350
569
1001
DCO15
1040
1697966597.562
  0
XRECORD
  5
920
102
{ACAD_REACTORS
330
19
102
}
330
19
100
AcDbXrecord
280
     1
  1
DWGPROPS COOKIE
  2

  3

  4

  6

  7

  8
kamerka
  9

300
=
301
=
302
=
303
=
304
=
305
=
306
=
307
=
308
=
309
=
 40
0.0071077199074074
 41
2455454.069686829
 42
2457715.654796737
  1

 90
        0
  0
DICTIONARY
  5
452
102
{ACAD_REACTORS
330
451
102
}
330
451
100
AcDbDictionary
281
     1
  0
XRECORD
  5
561
102
{ACAD_REACTORS
330
560
102
}
330
560
100
AcDbXrecord
280
     1
290
     1
  0
XRECORD
  5
562
102
{ACAD_REACTORS
330
426
102
}
330
426
100
AcDbXrecord
280
     1
290
     1
  0
XRECORD
  5
563
102
{ACAD_REACTORS
330
428
102
}
330
428
100
AcDbXrecord
280
     1
290
     1
  0
XRECORD
  5
564
102
{ACAD_REACTORS
330
42E
102
}
330
42E
100
AcDbXrecord
280
     1
290
     1
  0
XRECORD
  5
565
102
{ACAD_REACTORS
330
432
102
}
330
432
100
AcDbXrecord
280
     1
290
     1
  0
XRECORD
  5
566
102
{ACAD_REACTORS
330
438
102
}
330
438
100
AcDbXrecord
280
     1
290
     1
  0
SORTENTSTABLE
  5
46A
102
{ACAD_REACTORS
330
469
102
}
330
469
100
AcDbSortentsTable
330
A
331
464
  5
4F6
331
45F
  5
4F2
331
461
  5
4F3
331
462
  5
4F4
331
463
  5
4F5
  0
XRECORD
  5
94E
102
{ACAD_REACTORS
330
612
102
}
330
612
100
AcDbXrecord
280
     1
 40
2570.0
  1
15°
  0
XRECORD
  5
961
102
{ACAD_REACTORS
330
909
102
}
330
909
100
AcDbXrecord
280
     1
 40
2570.0
  1
15°
  0
XRECORD
  5
962
102
{ACAD_REACTORS
330
90B
102
}
330
90B
100
AcDbXrecord
280
     1
 40
2570.0
  1
15°
  0
XRECORD
  5
926
102
{ACAD_REACTORS
330
925
102
}
330
925
100
AcDbXrecord
280
     1
102
SHADEPLOT
 70
     0
  0
ACDBDETAILVIEWSTYLE
  5
622
102
{ACAD_XDICTIONARY
360
95F
102
}
102
{ACAD_REACTORS
330
621
102
}
330
621
100
AcDbModelDocViewStyle
 70
     0
  3
Metric50
290
     0
100
AcDbDetailViewStyle
 70
     0
 71
     0
 90
        3
 71
     1
340
17
 40
5.0
340
0
 40
5.0
300

 40
0.0
280
     1
 71
     2
340
13
 90
       25
 71
     3
340
17
 40
5.0
 90
        0
 40
15.0
 90
        1
300
%<\AcVar ViewDetailId>% (%<\AcVar ViewScale \f "%sn">%)
 71
     4
340
13
 90
       25
340
13
 90
       25
280
     0
  0
LAYOUT
  5
21
102
{ACAD_XDICTIONARY
360
923
102
}
102
{ACAD_REACTORS
330
1E
102
}
330
1E
100
AcDbPlotSettings
  1

  2

  4

  6

 40
0.0
 41
0.0
 42
0.0
 43
0.0
 44
0.0
 45
0.0
 46
0.0
 47
0.0
 48
0.0
 49
0.0
140
0.0
141
0.0
142
1.0
143
1.0
 70
     0
 72
     0
 73
     0
 74
     0
  7

 75
     0
147
1.0
148
0.0
149
0.0
100
AcDbLayout
  1
Layout1
 70
     1
 71
     1
 10
0.0
 20
0.0
 11
420.0
 21
297.0
 12
0.0
 22
0.0
 32
0.0
 14
0.0
 24
0.0
 34
0.0
 15
288.986298
 25
202.107193
 35
2.0
146
0.0
 13
0.0
 23
0.0
 33
0.0
 16
1.0
 26
0.0
 36
0.0
 17
0.0
 27
1.0
 37
0.0
 76
     0
330
B
331
2D
  0
LAYOUT
  5
20
102
{ACAD_XDICTIONARY
360
921
102
}
102
{ACAD_REACTORS
330
1E
102
}
330
1E
100
AcDbPlotSettings
  1

  2

  4

  6

 40
0.0
 41
0.0
 42
0.0
 43
0.0
 44
0.0
 45
0.0
 46
0.0
 47
0.0
 48
0.0
 49
0.0
140
0.0
141
0.0
142
1.0
143
1.0
 70
  1024
 72
     0
 73
     0
 74
     0
  7

 75
     0
147
1.0
148
0.0
149
0.0
100
AcDbLayout
  1
Model
 70
     0
 71
     0
 10
0.0
 20
0.0
 11
0.0
 21
0.0
 12
0.0
 22
0.0
 32
0.0
 14
0.0
 24
0.0
 34
0.0
 15
0.0
 25
0.0
 35
0.0
146
0.0
 13
0.0
 23
0.0
 33
0.0
 16
0.0
 26
0.0
 36
0.0
 17
0.0
 27
0.0
 37
0.0
 76
     0
330
A
331
15
  0
MATERIAL
  5
B4
102
{ACAD_XDICTIONARY
360
B5
102
}
102
{ACAD_REACTORS
330
AB
102
}
330
AB
100
AcDbMaterial
  1
ByBlock
 72
     0
 43
0.0208333333333333
 43
0.0
 43
0.0
 43
0.0
 43
0.0
 43
0.0208333333333333
 43
0.0
 43
0.0
 43
0.0
 43
0.0
 43
1.0
 43
0.0
 43
0.0
 43
0.0
 43
0.0
 43
1.0
 77
     0
 47
0.0208333333333333
 47
0.0
 47
0.0
 47
0.0
 47
0.0
 47
0.0208333333333333
 47
0.0
 47
0.0
 47
0.0
 47
0.0
 47
1.0
 47
0.0
 47
0.0
 47
0.0
 47
0.0
 47
1.0
171
     0
 49
0.0208333333333333
 49
0.0
 49
0.0
 49
0.0
 49
0.0
 49
0.0208333333333333
 49
0.0
 49
0.0
 49
0.0
 49
0.0
 49
1.0
 49
0.0
 49
0.0
 49
0.0
 49
0.0
 49
1.0
175
     0
142
0.0208333333333333
142
0.0
142
0.0
142
0.0
142
0.0
142
0.0208333333333333
142
0.0
142
0.0
142
0.0
142
0.0
142
1.0
142
0.0
142
0.0
142
0.0
142
0.0
142
1.0
179
     0
144
0.0208333333333333
144
0.0
144
0.0
144
0.0
144
0.0
144
0.0208333333333333
144
0.0
144
0.0
144
0.0
144
0.0
144
1.0
144
0.0
144
0.0
144
0.0
144
0.0
144
1.0
147
0.0208333333333333
147
0.0
147
0.0
147
0.0
147
0.0
147
0.0208333333333333
147
0.0
147
0.0
147
0.0
147
0.0
147
1.0
147
0.0
147
0.0
147
0.0
147
0.0
147
1.0
  0
MATERIAL
  5
AC
102
{ACAD_XDICTIONARY
360
AD
102
}
102
{ACAD_REACTORS
330
AB
102
}
330
AB
100
AcDbMaterial
  1
ByLayer
 72
     0
 43
0.0208333333333333
 43
0.0
 43
0.0
 43
0.0
 43
0.0
 43
0.0208333333333333
 43
0.0
 43
0.0
 43
0.0
 43
0.0
 43
1.0
 43
0.0
 43
0.0
 43
0.0
 43
0.0
 43
1.0
 77
     0
 47
0.0208333333333333
 47
0.0
 47
0.0
 47
0.0
 47
0.0
 47
0.0208333333333333
 47
0.0
 47
0.0
 47
0.0
 47
0.0
 47
1.0
 47
0.0
 47
0.0
 47
0.0
 47
0.0
 47
1.0
171
     0
 49
0.0208333333333333
 49
0.0
 49
0.0
 49
0.0
 49
0.0
 49
0.0208333333333333
 49
0.0
 49
0.0
 49
0.0
 49
0.0
 49
1.0
 49
0.0
 49
0.0
 49
0.0
 49
0.0
 49
1.0
175
     0
142
0.0208333333333333
142
0.0
142
0.0
142
0.0
142
0.0
142
0.0208333333333333
142
0.0
142
0.0
142
0.0
142
0.0
142
1.0
142
0.0
142
0.0
142
0.0
142
0.0
142
1.0
179
     0
144
0.0208333333333333
144
0.0
144
0.0
144
0.0
144
0.0
144
0.0208333333333333
144
0.0
144
0.0
144
0.0
144
0.0
144
1.0
144
0.0
144
0.0
144
0.0
144
0.0
144
1.0
147
0.0208333333333333
147
0.0
147
0.0
147
0.0
147
0.0
147
0.0208333333333333
147
0.0
147
0.0
147
0.0
147
0.0
147
1.0
147
0.0
147
0.0
147
0.0
147
0.0
147
1.0
  0
MATERIAL
  5
BC
102
{ACAD_XDICTIONARY
360
BD
102
}
102
{ACAD_REACTORS
330
AB
102
}
330
AB
100
AcDbMaterial
  1
Global
 72
     0
 43
0.0208333333333333
 43
0.0
 43
0.0
 43
0.0
 43
0.0
 43
0.0208333333333333
 43
0.0
 43
0.0
 43
0.0
 43
0.0
 43
1.0
 43
0.0
 43
0.0
 43
0.0
 43
0.0
 43
1.0
 77
     0
 47
0.0208333333333333
 47
0.0
 47
0.0
 47
0.0
 47
0.0
 47
0.0208333333333333
 47
0.0
 47
0.0
 47
0.0
 47
0.0
 47
1.0
 47
0.0
 47
0.0
 47
0.0
 47
0.0
 47
1.0
171
     0
 49
0.0208333333333333
 49
0.0
 49
0.0
 49
0.0
 49
0.0
 49
0.0208333333333333
 49
0.0
 49
0.0
 49
0.0
 49
0.0
 49
1.0
 49
0.0
 49
0.0
 49
0.0
 49
0.0
 49
1.0
175
     0
142
0.0208333333333333
142
0.0
142
0.0
142
0.0
142
0.0
142
0.0208333333333333
142
0.0
142
0.0
142
0.0
142
0.0
142
1.0
142
0.0
142
0.0
142
0.0
142
0.0
142
1.0
179
     0
144
0.0208333333333333
144
0.0
144
0.0
144
0.0
144
0.0
144
0.0208333333333333
144
0.0
144
0.0
144
0.0
144
0.0
144
1.0
144
0.0
144
0.0
144
0.0
144
0.0
144
1.0
147
0.0208333333333333
147
0.0
147
0.0
147
0.0
147
0.0
147
0.0208333333333333
147
0.0
147
0.0
147
0.0
147
0.0
147
1.0
147
0.0
147
0.0
147
0.0
147
0.0
147
1.0
  0
MLEADERSTYLE
  5
EE
102
{ACAD_REACTORS
330
ED
102
}
330
ED
100
AcDbMLeaderStyle
170
     2
171
     1
172
     0
 90
        2
 40
0.0
 41
0.0
173
     1
 91
-1056964608
340
11
 92
       -2
290
     1
 42
2.0
291
     1
 43
0.36
  3
Standard
 44
4.0
300

342
17
174
     1
178
     6
175
     1
176
     0
 93
-1056964608
 45
4.0
292
     0
297
     0
 46
4.0
 94
-1056964608
 47
1.0
 49
1.0
140
1.0
293
     1
141
0.0
294
     1
177
     0
142
1.0
295
     0
296
     0
143
0.125
1001
ACAD_MLEADERVER
1070
     2
  0
MLINESTYLE
  5
1C
102
{ACAD_REACTORS
330
1B
102
}
330
1B
100
AcDbMlineStyle
  2
STANDARD
 70
     0
  3

 62
     0
 51
90.0
 52
90.0
 71
     2
 49
0.5
 62
   256
  6
BYLAYER
 49
-0.5
 62
   256
  6
BYLAYER
  0
ACDBPLACEHOLDER
  5
1D
102
{ACAD_REACTORS
330
1F
102
}
330
1F
  0
SCALE
  5
DC
102
{ACAD_REACTORS
330
DB
102
}
330
DB
100
AcDbScale
 70
     0
300
1:1
140
1.0
141
1.0
290
     1
  0
SCALE
  5
DD
102
{ACAD_REACTORS
330
DB
102
}
330
DB
100
AcDbScale
 70
     0
300
1:2
140
1.0
141
2.0
290
     0
  0
SCALE
  5
DE
102
{ACAD_REACTORS
330
DB
102
}
330
DB
100
AcDbScale
 70
     0
300
1:4
140
1.0
141
4.0
290
     0
  0
SCALE
  5
DF
102
{ACAD_REACTORS
330
DB
102
}
330
DB
100
AcDbScale
 70
     0
300
1:5
140
1.0
141
5.0
290
     0
  0
SCALE
  5
E0
102
{ACAD_REACTORS
330
DB
102
}
330
DB
100
AcDbScale
 70
     0
300
1:8
140
1.0
141
8.0
290
     0
  0
SCALE
  5
E1
102
{ACAD_REACTORS
330
DB
102
}
330
DB
100
AcDbScale
 70
     0
300
1:10
140
1.0
141
10.0
290
     0
  0
SCALE
  5
E2
102
{ACAD_REACTORS
330
DB
102
}
330
DB
100
AcDbScale
 70
     0
300
1:16
140
1.0
141
16.0
290
     0
  0
SCALE
  5
E3
102
{ACAD_REACTORS
330
DB
102
}
330
DB
100
AcDbScale
 70
     0
300
1:20
140
1.0
141
20.0
290
     0
  0
SCALE
  5
E4
102
{ACAD_REACTORS
330
DB
102
}
330
DB
100
AcDbScale
 70
     0
300
1:30
140
1.0
141
30.0
290
     0
  0
SCALE
  5
E5
102
{ACAD_REACTORS
330
DB
102
}
330
DB
100
AcDbScale
 70
     0
300
1:40
140
1.0
141
40.0
290
     0
  0
SCALE
  5
E6
102
{ACAD_REACTORS
330
DB
102
}
330
DB
100
AcDbScale
 70
     0
300
1:50
140
1.0
141
50.0
290
     0
  0
SCALE
  5
E7
102
{ACAD_REACTORS
330
DB
102
}
330
DB
100
AcDbScale
 70
     0
300
1:100
140
1.0
141
100.0
290
     0
  0
SCALE
  5
E8
102
{ACAD_REACTORS
330
DB
102
}
330
DB
100
AcDbScale
 70
     0
300
2:1
140
2.0
141
1.0
290
     0
  0
SCALE
  5
E9
102
{ACAD_REACTORS
330
DB
102
}
330
DB
100
AcDbScale
 70
     0
300
4:1
140
4.0
141
1.0
290
     0
  0
SCALE
  5
EA
102
{ACAD_REACTORS
330
DB
102
}
330
DB
100
AcDbScale
 70
     0
300
8:1
140
8.0
141
1.0
290
     0
  0
SCALE
  5
EB
102
{ACAD_REACTORS
330
DB
102
}
330
DB
100
AcDbScale
 70
     0
300
10:1
140
10.0
141
1.0
290
     0
  0
SCALE
  5
EC
102
{ACAD_REACTORS
330
DB
102
}
330
DB
100
AcDbScale
 70
     0
300
100:1
140
100.0
141
1.0
290
     0
  0
ACDBSECTIONVIEWSTYLE
  5
620
102
{ACAD_XDICTIONARY
360
95D
102
}
102
{ACAD_REACTORS
330
61F
102
}
330
61F
100
AcDbModelDocViewStyle
 70
     0
  3
Metric50
290
     0
100
AcDbSectionViewStyle
 70
     0
 71
     0
 90
      102
 71
     1
340
17
 40
5.0
340
0
340
0
 40
5.0
300
I, O, Q, S, X, Z
 40
10.0
 90
        0
 40
2.5
 90
        0
 71
     2
340
13
 90
       25
340
13
 90
       50
 40
5.0
 40
2.5
 40
5.0
 71
     3
340
17
 40
5.0
 90
        0
 40
15.0
 90
        1
300
%<\AcVar ViewSectionStartId>%-%<\AcVar ViewSectionEndId>% (%<\AcVar ViewScale \f "%sn">%)
 71
     4
300
ANSI31
 40
1.0
 90
        0
290
     0
290
     0
 90
        6
 40
0.0
 40
1.570796326794896
 40
0.2617993877991494
 40
1.308996938995747
 40
-0.2617993877991494
 40
1.832595714594044
  0
TABLESTYLE
  5
DA
102
{ACAD_XDICTIONARY
360
5A6
102
}
102
{ACAD_REACTORS
330
D9
102
}
330
D9
100
AcDbTableStyle
  3
Standard
 70
     0
 71
     0
 40
1.5
 41
1.5
280
     0
281
     0
  7
STANDARD
140
4.5
170
     2
 62
     0
 63
     7
283
     0
274
    -2
284
     1
 64
     0
275
    -2
285
     1
 65
     0
276
    -2
286
     1
 66
     0
277
    -2
287
     1
 67
     0
278
    -2
288
     1
 68
     0
279
    -2
289
     1
 69
     0
  7
STANDARD
140
6.0
170
     5
 62
     0
 63
     7
283
     0
274
    -2
284
     1
 64
     0
275
    -2
285
     1
 65
     0
276
    -2
286
     1
 66
     0
277
    -2
287
     1
 67
     0
278
    -2
288
     1
 68
     0
279
    -2
289
     1
 69
     0
  7
STANDARD
140
4.5
170
     5
 62
     0
 63
     7
283
     0
274
    -2
284
     1
 64
     0
275
    -2
285
     1
 65
     0
276
    -2
286
     1
 66
     0
277
    -2
287
     1
 67
     0
278
    -2
288
     1
 68
     0
279
    -2
289
     1
 69
     0
  0
VISUALSTYLE
  5
CA
102
{ACAD_XDICTIONARY
360
931
102
}
102
{ACAD_REACTORS
330
C4
102
}
330
C4
100
AcDbVisualStyle
  2

 70
     4
 71
     0
 72
     2
 73
     0
 90
        0
 40
-0.6
 41
-30.0
 62
     5
 63
     7
 74
     1
 91
        4
 64
     7
 65
   257
 75
     1
175
     1
 42
1.0
 92
        0
 66
   257
 43
1.0
 76
     1
 77
     6
 78
     2
 67
     7
 79
     5
170
     0
171
     0
290
     0
174
     0
 93
        1
 44
0.0
173
     0
291
     0
 45
0.0
1001
ACAD
1000
AcDbSavedByObjectVersion
1070
     0
  0
VISUALSTYLE
  5
CC
102
{ACAD_XDICTIONARY
360
935
102
}
102
{ACAD_REACTORS
330
C4
102
}
330
C4
100
AcDbVisualStyle
  2

 70
     6
 71
     1
 72
     2
 73
     2
 90
        0
 40
-0.6
 41
-30.0
 62
     5
 63
     7
 74
     2
 91
        2
 64
     7
 65
   257
 75
     2
175
     1
 42
179.0
 92
        0
 66
   257
 43
1.0
 76
     1
 77
     6
 78
     2
 67
     7
 79
     3
170
     0
171
     0
290
     0
174
     0
 93
        1
 44
0.0
173
     0
291
     0
 45
0.0
1001
ACAD
1000
AcDbSavedByObjectVersion
1070
     0
  0
VISUALSTYLE
  5
CB
102
{ACAD_XDICTIONARY
360
933
102
}
102
{ACAD_REACTORS
330
C4
102
}
330
C4
100
AcDbVisualStyle
  2

 70
     5
 71
     0
 72
     2
 73
     0
 90
        0
 40
-0.6
 41
-30.0
 62
     5
 63
     7
 74
     1
 91
        4
 64
     7
 65
   257
 75
     1
175
     1
 42
1.0
 92
        0
 66
   257
 43
1.0
 76
     1
 77
     6
 78
     2
 67
     7
 79
     5
170
     0
171
     0
290
     0
174
     0
 93
        1
 44
0.0
173
     0
291
     0
 45
0.0
1001
ACAD
1000
AcDbSavedByObjectVersion
1070
     0
  0
VISUALSTYLE
  5
C9
102
{ACAD_XDICTIONARY
360
92F
102
}
102
{ACAD_REACTORS
330
C4
102
}
330
C4
100
AcDbVisualStyle
  2

 70
     7
 71
     1
 72
     0
 73
     1
 90
        0
 40
-0.6
 41
-30.0
 62
     5
 63
     7
 74
     0
 91
        4
 64
     7
 65
   257
 75
     1
175
     1
 42
1.0
 92
        8
 66
     7
 43
1.0
 76
     1
 77
     6
 78
     2
 67
     7
 79
     5
170
     0
171
     0
290
     0
174
     0
 93
        1
 44
0.0
173
     0
291
     1
 45
0.0
1001
ACAD
1000
AcDbSavedByObjectVersion
1070
     0
  0
VISUALSTYLE
  5
D0
102
{ACAD_XDICTIONARY
360
93D
102
}
102
{ACAD_REACTORS
330
C4
102
}
330
C4
100
AcDbVisualStyle
  2

 70
    12
 71
     2
 72
     2
 73
     0
 90
        0
 40
-0.6
 41
-30.0
 62
     5
 63
     7
 74
     1
 91
        4
 64
     7
 65
   257
 75
     1
175
     1
 42
1.0
 92
        8
 66
     7
 43
1.0
 76
     1
 77
     6
 78
     2
 67
     7
 79
     5
170
     0
171
     0
290
     0
174
     0
 93
        1
 44
50.0
173
     0
291
     1
 45
0.0
1001
ACAD
1000
AcDbSavedByObjectVersion
1070
     0
  0
VISUALSTYLE
  5
D4
102
{ACAD_XDICTIONARY
360
945
102
}
102
{ACAD_REACTORS
330
C4
102
}
330
C4
100
AcDbVisualStyle
  2

 70
    16
 71
     2
 72
     2
 73
     3
 90
        0
 40
-0.6
 41
-30.0
 62
     5
 63
     8
 74
     1
 91
        4
 64
     7
 65
   257
 75
     1
175
     1
 42
1.0
 92
        8
 66
     8
 43
1.0
 76
     1
 77
     6
 78
     2
 67
     7
 79
     5
170
     0
171
     0
290
     0
174
     0
 93
        1
 44
0.0
173
     0
291
     1
 45
0.0
1001
ACAD
1000
AcDbSavedByObjectVersion
1070
     0
  0
VISUALSTYLE
  5
CD
102
{ACAD_XDICTIONARY
360
937
102
}
102
{ACAD_REACTORS
330
C4
102
}
330
C4
100
AcDbVisualStyle
  2

 70
     9
 71
     3
 72
     2
 73
     0
 90
        0
 40
-0.6
 41
-30.0
 62
     5
 63
     7
 74
     2
 91
        2
 64
     7
 65
   257
 75
     1
175
     1
 42
179.0
 92
        8
 66
     7
 43
1.0
 76
     1
 77
     6
 78
     2
 67
     7
 79
     3
170
     0
171
     0
290
     0
174
     0
 93
        1
 44
0.0
173
     0
291
     0
 45
0.0
1001
ACAD
1000
AcDbSavedByObjectVersion
1070
     0
  0
VISUALSTYLE
  5
CF
102
{ACAD_XDICTIONARY
360
93B
102
}
102
{ACAD_REACTORS
330
C4
102
}
330
C4
100
AcDbVisualStyle
  2

 70
    11
 71
     2
 72
     2
 73
     0
 90
        0
 40
-0.6
 41
-30.0
 62
     5
 63
     7
 74
     1
 91
        4
 64
     7
 65
   257
 75
     1
175
     1
 42
1.0
 92
        8
 66
     7
 43
1.0
 76
     1
 77
     6
 78
     2
 67
     7
 79
     5
170
     0
171
     0
290
     0
174
     0
 93
        1
 44
-50.0
173
     0
291
     1
 45
0.0
1001
ACAD
1000
AcDbSavedByObjectVersion
1070
     0
  0
VISUALSTYLE
  5
D7
102
{ACAD_XDICTIONARY
360
94B
102
}
102
{ACAD_REACTORS
330
C4
102
}
330
C4
100
AcDbVisualStyle
  2

 70
    22
 71
     2
 72
     2
 73
     0
 90
        0
 40
-0.6
 41
-30.0
 62
     5
 63
     7
 74
     1
 91
        4
 64
     7
 65
   257
 75
     1
175
     1
 42
1.0
 92
        8
 66
     7
 43
1.0
 76
     1
 77
     6
 78
     2
 67
     7
 79
     5
170
     0
171
     0
290
     0
174
     0
 93
        1
 44
0.0
173
     0
291
     1
 45
0.0
1001
ACAD
1000
AcDbSavedByObjectVersion
1070
     0
  0
VISUALSTYLE
  5
D3
102
{ACAD_XDICTIONARY
360
943
102
}
102
{ACAD_REACTORS
330
C4
102
}
330
C4
100
AcDbVisualStyle
  2

 70
    15
 71
     2
 72
     2
 73
     0
 90
        0
 40
-0.6
 41
-30.0
 62
     5
 63
     7
 74
     1
 91
        4
 64
     7
 65
   257
 75
     1
175
     1
 42
1.0
 92
        8
 66
     7
 43
1.0
 76
     1
 77
     6
 78
     2
 67
     7
 79
     5
170
     0
171
     0
290
     0
174
     0
 93
        1
 44
0.0
173
     0
291
     1
 45
0.0
1001
ACAD
1000
AcDbSavedByObjectVersion
1070
     0
  0
VISUALSTYLE
  5
C5
102
{ACAD_XDICTIONARY
360
927
102
}
102
{ACAD_REACTORS
330
C4
102
}
330
C4
100
AcDbVisualStyle
  2

 70
     0
 71
     2
 72
     1
 73
     1
 90
        2
 40
-0.6
 41
30.0
 62
     5
 63
     7
 74
     0
 91
        4
 64
     7
 65
   257
 75
     1
175
     1
 42
1.0
 92
        8
 66
     7
 43
1.0
 76
     1
 77
     6
 78
     2
 67
     7
 79
     5
170
     0
171
     0
290
     0
174
     0
 93
       13
 44
0.0
173
     0
291
     1
 45
0.0
1001
ACAD
1000
AcDbSavedByObjectVersion
1070
     0
  0
VISUALSTYLE
  5
C6
102
{ACAD_XDICTIONARY
360
929
102
}
102
{ACAD_REACTORS
330
C4
102
}
330
C4
100
AcDbVisualStyle
  2

 70
     1
 71
     2
 72
     1
 73
     1
 90
        2
 40
-0.6
 41
30.0
 62
     5
 63
     7
 74
     1
 91
        4
 64
     7
 65
   257
 75
     1
175
     1
 42
1.0
 92
        0
 66
   257
 43
1.0
 76
     1
 77
     6
 78
     2
 67
     7
 79
     5
170
     0
171
     0
290
     0
174
     0
 93
       13
 44
0.0
173
     0
291
     1
 45
0.0
1001
ACAD
1000
AcDbSavedByObjectVersion
1070
     0
  0
VISUALSTYLE
  5
C7
102
{ACAD_XDICTIONARY
360
92B
102
}
102
{ACAD_REACTORS
330
C4
102
}
330
C4
100
AcDbVisualStyle
  2

 70
     2
 71
     2
 72
     2
 73
     1
 90
        2
 40
-0.6
 41
30.0
 62
     5
 63
     7
 74
     0
 91
        4
 64
     7
 65
   257
 75
     1
175
     1
 42
1.0
 92
        0
 66
     7
 43
1.0
 76
     1
 77
     6
 78
     2
 67
     7
 79
     5
170
     0
171
     0
290
     0
174
     0
 93
       13
 44
0.0
173
     0
291
     1
 45
0.0
1001
ACAD
1000
AcDbSavedByObjectVersion
1070
     0
  0
VISUALSTYLE
  5
C8
102
{ACAD_XDICTIONARY
360
92D
102
}
102
{ACAD_REACTORS
330
C4
102
}
330
C4
100
AcDbVisualStyle
  2

 70
     3
 71
     2
 72
     2
 73
     1
 90
        2
 40
-0.6
 41
30.0
 62
     5
 63
     7
 74
     1
 91
        4
 64
     7
 65
   257
 75
     1
175
     1
 42
1.0
 92
        0
 66
   257
 43
1.0
 76
     1
 77
     6
 78
     2
 67
     7
 79
     5
170
     0
171
     0
290
     0
174
     0
 93
       13
 44
0.0
173
     0
291
     1
 45
0.0
1001
ACAD
1000
AcDbSavedByObjectVersion
1070
     0
  0
VISUALSTYLE
  5
619
102
{ACAD_XDICTIONARY
360
951
102
}
102
{ACAD_REACTORS
330
C4
102
}
330
C4
100
AcDbVisualStyle
  2

 70
     6
 71
     1
 72
     2
 73
     2
 90
        0
 40
-0.6
 41
-30.0
 62
     5
 63
     7
 74
     2
 91
        2
 64
     7
 65
   257
 75
     2
175
     1
 42
40.0
 92
        0
 66
   257
 43
1.0
 76
     1
 77
     6
 78
     2
 67
     7
 79
     3
170
     0
171
     0
290
     0
174
     0
 93
        1
 44
0.0
173
     0
291
     0
 45
0.0
1001
ACAD
1000
AcDbSavedByObjectVersion
1070
     0
  0
VISUALSTYLE
  5
D5
102
{ACAD_XDICTIONARY
360
947
102
}
102
{ACAD_REACTORS
330
C4
102
}
330
C4
100
AcDbVisualStyle
  2

 70
    20
 71
     2
 72
     2
 73
     0
 90
        0
 40
-0.6
 41
-30.0
 62
     5
 63
     7
 74
     1
 91
        4
 64
     7
 65
   257
 75
     1
175
     1
 42
1.0
 92
       10
 66
     7
 43
1.0
 76
     1
 77
     6
 78
     2
 67
     7
 79
     5
170
     0
171
     0
290
     0
174
     0
 93
        1
 44
0.0
173
     0
291
     1
 45
0.0
1001
ACAD
1000
AcDbSavedByObjectVersion
1070
     0
  0
VISUALSTYLE
  5
D2
102
{ACAD_XDICTIONARY
360
941
102
}
102
{ACAD_REACTORS
330
C4
102
}
330
C4
100
AcDbVisualStyle
  2

 70
    14
 71
     2
 72
     2
 73
     0
 90
        0
 40
-0.6
 41
-30.0
 62
     5
 63
     7
 74
     1
 91
        4
 64
     7
 65
   257
 75
     7
175
     7
 42
1.0
 92
        8
 66
     7
 43
1.0
 76
     1
 77
     6
 78
     2
 67
     7
 79
     5
170
     0
171
     0
290
     0
174
     0
 93
        1
 44
0.0
173
     0
291
     1
 45
0.0
1001
ACAD
1000
AcDbSavedByObjectVersion
1070
     0
  0
VISUALSTYLE
  5
D6
102
{ACAD_XDICTIONARY
360
949
102
}
102
{ACAD_REACTORS
330
C4
102
}
330
C4
100
AcDbVisualStyle
  2

 70
    21
 71
     2
 72
     2
 73
     0
 90
        0
 40
-0.6
 41
-30.0
 62
     5
 63
     7
 74
     1
 91
        4
 64
     7
 65
   257
 75
     1
175
     1
 42
1.0
 92
        9
 66
     7
 43
1.0
 76
     1
 77
     6
 78
     2
 67
     7
 79
     5
170
     0
171
     0
290
     0
174
     0
 93
        1
 44
0.0
173
     0
291
     1
 45
0.0
1001
ACAD
1000
AcDbSavedByObjectVersion
1070
     0
  0
VISUALSTYLE
  5
CE
102
{ACAD_XDICTIONARY
360
939
102
}
102
{ACAD_REACTORS
330
C4
102
}
330
C4
100
AcDbVisualStyle
  2

 70
     8
 71
     2
 72
     2
 73
     0
 90
        0
 40
-0.6
 41
-30.0
 62
     5
 63
     7
 74
     1
 91
        0
 64
     7
 65
   257
 75
     1
175
     1
 42
1.0
 92
        8
 66
     8
 43
1.0
 76
     1
 77
     6
 78
     2
 67
     7
 79
     5
170
     0
171
     0
290
     0
174
     0
 93
       13
 44
0.0
173
     0
291
     0
 45
0.0
1001
ACAD
1000
AcDbSavedByObjectVersion
1070
     0
  0
VISUALSTYLE
  5
61E
102
{ACAD_XDICTIONARY
360
95B
102
}
102
{ACAD_REACTORS
330
C4
102
}
330
C4
100
AcDbVisualStyle
  2

 70
    27
 71
     2
 72
     2
 73
     1
 90
        2
 40
-0.6
 41
30.0
 62
     5
 63
     7
 74
     0
 91
        4
 64
     7
 65
   257
 75
     1
175
     1
 42
1.0
 92
        8
 66
   257
 43
1.0
 76
     1
 77
     6
 78
     2
 67
     8
 79
     3
170
     0
171
     0
290
     0
174
     0
 93
        5
 44
0.0
173
     0
291
     0
 45
0.0
1001
ACAD
1000
AcDbSavedByObjectVersion
1070
     0
  0
VISUALSTYLE
  5
61D
102
{ACAD_XDICTIONARY
360
959
102
}
102
{ACAD_REACTORS
330
C4
102
}
330
C4
100
AcDbVisualStyle
  2

 70
    26
 71
     2
 72
     2
 73
     1
 90
        2
 40
-0.6
 41
30.0
 62
     5
 63
     7
 74
     1
 91
       10
 64
     7
 65
   257
 75
     2
175
     1
 42
1.0
 92
        8
 66
   257
 43
1.0
 76
     1
 77
     6
 78
     2
 67
     7
 79
     3
170
     0
171
     0
290
     0
174
     0
 93
        5
 44
0.0
173
     0
291
     0
 45
0.0
1001
ACAD
1000
AcDbSavedByObjectVersion
1070
     0
  0
VISUALSTYLE
  5
61A
102
{ACAD_XDICTIONARY
360
953
102
}
102
{ACAD_REACTORS
330
C4
102
}
330
C4
100
AcDbVisualStyle
  2

 70
    23
 71
     2
 72
     2
 73
     3
 90
        0
 40
-0.6
 41
-30.0
 62
     5
 63
     7
 74
     2
 91
        2
 64
     7
 65
     7
 75
     1
175
     1
 42
40.0
 92
        8
 66
     7
 43
1.0
 76
     1
 77
     6
 78
     2
 67
     7
 79
     3
170
     0
171
     0
290
     0
174
     0
 93
        1
 44
0.0
173
     0
291
     0
 45
0.0
1001
ACAD
1000
AcDbSavedByObjectVersion
1070
     0
  0
VISUALSTYLE
  5
61B
102
{ACAD_XDICTIONARY
360
955
102
}
102
{ACAD_REACTORS
330
C4
102
}
330
C4
100
AcDbVisualStyle
  2

 70
    24
 71
     1
 72
     2
 73
     2
 90
        0
 40
-0.6
 41
-30.0
 62
     5
 63
     7
 74
     2
 91
        2
 64
     7
 65
     7
 75
     1
175
     1
 42
40.0
 92
       11
 66
     7
 43
1.0
 76
     1
 77
     6
 78
     2
 67
     7
 79
     6
170
     0
171
     0
290
     0
174
     0
 93
        1
 44
0.0
173
     0
291
     0
 45
0.0
1001
ACAD
1000
AcDbSavedByObjectVersion
1070
     0
  0
VISUALSTYLE
  5
D1
102
{ACAD_XDICTIONARY
360
93F
102
}
102
{ACAD_REACTORS
330
C4
102
}
330
C4
100
AcDbVisualStyle
  2

 70
    13
 71
     2
 72
     2
 73
     0
 90
        0
 40
-0.6
 41
-30.0
 62
     5
 63
     7
 74
     1
 91
        4
 64
     7
 65
   257
 75
     1
175
     1
 42
1.0
 92
       12
 66
     7
 43
1.0
 76
     1
 77
     6
 78
     2
 67
     7
 79
     5
170
     0
171
     0
290
     0
174
     0
 93
        1
 44
0.0
173
     0
291
     1
 45
0.0
1001
ACAD
1000
AcDbSavedByObjectVersion
1070
     0
  0
VISUALSTYLE
  5
618
102
{ACAD_XDICTIONARY
360
94F
102
}
102
{ACAD_REACTORS
330
C4
102
}
330
C4
100
AcDbVisualStyle
  2

 70
     5
 71
     0
 72
     2
 73
     0
 90
        0
 40
-0.6
 41
-30.0
 62
     5
 63
     7
 74
     1
 91
        4
 64
     7
 65
   257
 75
     1
175
     1
 42
1.0
 92
        0
 66
   257
 43
1.0
 76
     1
 77
     6
 78
     2
 67
     7
 79
     3
170
     0
171
     0
290
     0
174
     0
 93
        1
 44
0.0
173
     0
291
     0
 45
0.0
1001
ACAD
1000
AcDbSavedByObjectVersion
1070
     0
  0
VISUALSTYLE
  5
61C
102
{ACAD_XDICTIONARY
360
957
102
}
102
{ACAD_REACTORS
330
C4
102
}
330
C4
100
AcDbVisualStyle
  2

 70
    25
 71
     2
 72
     2
 73
     1
 90
        1
 40
0.5
 41
-30.0
 62
     5
 63
     7
 74
     1
 91
        0
 64
     7
 65
   257
 75
     1
175
     1
 42
1.0
 92
        8
 66
     7
 43
1.0
 76
     1
 77
     6
 78
     2
 67
     7
 79
     3
170
     0
171
     0
290
     0
174
     0
 93
       13
 44
0.0
173
     0
291
     0
 45
0.0
1001
ACAD
1000
AcDbSavedByObjectVersion
1070
     0
  0
DICTIONARYVAR
  5
919
102
{ACAD_REACTORS
330
914
102
}
330
914
100
DictionaryVariables
280
     0
  1
1:1
  0
DICTIONARYVAR
  5
916
102
{ACAD_REACTORS
330
914
102
}
330
914
100
DictionaryVariables
280
     0
  1
STANDARD
  0
DICTIONARYVAR
  5
915
102
{ACAD_REACTORS
330
914
102
}
330
914
100
DictionaryVariables
280
     0
  1
STANDARD
  0
DICTIONARYVAR
  5
917
102
{ACAD_REACTORS
330
914
102
}
330
914
100
DictionaryVariables
280
     0
  1
METRIC50
  0
DICTIONARYVAR
  5
918
102
{ACAD_REACTORS
330
914
102
}
330
914
100
DictionaryVariables
280
     0
  1
METRIC50
  0
DICTIONARYVAR
  5
91C
102
{ACAD_REACTORS
330
914
102
}
330
914
100
DictionaryVariables
280
     0
  1
1
  0
DICTIONARYVAR
  5
91B
102
{ACAD_REACTORS
330
914
102
}
330
914
100
DictionaryVariables
280
     0
  1
0
  0
DICTIONARYVAR
  5
91A
102
{ACAD_REACTORS
330
914
102
}
330
914
100
DictionaryVariables
280
     0
  1
127
  0
DICTIONARYVAR
  5
91D
102
{ACAD_REACTORS
330
914
102
}
330
914
100
DictionaryVariables
280
     0
  1
2
  0
XRECORD
  5
569
102
{ACAD_REACTORS
330
568
102
}
330
568
100
AcDbXrecord
280
     1
  0
DICTIONARY
  5
95F
330
622
100
AcDbDictionary
280
     1
281
     1
  3
ACAD_XREC_ROUNDTRIP
360
960
  0
DICTIONARY
  5
923
330
21
100
AcDbDictionary
280
     1
281
     1
  3
ACAD_XREC_ROUNDTRIP
360
924
  0
DICTIONARY
  5
921
330
20
100
AcDbDictionary
280
     1
281
     1
  3
ACAD_XREC_ROUNDTRIP
360
922
  0
DICTIONARY
  5
B5
330
B4
100
AcDbDictionary
280
     1
281
     1
  3
ACAD_XREC_ROUNDTRIP
360
5B1
  3
BUMPTILE
360
B7
  3
DIFFUSETILE
360
B6
  3
OPACITYTILE
360
BA
  3
REFLECTIONTILE
360
B9
  3
REFRACTIONTILE
360
BB
  3
SPECULARTILE
360
B8
  0
DICTIONARY
  5
AD
330
AC
100
AcDbDictionary
280
     1
281
     1
  3
ACAD_XREC_ROUNDTRIP
360
5B0
  3
BUMPTILE
360
AF
  3
DIFFUSETILE
360
AE
  3
OPACITYTILE
360
B2
  3
REFLECTIONTILE
360
B1
  3
REFRACTIONTILE
360
B3
  3
SPECULARTILE
360
B0
  0
DICTIONARY
  5
BD
330
BC
100
AcDbDictionary
280
     1
281
     1
  3
ACAD_XREC_ROUNDTRIP
360
5B2
  3
BUMPTILE
360
BF
  3
DIFFUSETILE
360
BE
  3
OPACITYTILE
360
C2
  3
REFLECTIONTILE
360
C1
  3
REFRACTIONTILE
360
C3
  3
SPECULARTILE
360
C0
  0
DICTIONARY
  5
95D
330
620
100
AcDbDictionary
280
     1
281
     1
  3
ACAD_XREC_ROUNDTRIP
360
95E
  0
DICTIONARY
  5
5A6
330
DA
100
AcDbDictionary
280
     1
281
     1
  3
ACAD_ROUNDTRIP_2008_TABLESTYLE_CELLSTYLEMAP
360
91E
  3
ACAD_XREC_ROUNDTRIP
360
94D
  0
DICTIONARY
  5
931
330
CA
100
AcDbDictionary
280
     1
281
     1
  3
ACAD_XREC_ROUNDTRIP
360
932
  0
DICTIONARY
  5
935
330
CC
100
AcDbDictionary
280
     1
281
     1
  3
ACAD_XREC_ROUNDTRIP
360
936
  0
DICTIONARY
  5
933
330
CB
100
AcDbDictionary
280
     1
281
     1
  3
ACAD_XREC_ROUNDTRIP
360
934
  0
DICTIONARY
  5
92F
330
C9
100
AcDbDictionary
280
     1
281
     1
  3
ACAD_XREC_ROUNDTRIP
360
930
  0
DICTIONARY
  5
93D
330
D0
100
AcDbDictionary
280
     1
281
     1
  3
ACAD_XREC_ROUNDTRIP
360
93E
  0
DICTIONARY
  5
945
330
D4
100
AcDbDictionary
280
     1
281
     1
  3
ACAD_XREC_ROUNDTRIP
360
946
  0
DICTIONARY
  5
937
330
CD
100
AcDbDictionary
280
     1
281
     1
  3
ACAD_XREC_ROUNDTRIP
360
938
  0
DICTIONARY
  5
93B
330
CF
100
AcDbDictionary
280
     1
281
     1
  3
ACAD_XREC_ROUNDTRIP
360
93C
  0
DICTIONARY
  5
94B
330
D7
100
AcDbDictionary
280
     1
281
     1
  3
ACAD_XREC_ROUNDTRIP
360
94C
  0
DICTIONARY
  5
943
330
D3
100
AcDbDictionary
280
     1
281
     1
  3
ACAD_XREC_ROUNDTRIP
360
944
  0
DICTIONARY
  5
927
330
C5
100
AcDbDictionary
280
     1
281
     1
  3
ACAD_XREC_ROUNDTRIP
360
928
  0
DICTIONARY
  5
929
330
C6
100
AcDbDictionary
280
     1
281
     1
  3
ACAD_XREC_ROUNDTRIP
360
92A
  0
DICTIONARY
  5
92B
330
C7
100
AcDbDictionary
280
     1
281
     1
  3
ACAD_XREC_ROUNDTRIP
360
92C
  0
DICTIONARY
  5
92D
330
C8
100
AcDbDictionary
280
     1
281
     1
  3
ACAD_XREC_ROUNDTRIP
360
92E
  0
DICTIONARY
  5
951
330
619
100
AcDbDictionary
280
     1
281
     1
  3
ACAD_XREC_ROUNDTRIP
360
952
  0
DICTIONARY
  5
947
330
D5
100
AcDbDictionary
280
     1
281
     1
  3
ACAD_XREC_ROUNDTRIP
360
948
  0
DICTIONARY
  5
941
330
D2
100
AcDbDictionary
280
     1
281
     1
  3
ACAD_XREC_ROUNDTRIP
360
942
  0
DICTIONARY
  5
949
330
D6
100
AcDbDictionary
280
     1
281
     1
  3
ACAD_XREC_ROUNDTRIP
360
94A
  0
DICTIONARY
  5
939
330
CE
100
AcDbDictionary
280
     1
281
     1
  3
ACAD_XREC_ROUNDTRIP
360
93A
  0
DICTIONARY
  5
95B
330
61E
100
AcDbDictionary
280
     1
281
     1
  3
ACAD_XREC_ROUNDTRIP
360
95C
  0
DICTIONARY
  5
959
330
61D
100
AcDbDictionary
280
     1
281
     1
  3
ACAD_XREC_ROUNDTRIP
360
95A
  0
DICTIONARY
  5
953
330
61A
100
AcDbDictionary
280
     1
281
     1
  3
ACAD_XREC_ROUNDTRIP
360
954
  0
DICTIONARY
  5
955
330
61B
100
AcDbDictionary
280
     1
281
     1
  3
ACAD_XREC_ROUNDTRIP
360
956
  0
DICTIONARY
  5
93F
330
D1
100
AcDbDictionary
280
     1
281
     1
  3
ACAD_XREC_ROUNDTRIP
360
940
  0
DICTIONARY
  5
94F
330
618
100
AcDbDictionary
280
     1
281
     1
  3
ACAD_XREC_ROUNDTRIP
360
950
  0
DICTIONARY
  5
957
330
61C
100
AcDbDictionary
280
     1
281
     1
  3
ACAD_XREC_ROUNDTRIP
360
958
  0
XRECORD
  5
960
102
{ACAD_REACTORS
330
95F
102
}
330
95F
100
AcDbXrecord
280
     1
102
DISPLAYNAME
  1
METRIC50
102
FLAGS
 90
        0
  0
XRECORD
  5
924
102
{ACAD_REACTORS
330
923
102
}
330
923
100
AcDbXrecord
280
     1
102
SHADEPLOT
 70
     0
102
SHADEPLOTRESLEVEL
 70
     2
102
SHADEPLOTCUSTOMDPI
 70
   300
  0
XRECORD
  5
922
102
{ACAD_REACTORS
330
921
102
}
330
921
100
AcDbXrecord
280
     1
102
SHADEPLOT
 70
     0
102
SHADEPLOTRESLEVEL
 70
     2
102
SHADEPLOTCUSTOMDPI
 70
   300
  0
XRECORD
  5
5B1
102
{ACAD_REACTORS
330
B5
102
}
330
B5
100
AcDbXrecord
280
     1
102
MATERIAL
148
0.0
149
0.0
149
0.0
 93
        0
 94
      127
282
     0
 72
     0
 77
     0
171
     0
175
     0
179
     0
273
     0
  0
XRECORD
  5
B7
102
{ACAD_REACTORS
330
B5
102
}
330
B5
100
AcDbXrecord
280
     1
270
     1
271
     1
  0
XRECORD
  5
B6
102
{ACAD_REACTORS
330
B5
102
}
330
B5
100
AcDbXrecord
280
     1
270
     1
271
     1
  0
XRECORD
  5
BA
102
{ACAD_REACTORS
330
B5
102
}
330
B5
100
AcDbXrecord
280
     1
270
     1
271
     1
  0
XRECORD
  5
B9
102
{ACAD_REACTORS
330
B5
102
}
330
B5
100
AcDbXrecord
280
     1
270
     1
271
     1
  0
XRECORD
  5
BB
102
{ACAD_REACTORS
330
B5
102
}
330
B5
100
AcDbXrecord
280
     1
270
     1
271
     1
  0
XRECORD
  5
B8
102
{ACAD_REACTORS
330
B5
102
}
330
B5
100
AcDbXrecord
280
     1
270
     1
271
     1
  0
XRECORD
  5
5B0
102
{ACAD_REACTORS
330
AD
102
}
330
AD
100
AcDbXrecord
280
     1
102
MATERIAL
148
0.0
149
0.0
149
0.0
 93
        0
 94
      127
282
     0
 72
     0
 77
     0
171
     0
175
     0
179
     0
273
     0
  0
XRECORD
  5
AF
102
{ACAD_REACTORS
330
AD
102
}
330
AD
100
AcDbXrecord
280
     1
270
     1
271
     1
  0
XRECORD
  5
AE
102
{ACAD_REACTORS
330
AD
102
}
330
AD
100
AcDbXrecord
280
     1
270
     1
271
     1
  0
XRECORD
  5
B2
102
{ACAD_REACTORS
330
AD
102
}
330
AD
100
AcDbXrecord
280
     1
270
     1
271
     1
  0
XRECORD
  5
B1
102
{ACAD_REACTORS
330
AD
102
}
330
AD
100
AcDbXrecord
280
     1
270
     1
271
     1
  0
XRECORD
  5
B3
102
{ACAD_REACTORS
330
AD
102
}
330
AD
100
AcDbXrecord
280
     1
270
     1
271
     1
  0
XRECORD
  5
B0
102
{ACAD_REACTORS
330
AD
102
}
330
AD
100
AcDbXrecord
280
     1
270
     1
271
     1
  0
XRECORD
  5
5B2
102
{ACAD_REACTORS
330
BD
102
}
330
BD
100
AcDbXrecord
280
     1
102
MATERIAL
148
0.0
149
0.0
149
0.0
 93
        0
 94
      127
282
     0
 72
     0
 77
     0
171
     0
175
     0
179
     0
273
     0
  0
XRECORD
  5
BF
102
{ACAD_REACTORS
330
BD
102
}
330
BD
100
AcDbXrecord
280
     1
270
     1
271
     1
  0
XRECORD
  5
BE
102
{ACAD_REACTORS
330
BD
102
}
330
BD
100
AcDbXrecord
280
     1
270
     1
271
     1
  0
XRECORD
  5
C2
102
{ACAD_REACTORS
330
BD
102
}
330
BD
100
AcDbXrecord
280
     1
270
     1
271
     1
  0
XRECORD
  5
C1
102
{ACAD_REACTORS
330
BD
102
}
330
BD
100
AcDbXrecord
280
     1
270
     1
271
     1
  0
XRECORD
  5
C3
102
{ACAD_REACTORS
330
BD
102
}
330
BD
100
AcDbXrecord
280
     1
270
     1
271
     1
  0
XRECORD
  5
C0
102
{ACAD_REACTORS
330
BD
102
}
330
BD
100
AcDbXrecord
280
     1
270
     1
271
     1
  0
XRECORD
  5
95E
102
{ACAD_REACTORS
330
95D
102
}
330
95D
100
AcDbXrecord
280
     1
102
DISPLAYNAME
  1
METRIC50
102
FLAGS
 90
        0
  0
CELLSTYLEMAP
  5
91E
102
{ACAD_REACTORS
330
5A6
102
}
330
5A6
100
AcDbCellStyleMap
 90
        3
300
CELLSTYLE
  1
TABLEFORMAT_BEGIN
 90
        5
170
     1
 91
        0
 92
    32768
 62
   257
 93
        1
300
CONTENTFORMAT
  1
CONTENTFORMAT_BEGIN
 90
        0
 91
        0
 92
      512
 93
        0
300

 40
0.0
140
1.0
 94
        5
 62
     0
340
17
144
6.0
309
CONTENTFORMAT_END
171
     1
301
MARGIN
  1
CELLMARGIN_BEGIN
 40
1.5
 40
1.5
 40
1.5
 40
1.5
 40
0.18
 40
0.18
309
CELLMARGIN_END
 94
        6
 95
        1
302
GRIDFORMAT
  1
GRIDFORMAT_BEGIN
 90
        0
 91
        1
 62
     0
 92
       -2
340
0
 93
        0
 40
1.125
309
GRIDFORMAT_END
 95
        2
302
GRIDFORMAT
  1
GRIDFORMAT_BEGIN
 90
        0
 91
        1
 62
     0
 92
       -2
340
0
 93
        0
 40
1.125
309
GRIDFORMAT_END
 95
        4
302
GRIDFORMAT
  1
GRIDFORMAT_BEGIN
 90
        0
 91
        1
 62
     0
 92
       -2
340
0
 93
        0
 40
1.125
309
GRIDFORMAT_END
 95
        8
302
GRIDFORMAT
  1
GRIDFORMAT_BEGIN
 90
        0
 91
        1
 62
     0
 92
       -2
340
0
 93
        0
 40
1.125
309
GRIDFORMAT_END
 95
       16
302
GRIDFORMAT
  1
GRIDFORMAT_BEGIN
 90
        0
 91
        1
 62
     0
 92
       -2
340
0
 93
        0
 40
1.125
309
GRIDFORMAT_END
 95
       32
302
GRIDFORMAT
  1
GRIDFORMAT_BEGIN
 90
        0
 91
        1
 62
     0
 92
       -2
340
0
 93
        0
 40
1.125
309
GRIDFORMAT_END
309
TABLEFORMAT_END
  1
CELLSTYLE_BEGIN
 90
        1
 91
        1
300
_TITLE
309
CELLSTYLE_END
300
CELLSTYLE
  1
TABLEFORMAT_BEGIN
 90
        5
170
     1
 91
        0
 92
        0
 62
   257
 93
        1
300
CONTENTFORMAT
  1
CONTENTFORMAT_BEGIN
 90
        0
 91
        0
 92
      512
 93
        0
300

 40
0.0
140
1.0
 94
        5
 62
     0
340
17
144
4.5
309
CONTENTFORMAT_END
171
     1
301
MARGIN
  1
CELLMARGIN_BEGIN
 40
1.5
 40
1.5
 40
1.5
 40
1.5
 40
0.18
 40
0.18
309
CELLMARGIN_END
 94
        6
 95
        1
302
GRIDFORMAT
  1
GRIDFORMAT_BEGIN
 90
        0
 91
        1
 62
     0
 92
       -2
340
0
 93
        0
 40
1.125
309
GRIDFORMAT_END
 95
        2
302
GRIDFORMAT
  1
GRIDFORMAT_BEGIN
 90
        0
 91
        1
 62
     0
 92
       -2
340
0
 93
        0
 40
1.125
309
GRIDFORMAT_END
 95
        4
302
GRIDFORMAT
  1
GRIDFORMAT_BEGIN
 90
        0
 91
        1
 62
     0
 92
       -2
340
0
 93
        0
 40
1.125
309
GRIDFORMAT_END
 95
        8
302
GRIDFORMAT
  1
GRIDFORMAT_BEGIN
 90
        0
 91
        1
 62
     0
 92
       -2
340
0
 93
        0
 40
1.125
309
GRIDFORMAT_END
 95
       16
302
GRIDFORMAT
  1
GRIDFORMAT_BEGIN
 90
        0
 91
        1
 62
     0
 92
       -2
340
0
 93
        0
 40
1.125
309
GRIDFORMAT_END
 95
       32
302
GRIDFORMAT
  1
GRIDFORMAT_BEGIN
 90
        0
 91
        1
 62
     0
 92
       -2
340
0
 93
        0
 40
1.125
309
GRIDFORMAT_END
309
TABLEFORMAT_END
  1
CELLSTYLE_BEGIN
 90
        2
 91
        1
300
_HEADER
309
CELLSTYLE_END
300
CELLSTYLE
  1
TABLEFORMAT_BEGIN
 90
        5
170
     1
 91
        0
 92
        0
 62
   257
 93
        1
300
CONTENTFORMAT
  1
CONTENTFORMAT_BEGIN
 90
        0
 91
        0
 92
      512
 93
        0
300

 40
0.0
140
1.0
 94
        2
 62
     0
340
17
144
4.5
309
CONTENTFORMAT_END
171
     1
301
MARGIN
  1
CELLMARGIN_BEGIN
 40
1.5
 40
1.5
 40
1.5
 40
1.5
 40
0.18
 40
0.18
309
CELLMARGIN_END
 94
        6
 95
        1
302
GRIDFORMAT
  1
GRIDFORMAT_BEGIN
 90
        0
 91
        1
 62
     0
 92
       -2
340
0
 93
        0
 40
1.125
309
GRIDFORMAT_END
 95
        2
302
GRIDFORMAT
  1
GRIDFORMAT_BEGIN
 90
        0
 91
        1
 62
     0
 92
       -2
340
0
 93
        0
 40
1.125
309
GRIDFORMAT_END
 95
        4
302
GRIDFORMAT
  1
GRIDFORMAT_BEGIN
 90
        0
 91
        1
 62
     0
 92
       -2
340
0
 93
        0
 40
1.125
309
GRIDFORMAT_END
 95
        8
302
GRIDFORMAT
  1
GRIDFORMAT_BEGIN
 90
        0
 91
        1
 62
     0
 92
       -2
340
0
 93
        0
 40
1.125
309
GRIDFORMAT_END
 95
       16
302
GRIDFORMAT
  1
GRIDFORMAT_BEGIN
 90
        0
 91
        1
 62
     0
 92
       -2
340
0
 93
        0
 40
1.125
309
GRIDFORMAT_END
 95
       32
302
GRIDFORMAT
  1
GRIDFORMAT_BEGIN
 90
        0
 91
        1
 62
     0
 92
       -2
340
0
 93
        0
 40
1.125
309
GRIDFORMAT_END
309
TABLEFORMAT_END
  1
CELLSTYLE_BEGIN
 90
        3
 91
        2
300
_DATA
309
CELLSTYLE_END
  0
XRECORD
  5
94D
102
{ACAD_REACTORS
330
5A6
102
}
330
5A6
100
AcDbXrecord
280
     1
102
ACAD_ROUNDTRIP_PRE2007_TABLESTYLE
 90
      512
 91
        0
  1

 92
      512
 93
        0
  2

 94
      512
 95
        0
  3

  0
XRECORD
  5
932
102
{ACAD_REACTORS
330
931
102
}
330
931
100
AcDbXrecord
280
     1
102
RTVSPost2010Prop28
280
     1
102
RTVSPost2010PropOp28
 70
     1
102
RTVSPost2010Prop29
280
     1
102
RTVSPost2010PropOp29
 70
     1
102
RTVSPost2010Prop30
280
     0
102
RTVSPost2010PropOp30
 70
     1
102
RTVSPost2010Prop31
280
     0
102
RTVSPost2010PropOp31
 70
     1
102
RTVSPost2010Prop32
280
     0
102
RTVSPost2010PropOp32
 70
     1
102
RTVSPost2010Prop33
280
     0
102
RTVSPost2010PropOp33
 70
     1
102
RTVSPost2010Prop34
280
     0
102
RTVSPost2010PropOp34
 70
     1
102
RTVSPost2010Prop35
280
     0
102
RTVSPost2010PropOp35
 70
     1
102
RTVSPost2010Prop36
280
     0
102
RTVSPost2010PropOp36
 70
     1
102
RTVSPost2010Prop37
 90
       50
102
RTVSPost2010PropOp37
 70
     1
102
RTVSPost2010Prop38
140
0.0
102
RTVSPost2010PropOp38
 70
     1
102
RTVSPost2010Prop39
140
1.0
102
RTVSPost2010PropOp39
 70
     1
102
RTVSPost2010Prop40
 90
        0
102
RTVSPost2010PropOp40
 70
     1
102
RTVSPost2010Prop41ColorIndex
 90
       18
102
RTVSPost2010Prop41ColorRGB
 90
        0
102
RTVSPost2010PropOp41
 70
     1
102
RTVSPost2010Prop42
 90
       50
102
RTVSPost2010PropOp42
 70
     1
102
RTVSPost2010Prop43
 90
        3
102
RTVSPost2010PropOp43
 70
     1
102
RTVSPost2010Prop44ColorIndex
 90
        5
102
RTVSPost2010Prop44ColorRGB
 90
      255
102
RTVSPost2010PropOp44
 70
     1
102
RTVSPost2010Prop45
280
     0
102
RTVSPost2010PropOp45
 70
     1
102
RTVSPost2010Prop46
 90
       50
102
RTVSPost2010PropOp46
 70
     1
102
RTVSPost2010Prop47
 90
       50
102
RTVSPost2010PropOp47
 70
     1
102
RTVSPost2010Prop48
 90
       50
102
RTVSPost2010PropOp48
 70
     1
102
RTVSPost2010Prop49
280
     0
102
RTVSPost2010PropOp49
 70
     1
102
RTVSPost2010Prop50
 90
       50
102
RTVSPost2010PropOp50
 70
     1
102
RTVSPost2010Prop51ColorIndex
 90
      256
102
RTVSPost2010Prop51ColorRGB
 90
-16777216
102
RTVSPost2010PropOp51
 70
     0
102
RTVSPost2010Prop52
140
1.0
102
RTVSPost2010PropOp52
 70
     0
102
RTVSPost2010Prop53
 90
        2
102
RTVSPost2010PropOp53
 70
     1
102
RTVSPost2010Prop54
  1
strokes_ogs.tif
102
RTVSPost2010PropOp54
 70
     1
102
RTVSPost2010Prop55
280
     0
102
RTVSPost2010PropOp55
 70
     1
102
RTVSPost2010Prop56
140
1.0
102
RTVSPost2010PropOp56
 70
     1
102
RTVSPost2010Prop57
140
1.0
102
RTVSPost2010PropOp57
 70
     1
102
RTVSPropertyOp0
 70
     1
102
RTVSPropertyOp1
 70
     1
102
RTVSPropertyOp2
 70
     1
102
RTVSPropertyOp3
 70
     1
102
RTVSPropertyOp4
 70
     1
102
RTVSPropertyOp5
 70
     1
102
RTVSPropertyOp6
 70
     1
102
RTVSPropertyOp7
 70
     1
102
RTVSPropertyOp8
 70
     1
102
RTVSPropertyOp9
 70
     1
102
RTVSPropertyOp10
 70
     1
102
RTVSPropertyOp11
 70
     1
102
RTVSPropertyOp12
 70
     1
102
RTVSPropertyOp13
 70
     1
102
RTVSPropertyOp14
 70
     1
102
RTVSPropertyOp15
 70
     1
102
RTVSPropertyOp16
 70
     1
102
RTVSPropertyOp17
 70
     1
102
RTVSPropertyOp18
 70
     1
102
RTVSPropertyOp19
 70
     1
102
RTVSPropertyOp20
 70
     1
102
RTVSPropertyOp21
 70
     1
102
RTVSPropertyOp22
 70
     1
102
RTVSPropertyOp23
 70
     1
102
RTVSPropertyOp24
 70
     1
102
RTVSPropertyOp25
 70
     1
102
RTVSPropertyOp26
 70
     1
102
RTVSPropertyOp27
 70
     1
102
RTVSPropertyOp28
 70
     1
102
RTVSPropertyOp29
 70
     1
102
RTVSPropertyOp30
 70
     1
102
RTVSPropertyOp31
 70
     1
102
RTVSPropertyOp32
 70
     1
102
RTVSPropertyOp33
 70
     1
102
RTVSPropertyOp34
 70
     1
102
RTVSPropertyOp35
 70
     1
102
RTVSPropertyOp36
 70
     1
102
RTVSPropertyOp37
 70
     1
102
RTVSPropertyOp38
 70
     1
102
RTVSPropertyOp39
 70
     1
102
RTVSPropertyOp40
 70
     1
102
RTVSPropertyOp41
 70
     1
102
RTVSPropertyOp42
 70
     1
102
RTVSPropertyOp43
 70
     1
102
RTVSPropertyOp44
 70
     1
102
RTVSPropertyOp45
 70
     1
102
RTVSPropertyOp46
 70
     1
102
RTVSPropertyOp47
 70
     1
102
RTVSPropertyOp48
 70
     1
102
RTVSPropertyOp49
 70
     1
102
RTVSPropertyOp50
 70
     1
102
RTVSPropertyOp51
 70
     0
102
RTVSPropertyOp52
 70
     0
102
RTVSPropertyOp53
 70
     1
102
RTVSPropertyOp54
 70
     1
102
RTVSPropertyOp55
 70
     1
102
RTVSPropertyOp56
 70
     1
102
RTVSPropertyOp57
 70
     1
102
RTVSPropertyOp58
 70
     1
102
RTVSPropertyOp59
 70
     1
102
RTVSPropertyOp60
 70
     1
102
RTVSPropertyOp61
 70
     1
102
RTVSPropertyOp62
 70
     1
  0
XRECORD
  5
936
102
{ACAD_REACTORS
330
935
102
}
330
935
100
AcDbXrecord
280
     1
102
RTVSPost2010Prop28
280
     0
102
RTVSPost2010PropOp28
 70
     1
102
RTVSPost2010Prop29
280
     1
102
RTVSPost2010PropOp29
 70
     1
102
RTVSPost2010Prop30
280
     1
102
RTVSPost2010PropOp30
 70
     1
102
RTVSPost2010Prop31
280
     0
102
RTVSPost2010PropOp31
 70
     1
102
RTVSPost2010Prop32
280
     0
102
RTVSPost2010PropOp32
 70
     1
102
RTVSPost2010Prop33
280
     0
102
RTVSPost2010PropOp33
 70
     1
102
RTVSPost2010Prop34
280
     0
102
RTVSPost2010PropOp34
 70
     1
102
RTVSPost2010Prop35
280
     0
102
RTVSPost2010PropOp35
 70
     1
102
RTVSPost2010Prop36
280
     0
102
RTVSPost2010PropOp36
 70
     1
102
RTVSPost2010Prop37
 90
       50
102
RTVSPost2010PropOp37
 70
     1
102
RTVSPost2010Prop38
140
0.0
102
RTVSPost2010PropOp38
 70
     1
102
RTVSPost2010Prop39
140
1.0
102
RTVSPost2010PropOp39
 70
     1
102
RTVSPost2010Prop40
 90
        0
102
RTVSPost2010PropOp40
 70
     1
102
RTVSPost2010Prop41ColorIndex
 90
       18
102
RTVSPost2010Prop41ColorRGB
 90
        0
102
RTVSPost2010PropOp41
 70
     1
102
RTVSPost2010Prop42
 90
       50
102
RTVSPost2010PropOp42
 70
     1
102
RTVSPost2010Prop43
 90
        3
102
RTVSPost2010PropOp43
 70
     1
102
RTVSPost2010Prop44ColorIndex
 90
        5
102
RTVSPost2010Prop44ColorRGB
 90
      255
102
RTVSPost2010PropOp44
 70
     1
102
RTVSPost2010Prop45
280
     0
102
RTVSPost2010PropOp45
 70
     1
102
RTVSPost2010Prop46
 90
       50
102
RTVSPost2010PropOp46
 70
     1
102
RTVSPost2010Prop47
 90
       50
102
RTVSPost2010PropOp47
 70
     1
102
RTVSPost2010Prop48
 90
       50
102
RTVSPost2010PropOp48
 70
     1
102
RTVSPost2010Prop49
280
     0
102
RTVSPost2010PropOp49
 70
     1
102
RTVSPost2010Prop50
 90
       50
102
RTVSPost2010PropOp50
 70
     1
102
RTVSPost2010Prop51ColorIndex
 90
      256
102
RTVSPost2010Prop51ColorRGB
 90
-16777216
102
RTVSPost2010PropOp51
 70
     0
102
RTVSPost2010Prop52
140
1.0
102
RTVSPost2010PropOp52
 70
     0
102
RTVSPost2010Prop53
 90
        2
102
RTVSPost2010PropOp53
 70
     1
102
RTVSPost2010Prop54
  1
strokes_ogs.tif
102
RTVSPost2010PropOp54
 70
     1
102
RTVSPost2010Prop55
280
     0
102
RTVSPost2010PropOp55
 70
     1
102
RTVSPost2010Prop56
140
1.0
102
RTVSPost2010PropOp56
 70
     1
102
RTVSPost2010Prop57
140
1.0
102
RTVSPost2010PropOp57
 70
     1
102
RTVSPropertyOp0
 70
     1
102
RTVSPropertyOp1
 70
     1
102
RTVSPropertyOp2
 70
     1
102
RTVSPropertyOp3
 70
     1
102
RTVSPropertyOp4
 70
     1
102
RTVSPropertyOp5
 70
     1
102
RTVSPropertyOp6
 70
     1
102
RTVSPropertyOp7
 70
     1
102
RTVSPropertyOp8
 70
     1
102
RTVSPropertyOp9
 70
     1
102
RTVSPropertyOp10
 70
     1
102
RTVSPropertyOp11
 70
     1
102
RTVSPropertyOp12
 70
     1
102
RTVSPropertyOp13
 70
     1
102
RTVSPropertyOp14
 70
     1
102
RTVSPropertyOp15
 70
     1
102
RTVSPropertyOp16
 70
     1
102
RTVSPropertyOp17
 70
     1
102
RTVSPropertyOp18
 70
     1
102
RTVSPropertyOp19
 70
     1
102
RTVSPropertyOp20
 70
     1
102
RTVSPropertyOp21
 70
     1
102
RTVSPropertyOp22
 70
     1
102
RTVSPropertyOp23
 70
     1
102
RTVSPropertyOp24
 70
     1
102
RTVSPropertyOp25
 70
     1
102
RTVSPropertyOp26
 70
     1
102
RTVSPropertyOp27
 70
     1
102
RTVSPropertyOp28
 70
     1
102
RTVSPropertyOp29
 70
     1
102
RTVSPropertyOp30
 70
     1
102
RTVSPropertyOp31
 70
     1
102
RTVSPropertyOp32
 70
     1
102
RTVSPropertyOp33
 70
     1
102
RTVSPropertyOp34
 70
     1
102
RTVSPropertyOp35
 70
     1
102
RTVSPropertyOp36
 70
     1
102
RTVSPropertyOp37
 70
     1
102
RTVSPropertyOp38
 70
     1
102
RTVSPropertyOp39
 70
     1
102
RTVSPropertyOp40
 70
     1
102
RTVSPropertyOp41
 70
     1
102
RTVSPropertyOp42
 70
     1
102
RTVSPropertyOp43
 70
     1
102
RTVSPropertyOp44
 70
     1
102
RTVSPropertyOp45
 70
     1
102
RTVSPropertyOp46
 70
     1
102
RTVSPropertyOp47
 70
     1
102
RTVSPropertyOp48
 70
     1
102
RTVSPropertyOp49
 70
     1
102
RTVSPropertyOp50
 70
     1
102
RTVSPropertyOp51
 70
     0
102
RTVSPropertyOp52
 70
     0
102
RTVSPropertyOp53
 70
     1
102
RTVSPropertyOp54
 70
     1
102
RTVSPropertyOp55
 70
     1
102
RTVSPropertyOp56
 70
     1
102
RTVSPropertyOp57
 70
     1
102
RTVSPropertyOp58
 70
     1
102
RTVSPropertyOp59
 70
     1
102
RTVSPropertyOp60
 70
     1
102
RTVSPropertyOp61
 70
     1
102
RTVSPropertyOp62
 70
     1
  0
XRECORD
  5
934
102
{ACAD_REACTORS
330
933
102
}
330
933
100
AcDbXrecord
280
     1
102
RTVSPost2010Prop28
280
     0
102
RTVSPost2010PropOp28
 70
     1
102
RTVSPost2010Prop29
280
     1
102
RTVSPost2010PropOp29
 70
     1
102
RTVSPost2010Prop30
280
     1
102
RTVSPost2010PropOp30
 70
     1
102
RTVSPost2010Prop31
280
     0
102
RTVSPost2010PropOp31
 70
     1
102
RTVSPost2010Prop32
280
     0
102
RTVSPost2010PropOp32
 70
     1
102
RTVSPost2010Prop33
280
     0
102
RTVSPost2010PropOp33
 70
     1
102
RTVSPost2010Prop34
280
     0
102
RTVSPost2010PropOp34
 70
     1
102
RTVSPost2010Prop35
280
     0
102
RTVSPost2010PropOp35
 70
     1
102
RTVSPost2010Prop36
280
     0
102
RTVSPost2010PropOp36
 70
     1
102
RTVSPost2010Prop37
 90
       50
102
RTVSPost2010PropOp37
 70
     1
102
RTVSPost2010Prop38
140
0.0
102
RTVSPost2010PropOp38
 70
     1
102
RTVSPost2010Prop39
140
1.0
102
RTVSPost2010PropOp39
 70
     1
102
RTVSPost2010Prop40
 90
        0
102
RTVSPost2010PropOp40
 70
     1
102
RTVSPost2010Prop41ColorIndex
 90
       18
102
RTVSPost2010Prop41ColorRGB
 90
        0
102
RTVSPost2010PropOp41
 70
     1
102
RTVSPost2010Prop42
 90
       50
102
RTVSPost2010PropOp42
 70
     1
102
RTVSPost2010Prop43
 90
        3
102
RTVSPost2010PropOp43
 70
     1
102
RTVSPost2010Prop44ColorIndex
 90
        5
102
RTVSPost2010Prop44ColorRGB
 90
      255
102
RTVSPost2010PropOp44
 70
     1
102
RTVSPost2010Prop45
280
     0
102
RTVSPost2010PropOp45
 70
     1
102
RTVSPost2010Prop46
 90
       50
102
RTVSPost2010PropOp46
 70
     1
102
RTVSPost2010Prop47
 90
       50
102
RTVSPost2010PropOp47
 70
     1
102
RTVSPost2010Prop48
 90
       50
102
RTVSPost2010PropOp48
 70
     1
102
RTVSPost2010Prop49
280
     0
102
RTVSPost2010PropOp49
 70
     1
102
RTVSPost2010Prop50
 90
       50
102
RTVSPost2010PropOp50
 70
     1
102
RTVSPost2010Prop51ColorIndex
 90
      256
102
RTVSPost2010Prop51ColorRGB
 90
-16777216
102
RTVSPost2010PropOp51
 70
     0
102
RTVSPost2010Prop52
140
1.0
102
RTVSPost2010PropOp52
 70
     0
102
RTVSPost2010Prop53
 90
        2
102
RTVSPost2010PropOp53
 70
     1
102
RTVSPost2010Prop54
  1
strokes_ogs.tif
102
RTVSPost2010PropOp54
 70
     1
102
RTVSPost2010Prop55
280
     0
102
RTVSPost2010PropOp55
 70
     1
102
RTVSPost2010Prop56
140
1.0
102
RTVSPost2010PropOp56
 70
     1
102
RTVSPost2010Prop57
140
1.0
102
RTVSPost2010PropOp57
 70
     1
102
RTVSPropertyOp0
 70
     1
102
RTVSPropertyOp1
 70
     1
102
RTVSPropertyOp2
 70
     1
102
RTVSPropertyOp3
 70
     1
102
RTVSPropertyOp4
 70
     1
102
RTVSPropertyOp5
 70
     1
102
RTVSPropertyOp6
 70
     1
102
RTVSPropertyOp7
 70
     1
102
RTVSPropertyOp8
 70
     1
102
RTVSPropertyOp9
 70
     1
102
RTVSPropertyOp10
 70
     1
102
RTVSPropertyOp11
 70
     1
102
RTVSPropertyOp12
 70
     1
102
RTVSPropertyOp13
 70
     1
102
RTVSPropertyOp14
 70
     1
102
RTVSPropertyOp15
 70
     1
102
RTVSPropertyOp16
 70
     1
102
RTVSPropertyOp17
 70
     1
102
RTVSPropertyOp18
 70
     1
102
RTVSPropertyOp19
 70
     1
102
RTVSPropertyOp20
 70
     1
102
RTVSPropertyOp21
 70
     1
102
RTVSPropertyOp22
 70
     1
102
RTVSPropertyOp23
 70
     1
102
RTVSPropertyOp24
 70
     1
102
RTVSPropertyOp25
 70
     1
102
RTVSPropertyOp26
 70
     1
102
RTVSPropertyOp27
 70
     1
102
RTVSPropertyOp28
 70
     1
102
RTVSPropertyOp29
 70
     1
102
RTVSPropertyOp30
 70
     1
102
RTVSPropertyOp31
 70
     1
102
RTVSPropertyOp32
 70
     1
102
RTVSPropertyOp33
 70
     1
102
RTVSPropertyOp34
 70
     1
102
RTVSPropertyOp35
 70
     1
102
RTVSPropertyOp36
 70
     1
102
RTVSPropertyOp37
 70
     1
102
RTVSPropertyOp38
 70
     1
102
RTVSPropertyOp39
 70
     1
102
RTVSPropertyOp40
 70
     1
102
RTVSPropertyOp41
 70
     1
102
RTVSPropertyOp42
 70
     1
102
RTVSPropertyOp43
 70
     1
102
RTVSPropertyOp44
 70
     1
102
RTVSPropertyOp45
 70
     1
102
RTVSPropertyOp46
 70
     1
102
RTVSPropertyOp47
 70
     1
102
RTVSPropertyOp48
 70
     1
102
RTVSPropertyOp49
 70
     1
102
RTVSPropertyOp50
 70
     1
102
RTVSPropertyOp51
 70
     0
102
RTVSPropertyOp52
 70
     0
102
RTVSPropertyOp53
 70
     1
102
RTVSPropertyOp54
 70
     1
102
RTVSPropertyOp55
 70
     1
102
RTVSPropertyOp56
 70
     1
102
RTVSPropertyOp57
 70
     1
102
RTVSPropertyOp58
 70
     1
102
RTVSPropertyOp59
 70
     1
102
RTVSPropertyOp60
 70
     1
102
RTVSPropertyOp61
 70
     1
102
RTVSPropertyOp62
 70
     1
  0
XRECORD
  5
930
102
{ACAD_REACTORS
330
92F
102
}
330
92F
100
AcDbXrecord
280
     1
102
RTVSPost2010Prop28
280
     0
102
RTVSPost2010PropOp28
 70
     1
102
RTVSPost2010Prop29
280
     1
102
RTVSPost2010PropOp29
 70
     1
102
RTVSPost2010Prop30
280
     1
102
RTVSPost2010PropOp30
 70
     1
102
RTVSPost2010Prop31
280
     0
102
RTVSPost2010PropOp31
 70
     1
102
RTVSPost2010Prop32
280
     0
102
RTVSPost2010PropOp32
 70
     1
102
RTVSPost2010Prop33
280
     0
102
RTVSPost2010PropOp33
 70
     1
102
RTVSPost2010Prop34
280
     0
102
RTVSPost2010PropOp34
 70
     1
102
RTVSPost2010Prop35
280
     0
102
RTVSPost2010PropOp35
 70
     1
102
RTVSPost2010Prop36
280
     0
102
RTVSPost2010PropOp36
 70
     1
102
RTVSPost2010Prop37
 90
       50
102
RTVSPost2010PropOp37
 70
     1
102
RTVSPost2010Prop38
140
0.0
102
RTVSPost2010PropOp38
 70
     1
102
RTVSPost2010Prop39
140
1.0
102
RTVSPost2010PropOp39
 70
     1
102
RTVSPost2010Prop40
 90
        0
102
RTVSPost2010PropOp40
 70
     1
102
RTVSPost2010Prop41ColorIndex
 90
       18
102
RTVSPost2010Prop41ColorRGB
 90
        0
102
RTVSPost2010PropOp41
 70
     1
102
RTVSPost2010Prop42
 90
       50
102
RTVSPost2010PropOp42
 70
     1
102
RTVSPost2010Prop43
 90
        3
102
RTVSPost2010PropOp43
 70
     1
102
RTVSPost2010Prop44ColorIndex
 90
        5
102
RTVSPost2010Prop44ColorRGB
 90
      255
102
RTVSPost2010PropOp44
 70
     1
102
RTVSPost2010Prop45
280
     0
102
RTVSPost2010PropOp45
 70
     1
102
RTVSPost2010Prop46
 90
       50
102
RTVSPost2010PropOp46
 70
     1
102
RTVSPost2010Prop47
 90
       50
102
RTVSPost2010PropOp47
 70
     1
102
RTVSPost2010Prop48
 90
       50
102
RTVSPost2010PropOp48
 70
     1
102
RTVSPost2010Prop49
280
     0
102
RTVSPost2010PropOp49
 70
     1
102
RTVSPost2010Prop50
 90
       50
102
RTVSPost2010PropOp50
 70
     1
102
RTVSPost2010Prop51ColorIndex
 90
      256
102
RTVSPost2010Prop51ColorRGB
 90
-16777216
102
RTVSPost2010PropOp51
 70
     0
102
RTVSPost2010Prop52
140
1.0
102
RTVSPost2010PropOp52
 70
     0
102
RTVSPost2010Prop53
 90
        2
102
RTVSPost2010PropOp53
 70
     1
102
RTVSPost2010Prop54
  1
strokes_ogs.tif
102
RTVSPost2010PropOp54
 70
     1
102
RTVSPost2010Prop55
280
     0
102
RTVSPost2010PropOp55
 70
     1
102
RTVSPost2010Prop56
140
1.0
102
RTVSPost2010PropOp56
 70
     1
102
RTVSPost2010Prop57
140
1.0
102
RTVSPost2010PropOp57
 70
     1
102
RTVSPropertyOp0
 70
     1
102
RTVSPropertyOp1
 70
     1
102
RTVSPropertyOp2
 70
     1
102
RTVSPropertyOp3
 70
     1
102
RTVSPropertyOp4
 70
     1
102
RTVSPropertyOp5
 70
     1
102
RTVSPropertyOp6
 70
     1
102
RTVSPropertyOp7
 70
     1
102
RTVSPropertyOp8
 70
     1
102
RTVSPropertyOp9
 70
     1
102
RTVSPropertyOp10
 70
     1
102
RTVSPropertyOp11
 70
     1
102
RTVSPropertyOp12
 70
     1
102
RTVSPropertyOp13
 70
     1
102
RTVSPropertyOp14
 70
     1
102
RTVSPropertyOp15
 70
     1
102
RTVSPropertyOp16
 70
     1
102
RTVSPropertyOp17
 70
     1
102
RTVSPropertyOp18
 70
     1
102
RTVSPropertyOp19
 70
     1
102
RTVSPropertyOp20
 70
     1
102
RTVSPropertyOp21
 70
     1
102
RTVSPropertyOp22
 70
     1
102
RTVSPropertyOp23
 70
     1
102
RTVSPropertyOp24
 70
     1
102
RTVSPropertyOp25
 70
     1
102
RTVSPropertyOp26
 70
     1
102
RTVSPropertyOp27
 70
     1
102
RTVSPropertyOp28
 70
     1
102
RTVSPropertyOp29
 70
     1
102
RTVSPropertyOp30
 70
     1
102
RTVSPropertyOp31
 70
     1
102
RTVSPropertyOp32
 70
     1
102
RTVSPropertyOp33
 70
     1
102
RTVSPropertyOp34
 70
     1
102
RTVSPropertyOp35
 70
     1
102
RTVSPropertyOp36
 70
     1
102
RTVSPropertyOp37
 70
     1
102
RTVSPropertyOp38
 70
     1
102
RTVSPropertyOp39
 70
     1
102
RTVSPropertyOp40
 70
     1
102
RTVSPropertyOp41
 70
     1
102
RTVSPropertyOp42
 70
     1
102
RTVSPropertyOp43
 70
     1
102
RTVSPropertyOp44
 70
     1
102
RTVSPropertyOp45
 70
     1
102
RTVSPropertyOp46
 70
     1
102
RTVSPropertyOp47
 70
     1
102
RTVSPropertyOp48
 70
     1
102
RTVSPropertyOp49
 70
     1
102
RTVSPropertyOp50
 70
     1
102
RTVSPropertyOp51
 70
     0
102
RTVSPropertyOp52
 70
     0
102
RTVSPropertyOp53
 70
     1
102
RTVSPropertyOp54
 70
     1
102
RTVSPropertyOp55
 70
     1
102
RTVSPropertyOp56
 70
     1
102
RTVSPropertyOp57
 70
     1
102
RTVSPropertyOp58
 70
     1
102
RTVSPropertyOp59
 70
     1
102
RTVSPropertyOp60
 70
     1
102
RTVSPropertyOp61
 70
     1
102
RTVSPropertyOp62
 70
     1
  0
XRECORD
  5
93E
102
{ACAD_REACTORS
330
93D
102
}
330
93D
100
AcDbXrecord
280
     1
102
RTVSPost2010Prop28
280
     0
102
RTVSPost2010PropOp28
 70
     1
102
RTVSPost2010Prop29
280
     1
102
RTVSPost2010PropOp29
 70
     1
102
RTVSPost2010Prop30
280
     1
102
RTVSPost2010PropOp30
 70
     1
102
RTVSPost2010Prop31
280
     0
102
RTVSPost2010PropOp31
 70
     1
102
RTVSPost2010Prop32
280
     0
102
RTVSPost2010PropOp32
 70
     1
102
RTVSPost2010Prop33
280
     0
102
RTVSPost2010PropOp33
 70
     1
102
RTVSPost2010Prop34
280
     0
102
RTVSPost2010PropOp34
 70
     1
102
RTVSPost2010Prop35
280
     0
102
RTVSPost2010PropOp35
 70
     1
102
RTVSPost2010Prop36
280
     0
102
RTVSPost2010PropOp36
 70
     1
102
RTVSPost2010Prop37
 90
       50
102
RTVSPost2010PropOp37
 70
     1
102
RTVSPost2010Prop38
140
0.0
102
RTVSPost2010PropOp38
 70
     1
102
RTVSPost2010Prop39
140
1.0
102
RTVSPost2010PropOp39
 70
     1
102
RTVSPost2010Prop40
 90
        0
102
RTVSPost2010PropOp40
 70
     1
102
RTVSPost2010Prop41ColorIndex
 90
       18
102
RTVSPost2010Prop41ColorRGB
 90
        0
102
RTVSPost2010PropOp41
 70
     1
102
RTVSPost2010Prop42
 90
       50
102
RTVSPost2010PropOp42
 70
     1
102
RTVSPost2010Prop43
 90
        3
102
RTVSPost2010PropOp43
 70
     1
102
RTVSPost2010Prop44ColorIndex
 90
        5
102
RTVSPost2010Prop44ColorRGB
 90
      255
102
RTVSPost2010PropOp44
 70
     1
102
RTVSPost2010Prop45
280
     0
102
RTVSPost2010PropOp45
 70
     1
102
RTVSPost2010Prop46
 90
       50
102
RTVSPost2010PropOp46
 70
     1
102
RTVSPost2010Prop47
 90
       50
102
RTVSPost2010PropOp47
 70
     1
102
RTVSPost2010Prop48
 90
       50
102
RTVSPost2010PropOp48
 70
     1
102
RTVSPost2010Prop49
280
     0
102
RTVSPost2010PropOp49
 70
     1
102
RTVSPost2010Prop50
 90
       50
102
RTVSPost2010PropOp50
 70
     1
102
RTVSPost2010Prop51ColorIndex
 90
      256
102
RTVSPost2010Prop51ColorRGB
 90
-16777216
102
RTVSPost2010PropOp51
 70
     0
102
RTVSPost2010Prop52
140
1.0
102
RTVSPost2010PropOp52
 70
     0
102
RTVSPost2010Prop53
 90
        2
102
RTVSPost2010PropOp53
 70
     1
102
RTVSPost2010Prop54
  1
strokes_ogs.tif
102
RTVSPost2010PropOp54
 70
     1
102
RTVSPost2010Prop55
280
     0
102
RTVSPost2010PropOp55
 70
     1
102
RTVSPost2010Prop56
140
1.0
102
RTVSPost2010PropOp56
 70
     1
102
RTVSPost2010Prop57
140
1.0
102
RTVSPost2010PropOp57
 70
     1
102
RTVSPropertyOp0
 70
     1
102
RTVSPropertyOp1
 70
     1
102
RTVSPropertyOp2
 70
     1
102
RTVSPropertyOp3
 70
     1
102
RTVSPropertyOp4
 70
     1
102
RTVSPropertyOp5
 70
     1
102
RTVSPropertyOp6
 70
     1
102
RTVSPropertyOp7
 70
     1
102
RTVSPropertyOp8
 70
     1
102
RTVSPropertyOp9
 70
     1
102
RTVSPropertyOp10
 70
     1
102
RTVSPropertyOp11
 70
     1
102
RTVSPropertyOp12
 70
     1
102
RTVSPropertyOp13
 70
     1
102
RTVSPropertyOp14
 70
     1
102
RTVSPropertyOp15
 70
     1
102
RTVSPropertyOp16
 70
     1
102
RTVSPropertyOp17
 70
     1
102
RTVSPropertyOp18
 70
     1
102
RTVSPropertyOp19
 70
     1
102
RTVSPropertyOp20
 70
     1
102
RTVSPropertyOp21
 70
     1
102
RTVSPropertyOp22
 70
     1
102
RTVSPropertyOp23
 70
     1
102
RTVSPropertyOp24
 70
     1
102
RTVSPropertyOp25
 70
     1
102
RTVSPropertyOp26
 70
     1
102
RTVSPropertyOp27
 70
     1
102
RTVSPropertyOp28
 70
     1
102
RTVSPropertyOp29
 70
     1
102
RTVSPropertyOp30
 70
     1
102
RTVSPropertyOp31
 70
     1
102
RTVSPropertyOp32
 70
     1
102
RTVSPropertyOp33
 70
     1
102
RTVSPropertyOp34
 70
     1
102
RTVSPropertyOp35
 70
     1
102
RTVSPropertyOp36
 70
     1
102
RTVSPropertyOp37
 70
     1
102
RTVSPropertyOp38
 70
     1
102
RTVSPropertyOp39
 70
     1
102
RTVSPropertyOp40
 70
     1
102
RTVSPropertyOp41
 70
     1
102
RTVSPropertyOp42
 70
     1
102
RTVSPropertyOp43
 70
     1
102
RTVSPropertyOp44
 70
     1
102
RTVSPropertyOp45
 70
     1
102
RTVSPropertyOp46
 70
     1
102
RTVSPropertyOp47
 70
     1
102
RTVSPropertyOp48
 70
     1
102
RTVSPropertyOp49
 70
     1
102
RTVSPropertyOp50
 70
     1
102
RTVSPropertyOp51
 70
     0
102
RTVSPropertyOp52
 70
     0
102
RTVSPropertyOp53
 70
     1
102
RTVSPropertyOp54
 70
     1
102
RTVSPropertyOp55
 70
     1
102
RTVSPropertyOp56
 70
     1
102
RTVSPropertyOp57
 70
     1
102
RTVSPropertyOp58
 70
     1
102
RTVSPropertyOp59
 70
     1
102
RTVSPropertyOp60
 70
     1
102
RTVSPropertyOp61
 70
     1
102
RTVSPropertyOp62
 70
     1
  0
XRECORD
  5
946
102
{ACAD_REACTORS
330
945
102
}
330
945
100
AcDbXrecord
280
     1
102
RTVSPost2010Prop28
280
     0
102
RTVSPost2010PropOp28
 70
     1
102
RTVSPost2010Prop29
280
     1
102
RTVSPost2010PropOp29
 70
     1
102
RTVSPost2010Prop30
280
     1
102
RTVSPost2010PropOp30
 70
     1
102
RTVSPost2010Prop31
280
     0
102
RTVSPost2010PropOp31
 70
     1
102
RTVSPost2010Prop32
280
     0
102
RTVSPost2010PropOp32
 70
     1
102
RTVSPost2010Prop33
280
     0
102
RTVSPost2010PropOp33
 70
     1
102
RTVSPost2010Prop34
280
     0
102
RTVSPost2010PropOp34
 70
     1
102
RTVSPost2010Prop35
280
     0
102
RTVSPost2010PropOp35
 70
     1
102
RTVSPost2010Prop36
280
     0
102
RTVSPost2010PropOp36
 70
     1
102
RTVSPost2010Prop37
 90
       50
102
RTVSPost2010PropOp37
 70
     1
102
RTVSPost2010Prop38
140
0.0
102
RTVSPost2010PropOp38
 70
     1
102
RTVSPost2010Prop39
140
1.0
102
RTVSPost2010PropOp39
 70
     1
102
RTVSPost2010Prop40
 90
        0
102
RTVSPost2010PropOp40
 70
     1
102
RTVSPost2010Prop41ColorIndex
 90
       18
102
RTVSPost2010Prop41ColorRGB
 90
        0
102
RTVSPost2010PropOp41
 70
     1
102
RTVSPost2010Prop42
 90
       50
102
RTVSPost2010PropOp42
 70
     1
102
RTVSPost2010Prop43
 90
        3
102
RTVSPost2010PropOp43
 70
     1
102
RTVSPost2010Prop44ColorIndex
 90
        5
102
RTVSPost2010Prop44ColorRGB
 90
      255
102
RTVSPost2010PropOp44
 70
     1
102
RTVSPost2010Prop45
280
     0
102
RTVSPost2010PropOp45
 70
     1
102
RTVSPost2010Prop46
 90
       50
102
RTVSPost2010PropOp46
 70
     1
102
RTVSPost2010Prop47
 90
       50
102
RTVSPost2010PropOp47
 70
     1
102
RTVSPost2010Prop48
 90
       50
102
RTVSPost2010PropOp48
 70
     1
102
RTVSPost2010Prop49
280
     0
102
RTVSPost2010PropOp49
 70
     1
102
RTVSPost2010Prop50
 90
       50
102
RTVSPost2010PropOp50
 70
     1
102
RTVSPost2010Prop51ColorIndex
 90
      256
102
RTVSPost2010Prop51ColorRGB
 90
-16777216
102
RTVSPost2010PropOp51
 70
     0
102
RTVSPost2010Prop52
140
1.0
102
RTVSPost2010PropOp52
 70
     0
102
RTVSPost2010Prop53
 90
        2
102
RTVSPost2010PropOp53
 70
     1
102
RTVSPost2010Prop54
  1
strokes_ogs.tif
102
RTVSPost2010PropOp54
 70
     1
102
RTVSPost2010Prop55
280
     0
102
RTVSPost2010PropOp55
 70
     1
102
RTVSPost2010Prop56
140
1.0
102
RTVSPost2010PropOp56
 70
     1
102
RTVSPost2010Prop57
140
1.0
102
RTVSPost2010PropOp57
 70
     1
102
RTVSPropertyOp0
 70
     1
102
RTVSPropertyOp1
 70
     1
102
RTVSPropertyOp2
 70
     1
102
RTVSPropertyOp3
 70
     1
102
RTVSPropertyOp4
 70
     1
102
RTVSPropertyOp5
 70
     1
102
RTVSPropertyOp6
 70
     1
102
RTVSPropertyOp7
 70
     1
102
RTVSPropertyOp8
 70
     1
102
RTVSPropertyOp9
 70
     1
102
RTVSPropertyOp10
 70
     1
102
RTVSPropertyOp11
 70
     1
102
RTVSPropertyOp12
 70
     1
102
RTVSPropertyOp13
 70
     1
102
RTVSPropertyOp14
 70
     1
102
RTVSPropertyOp15
 70
     1
102
RTVSPropertyOp16
 70
     1
102
RTVSPropertyOp17
 70
     1
102
RTVSPropertyOp18
 70
     1
102
RTVSPropertyOp19
 70
     1
102
RTVSPropertyOp20
 70
     1
102
RTVSPropertyOp21
 70
     1
102
RTVSPropertyOp22
 70
     1
102
RTVSPropertyOp23
 70
     1
102
RTVSPropertyOp24
 70
     1
102
RTVSPropertyOp25
 70
     1
102
RTVSPropertyOp26
 70
     1
102
RTVSPropertyOp27
 70
     1
102
RTVSPropertyOp28
 70
     1
102
RTVSPropertyOp29
 70
     1
102
RTVSPropertyOp30
 70
     1
102
RTVSPropertyOp31
 70
     1
102
RTVSPropertyOp32
 70
     1
102
RTVSPropertyOp33
 70
     1
102
RTVSPropertyOp34
 70
     1
102
RTVSPropertyOp35
 70
     1
102
RTVSPropertyOp36
 70
     1
102
RTVSPropertyOp37
 70
     1
102
RTVSPropertyOp38
 70
     1
102
RTVSPropertyOp39
 70
     1
102
RTVSPropertyOp40
 70
     1
102
RTVSPropertyOp41
 70
     1
102
RTVSPropertyOp42
 70
     1
102
RTVSPropertyOp43
 70
     1
102
RTVSPropertyOp44
 70
     1
102
RTVSPropertyOp45
 70
     1
102
RTVSPropertyOp46
 70
     1
102
RTVSPropertyOp47
 70
     1
102
RTVSPropertyOp48
 70
     1
102
RTVSPropertyOp49
 70
     1
102
RTVSPropertyOp50
 70
     1
102
RTVSPropertyOp51
 70
     0
102
RTVSPropertyOp52
 70
     0
102
RTVSPropertyOp53
 70
     1
102
RTVSPropertyOp54
 70
     1
102
RTVSPropertyOp55
 70
     1
102
RTVSPropertyOp56
 70
     1
102
RTVSPropertyOp57
 70
     1
102
RTVSPropertyOp58
 70
     1
102
RTVSPropertyOp59
 70
     1
102
RTVSPropertyOp60
 70
     1
102
RTVSPropertyOp61
 70
     1
102
RTVSPropertyOp62
 70
     1
  0
XRECORD
  5
938
102
{ACAD_REACTORS
330
937
102
}
330
937
100
AcDbXrecord
280
     1
102
RTVSPost2010Prop28
280
     0
102
RTVSPost2010PropOp28
 70
     1
102
RTVSPost2010Prop29
280
     1
102
RTVSPost2010PropOp29
 70
     1
102
RTVSPost2010Prop30
280
     1
102
RTVSPost2010PropOp30
 70
     1
102
RTVSPost2010Prop31
280
     0
102
RTVSPost2010PropOp31
 70
     1
102
RTVSPost2010Prop32
280
     0
102
RTVSPost2010PropOp32
 70
     1
102
RTVSPost2010Prop33
280
     0
102
RTVSPost2010PropOp33
 70
     1
102
RTVSPost2010Prop34
280
     0
102
RTVSPost2010PropOp34
 70
     1
102
RTVSPost2010Prop35
280
     0
102
RTVSPost2010PropOp35
 70
     1
102
RTVSPost2010Prop36
280
     0
102
RTVSPost2010PropOp36
 70
     1
102
RTVSPost2010Prop37
 90
       50
102
RTVSPost2010PropOp37
 70
     1
102
RTVSPost2010Prop38
140
0.0
102
RTVSPost2010PropOp38
 70
     1
102
RTVSPost2010Prop39
140
1.0
102
RTVSPost2010PropOp39
 70
     1
102
RTVSPost2010Prop40
 90
        0
102
RTVSPost2010PropOp40
 70
     1
102
RTVSPost2010Prop41ColorIndex
 90
       18
102
RTVSPost2010Prop41ColorRGB
 90
        0
102
RTVSPost2010PropOp41
 70
     1
102
RTVSPost2010Prop42
 90
       50
102
RTVSPost2010PropOp42
 70
     1
102
RTVSPost2010Prop43
 90
        3
102
RTVSPost2010PropOp43
 70
     1
102
RTVSPost2010Prop44ColorIndex
 90
        5
102
RTVSPost2010Prop44ColorRGB
 90
      255
102
RTVSPost2010PropOp44
 70
     1
102
RTVSPost2010Prop45
280
     0
102
RTVSPost2010PropOp45
 70
     1
102
RTVSPost2010Prop46
 90
       50
102
RTVSPost2010PropOp46
 70
     1
102
RTVSPost2010Prop47
 90
       50
102
RTVSPost2010PropOp47
 70
     1
102
RTVSPost2010Prop48
 90
       50
102
RTVSPost2010PropOp48
 70
     1
102
RTVSPost2010Prop49
280
     0
102
RTVSPost2010PropOp49
 70
     1
102
RTVSPost2010Prop50
 90
       50
102
RTVSPost2010PropOp50
 70
     1
102
RTVSPost2010Prop51ColorIndex
 90
      256
102
RTVSPost2010Prop51ColorRGB
 90
-16777216
102
RTVSPost2010PropOp51
 70
     0
102
RTVSPost2010Prop52
140
1.0
102
RTVSPost2010PropOp52
 70
     0
102
RTVSPost2010Prop53
 90
        2
102
RTVSPost2010PropOp53
 70
     1
102
RTVSPost2010Prop54
  1
strokes_ogs.tif
102
RTVSPost2010PropOp54
 70
     1
102
RTVSPost2010Prop55
280
     0
102
RTVSPost2010PropOp55
 70
     1
102
RTVSPost2010Prop56
140
1.0
102
RTVSPost2010PropOp56
 70
     1
102
RTVSPost2010Prop57
140
1.0
102
RTVSPost2010PropOp57
 70
     1
102
RTVSPropertyOp0
 70
     1
102
RTVSPropertyOp1
 70
     1
102
RTVSPropertyOp2
 70
     1
102
RTVSPropertyOp3
 70
     1
102
RTVSPropertyOp4
 70
     1
102
RTVSPropertyOp5
 70
     1
102
RTVSPropertyOp6
 70
     1
102
RTVSPropertyOp7
 70
     1
102
RTVSPropertyOp8
 70
     1
102
RTVSPropertyOp9
 70
     1
102
RTVSPropertyOp10
 70
     1
102
RTVSPropertyOp11
 70
     1
102
RTVSPropertyOp12
 70
     1
102
RTVSPropertyOp13
 70
     1
102
RTVSPropertyOp14
 70
     1
102
RTVSPropertyOp15
 70
     1
102
RTVSPropertyOp16
 70
     1
102
RTVSPropertyOp17
 70
     1
102
RTVSPropertyOp18
 70
     1
102
RTVSPropertyOp19
 70
     1
102
RTVSPropertyOp20
 70
     1
102
RTVSPropertyOp21
 70
     1
102
RTVSPropertyOp22
 70
     1
102
RTVSPropertyOp23
 70
     1
102
RTVSPropertyOp24
 70
     1
102
RTVSPropertyOp25
 70
     1
102
RTVSPropertyOp26
 70
     1
102
RTVSPropertyOp27
 70
     1
102
RTVSPropertyOp28
 70
     1
102
RTVSPropertyOp29
 70
     1
102
RTVSPropertyOp30
 70
     1
102
RTVSPropertyOp31
 70
     1
102
RTVSPropertyOp32
 70
     1
102
RTVSPropertyOp33
 70
     1
102
RTVSPropertyOp34
 70
     1
102
RTVSPropertyOp35
 70
     1
102
RTVSPropertyOp36
 70
     1
102
RTVSPropertyOp37
 70
     1
102
RTVSPropertyOp38
 70
     1
102
RTVSPropertyOp39
 70
     1
102
RTVSPropertyOp40
 70
     1
102
RTVSPropertyOp41
 70
     1
102
RTVSPropertyOp42
 70
     1
102
RTVSPropertyOp43
 70
     1
102
RTVSPropertyOp44
 70
     1
102
RTVSPropertyOp45
 70
     1
102
RTVSPropertyOp46
 70
     1
102
RTVSPropertyOp47
 70
     1
102
RTVSPropertyOp48
 70
     1
102
RTVSPropertyOp49
 70
     1
102
RTVSPropertyOp50
 70
     1
102
RTVSPropertyOp51
 70
     0
102
RTVSPropertyOp52
 70
     0
102
RTVSPropertyOp53
 70
     1
102
RTVSPropertyOp54
 70
     1
102
RTVSPropertyOp55
 70
     1
102
RTVSPropertyOp56
 70
     1
102
RTVSPropertyOp57
 70
     1
102
RTVSPropertyOp58
 70
     1
102
RTVSPropertyOp59
 70
     1
102
RTVSPropertyOp60
 70
     1
102
RTVSPropertyOp61
 70
     1
102
RTVSPropertyOp62
 70
     1
  0
XRECORD
  5
93C
102
{ACAD_REACTORS
330
93B
102
}
330
93B
100
AcDbXrecord
280
     1
102
RTVSPost2010Prop28
280
     0
102
RTVSPost2010PropOp28
 70
     1
102
RTVSPost2010Prop29
280
     1
102
RTVSPost2010PropOp29
 70
     1
102
RTVSPost2010Prop30
280
     1
102
RTVSPost2010PropOp30
 70
     1
102
RTVSPost2010Prop31
280
     0
102
RTVSPost2010PropOp31
 70
     1
102
RTVSPost2010Prop32
280
     0
102
RTVSPost2010PropOp32
 70
     1
102
RTVSPost2010Prop33
280
     0
102
RTVSPost2010PropOp33
 70
     1
102
RTVSPost2010Prop34
280
     0
102
RTVSPost2010PropOp34
 70
     1
102
RTVSPost2010Prop35
280
     0
102
RTVSPost2010PropOp35
 70
     1
102
RTVSPost2010Prop36
280
     0
102
RTVSPost2010PropOp36
 70
     1
102
RTVSPost2010Prop37
 90
       50
102
RTVSPost2010PropOp37
 70
     1
102
RTVSPost2010Prop38
140
0.0
102
RTVSPost2010PropOp38
 70
     1
102
RTVSPost2010Prop39
140
1.0
102
RTVSPost2010PropOp39
 70
     1
102
RTVSPost2010Prop40
 90
        0
102
RTVSPost2010PropOp40
 70
     1
102
RTVSPost2010Prop41ColorIndex
 90
       18
102
RTVSPost2010Prop41ColorRGB
 90
        0
102
RTVSPost2010PropOp41
 70
     1
102
RTVSPost2010Prop42
 90
       50
102
RTVSPost2010PropOp42
 70
     1
102
RTVSPost2010Prop43
 90
        3
102
RTVSPost2010PropOp43
 70
     1
102
RTVSPost2010Prop44ColorIndex
 90
        5
102
RTVSPost2010Prop44ColorRGB
 90
      255
102
RTVSPost2010PropOp44
 70
     1
102
RTVSPost2010Prop45
280
     0
102
RTVSPost2010PropOp45
 70
     1
102
RTVSPost2010Prop46
 90
       50
102
RTVSPost2010PropOp46
 70
     1
102
RTVSPost2010Prop47
 90
       50
102
RTVSPost2010PropOp47
 70
     1
102
RTVSPost2010Prop48
 90
       50
102
RTVSPost2010PropOp48
 70
     1
102
RTVSPost2010Prop49
280
     0
102
RTVSPost2010PropOp49
 70
     1
102
RTVSPost2010Prop50
 90
       50
102
RTVSPost2010PropOp50
 70
     1
102
RTVSPost2010Prop51ColorIndex
 90
      256
102
RTVSPost2010Prop51ColorRGB
 90
-16777216
102
RTVSPost2010PropOp51
 70
     0
102
RTVSPost2010Prop52
140
1.0
102
RTVSPost2010PropOp52
 70
     0
102
RTVSPost2010Prop53
 90
        2
102
RTVSPost2010PropOp53
 70
     1
102
RTVSPost2010Prop54
  1
strokes_ogs.tif
102
RTVSPost2010PropOp54
 70
     1
102
RTVSPost2010Prop55
280
     0
102
RTVSPost2010PropOp55
 70
     1
102
RTVSPost2010Prop56
140
1.0
102
RTVSPost2010PropOp56
 70
     1
102
RTVSPost2010Prop57
140
1.0
102
RTVSPost2010PropOp57
 70
     1
102
RTVSPropertyOp0
 70
     1
102
RTVSPropertyOp1
 70
     1
102
RTVSPropertyOp2
 70
     1
102
RTVSPropertyOp3
 70
     1
102
RTVSPropertyOp4
 70
     1
102
RTVSPropertyOp5
 70
     1
102
RTVSPropertyOp6
 70
     1
102
RTVSPropertyOp7
 70
     1
102
RTVSPropertyOp8
 70
     1
102
RTVSPropertyOp9
 70
     1
102
RTVSPropertyOp10
 70
     1
102
RTVSPropertyOp11
 70
     1
102
RTVSPropertyOp12
 70
     1
102
RTVSPropertyOp13
 70
     1
102
RTVSPropertyOp14
 70
     1
102
RTVSPropertyOp15
 70
     1
102
RTVSPropertyOp16
 70
     1
102
RTVSPropertyOp17
 70
     1
102
RTVSPropertyOp18
 70
     1
102
RTVSPropertyOp19
 70
     1
102
RTVSPropertyOp20
 70
     1
102
RTVSPropertyOp21
 70
     1
102
RTVSPropertyOp22
 70
     1
102
RTVSPropertyOp23
 70
     1
102
RTVSPropertyOp24
 70
     1
102
RTVSPropertyOp25
 70
     1
102
RTVSPropertyOp26
 70
     1
102
RTVSPropertyOp27
 70
     1
102
RTVSPropertyOp28
 70
     1
102
RTVSPropertyOp29
 70
     1
102
RTVSPropertyOp30
 70
     1
102
RTVSPropertyOp31
 70
     1
102
RTVSPropertyOp32
 70
     1
102
RTVSPropertyOp33
 70
     1
102
RTVSPropertyOp34
 70
     1
102
RTVSPropertyOp35
 70
     1
102
RTVSPropertyOp36
 70
     1
102
RTVSPropertyOp37
 70
     1
102
RTVSPropertyOp38
 70
     1
102
RTVSPropertyOp39
 70
     1
102
RTVSPropertyOp40
 70
     1
102
RTVSPropertyOp41
 70
     1
102
RTVSPropertyOp42
 70
     1
102
RTVSPropertyOp43
 70
     1
102
RTVSPropertyOp44
 70
     1
102
RTVSPropertyOp45
 70
     1
102
RTVSPropertyOp46
 70
     1
102
RTVSPropertyOp47
 70
     1
102
RTVSPropertyOp48
 70
     1
102
RTVSPropertyOp49
 70
     1
102
RTVSPropertyOp50
 70
     1
102
RTVSPropertyOp51
 70
     0
102
RTVSPropertyOp52
 70
     0
102
RTVSPropertyOp53
 70
     1
102
RTVSPropertyOp54
 70
     1
102
RTVSPropertyOp55
 70
     1
102
RTVSPropertyOp56
 70
     1
102
RTVSPropertyOp57
 70
     1
102
RTVSPropertyOp58
 70
     1
102
RTVSPropertyOp59
 70
     1
102
RTVSPropertyOp60
 70
     1
102
RTVSPropertyOp61
 70
     1
102
RTVSPropertyOp62
 70
     1
  0
XRECORD
  5
94C
102
{ACAD_REACTORS
330
94B
102
}
330
94B
100
AcDbXrecord
280
     1
102
RTVSPost2010Prop28
280
     0
102
RTVSPost2010PropOp28
 70
     1
102
RTVSPost2010Prop29
280
     1
102
RTVSPost2010PropOp29
 70
     1
102
RTVSPost2010Prop30
280
     1
102
RTVSPost2010PropOp30
 70
     1
102
RTVSPost2010Prop31
280
     0
102
RTVSPost2010PropOp31
 70
     1
102
RTVSPost2010Prop32
280
     0
102
RTVSPost2010PropOp32
 70
     1
102
RTVSPost2010Prop33
280
     0
102
RTVSPost2010PropOp33
 70
     1
102
RTVSPost2010Prop34
280
     0
102
RTVSPost2010PropOp34
 70
     1
102
RTVSPost2010Prop35
280
     0
102
RTVSPost2010PropOp35
 70
     1
102
RTVSPost2010Prop36
280
     0
102
RTVSPost2010PropOp36
 70
     1
102
RTVSPost2010Prop37
 90
       50
102
RTVSPost2010PropOp37
 70
     1
102
RTVSPost2010Prop38
140
0.0
102
RTVSPost2010PropOp38
 70
     1
102
RTVSPost2010Prop39
140
1.0
102
RTVSPost2010PropOp39
 70
     1
102
RTVSPost2010Prop40
 90
        0
102
RTVSPost2010PropOp40
 70
     1
102
RTVSPost2010Prop41ColorIndex
 90
       18
102
RTVSPost2010Prop41ColorRGB
 90
        0
102
RTVSPost2010PropOp41
 70
     1
102
RTVSPost2010Prop42
 90
       50
102
RTVSPost2010PropOp42
 70
     1
102
RTVSPost2010Prop43
 90
        3
102
RTVSPost2010PropOp43
 70
     1
102
RTVSPost2010Prop44ColorIndex
 90
        5
102
RTVSPost2010Prop44ColorRGB
 90
      255
102
RTVSPost2010PropOp44
 70
     1
102
RTVSPost2010Prop45
280
     0
102
RTVSPost2010PropOp45
 70
     1
102
RTVSPost2010Prop46
 90
       50
102
RTVSPost2010PropOp46
 70
     1
102
RTVSPost2010Prop47
 90
       50
102
RTVSPost2010PropOp47
 70
     1
102
RTVSPost2010Prop48
 90
       50
102
RTVSPost2010PropOp48
 70
     1
102
RTVSPost2010Prop49
280
     0
102
RTVSPost2010PropOp49
 70
     1
102
RTVSPost2010Prop50
 90
       50
102
RTVSPost2010PropOp50
 70
     1
102
RTVSPost2010Prop51ColorIndex
 90
      256
102
RTVSPost2010Prop51ColorRGB
 90
-16777216
102
RTVSPost2010PropOp51
 70
     0
102
RTVSPost2010Prop52
140
1.0
102
RTVSPost2010PropOp52
 70
     0
102
RTVSPost2010Prop53
 90
        2
102
RTVSPost2010PropOp53
 70
     1
102
RTVSPost2010Prop54
  1
strokes_ogs.tif
102
RTVSPost2010PropOp54
 70
     1
102
RTVSPost2010Prop55
280
     0
102
RTVSPost2010PropOp55
 70
     1
102
RTVSPost2010Prop56
140
1.0
102
RTVSPost2010PropOp56
 70
     1
102
RTVSPost2010Prop57
140
1.0
102
RTVSPost2010PropOp57
 70
     1
102
RTVSPropertyOp0
 70
     0
102
RTVSPropertyOp1
 70
     0
102
RTVSPropertyOp2
 70
     0
102
RTVSPropertyOp3
 70
     0
102
RTVSPropertyOp4
 70
     0
102
RTVSPropertyOp5
 70
     0
102
RTVSPropertyOp6
 70
     0
102
RTVSPropertyOp7
 70
     0
102
RTVSPropertyOp8
 70
     0
102
RTVSPropertyOp9
 70
     0
102
RTVSPropertyOp10
 70
     0
102
RTVSPropertyOp11
 70
     0
102
RTVSPropertyOp12
 70
     0
102
RTVSPropertyOp13
 70
     0
102
RTVSPropertyOp14
 70
     2
102
RTVSPropertyOp15
 70
     0
102
RTVSPropertyOp16
 70
     0
102
RTVSPropertyOp17
 70
     0
102
RTVSPropertyOp18
 70
     0
102
RTVSPropertyOp19
 70
     0
102
RTVSPropertyOp20
 70
     0
102
RTVSPropertyOp21
 70
     0
102
RTVSPropertyOp22
 70
     0
102
RTVSPropertyOp23
 70
     0
102
RTVSPropertyOp24
 70
     0
102
RTVSPropertyOp25
 70
     0
102
RTVSPropertyOp26
 70
     0
102
RTVSPropertyOp27
 70
     0
102
RTVSPropertyOp28
 70
     1
102
RTVSPropertyOp29
 70
     1
102
RTVSPropertyOp30
 70
     1
102
RTVSPropertyOp31
 70
     1
102
RTVSPropertyOp32
 70
     1
102
RTVSPropertyOp33
 70
     1
102
RTVSPropertyOp34
 70
     1
102
RTVSPropertyOp35
 70
     1
102
RTVSPropertyOp36
 70
     1
102
RTVSPropertyOp37
 70
     1
102
RTVSPropertyOp38
 70
     1
102
RTVSPropertyOp39
 70
     1
102
RTVSPropertyOp40
 70
     1
102
RTVSPropertyOp41
 70
     1
102
RTVSPropertyOp42
 70
     1
102
RTVSPropertyOp43
 70
     1
102
RTVSPropertyOp44
 70
     1
102
RTVSPropertyOp45
 70
     1
102
RTVSPropertyOp46
 70
     1
102
RTVSPropertyOp47
 70
     1
102
RTVSPropertyOp48
 70
     1
102
RTVSPropertyOp49
 70
     1
102
RTVSPropertyOp50
 70
     1
102
RTVSPropertyOp51
 70
     0
102
RTVSPropertyOp52
 70
     0
102
RTVSPropertyOp53
 70
     1
102
RTVSPropertyOp54
 70
     1
102
RTVSPropertyOp55
 70
     1
102
RTVSPropertyOp56
 70
     1
102
RTVSPropertyOp57
 70
     1
102
RTVSPropertyOp58
 70
     1
102
RTVSPropertyOp59
 70
     1
102
RTVSPropertyOp60
 70
     1
102
RTVSPropertyOp61
 70
     1
102
RTVSPropertyOp62
 70
     1
  0
XRECORD
  5
944
102
{ACAD_REACTORS
330
943
102
}
330
943
100
AcDbXrecord
280
     1
102
RTVSPost2010Prop28
280
     0
102
RTVSPost2010PropOp28
 70
     1
102
RTVSPost2010Prop29
280
     1
102
RTVSPost2010PropOp29
 70
     1
102
RTVSPost2010Prop30
280
     1
102
RTVSPost2010PropOp30
 70
     1
102
RTVSPost2010Prop31
280
     0
102
RTVSPost2010PropOp31
 70
     1
102
RTVSPost2010Prop32
280
     0
102
RTVSPost2010PropOp32
 70
     1
102
RTVSPost2010Prop33
280
     0
102
RTVSPost2010PropOp33
 70
     1
102
RTVSPost2010Prop34
280
     0
102
RTVSPost2010PropOp34
 70
     1
102
RTVSPost2010Prop35
280
     0
102
RTVSPost2010PropOp35
 70
     1
102
RTVSPost2010Prop36
280
     0
102
RTVSPost2010PropOp36
 70
     1
102
RTVSPost2010Prop37
 90
       50
102
RTVSPost2010PropOp37
 70
     1
102
RTVSPost2010Prop38
140
0.0
102
RTVSPost2010PropOp38
 70
     1
102
RTVSPost2010Prop39
140
1.0
102
RTVSPost2010PropOp39
 70
     1
102
RTVSPost2010Prop40
 90
        0
102
RTVSPost2010PropOp40
 70
     1
102
RTVSPost2010Prop41ColorIndex
 90
       18
102
RTVSPost2010Prop41ColorRGB
 90
        0
102
RTVSPost2010PropOp41
 70
     1
102
RTVSPost2010Prop42
 90
       50
102
RTVSPost2010PropOp42
 70
     1
102
RTVSPost2010Prop43
 90
        3
102
RTVSPost2010PropOp43
 70
     1
102
RTVSPost2010Prop44ColorIndex
 90
        5
102
RTVSPost2010Prop44ColorRGB
 90
      255
102
RTVSPost2010PropOp44
 70
     1
102
RTVSPost2010Prop45
280
     0
102
RTVSPost2010PropOp45
 70
     1
102
RTVSPost2010Prop46
 90
       50
102
RTVSPost2010PropOp46
 70
     1
102
RTVSPost2010Prop47
 90
       50
102
RTVSPost2010PropOp47
 70
     1
102
RTVSPost2010Prop48
 90
       50
102
RTVSPost2010PropOp48
 70
     1
102
RTVSPost2010Prop49
280
     0
102
RTVSPost2010PropOp49
 70
     1
102
RTVSPost2010Prop50
 90
       50
102
RTVSPost2010PropOp50
 70
     1
102
RTVSPost2010Prop51ColorIndex
 90
      256
102
RTVSPost2010Prop51ColorRGB
 90
-16777216
102
RTVSPost2010PropOp51
 70
     0
102
RTVSPost2010Prop52
140
1.0
102
RTVSPost2010PropOp52
 70
     0
102
RTVSPost2010Prop53
 90
        2
102
RTVSPost2010PropOp53
 70
     1
102
RTVSPost2010Prop54
  1
strokes_ogs.tif
102
RTVSPost2010PropOp54
 70
     1
102
RTVSPost2010Prop55
280
     0
102
RTVSPost2010PropOp55
 70
     1
102
RTVSPost2010Prop56
140
1.0
102
RTVSPost2010PropOp56
 70
     1
102
RTVSPost2010Prop57
140
1.0
102
RTVSPost2010PropOp57
 70
     1
102
RTVSPropertyOp0
 70
     1
102
RTVSPropertyOp1
 70
     1
102
RTVSPropertyOp2
 70
     1
102
RTVSPropertyOp3
 70
     1
102
RTVSPropertyOp4
 70
     1
102
RTVSPropertyOp5
 70
     1
102
RTVSPropertyOp6
 70
     1
102
RTVSPropertyOp7
 70
     1
102
RTVSPropertyOp8
 70
     1
102
RTVSPropertyOp9
 70
     1
102
RTVSPropertyOp10
 70
     1
102
RTVSPropertyOp11
 70
     1
102
RTVSPropertyOp12
 70
     1
102
RTVSPropertyOp13
 70
     1
102
RTVSPropertyOp14
 70
     1
102
RTVSPropertyOp15
 70
     1
102
RTVSPropertyOp16
 70
     1
102
RTVSPropertyOp17
 70
     1
102
RTVSPropertyOp18
 70
     1
102
RTVSPropertyOp19
 70
     1
102
RTVSPropertyOp20
 70
     1
102
RTVSPropertyOp21
 70
     1
102
RTVSPropertyOp22
 70
     1
102
RTVSPropertyOp23
 70
     1
102
RTVSPropertyOp24
 70
     1
102
RTVSPropertyOp25
 70
     1
102
RTVSPropertyOp26
 70
     1
102
RTVSPropertyOp27
 70
     1
102
RTVSPropertyOp28
 70
     1
102
RTVSPropertyOp29
 70
     1
102
RTVSPropertyOp30
 70
     1
102
RTVSPropertyOp31
 70
     1
102
RTVSPropertyOp32
 70
     1
102
RTVSPropertyOp33
 70
     1
102
RTVSPropertyOp34
 70
     1
102
RTVSPropertyOp35
 70
     1
102
RTVSPropertyOp36
 70
     1
102
RTVSPropertyOp37
 70
     1
102
RTVSPropertyOp38
 70
     1
102
RTVSPropertyOp39
 70
     1
102
RTVSPropertyOp40
 70
     1
102
RTVSPropertyOp41
 70
     1
102
RTVSPropertyOp42
 70
     1
102
RTVSPropertyOp43
 70
     1
102
RTVSPropertyOp44
 70
     1
102
RTVSPropertyOp45
 70
     1
102
RTVSPropertyOp46
 70
     1
102
RTVSPropertyOp47
 70
     1
102
RTVSPropertyOp48
 70
     1
102
RTVSPropertyOp49
 70
     1
102
RTVSPropertyOp50
 70
     1
102
RTVSPropertyOp51
 70
     0
102
RTVSPropertyOp52
 70
     0
102
RTVSPropertyOp53
 70
     1
102
RTVSPropertyOp54
 70
     1
102
RTVSPropertyOp55
 70
     1
102
RTVSPropertyOp56
 70
     1
102
RTVSPropertyOp57
 70
     1
102
RTVSPropertyOp58
 70
     1
102
RTVSPropertyOp59
 70
     1
102
RTVSPropertyOp60
 70
     1
102
RTVSPropertyOp61
 70
     1
102
RTVSPropertyOp62
 70
     1
  0
XRECORD
  5
928
102
{ACAD_REACTORS
330
927
102
}
330
927
100
AcDbXrecord
280
     1
102
RTVSPost2010Prop28
280
     0
102
RTVSPost2010PropOp28
 70
     1
102
RTVSPost2010Prop29
280
     1
102
RTVSPost2010PropOp29
 70
     1
102
RTVSPost2010Prop30
280
     1
102
RTVSPost2010PropOp30
 70
     1
102
RTVSPost2010Prop31
280
     0
102
RTVSPost2010PropOp31
 70
     1
102
RTVSPost2010Prop32
280
     0
102
RTVSPost2010PropOp32
 70
     1
102
RTVSPost2010Prop33
280
     0
102
RTVSPost2010PropOp33
 70
     1
102
RTVSPost2010Prop34
280
     0
102
RTVSPost2010PropOp34
 70
     1
102
RTVSPost2010Prop35
280
     0
102
RTVSPost2010PropOp35
 70
     1
102
RTVSPost2010Prop36
280
     0
102
RTVSPost2010PropOp36
 70
     1
102
RTVSPost2010Prop37
 90
       50
102
RTVSPost2010PropOp37
 70
     1
102
RTVSPost2010Prop38
140
0.0
102
RTVSPost2010PropOp38
 70
     1
102
RTVSPost2010Prop39
140
1.0
102
RTVSPost2010PropOp39
 70
     1
102
RTVSPost2010Prop40
 90
        0
102
RTVSPost2010PropOp40
 70
     1
102
RTVSPost2010Prop41ColorIndex
 90
       18
102
RTVSPost2010Prop41ColorRGB
 90
        0
102
RTVSPost2010PropOp41
 70
     1
102
RTVSPost2010Prop42
 90
       50
102
RTVSPost2010PropOp42
 70
     1
102
RTVSPost2010Prop43
 90
        3
102
RTVSPost2010PropOp43
 70
     1
102
RTVSPost2010Prop44ColorIndex
 90
        5
102
RTVSPost2010Prop44ColorRGB
 90
      255
102
RTVSPost2010PropOp44
 70
     1
102
RTVSPost2010Prop45
280
     0
102
RTVSPost2010PropOp45
 70
     1
102
RTVSPost2010Prop46
 90
       50
102
RTVSPost2010PropOp46
 70
     1
102
RTVSPost2010Prop47
 90
       50
102
RTVSPost2010PropOp47
 70
     1
102
RTVSPost2010Prop48
 90
       50
102
RTVSPost2010PropOp48
 70
     1
102
RTVSPost2010Prop49
280
     0
102
RTVSPost2010PropOp49
 70
     1
102
RTVSPost2010Prop50
 90
       50
102
RTVSPost2010PropOp50
 70
     1
102
RTVSPost2010Prop51ColorIndex
 90
      256
102
RTVSPost2010Prop51ColorRGB
 90
-16777216
102
RTVSPost2010PropOp51
 70
     0
102
RTVSPost2010Prop52
140
1.0
102
RTVSPost2010PropOp52
 70
     0
102
RTVSPost2010Prop53
 90
        2
102
RTVSPost2010PropOp53
 70
     1
102
RTVSPost2010Prop54
  1
strokes_ogs.tif
102
RTVSPost2010PropOp54
 70
     1
102
RTVSPost2010Prop55
280
     0
102
RTVSPost2010PropOp55
 70
     1
102
RTVSPost2010Prop56
140
1.0
102
RTVSPost2010PropOp56
 70
     1
102
RTVSPost2010Prop57
140
1.0
102
RTVSPost2010PropOp57
 70
     1
102
RTVSPropertyOp0
 70
     1
102
RTVSPropertyOp1
 70
     1
102
RTVSPropertyOp2
 70
     1
102
RTVSPropertyOp3
 70
     1
102
RTVSPropertyOp4
 70
     1
102
RTVSPropertyOp5
 70
     1
102
RTVSPropertyOp6
 70
     1
102
RTVSPropertyOp7
 70
     1
102
RTVSPropertyOp8
 70
     1
102
RTVSPropertyOp9
 70
     1
102
RTVSPropertyOp10
 70
     1
102
RTVSPropertyOp11
 70
     1
102
RTVSPropertyOp12
 70
     1
102
RTVSPropertyOp13
 70
     1
102
RTVSPropertyOp14
 70
     1
102
RTVSPropertyOp15
 70
     1
102
RTVSPropertyOp16
 70
     1
102
RTVSPropertyOp17
 70
     1
102
RTVSPropertyOp18
 70
     1
102
RTVSPropertyOp19
 70
     1
102
RTVSPropertyOp20
 70
     1
102
RTVSPropertyOp21
 70
     1
102
RTVSPropertyOp22
 70
     1
102
RTVSPropertyOp23
 70
     1
102
RTVSPropertyOp24
 70
     1
102
RTVSPropertyOp25
 70
     1
102
RTVSPropertyOp26
 70
     1
102
RTVSPropertyOp27
 70
     1
102
RTVSPropertyOp28
 70
     1
102
RTVSPropertyOp29
 70
     1
102
RTVSPropertyOp30
 70
     1
102
RTVSPropertyOp31
 70
     1
102
RTVSPropertyOp32
 70
     1
102
RTVSPropertyOp33
 70
     1
102
RTVSPropertyOp34
 70
     1
102
RTVSPropertyOp35
 70
     1
102
RTVSPropertyOp36
 70
     1
102
RTVSPropertyOp37
 70
     1
102
RTVSPropertyOp38
 70
     1
102
RTVSPropertyOp39
 70
     1
102
RTVSPropertyOp40
 70
     1
102
RTVSPropertyOp41
 70
     1
102
RTVSPropertyOp42
 70
     1
102
RTVSPropertyOp43
 70
     1
102
RTVSPropertyOp44
 70
     1
102
RTVSPropertyOp45
 70
     1
102
RTVSPropertyOp46
 70
     1
102
RTVSPropertyOp47
 70
     1
102
RTVSPropertyOp48
 70
     1
102
RTVSPropertyOp49
 70
     1
102
RTVSPropertyOp50
 70
     1
102
RTVSPropertyOp51
 70
     0
102
RTVSPropertyOp52
 70
     0
102
RTVSPropertyOp53
 70
     1
102
RTVSPropertyOp54
 70
     1
102
RTVSPropertyOp55
 70
     1
102
RTVSPropertyOp56
 70
     1
102
RTVSPropertyOp57
 70
     1
102
RTVSPropertyOp58
 70
     1
102
RTVSPropertyOp59
 70
     1
102
RTVSPropertyOp60
 70
     1
102
RTVSPropertyOp61
 70
     1
102
RTVSPropertyOp62
 70
     1
  0
XRECORD
  5
92A
102
{ACAD_REACTORS
330
929
102
}
330
929
100
AcDbXrecord
280
     1
102
RTVSPost2010Prop28
280
     0
102
RTVSPost2010PropOp28
 70
     1
102
RTVSPost2010Prop29
280
     1
102
RTVSPost2010PropOp29
 70
     1
102
RTVSPost2010Prop30
280
     1
102
RTVSPost2010PropOp30
 70
     1
102
RTVSPost2010Prop31
280
     0
102
RTVSPost2010PropOp31
 70
     1
102
RTVSPost2010Prop32
280
     0
102
RTVSPost2010PropOp32
 70
     1
102
RTVSPost2010Prop33
280
     0
102
RTVSPost2010PropOp33
 70
     1
102
RTVSPost2010Prop34
280
     0
102
RTVSPost2010PropOp34
 70
     1
102
RTVSPost2010Prop35
280
     0
102
RTVSPost2010PropOp35
 70
     1
102
RTVSPost2010Prop36
280
     0
102
RTVSPost2010PropOp36
 70
     1
102
RTVSPost2010Prop37
 90
       50
102
RTVSPost2010PropOp37
 70
     1
102
RTVSPost2010Prop38
140
0.0
102
RTVSPost2010PropOp38
 70
     1
102
RTVSPost2010Prop39
140
1.0
102
RTVSPost2010PropOp39
 70
     1
102
RTVSPost2010Prop40
 90
        0
102
RTVSPost2010PropOp40
 70
     1
102
RTVSPost2010Prop41ColorIndex
 90
       18
102
RTVSPost2010Prop41ColorRGB
 90
        0
102
RTVSPost2010PropOp41
 70
     1
102
RTVSPost2010Prop42
 90
       50
102
RTVSPost2010PropOp42
 70
     1
102
RTVSPost2010Prop43
 90
        3
102
RTVSPost2010PropOp43
 70
     1
102
RTVSPost2010Prop44ColorIndex
 90
        5
102
RTVSPost2010Prop44ColorRGB
 90
      255
102
RTVSPost2010PropOp44
 70
     1
102
RTVSPost2010Prop45
280
     0
102
RTVSPost2010PropOp45
 70
     1
102
RTVSPost2010Prop46
 90
       50
102
RTVSPost2010PropOp46
 70
     1
102
RTVSPost2010Prop47
 90
       50
102
RTVSPost2010PropOp47
 70
     1
102
RTVSPost2010Prop48
 90
       50
102
RTVSPost2010PropOp48
 70
     1
102
RTVSPost2010Prop49
280
     0
102
RTVSPost2010PropOp49
 70
     1
102
RTVSPost2010Prop50
 90
       50
102
RTVSPost2010PropOp50
 70
     1
102
RTVSPost2010Prop51ColorIndex
 90
      256
102
RTVSPost2010Prop51ColorRGB
 90
-16777216
102
RTVSPost2010PropOp51
 70
     0
102
RTVSPost2010Prop52
140
1.0
102
RTVSPost2010PropOp52
 70
     0
102
RTVSPost2010Prop53
 90
        2
102
RTVSPost2010PropOp53
 70
     1
102
RTVSPost2010Prop54
  1
strokes_ogs.tif
102
RTVSPost2010PropOp54
 70
     1
102
RTVSPost2010Prop55
280
     0
102
RTVSPost2010PropOp55
 70
     1
102
RTVSPost2010Prop56
140
1.0
102
RTVSPost2010PropOp56
 70
     1
102
RTVSPost2010Prop57
140
1.0
102
RTVSPost2010PropOp57
 70
     1
102
RTVSPropertyOp0
 70
     1
102
RTVSPropertyOp1
 70
     1
102
RTVSPropertyOp2
 70
     1
102
RTVSPropertyOp3
 70
     1
102
RTVSPropertyOp4
 70
     1
102
RTVSPropertyOp5
 70
     1
102
RTVSPropertyOp6
 70
     1
102
RTVSPropertyOp7
 70
     1
102
RTVSPropertyOp8
 70
     1
102
RTVSPropertyOp9
 70
     1
102
RTVSPropertyOp10
 70
     1
102
RTVSPropertyOp11
 70
     1
102
RTVSPropertyOp12
 70
     1
102
RTVSPropertyOp13
 70
     1
102
RTVSPropertyOp14
 70
     1
102
RTVSPropertyOp15
 70
     1
102
RTVSPropertyOp16
 70
     1
102
RTVSPropertyOp17
 70
     1
102
RTVSPropertyOp18
 70
     1
102
RTVSPropertyOp19
 70
     1
102
RTVSPropertyOp20
 70
     1
102
RTVSPropertyOp21
 70
     1
102
RTVSPropertyOp22
 70
     1
102
RTVSPropertyOp23
 70
     1
102
RTVSPropertyOp24
 70
     1
102
RTVSPropertyOp25
 70
     1
102
RTVSPropertyOp26
 70
     1
102
RTVSPropertyOp27
 70
     1
102
RTVSPropertyOp28
 70
     1
102
RTVSPropertyOp29
 70
     1
102
RTVSPropertyOp30
 70
     1
102
RTVSPropertyOp31
 70
     1
102
RTVSPropertyOp32
 70
     1
102
RTVSPropertyOp33
 70
     1
102
RTVSPropertyOp34
 70
     1
102
RTVSPropertyOp35
 70
     1
102
RTVSPropertyOp36
 70
     1
102
RTVSPropertyOp37
 70
     1
102
RTVSPropertyOp38
 70
     1
102
RTVSPropertyOp39
 70
     1
102
RTVSPropertyOp40
 70
     1
102
RTVSPropertyOp41
 70
     1
102
RTVSPropertyOp42
 70
     1
102
RTVSPropertyOp43
 70
     1
102
RTVSPropertyOp44
 70
     1
102
RTVSPropertyOp45
 70
     1
102
RTVSPropertyOp46
 70
     1
102
RTVSPropertyOp47
 70
     1
102
RTVSPropertyOp48
 70
     1
102
RTVSPropertyOp49
 70
     1
102
RTVSPropertyOp50
 70
     1
102
RTVSPropertyOp51
 70
     0
102
RTVSPropertyOp52
 70
     0
102
RTVSPropertyOp53
 70
     1
102
RTVSPropertyOp54
 70
     1
102
RTVSPropertyOp55
 70
     1
102
RTVSPropertyOp56
 70
     1
102
RTVSPropertyOp57
 70
     1
102
RTVSPropertyOp58
 70
     1
102
RTVSPropertyOp59
 70
     1
102
RTVSPropertyOp60
 70
     1
102
RTVSPropertyOp61
 70
     1
102
RTVSPropertyOp62
 70
     1
  0
XRECORD
  5
92C
102
{ACAD_REACTORS
330
92B
102
}
330
92B
100
AcDbXrecord
280
     1
102
RTVSPost2010Prop28
280
     0
102
RTVSPost2010PropOp28
 70
     1
102
RTVSPost2010Prop29
280
     1
102
RTVSPost2010PropOp29
 70
     1
102
RTVSPost2010Prop30
280
     1
102
RTVSPost2010PropOp30
 70
     1
102
RTVSPost2010Prop31
280
     0
102
RTVSPost2010PropOp31
 70
     1
102
RTVSPost2010Prop32
280
     0
102
RTVSPost2010PropOp32
 70
     1
102
RTVSPost2010Prop33
280
     0
102
RTVSPost2010PropOp33
 70
     1
102
RTVSPost2010Prop34
280
     0
102
RTVSPost2010PropOp34
 70
     1
102
RTVSPost2010Prop35
280
     0
102
RTVSPost2010PropOp35
 70
     1
102
RTVSPost2010Prop36
280
     0
102
RTVSPost2010PropOp36
 70
     1
102
RTVSPost2010Prop37
 90
       50
102
RTVSPost2010PropOp37
 70
     1
102
RTVSPost2010Prop38
140
0.0
102
RTVSPost2010PropOp38
 70
     1
102
RTVSPost2010Prop39
140
1.0
102
RTVSPost2010PropOp39
 70
     1
102
RTVSPost2010Prop40
 90
        0
102
RTVSPost2010PropOp40
 70
     1
102
RTVSPost2010Prop41ColorIndex
 90
       18
102
RTVSPost2010Prop41ColorRGB
 90
        0
102
RTVSPost2010PropOp41
 70
     1
102
RTVSPost2010Prop42
 90
       50
102
RTVSPost2010PropOp42
 70
     1
102
RTVSPost2010Prop43
 90
        3
102
RTVSPost2010PropOp43
 70
     1
102
RTVSPost2010Prop44ColorIndex
 90
        5
102
RTVSPost2010Prop44ColorRGB
 90
      255
102
RTVSPost2010PropOp44
 70
     1
102
RTVSPost2010Prop45
280
     0
102
RTVSPost2010PropOp45
 70
     1
102
RTVSPost2010Prop46
 90
       50
102
RTVSPost2010PropOp46
 70
     1
102
RTVSPost2010Prop47
 90
       50
102
RTVSPost2010PropOp47
 70
     1
102
RTVSPost2010Prop48
 90
       50
102
RTVSPost2010PropOp48
 70
     1
102
RTVSPost2010Prop49
280
     0
102
RTVSPost2010PropOp49
 70
     1
102
RTVSPost2010Prop50
 90
       50
102
RTVSPost2010PropOp50
 70
     1
102
RTVSPost2010Prop51ColorIndex
 90
      256
102
RTVSPost2010Prop51ColorRGB
 90
-16777216
102
RTVSPost2010PropOp51
 70
     0
102
RTVSPost2010Prop52
140
1.0
102
RTVSPost2010PropOp52
 70
     0
102
RTVSPost2010Prop53
 90
        2
102
RTVSPost2010PropOp53
 70
     1
102
RTVSPost2010Prop54
  1
strokes_ogs.tif
102
RTVSPost2010PropOp54
 70
     1
102
RTVSPost2010Prop55
280
     0
102
RTVSPost2010PropOp55
 70
     1
102
RTVSPost2010Prop56
140
1.0
102
RTVSPost2010PropOp56
 70
     1
102
RTVSPost2010Prop57
140
1.0
102
RTVSPost2010PropOp57
 70
     1
102
RTVSPropertyOp0
 70
     1
102
RTVSPropertyOp1
 70
     1
102
RTVSPropertyOp2
 70
     1
102
RTVSPropertyOp3
 70
     1
102
RTVSPropertyOp4
 70
     1
102
RTVSPropertyOp5
 70
     1
102
RTVSPropertyOp6
 70
     1
102
RTVSPropertyOp7
 70
     1
102
RTVSPropertyOp8
 70
     1
102
RTVSPropertyOp9
 70
     1
102
RTVSPropertyOp10
 70
     1
102
RTVSPropertyOp11
 70
     1
102
RTVSPropertyOp12
 70
     1
102
RTVSPropertyOp13
 70
     1
102
RTVSPropertyOp14
 70
     1
102
RTVSPropertyOp15
 70
     1
102
RTVSPropertyOp16
 70
     1
102
RTVSPropertyOp17
 70
     1
102
RTVSPropertyOp18
 70
     1
102
RTVSPropertyOp19
 70
     1
102
RTVSPropertyOp20
 70
     1
102
RTVSPropertyOp21
 70
     1
102
RTVSPropertyOp22
 70
     1
102
RTVSPropertyOp23
 70
     1
102
RTVSPropertyOp24
 70
     1
102
RTVSPropertyOp25
 70
     1
102
RTVSPropertyOp26
 70
     1
102
RTVSPropertyOp27
 70
     1
102
RTVSPropertyOp28
 70
     1
102
RTVSPropertyOp29
 70
     1
102
RTVSPropertyOp30
 70
     1
102
RTVSPropertyOp31
 70
     1
102
RTVSPropertyOp32
 70
     1
102
RTVSPropertyOp33
 70
     1
102
RTVSPropertyOp34
 70
     1
102
RTVSPropertyOp35
 70
     1
102
RTVSPropertyOp36
 70
     1
102
RTVSPropertyOp37
 70
     1
102
RTVSPropertyOp38
 70
     1
102
RTVSPropertyOp39
 70
     1
102
RTVSPropertyOp40
 70
     1
102
RTVSPropertyOp41
 70
     1
102
RTVSPropertyOp42
 70
     1
102
RTVSPropertyOp43
 70
     1
102
RTVSPropertyOp44
 70
     1
102
RTVSPropertyOp45
 70
     1
102
RTVSPropertyOp46
 70
     1
102
RTVSPropertyOp47
 70
     1
102
RTVSPropertyOp48
 70
     1
102
RTVSPropertyOp49
 70
     1
102
RTVSPropertyOp50
 70
     1
102
RTVSPropertyOp51
 70
     0
102
RTVSPropertyOp52
 70
     0
102
RTVSPropertyOp53
 70
     1
102
RTVSPropertyOp54
 70
     1
102
RTVSPropertyOp55
 70
     1
102
RTVSPropertyOp56
 70
     1
102
RTVSPropertyOp57
 70
     1
102
RTVSPropertyOp58
 70
     1
102
RTVSPropertyOp59
 70
     1
102
RTVSPropertyOp60
 70
     1
102
RTVSPropertyOp61
 70
     1
102
RTVSPropertyOp62
 70
     1
  0
XRECORD
  5
92E
102
{ACAD_REACTORS
330
92D
102
}
330
92D
100
AcDbXrecord
280
     1
102
RTVSPost2010Prop28
280
     0
102
RTVSPost2010PropOp28
 70
     1
102
RTVSPost2010Prop29
280
     1
102
RTVSPost2010PropOp29
 70
     1
102
RTVSPost2010Prop30
280
     1
102
RTVSPost2010PropOp30
 70
     1
102
RTVSPost2010Prop31
280
     0
102
RTVSPost2010PropOp31
 70
     1
102
RTVSPost2010Prop32
280
     0
102
RTVSPost2010PropOp32
 70
     1
102
RTVSPost2010Prop33
280
     0
102
RTVSPost2010PropOp33
 70
     1
102
RTVSPost2010Prop34
280
     0
102
RTVSPost2010PropOp34
 70
     1
102
RTVSPost2010Prop35
280
     0
102
RTVSPost2010PropOp35
 70
     1
102
RTVSPost2010Prop36
280
     0
102
RTVSPost2010PropOp36
 70
     1
102
RTVSPost2010Prop37
 90
       50
102
RTVSPost2010PropOp37
 70
     1
102
RTVSPost2010Prop38
140
0.0
102
RTVSPost2010PropOp38
 70
     1
102
RTVSPost2010Prop39
140
1.0
102
RTVSPost2010PropOp39
 70
     1
102
RTVSPost2010Prop40
 90
        0
102
RTVSPost2010PropOp40
 70
     1
102
RTVSPost2010Prop41ColorIndex
 90
       18
102
RTVSPost2010Prop41ColorRGB
 90
        0
102
RTVSPost2010PropOp41
 70
     1
102
RTVSPost2010Prop42
 90
       50
102
RTVSPost2010PropOp42
 70
     1
102
RTVSPost2010Prop43
 90
        3
102
RTVSPost2010PropOp43
 70
     1
102
RTVSPost2010Prop44ColorIndex
 90
        5
102
RTVSPost2010Prop44ColorRGB
 90
      255
102
RTVSPost2010PropOp44
 70
     1
102
RTVSPost2010Prop45
280
     0
102
RTVSPost2010PropOp45
 70
     1
102
RTVSPost2010Prop46
 90
       50
102
RTVSPost2010PropOp46
 70
     1
102
RTVSPost2010Prop47
 90
       50
102
RTVSPost2010PropOp47
 70
     1
102
RTVSPost2010Prop48
 90
       50
102
RTVSPost2010PropOp48
 70
     1
102
RTVSPost2010Prop49
280
     0
102
RTVSPost2010PropOp49
 70
     1
102
RTVSPost2010Prop50
 90
       50
102
RTVSPost2010PropOp50
 70
     1
102
RTVSPost2010Prop51ColorIndex
 90
      256
102
RTVSPost2010Prop51ColorRGB
 90
-16777216
102
RTVSPost2010PropOp51
 70
     0
102
RTVSPost2010Prop52
140
1.0
102
RTVSPost2010PropOp52
 70
     0
102
RTVSPost2010Prop53
 90
        2
102
RTVSPost2010PropOp53
 70
     1
102
RTVSPost2010Prop54
  1
strokes_ogs.tif
102
RTVSPost2010PropOp54
 70
     1
102
RTVSPost2010Prop55
280
     0
102
RTVSPost2010PropOp55
 70
     1
102
RTVSPost2010Prop56
140
1.0
102
RTVSPost2010PropOp56
 70
     1
102
RTVSPost2010Prop57
140
1.0
102
RTVSPost2010PropOp57
 70
     1
102
RTVSPropertyOp0
 70
     1
102
RTVSPropertyOp1
 70
     1
102
RTVSPropertyOp2
 70
     1
102
RTVSPropertyOp3
 70
     1
102
RTVSPropertyOp4
 70
     1
102
RTVSPropertyOp5
 70
     1
102
RTVSPropertyOp6
 70
     1
102
RTVSPropertyOp7
 70
     1
102
RTVSPropertyOp8
 70
     1
102
RTVSPropertyOp9
 70
     1
102
RTVSPropertyOp10
 70
     1
102
RTVSPropertyOp11
 70
     1
102
RTVSPropertyOp12
 70
     1
102
RTVSPropertyOp13
 70
     1
102
RTVSPropertyOp14
 70
     1
102
RTVSPropertyOp15
 70
     1
102
RTVSPropertyOp16
 70
     1
102
RTVSPropertyOp17
 70
     1
102
RTVSPropertyOp18
 70
     1
102
RTVSPropertyOp19
 70
     1
102
RTVSPropertyOp20
 70
     1
102
RTVSPropertyOp21
 70
     1
102
RTVSPropertyOp22
 70
     1
102
RTVSPropertyOp23
 70
     1
102
RTVSPropertyOp24
 70
     1
102
RTVSPropertyOp25
 70
     1
102
RTVSPropertyOp26
 70
     1
102
RTVSPropertyOp27
 70
     1
102
RTVSPropertyOp28
 70
     1
102
RTVSPropertyOp29
 70
     1
102
RTVSPropertyOp30
 70
     1
102
RTVSPropertyOp31
 70
     1
102
RTVSPropertyOp32
 70
     1
102
RTVSPropertyOp33
 70
     1
102
RTVSPropertyOp34
 70
     1
102
RTVSPropertyOp35
 70
     1
102
RTVSPropertyOp36
 70
     1
102
RTVSPropertyOp37
 70
     1
102
RTVSPropertyOp38
 70
     1
102
RTVSPropertyOp39
 70
     1
102
RTVSPropertyOp40
 70
     1
102
RTVSPropertyOp41
 70
     1
102
RTVSPropertyOp42
 70
     1
102
RTVSPropertyOp43
 70
     1
102
RTVSPropertyOp44
 70
     1
102
RTVSPropertyOp45
 70
     1
102
RTVSPropertyOp46
 70
     1
102
RTVSPropertyOp47
 70
     1
102
RTVSPropertyOp48
 70
     1
102
RTVSPropertyOp49
 70
     1
102
RTVSPropertyOp50
 70
     1
102
RTVSPropertyOp51
 70
     0
102
RTVSPropertyOp52
 70
     0
102
RTVSPropertyOp53
 70
     1
102
RTVSPropertyOp54
 70
     1
102
RTVSPropertyOp55
 70
     1
102
RTVSPropertyOp56
 70
     1
102
RTVSPropertyOp57
 70
     1
102
RTVSPropertyOp58
 70
     1
102
RTVSPropertyOp59
 70
     1
102
RTVSPropertyOp60
 70
     1
102
RTVSPropertyOp61
 70
     1
102
RTVSPropertyOp62
 70
     1
  0
XRECORD
  5
952
102
{ACAD_REACTORS
330
951
102
}
330
951
100
AcDbXrecord
280
     1
102
RTVSPost2010Prop28
280
     0
102
RTVSPost2010PropOp28
 70
     1
102
RTVSPost2010Prop29
280
     1
102
RTVSPost2010PropOp29
 70
     1
102
RTVSPost2010Prop30
280
     1
102
RTVSPost2010PropOp30
 70
     1
102
RTVSPost2010Prop31
280
     0
102
RTVSPost2010PropOp31
 70
     1
102
RTVSPost2010Prop32
280
     0
102
RTVSPost2010PropOp32
 70
     1
102
RTVSPost2010Prop33
280
     0
102
RTVSPost2010PropOp33
 70
     1
102
RTVSPost2010Prop34
280
     0
102
RTVSPost2010PropOp34
 70
     1
102
RTVSPost2010Prop35
280
     0
102
RTVSPost2010PropOp35
 70
     1
102
RTVSPost2010Prop36
280
     0
102
RTVSPost2010PropOp36
 70
     1
102
RTVSPost2010Prop37
 90
       50
102
RTVSPost2010PropOp37
 70
     1
102
RTVSPost2010Prop38
140
0.0
102
RTVSPost2010PropOp38
 70
     1
102
RTVSPost2010Prop39
140
1.0
102
RTVSPost2010PropOp39
 70
     1
102
RTVSPost2010Prop40
 90
        0
102
RTVSPost2010PropOp40
 70
     1
102
RTVSPost2010Prop41ColorIndex
 90
       18
102
RTVSPost2010Prop41ColorRGB
 90
        0
102
RTVSPost2010PropOp41
 70
     1
102
RTVSPost2010Prop42
 90
       50
102
RTVSPost2010PropOp42
 70
     1
102
RTVSPost2010Prop43
 90
        3
102
RTVSPost2010PropOp43
 70
     1
102
RTVSPost2010Prop44ColorIndex
 90
        5
102
RTVSPost2010Prop44ColorRGB
 90
      255
102
RTVSPost2010PropOp44
 70
     1
102
RTVSPost2010Prop45
280
     0
102
RTVSPost2010PropOp45
 70
     1
102
RTVSPost2010Prop46
 90
       50
102
RTVSPost2010PropOp46
 70
     1
102
RTVSPost2010Prop47
 90
       50
102
RTVSPost2010PropOp47
 70
     1
102
RTVSPost2010Prop48
 90
       50
102
RTVSPost2010PropOp48
 70
     1
102
RTVSPost2010Prop49
280
     0
102
RTVSPost2010PropOp49
 70
     1
102
RTVSPost2010Prop50
 90
       50
102
RTVSPost2010PropOp50
 70
     1
102
RTVSPost2010Prop51ColorIndex
 90
      256
102
RTVSPost2010Prop51ColorRGB
 90
-16777216
102
RTVSPost2010PropOp51
 70
     0
102
RTVSPost2010Prop52
140
1.0
102
RTVSPost2010PropOp52
 70
     0
102
RTVSPost2010Prop53
 90
        2
102
RTVSPost2010PropOp53
 70
     1
102
RTVSPost2010Prop54
  1
strokes_ogs.tif
102
RTVSPost2010PropOp54
 70
     1
102
RTVSPost2010Prop55
280
     0
102
RTVSPost2010PropOp55
 70
     1
102
RTVSPost2010Prop56
140
1.0
102
RTVSPost2010PropOp56
 70
     1
102
RTVSPost2010Prop57
140
1.0
102
RTVSPost2010PropOp57
 70
     1
102
RTVSPropertyOp0
 70
     1
102
RTVSPropertyOp1
 70
     1
102
RTVSPropertyOp2
 70
     1
102
RTVSPropertyOp3
 70
     1
102
RTVSPropertyOp4
 70
     1
102
RTVSPropertyOp5
 70
     1
102
RTVSPropertyOp6
 70
     1
102
RTVSPropertyOp7
 70
     1
102
RTVSPropertyOp8
 70
     1
102
RTVSPropertyOp9
 70
     1
102
RTVSPropertyOp10
 70
     1
102
RTVSPropertyOp11
 70
     1
102
RTVSPropertyOp12
 70
     1
102
RTVSPropertyOp13
 70
     1
102
RTVSPropertyOp14
 70
     1
102
RTVSPropertyOp15
 70
     1
102
RTVSPropertyOp16
 70
     1
102
RTVSPropertyOp17
 70
     1
102
RTVSPropertyOp18
 70
     1
102
RTVSPropertyOp19
 70
     1
102
RTVSPropertyOp20
 70
     1
102
RTVSPropertyOp21
 70
     1
102
RTVSPropertyOp22
 70
     1
102
RTVSPropertyOp23
 70
     1
102
RTVSPropertyOp24
 70
     1
102
RTVSPropertyOp25
 70
     1
102
RTVSPropertyOp26
 70
     1
102
RTVSPropertyOp27
 70
     1
102
RTVSPropertyOp28
 70
     1
102
RTVSPropertyOp29
 70
     1
102
RTVSPropertyOp30
 70
     1
102
RTVSPropertyOp31
 70
     1
102
RTVSPropertyOp32
 70
     1
102
RTVSPropertyOp33
 70
     1
102
RTVSPropertyOp34
 70
     1
102
RTVSPropertyOp35
 70
     1
102
RTVSPropertyOp36
 70
     1
102
RTVSPropertyOp37
 70
     1
102
RTVSPropertyOp38
 70
     1
102
RTVSPropertyOp39
 70
     1
102
RTVSPropertyOp40
 70
     1
102
RTVSPropertyOp41
 70
     1
102
RTVSPropertyOp42
 70
     1
102
RTVSPropertyOp43
 70
     1
102
RTVSPropertyOp44
 70
     1
102
RTVSPropertyOp45
 70
     1
102
RTVSPropertyOp46
 70
     1
102
RTVSPropertyOp47
 70
     1
102
RTVSPropertyOp48
 70
     1
102
RTVSPropertyOp49
 70
     1
102
RTVSPropertyOp50
 70
     1
102
RTVSPropertyOp51
 70
     0
102
RTVSPropertyOp52
 70
     0
102
RTVSPropertyOp53
 70
     1
102
RTVSPropertyOp54
 70
     1
102
RTVSPropertyOp55
 70
     1
102
RTVSPropertyOp56
 70
     1
102
RTVSPropertyOp57
 70
     1
102
RTVSPropertyOp58
 70
     1
102
RTVSPropertyOp59
 70
     1
102
RTVSPropertyOp60
 70
     1
102
RTVSPropertyOp61
 70
     1
102
RTVSPropertyOp62
 70
     1
  0
XRECORD
  5
948
102
{ACAD_REACTORS
330
947
102
}
330
947
100
AcDbXrecord
280
     1
102
RTVSPost2010Prop28
280
     0
102
RTVSPost2010PropOp28
 70
     1
102
RTVSPost2010Prop29
280
     1
102
RTVSPost2010PropOp29
 70
     1
102
RTVSPost2010Prop30
280
     1
102
RTVSPost2010PropOp30
 70
     1
102
RTVSPost2010Prop31
280
     0
102
RTVSPost2010PropOp31
 70
     1
102
RTVSPost2010Prop32
280
     0
102
RTVSPost2010PropOp32
 70
     1
102
RTVSPost2010Prop33
280
     0
102
RTVSPost2010PropOp33
 70
     1
102
RTVSPost2010Prop34
280
     0
102
RTVSPost2010PropOp34
 70
     1
102
RTVSPost2010Prop35
280
     0
102
RTVSPost2010PropOp35
 70
     1
102
RTVSPost2010Prop36
280
     0
102
RTVSPost2010PropOp36
 70
     1
102
RTVSPost2010Prop37
 90
       50
102
RTVSPost2010PropOp37
 70
     1
102
RTVSPost2010Prop38
140
0.0
102
RTVSPost2010PropOp38
 70
     1
102
RTVSPost2010Prop39
140
1.0
102
RTVSPost2010PropOp39
 70
     1
102
RTVSPost2010Prop40
 90
        0
102
RTVSPost2010PropOp40
 70
     1
102
RTVSPost2010Prop41ColorIndex
 90
       18
102
RTVSPost2010Prop41ColorRGB
 90
        0
102
RTVSPost2010PropOp41
 70
     1
102
RTVSPost2010Prop42
 90
       50
102
RTVSPost2010PropOp42
 70
     1
102
RTVSPost2010Prop43
 90
        3
102
RTVSPost2010PropOp43
 70
     1
102
RTVSPost2010Prop44ColorIndex
 90
        5
102
RTVSPost2010Prop44ColorRGB
 90
      255
102
RTVSPost2010PropOp44
 70
     1
102
RTVSPost2010Prop45
280
     0
102
RTVSPost2010PropOp45
 70
     1
102
RTVSPost2010Prop46
 90
       50
102
RTVSPost2010PropOp46
 70
     1
102
RTVSPost2010Prop47
 90
       50
102
RTVSPost2010PropOp47
 70
     1
102
RTVSPost2010Prop48
 90
       50
102
RTVSPost2010PropOp48
 70
     1
102
RTVSPost2010Prop49
280
     0
102
RTVSPost2010PropOp49
 70
     1
102
RTVSPost2010Prop50
 90
       50
102
RTVSPost2010PropOp50
 70
     1
102
RTVSPost2010Prop51ColorIndex
 90
      256
102
RTVSPost2010Prop51ColorRGB
 90
-16777216
102
RTVSPost2010PropOp51
 70
     0
102
RTVSPost2010Prop52
140
1.0
102
RTVSPost2010PropOp52
 70
     0
102
RTVSPost2010Prop53
 90
        2
102
RTVSPost2010PropOp53
 70
     1
102
RTVSPost2010Prop54
  1
strokes_ogs.tif
102
RTVSPost2010PropOp54
 70
     1
102
RTVSPost2010Prop55
280
     0
102
RTVSPost2010PropOp55
 70
     1
102
RTVSPost2010Prop56
140
1.0
102
RTVSPost2010PropOp56
 70
     1
102
RTVSPost2010Prop57
140
1.0
102
RTVSPost2010PropOp57
 70
     1
102
RTVSPropertyOp0
 70
     0
102
RTVSPropertyOp1
 70
     0
102
RTVSPropertyOp2
 70
     0
102
RTVSPropertyOp3
 70
     0
102
RTVSPropertyOp4
 70
     0
102
RTVSPropertyOp5
 70
     0
102
RTVSPropertyOp6
 70
     0
102
RTVSPropertyOp7
 70
     0
102
RTVSPropertyOp8
 70
     0
102
RTVSPropertyOp9
 70
     0
102
RTVSPropertyOp10
 70
     0
102
RTVSPropertyOp11
 70
     0
102
RTVSPropertyOp12
 70
     0
102
RTVSPropertyOp13
 70
     0
102
RTVSPropertyOp14
 70
     2
102
RTVSPropertyOp15
 70
     0
102
RTVSPropertyOp16
 70
     0
102
RTVSPropertyOp17
 70
     0
102
RTVSPropertyOp18
 70
     0
102
RTVSPropertyOp19
 70
     0
102
RTVSPropertyOp20
 70
     0
102
RTVSPropertyOp21
 70
     0
102
RTVSPropertyOp22
 70
     0
102
RTVSPropertyOp23
 70
     0
102
RTVSPropertyOp24
 70
     0
102
RTVSPropertyOp25
 70
     0
102
RTVSPropertyOp26
 70
     0
102
RTVSPropertyOp27
 70
     0
102
RTVSPropertyOp28
 70
     1
102
RTVSPropertyOp29
 70
     1
102
RTVSPropertyOp30
 70
     1
102
RTVSPropertyOp31
 70
     1
102
RTVSPropertyOp32
 70
     1
102
RTVSPropertyOp33
 70
     1
102
RTVSPropertyOp34
 70
     1
102
RTVSPropertyOp35
 70
     1
102
RTVSPropertyOp36
 70
     1
102
RTVSPropertyOp37
 70
     1
102
RTVSPropertyOp38
 70
     1
102
RTVSPropertyOp39
 70
     1
102
RTVSPropertyOp40
 70
     1
102
RTVSPropertyOp41
 70
     1
102
RTVSPropertyOp42
 70
     1
102
RTVSPropertyOp43
 70
     1
102
RTVSPropertyOp44
 70
     1
102
RTVSPropertyOp45
 70
     1
102
RTVSPropertyOp46
 70
     1
102
RTVSPropertyOp47
 70
     1
102
RTVSPropertyOp48
 70
     1
102
RTVSPropertyOp49
 70
     1
102
RTVSPropertyOp50
 70
     1
102
RTVSPropertyOp51
 70
     0
102
RTVSPropertyOp52
 70
     0
102
RTVSPropertyOp53
 70
     1
102
RTVSPropertyOp54
 70
     1
102
RTVSPropertyOp55
 70
     1
102
RTVSPropertyOp56
 70
     1
102
RTVSPropertyOp57
 70
     1
102
RTVSPropertyOp58
 70
     1
102
RTVSPropertyOp59
 70
     1
102
RTVSPropertyOp60
 70
     1
102
RTVSPropertyOp61
 70
     1
102
RTVSPropertyOp62
 70
     1
  0
XRECORD
  5
942
102
{ACAD_REACTORS
330
941
102
}
330
941
100
AcDbXrecord
280
     1
102
RTVSPost2010Prop28
280
     0
102
RTVSPost2010PropOp28
 70
     1
102
RTVSPost2010Prop29
280
     1
102
RTVSPost2010PropOp29
 70
     1
102
RTVSPost2010Prop30
280
     1
102
RTVSPost2010PropOp30
 70
     1
102
RTVSPost2010Prop31
280
     0
102
RTVSPost2010PropOp31
 70
     1
102
RTVSPost2010Prop32
280
     0
102
RTVSPost2010PropOp32
 70
     1
102
RTVSPost2010Prop33
280
     0
102
RTVSPost2010PropOp33
 70
     1
102
RTVSPost2010Prop34
280
     0
102
RTVSPost2010PropOp34
 70
     1
102
RTVSPost2010Prop35
280
     0
102
RTVSPost2010PropOp35
 70
     1
102
RTVSPost2010Prop36
280
     0
102
RTVSPost2010PropOp36
 70
     1
102
RTVSPost2010Prop37
 90
       50
102
RTVSPost2010PropOp37
 70
     1
102
RTVSPost2010Prop38
140
0.0
102
RTVSPost2010PropOp38
 70
     1
102
RTVSPost2010Prop39
140
1.0
102
RTVSPost2010PropOp39
 70
     1
102
RTVSPost2010Prop40
 90
        0
102
RTVSPost2010PropOp40
 70
     1
102
RTVSPost2010Prop41ColorIndex
 90
       18
102
RTVSPost2010Prop41ColorRGB
 90
        0
102
RTVSPost2010PropOp41
 70
     1
102
RTVSPost2010Prop42
 90
       50
102
RTVSPost2010PropOp42
 70
     1
102
RTVSPost2010Prop43
 90
        3
102
RTVSPost2010PropOp43
 70
     1
102
RTVSPost2010Prop44ColorIndex
 90
        5
102
RTVSPost2010Prop44ColorRGB
 90
      255
102
RTVSPost2010PropOp44
 70
     1
102
RTVSPost2010Prop45
280
     0
102
RTVSPost2010PropOp45
 70
     1
102
RTVSPost2010Prop46
 90
       50
102
RTVSPost2010PropOp46
 70
     1
102
RTVSPost2010Prop47
 90
       50
102
RTVSPost2010PropOp47
 70
     1
102
RTVSPost2010Prop48
 90
       50
102
RTVSPost2010PropOp48
 70
     1
102
RTVSPost2010Prop49
280
     0
102
RTVSPost2010PropOp49
 70
     1
102
RTVSPost2010Prop50
 90
       50
102
RTVSPost2010PropOp50
 70
     1
102
RTVSPost2010Prop51ColorIndex
 90
      256
102
RTVSPost2010Prop51ColorRGB
 90
-16777216
102
RTVSPost2010PropOp51
 70
     0
102
RTVSPost2010Prop52
140
1.0
102
RTVSPost2010PropOp52
 70
     0
102
RTVSPost2010Prop53
 90
        2
102
RTVSPost2010PropOp53
 70
     1
102
RTVSPost2010Prop54
  1
strokes_ogs.tif
102
RTVSPost2010PropOp54
 70
     1
102
RTVSPost2010Prop55
280
     0
102
RTVSPost2010PropOp55
 70
     1
102
RTVSPost2010Prop56
140
1.0
102
RTVSPost2010PropOp56
 70
     1
102
RTVSPost2010Prop57
140
1.0
102
RTVSPost2010PropOp57
 70
     1
102
RTVSPropertyOp0
 70
     1
102
RTVSPropertyOp1
 70
     1
102
RTVSPropertyOp2
 70
     1
102
RTVSPropertyOp3
 70
     1
102
RTVSPropertyOp4
 70
     1
102
RTVSPropertyOp5
 70
     1
102
RTVSPropertyOp6
 70
     1
102
RTVSPropertyOp7
 70
     1
102
RTVSPropertyOp8
 70
     1
102
RTVSPropertyOp9
 70
     1
102
RTVSPropertyOp10
 70
     1
102
RTVSPropertyOp11
 70
     1
102
RTVSPropertyOp12
 70
     1
102
RTVSPropertyOp13
 70
     1
102
RTVSPropertyOp14
 70
     1
102
RTVSPropertyOp15
 70
     1
102
RTVSPropertyOp16
 70
     1
102
RTVSPropertyOp17
 70
     1
102
RTVSPropertyOp18
 70
     1
102
RTVSPropertyOp19
 70
     1
102
RTVSPropertyOp20
 70
     1
102
RTVSPropertyOp21
 70
     1
102
RTVSPropertyOp22
 70
     1
102
RTVSPropertyOp23
 70
     1
102
RTVSPropertyOp24
 70
     1
102
RTVSPropertyOp25
 70
     1
102
RTVSPropertyOp26
 70
     1
102
RTVSPropertyOp27
 70
     1
102
RTVSPropertyOp28
 70
     1
102
RTVSPropertyOp29
 70
     1
102
RTVSPropertyOp30
 70
     1
102
RTVSPropertyOp31
 70
     1
102
RTVSPropertyOp32
 70
     1
102
RTVSPropertyOp33
 70
     1
102
RTVSPropertyOp34
 70
     1
102
RTVSPropertyOp35
 70
     1
102
RTVSPropertyOp36
 70
     1
102
RTVSPropertyOp37
 70
     1
102
RTVSPropertyOp38
 70
     1
102
RTVSPropertyOp39
 70
     1
102
RTVSPropertyOp40
 70
     1
102
RTVSPropertyOp41
 70
     1
102
RTVSPropertyOp42
 70
     1
102
RTVSPropertyOp43
 70
     1
102
RTVSPropertyOp44
 70
     1
102
RTVSPropertyOp45
 70
     1
102
RTVSPropertyOp46
 70
     1
102
RTVSPropertyOp47
 70
     1
102
RTVSPropertyOp48
 70
     1
102
RTVSPropertyOp49
 70
     1
102
RTVSPropertyOp50
 70
     1
102
RTVSPropertyOp51
 70
     0
102
RTVSPropertyOp52
 70
     0
102
RTVSPropertyOp53
 70
     1
102
RTVSPropertyOp54
 70
     1
102
RTVSPropertyOp55
 70
     1
102
RTVSPropertyOp56
 70
     1
102
RTVSPropertyOp57
 70
     1
102
RTVSPropertyOp58
 70
     1
102
RTVSPropertyOp59
 70
     1
102
RTVSPropertyOp60
 70
     1
102
RTVSPropertyOp61
 70
     1
102
RTVSPropertyOp62
 70
     1
  0
XRECORD
  5
94A
102
{ACAD_REACTORS
330
949
102
}
330
949
100
AcDbXrecord
280
     1
102
RTVSPost2010Prop28
280
     0
102
RTVSPost2010PropOp28
 70
     1
102
RTVSPost2010Prop29
280
     1
102
RTVSPost2010PropOp29
 70
     1
102
RTVSPost2010Prop30
280
     1
102
RTVSPost2010PropOp30
 70
     1
102
RTVSPost2010Prop31
280
     0
102
RTVSPost2010PropOp31
 70
     1
102
RTVSPost2010Prop32
280
     0
102
RTVSPost2010PropOp32
 70
     1
102
RTVSPost2010Prop33
280
     0
102
RTVSPost2010PropOp33
 70
     1
102
RTVSPost2010Prop34
280
     0
102
RTVSPost2010PropOp34
 70
     1
102
RTVSPost2010Prop35
280
     0
102
RTVSPost2010PropOp35
 70
     1
102
RTVSPost2010Prop36
280
     0
102
RTVSPost2010PropOp36
 70
     1
102
RTVSPost2010Prop37
 90
       50
102
RTVSPost2010PropOp37
 70
     1
102
RTVSPost2010Prop38
140
0.0
102
RTVSPost2010PropOp38
 70
     1
102
RTVSPost2010Prop39
140
1.0
102
RTVSPost2010PropOp39
 70
     1
102
RTVSPost2010Prop40
 90
        0
102
RTVSPost2010PropOp40
 70
     1
102
RTVSPost2010Prop41ColorIndex
 90
       18
102
RTVSPost2010Prop41ColorRGB
 90
        0
102
RTVSPost2010PropOp41
 70
     1
102
RTVSPost2010Prop42
 90
       50
102
RTVSPost2010PropOp42
 70
     1
102
RTVSPost2010Prop43
 90
        3
102
RTVSPost2010PropOp43
 70
     1
102
RTVSPost2010Prop44ColorIndex
 90
        5
102
RTVSPost2010Prop44ColorRGB
 90
      255
102
RTVSPost2010PropOp44
 70
     1
102
RTVSPost2010Prop45
280
     0
102
RTVSPost2010PropOp45
 70
     1
102
RTVSPost2010Prop46
 90
       50
102
RTVSPost2010PropOp46
 70
     1
102
RTVSPost2010Prop47
 90
       50
102
RTVSPost2010PropOp47
 70
     1
102
RTVSPost2010Prop48
 90
       50
102
RTVSPost2010PropOp48
 70
     1
102
RTVSPost2010Prop49
280
     0
102
RTVSPost2010PropOp49
 70
     1
102
RTVSPost2010Prop50
 90
       50
102
RTVSPost2010PropOp50
 70
     1
102
RTVSPost2010Prop51ColorIndex
 90
      256
102
RTVSPost2010Prop51ColorRGB
 90
-16777216
102
RTVSPost2010PropOp51
 70
     0
102
RTVSPost2010Prop52
140
1.0
102
RTVSPost2010PropOp52
 70
     0
102
RTVSPost2010Prop53
 90
        2
102
RTVSPost2010PropOp53
 70
     1
102
RTVSPost2010Prop54
  1
strokes_ogs.tif
102
RTVSPost2010PropOp54
 70
     1
102
RTVSPost2010Prop55
280
     0
102
RTVSPost2010PropOp55
 70
     1
102
RTVSPost2010Prop56
140
1.0
102
RTVSPost2010PropOp56
 70
     1
102
RTVSPost2010Prop57
140
1.0
102
RTVSPost2010PropOp57
 70
     1
102
RTVSPropertyOp0
 70
     0
102
RTVSPropertyOp1
 70
     0
102
RTVSPropertyOp2
 70
     0
102
RTVSPropertyOp3
 70
     0
102
RTVSPropertyOp4
 70
     0
102
RTVSPropertyOp5
 70
     0
102
RTVSPropertyOp6
 70
     0
102
RTVSPropertyOp7
 70
     0
102
RTVSPropertyOp8
 70
     0
102
RTVSPropertyOp9
 70
     0
102
RTVSPropertyOp10
 70
     0
102
RTVSPropertyOp11
 70
     0
102
RTVSPropertyOp12
 70
     0
102
RTVSPropertyOp13
 70
     0
102
RTVSPropertyOp14
 70
     2
102
RTVSPropertyOp15
 70
     0
102
RTVSPropertyOp16
 70
     0
102
RTVSPropertyOp17
 70
     0
102
RTVSPropertyOp18
 70
     0
102
RTVSPropertyOp19
 70
     0
102
RTVSPropertyOp20
 70
     0
102
RTVSPropertyOp21
 70
     0
102
RTVSPropertyOp22
 70
     0
102
RTVSPropertyOp23
 70
     0
102
RTVSPropertyOp24
 70
     0
102
RTVSPropertyOp25
 70
     0
102
RTVSPropertyOp26
 70
     0
102
RTVSPropertyOp27
 70
     0
102
RTVSPropertyOp28
 70
     1
102
RTVSPropertyOp29
 70
     1
102
RTVSPropertyOp30
 70
     1
102
RTVSPropertyOp31
 70
     1
102
RTVSPropertyOp32
 70
     1
102
RTVSPropertyOp33
 70
     1
102
RTVSPropertyOp34
 70
     1
102
RTVSPropertyOp35
 70
     1
102
RTVSPropertyOp36
 70
     1
102
RTVSPropertyOp37
 70
     1
102
RTVSPropertyOp38
 70
     1
102
RTVSPropertyOp39
 70
     1
102
RTVSPropertyOp40
 70
     1
102
RTVSPropertyOp41
 70
     1
102
RTVSPropertyOp42
 70
     1
102
RTVSPropertyOp43
 70
     1
102
RTVSPropertyOp44
 70
     1
102
RTVSPropertyOp45
 70
     1
102
RTVSPropertyOp46
 70
     1
102
RTVSPropertyOp47
 70
     1
102
RTVSPropertyOp48
 70
     1
102
RTVSPropertyOp49
 70
     1
102
RTVSPropertyOp50
 70
     1
102
RTVSPropertyOp51
 70
     0
102
RTVSPropertyOp52
 70
     0
102
RTVSPropertyOp53
 70
     1
102
RTVSPropertyOp54
 70
     1
102
RTVSPropertyOp55
 70
     1
102
RTVSPropertyOp56
 70
     1
102
RTVSPropertyOp57
 70
     1
102
RTVSPropertyOp58
 70
     1
102
RTVSPropertyOp59
 70
     1
102
RTVSPropertyOp60
 70
     1
102
RTVSPropertyOp61
 70
     1
102
RTVSPropertyOp62
 70
     1
  0
XRECORD
  5
93A
102
{ACAD_REACTORS
330
939
102
}
330
939
100
AcDbXrecord
280
     1
102
RTVSPost2010Prop28
280
     0
102
RTVSPost2010PropOp28
 70
     1
102
RTVSPost2010Prop29
280
     1
102
RTVSPost2010PropOp29
 70
     1
102
RTVSPost2010Prop30
280
     1
102
RTVSPost2010PropOp30
 70
     1
102
RTVSPost2010Prop31
280
     0
102
RTVSPost2010PropOp31
 70
     1
102
RTVSPost2010Prop32
280
     0
102
RTVSPost2010PropOp32
 70
     1
102
RTVSPost2010Prop33
280
     0
102
RTVSPost2010PropOp33
 70
     1
102
RTVSPost2010Prop34
280
     0
102
RTVSPost2010PropOp34
 70
     1
102
RTVSPost2010Prop35
280
     0
102
RTVSPost2010PropOp35
 70
     1
102
RTVSPost2010Prop36
280
     0
102
RTVSPost2010PropOp36
 70
     1
102
RTVSPost2010Prop37
 90
       50
102
RTVSPost2010PropOp37
 70
     1
102
RTVSPost2010Prop38
140
0.0
102
RTVSPost2010PropOp38
 70
     1
102
RTVSPost2010Prop39
140
1.0
102
RTVSPost2010PropOp39
 70
     1
102
RTVSPost2010Prop40
 90
        0
102
RTVSPost2010PropOp40
 70
     1
102
RTVSPost2010Prop41ColorIndex
 90
       18
102
RTVSPost2010Prop41ColorRGB
 90
        0
102
RTVSPost2010PropOp41
 70
     1
102
RTVSPost2010Prop42
 90
       50
102
RTVSPost2010PropOp42
 70
     1
102
RTVSPost2010Prop43
 90
        3
102
RTVSPost2010PropOp43
 70
     1
102
RTVSPost2010Prop44ColorIndex
 90
        5
102
RTVSPost2010Prop44ColorRGB
 90
      255
102
RTVSPost2010PropOp44
 70
     1
102
RTVSPost2010Prop45
280
     0
102
RTVSPost2010PropOp45
 70
     1
102
RTVSPost2010Prop46
 90
       50
102
RTVSPost2010PropOp46
 70
     1
102
RTVSPost2010Prop47
 90
       50
102
RTVSPost2010PropOp47
 70
     1
102
RTVSPost2010Prop48
 90
       50
102
RTVSPost2010PropOp48
 70
     1
102
RTVSPost2010Prop49
280
     0
102
RTVSPost2010PropOp49
 70
     1
102
RTVSPost2010Prop50
 90
       50
102
RTVSPost2010PropOp50
 70
     1
102
RTVSPost2010Prop51ColorIndex
 90
      256
102
RTVSPost2010Prop51ColorRGB
 90
-16777216
102
RTVSPost2010PropOp51
 70
     0
102
RTVSPost2010Prop52
140
1.0
102
RTVSPost2010PropOp52
 70
     0
102
RTVSPost2010Prop53
 90
        2
102
RTVSPost2010PropOp53
 70
     1
102
RTVSPost2010Prop54
  1
strokes_ogs.tif
102
RTVSPost2010PropOp54
 70
     1
102
RTVSPost2010Prop55
280
     0
102
RTVSPost2010PropOp55
 70
     1
102
RTVSPost2010Prop56
140
1.0
102
RTVSPost2010PropOp56
 70
     1
102
RTVSPost2010Prop57
140
1.0
102
RTVSPost2010PropOp57
 70
     1
102
RTVSPropertyOp0
 70
     1
102
RTVSPropertyOp1
 70
     1
102
RTVSPropertyOp2
 70
     1
102
RTVSPropertyOp3
 70
     1
102
RTVSPropertyOp4
 70
     1
102
RTVSPropertyOp5
 70
     1
102
RTVSPropertyOp6
 70
     1
102
RTVSPropertyOp7
 70
     1
102
RTVSPropertyOp8
 70
     1
102
RTVSPropertyOp9
 70
     1
102
RTVSPropertyOp10
 70
     1
102
RTVSPropertyOp11
 70
     1
102
RTVSPropertyOp12
 70
     1
102
RTVSPropertyOp13
 70
     1
102
RTVSPropertyOp14
 70
     1
102
RTVSPropertyOp15
 70
     1
102
RTVSPropertyOp16
 70
     1
102
RTVSPropertyOp17
 70
     1
102
RTVSPropertyOp18
 70
     1
102
RTVSPropertyOp19
 70
     1
102
RTVSPropertyOp20
 70
     1
102
RTVSPropertyOp21
 70
     1
102
RTVSPropertyOp22
 70
     1
102
RTVSPropertyOp23
 70
     1
102
RTVSPropertyOp24
 70
     1
102
RTVSPropertyOp25
 70
     1
102
RTVSPropertyOp26
 70
     1
102
RTVSPropertyOp27
 70
     1
102
RTVSPropertyOp28
 70
     1
102
RTVSPropertyOp29
 70
     1
102
RTVSPropertyOp30
 70
     1
102
RTVSPropertyOp31
 70
     1
102
RTVSPropertyOp32
 70
     1
102
RTVSPropertyOp33
 70
     1
102
RTVSPropertyOp34
 70
     1
102
RTVSPropertyOp35
 70
     1
102
RTVSPropertyOp36
 70
     1
102
RTVSPropertyOp37
 70
     1
102
RTVSPropertyOp38
 70
     1
102
RTVSPropertyOp39
 70
     1
102
RTVSPropertyOp40
 70
     1
102
RTVSPropertyOp41
 70
     1
102
RTVSPropertyOp42
 70
     1
102
RTVSPropertyOp43
 70
     1
102
RTVSPropertyOp44
 70
     1
102
RTVSPropertyOp45
 70
     1
102
RTVSPropertyOp46
 70
     1
102
RTVSPropertyOp47
 70
     1
102
RTVSPropertyOp48
 70
     1
102
RTVSPropertyOp49
 70
     1
102
RTVSPropertyOp50
 70
     1
102
RTVSPropertyOp51
 70
     0
102
RTVSPropertyOp52
 70
     0
102
RTVSPropertyOp53
 70
     1
102
RTVSPropertyOp54
 70
     1
102
RTVSPropertyOp55
 70
     1
102
RTVSPropertyOp56
 70
     1
102
RTVSPropertyOp57
 70
     1
102
RTVSPropertyOp58
 70
     1
102
RTVSPropertyOp59
 70
     1
102
RTVSPropertyOp60
 70
     1
102
RTVSPropertyOp61
 70
     1
102
RTVSPropertyOp62
 70
     1
  0
XRECORD
  5
95C
102
{ACAD_REACTORS
330
95B
102
}
330
95B
100
AcDbXrecord
280
     1
102
RTVSPost2010Prop28
280
     0
102
RTVSPost2010PropOp28
 70
     1
102
RTVSPost2010Prop29
280
     1
102
RTVSPost2010PropOp29
 70
     1
102
RTVSPost2010Prop30
280
     1
102
RTVSPost2010PropOp30
 70
     1
102
RTVSPost2010Prop31
280
     0
102
RTVSPost2010PropOp31
 70
     1
102
RTVSPost2010Prop32
280
     0
102
RTVSPost2010PropOp32
 70
     1
102
RTVSPost2010Prop33
280
     0
102
RTVSPost2010PropOp33
 70
     1
102
RTVSPost2010Prop34
280
     0
102
RTVSPost2010PropOp34
 70
     1
102
RTVSPost2010Prop35
280
     0
102
RTVSPost2010PropOp35
 70
     1
102
RTVSPost2010Prop36
280
     0
102
RTVSPost2010PropOp36
 70
     1
102
RTVSPost2010Prop37
 90
       50
102
RTVSPost2010PropOp37
 70
     1
102
RTVSPost2010Prop38
140
0.0
102
RTVSPost2010PropOp38
 70
     1
102
RTVSPost2010Prop39
140
1.0
102
RTVSPost2010PropOp39
 70
     1
102
RTVSPost2010Prop40
 90
        0
102
RTVSPost2010PropOp40
 70
     1
102
RTVSPost2010Prop41ColorIndex
 90
       18
102
RTVSPost2010Prop41ColorRGB
 90
        0
102
RTVSPost2010PropOp41
 70
     1
102
RTVSPost2010Prop42
 90
       50
102
RTVSPost2010PropOp42
 70
     1
102
RTVSPost2010Prop43
 90
        3
102
RTVSPost2010PropOp43
 70
     1
102
RTVSPost2010Prop44ColorIndex
 90
        5
102
RTVSPost2010Prop44ColorRGB
 90
      255
102
RTVSPost2010PropOp44
 70
     1
102
RTVSPost2010Prop45
280
     0
102
RTVSPost2010PropOp45
 70
     1
102
RTVSPost2010Prop46
 90
       50
102
RTVSPost2010PropOp46
 70
     1
102
RTVSPost2010Prop47
 90
       50
102
RTVSPost2010PropOp47
 70
     1
102
RTVSPost2010Prop48
 90
       50
102
RTVSPost2010PropOp48
 70
     1
102
RTVSPost2010Prop49
280
     0
102
RTVSPost2010PropOp49
 70
     1
102
RTVSPost2010Prop50
 90
       50
102
RTVSPost2010PropOp50
 70
     1
102
RTVSPost2010Prop51ColorIndex
 90
      256
102
RTVSPost2010Prop51ColorRGB
 90
-16777216
102
RTVSPost2010PropOp51
 70
     0
102
RTVSPost2010Prop52
140
1.0
102
RTVSPost2010PropOp52
 70
     0
102
RTVSPost2010Prop53
 90
        2
102
RTVSPost2010PropOp53
 70
     1
102
RTVSPost2010Prop54
  1
strokes_ogs.tif
102
RTVSPost2010PropOp54
 70
     1
102
RTVSPost2010Prop55
280
     0
102
RTVSPost2010PropOp55
 70
     1
102
RTVSPost2010Prop56
140
1.0
102
RTVSPost2010PropOp56
 70
     1
102
RTVSPost2010Prop57
140
1.0
102
RTVSPost2010PropOp57
 70
     1
102
RTVSPropertyOp0
 70
     1
102
RTVSPropertyOp1
 70
     1
102
RTVSPropertyOp2
 70
     1
102
RTVSPropertyOp3
 70
     1
102
RTVSPropertyOp4
 70
     1
102
RTVSPropertyOp5
 70
     1
102
RTVSPropertyOp6
 70
     1
102
RTVSPropertyOp7
 70
     1
102
RTVSPropertyOp8
 70
     1
102
RTVSPropertyOp9
 70
     1
102
RTVSPropertyOp10
 70
     1
102
RTVSPropertyOp11
 70
     1
102
RTVSPropertyOp12
 70
     1
102
RTVSPropertyOp13
 70
     1
102
RTVSPropertyOp14
 70
     1
102
RTVSPropertyOp15
 70
     1
102
RTVSPropertyOp16
 70
     1
102
RTVSPropertyOp17
 70
     1
102
RTVSPropertyOp18
 70
     1
102
RTVSPropertyOp19
 70
     1
102
RTVSPropertyOp20
 70
     1
102
RTVSPropertyOp21
 70
     1
102
RTVSPropertyOp22
 70
     1
102
RTVSPropertyOp23
 70
     1
102
RTVSPropertyOp24
 70
     1
102
RTVSPropertyOp25
 70
     1
102
RTVSPropertyOp26
 70
     1
102
RTVSPropertyOp27
 70
     1
102
RTVSPropertyOp28
 70
     1
102
RTVSPropertyOp29
 70
     1
102
RTVSPropertyOp30
 70
     1
102
RTVSPropertyOp31
 70
     1
102
RTVSPropertyOp32
 70
     1
102
RTVSPropertyOp33
 70
     1
102
RTVSPropertyOp34
 70
     1
102
RTVSPropertyOp35
 70
     1
102
RTVSPropertyOp36
 70
     1
102
RTVSPropertyOp37
 70
     1
102
RTVSPropertyOp38
 70
     1
102
RTVSPropertyOp39
 70
     1
102
RTVSPropertyOp40
 70
     1
102
RTVSPropertyOp41
 70
     1
102
RTVSPropertyOp42
 70
     1
102
RTVSPropertyOp43
 70
     1
102
RTVSPropertyOp44
 70
     1
102
RTVSPropertyOp45
 70
     1
102
RTVSPropertyOp46
 70
     1
102
RTVSPropertyOp47
 70
     1
102
RTVSPropertyOp48
 70
     1
102
RTVSPropertyOp49
 70
     1
102
RTVSPropertyOp50
 70
     1
102
RTVSPropertyOp51
 70
     0
102
RTVSPropertyOp52
 70
     0
102
RTVSPropertyOp53
 70
     1
102
RTVSPropertyOp54
 70
     1
102
RTVSPropertyOp55
 70
     1
102
RTVSPropertyOp56
 70
     1
102
RTVSPropertyOp57
 70
     1
102
RTVSPropertyOp58
 70
     1
102
RTVSPropertyOp59
 70
     1
102
RTVSPropertyOp60
 70
     1
102
RTVSPropertyOp61
 70
     1
102
RTVSPropertyOp62
 70
     1
  0
XRECORD
  5
95A
102
{ACAD_REACTORS
330
959
102
}
330
959
100
AcDbXrecord
280
     1
102
RTVSPost2010Prop28
280
     0
102
RTVSPost2010PropOp28
 70
     1
102
RTVSPost2010Prop29
280
     1
102
RTVSPost2010PropOp29
 70
     1
102
RTVSPost2010Prop30
280
     1
102
RTVSPost2010PropOp30
 70
     1
102
RTVSPost2010Prop31
280
     0
102
RTVSPost2010PropOp31
 70
     1
102
RTVSPost2010Prop32
280
     0
102
RTVSPost2010PropOp32
 70
     1
102
RTVSPost2010Prop33
280
     0
102
RTVSPost2010PropOp33
 70
     1
102
RTVSPost2010Prop34
280
     0
102
RTVSPost2010PropOp34
 70
     1
102
RTVSPost2010Prop35
280
     0
102
RTVSPost2010PropOp35
 70
     1
102
RTVSPost2010Prop36
280
     0
102
RTVSPost2010PropOp36
 70
     1
102
RTVSPost2010Prop37
 90
       50
102
RTVSPost2010PropOp37
 70
     1
102
RTVSPost2010Prop38
140
0.0
102
RTVSPost2010PropOp38
 70
     1
102
RTVSPost2010Prop39
140
1.0
102
RTVSPost2010PropOp39
 70
     1
102
RTVSPost2010Prop40
 90
        0
102
RTVSPost2010PropOp40
 70
     1
102
RTVSPost2010Prop41ColorIndex
 90
       18
102
RTVSPost2010Prop41ColorRGB
 90
        0
102
RTVSPost2010PropOp41
 70
     1
102
RTVSPost2010Prop42
 90
       50
102
RTVSPost2010PropOp42
 70
     1
102
RTVSPost2010Prop43
 90
        3
102
RTVSPost2010PropOp43
 70
     1
102
RTVSPost2010Prop44ColorIndex
 90
        5
102
RTVSPost2010Prop44ColorRGB
 90
      255
102
RTVSPost2010PropOp44
 70
     1
102
RTVSPost2010Prop45
280
     0
102
RTVSPost2010PropOp45
 70
     1
102
RTVSPost2010Prop46
 90
       50
102
RTVSPost2010PropOp46
 70
     1
102
RTVSPost2010Prop47
 90
       50
102
RTVSPost2010PropOp47
 70
     1
102
RTVSPost2010Prop48
 90
       50
102
RTVSPost2010PropOp48
 70
     1
102
RTVSPost2010Prop49
280
     0
102
RTVSPost2010PropOp49
 70
     1
102
RTVSPost2010Prop50
 90
       50
102
RTVSPost2010PropOp50
 70
     1
102
RTVSPost2010Prop51ColorIndex
 90
      256
102
RTVSPost2010Prop51ColorRGB
 90
-16777216
102
RTVSPost2010PropOp51
 70
     0
102
RTVSPost2010Prop52
140
1.0
102
RTVSPost2010PropOp52
 70
     0
102
RTVSPost2010Prop53
 90
        2
102
RTVSPost2010PropOp53
 70
     1
102
RTVSPost2010Prop54
  1
strokes_ogs.tif
102
RTVSPost2010PropOp54
 70
     1
102
RTVSPost2010Prop55
280
     0
102
RTVSPost2010PropOp55
 70
     1
102
RTVSPost2010Prop56
140
1.0
102
RTVSPost2010PropOp56
 70
     1
102
RTVSPost2010Prop57
140
1.0
102
RTVSPost2010PropOp57
 70
     1
102
RTVSPropertyOp0
 70
     1
102
RTVSPropertyOp1
 70
     1
102
RTVSPropertyOp2
 70
     1
102
RTVSPropertyOp3
 70
     1
102
RTVSPropertyOp4
 70
     1
102
RTVSPropertyOp5
 70
     1
102
RTVSPropertyOp6
 70
     1
102
RTVSPropertyOp7
 70
     1
102
RTVSPropertyOp8
 70
     1
102
RTVSPropertyOp9
 70
     1
102
RTVSPropertyOp10
 70
     1
102
RTVSPropertyOp11
 70
     1
102
RTVSPropertyOp12
 70
     1
102
RTVSPropertyOp13
 70
     1
102
RTVSPropertyOp14
 70
     1
102
RTVSPropertyOp15
 70
     1
102
RTVSPropertyOp16
 70
     1
102
RTVSPropertyOp17
 70
     1
102
RTVSPropertyOp18
 70
     1
102
RTVSPropertyOp19
 70
     1
102
RTVSPropertyOp20
 70
     1
102
RTVSPropertyOp21
 70
     1
102
RTVSPropertyOp22
 70
     1
102
RTVSPropertyOp23
 70
     1
102
RTVSPropertyOp24
 70
     1
102
RTVSPropertyOp25
 70
     1
102
RTVSPropertyOp26
 70
     1
102
RTVSPropertyOp27
 70
     1
102
RTVSPropertyOp28
 70
     1
102
RTVSPropertyOp29
 70
     1
102
RTVSPropertyOp30
 70
     1
102
RTVSPropertyOp31
 70
     1
102
RTVSPropertyOp32
 70
     1
102
RTVSPropertyOp33
 70
     1
102
RTVSPropertyOp34
 70
     1
102
RTVSPropertyOp35
 70
     1
102
RTVSPropertyOp36
 70
     1
102
RTVSPropertyOp37
 70
     1
102
RTVSPropertyOp38
 70
     1
102
RTVSPropertyOp39
 70
     1
102
RTVSPropertyOp40
 70
     1
102
RTVSPropertyOp41
 70
     1
102
RTVSPropertyOp42
 70
     1
102
RTVSPropertyOp43
 70
     1
102
RTVSPropertyOp44
 70
     1
102
RTVSPropertyOp45
 70
     1
102
RTVSPropertyOp46
 70
     1
102
RTVSPropertyOp47
 70
     1
102
RTVSPropertyOp48
 70
     1
102
RTVSPropertyOp49
 70
     1
102
RTVSPropertyOp50
 70
     1
102
RTVSPropertyOp51
 70
     0
102
RTVSPropertyOp52
 70
     0
102
RTVSPropertyOp53
 70
     1
102
RTVSPropertyOp54
 70
     1
102
RTVSPropertyOp55
 70
     1
102
RTVSPropertyOp56
 70
     1
102
RTVSPropertyOp57
 70
     1
102
RTVSPropertyOp58
 70
     1
102
RTVSPropertyOp59
 70
     1
102
RTVSPropertyOp60
 70
     1
102
RTVSPropertyOp61
 70
     1
102
RTVSPropertyOp62
 70
     1
  0
XRECORD
  5
954
102
{ACAD_REACTORS
330
953
102
}
330
953
100
AcDbXrecord
280
     1
102
RTVSPost2010Prop28
280
     0
102
RTVSPost2010PropOp28
 70
     1
102
RTVSPost2010Prop29
280
     1
102
RTVSPost2010PropOp29
 70
     1
102
RTVSPost2010Prop30
280
     1
102
RTVSPost2010PropOp30
 70
     1
102
RTVSPost2010Prop31
280
     0
102
RTVSPost2010PropOp31
 70
     1
102
RTVSPost2010Prop32
280
     0
102
RTVSPost2010PropOp32
 70
     1
102
RTVSPost2010Prop33
280
     0
102
RTVSPost2010PropOp33
 70
     1
102
RTVSPost2010Prop34
280
     0
102
RTVSPost2010PropOp34
 70
     1
102
RTVSPost2010Prop35
280
     0
102
RTVSPost2010PropOp35
 70
     1
102
RTVSPost2010Prop36
280
     0
102
RTVSPost2010PropOp36
 70
     1
102
RTVSPost2010Prop37
 90
       50
102
RTVSPost2010PropOp37
 70
     1
102
RTVSPost2010Prop38
140
0.0
102
RTVSPost2010PropOp38
 70
     1
102
RTVSPost2010Prop39
140
1.0
102
RTVSPost2010PropOp39
 70
     1
102
RTVSPost2010Prop40
 90
        0
102
RTVSPost2010PropOp40
 70
     1
102
RTVSPost2010Prop41ColorIndex
 90
       18
102
RTVSPost2010Prop41ColorRGB
 90
        0
102
RTVSPost2010PropOp41
 70
     1
102
RTVSPost2010Prop42
 90
       50
102
RTVSPost2010PropOp42
 70
     1
102
RTVSPost2010Prop43
 90
        3
102
RTVSPost2010PropOp43
 70
     1
102
RTVSPost2010Prop44ColorIndex
 90
        5
102
RTVSPost2010Prop44ColorRGB
 90
      255
102
RTVSPost2010PropOp44
 70
     1
102
RTVSPost2010Prop45
280
     0
102
RTVSPost2010PropOp45
 70
     1
102
RTVSPost2010Prop46
 90
       50
102
RTVSPost2010PropOp46
 70
     1
102
RTVSPost2010Prop47
 90
       50
102
RTVSPost2010PropOp47
 70
     1
102
RTVSPost2010Prop48
 90
       50
102
RTVSPost2010PropOp48
 70
     1
102
RTVSPost2010Prop49
280
     0
102
RTVSPost2010PropOp49
 70
     1
102
RTVSPost2010Prop50
 90
       50
102
RTVSPost2010PropOp50
 70
     1
102
RTVSPost2010Prop51ColorIndex
 90
      256
102
RTVSPost2010Prop51ColorRGB
 90
-16777216
102
RTVSPost2010PropOp51
 70
     0
102
RTVSPost2010Prop52
140
1.0
102
RTVSPost2010PropOp52
 70
     0
102
RTVSPost2010Prop53
 90
        2
102
RTVSPost2010PropOp53
 70
     1
102
RTVSPost2010Prop54
  1
strokes_ogs.tif
102
RTVSPost2010PropOp54
 70
     1
102
RTVSPost2010Prop55
280
     0
102
RTVSPost2010PropOp55
 70
     1
102
RTVSPost2010Prop56
140
1.0
102
RTVSPost2010PropOp56
 70
     1
102
RTVSPost2010Prop57
140
1.0
102
RTVSPost2010PropOp57
 70
     1
102
RTVSPropertyOp0
 70
     1
102
RTVSPropertyOp1
 70
     1
102
RTVSPropertyOp2
 70
     1
102
RTVSPropertyOp3
 70
     1
102
RTVSPropertyOp4
 70
     1
102
RTVSPropertyOp5
 70
     1
102
RTVSPropertyOp6
 70
     1
102
RTVSPropertyOp7
 70
     1
102
RTVSPropertyOp8
 70
     1
102
RTVSPropertyOp9
 70
     1
102
RTVSPropertyOp10
 70
     1
102
RTVSPropertyOp11
 70
     1
102
RTVSPropertyOp12
 70
     1
102
RTVSPropertyOp13
 70
     1
102
RTVSPropertyOp14
 70
     1
102
RTVSPropertyOp15
 70
     1
102
RTVSPropertyOp16
 70
     1
102
RTVSPropertyOp17
 70
     1
102
RTVSPropertyOp18
 70
     1
102
RTVSPropertyOp19
 70
     1
102
RTVSPropertyOp20
 70
     1
102
RTVSPropertyOp21
 70
     1
102
RTVSPropertyOp22
 70
     1
102
RTVSPropertyOp23
 70
     1
102
RTVSPropertyOp24
 70
     1
102
RTVSPropertyOp25
 70
     1
102
RTVSPropertyOp26
 70
     1
102
RTVSPropertyOp27
 70
     1
102
RTVSPropertyOp28
 70
     1
102
RTVSPropertyOp29
 70
     1
102
RTVSPropertyOp30
 70
     1
102
RTVSPropertyOp31
 70
     1
102
RTVSPropertyOp32
 70
     1
102
RTVSPropertyOp33
 70
     1
102
RTVSPropertyOp34
 70
     1
102
RTVSPropertyOp35
 70
     1
102
RTVSPropertyOp36
 70
     1
102
RTVSPropertyOp37
 70
     1
102
RTVSPropertyOp38
 70
     1
102
RTVSPropertyOp39
 70
     1
102
RTVSPropertyOp40
 70
     1
102
RTVSPropertyOp41
 70
     1
102
RTVSPropertyOp42
 70
     1
102
RTVSPropertyOp43
 70
     1
102
RTVSPropertyOp44
 70
     1
102
RTVSPropertyOp45
 70
     1
102
RTVSPropertyOp46
 70
     1
102
RTVSPropertyOp47
 70
     1
102
RTVSPropertyOp48
 70
     1
102
RTVSPropertyOp49
 70
     1
102
RTVSPropertyOp50
 70
     1
102
RTVSPropertyOp51
 70
     0
102
RTVSPropertyOp52
 70
     0
102
RTVSPropertyOp53
 70
     1
102
RTVSPropertyOp54
 70
     1
102
RTVSPropertyOp55
 70
     1
102
RTVSPropertyOp56
 70
     1
102
RTVSPropertyOp57
 70
     1
102
RTVSPropertyOp58
 70
     1
102
RTVSPropertyOp59
 70
     1
102
RTVSPropertyOp60
 70
     1
102
RTVSPropertyOp61
 70
     1
102
RTVSPropertyOp62
 70
     1
  0
XRECORD
  5
956
102
{ACAD_REACTORS
330
955
102
}
330
955
100
AcDbXrecord
280
     1
102
RTVSPost2010Prop28
280
     0
102
RTVSPost2010PropOp28
 70
     1
102
RTVSPost2010Prop29
280
     1
102
RTVSPost2010PropOp29
 70
     1
102
RTVSPost2010Prop30
280
     1
102
RTVSPost2010PropOp30
 70
     1
102
RTVSPost2010Prop31
280
     0
102
RTVSPost2010PropOp31
 70
     1
102
RTVSPost2010Prop32
280
     0
102
RTVSPost2010PropOp32
 70
     1
102
RTVSPost2010Prop33
280
     0
102
RTVSPost2010PropOp33
 70
     1
102
RTVSPost2010Prop34
280
     0
102
RTVSPost2010PropOp34
 70
     1
102
RTVSPost2010Prop35
280
     0
102
RTVSPost2010PropOp35
 70
     1
102
RTVSPost2010Prop36
280
     0
102
RTVSPost2010PropOp36
 70
     1
102
RTVSPost2010Prop37
 90
       50
102
RTVSPost2010PropOp37
 70
     1
102
RTVSPost2010Prop38
140
0.0
102
RTVSPost2010PropOp38
 70
     1
102
RTVSPost2010Prop39
140
1.0
102
RTVSPost2010PropOp39
 70
     1
102
RTVSPost2010Prop40
 90
        0
102
RTVSPost2010PropOp40
 70
     1
102
RTVSPost2010Prop41ColorIndex
 90
       18
102
RTVSPost2010Prop41ColorRGB
 90
        0
102
RTVSPost2010PropOp41
 70
     1
102
RTVSPost2010Prop42
 90
       50
102
RTVSPost2010PropOp42
 70
     1
102
RTVSPost2010Prop43
 90
        3
102
RTVSPost2010PropOp43
 70
     1
102
RTVSPost2010Prop44ColorIndex
 90
        5
102
RTVSPost2010Prop44ColorRGB
 90
      255
102
RTVSPost2010PropOp44
 70
     1
102
RTVSPost2010Prop45
280
     0
102
RTVSPost2010PropOp45
 70
     1
102
RTVSPost2010Prop46
 90
       50
102
RTVSPost2010PropOp46
 70
     1
102
RTVSPost2010Prop47
 90
       50
102
RTVSPost2010PropOp47
 70
     1
102
RTVSPost2010Prop48
 90
       50
102
RTVSPost2010PropOp48
 70
     1
102
RTVSPost2010Prop49
280
     0
102
RTVSPost2010PropOp49
 70
     1
102
RTVSPost2010Prop50
 90
       50
102
RTVSPost2010PropOp50
 70
     1
102
RTVSPost2010Prop51ColorIndex
 90
      256
102
RTVSPost2010Prop51ColorRGB
 90
-16777216
102
RTVSPost2010PropOp51
 70
     0
102
RTVSPost2010Prop52
140
1.0
102
RTVSPost2010PropOp52
 70
     0
102
RTVSPost2010Prop53
 90
        2
102
RTVSPost2010PropOp53
 70
     1
102
RTVSPost2010Prop54
  1
strokes_ogs.tif
102
RTVSPost2010PropOp54
 70
     1
102
RTVSPost2010Prop55
280
     0
102
RTVSPost2010PropOp55
 70
     1
102
RTVSPost2010Prop56
140
1.0
102
RTVSPost2010PropOp56
 70
     1
102
RTVSPost2010Prop57
140
1.0
102
RTVSPost2010PropOp57
 70
     1
102
RTVSPropertyOp0
 70
     1
102
RTVSPropertyOp1
 70
     1
102
RTVSPropertyOp2
 70
     1
102
RTVSPropertyOp3
 70
     1
102
RTVSPropertyOp4
 70
     1
102
RTVSPropertyOp5
 70
     1
102
RTVSPropertyOp6
 70
     1
102
RTVSPropertyOp7
 70
     1
102
RTVSPropertyOp8
 70
     1
102
RTVSPropertyOp9
 70
     1
102
RTVSPropertyOp10
 70
     1
102
RTVSPropertyOp11
 70
     1
102
RTVSPropertyOp12
 70
     1
102
RTVSPropertyOp13
 70
     1
102
RTVSPropertyOp14
 70
     1
102
RTVSPropertyOp15
 70
     1
102
RTVSPropertyOp16
 70
     1
102
RTVSPropertyOp17
 70
     1
102
RTVSPropertyOp18
 70
     1
102
RTVSPropertyOp19
 70
     1
102
RTVSPropertyOp20
 70
     1
102
RTVSPropertyOp21
 70
     1
102
RTVSPropertyOp22
 70
     1
102
RTVSPropertyOp23
 70
     1
102
RTVSPropertyOp24
 70
     1
102
RTVSPropertyOp25
 70
     1
102
RTVSPropertyOp26
 70
     1
102
RTVSPropertyOp27
 70
     1
102
RTVSPropertyOp28
 70
     1
102
RTVSPropertyOp29
 70
     1
102
RTVSPropertyOp30
 70
     1
102
RTVSPropertyOp31
 70
     1
102
RTVSPropertyOp32
 70
     1
102
RTVSPropertyOp33
 70
     1
102
RTVSPropertyOp34
 70
     1
102
RTVSPropertyOp35
 70
     1
102
RTVSPropertyOp36
 70
     1
102
RTVSPropertyOp37
 70
     1
102
RTVSPropertyOp38
 70
     1
102
RTVSPropertyOp39
 70
     1
102
RTVSPropertyOp40
 70
     1
102
RTVSPropertyOp41
 70
     1
102
RTVSPropertyOp42
 70
     1
102
RTVSPropertyOp43
 70
     1
102
RTVSPropertyOp44
 70
     1
102
RTVSPropertyOp45
 70
     1
102
RTVSPropertyOp46
 70
     1
102
RTVSPropertyOp47
 70
     1
102
RTVSPropertyOp48
 70
     1
102
RTVSPropertyOp49
 70
     1
102
RTVSPropertyOp50
 70
     1
102
RTVSPropertyOp51
 70
     0
102
RTVSPropertyOp52
 70
     0
102
RTVSPropertyOp53
 70
     1
102
RTVSPropertyOp54
 70
     1
102
RTVSPropertyOp55
 70
     1
102
RTVSPropertyOp56
 70
     1
102
RTVSPropertyOp57
 70
     1
102
RTVSPropertyOp58
 70
     1
102
RTVSPropertyOp59
 70
     1
102
RTVSPropertyOp60
 70
     1
102
RTVSPropertyOp61
 70
     1
102
RTVSPropertyOp62
 70
     1
  0
XRECORD
  5
940
102
{ACAD_REACTORS
330
93F
102
}
330
93F
100
AcDbXrecord
280
     1
102
RTVSPost2010Prop28
280
     0
102
RTVSPost2010PropOp28
 70
     1
102
RTVSPost2010Prop29
280
     1
102
RTVSPost2010PropOp29
 70
     1
102
RTVSPost2010Prop30
280
     1
102
RTVSPost2010PropOp30
 70
     1
102
RTVSPost2010Prop31
280
     0
102
RTVSPost2010PropOp31
 70
     1
102
RTVSPost2010Prop32
280
     0
102
RTVSPost2010PropOp32
 70
     1
102
RTVSPost2010Prop33
280
     0
102
RTVSPost2010PropOp33
 70
     1
102
RTVSPost2010Prop34
280
     0
102
RTVSPost2010PropOp34
 70
     1
102
RTVSPost2010Prop35
280
     0
102
RTVSPost2010PropOp35
 70
     1
102
RTVSPost2010Prop36
280
     0
102
RTVSPost2010PropOp36
 70
     1
102
RTVSPost2010Prop37
 90
       50
102
RTVSPost2010PropOp37
 70
     1
102
RTVSPost2010Prop38
140
0.0
102
RTVSPost2010PropOp38
 70
     1
102
RTVSPost2010Prop39
140
1.0
102
RTVSPost2010PropOp39
 70
     1
102
RTVSPost2010Prop40
 90
        0
102
RTVSPost2010PropOp40
 70
     1
102
RTVSPost2010Prop41ColorIndex
 90
       18
102
RTVSPost2010Prop41ColorRGB
 90
        0
102
RTVSPost2010PropOp41
 70
     1
102
RTVSPost2010Prop42
 90
       50
102
RTVSPost2010PropOp42
 70
     1
102
RTVSPost2010Prop43
 90
        3
102
RTVSPost2010PropOp43
 70
     1
102
RTVSPost2010Prop44ColorIndex
 90
        5
102
RTVSPost2010Prop44ColorRGB
 90
      255
102
RTVSPost2010PropOp44
 70
     1
102
RTVSPost2010Prop45
280
     0
102
RTVSPost2010PropOp45
 70
     1
102
RTVSPost2010Prop46
 90
       50
102
RTVSPost2010PropOp46
 70
     1
102
RTVSPost2010Prop47
 90
       50
102
RTVSPost2010PropOp47
 70
     1
102
RTVSPost2010Prop48
 90
       50
102
RTVSPost2010PropOp48
 70
     1
102
RTVSPost2010Prop49
280
     0
102
RTVSPost2010PropOp49
 70
     1
102
RTVSPost2010Prop50
 90
       50
102
RTVSPost2010PropOp50
 70
     1
102
RTVSPost2010Prop51ColorIndex
 90
      256
102
RTVSPost2010Prop51ColorRGB
 90
-16777216
102
RTVSPost2010PropOp51
 70
     0
102
RTVSPost2010Prop52
140
1.0
102
RTVSPost2010PropOp52
 70
     0
102
RTVSPost2010Prop53
 90
        2
102
RTVSPost2010PropOp53
 70
     1
102
RTVSPost2010Prop54
  1
strokes_ogs.tif
102
RTVSPost2010PropOp54
 70
     1
102
RTVSPost2010Prop55
280
     0
102
RTVSPost2010PropOp55
 70
     1
102
RTVSPost2010Prop56
140
1.0
102
RTVSPost2010PropOp56
 70
     1
102
RTVSPost2010Prop57
140
1.0
102
RTVSPost2010PropOp57
 70
     1
102
RTVSPropertyOp0
 70
     1
102
RTVSPropertyOp1
 70
     1
102
RTVSPropertyOp2
 70
     1
102
RTVSPropertyOp3
 70
     1
102
RTVSPropertyOp4
 70
     1
102
RTVSPropertyOp5
 70
     1
102
RTVSPropertyOp6
 70
     1
102
RTVSPropertyOp7
 70
     1
102
RTVSPropertyOp8
 70
     1
102
RTVSPropertyOp9
 70
     1
102
RTVSPropertyOp10
 70
     1
102
RTVSPropertyOp11
 70
     1
102
RTVSPropertyOp12
 70
     1
102
RTVSPropertyOp13
 70
     1
102
RTVSPropertyOp14
 70
     1
102
RTVSPropertyOp15
 70
     1
102
RTVSPropertyOp16
 70
     1
102
RTVSPropertyOp17
 70
     1
102
RTVSPropertyOp18
 70
     1
102
RTVSPropertyOp19
 70
     1
102
RTVSPropertyOp20
 70
     1
102
RTVSPropertyOp21
 70
     1
102
RTVSPropertyOp22
 70
     1
102
RTVSPropertyOp23
 70
     1
102
RTVSPropertyOp24
 70
     1
102
RTVSPropertyOp25
 70
     1
102
RTVSPropertyOp26
 70
     1
102
RTVSPropertyOp27
 70
     1
102
RTVSPropertyOp28
 70
     1
102
RTVSPropertyOp29
 70
     1
102
RTVSPropertyOp30
 70
     1
102
RTVSPropertyOp31
 70
     1
102
RTVSPropertyOp32
 70
     1
102
RTVSPropertyOp33
 70
     1
102
RTVSPropertyOp34
 70
     1
102
RTVSPropertyOp35
 70
     1
102
RTVSPropertyOp36
 70
     1
102
RTVSPropertyOp37
 70
     1
102
RTVSPropertyOp38
 70
     1
102
RTVSPropertyOp39
 70
     1
102
RTVSPropertyOp40
 70
     1
102
RTVSPropertyOp41
 70
     1
102
RTVSPropertyOp42
 70
     1
102
RTVSPropertyOp43
 70
     1
102
RTVSPropertyOp44
 70
     1
102
RTVSPropertyOp45
 70
     1
102
RTVSPropertyOp46
 70
     1
102
RTVSPropertyOp47
 70
     1
102
RTVSPropertyOp48
 70
     1
102
RTVSPropertyOp49
 70
     1
102
RTVSPropertyOp50
 70
     1
102
RTVSPropertyOp51
 70
     0
102
RTVSPropertyOp52
 70
     0
102
RTVSPropertyOp53
 70
     1
102
RTVSPropertyOp54
 70
     1
102
RTVSPropertyOp55
 70
     1
102
RTVSPropertyOp56
 70
     1
102
RTVSPropertyOp57
 70
     1
102
RTVSPropertyOp58
 70
     1
102
RTVSPropertyOp59
 70
     1
102
RTVSPropertyOp60
 70
     1
102
RTVSPropertyOp61
 70
     1
102
RTVSPropertyOp62
 70
     1
  0
XRECORD
  5
950
102
{ACAD_REACTORS
330
94F
102
}
330
94F
100
AcDbXrecord
280
     1
102
RTVSPost2010Prop28
280
     0
102
RTVSPost2010PropOp28
 70
     1
102
RTVSPost2010Prop29
280
     1
102
RTVSPost2010PropOp29
 70
     1
102
RTVSPost2010Prop30
280
     1
102
RTVSPost2010PropOp30
 70
     1
102
RTVSPost2010Prop31
280
     0
102
RTVSPost2010PropOp31
 70
     1
102
RTVSPost2010Prop32
280
     0
102
RTVSPost2010PropOp32
 70
     1
102
RTVSPost2010Prop33
280
     0
102
RTVSPost2010PropOp33
 70
     1
102
RTVSPost2010Prop34
280
     0
102
RTVSPost2010PropOp34
 70
     1
102
RTVSPost2010Prop35
280
     0
102
RTVSPost2010PropOp35
 70
     1
102
RTVSPost2010Prop36
280
     0
102
RTVSPost2010PropOp36
 70
     1
102
RTVSPost2010Prop37
 90
       50
102
RTVSPost2010PropOp37
 70
     1
102
RTVSPost2010Prop38
140
0.0
102
RTVSPost2010PropOp38
 70
     1
102
RTVSPost2010Prop39
140
1.0
102
RTVSPost2010PropOp39
 70
     1
102
RTVSPost2010Prop40
 90
        0
102
RTVSPost2010PropOp40
 70
     1
102
RTVSPost2010Prop41ColorIndex
 90
       18
102
RTVSPost2010Prop41ColorRGB
 90
        0
102
RTVSPost2010PropOp41
 70
     1
102
RTVSPost2010Prop42
 90
       50
102
RTVSPost2010PropOp42
 70
     1
102
RTVSPost2010Prop43
 90
        3
102
RTVSPost2010PropOp43
 70
     1
102
RTVSPost2010Prop44ColorIndex
 90
        5
102
RTVSPost2010Prop44ColorRGB
 90
      255
102
RTVSPost2010PropOp44
 70
     1
102
RTVSPost2010Prop45
280
     0
102
RTVSPost2010PropOp45
 70
     1
102
RTVSPost2010Prop46
 90
       50
102
RTVSPost2010PropOp46
 70
     1
102
RTVSPost2010Prop47
 90
       50
102
RTVSPost2010PropOp47
 70
     1
102
RTVSPost2010Prop48
 90
       50
102
RTVSPost2010PropOp48
 70
     1
102
RTVSPost2010Prop49
280
     0
102
RTVSPost2010PropOp49
 70
     1
102
RTVSPost2010Prop50
 90
       50
102
RTVSPost2010PropOp50
 70
     1
102
RTVSPost2010Prop51ColorIndex
 90
      256
102
RTVSPost2010Prop51ColorRGB
 90
-16777216
102
RTVSPost2010PropOp51
 70
     0
102
RTVSPost2010Prop52
140
1.0
102
RTVSPost2010PropOp52
 70
     0
102
RTVSPost2010Prop53
 90
        2
102
RTVSPost2010PropOp53
 70
     1
102
RTVSPost2010Prop54
  1
strokes_ogs.tif
102
RTVSPost2010PropOp54
 70
     1
102
RTVSPost2010Prop55
280
     0
102
RTVSPost2010PropOp55
 70
     1
102
RTVSPost2010Prop56
140
1.0
102
RTVSPost2010PropOp56
 70
     1
102
RTVSPost2010Prop57
140
1.0
102
RTVSPost2010PropOp57
 70
     1
102
RTVSPropertyOp0
 70
     1
102
RTVSPropertyOp1
 70
     1
102
RTVSPropertyOp2
 70
     1
102
RTVSPropertyOp3
 70
     1
102
RTVSPropertyOp4
 70
     1
102
RTVSPropertyOp5
 70
     1
102
RTVSPropertyOp6
 70
     1
102
RTVSPropertyOp7
 70
     1
102
RTVSPropertyOp8
 70
     1
102
RTVSPropertyOp9
 70
     1
102
RTVSPropertyOp10
 70
     1
102
RTVSPropertyOp11
 70
     1
102
RTVSPropertyOp12
 70
     1
102
RTVSPropertyOp13
 70
     1
102
RTVSPropertyOp14
 70
     1
102
RTVSPropertyOp15
 70
     1
102
RTVSPropertyOp16
 70
     1
102
RTVSPropertyOp17
 70
     1
102
RTVSPropertyOp18
 70
     1
102
RTVSPropertyOp19
 70
     1
102
RTVSPropertyOp20
 70
     1
102
RTVSPropertyOp21
 70
     1
102
RTVSPropertyOp22
 70
     1
102
RTVSPropertyOp23
 70
     1
102
RTVSPropertyOp24
 70
     1
102
RTVSPropertyOp25
 70
     1
102
RTVSPropertyOp26
 70
     1
102
RTVSPropertyOp27
 70
     1
102
RTVSPropertyOp28
 70
     1
102
RTVSPropertyOp29
 70
     1
102
RTVSPropertyOp30
 70
     1
102
RTVSPropertyOp31
 70
     1
102
RTVSPropertyOp32
 70
     1
102
RTVSPropertyOp33
 70
     1
102
RTVSPropertyOp34
 70
     1
102
RTVSPropertyOp35
 70
     1
102
RTVSPropertyOp36
 70
     1
102
RTVSPropertyOp37
 70
     1
102
RTVSPropertyOp38
 70
     1
102
RTVSPropertyOp39
 70
     1
102
RTVSPropertyOp40
 70
     1
102
RTVSPropertyOp41
 70
     1
102
RTVSPropertyOp42
 70
     1
102
RTVSPropertyOp43
 70
     1
102
RTVSPropertyOp44
 70
     1
102
RTVSPropertyOp45
 70
     1
102
RTVSPropertyOp46
 70
     1
102
RTVSPropertyOp47
 70
     1
102
RTVSPropertyOp48
 70
     1
102
RTVSPropertyOp49
 70
     1
102
RTVSPropertyOp50
 70
     1
102
RTVSPropertyOp51
 70
     0
102
RTVSPropertyOp52
 70
     0
102
RTVSPropertyOp53
 70
     1
102
RTVSPropertyOp54
 70
     1
102
RTVSPropertyOp55
 70
     1
102
RTVSPropertyOp56
 70
     1
102
RTVSPropertyOp57
 70
     1
102
RTVSPropertyOp58
 70
     1
102
RTVSPropertyOp59
 70
     1
102
RTVSPropertyOp60
 70
     1
102
RTVSPropertyOp61
 70
     1
102
RTVSPropertyOp62
 70
     1
  0
XRECORD
  5
958
102
{ACAD_REACTORS
330
957
102
}
330
957
100
AcDbXrecord
280
     1
102
RTVSPost2010Prop28
280
     0
102
RTVSPost2010PropOp28
 70
     1
102
RTVSPost2010Prop29
280
     1
102
RTVSPost2010PropOp29
 70
     1
102
RTVSPost2010Prop30
280
     1
102
RTVSPost2010PropOp30
 70
     1
102
RTVSPost2010Prop31
280
     0
102
RTVSPost2010PropOp31
 70
     1
102
RTVSPost2010Prop32
280
     0
102
RTVSPost2010PropOp32
 70
     1
102
RTVSPost2010Prop33
280
     0
102
RTVSPost2010PropOp33
 70
     1
102
RTVSPost2010Prop34
280
     0
102
RTVSPost2010PropOp34
 70
     1
102
RTVSPost2010Prop35
280
     0
102
RTVSPost2010PropOp35
 70
     1
102
RTVSPost2010Prop36
280
     0
102
RTVSPost2010PropOp36
 70
     1
102
RTVSPost2010Prop37
 90
       50
102
RTVSPost2010PropOp37
 70
     1
102
RTVSPost2010Prop38
140
0.0
102
RTVSPost2010PropOp38
 70
     1
102
RTVSPost2010Prop39
140
1.0
102
RTVSPost2010PropOp39
 70
     1
102
RTVSPost2010Prop40
 90
        0
102
RTVSPost2010PropOp40
 70
     1
102
RTVSPost2010Prop41ColorIndex
 90
       18
102
RTVSPost2010Prop41ColorRGB
 90
        0
102
RTVSPost2010PropOp41
 70
     1
102
RTVSPost2010Prop42
 90
       50
102
RTVSPost2010PropOp42
 70
     1
102
RTVSPost2010Prop43
 90
        3
102
RTVSPost2010PropOp43
 70
     1
102
RTVSPost2010Prop44ColorIndex
 90
        5
102
RTVSPost2010Prop44ColorRGB
 90
      255
102
RTVSPost2010PropOp44
 70
     1
102
RTVSPost2010Prop45
280
     0
102
RTVSPost2010PropOp45
 70
     1
102
RTVSPost2010Prop46
 90
       50
102
RTVSPost2010PropOp46
 70
     1
102
RTVSPost2010Prop47
 90
       50
102
RTVSPost2010PropOp47
 70
     1
102
RTVSPost2010Prop48
 90
       50
102
RTVSPost2010PropOp48
 70
     1
102
RTVSPost2010Prop49
280
     0
102
RTVSPost2010PropOp49
 70
     1
102
RTVSPost2010Prop50
 90
       50
102
RTVSPost2010PropOp50
 70
     1
102
RTVSPost2010Prop51ColorIndex
 90
      256
102
RTVSPost2010Prop51ColorRGB
 90
-16777216
102
RTVSPost2010PropOp51
 70
     0
102
RTVSPost2010Prop52
140
1.0
102
RTVSPost2010PropOp52
 70
     0
102
RTVSPost2010Prop53
 90
        2
102
RTVSPost2010PropOp53
 70
     1
102
RTVSPost2010Prop54
  1
strokes_ogs.tif
102
RTVSPost2010PropOp54
 70
     1
102
RTVSPost2010Prop55
280
     0
102
RTVSPost2010PropOp55
 70
     1
102
RTVSPost2010Prop56
140
1.0
102
RTVSPost2010PropOp56
 70
     1
102
RTVSPost2010Prop57
140
1.0
102
RTVSPost2010PropOp57
 70
     1
102
RTVSPropertyOp0
 70
     1
102
RTVSPropertyOp1
 70
     1
102
RTVSPropertyOp2
 70
     1
102
RTVSPropertyOp3
 70
     1
102
RTVSPropertyOp4
 70
     1
102
RTVSPropertyOp5
 70
     1
102
RTVSPropertyOp6
 70
     1
102
RTVSPropertyOp7
 70
     1
102
RTVSPropertyOp8
 70
     1
102
RTVSPropertyOp9
 70
     1
102
RTVSPropertyOp10
 70
     1
102
RTVSPropertyOp11
 70
     1
102
RTVSPropertyOp12
 70
     1
102
RTVSPropertyOp13
 70
     1
102
RTVSPropertyOp14
 70
     1
102
RTVSPropertyOp15
 70
     1
102
RTVSPropertyOp16
 70
     1
102
RTVSPropertyOp17
 70
     1
102
RTVSPropertyOp18
 70
     1
102
RTVSPropertyOp19
 70
     1
102
RTVSPropertyOp20
 70
     1
102
RTVSPropertyOp21
 70
     1
102
RTVSPropertyOp22
 70
     1
102
RTVSPropertyOp23
 70
     1
102
RTVSPropertyOp24
 70
     1
102
RTVSPropertyOp25
 70
     1
102
RTVSPropertyOp26
 70
     1
102
RTVSPropertyOp27
 70
     1
102
RTVSPropertyOp28
 70
     1
102
RTVSPropertyOp29
 70
     1
102
RTVSPropertyOp30
 70
     1
102
RTVSPropertyOp31
 70
     1
102
RTVSPropertyOp32
 70
     1
102
RTVSPropertyOp33
 70
     1
102
RTVSPropertyOp34
 70
     1
102
RTVSPropertyOp35
 70
     1
102
RTVSPropertyOp36
 70
     1
102
RTVSPropertyOp37
 70
     1
102
RTVSPropertyOp38
 70
     1
102
RTVSPropertyOp39
 70
     1
102
RTVSPropertyOp40
 70
     1
102
RTVSPropertyOp41
 70
     1
102
RTVSPropertyOp42
 70
     1
102
RTVSPropertyOp43
 70
     1
102
RTVSPropertyOp44
 70
     1
102
RTVSPropertyOp45
 70
     1
102
RTVSPropertyOp46
 70
     1
102
RTVSPropertyOp47
 70
     1
102
RTVSPropertyOp48
 70
     1
102
RTVSPropertyOp49
 70
     1
102
RTVSPropertyOp50
 70
     1
102
RTVSPropertyOp51
 70
     0
102
RTVSPropertyOp52
 70
     0
102
RTVSPropertyOp53
 70
     1
102
RTVSPropertyOp54
 70
     1
102
RTVSPropertyOp55
 70
     1
102
RTVSPropertyOp56
 70
     1
102
RTVSPropertyOp57
 70
     1
102
RTVSPropertyOp58
 70
     1
102
RTVSPropertyOp59
 70
     1
102
RTVSPropertyOp60
 70
     1
102
RTVSPropertyOp61
 70
     1
102
RTVSPropertyOp62
 70
     1
  0
ENDSEC
  0
EOF
