  0
SECTION
  2
HEADER
  9
$ACADVER
  1
AC1015
  9
$ACADMAINTVER
 70
    20
  9
$DWGCODEPAGE
  3
ANSI_1252
  9
$INSBASE
 10
0.0
 20
0.0
 30
0.0
  9
$EXTMIN
 10
-20.66868173354351
 20
-41.26622664961331
 30
0.0
  9
$EXTMAX
 10
29.33131826645649
 20
26.73377335038669
 30
0.0
  9
$LIMMIN
 10
0.0
 20
0.0
  9
$LIMMAX
 10
420.0
 20
297.0
  9
$ORTHOMODE
 70
     0
  9
$REGENMODE
 70
     1
  9
$FILLMODE
 70
     1
  9
$QTEXTMODE
 70
     0
  9
$MIRRTEXT
 70
     1
  9
$LTSCALE
 40
1.0
  9
$ATTMODE
 70
     1
  9
$TEXTSIZE
 40
0.0
  9
$TRACEWID
 40
1.0
  9
$TEXTSTYLE
  7
STANDARD
  9
$CLAYER
  8
0
  9
$CELTYPE
  6
ByLayer
  9
$CECOLOR
 62
   256
  9
$CELTSCALE
 40
1.0
  9
$DISPSILH
 70
     0
  9
$DIMSCALE
 40
1.0
  9
$DIMASZ
 40
2.5
  9
$DIMEXO
 40
0.0
  9
$DIMDLI
 40
3.75
  9
$DIMRND
 40
0.0
  9
$DIMDLE
 40
0.0
  9
$DIMEXE
 40
1.25
  9
$DIMTP
 40
0.0
  9
$DIMTM
 40
0.0
  9
$DIMTXT
 40
3.5
  9
$DIMCEN
 40
0.0
  9
$DIMTSZ
 40
0.0
  9
$DIMTOL
 70
     0
  9
$DIMLIM
 70
     0
  9
$DIMTIH
 70
     0
  9
$DIMTOH
 70
     0
  9
$DIMSE1
 70
     0
  9
$DIMSE2
 70
     0
  9
$DIMTAD
 70
     1
  9
$DIMZIN
 70
     8
  9
$DIMBLK
  1

  9
$DIMASO
 70
     1
  9
$DIMSHO
 70
     1
  9
$DIMPOST
  1

  9
$DIMAPOST
  1

  9
$DIMALT
 70
     0
  9
$DIMALTD
 70
     3
  9
$DIMALTF
 40
0.039370078
  9
$DIMLFAC
 40
1.0
  9
$DIMTOFL
 70
     0
  9
$DIMTVP
 40
0.0
  9
$DIMTIX
 70
     0
  9
$DIMSOXD
 70
     0
  9
$DIMSAH
 70
     0
  9
$DIMBLK1
  1

  9
$DIMBLK2
  1

  9
$DIMSTYLE
  2
STANDARD
  9
$DIMCLRD
 70
     0
  9
$DIMCLRE
 70
     0
  9
$DIMCLRT
 70
     0
  9
$DIMTFAC
 40
1.0
  9
$DIMGAP
 40
0.625
  9
$DIMJUST
 70
     0
  9
$DIMSD1
 70
     0
  9
$DIMSD2
 70
     0
  9
$DIMTOLJ
 70
     0
  9
$DIMTZIN
 70
     8
  9
$DIMALTZ
 70
     0
  9
$DIMALTTZ
 70
     0
  9
$DIMUPT
 70
     0
  9
$DIMDEC
 70
     2
  9
$DIMTDEC
 70
     2
  9
$DIMALTU
 70
     2
  9
$DIMALTTD
 70
     3
  9
$DIMTXSTY
  7
STANDARD
  9
$DIMAUNIT
 70
     0
  9
$DIMADEC
 70
     2
  9
$DIMALTRND
 40
0.0
  9
$DIMAZIN
 70
     2
  9
$DIMDSEP
 70
    46
  9
$DIMATFIT
 70
     3
  9
$DIMFRAC
 70
     0
  9
$DIMLDRBLK
  1

  9
$DIMLUNIT
 70
     2
  9
$DIMLWD
 70
    -2
  9
$DIMLWE
 70
    -2
  9
$DIMTMOVE
 70
     0
  9
$LUNITS
 70
     2
  9
$LUPREC
 70
     4
  9
$SKETCHINC
 40
1.0
  9
$FILLETRAD
 40
2.5
  9
$AUNITS
 70
     0
  9
$AUPREC
 70
     0
  9
$MENU
  1
.
  9
$ELEVATION
 40
0.0
  9
$PELEVATION
 40
0.0
  9
$THICKNESS
 40
0.0
  9
$LIMCHECK
 70
     0
  9
$CHAMFERA
 40
2.5
  9
$CHAMFERB
 40
2.5
  9
$CHAMFERC
 40
0.0
  9
$CHAMFERD
 40
0.0
  9
$SKPOLY
 70
     0
  9
$TDCREATE
 40
2455454.069686829
  9
$TDUCREATE
 40
2455454.028020162
  9
$TDUPDATE
 40
2457715.654311505
  9
$TDUUPDATE
 40
2457715.612644838
  9
$TDINDWG
 40
0.0116525810
  9
$TDUSRTIMER
 40
0.0116525579
  9
$USRTIMER
 70
     1
  9
$ANGBASE
 50
0.0
  9
$ANGDIR
 70
     0
  9
$PDMODE
 70
     0
  9
$PDSIZE
 40
0.0
  9
$PLINEWID
 40
0.0
  9
$SPLFRAME
 70
     0
  9
$SPLINETYPE
 70
     6
  9
$SPLINESEGS
 70
     8
  9
$HANDSEED
  5
A1F
  9
$SURFTAB1
 70
     6
  9
$SURFTAB2
 70
     6
  9
$SURFTYPE
 70
     6
  9
$SURFU
 70
     6
  9
$SURFV
 70
     6
  9
$UCSBASE
  2

  9
$UCSNAME
  2

  9
$UCSORG
 10
0.0
 20
0.0
 30
0.0
  9
$UCSXDIR
 10
1.0
 20
0.0
 30
0.0
  9
$UCSYDIR
 10
0.0
 20
1.0
 30
0.0
  9
$UCSORTHOREF
  2

  9
$UCSORTHOVIEW
 70
     1
  9
$UCSORGTOP
 10
0.0
 20
0.0
 30
0.0
  9
$UCSORGBOTTOM
 10
0.0
 20
0.0
 30
0.0
  9
$UCSORGLEFT
 10
0.0
 20
0.0
 30
0.0
  9
$UCSORGRIGHT
 10
0.0
 20
0.0
 30
0.0
  9
$UCSORGFRONT
 10
0.0
 20
0.0
 30
0.0
  9
$UCSORGBACK
 10
0.0
 20
0.0
 30
0.0
  9
$PUCSBASE
  2

  9
$PUCSNAME
  2

  9
$PUCSORG
 10
0.0
 20
0.0
 30
0.0
  9
$PUCSXDIR
 10
1.0
 20
0.0
 30
0.0
  9
$PUCSYDIR
 10
0.0
 20
1.0
 30
0.0
  9
$PUCSORTHOREF
  2

  9
$PUCSORTHOVIEW
 70
     0
  9
$PUCSORGTOP
 10
0.0
 20
0.0
 30
0.0
  9
$PUCSORGBOTTOM
 10
0.0
 20
0.0
 30
0.0
  9
$PUCSORGLEFT
 10
0.0
 20
0.0
 30
0.0
  9
$PUCSORGRIGHT
 10
0.0
 20
0.0
 30
0.0
  9
$PUCSORGFRONT
 10
0.0
 20
0.0
 30
0.0
  9
$PUCSORGBACK
 10
0.0
 20
0.0
 30
0.0
  9
$USERI1
 70
     0
  9
$USERI2
 70
     0
  9
$USERI3
 70
     0
  9
$USERI4
 70
     0
  9
$USERI5
 70
     0
  9
$USERR1
 40
0.0
  9
$USERR2
 40
0.0
  9
$USERR3
 40
0.0
  9
$USERR4
 40
0.0
  9
$USERR5
 40
0.0
  9
$WORLDVIEW
 70
     1
  9
$SHADEDGE
 70
     3
  9
$SHADEDIF
 70
    70
  9
$TILEMODE
 70
     1
  9
$MAXACTVP
 70
    48
  9
$PINSBASE
 10
0.0
 20
0.0
 30
0.0
  9
$PLIMCHECK
 70
     0
  9
$PEXTMIN
 10
0.0
 20
0.0
 30
0.0
  9
$PEXTMAX
 10
288.986298
 20
202.107193
 30
2.0
  9
$PLIMMIN
 10
0.0
 20
0.0
  9
$PLIMMAX
 10
420.0
 20
297.0
  9
$UNITMODE
 70
     0
  9
$VISRETAIN
 70
     0
  9
$PLINEGEN
 70
     0
  9
$PSLTSCALE
 70
     1
  9
$TREEDEPTH
 70
  3020
  9
$CMLSTYLE
  2
Standard
  9
$CMLJUST
 70
     0
  9
$CMLSCALE
 40
20.0
  9
$PROXYGRAPHICS
 70
     1
  9
$MEASUREMENT
 70
     1
  9
$CELWEIGHT
370
    -1
  9
$ENDCAPS
280
     0
  9
$JOINSTYLE
280
     0
  9
$LWDISPLAY
290
     0
  9
$INSUNITS
 70
     0
  9
$HYPERLINKBASE
  1

  9
$STYLESHEET
  1

  9
$XEDIT
290
     1
  9
$CEPSNTYPE
380
     0
  9
$PSTYLEMODE
290
     0
  9
$FINGERPRINTGUID
  2

  9
$VERSIONGUID
  2
{B43ED10D-BA70-4A96-B9E7-28D97DC2B651}
  9
$EXTNAMES
290
     0
  9
$PSVPSCALE
 40
0.0
  9
$OLESTARTUP
290
     0
  0
ENDSEC
  0
SECTION
  2
CLASSES
  0
CLASS
  1
IMAGE
  2
AcDbRasterImage
  3
ISM
 90
    34943
280
     0
281
     1
  0
CLASS
  1
DICTIONARYVAR
  2
AcDbDictionaryVar
  3
ObjectDBX Classes
 90
        0
280
     0
281
     0
  0
CLASS
  1
RASTERVARIABLES
  2
AcDbRasterVariables
  3
ISM
 90
    32768
280
     0
281
     0
  0
CLASS
  1
IMAGEDEF
  2
AcDbRasterImageDef
  3
ISM
 90
    32768
280
     0
281
     0
  0
CLASS
  1
IMAGEDEF_REACTOR
  2
AcDbRasterImageDefReactor
  3
ISM
 90
    32769
280
     0
281
     0
  0
CLASS
  1
IDBUFFER
  2
AcDbIdBuffer
  3
ObjectDBX Classes
 90
    32768
280
     0
281
     0
  0
CLASS
  1
SPATIAL_FILTER
  2
AcDbSpatialFilter
  3
ObjectDBX Classes
 90
    32768
280
     0
281
     0
  0
CLASS
  1
SORTENTSTABLE
  2
AcDbSortentsTable
  3
ObjectDBX Classes
 90
        0
280
     0
281
     0
  0
CLASS
  1
LAYER_INDEX
  2
AcDbLayerIndex
  3
ObjectDBX Classes
 90
    32768
280
     0
281
     0
  0
CLASS
  1
SPATIAL_INDEX
  2
AcDbSpatialIndex
  3
ObjectDBX Classes
 90
    32768
280
     0
281
     0
  0
CLASS
  1
OBJECT_PTR
  2
CAseDLPNTableRecord
  3
ASE-LPNTableRecord
 90
    32769
280
     0
281
     0
  0
CLASS
  1
LAYOUT
  2
AcDbLayout
  3
ObjectDBX Classes
 90
        0
280
     0
281
     0
  0
CLASS
  1
PLOTSETTINGS
  2
AcDbPlotSettings
  3
ObjectDBX Classes
 90
    32768
280
     0
281
     0
  0
CLASS
  1
ACDBDICTIONARYWDFLT
  2
AcDbDictionaryWithDefault
  3
ObjectDBX Classes
 90
        0
280
     0
281
     0
  0
CLASS
  1
ACDBPLACEHOLDER
  2
AcDbPlaceHolder
  3
ObjectDBX Classes
 90
        0
280
     0
281
     0
  0
CLASS
  1
VBA_PROJECT
  2
AcDbVbaProject
  3
acad
 90
    32768
280
     0
281
     0
  0
CLASS
  1
WIPEOUT
  2
AcDbWipeout
  3
WipeOut|Product Desc: Object Enabler for WipeOut entity | Company: Autodesk, Inc. | WEB Address: www.autodesk.com
 90
    34943
280
     0
281
     1
  0
CLASS
  1
WIPEOUTVARIABLES
  2
AcDbWipeoutVariables
  3
"WipeOut|Product Desc:     WipeOut Dbx Application|Company:          Autodesk, Inc.|WEB Address:      www.autodesk.com"
 90
        0
280
     0
281
     0
  0
CLASS
  1
RTEXT
  2
RText
  3
RText|AutoCAD Express Tool|expresstools@autodesk.com
 90
    32768
280
     0
281
     1
  0
CLASS
  1
ARCALIGNEDTEXT
  2
AcDbArcAlignedText
  3
ATEXT|AutoCAD Express Tool|expresstools@autodesk.com
 90
    32768
280
     0
281
     1
  0
CLASS
  1
MATERIAL
  2
AcDbMaterial
  3
ObjectDBX Classes
 90
     1153
280
     0
281
     0
  0
CLASS
  1
VISUALSTYLE
  2
AcDbVisualStyle
  3
ObjectDBX Classes
 90
     4095
280
     0
281
     0
  0
CLASS
  1
TABLESTYLE
  2
AcDbTableStyle
  3
ObjectDBX Classes
 90
     4095
280
     0
281
     0
  0
CLASS
  1
SCALE
  2
AcDbScale
  3
ObjectDBX Classes
 90
     1153
280
     0
281
     0
  0
CLASS
  1
MLEADERSTYLE
  2
AcDbMLeaderStyle
  3
ACDB_MLEADERSTYLE_CLASS
 90
     4095
280
     0
281
     0
  0
CLASS
  1
CELLSTYLEMAP
  2
AcDbCellStyleMap
  3
ObjectDBX Classes
 90
     1152
280
     0
281
     0
  0
CLASS
  1
ACDBSECTIONVIEWSTYLE
  2
AcDbSectionViewStyle
  3
ObjectDBX Classes
 90
     1025
280
     0
281
     0
  0
CLASS
  1
ACDBDETAILVIEWSTYLE
  2
AcDbDetailViewStyle
  3
ObjectDBX Classes
 90
     1025
280
     0
281
     0
  0
ENDSEC
  0
SECTION
  2
TABLES
  0
TABLE
  2
VPORT
  5
7
330
0
100
AcDbSymbolTable
 70
     1
  0
VPORT
  5
15
330
7
100
AcDbSymbolTableRecord
100
AcDbViewportTableRecord
  2
*ACTIVE
 70
     0
 10
0.0
 20
0.0
 11
1.0
 21
1.0
 12
4.331413039149367
 22
-4.656375290460168
 13
0.0
 23
0.0
 14
1.0
 24
1.0
 15
0.0
 25
0.0
 16
0.0
 26
0.0
 36
1.0
 17
0.0
 27
0.0
 37
0.0
 40
67.99528568462275
 41
2.336194563662374
 42
50.0
 43
0.0
 44
0.0
 50
0.0
 51
0.0
 71
     0
 72
   100
 73
     1
 74
     3
 75
     0
 76
     0
 77
     0
 78
     0
281
     0
 65
     0
110
0.0
120
0.0
130
0.0
111
1.0
121
0.0
131
0.0
112
0.0
122
1.0
132
0.0
 79
     0
146
0.0
1001
ACAD_NAV_VCDISPLAY
1070
     3
  0
ENDTAB
  0
TABLE
  2
LTYPE
  5
4
330
0
100
AcDbSymbolTable
 70
     2
  0
LTYPE
  5
11
330
4
100
AcDbSymbolTableRecord
100
AcDbLinetypeTableRecord
  2
ByBlock
 70
     0
  3

 72
    65
 73
     0
 40
0.0
  0
LTYPE
  5
12
330
4
100
AcDbSymbolTableRecord
100
AcDbLinetypeTableRecord
  2
ByLayer
 70
     0
  3

 72
    65
 73
     0
 40
0.0
  0
LTYPE
  5
13
330
4
100
AcDbSymbolTableRecord
100
AcDbLinetypeTableRecord
  2
Continuous
 70
     0
  3
Solid line
 72
    65
 73
     0
 40
0.0
  0
LTYPE
  5
422
330
4
100
AcDbSymbolTableRecord
100
AcDbLinetypeTableRecord
  2
CENTER2
 70
     0
  3
Center (.5x) ___ _ ___ _ ___ _ ___ _ ___ _ ___
 72
    65
 73
     4
 40
28.575
 49
19.05
 74
     0
 49
-3.174999999999998
 74
     0
 49
3.174999999999998
 74
     0
 49
-3.174999999999998
 74
     0
  0
ENDTAB
  0
TABLE
  2
LAYER
  5
2
102
{ACAD_XDICTIONARY
360
451
102
}
330
0
100
AcDbSymbolTable
 70
     8
  0
LAYER
  5
14
102
{ACAD_XDICTIONARY
360
560
102
}
330
2
100
AcDbSymbolTableRecord
100
AcDbLayerTableRecord
  2
0
 70
     0
 62
     7
  6
Continuous
370
    13
390
1D
  0
LAYER
  5
425
102
{ACAD_XDICTIONARY
360
426
102
}
330
2
100
AcDbSymbolTableRecord
100
AcDbLayerTableRecord
  2
1
 70
     0
 62
     4
  6
Continuous
370
    50
390
1D
  0
LAYER
  5
427
102
{ACAD_XDICTIONARY
360
428
102
}
330
2
100
AcDbSymbolTableRecord
100
AcDbLayerTableRecord
  2
2
 70
     0
 62
     7
  6
Continuous
370
    25
390
1D
  0
LAYER
  5
42D
102
{ACAD_XDICTIONARY
360
42E
102
}
330
2
100
AcDbSymbolTableRecord
100
AcDbLayerTableRecord
  2
4
 70
     0
 62
     2
  6
CENTER2
370
    25
390
1D
  0
LAYER
  5
431
102
{ACAD_XDICTIONARY
360
432
102
}
330
2
100
AcDbSymbolTableRecord
100
AcDbLayerTableRecord
  2
SK6
 70
     0
 62
     5
  6
Continuous
370
    -3
390
1D
  0
LAYER
  5
437
102
{ACAD_XDICTIONARY
360
438
102
}
330
2
100
AcDbSymbolTableRecord
100
AcDbLayerTableRecord
  2
INFTOTAL
 70
     0
 62
     9
  6
Continuous
370
    18
390
1D
1001
AcAecLayerStandard
1000

1000

  0
LAYER
  5
43C
330
2
100
AcDbSymbolTableRecord
100
AcDbLayerTableRecord
  2
Defpoints
 70
     0
 62
     7
  6
Continuous
290
     0
370
    -3
390
1D
  0
LAYER
  5
7B8
330
2
100
AcDbSymbolTableRecord
100
AcDbLayerTableRecord
  2
CUT
 70
     0
 62
     1
  6
Continuous
370
    13
390
1D
1001
AcAecLayerStandard
1000

1000

1001
AcCmTransparency
1071
        0
  0
ENDTAB
  0
TABLE
  2
STYLE
  5
3
330
0
100
AcDbSymbolTable
 70
     1
  0
STYLE
  5
17
330
3
100
AcDbSymbolTableRecord
100
AcDbTextStyleTableRecord
  2
STANDARD
 70
     0
 40
0.0
 41
1.0
 50
0.0
 71
     0
 42
0.0
  3
monos.ttf
  4

1001
ACAD
1000
Monospac821 BT
1071
       49
  0
ENDTAB
  0
TABLE
  2
VIEW
  5
5
330
0
100
AcDbSymbolTable
 70
     0
  0
ENDTAB
  0
TABLE
  2
UCS
  5
6
330
0
100
AcDbSymbolTable
 70
     0
  0
ENDTAB
  0
TABLE
  2
APPID
  5
8
330
0
100
AcDbSymbolTable
 70
    21
  0
APPID
  5
16
330
8
100
AcDbSymbolTableRecord
100
AcDbRegAppTableRecord
  2
ACAD
 70
     0
  0
APPID
  5
43F
330
8
100
AcDbSymbolTableRecord
100
AcDbRegAppTableRecord
  2
ACAD_PSEXT
 70
     0
  0
APPID
  5
440
330
8
100
AcDbSymbolTableRecord
100
AcDbRegAppTableRecord
  2
ACAD_EXEMPT_FROM_CAD_STANDARDS
 70
     0
  0
APPID
  5
441
330
8
100
AcDbSymbolTableRecord
100
AcDbRegAppTableRecord
  2
ACAD_MLEADERVER
 70
     0
  0
APPID
  5
442
330
8
100
AcDbSymbolTableRecord
100
AcDbRegAppTableRecord
  2
ACAD_DSTYLE_DIMJAG
 70
     0
  0
APPID
  5
443
330
8
100
AcDbSymbolTableRecord
100
AcDbRegAppTableRecord
  2
ACAD_DSTYLE_DIMBREAK
 70
     0
  0
APPID
  5
444
330
8
100
AcDbSymbolTableRecord
100
AcDbRegAppTableRecord
  2
ACAD_DSTYLE_DIMTALN
 70
     0
  0
APPID
  5
445
330
8
100
AcDbSymbolTableRecord
100
AcDbRegAppTableRecord
  2
AcAecLayerStandard
 70
     0
  0
APPID
  5
446
330
8
100
AcDbSymbolTableRecord
100
AcDbRegAppTableRecord
  2
DCO15
 70
     0
  0
APPID
  5
447
330
8
100
AcDbSymbolTableRecord
100
AcDbRegAppTableRecord
  2
AcadAnnoPO
 70
     0
  0
APPID
  5
448
330
8
100
AcDbSymbolTableRecord
100
AcDbRegAppTableRecord
  2
ACAD_DSTYLE_DIMRADIAL_EXTENSION
 70
     0
  0
APPID
  5
449
330
8
100
AcDbSymbolTableRecord
100
AcDbRegAppTableRecord
  2
ACAD_DSTYLE_DIMTEXT_FILL
 70
     0
  0
APPID
  5
44A
330
8
100
AcDbSymbolTableRecord
100
AcDbRegAppTableRecord
  2
ACAD_DSTYLE_DIMEXT_LENGTH
 70
     0
  0
APPID
  5
44B
330
8
100
AcDbSymbolTableRecord
100
AcDbRegAppTableRecord
  2
ACAD_DSTYLE_DIMEXT_ENABLED
 70
     0
  0
APPID
  5
44C
330
8
100
AcDbSymbolTableRecord
100
AcDbRegAppTableRecord
  2
ACAD_DSTYLE_DIM_LINETYPE
 70
     0
  0
APPID
  5
44D
330
8
100
AcDbSymbolTableRecord
100
AcDbRegAppTableRecord
  2
ACAD_DSTYLE_DIM_EXT1_LINETYPE
 70
     0
  0
APPID
  5
44E
330
8
100
AcDbSymbolTableRecord
100
AcDbRegAppTableRecord
  2
ACAD_DSTYLE_DIM_EXT2_LINETYPE
 70
     0
  0
APPID
  5
44F
330
8
100
AcDbSymbolTableRecord
100
AcDbRegAppTableRecord
  2
ACAD_DSTYLE_DIMJOGGED_JOGANGLE_SYMBOL
 70
     0
  0
APPID
  5
450
330
8
100
AcDbSymbolTableRecord
100
AcDbRegAppTableRecord
  2
ACAD_DSTYLE_DIMARC_LENGTH_SYMBOL
 70
     0
  0
APPID
  5
73C
330
8
100
AcDbSymbolTableRecord
100
AcDbRegAppTableRecord
  2
ACAD_NAV_VCDISPLAY
 70
     0
  0
APPID
  5
7B9
330
8
100
AcDbSymbolTableRecord
100
AcDbRegAppTableRecord
  2
AcCmTransparency
 70
     0
  0
ENDTAB
  0
TABLE
  2
DIMSTYLE
  5
9
330
0
100
AcDbSymbolTable
 70
     1
100
AcDbDimStyleTable
 71
     1
340
43D
  0
DIMSTYLE
105
43D
102
{ACAD_REACTORS
330
46C
330
488
330
28
330
4B2
102
}
330
9
100
AcDbSymbolTableRecord
100
AcDbDimStyleTableRecord
  2
STANDARD
 70
     0
 41
2.5
 42
0.0
 43
3.75
 44
1.25
 73
     0
 74
     0
 77
     1
 78
     8
 79
     2
140
3.5
141
0.0
143
0.039370078
147
0.625
171
     3
179
     2
271
     2
272
     2
274
     3
283
     0
284
     8
340
17
1001
ACAD_DSTYLE_DIMJAG
1070
   388
1040
1.5
1001
ACAD_DSTYLE_DIMTALN
1070
   392
1070
     0
  0
ENDTAB
  0
TABLE
  2
BLOCK_RECORD
  5
1
330
0
100
AcDbSymbolTable
 70
     4
  0
BLOCK_RECORD
  5
A
102
{ACAD_XDICTIONARY
360
469
102
}
330
1
100
AcDbSymbolTableRecord
100
AcDbBlockTableRecord
  2
*MODEL_SPACE
340
20
  0
BLOCK_RECORD
  5
B
330
1
100
AcDbSymbolTableRecord
100
AcDbBlockTableRecord
  2
*PAPER_SPACE
340
21
  0
BLOCK_RECORD
  5
27
330
1
100
AcDbSymbolTableRecord
100
AcDbBlockTableRecord
  2
*D0
340
0
  0
BLOCK_RECORD
  5
46D
330
1
100
AcDbSymbolTableRecord
100
AcDbBlockTableRecord
  2
*D1
340
0
  0
BLOCK_RECORD
  5
489
330
1
100
AcDbSymbolTableRecord
100
AcDbBlockTableRecord
  2
*D2
340
0
  0
BLOCK_RECORD
  5
4B3
330
1
100
AcDbSymbolTableRecord
100
AcDbBlockTableRecord
  2
*D3
340
0
  0
ENDTAB
  0
ENDSEC
  0
SECTION
  2
BLOCKS
  0
BLOCK
  5
D
330
A
100
AcDbEntity
  8
0
100
AcDbBlockBegin
  2
*MODEL_SPACE
 70
     0
 10
0.0
 20
0.0
 30
0.0
  3
*MODEL_SPACE
  1

  0
ENDBLK
  5
E
330
A
100
AcDbEntity
  8
0
100
AcDbBlockEnd
  0
BLOCK
  5
F
330
B
100
AcDbEntity
 67
     1
  8
0
100
AcDbBlockBegin
  2
*PAPER_SPACE
 70
     0
 10
0.0
 20
0.0
 30
0.0
  3
*PAPER_SPACE
  1

  0
ENDBLK
  5
10
330
B
100
AcDbEntity
 67
     1
  8
0
100
AcDbBlockEnd
  0
BLOCK
  5
43
330
27
100
AcDbEntity
  8
0
370
     0
100
AcDbBlockBegin
  2
*D0
 70
     1
 10
0.0
 20
0.0
 30
0.0
  3
*D0
  1

  0
LINE
  5
60E
330
27
100
AcDbEntity
  8
2
 62
     0
370
    -2
100
AcDbLine
 10
0.4379699999999786
 20
0.6578590000000304
 30
0.0
 11
5.410071744675011
 21
19.21402607222507
 31
0.0
  0
LINE
  5
60F
330
27
100
AcDbEntity
  8
2
 62
     0
370
    -2
100
AcDbLine
 10
0.0
 20
-0.9766549999999936
 30
0.0
 11
0.0000000000000013
 21
19.92627438981014
 31
0.0
  0
ARC
  5
610
330
27
100
AcDbEntity
  8
2
 62
     0
370
    -2
100
AcDbCircle
 10
-0.0000000000000001
 20
-0.9766699999999847
 30
0.0
 40
19.65294438981014
100
AcDbArc
 50
67.70665334566498
 51
75.00002372947395
  0
LINE
  5
611
330
27
100
AcDbEntity
  8
2
 62
     0
370
    -2
100
AcDbLine
 10
7.455319279614395
 20
17.2072909994077
 30
0.0
 11
15.72132064044143
 21
13.81827804933042
 31
0.0
  0
ARC
  5
612
330
27
100
AcDbEntity
  8
2
 62
     0
370
    -2
100
AcDbCircle
 10
-0.0000000000000001
 20
-0.9766699999999847
 30
0.0
 40
19.65294438981014
100
AcDbArc
 50
82.29339411328295
 51
82.706629616191
  0
SOLID
  5
613
330
27
100
AcDbEntity
  8
2
 62
     0
100
AcDbTrace
 10
2.717492700834298
 20
18.90727731637606
 30
0.0
 11
2.553444256050904
 21
18.09025066307239
 31
0.0
 12
5.086548438353608
 22
18.00661865537404
 32
0.0
 13
5.086548438353608
 23
18.00661865537404
 33
0.0
  0
SOLID
  5
614
330
27
100
AcDbEntity
  8
2
 62
     0
100
AcDbTrace
 10
2.468436544810808
 20
18.10144212266294
 30
0.0
 11
2.521439629030937
 21
18.93308815163656
 31
0.0
 12
0.0000000000000009
 22
18.67627438981014
 32
0.0
 13
0.0000000000000009
 23
18.67627438981014
 33
0.0
  0
MTEXT
  5
615
102
{ACAD_XDICTIONARY
360
71C
102
}
330
27
100
AcDbEntity
  8
2
 62
     0
100
AcDbMText
 10
12.51259924850103
 20
17.76715592065684
 30
0.0
 40
3.5
 41
0.0
 71
     5
 72
     1
  1
15\U+00B0
 11
0.9252537756549031
 21
-0.3793487190387572
 31
0.0
 73
     1
 44
1.0
1001
ACAD
1000
MTEXTBEGIN
1070
    73
1070
     1
1070
    44
1040
1.0
1070
    74
1070
     0
1000
MTEXTEND
  0
POINT
  5
616
330
27
100
AcDbEntity
  8
Defpoints
 62
     0
100
AcDbPoint
 10
1.712864262658835
 20
18.60148923948614
 30
0.0
  0
POINT
  5
617
330
27
100
AcDbEntity
  8
Defpoints
 62
     0
100
AcDbPoint
 10
0.0
 20
-0.9766699999999843
 30
0.0
  0
POINT
  5
618
330
27
100
AcDbEntity
  8
Defpoints
 62
     0
100
AcDbPoint
 10
0.0
 20
-5.889905999999996
 30
0.0
  0
POINT
  5
619
330
27
100
AcDbEntity
  8
Defpoints
 62
     0
100
AcDbPoint
 10
0.0
 20
-0.9766549999999936
 30
0.0
  0
POINT
  5
61A
330
27
100
AcDbEntity
  8
Defpoints
 62
     0
100
AcDbPoint
 10
0.4379699999999786
 20
0.6578590000000304
 30
0.0
  0
ENDBLK
  5
53
330
27
100
AcDbEntity
  8
0
100
AcDbBlockEnd
  0
BLOCK
  5
46E
330
46D
100
AcDbEntity
  8
0
100
AcDbBlockBegin
  2
*D1
 70
     1
 10
0.0
 20
0.0
 30
0.0
  3
*D1
  1

  0
LINE
  5
61B
330
46D
100
AcDbEntity
  8
2
 62
     0
370
    -2
100
AcDbLine
 10
-0.000000750225297
 20
-0.9766554880104363
 30
0.0
 11
-0.0000007502252978
 21
-13.76728299999999
 31
0.0
  0
LINE
  5
61C
330
46D
100
AcDbEntity
  8
2
 62
     0
370
    -2
100
AcDbLine
 10
19.82452701916011
 20
0.9766564395627879
 30
0.0
 11
19.82452701916011
 21
-13.76728299999999
 31
0.0
  0
LINE
  5
61D
330
46D
100
AcDbEntity
  8
2
 62
     0
370
    -2
100
AcDbLine
 10
2.499999249774701
 20
-12.51728299999999
 30
0.0
 11
17.32452701916011
 21
-12.51728299999999
 31
0.0
  0
SOLID
  5
61E
330
46D
100
AcDbEntity
  8
2
 62
     0
100
AcDbTrace
 10
2.499999249774701
 20
-12.10061633333332
 30
0.0
 11
2.499999249774701
 21
-12.93394966666666
 31
0.0
 12
-0.0000007502252977
 22
-12.51728299999999
 32
0.0
 13
-0.0000007502252977
 23
-12.51728299999999
 33
0.0
  0
SOLID
  5
61F
330
46D
100
AcDbEntity
  8
2
 62
     0
100
AcDbTrace
 10
17.32452701916011
 20
-12.10061633333332
 30
0.0
 11
17.32452701916011
 21
-12.93394966666666
 31
0.0
 12
19.82452701916011
 22
-12.51728299999999
 32
0.0
 13
19.82452701916011
 23
-12.51728299999999
 33
0.0
  0
MTEXT
  5
620
330
46D
100
AcDbEntity
  8
2
 62
     0
100
AcDbMText
 10
9.912263134467409
 20
-10.08079318973998
 30
0.0
 40
3.5
 41
0.0
 71
     5
 72
     1
  1
19.8
 73
     1
 44
1.0
1001
ACAD
1000
MTEXTBEGIN
1070
    73
1070
     1
1070
    44
1040
1.0
1070
    74
1070
     0
1000
MTEXTEND
  0
POINT
  5
621
330
46D
100
AcDbEntity
  8
Defpoints
 62
     0
100
AcDbPoint
 10
-0.000000750225297
 20
-0.9766554880104363
 30
0.0
  0
POINT
  5
622
330
46D
100
AcDbEntity
  8
Defpoints
 62
     0
100
AcDbPoint
 10
19.82452701916011
 20
0.9766564395627879
 30
0.0
  0
POINT
  5
623
330
46D
100
AcDbEntity
  8
Defpoints
 62
     0
100
AcDbPoint
 10
19.82452701916011
 20
-12.51728299999999
 30
0.0
  0
ENDBLK
  5
46F
330
46D
100
AcDbEntity
  8
0
100
AcDbBlockEnd
  0
BLOCK
  5
48A
330
489
100
AcDbEntity
  8
0
100
AcDbBlockBegin
  2
*D2
 70
     1
 10
0.0
 20
0.0
 30
0.0
  3
*D2
  1

  0
LINE
  5
624
330
489
100
AcDbEntity
  8
2
 62
     0
370
    -2
100
AcDbLine
 10
17.66028
 20
-0.8499999999999943
 30
0.0
 11
14.52375899999998
 21
-0.8499999999999934
 31
0.0
  0
LINE
  5
625
330
489
100
AcDbEntity
  8
2
 62
     0
370
    -2
100
AcDbLine
 10
17.66028
 20
0.8500000000000227
 30
0.0
 11
14.52375899999998
 21
0.8500000000000236
 31
0.0
  0
LINE
  5
626
330
489
100
AcDbEntity
  8
2
 62
     0
370
    -2
100
AcDbLine
 10
15.77375899999998
 20
-3.349999999999993
 30
0.0
 11
15.77375899999998
 21
-5.849999999999994
 31
0.0
  0
LINE
  5
627
330
489
100
AcDbEntity
  8
2
 62
     0
370
    -2
100
AcDbLine
 10
15.77375899999998
 20
3.350000000000023
 30
0.0
 11
15.77375899999999
 21
15.29044272663389
 31
0.0
  0
SOLID
  5
628
330
489
100
AcDbEntity
  8
2
 62
     0
100
AcDbTrace
 10
15.35709233333332
 20
-3.349999999999993
 30
0.0
 11
16.19042566666665
 21
-3.349999999999993
 31
0.0
 12
15.77375899999998
 22
-0.8499999999999939
 32
0.0
 13
15.77375899999998
 23
-0.8499999999999939
 33
0.0
  0
SOLID
  5
629
330
489
100
AcDbEntity
  8
2
 62
     0
100
AcDbTrace
 10
15.35709233333332
 20
3.350000000000023
 30
0.0
 11
16.19042566666665
 21
3.350000000000023
 31
0.0
 12
15.77375899999998
 22
0.8500000000000229
 32
0.0
 13
15.77375899999998
 23
0.8500000000000229
 33
0.0
  0
MTEXT
  5
62A
330
489
100
AcDbEntity
  8
2
 62
     0
100
AcDbMText
 10
13.38769083415318
 20
10.57022136331696
 30
0.0
 40
3.5
 41
0.0
 71
     5
 72
     1
  1
1.7
 11
0.0000000000000001
 21
1.0
 31
0.0
 73
     1
 44
1.0
1001
ACAD
1000
MTEXTBEGIN
1070
    73
1070
     1
1070
    44
1040
1.0
1070
    74
1070
     0
1000
MTEXTEND
  0
POINT
  5
62B
330
489
100
AcDbEntity
  8
Defpoints
 62
     0
100
AcDbPoint
 10
17.66028
 20
-0.8499999999999943
 30
0.0
  0
POINT
  5
62C
330
489
100
AcDbEntity
  8
Defpoints
 62
     0
100
AcDbPoint
 10
17.66028
 20
0.8500000000000227
 30
0.0
  0
POINT
  5
62D
330
489
100
AcDbEntity
  8
Defpoints
 62
     0
100
AcDbPoint
 10
15.77375899999998
 20
0.8500000000000229
 30
0.0
  0
ENDBLK
  5
48B
330
489
100
AcDbEntity
  8
0
100
AcDbBlockEnd
  0
BLOCK
  5
4B4
330
4B3
100
AcDbEntity
  8
0
100
AcDbBlockBegin
  2
*D3
 70
     1
 10
0.0
 20
0.0
 30
0.0
  3
*D3
  1

  0
LINE
  5
62E
330
4B3
100
AcDbEntity
  8
2
 62
     0
370
    -2
100
AcDbLine
 10
0.0953370000000007
 20
-0.9999919999999915
 30
0.0
 11
-10.257948
 21
-0.9999919999999887
 31
0.0
  0
LINE
  5
62F
330
4B3
100
AcDbEntity
  8
2
 62
     0
370
    -2
100
AcDbLine
 10
0.5274807137458595
 20
0.9847082245474323
 30
0.0
 11
-10.257948
 21
0.9847082245474355
 31
0.0
  0
LINE
  5
630
330
4B3
100
AcDbEntity
  8
2
 62
     0
370
    -2
100
AcDbLine
 10
-9.007947999999997
 20
-3.499991999999988
 30
0.0
 11
-9.007947999999997
 21
-5.999991999999986
 31
0.0
  0
LINE
  5
631
330
4B3
100
AcDbEntity
  8
2
 62
     0
370
    -2
100
AcDbLine
 10
-9.007947999999997
 20
3.484708224547435
 30
0.0
 11
-9.007947999999997
 21
9.637730009508782
 31
0.0
  0
SOLID
  5
632
330
4B3
100
AcDbEntity
  8
2
 62
     0
100
AcDbTrace
 10
-9.424614666666663
 20
-3.499991999999988
 30
0.0
 11
-8.591281333333332
 21
-3.499991999999988
 31
0.0
 12
-9.007947999999997
 22
-0.9999919999999892
 32
0.0
 13
-9.007947999999997
 23
-0.9999919999999892
 33
0.0
  0
SOLID
  5
633
330
4B3
100
AcDbEntity
  8
2
 62
     0
100
AcDbTrace
 10
-9.424614666666663
 20
3.484708224547435
 30
0.0
 11
-8.591281333333332
 21
3.484708224547435
 31
0.0
 12
-9.007947999999997
 22
0.9847082245474352
 32
0.0
 13
-9.007947999999997
 23
0.9847082245474352
 33
0.0
  0
MTEXT
  5
634
330
4B3
100
AcDbEntity
  8
2
 62
     0
100
AcDbMText
 10
-11.3940161658468
 20
7.811219117028107
 30
0.0
 40
3.5
 41
0.0
 71
     5
 72
     1
  1
2
 11
0.0000000000000001
 21
1.0
 31
0.0
 73
     1
 44
1.0
1001
ACAD
1000
MTEXTBEGIN
1070
    73
1070
     1
1070
    44
1040
1.0
1070
    74
1070
     0
1000
MTEXTEND
  0
POINT
  5
635
330
4B3
100
AcDbEntity
  8
Defpoints
 62
     0
100
AcDbPoint
 10
0.0953370000000007
 20
-0.9999919999999915
 30
0.0
  0
POINT
  5
636
330
4B3
100
AcDbEntity
  8
Defpoints
 62
     0
100
AcDbPoint
 10
0.5274807137458595
 20
0.9847082245474323
 30
0.0
  0
POINT
  5
637
330
4B3
100
AcDbEntity
  8
Defpoints
 62
     0
100
AcDbPoint
 10
-9.007947999999997
 20
0.9847082245474352
 30
0.0
  0
ENDBLK
  5
4B5
330
4B3
100
AcDbEntity
  8
0
100
AcDbBlockEnd
  0
ENDSEC
  0
SECTION
  2
ENTITIES
  0
DIMENSION
  5
28
102
{ACAD_REACTORS
330
4FB
102
}
330
A
100
AcDbEntity
  8
2
100
AcDbDimension
  2
*D0
 10
0.4379699999999789
 20
0.6578590000000304
 30
0.0
 11
12.51259924850103
 21
17.76715592065683
 31
0.0
 70
    34
 71
     5
 42
0.261798973641699
  3
STANDARD
100
AcDb2LineAngularDimension
 13
0.0
 23
-5.889905999999996
 33
0.0
 14
0.0
 24
-0.9766549999999938
 34
0.0
 15
0.0
 25
-0.9766699999999843
 35
0.0
 16
1.712864262658835
 26
18.60148923948614
 36
0.0
  0
MTEXT
  5
45F
330
A
100
AcDbEntity
  8
SK6
100
AcDbMText
 10
4.213778339512481
 20
-20.27808982318481
 30
0.0
 40
5.0
 41
35.86872600892811
 71
     2
 72
     5
  1
{\H0.7x;TDC 2-15LS}
 73
     1
 44
1.0
1001
ACAD
1000
MTEXTBEGIN
1070
    73
1070
     1
1070
    44
1040
1.0
1070
    74
1070
     0
1000
MTEXTEND
  0
LINE
  5
461
330
A
100
AcDbEntity
  8
INFTOTAL
100
AcDbLine
 10
-20.66868173354351
 20
26.73377335038669
 30
0.0
 11
29.33131826645649
 21
26.73377335038667
 31
0.0
  0
LINE
  5
462
330
A
100
AcDbEntity
  8
INFTOTAL
100
AcDbLine
 10
29.33131826645648
 20
8.733773350386677
 30
0.0
 11
29.33131826645649
 21
-41.26622664961331
 31
0.0
  0
LINE
  5
463
330
A
100
AcDbEntity
  8
INFTOTAL
100
AcDbLine
 10
29.33131826645649
 20
-41.26622664961331
 30
0.0
 11
-20.66868173354351
 21
-41.26622664961331
 31
0.0
  0
LINE
  5
464
330
A
100
AcDbEntity
  8
INFTOTAL
100
AcDbLine
 10
-20.66868173354351
 20
-23.26622664961331
 30
0.0
 11
-20.66868173354351
 21
26.73377335038669
 31
0.0
  0
DIMENSION
  5
46C
102
{ACAD_REACTORS
330
4FB
102
}
330
A
100
AcDbEntity
  8
2
100
AcDbDimension
  2
*D1
 10
19.82452701916011
 20
-12.51728299999999
 30
0.0
 11
9.912263134467409
 21
-10.08079318973998
 31
0.0
 70
    32
 71
     5
 42
19.82452776938541
  3
STANDARD
100
AcDbAlignedDimension
 13
-0.000000750225297
 23
-0.9766554880104363
 33
0.0
 14
19.82452701916011
 24
0.9766564395627879
 34
0.0
100
AcDbRotatedDimension
1001
ACAD
1000
DSTYLE
1002
{
1070
   271
1070
     1
1002
}
  0
DIMENSION
  5
488
102
{ACAD_REACTORS
330
4FB
102
}
330
A
100
AcDbEntity
  8
2
100
AcDbDimension
  2
*D2
 10
15.77375899999998
 20
0.8500000000000229
 30
0.0
 11
13.38769083415318
 21
10.57022136331696
 31
0.0
 70
    32
 71
     5
 42
1.700000000000017
  3
STANDARD
100
AcDbAlignedDimension
 13
17.66028
 23
-0.8499999999999943
 33
0.0
 14
17.66028
 24
0.8500000000000227
 34
0.0
 50
270.0
100
AcDbRotatedDimension
  0
DIMENSION
  5
4B2
102
{ACAD_REACTORS
330
4FB
102
}
330
A
100
AcDbEntity
  8
2
100
AcDbDimension
  2
*D3
 10
-9.007947999999997
 20
0.9847082245474352
 30
0.0
 11
-11.3940161658468
 21
7.811219117028107
 31
0.0
 70
    32
 71
     5
 42
1.984700224547424
  3
STANDARD
100
AcDbAlignedDimension
 13
0.0953370000000007
 23
-0.9999919999999915
 33
0.0
 14
0.5274807137458595
 24
0.9847082245474323
 34
0.0
 50
270.0
100
AcDbRotatedDimension
1001
ACAD
1000
DSTYLE
1002
{
1070
   271
1070
     1
1002
}
  0
LINE
  5
4CA
102
{ACAD_REACTORS
330
4FA
102
}
330
A
100
AcDbEntity
  8
1
 48
0.018952
100
AcDbLine
 10
3.292693999999982
 20
0.8499999999999943
 30
0.0
 11
4.050767000000006
 21
0.8499999999999943
 31
0.0
  0
LINE
  5
4CB
102
{ACAD_REACTORS
330
4FA
102
}
330
A
100
AcDbEntity
  8
1
 48
0.028211
100
AcDbLine
 10
2.164245999999991
 20
0.8499999999999943
 30
0.0
 11
3.292693999999982
 21
0.8499999999999943
 31
0.0
  0
ARC
  5
4CC
102
{ACAD_REACTORS
330
4FA
102
}
330
A
100
AcDbEntity
  8
1
100
AcDbCircle
 10
2.164245999999991
 20
1.016667000000011
 30
0.0
 40
0.166667
100
AcDbArc
 50
225.0
 51
270.0
  0
LINE
  5
4CD
102
{ACAD_REACTORS
330
4FA
102
}
330
A
100
AcDbEntity
  8
1
 48
0.001206
100
AcDbLine
 10
2.012278000000009
 20
0.9329319999999936
 30
0.0
 11
2.046394999999987
 21
0.8988160000000107
 31
0.0
  0
LINE
  5
4CE
102
{ACAD_REACTORS
330
4FA
102
}
330
A
100
AcDbEntity
  8
1
 48
0.005335
100
AcDbLine
 10
1.798994999999989
 20
0.9404079999999908
 30
0.0
 11
2.012278000000009
 21
0.9329319999999936
 31
0.0
  0
LINE
  5
4CF
102
{ACAD_REACTORS
330
4FA
102
}
330
A
100
AcDbEntity
  8
1
 48
0.036311
100
AcDbLine
 10
5.503197999999997
 20
-0.8499999999999943
 30
0.0
 11
4.050767000000006
 21
-0.8499999999999943
 31
0.0
  0
LINE
  5
4D0
102
{ACAD_REACTORS
330
4FA
102
}
330
A
100
AcDbEntity
  8
1
 48
0.036311
100
AcDbLine
 10
5.503197999999997
 20
0.8499999999999943
 30
0.0
 11
4.050767000000006
 21
0.8499999999999943
 31
0.0
  0
LINE
  5
4D1
102
{ACAD_REACTORS
330
4FA
102
}
330
A
100
AcDbEntity
  8
1
 48
0.028211
100
AcDbLine
 10
17.66028
 20
0.8499999999999943
 30
0.0
 11
16.53183200000001
 21
0.8499999999999943
 31
0.0
  0
LINE
  5
4D2
102
{ACAD_REACTORS
330
4FA
102
}
330
A
100
AcDbEntity
  8
1
 48
0.018952
100
AcDbLine
 10
16.53183200000001
 20
0.8499999999999943
 30
0.0
 11
15.77375899999998
 21
0.8499999999999943
 31
0.0
  0
LINE
  5
4D3
102
{ACAD_REACTORS
330
4FA
102
}
330
A
100
AcDbEntity
  8
1
 48
0.036311
100
AcDbLine
 10
14.32132799999999
 20
0.8499999999999943
 30
0.0
 11
15.77375899999998
 21
0.8499999999999943
 31
0.0
  0
LINE
  5
4D4
102
{ACAD_REACTORS
330
4FA
102
}
330
A
100
AcDbEntity
  8
1
 48
0.110227
100
AcDbLine
 10
9.912262999999995
 20
0.8499999999999943
 30
0.0
 11
14.32134400000001
 21
0.8499999999999943
 31
0.0
  0
LINE
  5
4D5
102
{ACAD_REACTORS
330
4FA
102
}
330
A
100
AcDbEntity
  8
1
 48
0.110227
100
AcDbLine
 10
5.503182000000008
 20
0.8499999999999943
 30
0.0
 11
9.912262999999995
 21
0.8499999999999943
 31
0.0
  0
LINE
  5
4D6
102
{ACAD_REACTORS
330
4FA
102
}
330
A
100
AcDbEntity
  8
1
 48
0.004005
100
AcDbLine
 10
1.638866000000004
 20
0.9448199999999927
 30
0.0
 11
1.798994999999989
 21
0.9404079999999908
 31
0.0
  0
LINE
  5
4D7
102
{ACAD_REACTORS
330
4FA
102
}
330
A
100
AcDbEntity
  8
1
 48
0.000987
100
AcDbLine
 10
1.599410000000004
 20
0.9457899999999879
 30
0.0
 11
1.638866000000004
 21
0.9448199999999927
 31
0.0
  0
LINE
  5
4D8
102
{ACAD_REACTORS
330
4FA
102
}
330
A
100
AcDbEntity
  8
1
 48
0.018952
100
AcDbLine
 10
3.292693999999982
 20
-0.8499999999999943
 30
0.0
 11
4.050767000000006
 21
-0.8499999999999943
 31
0.0
  0
LINE
  5
4D9
102
{ACAD_REACTORS
330
4FA
102
}
330
A
100
AcDbEntity
  8
1
 48
0.028211
100
AcDbLine
 10
2.164245999999991
 20
-0.8499999999999943
 30
0.0
 11
3.292693999999982
 21
-0.8499999999999943
 31
0.0
  0
LINE
  5
4DA
102
{ACAD_REACTORS
330
4FA
102
}
330
A
100
AcDbEntity
  8
1
 48
0.110227
100
AcDbLine
 10
5.503182000000008
 20
-0.8499999999999943
 30
0.0
 11
9.912262999999995
 21
-0.8499999999999943
 31
0.0
  0
LINE
  5
4DB
102
{ACAD_REACTORS
330
4FA
102
}
330
A
100
AcDbEntity
  8
1
 48
0.110227
100
AcDbLine
 10
9.912262999999995
 20
-0.8499999999999943
 30
0.0
 11
14.32134400000001
 21
-0.8499999999999943
 31
0.0
  0
LINE
  5
4DC
102
{ACAD_REACTORS
330
4FA
102
}
330
A
100
AcDbEntity
  8
1
 48
0.036311
100
AcDbLine
 10
14.32132799999999
 20
-0.8499999999999943
 30
0.0
 11
15.77375899999998
 21
-0.8499999999999943
 31
0.0
  0
LINE
  5
4DD
102
{ACAD_REACTORS
330
4FA
102
}
330
A
100
AcDbEntity
  8
1
 48
0.018952
100
AcDbLine
 10
16.53183200000001
 20
-0.8499999999999943
 30
0.0
 11
15.77375899999998
 21
-0.8499999999999943
 31
0.0
  0
LINE
  5
4DE
102
{ACAD_REACTORS
330
4FA
102
}
330
A
100
AcDbEntity
  8
1
 48
0.028211
100
AcDbLine
 10
17.66028
 20
-0.8499999999999943
 30
0.0
 11
16.53183200000001
 21
-0.8499999999999943
 31
0.0
  0
LINE
  5
4DF
102
{ACAD_REACTORS
330
4FA
102
}
330
A
100
AcDbEntity
  8
1
 48
0.037626
100
AcDbLine
 10
18.22511599999998
 20
0.9457899999999879
 30
0.0
 11
19.72919300000001
 21
0.9999919999999915
 31
0.0
  0
LINE
  5
4E0
102
{ACAD_REACTORS
330
4FA
102
}
330
A
100
AcDbEntity
  8
1
 48
0.000987
100
AcDbLine
 10
18.22511599999998
 20
0.9457899999999879
 30
0.0
 11
18.18565999999998
 21
0.9448199999999927
 31
0.0
  0
LINE
  5
4E1
102
{ACAD_REACTORS
330
4FA
102
}
330
A
100
AcDbEntity
  8
1
 48
0.004005
100
AcDbLine
 10
18.18565999999998
 20
0.9448199999999927
 30
0.0
 11
18.025531
 21
0.9404079999999908
 31
0.0
  0
LINE
  5
4E2
102
{ACAD_REACTORS
330
4FA
102
}
330
A
100
AcDbEntity
  8
1
 48
0.005335
100
AcDbLine
 10
18.025531
 20
0.9404079999999908
 30
0.0
 11
17.81224800000001
 21
0.9329319999999936
 31
0.0
  0
ARC
  5
4E3
102
{ACAD_REACTORS
330
4FA
102
}
330
A
100
AcDbEntity
  8
1
100
AcDbCircle
 10
17.66028
 20
1.016667000000011
 30
0.0
 40
0.166667
100
AcDbArc
 50
270.0
 51
315.0
  0
LINE
  5
4E4
102
{ACAD_REACTORS
330
4FA
102
}
330
A
100
AcDbEntity
  8
1
 48
0.001206
100
AcDbLine
 10
17.81224800000001
 20
0.9329319999999936
 30
0.0
 11
17.778131
 21
0.8988160000000107
 31
0.0
  0
LINE
  5
4E5
102
{ACAD_REACTORS
330
4FA
102
}
330
A
100
AcDbEntity
  8
1
 48
0.026816
100
AcDbLine
 10
1.599410000000004
 20
0.9457899999999879
 30
0.0
 11
0.5274809999999947
 21
0.984708000000012
 31
0.0
  0
SPLINE
  5
4E6
102
{ACAD_REACTORS
330
4FA
102
}
330
A
100
AcDbEntity
  8
1
100
AcDbSpline
210
0.0
220
0.0
230
1.0
 70
     8
 71
     5
 72
    60
 73
    54
 74
     0
 42
0.000000001
 43
0.0000000001
 40
0.0885947856742789
 40
0.0885947856742789
 40
0.0885947856742789
 40
0.0885947856742789
 40
0.0885947856742789
 40
0.0885947856742789
 40
0.1259896900321681
 40
0.1259896900321681
 40
0.1259896900321681
 40
0.1679667611470961
 40
0.1679667611470961
 40
0.1679667611470961
 40
0.2537378830086606
 40
0.2537378830086606
 40
0.2537378830086606
 40
0.3388709900928889
 40
0.3388709900928889
 40
0.3388709900928889
 40
0.4224742973683667
 40
0.4224742973683667
 40
0.4224742973683667
 40
0.506077604643844
 40
0.506077604643844
 40
0.506077604643844
 40
0.6723713636126886
 40
0.6723713636126886
 40
0.6723713636126886
 40
0.8419838220695096
 40
0.8419838220695096
 40
0.8419838220695096
 40
1.016186856506896
 40
1.016186856506896
 40
1.016186856506896
 40
1.104433288314196
 40
1.104433288314196
 40
1.104433288314196
 40
1.192679720121498
 40
1.192679720121498
 40
1.192679720121498
 40
1.282793304677077
 40
1.282793304677077
 40
1.282793304677077
 40
1.372906889232656
 40
1.372906889232656
 40
1.372906889232656
 40
1.464894155178805
 40
1.464894155178805
 40
1.464894155178805
 40
1.556198347476879
 40
1.556198347476879
 40
1.556198347476879
 40
1.64738793667541
 40
1.64738793667541
 40
1.64738793667541
 40
1.710284233832638
 40
1.710284233832638
 40
1.710284233832638
 40
1.710284233832638
 40
1.710284233832638
 40
1.710284233832638
 10
0.2977989244330104
 20
0.0568636483286298
 30
0.0
 10
0.2987224306076541
 20
0.0605133557090198
 30
0.0
 10
0.2996630904519861
 20
0.0642212368079811
 30
0.0
 10
0.3006314532834153
 20
0.0680229059645399
 30
0.0
 10
0.3027425056013442
 20
0.0762734059987906
 30
0.0
 10
0.3049649924386415
 20
0.0848952714596862
 30
0.0
 10
0.3061693095864371
 20
0.0895532376348172
 30
0.0
 10
0.3098806645373031
 20
0.1038885911594036
 30
0.0
 10
0.3136814617457446
 20
0.1185754675015858
 30
0.0
 10
0.3161142203829002
 20
0.1280378232235648
 30
0.0
 10
0.3210068101103332
 20
0.1472563568330827
 30
0.0
 10
0.3255997692410801
 20
0.1656552591060176
 30
0.0
 10
0.327809560487367
 20
0.1745972349831106
 30
0.0
 10
0.3320656153988182
 20
0.1919323380184039
 30
0.0
 10
0.33621059748927
 20
0.2089245779393707
 30
0.0
 10
0.3382657221748673
 20
0.2173466213798747
 30
0.0
 10
0.3424242727802493
 20
0.2343427515613712
 30
0.0
 10
0.3466821383235015
 20
0.2516753974884125
 30
0.0
 10
0.3488390309214537
 20
0.2604422420504022
 30
0.0
 10
0.3553307365222054
 20
0.2868400595448861
 30
0.0
 10
0.3619021397846041
 20
0.3136989797411616
 30
0.0
 10
0.3663084954843327
 20
0.3318836038993993
 30
0.0
 10
0.3751420590504608
 20
0.3684497676776175
 30
0.0
 10
0.3842224086289149
 20
0.406074793456213
 30
0.0
 10
0.3889018579639867
 20
0.4254275201754468
 30
0.0
 10
0.3983925807224579
 20
0.4648122149684756
 30
0.0
 10
0.4079131384071957
 20
0.5045424509427221
 30
0.0
 10
0.4127379255207872
 20
0.5247224749285238
 30
0.0
 10
0.4200619027330106
 20
0.5552667016127373
 30
0.0
 10
0.4274762744599343
 20
0.5860663892422055
 30
0.0
 10
0.4299800154370246
 20
0.5964538724524858
 30
0.0
 10
0.4350041840053225
 20
0.6172877441100299
 30
0.0
 10
0.4400380585055644
 20
0.6382177974705883
 30
0.0
 10
0.4425519071182862
 20
0.648702129865427
 30
0.0
 10
0.4476130659166131
 20
0.6699110169120388
 30
0.0
 10
0.4526943171811979
 20
0.6912024308780361
 30
0.0
 10
0.455284089584069
 20
0.7020012422347293
 30
0.0
 10
0.4605590721390059
 20
0.7236829328987824
 30
0.0
 10
0.4660071325052402
 20
0.7455192867627432
 30
0.0
 10
0.4687686851538615
 20
0.7564675763816241
 30
0.0
 10
0.4743563595634728
 20
0.7786186846224439
 30
0.0
 10
0.4798886617696212
 20
0.8008049968462103
 30
0.0
 10
0.4825471737562168
 20
0.8116038624175132
 30
0.0
 10
0.4879819781113782
 20
0.8339093591463607
 30
0.0
 10
0.4934217951429787
 20
0.8562550055473534
 30
0.0
 10
0.4961662484677447
 20
0.8674324649251444
 30
0.0
 10
0.5017846702516806
 20
0.8898391046782306
 30
0.0
 10
0.5076823550735981
 20
0.9123457100586731
 30
0.0
 10
0.5107077603344408
 20
0.9236277457244456
 30
0.0
 10
0.5158741719017428
 20
0.9425970982163958
 30
0.0
 10
0.521097302103641
 20
0.9615296097476855
 30
0.0
 10
0.5232318427520683
 20
0.9692544435994252
 30
0.0
 10
0.5253615510875136
 20
0.9769799275957495
 30
0.0
 10
0.5274807137458595
 20
0.9847082245474323
 30
0.0
  0
LINE
  5
4E7
102
{ACAD_REACTORS
330
4FA
102
}
330
A
100
AcDbEntity
  8
1
 48
0.002951
100
AcDbLine
 10
0.2978339999999946
 20
0.0569480000000056
 30
0.0
 11
0.2666739999999947
 21
-0.056886999999989
 31
0.0
  0
SPLINE
  5
4E8
102
{ACAD_REACTORS
330
4FA
102
}
330
A
100
AcDbEntity
  8
1
100
AcDbSpline
210
0.0
220
0.0
230
1.0
 70
     8
 71
     5
 72
    48
 73
    42
 74
     0
 42
0.000000001
 43
0.0000000001
 40
0.1042674950092055
 40
0.1042674950092055
 40
0.1042674950092055
 40
0.1042674950092055
 40
0.1042674950092055
 40
0.1042674950092055
 40
0.1494249172116343
 40
0.1494249172116343
 40
0.1494249172116343
 40
0.199259146490665
 40
0.199259146490665
 40
0.199259146490665
 40
0.3900748230436331
 40
0.3900748230436331
 40
0.3900748230436331
 40
0.4813201064472026
 40
0.4813201064472026
 40
0.4813201064472026
 40
0.5725653898507722
 40
0.5725653898507722
 40
0.5725653898507722
 40
0.7507127874868919
 40
0.7507127874868919
 40
0.7507127874868919
 40
0.9287860206110751
 40
0.9287860206110751
 40
0.9287860206110751
 40
1.108423179304715
 40
1.108423179304715
 40
1.108423179304715
 40
1.290972069973349
 40
1.290972069973349
 40
1.290972069973349
 40
1.382304764381414
 40
1.382304764381414
 40
1.382304764381414
 40
1.473637458789478
 40
1.473637458789478
 40
1.473637458789478
 40
1.660669244482113
 40
1.660669244482113
 40
1.660669244482113
 40
1.787180276302569
 40
1.787180276302569
 40
1.787180276302569
 40
1.787180276302569
 40
1.787180276302569
 40
1.787180276302569
 10
0.2666755723385847
 20
-0.05680812330192
 30
0.0
 10
0.2655591108380975
 20
-0.0605953737481855
 30
0.0
 10
0.2644229697246203
 20
-0.0644572284987248
 30
0.0
 10
0.2632568655940588
 20
-0.0684351833210712
 30
0.0
 10
0.2607391951722207
 20
-0.0770613300953471
 30
0.0
 10
0.2580932537696299
 20
-0.0861964368440909
 30
0.0
 10
0.2566720676184104
 20
-0.0911198901317789
 30
0.0
 10
0.2497061914088761
 20
-0.1153010957240212
 30
0.0
 10
0.242411657120897
 20
-0.1407106091670016
 30
0.0
 10
0.2371225106845429
 20
-0.158794196408337
 30
0.0
 10
0.2293722627812826
 20
-0.1851064261765884
 30
0.0
 10
0.2217146907300389
 20
-0.2110917243381607
 30
0.0
 10
0.219226186192401
 20
-0.2195491495081967
 30
0.0
 10
0.2141941569934715
 20
-0.2366807086801828
 30
0.0
 10
0.2090379986310893
 20
-0.2542628775354103
 30
0.0
 10
0.2064241019742781
 20
-0.2631760483436381
 30
0.0
 10
0.1986250448644569
 20
-0.2897437636958671
 30
0.0
 10
0.1906176670448758
 20
-0.3169311725398529
 30
0.0
 10
0.1851915961863142
 20
-0.3353067305318689
 30
0.0
 10
0.1743274299451798
 20
-0.3721309893334705
 30
0.0
 10
0.1630279119529234
 20
-0.4104194493361888
 30
0.0
 10
0.1572533734115495
 20
-0.4299687418266558
 30
0.0
 10
0.1455457735058303
 20
-0.4695867780784512
 30
0.0
 10
0.1336785092315722
 20
-0.5098102473437791
 30
0.0
 10
0.1276986498884582
 20
-0.5301178864419001
 30
0.0
 10
0.1155805240859138
 20
-0.5713365559352326
 30
0.0
 10
0.1033073314162891
 20
-0.6131364003711042
 30
0.0
 10
0.0974074753793843
 20
-0.6332161220833826
 30
0.0
 10
0.0880152445432998
 20
-0.6651933652886442
 30
0.0
 10
0.0785654766301036
 20
-0.6974984918952885
 30
0.0
 10
0.0754070193563337
 20
-0.7083153606833151
 30
0.0
 10
0.069068061506357
 20
-0.7300451352105597
 30
0.0
 10
0.0626918261378364
 20
-0.7519316810644341
 30
0.0
 10
0.0594960500476987
 20
-0.7629054124138577
 30
0.0
 10
0.049757617595759
 20
-0.7963997372101233
 30
0.0
 10
0.0401026796784549
 20
-0.8300149863065653
 30
0.0
 10
0.0341795995884979
 20
-0.851069607816953
 30
0.0
 10
0.0236645651044683
 20
-0.8892140128174046
 30
0.0
 10
0.0132404455094957
 20
-0.9276525049805568
 30
0.0
 10
0.0087334231710372
 20
-0.9443139307578292
 30
0.0
 10
0.0043099944616642
 20
-0.9606881591339233
 30
0.0
 10
0.0000072195923906
 20
-0.9766402160028063
 30
0.0
  0
LINE
  5
4E9
102
{ACAD_REACTORS
330
4FA
102
}
330
A
100
AcDbEntity
  8
1
 48
0.005335
100
AcDbLine
 10
1.798994999999989
 20
-0.9404079999999908
 30
0.0
 11
2.012278000000009
 21
-0.9329319999999936
 31
0.0
  0
LINE
  5
4EA
102
{ACAD_REACTORS
330
4FA
102
}
330
A
100
AcDbEntity
  8
1
 48
0.001206
100
AcDbLine
 10
2.012278000000009
 20
-0.9329319999999936
 30
0.0
 11
2.046394999999987
 21
-0.8988160000000107
 31
0.0
  0
ARC
  5
4EB
102
{ACAD_REACTORS
330
4FA
102
}
330
A
100
AcDbEntity
  8
1
100
AcDbCircle
 10
2.164245999999991
 20
-1.016667000000011
 30
0.0
 40
0.166667
100
AcDbArc
 50
90.00000000000005
 51
135.0
  0
LINE
  5
4EC
102
{ACAD_REACTORS
330
4FA
102
}
330
A
100
AcDbEntity
  8
1
 48
0.026816
100
AcDbLine
 10
18.22511599999998
 20
-0.9457899999999879
 30
0.0
 11
19.29704499999999
 21
-0.984708000000012
 31
0.0
  0
LINE
  5
4ED
102
{ACAD_REACTORS
330
4FA
102
}
330
A
100
AcDbEntity
  8
1
 48
0.005335
100
AcDbLine
 10
18.025531
 20
-0.9404079999999908
 30
0.0
 11
17.81224800000001
 21
-0.9329319999999936
 31
0.0
  0
LINE
  5
4EE
102
{ACAD_REACTORS
330
4FA
102
}
330
A
100
AcDbEntity
  8
1
 48
0.004005
100
AcDbLine
 10
18.18565999999998
 20
-0.9448199999999927
 30
0.0
 11
18.025531
 21
-0.9404079999999908
 31
0.0
  0
LINE
  5
4EF
102
{ACAD_REACTORS
330
4FA
102
}
330
A
100
AcDbEntity
  8
1
 48
0.000987
100
AcDbLine
 10
18.22511599999998
 20
-0.9457899999999879
 30
0.0
 11
18.18565999999998
 21
-0.9448199999999927
 31
0.0
  0
ARC
  5
4F0
102
{ACAD_REACTORS
330
4FA
102
}
330
A
100
AcDbEntity
  8
1
100
AcDbCircle
 10
17.66028
 20
-1.016667000000011
 30
0.0
 40
0.166667
100
AcDbArc
 50
45.0
 51
90.00000000000005
  0
LINE
  5
4F1
102
{ACAD_REACTORS
330
4FA
102
}
330
A
100
AcDbEntity
  8
1
 48
0.001206
100
AcDbLine
 10
17.81224800000001
 20
-0.9329319999999936
 30
0.0
 11
17.778131
 21
-0.8988160000000107
 31
0.0
  0
LINE
  5
4F2
102
{ACAD_REACTORS
330
4FA
102
}
330
A
100
AcDbEntity
  8
1
 48
0.000987
100
AcDbLine
 10
1.599410000000004
 20
-0.9457899999999879
 30
0.0
 11
1.638866000000004
 21
-0.9448199999999927
 31
0.0
  0
LINE
  5
4F3
102
{ACAD_REACTORS
330
4FA
102
}
330
A
100
AcDbEntity
  8
1
 48
0.004005
100
AcDbLine
 10
1.638866000000004
 20
-0.9448199999999927
 30
0.0
 11
1.798994999999989
 21
-0.9404079999999908
 31
0.0
  0
LINE
  5
4F4
102
{ACAD_REACTORS
330
4FA
102
}
330
A
100
AcDbEntity
  8
1
 48
0.037626
100
AcDbLine
 10
1.599410000000004
 20
-0.9457899999999879
 30
0.0
 11
0.0953370000000007
 21
-0.9999919999999915
 31
0.0
  0
ARC
  5
4F5
102
{ACAD_REACTORS
330
4FA
102
}
330
A
100
AcDbEntity
  8
1
100
AcDbCircle
 10
19.735872
 20
0.8207629999999992
 30
0.0
 40
0.179339
100
AcDbArc
 50
60.37354900000044
 51
92.13405100000022
  0
SPLINE
  5
4F6
102
{ACAD_REACTORS
330
4FA
102
}
330
A
100
AcDbEntity
  8
1
100
AcDbSpline
210
0.0
220
0.0
230
1.0
 70
     8
 71
     5
 72
    48
 73
    42
 74
     0
 42
0.000000001
 43
0.0000000001
 40
0.1042674941692607
 40
0.1042674941692607
 40
0.1042674941692607
 40
0.1042674941692607
 40
0.1042674941692607
 40
0.1042674941692607
 40
0.1494250638004956
 40
0.1494250638004956
 40
0.1494250638004956
 40
0.1992593419776278
 40
0.1992593419776278
 40
0.1992593419776278
 40
0.3900751803505873
 40
0.3900751803505873
 40
0.3900751803505873
 40
0.4813205440390682
 40
0.4813205440390682
 40
0.4813205440390682
 40
0.572565907727549
 40
0.572565907727549
 40
0.572565907727549
 40
0.7507135025458736
 40
0.7507135025458736
 40
0.7507135025458736
 40
0.9287869182970942
 40
0.9287869182970942
 40
0.9287869182970942
 40
1.108424259255807
 40
1.108424259255807
 40
1.108424259255807
 40
1.290973273801014
 40
1.290973273801014
 40
1.290973273801014
 40
1.382306064519039
 40
1.382306064519039
 40
1.382306064519039
 40
1.473638855237064
 40
1.473638855237064
 40
1.473638855237064
 40
1.660670808517606
 40
1.660670808517606
 40
1.660670808517606
 40
1.787182628154531
 40
1.787182628154531
 40
1.787182628154531
 40
1.787182628154531
 40
1.787182628154531
 40
1.787182628154531
 10
19.55785048367059
 20
0.0568083276727123
 30
0.0
 10
19.55896694885083
 20
0.0605955905826647
 30
0.0
 10
19.56010309376916
 20
0.0644574582696294
 30
0.0
 10
19.56126920195885
 20
0.0684354270231893
 30
0.0
 10
19.56378687831767
 20
0.0770615944498445
 30
0.0
 10
19.56643282606717
 20
0.0861967235008479
 30
0.0
 10
19.56785401402615
 20
0.0911201832266784
 30
0.0
 10
19.57481989797832
 20
0.1153014162601948
 30
0.0
 10
19.58211443816469
 20
0.1407109492439815
 30
0.0
 10
19.58740359102668
 20
0.1587945565958932
 30
0.0
 10
19.59515384362095
 20
0.1851068013602059
 30
0.0
 10
19.60281142255667
 20
0.2110921235592684
 30
0.0
 10
19.60529992969842
 20
0.2195495579324813
 30
0.0
 10
19.6103319644996
 20
0.2366811367556068
 30
0.0
 10
19.6154881289109
 20
0.2542633263695109
 30
0.0
 10
19.61810202861522
 20
0.2631765074729913
 30
0.0
 10
19.62590109575953
 20
0.2897442563957497
 30
0.0
 10
19.63390848325235
 20
0.3169316971025182
 30
0.0
 10
19.63933455759294
 20
0.3353072668099344
 30
0.0
 10
19.65019873852961
 20
0.3721315756574199
 30
0.0
 10
19.66149827267102
 20
0.4104200901775246
 30
0.0
 10
19.66727281883851
 20
0.429969408114687
 30
0.0
 10
19.67898043286905
 20
0.4695874923049246
 30
0.0
 10
19.69084771032999
 20
0.5098110077260856
 30
0.0
 10
19.69682757627495
 20
0.5301186702369023
 30
0.0
 10
19.70894571387495
 20
0.5713373812407668
 30
0.0
 10
19.72121891907565
 20
0.61313726854317
 30
0.0
 10
19.72711879216811
 20
0.6332170476045747
 30
0.0
 10
19.7365110313718
 20
0.6651943210315494
 30
0.0
 10
19.74596080805463
 20
0.6974994808016675
 30
0.0
 10
19.74911926917158
 20
0.70831636376289
 30
0.0
 10
19.75545823498777
 20
0.7300461666759192
 30
0.0
 10
19.76183447807034
 20
0.7519327396487086
 30
0.0
 10
19.7650302577866
 20
0.7629064839920546
 30
0.0
 10
19.77476869897126
 20
0.7964008436068184
 30
0.0
 10
19.78442364161988
 20
0.8300161261927312
 30
0.0
 10
19.79034672526722
 20
0.8510707793580536
 30
0.0
 10
19.80086178787383
 20
0.8892153082102254
 30
0.0
 10
19.81128593836618
 20
0.9276539235361838
 30
0.0
 10
19.81579299460657
 20
0.9443154765112636
 30
0.0
 10
19.82021645113306
 20
0.9606898093728377
 30
0.0
 10
19.82451925062403
 20
0.9766419594367048
 30
0.0
  0
ARC
  5
4F7
102
{ACAD_REACTORS
330
4FA
102
}
330
A
100
AcDbEntity
  8
1
100
AcDbCircle
 10
0.0886569999999836
 20
-0.8207590000000093
 30
0.0
 40
0.179343
100
AcDbArc
 50
240.3732720000008
 51
272.1346480000002
  0
SPLINE
  5
4F8
102
{ACAD_REACTORS
330
4FA
102
}
330
A
100
AcDbEntity
  8
1
100
AcDbSpline
210
0.0
220
0.0
230
1.0
 70
     8
 71
     5
 72
    60
 73
    54
 74
     0
 42
0.000000001
 43
0.0000000001
 40
0.0885947825457902
 40
0.0885947825457902
 40
0.0885947825457902
 40
0.0885947825457902
 40
0.0885947825457902
 40
0.0885947825457902
 40
0.1259896936516348
 40
0.1259896936516348
 40
0.1259896936516348
 40
0.1679667659771139
 40
0.1679667659771139
 40
0.1679667659771139
 40
0.2537378008021634
 40
0.2537378008021634
 40
0.2537378008021634
 40
0.3388708219540091
 40
0.3388708219540091
 40
0.3388708219540091
 40
0.4224740451051395
 40
0.4224740451051395
 40
0.4224740451051395
 40
0.5060772682562699
 40
0.5060772682562699
 40
0.5060772682562699
 40
0.6723708416020822
 40
0.6723708416020822
 40
0.6723708416020822
 40
0.8419831157474126
 40
0.8419831157474126
 40
0.8419831157474126
 40
1.016185963527614
 40
1.016185963527614
 40
1.016185963527614
 40
1.104432300165925
 40
1.104432300165925
 40
1.104432300165925
 40
1.192678636804241
 40
1.192678636804241
 40
1.192678636804241
 40
1.282792119715542
 40
1.282792119715542
 40
1.282792119715542
 40
1.37290560262684
 40
1.37290560262684
 40
1.37290560262684
 40
1.464892786278583
 40
1.464892786278583
 40
1.464892786278583
 40
1.556196890220166
 40
1.556196890220166
 40
1.556196890220166
 40
1.647386291076534
 40
1.647386291076534
 40
1.647386291076534
 40
1.710284552781305
 40
1.710284552781305
 40
1.710284552781305
 40
1.710284552781305
 40
1.710284552781305
 40
1.710284552781305
 10
19.52672713150764
 20
-0.0568634438270408
 30
0.0
 10
19.52580362515374
 20
-0.0605131519071449
 30
0.0
 10
19.52486296512674
 20
-0.064221033716052
 30
0.0
 10
19.52389460210068
 20
-0.0680227036208407
 30
0.0
 10
19.5217835495209
 20
-0.0762732046306383
 30
0.0
 10
19.51956106240692
 20
-0.0848950710977761
 30
0.0
 10
19.51835674519918
 20
-0.0895530374657199
 30
0.0
 10
19.51464539267098
 20
-0.1038883815064651
 30
0.0
 10
19.51084459803263
 20
-0.1185752477721849
 30
0.0
 10
19.50841184172961
 20
-0.1280375941874183
 30
0.0
 10
19.50351925650642
 20
-0.147256109328822
 30
0.0
 10
19.49892630117026
 20
-0.1656549952541866
 30
0.0
 10
19.49671651165974
 20
-0.1745969635027222
 30
0.0
 10
19.49246046021758
 20
-0.1919320514127776
 30
0.0
 10
19.48831548202892
 20
-0.2089242749334517
 30
0.0
 10
19.48626035949081
 20
-0.2173463095778629
 30
0.0
 10
19.48210181347588
 20
-0.2343424211958904
 30
0.0
 10
19.4778439528057
 20
-0.2516750474394485
 30
0.0
 10
19.47568706264224
 20
-0.2604418820791636
 30
0.0
 10
19.46919536459828
 20
-0.2868396682717957
 30
0.0
 10
19.46262396829382
 20
-0.3136985581105875
 30
0.0
 10
19.45821761569499
 20
-0.3318831678218999
 30
0.0
 10
19.44938406273755
 20
-0.3684492863844468
 30
0.0
 10
19.44030372505256
 20
-0.4060742630935012
 30
0.0
 10
19.43562428147422
 20
-0.4254269657751025
 30
0.0
 10
19.42613356930786
 20
-0.4648116144537937
 30
0.0
 10
19.41661302188555
 20
-0.5045418057115115
 30
0.0
 10
19.41178824021698
 20
-0.5247218068319342
 30
0.0
 10
19.4044642719162
 20
-0.5552659978206407
 30
0.0
 10
19.3970499093802
 20
-0.5860656487256506
 30
0.0
 10
19.3945461715048
 20
-0.5964531194549068
 30
0.0
 10
19.3895220089197
 20
-0.6172869662075584
 30
0.0
 10
19.38448813967264
 20
-0.6382169952094614
 30
0.0
 10
19.38197429345834
 20
-0.6487013156481966
 30
0.0
 10
19.37691313967065
 20
-0.6699101780819206
 30
0.0
 10
19.37183189553877
 20
-0.6912015658112978
 30
0.0
 10
19.36924212787508
 20
-0.7020003624864728
 30
0.0
 10
19.36396715608953
 20
-0.7236820240430008
 30
0.0
 10
19.3585191059791
 20
-0.7455183499254191
 30
0.0
 10
19.35575755746112
 20
-0.7564666264078142
 30
0.0
 10
19.35016988872408
 20
-0.7786177105525951
 30
0.0
 10
19.34463758893264
 20
-0.8008040001611503
 30
0.0
 10
19.34197907817736
 20
-0.8116028526401919
 30
0.0
 10
19.33654427641744
 20
-0.8339083290142923
 30
0.0
 10
19.33110446723964
 20
-0.8562539518052574
 30
0.0
 10
19.32836001995145
 20
-0.8674313967417504
 30
0.0
 10
19.32274161541517
 20
-0.8898379974495469
 30
0.0
 10
19.31684394872599
 20
-0.9123445673570243
 30
0.0
 10
19.31381855322672
 20
-0.9236265814052726
 30
0.0
 10
19.3086520864525
 20
-0.9425961546026258
 30
0.0
 10
19.30342889632939
 20
-0.9615288850948784
 30
0.0
 10
19.30129428874994
 20
-0.9692539600655152
 30
0.0
 10
19.29916451372244
 20
-0.9769796851771276
 30
0.0
 10
19.29704528511195
 20
-0.9847082234872459
 30
0.0
  0
LINE
  5
4F9
102
{ACAD_REACTORS
330
4FA
102
}
330
A
100
AcDbEntity
  8
1
 48
0.002951
100
AcDbLine
 10
19.52669499999999
 20
-0.05693500000001
 30
0.0
 11
19.55785900000001
 21
0.0569089999999903
 31
0.0
  0
LINE
  5
4FD
330
A
100
AcDbEntity
  8
4
100
AcDbLine
 10
0.2822456512496081
 20
0.0
 30
0.0
 11
19.54228055865922
 21
0.0
 31
0.0
  0
LWPOLYLINE
  5
8D5
330
A
100
AcDbEntity
  8
CUT
100
AcDbPolyline
 90
     1144
 70
     1
 43
0.0
 10
4.050767286254147
 20
0.8499997754525796
 10
5.503198286254136
 20
0.8499997754525796
 10
9.912263286254136
 20
0.8499997754525796
 10
14.32134428625415
 20
0.8499997754525796
 10
15.77375928625412
 20
0.8499997754525796
 10
16.53183228625415
 20
0.8499997754525796
 10
17.66028028625414
 20
0.8499997754525796
 42
0.1995737847856552
 10
17.77813165215416
 20
0.8988154095525775
 10
17.81224828625415
 20
0.9329317754525794
 10
18.02553128625414
 20
0.9404077754525763
 10
18.18566028625413
 20
0.9448197754525784
 10
18.22511628625413
 20
0.9457897754525735
 10
19.72919328625415
 20
0.9999917754525771
 42
-0.1392793964292824
 10
19.82452730541426
 20
0.9766562150153772
 10
19.82331843751045
 20
0.9721895681032551
 10
19.82211046255695
 20
0.9677134545232002
 10
19.82089651181255
 20
0.9632167350881184
 10
19.81967775098146
 20
0.958703759475159
 10
19.81845554450292
 20
0.9541796394840751
 10
19.817231388377
 20
0.9496500024216663
 10
19.81600684299035
 20
0.945120744486222
 10
19.81478346594194
 20
0.9405977841519703
 10
19.81356274486882
 20
0.9360868155535191
 10
19.81234603027189
 20
0.9315930618703005
 10
19.81113446834163
 20
0.9271210287110154
 10
19.80992893378389
 20
0.9226742574980811
 10
19.80872996264561
 20
0.91825507885207
 10
19.80753768514059
 20
0.9138643659761587
 10
19.80635175847525
 20
0.9095012880405716
 10
19.80517129967438
 20
0.9051630635670218
 10
19.80399481840688
 20
0.9008447138131614
 10
19.80282014983938
 20
0.8965388162594043
 10
19.8016452373114
 20
0.8922383841164448
 10
19.8004704843495
 20
0.8879454990458198
 10
19.79929666637337
 20
0.8836635959823604
 10
19.79812429708971
 20
0.8793951246554954
 10
19.7969536533122
 20
0.8751416370935807
 10
19.79578479978151
 20
0.8709038751282427
 10
19.79461761398521
 20
0.8666818578987092
 10
19.79345181097786
 20
0.8624749693561469
 10
19.79228696820086
 20
0.8582820457679956
 10
19.79112255030254
 20
0.8541014632223067
 10
19.78995793395812
 20
0.8499312251320763
 10
19.78879243268961
 20
0.8457690497395827
 10
19.78762532168591
 20
0.8416124576207204
 10
19.7864558626227
 20
0.8374588591893379
 10
19.78528332848248
 20
0.8333056422015728
 10
19.78410702837451
 20
0.8291502592601878
 10
19.78292633235482
 20
0.8249903153189038
 10
19.78174069624616
 20
0.8208236551867392
 10
19.78054968645801
 20
0.8166484510323464
 10
19.77935300480657
 20
0.8124632898883419
 10
19.7781505133347
 20
0.8082672611556478
 10
19.77694225913192
 20
0.8040600441078256
 10
19.77572849915441
 20
0.7998419953954114
 10
19.77450972504497
 20
0.7956142365502519
 10
19.77328668795301
 20
0.7913787414898409
 10
19.77206042335452
 20
0.7871384240216548
 10
19.77083224969011
 20
0.7828971354752145
 10
19.76960308207662
 20
0.7786573222308136
 10
19.76837318488837
 20
0.7744192276013041
 10
19.76714278394282
 20
0.7701830167884456
 10
19.76591209898225
 20
0.7659488902728882
 10
19.76468134160814
 20
0.7617170781078233
 10
19.76345071321555
 20
0.7574878342126487
 10
19.76222040292744
 20
0.7532614306666244
 10
19.76099058552913
 20
0.7490381520025366
 10
19.75976141940259
 20
0.7448182895003495
 10
19.75853304446086
 20
0.7406021354808701
 10
19.75730558008239
 20
0.7363899775994068
 10
19.75607912304545
 20
0.7321820931394269
 10
19.75485374549897
 20
0.7279787432818276
 10
19.75362949457847
 20
0.7237801631078531
 10
19.75240639536107
 20
0.7195865422306138
 10
19.75118445369527
 20
0.7153980202751164
 10
19.74996365898529
 20
0.7112146898796015
 10
19.74874398698893
 20
0.7070365998289061
 10
19.74752540261551
 20
0.7028637581878288
 10
19.74630786272379
 20
0.6986961354344956
 10
19.7450913189198
 20
0.6945336675937242
 10
19.74387572035483
 20
0.6903762593703915
 10
19.74266101652331
 20
0.6862237872827937
 10
19.74144716006068
 20
0.6820761027960174
 10
19.74023410954135
 20
0.6779330354553004
 10
19.73902186062072
 20
0.6737944915765404
 10
19.73781094770976
 20
0.6696621481755809
 10
19.73660224717475
 20
0.6655388211677044
 10
19.73539642618635
 20
0.6614266215552256
 10
19.73419394192709
 20
0.6573269538649546
 10
19.73299506160299
 20
0.6532405844777927
 10
19.73179988245503
 20
0.6491677099583395
 10
19.73060835177079
 20
0.6451080253844852
 10
19.72942028689604
 20
0.641060792677016
 10
19.72823539524623
 20
0.6370249089292132
 10
19.72705329431812
 20
0.6329989747364522
 10
19.7258735317013
 20
0.6289813625258045
 10
19.72469560508984
 20
0.6249702848856363
 10
19.72351898229376
 20
0.6209638628952076
 10
19.72234312125066
 20
0.6169601944542757
 10
19.72116749003727
 20
0.6129574226126932
 10
19.71999158688101
 20
0.6089538039000085
 10
19.71881496017161
 20
0.6049477766550658
 10
19.7176372284726
 20
0.6009380293556053
 10
19.7164581005329
 20
0.5969235689478634
 10
19.71527739529847
 20
0.592903789176174
 10
19.71409506192376
 20
0.5888785389125664
 10
19.71291119978333
 20
0.5848481904863672
 10
19.71172607848347
 20
0.5808137080137997
 10
19.71054015787366
 20
0.5767767157275845
 10
19.70935410805824
 20
0.5727395663065389
 10
19.70816878538861
 20
0.5687052582568324
 10
19.70698460657593
 20
0.5646752876038647
 10
19.70580155489647
 20
0.560649662661664
 10
19.70461960202166
 20
0.5566283481570169
 10
19.70343871984672
 20
0.5526113055598616
 10
19.70225888085414
 20
0.5485984941252129
 10
19.70108005847738
 20
0.5445898719350755
 10
19.69990222746442
 20
0.5405853969403616
 10
19.69872536424147
 20
0.536585028002807
 10
19.69754944727646
 20
0.5325887259368898
 10
19.69637445744276
 20
0.5285964545517478
 10
19.69520037838277
 20
0.5246081816930916
 10
19.69402719687149
 20
0.5206238802851262
 10
19.69285490318018
 20
0.5166435293724661
 10
19.69168349143997
 20
0.512667115162051
 10
19.69051296000547
 20
0.5086946320650628
 10
19.68934331181838
 20
0.5047260837388478
 10
19.68817455477113
 20
0.500761484128824
 10
19.68700670207043
 20
0.4968008585104089
 10
19.68583977260099
 20
0.4928442445309269
 10
19.68467379128903
 20
0.4888916932515335
 10
19.68350878946597
 20
0.4849432701891275
 10
19.682344805232
 20
0.4809990563582708
 10
19.68118188381973
 20
0.4770591493131029
 10
19.68002007795778
 20
0.4731236641892611
 10
19.67885944823164
 20
0.4691927347352447
 10
19.67770005959548
 20
0.4652665002251064
 10
19.67654197670121
 20
0.4613450922906053
 10
19.67538527668672
 20
0.4574286881618276
 10
19.67423005017397
 20
0.4535175155624664
 10
19.67307639955616
 20
0.4496118470028457
 10
19.67192443728496
 20
0.4457119940729364
 10
19.67077428415773
 20
0.4418183017353732
 10
19.66962606760467
 20
0.4379311426184751
 10
19.66847991997607
 20
0.4340509113092648
 10
19.6673359768295
 20
0.4301780186464841
 10
19.66619437521698
 20
0.4263128860136174
 10
19.66505525197231
 20
0.4224559396319051
 10
19.66391874199807
 20
0.4186076048533657
 10
19.66278497655296
 20
0.4147683004538119
 10
19.66165408153903
 20
0.4109384329258721
 10
19.66052617578878
 20
0.4071183907720073
 10
19.65940136935241
 20
0.4033085387975295
 10
19.65827976178507
 20
0.3995092124036183
 10
19.65716144043398
 20
0.3957207118803465
 10
19.65604647872568
 20
0.3919432966996892
 10
19.65493493445326
 20
0.3881771798085509
 10
19.65382684806348
 20
0.3844225219217776
 10
19.65272224094406
 20
0.3806794258151793
 10
19.65162111371085
 20
0.3769479306185488
 10
19.65052344449501
 20
0.3732280061086763
 10
19.64942916156772
 20
0.3695194607712704
 10
19.64833800311186
 20
0.3658214638975297
 10
19.64724967436451
 20
0.3621330573288128
 10
19.64616393807434
 20
0.3584534570529545
 10
19.64508061039015
 20
0.3547820410313713
 10
19.64399955635864
 20
0.3511183357221403
 10
19.64292068542223
 20
0.3474620026030823
 10
19.64184394691691
 20
0.3438128246948473
 10
19.64076932557003
 20
0.3401706930839925
 10
19.63969683699812
 20
0.3365355934460652
 10
19.63862652320469
 20
0.3329075925686906
 10
19.63755844807809
 20
0.3292868248746474
 10
19.6364926928893
 20
0.3256734789449549
 10
19.63542935178972
 20
0.3220677840419519
 10
19.63436852730904
 20
0.3184699966323823
 10
19.63331032585303
 20
0.3148803869104757
 10
19.63225485320134
 20
0.3112992253210312
 10
19.63120221000535
 20
0.3077267690824978
 10
19.63015248728598
 20
0.3041632487100578
 10
19.62910576193145
 20
0.3006088545387113
 10
19.62806209219521
 20
0.2970637232463558
 10
19.62702151319363
 20
0.2935279243768685
 10
19.62598403240391
 20
0.2900014468631902
 10
19.62494962516186
 20
0.2864841855504085
 10
19.62391823015971
 20
0.282975927718839
 10
19.62288975055566
 20
0.2794763588460816
 10
19.62186417893702
 20
0.2759854938978261
 10
19.62084163013573
 20
0.2725037943408468
 10
19.61982223374256
 20
0.2690317990403894
 10
19.61880612354101
 20
0.2655700850728602
 10
19.6177934318533
 20
0.2621192453364358
 10
19.61678428388627
 20
0.2586798661616587
 10
19.61577879207739
 20
0.2552525049220424
 10
19.61477705044062
 20
0.2518376676446739
 10
19.61377912891243
 20
0.2484357866208136
 10
19.61278506769771
 20
0.2450471980164997
 10
19.61179487161575
 20
0.2416721194831455
 10
19.61080850444612
 20
0.2383106277681506
 10
19.60982588423368
 20
0.2349626401017506
 10
19.60884689518882
 20
0.2316279557768173
 10
19.60787138491447
 20
0.2283062243060749
 10
19.60689915161924
 20
0.2249968853041002
 10
19.60592994615529
 20
0.221699174210003
 10
19.60496347459396
 20
0.2184121302538404
 10
19.60399940080142
 20
0.2151346044230422
 10
19.60303734901435
 20
0.211865267428827
 10
19.60207690641557
 20
0.2086026176726241
 10
19.60111762570973
 20
0.2053449892124908
 10
19.60015902769891
 20
0.2020905597295313
 10
19.5992006038583
 20
0.1988373584943197
 10
19.59824181891188
 20
0.1955832743333179
 10
19.59728213239371
 20
0.1923261290259841
 10
19.59632126657677
 20
0.189064604507454
 10
19.59535910530935
 20
0.1857979127211164
 10
19.59439546087866
 20
0.1825250037122767
 10
19.59343008044362
 20
0.1792445941651968
 10
19.59246265913496
 20
0.1759552188439493
 10
19.59149285315526
 20
0.1726552820332712
 10
19.5905202928791
 20
0.1693431089794144
 10
19.5895445959531
 20
0.1660169973310026
 10
19.58856538039598
 20
0.162675268579882
 10
19.58758227769871
 20
0.1593163195019738
 10
19.58659494592453
 20
0.1559386735981301
 10
19.58560308280908
 20
0.1525410325349839
 10
19.58460643886044
 20
0.1491223275858049
 10
19.58360483045925
 20
0.1456817710713496
 10
19.58259815295876
 20
0.1422189078007188
 10
19.58158639378494
 20
0.1387336665122048
 10
19.58056964553654
 20
0.1352264113141501
 10
19.57954811908521
 20
0.1316979931257984
 10
19.57852215667553
 20
0.1281498011181457
 10
19.57749224502513
 20
0.1245838141547964
 10
19.57645902842477
 20
0.1210026522328151
 10
19.57542332183839
 20
0.1174096279235801
 10
19.57438612400325
 20
0.1138087978136353
 10
19.57334863052996
 20
0.1102050139455457
 10
19.57231224700259
 20
0.1066039752587482
 10
19.57127860207875
 20
0.1030122790304055
 10
19.57024954295085
 20
0.0994374078263203
 10
19.56922673002048
 20
0.0958862312321927
 10
19.56821156230984
 20
0.0923646459666481
 10
19.56720549435918
 20
0.0888786857476456
 10
19.56620996072661
 20
0.0854342302445543
 10
19.56522628088771
 20
0.0820366431259583
 10
19.56425556413526
 20
0.0786904101074635
 10
19.56329861511369
 20
0.0753987806768279
 10
19.56235589405891
 20
0.0721636338516252
 10
19.56142759599723
 20
0.0689856723676012
 10
19.56051362566219
 20
0.0658642609166611
 10
19.55961352125148
 20
0.0627971964597256
 10
19.55872637769533
 20
0.0597804824615071
 10
19.55785076992472
 20
0.0568081031252978
 10
19.52669528625413
 20
-0.0569352245474244
 10
19.52607993867721
 20
-0.05942048535384
 10
19.5254243718868
 20
-0.0620046331730757
 10
19.5247597245963
 20
-0.0646193031817939
 10
19.52408539763659
 20
-0.0672663159129989
 10
19.52340110949819
 20
-0.0699464331938149
 10
19.52270682036597
 20
-0.0726596702562397
 10
19.52200265615379
 20
-0.0754056078478911
 10
19.52128884045732
 20
-0.0781836609541973
 10
19.52056574824371
 20
-0.0809927807109787
 10
19.51983400307373
 20
-0.0838310486985155
 10
19.51909442877084
 20
-0.0866958662518087
 10
19.51834797972031
 20
-0.0895842065951049
 10
19.51759567116976
 20
-0.0924928668844167
 10
19.51683850952965
 20
-0.0954187202500423
 10
19.51607742267382
 20
-0.0983589678390864
 10
19.51531330537356
 20
-0.1013109460958415
 10
19.5145477007002
 20
-0.1042694725670907
 10
19.51378217502928
 20
-0.1072292361474751
 10
19.51301789960779
 20
-0.1101864072613354
 10
19.51225570171888
 20
-0.1131384383785576
 10
19.51149611861415
 20
-0.1160838538513724
 10
19.51073945144598
 20
-0.1190220397511403
 10
19.50998581919984
 20
-0.1219530337051484
 10
19.50923521262654
 20
-0.1248773147333981
 10
19.50848754817458
 20
-0.1277955930853993
 10
19.50774272192243
 20
-0.1307086000769626
 10
19.50700066351086
 20
-0.1336168779269888
 10
19.5062613900752
 20
-0.1365205695942615
 10
19.50552506017764
 20
-0.1394192086142407
 10
19.5047920277396
 20
-0.142311508935852
 10
19.50406289597396
 20
-0.1451951547582784
 10
19.50333856351646
 20
-0.1480666209013286
 10
19.50261976196957
 20
-0.1509229841932544
 10
19.50190657639056
 20
-0.1537638039265925
 10
19.50119899887782
 20
-0.1565889595185057
 10
19.50049698895361
 20
-0.1593984180863455
 10
19.4998004736528
 20
-0.1621922379893004
 10
19.49910934761165
 20
-0.1649705723700361
 10
19.49842347315652
 20
-0.1677336726963441
 10
19.49774268039267
 20
-0.1704818923027904
 10
19.49706676729298
 20
-0.1732156899323547
 10
19.49639549978671
 20
-0.1759356332780833
 10
19.49572861184825
 20
-0.17864240252473
 10
19.49506580558591
 20
-0.181336793890404
 10
19.4944067513306
 20
-0.1840197231682143
 10
19.49375108772466
 20
-0.1866922292679192
 10
19.49309842181056
 20
-0.1893554777575677
 10
19.49244832911966
 20
-0.1920107644051452
 10
19.49180036461033
 20
-0.1946594733100948
 10
19.49115410935604
 20
-0.197302889573038
 10
19.49050916424726
 20
-0.1999422358965246
 10
19.48986514465286
 20
-0.2025786979181543
 10
19.48922168224227
 20
-0.2052134184436243
 10
19.48857842680751
 20
-0.207847491679777
 10
19.48793504808523
 20
-0.2104819574676435
 10
19.48729123757878
 20
-0.2131177955154948
 10
19.48664671038034
 20
-0.2157559196318868
 10
19.48600120699287
 20
-0.2183971719587054
 10
19.48535449515231
 20
-0.22104231720422
 10
19.48470637164951
 20
-0.2236920368761224
 10
19.48405666415238
 20
-0.2263469235145799
 10
19.48340523302794
 20
-0.2290074749252797
 10
19.48275197316435
 20
-0.2316740884124773
 10
19.48209681579306
 20
-0.2343470550120399
 10
19.48143972444954
 20
-0.2370265730327947
 10
19.48078067278654
 20
-0.2397128174205569
 10
19.48011965523953
 20
-0.2424058973592205
 10
19.47945669043778
 20
-0.245105843788151
 10
19.4787918185734
 20
-0.2478126179342004
 10
19.47812509877017
 20
-0.2505261198442383
 10
19.47745660645253
 20
-0.2532461969176962
 10
19.47678643071441
 20
-0.2559726524391044
 10
19.47611467168813
 20
-0.2587052541106285
 10
19.47544143791328
 20
-0.2614437425846114
 10
19.47476684370567
 20
-0.2641878399961079
 10
19.47409100652614
 20
-0.266937258495429
 10
19.47341404434953
 20
-0.2696917087806732
 10
19.47273607303349
 20
-0.2724509086302715
 10
19.47205720368745
 20
-0.2752145914355246
 10
19.47137754004147
 20
-0.2779825147331367
 10
19.47069716498269
 20
-0.2807545185990667
 10
19.4700161028894
 20
-0.2835306942844573
 10
19.46933436707283
 20
-0.2863111617948091
 10
19.46865197676838
 20
-0.2890959917655982
 10
19.46796895632025
 20
-0.2918852099427047
 10
19.46728533436255
 20
-0.2946788016789092
 10
19.46660114300041
 20
-0.2974767164303813
 10
19.46591641699113
 20
-0.3002788722531697
 10
19.46523119292528
 20
-0.3030851602996929
 10
19.46454550840786
 20
-0.305895449315229
 10
19.46385940123933
 20
-0.3087095901344075
 10
19.46317290859687
 20
-0.3115274201776987
 10
19.46248606621538
 20
-0.314348767947906
 10
19.4617989075687
 20
-0.3171734575266525
 10
19.46111146305065
 20
-0.3200013130708754
 10
19.46042375915623
 20
-0.3228321633093136
 10
19.45973581766267
 20
-0.3256658460390023
 10
19.4590476548106
 20
-0.328502212621756
 10
19.45835928048518
 20
-0.3313411324806683
 10
19.45767069739719
 20
-0.3341824975965952
 10
19.45698190026417
 20
-0.3370262270046469
 10
19.45629287499154
 20
-0.3398722712906821
 10
19.45560359785373
 20
-0.3427206170877941
 10
19.4549140346753
 20
-0.345571291572802
 10
19.45422414001206
 20
-0.3484243669627434
 10
19.45353385633221
 20
-0.3512799650113632
 10
19.45284311319741
 20
-0.3541382615056037
 10
19.45215182644399
 20
-0.3569994907620968
 10
19.45145989736398
 20
-0.3598639501236516
 10
19.45076721188632
 20
-0.3627320044557472
 10
19.45007363975792
 20
-0.3656040906430231
 10
19.44937903372675
 20
-0.3684807220777833
 10
19.4486832529015
 20
-0.3713623944198314
 10
19.44798623336462
 20
-0.3742493000407228
 10
19.44728793969314
 20
-0.3771415288573312
 10
19.44658834820506
 20
-0.3800391363410469
 10
19.44588744623453
 20
-0.3829421456503335
 10
19.44518523140704
 20
-0.3858505497632798
 10
19.44448171091456
 20
-0.3887643136101557
 10
19.44377690079081
 20
-0.3916833762059619
 10
19.44307082518637
 20
-0.3946076527829865
 10
19.4423635156439
 20
-0.3975370369233548
 10
19.44165501037327
 20
-0.400471402691589
 10
19.44094535352686
 20
-0.4034106067671539
 10
19.44023459447461
 20
-0.4063544905770158
 10
19.43952278707929
 20
-0.4093028824281939
 10
19.43880998897165
 20
-0.4122555996403153
 10
19.43809626082564
 20
-0.4152124506781645
 10
19.43738166563352
 20
-0.4181732372842415
 10
19.43666626798113
 20
-0.4211377566113132
 10
19.43595013332301
 20
-0.4241058033549649
 10
19.43523332725763
 20
-0.4270771718861587
 10
19.43451591480254
 20
-0.4300516583837802
 10
19.43379795966956
 20
-0.4330290629671998
 10
19.43307952353999
 20
-0.4360091918288182
 10
19.43236066533976
 20
-0.4389918593666249
 10
19.43164144051464
 20
-0.4419768903167516
 10
19.43092190030539
 20
-0.444964121886021
 10
19.430202091023
 20
-0.4479534058845074
 10
19.42948205332383
 20
-0.4509446108580839
 10
19.42876182148477
 20
-0.453937624220978
 10
19.42804142267852
 20
-0.456932354388326
 10
19.42732087624866
 20
-0.4599287329087254
 10
19.42660019298491
 20
-0.4629267165967879
 10
19.4258793748597
 20
-0.4659262878351714
 10
19.42515842454695
 20
-0.4689274164882963
 10
19.42443734848983
 20
-0.4719300490685053
 10
19.42371614972042
 20
-0.4749341382815091
 10
19.42299482773584
 20
-0.4779396440688636
 10
19.42227337871358
 20
-0.4809465332935501
 10
19.42155179572685
 20
-0.4839547794255561
 10
19.42083006895991
 20
-0.4869643622274502
 10
19.42010818592344
 20
-0.4899752674399638
 10
19.41938613166982
 20
-0.4929874864675672
 10
19.41866388900857
 20
-0.4960010160640504
 10
19.41794143872158
 20
-0.4990158580181002
 10
19.41721875977853
 20
-0.5020320188388823
 10
19.41649582955222
 20
-0.5050495094416148
 10
19.41577262403386
 20
-0.5080683448331503
 10
19.41504911804848
 20
-0.5110885437975528
 10
19.41432528547025
 20
-0.5141101285816792
 10
19.41360109943778
 20
-0.5171331245807558
 10
19.4128765325695
 20
-0.5201575600239563
 10
19.41215155717901
 20
-0.5231834656599812
 10
19.41142614549042
 20
-0.5262108744426383
 10
19.41070026985364
 20
-0.5292398212164189
 10
19.40997390295978
 20
-0.5322703424020787
 10
19.40924701805649
 20
-0.5353024756822125
 10
19.40851958916323
 20
-0.5383362596868393
 10
19.40779159128673
 20
-0.5413717336789743
 10
19.40706300063621
 20
-0.5444089372402116
 10
19.40633379483882
 20
-0.5474479099563033
 10
19.40560395315489
 20
-0.5504886911027338
 10
19.40487345669338
 20
-0.5535313193303049
 10
19.4041422886271
 20
-0.5565758323507081
 10
19.40341043440817
 20
-0.5596222666221076
 10
19.40267788198326
 20
-0.562670657034718
 10
19.40194462200878
 20
-0.5657210365964929
 10
19.40121064791709
 20
-0.5687734360128154
 10
19.40047595623911
 20
-0.5718278817466143
 10
19.39974054763911
 20
-0.5748843941392848
 10
19.39900442711253
 20
-0.5779429873103698
 10
19.39826760404311
 20
-0.5810036692306248
 10
19.39753009226009
 20
-0.5840664417950717
 10
19.3967919100954
 20
-0.5871313008960657
 10
19.39605308044079
 20
-0.5901982364963505
 10
19.39531363080502
 20
-0.5932672327021207
 10
19.39457359337108
 20
-0.5963382678360834
 10
19.39383300505332
 20
-0.5994113145105155
 10
19.39309190755459
 20
-0.6024863397003282
 10
19.39235034742351
 20
-0.6055633048161245
 10
19.39160837611155
 20
-0.6086421657772574
 10
19.39086605003031
 20
-0.6117228730848982
 10
19.39012343060855
 20
-0.6148053718950868
 10
19.38938058434384
 20
-0.6178896021007329
 10
19.38863758117206
 20
-0.6209755004731738
 10
19.38789449021176
 20
-0.624063002881421
 10
19.38715137957654
 20
-0.6271520407421578
 10
19.38640831481652
 20
-0.6302425425372081
 10
19.38566535697276
 20
-0.6333344361282141
 10
19.38492256063157
 20
-0.6364276510713111
 10
19.38417997197891
 20
-0.6395221209318036
 10
19.38343762685471
 20
-0.6426177855988442
 10
19.38269554880728
 20
-0.6457145936001068
 10
19.38195374714762
 20
-0.6488125044164619
 10
19.38121221500386
 20
-0.6519114907966577
 10
19.38047092737551
 20
-0.6550115410719908
 10
19.37972983918792
 20
-0.6581126614709874
 10
19.37898888334658
 20
-0.6612148784340742
 10
19.37824796879153
 20
-0.6643182409282602
 10
19.37750697855168
 20
-0.6674228227618082
 10
19.37676576773961
 20
-0.6705287251998442
 10
19.3760241572398
 20
-0.6736361058597585
 10
19.37528193940554
 20
-0.676745176413327
 10
19.37453889821394
 20
-0.6798561304384238
 10
19.373794813804
 20
-0.6829691372146521
 10
19.37304946538557
 20
-0.6860843430060122
 10
19.37230263414835
 20
-0.6892018723435715
 10
19.37155410617083
 20
-0.6923218293081295
 10
19.37080367532933
 20
-0.6954442988128911
 10
19.37005114620694
 20
-0.6985693478861263
 10
19.36929633700247
 20
-0.7016970269538483
 10
19.3685390824395
 20
-0.7048273711224731
 10
19.36777923667527
 20
-0.7079604014614925
 10
19.36701667620978
 20
-0.7110961262861402
 10
19.36625130279462
 20
-0.7142345424400621
 10
19.36548304634209
 20
-0.717375636577982
 10
19.36471186783407
 20
-0.7205193864483688
 10
19.36393776223104
 20
-0.7236657621761085
 10
19.36316076364416
 20
-0.726814717785345
 10
19.36238095368308
 20
-0.7299661591827116
 10
19.36159845117067
 20
-0.7331199724179518
 10
19.36081340595703
 20
-0.7362760355789117
 10
19.36002599540651
 20
-0.7394342203782101
 10
19.35923642088459
 20
-0.7425943937398582
 10
19.35844490424489
 20
-0.7457564193858702
 10
19.35765168431609
 20
-0.7489201594228865
 10
19.35685701338885
 20
-0.7520854759287836
 10
19.35606115370282
 20
-0.7552522325392969
 10
19.35526437393356
 20
-0.7584202960346316
 10
19.35446694567947
 20
-0.7615895379260822
 10
19.35366913994878
 20
-0.7647598360426501
 10
19.35287122364646
 20
-0.7679310761176536
 10
19.35207345606121
 20
-0.7711031533753543
 10
19.35127608535237
 20
-0.7742759741175656
 10
19.3504793450369
 20
-0.7774494573102704
 10
19.34968351179881
 20
-0.780623292260553
 10
19.34888939769585
 20
-0.7837949644702249
 10
19.34809787953791
 20
-0.7869616065847067
 10
19.34730950570593
 20
-0.7901215559562989
 10
19.34652453310821
 20
-0.7932742059267559
 10
19.34574296932172
 20
-0.7964198365134747
 10
19.34496461473331
 20
-0.7995594450956709
 10
19.34418910468098
 20
-0.8026945771005625
 10
19.34341595159518
 20
-0.805827156689549
 10
19.34264458714
 20
-0.8089593174443923
 10
19.34187440435447
 20
-0.8120932330533987
 10
19.3411047997938
 20
-0.8152309479975992
 10
19.34033521567068
 20
-0.8183742082369318
 10
19.33956518199647
 20
-0.8215242918964198
 10
19.3387943587225
 20
-0.8246818399523537
 10
19.33802257788133
 20
-0.8278466869184757
 10
19.33724988572801
 20
-0.8310176915321534
 10
19.33647658484087
 20
-0.8341925676081647
 10
19.33570303711062
 20
-0.8373687067492896
 10
19.33492901405174
 20
-0.8405458861554944
 10
19.33415414776824
 20
-0.8437244180894436
 10
19.33337807643502
 20
-0.8469045596758506
 10
19.33260044625643
 20
-0.8500865169248886
 10
19.33182091342482
 20
-0.8532704487556053
 10
19.3310391460791
 20
-0.856456471019335
 10
19.33025482626331
 20
-0.8596446605231147
 10
19.32946765188517
 20
-0.8628350590530898
 10
19.32867733867459
 20
-0.8660276773979367
 10
19.32788362214234
 20
-0.8692224993722675
 10
19.32708625953845
 20
-0.8724194858400471
 10
19.3262850318109
 20
-0.8756185787380044
 10
19.32547974556412
 20
-0.8788197050990492
 10
19.32467023501753
 20
-0.8820227810756795
 10
19.32385636396413
 20
-0.8852277159633983
 10
19.32303802772904
 20
-0.8884344162241236
 10
19.32221515359894
 20
-0.8916427948056576
 10
19.321387680981
 20
-0.8948528465209131
 10
19.32055558303017
 20
-0.8980645633232676
 10
19.31971889234691
 20
-0.9012778361125928
 10
19.31887769541246
 20
-0.9044924686971953
 10
19.31803212605968
 20
-0.9077081951731882
 10
19.31718235894388
 20
-0.9109246973038612
 10
19.31632860301367
 20
-0.9141416218990512
 10
19.31547109498177
 20
-0.9173585981945107
 10
19.31461009279584
 20
-0.9205752552312807
 10
19.31374586910932
 20
-0.9237912392350587
 10
19.31287870475228
 20
-0.9270062309955696
 10
19.3120088822022
 20
-0.9302199632459393
 10
19.31113667905486
 20
-0.9334322380420575
 10
19.31026236149514
 20
-0.9366429441419571
 10
19.30938617776785
 20
-0.939852074385177
 10
19.30850835164859
 20
-0.9430597430721359
 10
19.3076290759186
 20
-0.946266203328002
 10
19.30674852822688
 20
-0.949471779265564
 10
19.30586693458104
 20
-0.9526766203253583
 10
19.30498453451599
 20
-0.9558808329283907
 10
19.30410156789187
 20
-0.9590845263620479
 10
19.30321827393709
 20
-0.96228781152241
 10
19.30233489029125
 20
-0.9654907996565532
 10
19.30145165204817
 20
-0.9686936011048628
 10
19.30056879079881
 20
-0.971896324043338
 10
19.2996865336743
 20
-0.9750990732259019
 10
19.29880510238892
 20
-0.978301948726707
 10
19.29792471228303
 20
-0.981505044682448
 10
19.29704557136609
 20
-0.9847084480346648
 10
18.22511628625413
 20
-0.9457902245474024
 10
18.18566028625413
 20
-0.9448202245474071
 10
18.02553128625414
 20
-0.9404082245474052
 10
17.81224828625415
 20
-0.9329322245474084
 10
17.77813128625413
 20
-0.8988162245474249
 42
0.198874849027054
 10
17.66028028625414
 20
-0.8500002245474247
 10
16.53183228625415
 20
-0.8500002245474085
 10
15.77375928625412
 20
-0.8500002245474085
 10
14.32132828625413
 20
-0.8500002245474085
 10
9.912263286254136
 20
-0.8500002245474085
 10
5.50318228625415
 20
-0.8500002245474085
 10
4.050767286254147
 20
-0.8500002245474085
 10
3.292694286254125
 20
-0.8500002245474085
 10
2.164246286254133
 20
-0.8500002245474085
 42
0.1997835286380191
 10
2.046394920354114
 20
-0.8988158586474064
 10
2.012278286254149
 20
-0.9329322245474084
 10
1.798995286254131
 20
-0.9404082245474052
 10
1.638866286254148
 20
-0.9448202245474071
 10
1.599410286254148
 20
-0.9457902245474024
 10
0.0953372862541429
 20
-0.9999922245474062
 42
-0.139000854302903
 10
-0.0000004639711619
 20
-0.9766557125578668
 10
0.0012086040766093
 20
-0.9721882785057063
 10
0.0024165777379537
 20
-0.9677121702283047
 10
0.0036305270169734
 20
-0.9632154567351411
 10
0.0048492862009084
 20
-0.9587024877449435
 10
0.0060714908512267
 20
-0.9541783750655774
 10
0.0072956449769706
 20
-0.9496487459815874
 10
0.0085201882081449
 20
-0.9451194966417356
 10
0.0097435629690992
 20
-0.940596545446545
 10
0.0109642816518871
 20
-0.9360855864358379
 10
0.0121809937896345
 20
-0.9315918426762744
 10
0.0133925532299557
 20
-0.9271198196488974
 10
0.0145980853082719
 20
-0.9226730586366675
 10
0.0157970540212276
 20
-0.9182538901120064
 10
0.0169893292000438
 20
-0.9138631871243347
 10
0.0181752536839
 20
-0.9095001186876164
 10
0.0193557104933078
 20
-0.905161903167894
 10
0.0205321900034932
 20
-0.9008435616708315
 10
0.0217068570897183
 20
-0.8965376715324389
 10
0.022881768241966
 20
-0.8922372465984159
 10
0.0240565197770408
 20
-0.8879443691068278
 10
0.0252303362963176
 20
-0.8836624739102035
 10
0.0264027041119945
 20
-0.8793940106605262
 10
0.0275733464270758
 20
-0.8751405313138159
 10
0.0287421985154666
 20
-0.8709027776347069
 10
0.0299093829019412
 20
-0.8666807687010287
 10
0.0310751845422104
 20
-0.8624738884083853
 10
0.0322400260029312
 20
-0.8582809729747323
 10
0.0334044426417251
 20
-0.8541003984449622
 10
0.0345690577872375
 20
-0.8499301681954767
 10
0.0357345579191346
 20
-0.8457680004387729
 10
0.0369016678481344
 20
-0.8416114157280183
 10
0.0380711258960602
 20
-0.8374578244616326
 10
0.0392436590758294
 20
-0.8333046143878677
 10
0.0404199582715279
 20
-0.8291492381093839
 10
0.0416006534183922
 20
-0.8249893005878341
 10
0.0427862886828479
 20
-0.820822646648441
 10
0.0439772976425772
 20
-0.8166474484845752
 10
0.0451739784664795
 20
-0.8124622931623386
 10
0.0463764690947528
 20
-0.8082662701251397
 10
0.047584722418911
 20
-0.8040590586982776
 10
0.0487984814617804
 20
-0.7998410155935174
 10
0.0500172545575737
 20
-0.7956132624136716
 10
0.0512402905318794
 20
-0.7913777731571808
 10
0.0524665538817004
 20
-0.7871374617226925
 10
0.0536947261499066
 20
-0.7828961794986773
 10
0.05492389228435
 20
-0.7786563726517315
 10
0.0561537879262986
 20
-0.7744182844557637
 10
0.057384187260574
 20
-0.770182080121276
 10
0.0586148705478991
 20
-0.7659479601365346
 10
0.0598456261904943
 20
-0.7617161545611371
 10
0.0610762527975695
 20
-0.757486917319576
 10
0.0623065612509422
 20
-0.7532605204948048
 10
0.0635363767705926
 20
-0.7490372486217966
 10
0.0647655409801757
 20
-0.7448173929811155
 10
0.0659939139726475
 20
-0.7406012458924752
 10
0.0672213763757554
 20
-0.7363890950083052
 10
0.0684478314176644
 20
-0.732181217607316
 10
0.0696732069559616
 20
-0.7279778748636067
 10
0.0708974558617328
 20
-0.7237793018479515
 10
0.0721205530639964
 20
-0.7195856881604456
 10
0.0733424927193269
 20
-0.715397173413253
 10
0.0745632854276082
 20
-0.711213850232226
 10
0.075782955434164
 20
-0.707035767390437
 10
0.0770015378319116
 20
-0.7028629329417067
 10
0.0782190757635206
 20
-0.6986953173541403
 10
0.079435617623524
 20
-0.694532856643651
 10
0.0806512142604845
 20
-0.6903754555074971
 10
0.0818659161791544
 20
-0.686222990457809
 10
0.0830797707425859
 20
-0.6820753129551216
 10
0.084292819374312
 20
-0.6779322525419051
 10
0.0855050664051831
 20
-0.6737937155709313
 10
0.0867159773553965
 20
-0.6696613792841042
 10
0.0879246758346284
 20
-0.6655380596759663
 10
0.0891304946627614
 20
-0.6614258677797081
 10
0.0903329766537624
 20
-0.6573262081335596
 10
0.0915318546034669
 20
-0.6532398471125882
 10
0.0927270312772777
 20
-0.6491669812604953
 10
0.0939185593980128
 20
-0.645107305621413
 10
0.0951066216336045
 20
-0.6410600820716983
 10
0.0962915105848978
 20
-0.6370242076517371
 10
0.0974736087734058
 20
-0.6329982828977334
 10
0.0986533686290727
 20
-0.6289806801735134
 10
0.0998312924780365
 20
-0.6249696120023148
 10
0.1010079125304131
 20
-0.6209631993985916
 10
0.1021837708680238
 20
-0.6169595401998063
 10
0.1033593994321933
 20
-0.6129567773982272
 10
0.1045353000115128
 20
-0.6089531674727287
 10
0.105711924229567
 20
-0.6049471487205828
 10
0.106889653532761
 20
-0.600937409589263
 10
0.1080687791780193
 20
-0.5969229570082347
 10
0.1092494822205978
 20
-0.5929031847207558
 10
0.1104318135018332
 20
-0.5888779416156745
 10
0.1116156736368907
 20
-0.5848476000592237
 10
0.1128007930025632
 20
-0.5808131242268182
 10
0.1139867117250048
 20
-0.5767761384348554
 10
0.1151727596675229
 20
-0.5727389954725073
 10
0.1163580804491744
 20
-0.5687046939456401
 10
0.117542257378517
 20
-0.5646747298109425
 10
0.1187253071830483
 20
-0.5606491113691634
 10
0.1199072581913398
 20
-0.5566278033463572
 10
0.1210881385081635
 20
-0.5526107672119416
 10
0.1222679756508569
 20
-0.5485979622206134
 10
0.1234467961857391
 20
-0.5445893464542575
 10
0.1246246253644685
 20
-0.5405848778638696
 10
0.1258014867604658
 20
-0.5365845153114625
 10
0.1269774019052932
 20
-0.5325882196119843
 10
0.1281523899250132
 20
-0.528595954575235
 10
0.1293264671766323
 20
-0.5246076880477766
 10
0.1304996468844308
 20
-0.5206233929548496
 10
0.1316719387764067
 20
-0.5166430483422868
 10
0.1328433487206198
 20
-0.5126666404184288
 10
0.1340138783615998
 20
-0.5086941635960374
 10
0.1351835247567408
 20
-0.5047256215342105
 10
0.1363522800126944
 20
-0.5007610281802961
 10
0.1375201309217289
 20
-0.496800408811809
 10
0.1386870585981512
 20
-0.4928438010783385
 10
0.1398530381146656
 20
-0.4888912560434715
 10
0.1410180381388031
 20
-0.4849428392267038
 10
0.1421820205692654
 20
-0.4809986316453482
 10
0.143344940172355
 20
-0.4770587308564604
 10
0.1445067442183188
 20
-0.473123251998744
 10
0.1456673721205561
 20
-0.4691923288239074
 10
0.1468267589240639
 20
-0.4652661006082754
 10
0.147984839975706
 20
-0.4613446989877021
 10
0.1491415381362344
 20
-0.4574283011971084
 10
0.1502967627826308
 20
-0.4535171349643107
 10
0.1514504115208837
 20
-0.4496114728030456
 10
0.1526023718987446
 20
-0.4457116263059985
 10
0.1537525231185555
 20
-0.4418179404378293
 10
0.154900737750026
 20
-0.4379307878282015
 10
0.1560468834429969
 20
-0.4340505630648055
 10
0.1571908246402742
 20
-0.4301776769863901
 10
0.1583324242903643
 20
-0.4263125509757863
 10
0.159471545560308
 20
-0.4224556112529358
 10
0.1606080535484367
 20
-0.4186072831679173
 10
0.1617418169971785
 20
-0.414767985493973
 10
0.1628727100058498
 20
-0.4109381247205377
 10
0.1640006137434184
 20
-0.4071180893462645
 10
0.1651254181613169
 20
-0.4033082441720497
 10
0.1662470237062124
 20
-0.3995089245940635
 10
0.167365343032813
 20
-0.395720430896775
 10
0.1684803027166453
 20
-0.3919430225459788
 10
0.1695918449668312
 20
-0.3881769124818248
 10
0.1706999293389089
 20
-0.3844222614118404
 10
0.1718045344475811
 20
-0.3806791721039619
 10
0.1729056596795289
 20
-0.3769476836795595
 10
0.1740033269061953
 20
-0.3732277659064644
 10
0.1750976078625328
 20
-0.3695192272492767
 10
0.1761887643791553
 20
-0.365821236952252
 10
0.1772770912270616
 20
-0.3621328368276444
 10
0.178362825662866
 20
-0.3584532428436455
 10
0.1794461515407022
 20
-0.3547818329501791
 10
0.1805272038146626
 20
-0.3511181336011635
 10
0.1816060730412303
 20
-0.3474618062767742
 10
0.1826828098816833
 20
-0.3438126340057028
 10
0.1837574296045545
 20
-0.3401705078874242
 10
0.1848299165880434
 20
-0.3365354136144543
 10
0.1859002288224332
 20
-0.3329074179946163
 10
0.1869683024125379
 20
-0.3292866554733003
 10
0.1880340560801343
 20
-0.3256733146557238
 10
0.1890973956663657
 20
-0.3220676248291987
 10
0.1901582186341954
 20
-0.3184698424853902
 10
0.1912164185708107
 20
-0.3148802378425808
 10
0.1922718896900832
 20
-0.3112990813679293
 10
0.1933245313349658
 20
-0.3077266302997366
 10
0.194374252479939
 20
-0.3041631151697084
 10
0.1954209762334216
 20
-0.300608726325212
 10
0.1964646443402316
 20
-0.297063600451545
 10
0.1975052216839756
 20
-0.2935278070941933
 10
0.1985427007895168
 20
-0.2900013351810955
 10
0.19957710632535
 20
-0.2864840795449037
 10
0.2006084996060977
 20
-0.2829758274452469
 10
0.2016369774822735
 20
-0.2794762643330326
 10
0.2026625473685328
 20
-0.2759854051699593
 10
0.2036850944329345
 20
-0.2725037114251663
 10
0.2047044890853868
 20
-0.2690317219634934
 10
0.2057205975434257
 20
-0.2655700138594685
 10
0.2067332874861947
 20
-0.2621191800079918
 10
0.2077424337084892
 20
-0.2586798067350218
 10
0.20874792377478
 20
-0.2552524514082624
 10
0.2097496636732359
 20
-0.2518376200478487
 10
0.2107475834697325
 20
-0.2484357449370327
 10
0.2117416429619112
 20
-0.2450471622328685
 10
0.212731837333159
 20
-0.2416720895769036
 10
0.2137182028066675
 20
-0.2383106037058562
 10
0.2147008213404078
 20
-0.2349626218388314
 10
0.2156798087265344
 20
-0.2316279432579353
 10
0.2166553173649532
 20
-0.2283062174635102
 10
0.2176275490498014
 20
-0.2249968840575303
 10
0.2185967529315391
 20
-0.2216991784668334
 10
0.2195632229411757
 20
-0.2184121399099199
 10
0.2205272952145378
 20
-0.2151346193637451
 10
0.2214893455165736
 20
-0.2118652875305136
 10
0.2224497866655639
 20
-0.2086026428044736
 10
0.2234090659574264
 20
-0.2053450192387105
 10
0.2243676625899837
 20
-0.2020905945119402
 10
0.2253260850871968
 20
-0.1988373978953062
 10
0.2262848687234822
 20
-0.1955833182191719
 10
0.227244553961377
 20
-0.1923261772735829
 10
0.2282054185175042
 20
-0.1890646570286458
 10
0.2291675785328664
 20
-0.1857979694642058
 10
0.230131221711396
 20
-0.1825250646564314
 10
0.2310966008868363
 20
-0.1792446593157733
 10
0.2320640209225431
 20
-0.1759552882281294
 10
0.2330338256113436
 20
-0.1726553556960075
 10
0.2340063845752809
 20
-0.1693431869796926
 10
0.2349820801654587
 20
-0.1660170797384071
 10
0.2359612943618501
 20
-0.1626753554714799
 10
0.2369443956730706
 20
-0.1593164109595051
 10
0.2379317260362228
 20
-0.1559387697055108
 10
0.238923587716684
 20
-0.1525411333761202
 10
0.2399202302079146
 20
-0.1491224332427192
 10
0.2409218371312747
 20
-0.1456818816226173
 10
0.241928513135818
 20
-0.1422190233202141
 10
0.2429402707981083
 20
-0.1387337870681602
 10
0.2439570175220211
 20
-0.1352265369685277
 10
0.2449785424385524
 20
-0.1316981239339681
 10
0.2460045033056204
 20
-0.128149937128879
 10
0.2470344134078957
 20
-0.1245839554105697
 10
0.2480676284565675
 20
-0.121002798770423
 10
0.2491033334891952
 20
-0.1174097797750617
 10
0.2501405297694745
 20
-0.113808955007511
 10
0.2511780216870747
 20
-0.1102051765083631
 10
0.2522144036574332
 20
-0.1066041432169422
 10
0.2532480470215646
 20
-0.103012452412468
 10
0.2542771045839132
 20
-0.0994375866680475
 10
0.2552999159390694
 20
-0.0958864155792636
 10
0.2563150820711257
 20
-0.09236483583833
 10
0.2573211484472111
 20
-0.0888788811323806
 10
0.2583166805162733
 20
-0.0854344311010893
 10
0.2593003588092486
 20
-0.0820368493853945
 10
0.26027107403916
 20
-0.0786906216762207
 10
0.2612280215664455
 20
-0.0753989974403178
 10
0.2621707411596077
 20
-0.0721638556767932
 10
0.2630990377968914
 20
-0.0689858991045718
 10
0.2640130067490531
 20
-0.0658644924002259
 10
0.2649131098208315
 20
-0.0627974325164962
 10
0.2658002520810498
 20
-0.0597807229233993
 10
0.2666758585927269
 20
-0.0568083478493344
 10
0.2978342862541368
 20
0.0569477754525911
 10
0.2984466896340336
 20
0.0594202402234254
 10
0.2991022562840442
 20
0.062004387496942
 10
0.2997669034306511
 20
0.0646190569492058
 10
0.30044123024269
 20
0.067266069112379
 10
0.3011255182295685
 20
0.0699461858137172
 10
0.3018198072065559
 20
0.0726594222859358
 10
0.3025239712600936
 20
0.0754053592775881
 10
0.3032377867947389
 20
0.0781834117749751
 10
0.303960878843796
 20
0.0809925309152142
 10
0.3046926238470107
 20
0.083830798280288
 10
0.3054321979815384
 20
0.0866956152070229
 10
0.3061786468626906
 20
0.0895839549214683
 10
0.3069309552434376
 20
0.0924926145812766
 10
0.3076881167137913
 20
0.0954184673180763
 10
0.3084492034003077
 20
0.098358714279847
 10
0.3092133205326917
 20
0.1013106919143958
 10
0.3099789250423299
 20
0.1042692177782314
 10
0.3107444505543455
 20
0.1072289807683298
 10
0.3115087258214544
 20
0.1101861513074427
 10
0.3122709235594812
 20
0.1131381818610802
 10
0.3130305065152754
 20
0.1160835967752432
 10
0.3137871735346849
 20
0.1190217821141477
 10
0.3145408056304788
 20
0.1219527754979559
 10
0.3152914120502714
 20
0.1248770559405061
 10
0.3160390763444738
 20
0.1277953336870361
 10
0.3167839024342527
 20
0.1307083400519184
 10
0.3175259606794256
 20
0.133616617256382
 10
0.3182652339464411
 20
0.1365203082662472
 10
0.3190015636762951
 20
0.1394189466296476
 10
0.3197345959524611
 20
0.1423112463147653
 10
0.320463727568864
 20
0.1451948915475549
 10
0.3211880598971533
 20
0.148066357176968
 10
0.321906861321736
 20
0.1509227199802661
 10
0.3226200467797327
 20
0.1537635392282564
 10
0.3233276241727196
 20
0.1565886943383186
 10
0.3240296339784265
 20
0.1593981524281487
 10
0.3247261491619895
 20
0.1621919718573084
 10
0.3254172750871334
 20
0.1649703057687857
 10
0.3261031494274391
 20
0.1677334056305444
 10
0.3267839420775473
 20
0.1704816247770857
 10
0.3274598550643901
 20
0.1732154219509967
 10
0.3281311224584158
 20
0.1759353648445101
 10
0.3287980102848138
 20
0.1786421336410582
 10
0.3294608164347323
 20
0.1813365245568272
 10
0.3301198705765245
 20
0.1840194533823149
 10
0.3307755340669587
 20
0.1866919590238805
 10
0.3314281998624367
 20
0.189355207045307
 10
0.3320782924302463
 20
0.1920104932093487
 10
0.3327262568119309
 20
0.1946592016153845
 10
0.3333725119351882
 20
0.1973026173688375
 10
0.3340174569098835
 20
0.1999419631732309
 10
0.334661476367252
 20
0.2025784246666618
 10
0.3353049386379183
 20
0.2052131446549472
 10
0.3359481939298377
 20
0.2078472173447716
 10
0.3365915725062791
 20
0.2104816825768268
 10
0.33723538286376
 20
0.2131175200589626
 10
0.3378799099100362
 20
0.2157556435993326
 10
0.3385254131420865
 20
0.2183968953395325
 10
0.3391721248240245
 20
0.2210420399877533
 10
0.3398202481651111
 20
0.2236917590519223
 10
0.34046995549771
 20
0.2263466450728506
 10
0.3411213864552423
 20
0.2290071958573767
 10
0.3417746461501636
 20
0.2316738087115118
 10
0.3424298033519122
 20
0.2343467746735861
 10
0.3430868945249728
 20
0.237026292051957
 10
0.3437459460161421
 20
0.2397125357908214
 10
0.344406963390476
 20
0.2424056150759828
 10
0.3450699280192353
 20
0.2451055608486365
 10
0.3457347997108044
 20
0.2478123343373353
 10
0.346401519341839
 20
0.2505258355904942
 10
0.3470700114882987
 20
0.2532459120088921
 10
0.3477401870566084
 20
0.2559723668781766
 10
0.3484119459147053
 20
0.2587049679013633
 10
0.349085179523172
 20
0.2614434557313441
 10
0.3497597735663191
 20
0.264187552503385
 10
0.3504356105832826
 20
0.266936970367631
 10
0.3511125725991278
 20
0.2696914200216094
 10
0.3517905437559463
 20
0.2724506192427327
 10
0.3524694129439396
 20
0.2752143014208004
 10
0.3531490764325511
 20
0.2779822240905014
 10
0.3538294513308742
 20
0.2807542273111583
 10
0.3545105132554127
 20
0.2835304023113982
 10
0.3551922488937009
 20
0.2863108690925511
 10
0.3558746390095919
 20
0.2890956982879631
 10
0.3565576592586268
 20
0.2918849156431848
 10
0.3572412810068499
 20
0.294678506512283
 10
0.3579254721496383
 20
0.2974764203541422
 10
0.3586101979305241
 20
0.3002785752287718
 10
0.3592954217600379
 20
0.3030848622936144
 10
0.3599811060345459
 20
0.3058951502998504
 10
0.3606672129550645
 20
0.3087092900887063
 10
0.3613537053461044
 20
0.3115271190877582
 10
0.3620405474744786
 20
0.314348465807238
 10
0.3627277058681599
 20
0.3171731543363432
 10
0.3634151501351113
 20
0.3200010088395402
 10
0.3641028537820929
 20
0.3228318580528704
 10
0.3647907950335067
 20
0.3256655397802595
 10
0.3654789576502253
 20
0.3285019053898193
 10
0.3661673317484357
 20
0.331340824310157
 10
0.3668559146184549
 20
0.3341821885266816
 10
0.3675447115435588
 20
0.3370259170779102
 10
0.3682337366188193
 20
0.3398719605517702
 10
0.3689230135699333
 20
0.3427203055819108
 10
0.3696125765720737
 20
0.3455709793440089
 10
0.3703024710686691
 20
0.3484240540520709
 10
0.3709927545902829
 20
0.3512796514547425
 10
0.3716834975734429
 20
0.3541379473316164
 10
0.3723747841794278
 20
0.3569991759895332
 10
0.373066713113154
 20
0.3598636347588942
 10
0.3737593984419476
 20
0.3627316884899612
 10
0.3744529704144455
 20
0.365603774049168
 10
0.3751475762774277
 20
0.3684804048074994
 10
0.3758433569253512
 20
0.3713620764376566
 10
0.3765403762818593
 20
0.3742489813357963
 10
0.3772386697704277
 20
0.3771412094204605
 10
0.3779382610735595
 20
0.3800388161647117
 10
0.3786391628576027
 20
0.3829418247286691
 10
0.3793413774975676
 20
0.3858502280920541
 10
0.3800448978019304
 20
0.3887639911867299
 10
0.3807497077374435
 20
0.3916830530292481
 10
0.3814557831539602
 20
0.3946073288533851
 10
0.3821630925092378
 20
0.3975367122426867
 10
0.3828715975937626
 20
0.4004710772630127
 10
0.383581254255553
 20
0.4034102805950738
 10
0.3842920131249698
 20
0.4063541636669781
 10
0.3850038203395414
 20
0.4093025547867726
 10
0.3857166182687663
 20
0.4122552712749812
 10
0.3864303462389245
 20
0.4152121215971524
 10
0.3871449412579153
 20
0.4181729074963985
 10
0.3878603387400261
 20
0.4211374261259371
 10
0.3885764732307848
 20
0.4241054721816342
 10
0.3892932791317634
 20
0.4270768400345474
 10
0.3900106914253739
 20
0.4300513258634659
 10
0.3907286463997082
 20
0.4330287297874529
 10
0.3914470823733183
 20
0.4360088579983892
 10
0.3921659404200639
 20
0.4389915248935142
 10
0.3928851650939079
 20
0.4419765552079691
 10
0.3936047051537201
 20
0.4449637861473346
 10
0.3943245142881153
 20
0.4479530695201809
 10
0.3950445518402432
 20
0.4509442738706018
 10
0.3957647835326199
 20
0.4539372866107625
 10
0.3964851821919168
 20
0.4569320161534379
 10
0.3972057284738
 20
0.4599283940445578
 10
0.3979264115877399
 20
0.4629263770957463
 10
0.3986472295608436
 20
0.4659259476880955
 10
0.3993681797210158
 20
0.4689270756936426
 10
0.4000892556253959
 20
0.4719297076261615
 10
0.4008104542418566
 20
0.4749337961914116
 10
0.4015317760732417
 20
0.4779393013309817
 10
0.4022532249420081
 20
0.4809461899078721
 10
0.4029748077749036
 20
0.4839544353920699
 10
0.4036965343875992
 20
0.4869640175461323
 10
0.4044184172693904
 20
0.4899749221107649
 10
0.4051404713678153
 20
0.4929871404904011
 10
0.405862713873333
 20
0.4960006694387788
 10
0.4065851640039785
 20
0.499015510744524
 10
0.4073078427900187
 20
0.5020316709167281
 10
0.4080307728586237
 20
0.5050491608705264
 10
0.4087539782185134
 20
0.5080679956126799
 10
0.4094774840446222
 20
0.5110881939271526
 10
0.4102013164627536
 20
0.514109778060691
 10
0.4109255023342442
 20
0.5171327734084051
 10
0.4116500690406113
 20
0.5201572081993469
 10
0.4123750442682379
 20
0.5231831131820881
 10
0.4131004557929927
 20
0.5262105213103033
 10
0.4138263312649288
 20
0.5292394674283445
 10
0.4145526979929173
 20
0.5322699879568252
 10
0.4152795827293121
 20
0.5353021205781971
 10
0.4160070114546174
 20
0.5383359039223281
 10
0.4167350091621387
 20
0.5413713772520881
 10
0.4174635996426306
 20
0.5444085801489189
 10
0.4181928052689872
 20
0.547447552198423
 10
0.4189226467808639
 20
0.5504883326759346
 10
0.4196531430693682
 20
0.5535309602321057
 10
0.4203843109617015
 20
0.5565754725784819
 10
0.4211161650058133
 20
0.5596219061730823
 10
0.4218487172550738
 20
0.5626702959059795
 10
0.4225819770531487
 20
0.5657206747849905
 10
0.4233159509677054
 20
0.5687730735154961
 10
0.4240506424681101
 20
0.5718275185610091
 10
0.4247860508904254
 20
0.5748840302635747
 10
0.4255221712394929
 20
0.5779426227432989
 10
0.4262589941317927
 20
0.5810033039714188
 10
0.4269965057382592
 20
0.5840660758433672
 10
0.4277346877271527
 20
0.5871309342518405
 10
0.4284735172068467
 20
0.5901978691598684
 10
0.4292129666687007
 20
0.5932668646738783
 10
0.4299530039298747
 20
0.5963378991167652
 10
0.4306935920761961
 20
0.5994109451009555
 10
0.4314346894049521
 20
0.6024859696014815
 10
0.4321762493677427
 20
0.60556293402904
 10
0.4329182205133435
 20
0.6086417943030673
 10
0.4336605464305097
 20
0.6117225009248024
 10
0.4344031656908032
 20
0.6148049990503548
 10
0.4351460117970948
 20
0.6178892285726736
 10
0.4358890148131638
 20
0.6209751262621916
 10
0.4366321056201983
 20
0.6240626279881205
 10
0.4373752161046486
 20
0.6271516651679338
 10
0.4381182807163884
 20
0.6302421662841198
 10
0.4388612384143046
 20
0.6333340591988411
 10
0.4396040346119749
 20
0.6364272734685939
 10
0.4403466231232187
 20
0.6395217426588689
 10
0.441088968107785
 20
0.642617406658813
 10
0.4418310460169296
 20
0.6457142139958858
 10
0.4425728475390616
 20
0.6488121241505233
 10
0.4433143795453704
 20
0.6519111098707972
 10
0.4440556670354284
 20
0.6550111594870735
 10
0.4447967550828196
 20
0.6581122792266765
 10
0.4455377107807763
 20
0.6612144955285455
 10
0.4462786251877874
 20
0.6643178573578963
 10
0.4470196152732342
 20
0.6674224385208804
 10
0.4477608259224155
 20
0.6705283402793471
 10
0.4485024362466489
 20
0.6736357202356738
 10
0.4492446538932242
 20
0.6767447900659464
 10
0.4499876948868149
 20
0.6798557433578054
 10
0.4507317790897434
 20
0.6829687493982437
 10
0.4514771272930746
 20
0.6860839544565165
 10
0.4522239583076911
 20
0.6892014830670448
 10
0.4529724860554083
 20
0.6923214393123242
 10
0.4537229166600343
 20
0.6954439081058288
 10
0.4544754455384778
 20
0.6985689564749224
 10
0.4552302544918235
 20
0.7016966348437608
 10
0.4559875087964258
 20
0.7048269783161995
 10
0.4567473542950041
 20
0.7079600079587012
 10
0.4575099144877158
 20
0.7110957320832451
 10
0.4582752876232449
 20
0.7142341475302258
 10
0.4590435437899246
 20
0.717375240951368
 10
0.4598147220067689
 20
0.7205189900926287
 10
0.4605888273146094
 20
0.7236653650771059
 10
0.4613658256058529
 20
0.7268143199355759
 10
0.4621456352738849
 20
0.7299657605812059
 10
0.4629281374968885
 20
0.733119573062667
 10
0.4637131824260269
 20
0.7362756354679174
 10
0.4645005926984497
 20
0.7394338195106434
 10
0.4652901669502544
 20
0.7425939921166407
 10
0.466081683329449
 20
0.7457560170101952
 10
0.4668749030089643
 20
0.7489197563004666
 10
0.4676695736995953
 20
0.7520850720678675
 10
0.4684654331629833
 20
0.7552518279504472
 10
0.4692622127246012
 20
0.7584198907302726
 10
0.4700596407867226
 20
0.7615891319198083
 10
0.4708574463413842
 20
0.7647594293483007
 10
0.4716553624833895
 20
0.7679306687481599
 10
0.4724531299232453
 20
0.7711027453413381
 10
0.4732505005001856
 20
0.7742755654257138
 10
0.474047240695093
 20
0.7774490479614729
 10
0.474843073897624
 20
0.7806228825526321
 10
0.4756371882227911
 20
0.7837945553960842
 10
0.4764287067845461
 20
0.7869611988432457
 10
0.4772170811199248
 20
0.7901211499265557
 10
0.4780020542485774
 20
0.7932738017056541
 10
0.4787836185319918
 20
0.7964194339558829
 10
0.4795619735326824
 20
0.7995590438567968
 10
0.4803374838733703
 20
0.8026941766806706
 10
0.4811106370962295
 20
0.8058267564810027
 10
0.4818820015220453
 20
0.8089589167810267
 10
0.4826521841094264
 20
0.8120928312622144
 10
0.4834217883140113
 20
0.8152305444527845
 10
0.4841913719476665
 20
0.8183738024162099
 10
0.4849614050376803
 20
0.8215238834397249
 10
0.4857322276859577
 20
0.8246814287228279
 10
0.4865040079282326
 20
0.8278462730657967
 10
0.4872766995932807
 20
0.8310172755581879
 10
0.4880500002018735
 20
0.8341921504323215
 10
0.488823547760646
 20
0.8373682888732041
 10
0.4895975706223794
 20
0.8405454675353849
 10
0.490372436688233
 20
0.8437239987061282
 10
0.4911485077872372
 20
0.8469041395288526
 10
0.4919261377178473
 20
0.8500860960271213
 10
0.4927056702895527
 20
0.8532700271286355
 10
0.4934874373644436
 20
0.8564560486892228
 10
0.4942717568988189
 20
0.8596442375168296
 10
0.4950589309847261
 20
0.8628346353955134
 10
0.4958492438915985
 20
0.8660272531094317
 10
0.4966429601077921
 20
0.869222074466834
 10
0.4974403223822108
 20
0.8724190603240549
 10
0.4982415497658508
 20
0.8756181526094993
 10
0.4990468356534167
 20
0.8788192783476418
 10
0.4998563458248884
 20
0.8820223536830107
 10
0.5006702164871017
 20
0.8852272879041834
 10
0.501488552315351
 20
0.8884339874677731
 10
0.5023114260212438
 20
0.8916423653086241
 10
0.5031388981884392
 20
0.8948524162011546
 10
0.5039709956690999
 20
0.8980641321186
 10
0.5048076858718105
 20
0.9012774039877271
 10
0.5056488823239677
 20
0.9044920356425539
 10
0.5064944512007516
 20
0.9077077612030171
 10
0.5073442178540902
 20
0.9109242624536522
 10
0.5081979733416802
 20
0.9141411862222588
 10
0.5090554809559365
 20
0.9173581617585837
 10
0.5099164827529778
 20
0.9205748181129862
 10
0.5107807060816258
 20
0.9237908015151168
 10
0.5116478701123626
 20
0.9270057927525892
 10
0.5125176923663233
 20
0.9302195245496529
 10
0.5133898952442948
 20
0.9334317989458671
 10
0.5142642125556522
 20
0.9366425046747771
 10
0.5151403960473929
 20
0.9398516345425827
 10
0.5160182219330807
 20
0.9430593028068148
 10
0.5168974974178724
 20
0.9462657625397891
 10
0.5177780448611387
 20
0.9494713378858383
 10
0.5186596382713306
 20
0.9526761783449604
 10
0.5195420381153612
 20
0.9558803903432202
 10
0.5204250045342961
 20
0.9590840831713823
 10
0.5213082983004825
 20
0.9622873677274419
 10
0.5221916817745936
 20
0.965490355259156
 10
0.5230749198627436
 20
0.9686931561065703
 10
0.5239577809735536
 20
0.971895878444555
 10
0.5248400379752171
 20
0.9750986270253292
 10
0.5257214691526217
 20
0.9783015019209971
 10
0.5266018591643942
 20
0.9815045972660714
 10
0.5274809999999947
 20
0.984708000000012
 10
1.599410286254148
 20
0.9457897754525735
 10
1.638866286254148
 20
0.9448197754525784
 10
1.798995286254131
 20
0.9404077754525763
 10
2.012278286254149
 20
0.9329317754525794
 10
2.046395286254131
 20
0.8988157754525959
 42
0.2005956140913553
 10
2.164246286254133
 20
0.8499997754525956
 10
3.292694286254125
 20
0.8499997754525796
  0
VIEWPORT
  5
2D
102
{ACAD_XDICTIONARY
360
9E3
102
}
330
B
100
AcDbEntity
 67
     1
  8
0
 62
     0
370
     0
100
AcDbViewport
 10
0.0
 20
0.0
 30
0.0
 40
1000.0
 41
1000.0
 68
     1
 69
     1
 12
0.0
 22
0.0
 13
0.0
 23
0.0
 14
1.0
 24
1.0
 15
1.0
 25
1.0
 16
0.0
 26
0.0
 36
1.0
 17
0.0
 27
0.0
 37
0.0
 42
50.0
 43
0.0
 44
0.0
 45
1000.0
 50
0.0
 51
0.0
 72
   100
 90
        0
  1

281
     0
 71
     0
 74
     1
110
0.0
120
0.0
130
0.0
111
1.0
121
0.0
131
0.0
112
0.0
122
1.0
132
0.0
 79
     0
146
0.0
  0
ENDSEC
  0
SECTION
  2
OBJECTS
  0
DICTIONARY
  5
19
330
0
100
AcDbDictionary
281
     1
  3
ACAD_CIP_PREVIOUS_PRODUCT_INFO
350
730
  3
ACAD_COLOR
350
D8
  3
ACAD_DETAILVIEWSTYLE
350
72B
  3
ACAD_GROUP
350
1A
  3
ACAD_LAYOUT
350
1E
  3
ACAD_MATERIAL
350
AB
  3
ACAD_MLEADERSTYLE
350
ED
  3
ACAD_MLINESTYLE
350
1B
  3
ACAD_PLOTSETTINGS
350
22
  3
ACAD_PLOTSTYLENAME
350
1F
  3
ACAD_SCALELIST
350
DB
  3
ACAD_SECTIONVIEWSTYLE
350
729
  3
ACAD_TABLESTYLE
350
D9
  3
ACAD_VISUALSTYLE
350
C4
  3
ACAD_WIPEOUT_VARS
350
23
  3
ACDB_RECOMPOSE_DATA
350
9DD
  3
AcDbVariableDictionary
350
9D2
  3
ASE_INDEX_DICTIONARY
350
568
  3
DWGPROPS
350
9DE
  0
DICTIONARY
  5
451
330
2
100
AcDbDictionary
280
     1
281
     1
  3
ACAD_LAYERSTATES
360
452
  0
DICTIONARY
  5
560
330
14
100
AcDbDictionary
280
     1
281
     1
  3
ADSK_XREC_LAYER_RECONCILED
360
561
  0
DICTIONARY
  5
426
330
425
100
AcDbDictionary
280
     1
281
     1
  3
ADSK_XREC_LAYER_RECONCILED
360
562
  0
DICTIONARY
  5
428
330
427
100
AcDbDictionary
280
     1
281
     1
  3
ADSK_XREC_LAYER_RECONCILED
360
563
  0
DICTIONARY
  5
42E
330
42D
100
AcDbDictionary
280
     1
281
     1
  3
ADSK_XREC_LAYER_RECONCILED
360
564
  0
DICTIONARY
  5
432
330
431
100
AcDbDictionary
280
     1
281
     1
  3
ADSK_XREC_LAYER_RECONCILED
360
565
  0
DICTIONARY
  5
438
330
437
100
AcDbDictionary
280
     1
281
     1
  3
ADSK_XREC_LAYER_RECONCILED
360
566
  0
DICTIONARY
  5
469
330
A
100
AcDbDictionary
280
     1
281
     1
  3
ACAD_SORTENTS
360
46A
  0
DICTIONARY
  5
71C
330
615
100
AcDbDictionary
280
     1
281
     1
  3
ACAD_MTEXT_RT
360
A0C
  0
DICTIONARY
  5
9E3
330
2D
100
AcDbDictionary
280
     1
281
     1
  3
ACAD_XREC_ROUNDTRIP
360
9E4
  0
XRECORD
  5
730
102
{ACAD_REACTORS
330
19
102
}
330
19
100
AcDbXrecord
280
     1
300
ACDLT
300
2015
300
ACDLT_F_S
  0
DICTIONARY
  5
D8
102
{ACAD_REACTORS
330
19
102
}
330
19
100
AcDbDictionary
281
     1
  0
DICTIONARY
  5
72B
102
{ACAD_REACTORS
330
19
102
}
330
19
100
AcDbDictionary
281
     1
  3
METRIC50
350
72C
  0
DICTIONARY
  5
1A
102
{ACAD_REACTORS
330
19
102
}
330
19
100
AcDbDictionary
281
     1
  3
*A1
350
4FA
  3
*A2
350
4FB
  0
DICTIONARY
  5
1E
102
{ACAD_REACTORS
330
19
102
}
330
19
100
AcDbDictionary
281
     1
  3
Layout1
350
21
  3
Model
350
20
  0
DICTIONARY
  5
AB
102
{ACAD_REACTORS
330
19
102
}
330
19
100
AcDbDictionary
281
     1
  3
ByBlock
350
B4
  3
ByLayer
350
AC
  3
Global
350
BC
  0
DICTIONARY
  5
ED
102
{ACAD_REACTORS
330
19
102
}
330
19
100
AcDbDictionary
281
     1
  3
Standard
350
EE
  0
DICTIONARY
  5
1B
102
{ACAD_REACTORS
330
19
102
}
330
19
100
AcDbDictionary
281
     1
  3
Standard
350
1C
  0
DICTIONARY
  5
22
102
{ACAD_REACTORS
330
19
102
}
330
19
100
AcDbDictionary
281
     1
  0
ACDBDICTIONARYWDFLT
  5
1F
102
{ACAD_REACTORS
330
19
102
}
330
19
100
AcDbDictionary
281
     1
  3
Normal
350
1D
100
AcDbDictionaryWithDefault
340
1D
  0
DICTIONARY
  5
DB
102
{ACAD_REACTORS
330
19
102
}
330
19
100
AcDbDictionary
281
     1
  3
A0
350
DC
  3
A1
350
DD
  3
A2
350
DE
  3
A3
350
DF
  3
A4
350
E0
  3
A5
350
E1
  3
A6
350
E2
  3
A7
350
E3
  3
A8
350
E4
  3
A9
350
E5
  3
B0
350
E6
  3
B1
350
E7
  3
B2
350
E8
  3
B3
350
E9
  3
B4
350
EA
  3
B5
350
EB
  3
B6
350
EC
  0
DICTIONARY
  5
729
102
{ACAD_REACTORS
330
19
102
}
330
19
100
AcDbDictionary
281
     1
  3
METRIC50
350
72A
  0
DICTIONARY
  5
D9
102
{ACAD_REACTORS
330
19
102
}
330
19
100
AcDbDictionary
281
     1
  3
Standard
350
DA
  0
DICTIONARY
  5
C4
102
{ACAD_REACTORS
330
19
102
}
330
19
100
AcDbDictionary
281
     1
  3
2dWireframe
350
CA
  3
3D Hidden
350
CC
  3
3dWireframe
350
CB
  3
Basic
350
C9
  3
Brighten
350
D0
  3
ColorChange
350
D4
  3
Conceptual
350
CD
  3
Dim
350
CF
  3
EdgeColorOff
350
D7
  3
Facepattern
350
D3
  3
Flat
350
C5
  3
FlatWithEdges
350
C6
  3
Gouraud
350
C7
  3
GouraudWithEdges
350
C8
  3
Hidden
350
723
  3
JitterOff
350
D5
  3
Linepattern
350
D2
  3
OverhangOff
350
D6
  3
Realistic
350
CE
  3
Shaded
350
728
  3
Shaded with edges
350
727
  3
Shades of Gray
350
724
  3
Sketchy
350
725
  3
Thicken
350
D1
  3
Wireframe
350
722
  3
X-Ray
350
726
  0
WIPEOUTVARIABLES
  5
23
330
19
100
AcDbWipeoutVariables
 70
     1
  0
XRECORD
  5
9DD
102
{ACAD_REACTORS
330
19
102
}
330
19
100
AcDbXrecord
280
     1
 90
        1
330
DA
  0
DICTIONARY
  5
9D2
102
{ACAD_REACTORS
330
19
102
}
330
19
100
AcDbDictionary
281
     1
  3
CANNOSCALE
350
9D7
  3
CMLEADERSTYLE
350
9D4
  3
CTABLESTYLE
350
9D3
  3
CVIEWDETAILSTYLE
350
9D5
  3
CVIEWSECTIONSTYLE
350
9D6
  3
DIMASSOC
350
9DA
  3
INDEXCTL
350
9D9
  3
SORTENTS
350
9D8
  3
XCLIPFRAME
350
9DB
  0
DICTIONARY
  5
568
102
{ACAD_REACTORS
330
19
102
}
330
19
100
AcDbDictionary
281
     1
  3
ASEBlockHierarchyIndexRecord
350
569
1001
DCO15
1040
1698037460.359
  0
XRECORD
  5
9DE
102
{ACAD_REACTORS
330
19
102
}
330
19
100
AcDbXrecord
280
     1
  1
DWGPROPS COOKIE
  2

  3

  4

  6

  7

  8
kamerka
  9

300
=
301
=
302
=
303
=
304
=
305
=
306
=
307
=
308
=
309
=
 40
0.0116512962962963
 41
2455454.069686829
 42
2457715.654311505
  1

 90
        0
  0
DICTIONARY
  5
452
102
{ACAD_REACTORS
330
451
102
}
330
451
100
AcDbDictionary
281
     1
  0
XRECORD
  5
561
102
{ACAD_REACTORS
330
560
102
}
330
560
100
AcDbXrecord
280
     1
290
     1
  0
XRECORD
  5
562
102
{ACAD_REACTORS
330
426
102
}
330
426
100
AcDbXrecord
280
     1
290
     1
  0
XRECORD
  5
563
102
{ACAD_REACTORS
330
428
102
}
330
428
100
AcDbXrecord
280
     1
290
     1
  0
XRECORD
  5
564
102
{ACAD_REACTORS
330
42E
102
}
330
42E
100
AcDbXrecord
280
     1
290
     1
  0
XRECORD
  5
565
102
{ACAD_REACTORS
330
432
102
}
330
432
100
AcDbXrecord
280
     1
290
     1
  0
XRECORD
  5
566
102
{ACAD_REACTORS
330
438
102
}
330
438
100
AcDbXrecord
280
     1
290
     1
  0
SORTENTSTABLE
  5
46A
102
{ACAD_REACTORS
330
469
102
}
330
469
100
AcDbSortentsTable
330
A
331
4FD
  5
4FD
331
4F9
  5
4F1
331
4E7
  5
4DF
331
4D7
  5
4CF
331
463
  5
4F5
331
4E5
  5
4DD
331
4D5
  5
4CD
331
461
  5
4F3
331
4F7
  5
4EF
331
4E3
  5
4DB
331
4D3
  5
4CB
331
4F5
  5
4ED
331
4E1
  5
4D9
331
4D1
  5
4B2
331
4F3
  5
4EB
331
4DF
  5
4D7
331
4F1
  5
4E9
331
4DD
  5
4D5
331
4EF
  5
4E7
331
4DB
  5
4D3
331
4D9
  5
4D1
331
4ED
  5
4E5
331
4EB
  5
4E3
331
4CE
  5
468
331
4E9
  5
4E1
331
4CC
  5
463
331
4CA
  5
460
331
464
  5
4F6
331
4F8
  5
4F0
331
4E6
  5
4DE
331
4B2
  5
4F9
331
4D6
  5
4CE
331
462
  5
4F4
331
4E4
  5
4DC
331
4D4
  5
4CC
331
4F6
  5
4EE
331
4E2
  5
4DA
331
4D2
  5
4CA
331
4D0
  5
488
331
4F4
  5
4EC
331
4E0
  5
4D8
331
4F2
  5
4EA
331
4DE
  5
4D6
331
28
  5
28
331
4F0
  5
4E8
331
4DC
  5
4D4
331
4DA
  5
4D2
331
45F
  5
4F2
331
4EE
  5
4E6
331
4D8
  5
4D0
331
4EC
  5
4E4
331
4EA
  5
4E2
331
4CF
  5
46C
331
46C
  5
4F7
331
4E8
  5
4E0
331
4CD
  5
464
331
488
  5
4F8
331
4CB
  5
462
  0
XRECORD
  5
A0C
102
{ACAD_REACTORS
330
71C
102
}
330
71C
100
AcDbXrecord
280
     1
 40
2570.0
  1
15°
  0
XRECORD
  5
9E4
102
{ACAD_REACTORS
330
9E3
102
}
330
9E3
100
AcDbXrecord
280
     1
102
SHADEPLOT
 70
     0
  0
ACDBDETAILVIEWSTYLE
  5
72C
102
{ACAD_XDICTIONARY
360
A1D
102
}
102
{ACAD_REACTORS
330
72B
102
}
330
72B
100
AcDbModelDocViewStyle
 70
     0
  3
Metric50
290
     0
100
AcDbDetailViewStyle
 70
     0
 71
     0
 90
        3
 71
     1
340
17
 40
5.0
340
0
 40
5.0
300

 40
0.0
280
     1
 71
     2
340
13
 90
       25
 71
     3
340
17
 40
5.0
 90
        0
 40
15.0
 90
        1
300
%<\AcVar ViewDetailId>% (%<\AcVar ViewScale \f "%sn">%)
 71
     4
340
13
 90
       25
340
13
 90
       25
280
     0
  0
GROUP
  5
4FA
102
{ACAD_REACTORS
330
1A
102
}
330
1A
100
AcDbGroup
300

 70
     1
 71
     1
340
4F9
340
4F8
340
4F7
340
4F6
340
4F5
340
4F4
340
4F3
340
4F2
340
4F1
340
4F0
340
4EF
340
4EE
340
4ED
340
4EC
340
4EB
340
4EA
340
4E9
340
4E8
340
4E7
340
4E6
340
4E5
340
4E4
340
4E3
340
4E2
340
4E1
340
4E0
340
4DF
340
4DE
340
4DD
340
4DC
340
4DB
340
4DA
340
4D9
340
4D8
340
4D7
340
4D6
340
4D5
340
4D4
340
4D3
340
4D2
340
4D1
340
4D0
340
4CF
340
4CE
340
4CD
340
4CC
340
4CB
340
4CA
  0
GROUP
  5
4FB
102
{ACAD_REACTORS
330
1A
102
}
330
1A
100
AcDbGroup
300

 70
     1
 71
     1
340
488
340
28
340
4B2
340
46C
  0
LAYOUT
  5
21
102
{ACAD_XDICTIONARY
360
9E1
102
}
102
{ACAD_REACTORS
330
1E
102
}
330
1E
100
AcDbPlotSettings
  1

  2

  4

  6

 40
0.0
 41
0.0
 42
0.0
 43
0.0
 44
0.0
 45
0.0
 46
0.0
 47
0.0
 48
0.0
 49
0.0
140
0.0
141
0.0
142
1.0
143
1.0
 70
     0
 72
     0
 73
     0
 74
     0
  7

 75
     0
147
1.0
148
0.0
149
0.0
100
AcDbLayout
  1
Layout1
 70
     1
 71
     1
 10
0.0
 20
0.0
 11
420.0
 21
297.0
 12
0.0
 22
0.0
 32
0.0
 14
0.0
 24
0.0
 34
0.0
 15
288.986298
 25
202.107193
 35
2.0
146
0.0
 13
0.0
 23
0.0
 33
0.0
 16
1.0
 26
0.0
 36
0.0
 17
0.0
 27
1.0
 37
0.0
 76
     0
330
B
331
2D
  0
LAYOUT
  5
20
102
{ACAD_XDICTIONARY
360
9DF
102
}
102
{ACAD_REACTORS
330
1E
102
}
330
1E
100
AcDbPlotSettings
  1

  2

  4

  6

 40
0.0
 41
0.0
 42
0.0
 43
0.0
 44
0.0
 45
0.0
 46
0.0
 47
0.0
 48
0.0
 49
0.0
140
0.0
141
0.0
142
1.0
143
1.0
 70
  1024
 72
     0
 73
     0
 74
     0
  7

 75
     0
147
1.0
148
0.0
149
0.0
100
AcDbLayout
  1
Model
 70
     0
 71
     0
 10
0.0
 20
0.0
 11
0.0
 21
0.0
 12
0.0
 22
0.0
 32
0.0
 14
0.0
 24
0.0
 34
0.0
 15
0.0
 25
0.0
 35
0.0
146
0.0
 13
0.0
 23
0.0
 33
0.0
 16
0.0
 26
0.0
 36
0.0
 17
0.0
 27
0.0
 37
0.0
 76
     0
330
A
331
15
  0
MATERIAL
  5
B4
102
{ACAD_XDICTIONARY
360
B5
102
}
102
{ACAD_REACTORS
330
AB
102
}
330
AB
100
AcDbMaterial
  1
ByBlock
 72
     0
 43
0.0208333333333333
 43
0.0
 43
0.0
 43
0.0
 43
0.0
 43
0.0208333333333333
 43
0.0
 43
0.0
 43
0.0
 43
0.0
 43
1.0
 43
0.0
 43
0.0
 43
0.0
 43
0.0
 43
1.0
 77
     0
 47
0.0208333333333333
 47
0.0
 47
0.0
 47
0.0
 47
0.0
 47
0.0208333333333333
 47
0.0
 47
0.0
 47
0.0
 47
0.0
 47
1.0
 47
0.0
 47
0.0
 47
0.0
 47
0.0
 47
1.0
171
     0
 49
0.0208333333333333
 49
0.0
 49
0.0
 49
0.0
 49
0.0
 49
0.0208333333333333
 49
0.0
 49
0.0
 49
0.0
 49
0.0
 49
1.0
 49
0.0
 49
0.0
 49
0.0
 49
0.0
 49
1.0
175
     0
142
0.0208333333333333
142
0.0
142
0.0
142
0.0
142
0.0
142
0.0208333333333333
142
0.0
142
0.0
142
0.0
142
0.0
142
1.0
142
0.0
142
0.0
142
0.0
142
0.0
142
1.0
179
     0
144
0.0208333333333333
144
0.0
144
0.0
144
0.0
144
0.0
144
0.0208333333333333
144
0.0
144
0.0
144
0.0
144
0.0
144
1.0
144
0.0
144
0.0
144
0.0
144
0.0
144
1.0
147
0.0208333333333333
147
0.0
147
0.0
147
0.0
147
0.0
147
0.0208333333333333
147
0.0
147
0.0
147
0.0
147
0.0
147
1.0
147
0.0
147
0.0
147
0.0
147
0.0
147
1.0
  0
MATERIAL
  5
AC
102
{ACAD_XDICTIONARY
360
AD
102
}
102
{ACAD_REACTORS
330
AB
102
}
330
AB
100
AcDbMaterial
  1
ByLayer
 72
     0
 43
0.0208333333333333
 43
0.0
 43
0.0
 43
0.0
 43
0.0
 43
0.0208333333333333
 43
0.0
 43
0.0
 43
0.0
 43
0.0
 43
1.0
 43
0.0
 43
0.0
 43
0.0
 43
0.0
 43
1.0
 77
     0
 47
0.0208333333333333
 47
0.0
 47
0.0
 47
0.0
 47
0.0
 47
0.0208333333333333
 47
0.0
 47
0.0
 47
0.0
 47
0.0
 47
1.0
 47
0.0
 47
0.0
 47
0.0
 47
0.0
 47
1.0
171
     0
 49
0.0208333333333333
 49
0.0
 49
0.0
 49
0.0
 49
0.0
 49
0.0208333333333333
 49
0.0
 49
0.0
 49
0.0
 49
0.0
 49
1.0
 49
0.0
 49
0.0
 49
0.0
 49
0.0
 49
1.0
175
     0
142
0.0208333333333333
142
0.0
142
0.0
142
0.0
142
0.0
142
0.0208333333333333
142
0.0
142
0.0
142
0.0
142
0.0
142
1.0
142
0.0
142
0.0
142
0.0
142
0.0
142
1.0
179
     0
144
0.0208333333333333
144
0.0
144
0.0
144
0.0
144
0.0
144
0.0208333333333333
144
0.0
144
0.0
144
0.0
144
0.0
144
1.0
144
0.0
144
0.0
144
0.0
144
0.0
144
1.0
147
0.0208333333333333
147
0.0
147
0.0
147
0.0
147
0.0
147
0.0208333333333333
147
0.0
147
0.0
147
0.0
147
0.0
147
1.0
147
0.0
147
0.0
147
0.0
147
0.0
147
1.0
  0
MATERIAL
  5
BC
102
{ACAD_XDICTIONARY
360
BD
102
}
102
{ACAD_REACTORS
330
AB
102
}
330
AB
100
AcDbMaterial
  1
Global
 72
     0
 43
0.0208333333333333
 43
0.0
 43
0.0
 43
0.0
 43
0.0
 43
0.0208333333333333
 43
0.0
 43
0.0
 43
0.0
 43
0.0
 43
1.0
 43
0.0
 43
0.0
 43
0.0
 43
0.0
 43
1.0
 77
     0
 47
0.0208333333333333
 47
0.0
 47
0.0
 47
0.0
 47
0.0
 47
0.0208333333333333
 47
0.0
 47
0.0
 47
0.0
 47
0.0
 47
1.0
 47
0.0
 47
0.0
 47
0.0
 47
0.0
 47
1.0
171
     0
 49
0.0208333333333333
 49
0.0
 49
0.0
 49
0.0
 49
0.0
 49
0.0208333333333333
 49
0.0
 49
0.0
 49
0.0
 49
0.0
 49
1.0
 49
0.0
 49
0.0
 49
0.0
 49
0.0
 49
1.0
175
     0
142
0.0208333333333333
142
0.0
142
0.0
142
0.0
142
0.0
142
0.0208333333333333
142
0.0
142
0.0
142
0.0
142
0.0
142
1.0
142
0.0
142
0.0
142
0.0
142
0.0
142
1.0
179
     0
144
0.0208333333333333
144
0.0
144
0.0
144
0.0
144
0.0
144
0.0208333333333333
144
0.0
144
0.0
144
0.0
144
0.0
144
1.0
144
0.0
144
0.0
144
0.0
144
0.0
144
1.0
147
0.0208333333333333
147
0.0
147
0.0
147
0.0
147
0.0
147
0.0208333333333333
147
0.0
147
0.0
147
0.0
147
0.0
147
1.0
147
0.0
147
0.0
147
0.0
147
0.0
147
1.0
  0
MLEADERSTYLE
  5
EE
102
{ACAD_REACTORS
330
ED
102
}
330
ED
100
AcDbMLeaderStyle
170
     2
171
     1
172
     0
 90
        2
 40
0.0
 41
0.0
173
     1
 91
-1056964608
340
11
 92
       -2
290
     1
 42
2.0
291
     1
 43
0.36
  3
Standard
 44
4.0
300

342
17
174
     1
178
     6
175
     1
176
     0
 93
-1056964608
 45
4.0
292
     0
297
     0
 46
4.0
 94
-1056964608
 47
1.0
 49
1.0
140
1.0
293
     1
141
0.0
294
     1
177
     0
142
1.0
295
     0
296
     0
143
0.125
1001
ACAD_MLEADERVER
1070
     2
  0
MLINESTYLE
  5
1C
102
{ACAD_REACTORS
330
1B
102
}
330
1B
100
AcDbMlineStyle
  2
STANDARD
 70
     0
  3

 62
     0
 51
90.0
 52
90.0
 71
     2
 49
0.5
 62
   256
  6
BYLAYER
 49
-0.5
 62
   256
  6
BYLAYER
  0
ACDBPLACEHOLDER
  5
1D
102
{ACAD_REACTORS
330
1F
102
}
330
1F
  0
SCALE
  5
DC
102
{ACAD_REACTORS
330
DB
102
}
330
DB
100
AcDbScale
 70
     0
300
1:1
140
1.0
141
1.0
290
     1
  0
SCALE
  5
DD
102
{ACAD_REACTORS
330
DB
102
}
330
DB
100
AcDbScale
 70
     0
300
1:2
140
1.0
141
2.0
290
     0
  0
SCALE
  5
DE
102
{ACAD_REACTORS
330
DB
102
}
330
DB
100
AcDbScale
 70
     0
300
1:4
140
1.0
141
4.0
290
     0
  0
SCALE
  5
DF
102
{ACAD_REACTORS
330
DB
102
}
330
DB
100
AcDbScale
 70
     0
300
1:5
140
1.0
141
5.0
290
     0
  0
SCALE
  5
E0
102
{ACAD_REACTORS
330
DB
102
}
330
DB
100
AcDbScale
 70
     0
300
1:8
140
1.0
141
8.0
290
     0
  0
SCALE
  5
E1
102
{ACAD_REACTORS
330
DB
102
}
330
DB
100
AcDbScale
 70
     0
300
1:10
140
1.0
141
10.0
290
     0
  0
SCALE
  5
E2
102
{ACAD_REACTORS
330
DB
102
}
330
DB
100
AcDbScale
 70
     0
300
1:16
140
1.0
141
16.0
290
     0
  0
SCALE
  5
E3
102
{ACAD_REACTORS
330
DB
102
}
330
DB
100
AcDbScale
 70
     0
300
1:20
140
1.0
141
20.0
290
     0
  0
SCALE
  5
E4
102
{ACAD_REACTORS
330
DB
102
}
330
DB
100
AcDbScale
 70
     0
300
1:30
140
1.0
141
30.0
290
     0
  0
SCALE
  5
E5
102
{ACAD_REACTORS
330
DB
102
}
330
DB
100
AcDbScale
 70
     0
300
1:40
140
1.0
141
40.0
290
     0
  0
SCALE
  5
E6
102
{ACAD_REACTORS
330
DB
102
}
330
DB
100
AcDbScale
 70
     0
300
1:50
140
1.0
141
50.0
290
     0
  0
SCALE
  5
E7
102
{ACAD_REACTORS
330
DB
102
}
330
DB
100
AcDbScale
 70
     0
300
1:100
140
1.0
141
100.0
290
     0
  0
SCALE
  5
E8
102
{ACAD_REACTORS
330
DB
102
}
330
DB
100
AcDbScale
 70
     0
300
2:1
140
2.0
141
1.0
290
     0
  0
SCALE
  5
E9
102
{ACAD_REACTORS
330
DB
102
}
330
DB
100
AcDbScale
 70
     0
300
4:1
140
4.0
141
1.0
290
     0
  0
SCALE
  5
EA
102
{ACAD_REACTORS
330
DB
102
}
330
DB
100
AcDbScale
 70
     0
300
8:1
140
8.0
141
1.0
290
     0
  0
SCALE
  5
EB
102
{ACAD_REACTORS
330
DB
102
}
330
DB
100
AcDbScale
 70
     0
300
10:1
140
10.0
141
1.0
290
     0
  0
SCALE
  5
EC
102
{ACAD_REACTORS
330
DB
102
}
330
DB
100
AcDbScale
 70
     0
300
100:1
140
100.0
141
1.0
290
     0
  0
ACDBSECTIONVIEWSTYLE
  5
72A
102
{ACAD_XDICTIONARY
360
A1B
102
}
102
{ACAD_REACTORS
330
729
102
}
330
729
100
AcDbModelDocViewStyle
 70
     0
  3
Metric50
290
     0
100
AcDbSectionViewStyle
 70
     0
 71
     0
 90
      102
 71
     1
340
17
 40
5.0
340
0
340
0
 40
5.0
300
I, O, Q, S, X, Z
 40
10.0
 90
        0
 40
2.5
 90
        0
 71
     2
340
13
 90
       25
340
13
 90
       50
 40
5.0
 40
2.5
 40
5.0
 71
     3
340
17
 40
5.0
 90
        0
 40
15.0
 90
        1
300
%<\AcVar ViewSectionStartId>%-%<\AcVar ViewSectionEndId>% (%<\AcVar ViewScale \f "%sn">%)
 71
     4
300
ANSI31
 40
1.0
 90
        0
290
     0
290
     0
 90
        6
 40
0.0
 40
1.570796326794896
 40
0.2617993877991494
 40
1.308996938995747
 40
-0.2617993877991494
 40
1.832595714594044
  0
TABLESTYLE
  5
DA
102
{ACAD_XDICTIONARY
360
676
102
}
102
{ACAD_REACTORS
330
D9
102
}
330
D9
100
AcDbTableStyle
  3
Standard
 70
     0
 71
     0
 40
1.5
 41
1.5
280
     0
281
     0
  7
STANDARD
140
4.5
170
     2
 62
     0
 63
     7
283
     0
274
    -2
284
     1
 64
     0
275
    -2
285
     1
 65
     0
276
    -2
286
     1
 66
     0
277
    -2
287
     1
 67
     0
278
    -2
288
     1
 68
     0
279
    -2
289
     1
 69
     0
  7
STANDARD
140
6.0
170
     5
 62
     0
 63
     7
283
     0
274
    -2
284
     1
 64
     0
275
    -2
285
     1
 65
     0
276
    -2
286
     1
 66
     0
277
    -2
287
     1
 67
     0
278
    -2
288
     1
 68
     0
279
    -2
289
     1
 69
     0
  7
STANDARD
140
4.5
170
     5
 62
     0
 63
     7
283
     0
274
    -2
284
     1
 64
     0
275
    -2
285
     1
 65
     0
276
    -2
286
     1
 66
     0
277
    -2
287
     1
 67
     0
278
    -2
288
     1
 68
     0
279
    -2
289
     1
 69
     0
  0
VISUALSTYLE
  5
CA
102
{ACAD_XDICTIONARY
360
9EF
102
}
102
{ACAD_REACTORS
330
C4
102
}
330
C4
100
AcDbVisualStyle
  2

 70
     4
 71
     0
 72
     2
 73
     0
 90
        0
 40
-0.6
 41
-30.0
 62
     5
 63
     7
 74
     1
 91
        4
 64
     7
 65
   257
 75
     1
175
     1
 42
1.0
 92
        0
 66
   257
 43
1.0
 76
     1
 77
     6
 78
     2
 67
     7
 79
     5
170
     0
171
     0
290
     0
174
     0
 93
        1
 44
0.0
173
     0
291
     0
 45
0.0
1001
ACAD
1000
AcDbSavedByObjectVersion
1070
     0
  0
VISUALSTYLE
  5
CC
102
{ACAD_XDICTIONARY
360
9F3
102
}
102
{ACAD_REACTORS
330
C4
102
}
330
C4
100
AcDbVisualStyle
  2

 70
     6
 71
     1
 72
     2
 73
     2
 90
        0
 40
-0.6
 41
-30.0
 62
     5
 63
     7
 74
     2
 91
        2
 64
     7
 65
   257
 75
     2
175
     1
 42
179.0
 92
        0
 66
   257
 43
1.0
 76
     1
 77
     6
 78
     2
 67
     7
 79
     3
170
     0
171
     0
290
     0
174
     0
 93
        1
 44
0.0
173
     0
291
     0
 45
0.0
1001
ACAD
1000
AcDbSavedByObjectVersion
1070
     0
  0
VISUALSTYLE
  5
CB
102
{ACAD_XDICTIONARY
360
9F1
102
}
102
{ACAD_REACTORS
330
C4
102
}
330
C4
100
AcDbVisualStyle
  2

 70
     5
 71
     0
 72
     2
 73
     0
 90
        0
 40
-0.6
 41
-30.0
 62
     5
 63
     7
 74
     1
 91
        4
 64
     7
 65
   257
 75
     1
175
     1
 42
1.0
 92
        0
 66
   257
 43
1.0
 76
     1
 77
     6
 78
     2
 67
     7
 79
     5
170
     0
171
     0
290
     0
174
     0
 93
        1
 44
0.0
173
     0
291
     0
 45
0.0
1001
ACAD
1000
AcDbSavedByObjectVersion
1070
     0
  0
VISUALSTYLE
  5
C9
102
{ACAD_XDICTIONARY
360
9ED
102
}
102
{ACAD_REACTORS
330
C4
102
}
330
C4
100
AcDbVisualStyle
  2

 70
     7
 71
     1
 72
     0
 73
     1
 90
        0
 40
-0.6
 41
-30.0
 62
     5
 63
     7
 74
     0
 91
        4
 64
     7
 65
   257
 75
     1
175
     1
 42
1.0
 92
        8
 66
     7
 43
1.0
 76
     1
 77
     6
 78
     2
 67
     7
 79
     5
170
     0
171
     0
290
     0
174
     0
 93
        1
 44
0.0
173
     0
291
     1
 45
0.0
1001
ACAD
1000
AcDbSavedByObjectVersion
1070
     0
  0
VISUALSTYLE
  5
D0
102
{ACAD_XDICTIONARY
360
9FB
102
}
102
{ACAD_REACTORS
330
C4
102
}
330
C4
100
AcDbVisualStyle
  2

 70
    12
 71
     2
 72
     2
 73
     0
 90
        0
 40
-0.6
 41
-30.0
 62
     5
 63
     7
 74
     1
 91
        4
 64
     7
 65
   257
 75
     1
175
     1
 42
1.0
 92
        8
 66
     7
 43
1.0
 76
     1
 77
     6
 78
     2
 67
     7
 79
     5
170
     0
171
     0
290
     0
174
     0
 93
        1
 44
50.0
173
     0
291
     1
 45
0.0
1001
ACAD
1000
AcDbSavedByObjectVersion
1070
     0
  0
VISUALSTYLE
  5
D4
102
{ACAD_XDICTIONARY
360
A03
102
}
102
{ACAD_REACTORS
330
C4
102
}
330
C4
100
AcDbVisualStyle
  2

 70
    16
 71
     2
 72
     2
 73
     3
 90
        0
 40
-0.6
 41
-30.0
 62
     5
 63
     8
 74
     1
 91
        4
 64
     7
 65
   257
 75
     1
175
     1
 42
1.0
 92
        8
 66
     8
 43
1.0
 76
     1
 77
     6
 78
     2
 67
     7
 79
     5
170
     0
171
     0
290
     0
174
     0
 93
        1
 44
0.0
173
     0
291
     1
 45
0.0
1001
ACAD
1000
AcDbSavedByObjectVersion
1070
     0
  0
VISUALSTYLE
  5
CD
102
{ACAD_XDICTIONARY
360
9F5
102
}
102
{ACAD_REACTORS
330
C4
102
}
330
C4
100
AcDbVisualStyle
  2

 70
     9
 71
     3
 72
     2
 73
     0
 90
        0
 40
-0.6
 41
-30.0
 62
     5
 63
     7
 74
     2
 91
        2
 64
     7
 65
   257
 75
     1
175
     1
 42
179.0
 92
        8
 66
     7
 43
1.0
 76
     1
 77
     6
 78
     2
 67
     7
 79
     3
170
     0
171
     0
290
     0
174
     0
 93
        1
 44
0.0
173
     0
291
     0
 45
0.0
1001
ACAD
1000
AcDbSavedByObjectVersion
1070
     0
  0
VISUALSTYLE
  5
CF
102
{ACAD_XDICTIONARY
360
9F9
102
}
102
{ACAD_REACTORS
330
C4
102
}
330
C4
100
AcDbVisualStyle
  2

 70
    11
 71
     2
 72
     2
 73
     0
 90
        0
 40
-0.6
 41
-30.0
 62
     5
 63
     7
 74
     1
 91
        4
 64
     7
 65
   257
 75
     1
175
     1
 42
1.0
 92
        8
 66
     7
 43
1.0
 76
     1
 77
     6
 78
     2
 67
     7
 79
     5
170
     0
171
     0
290
     0
174
     0
 93
        1
 44
-50.0
173
     0
291
     1
 45
0.0
1001
ACAD
1000
AcDbSavedByObjectVersion
1070
     0
  0
VISUALSTYLE
  5
D7
102
{ACAD_XDICTIONARY
360
A09
102
}
102
{ACAD_REACTORS
330
C4
102
}
330
C4
100
AcDbVisualStyle
  2

 70
    22
 71
     2
 72
     2
 73
     0
 90
        0
 40
-0.6
 41
-30.0
 62
     5
 63
     7
 74
     1
 91
        4
 64
     7
 65
   257
 75
     1
175
     1
 42
1.0
 92
        8
 66
     7
 43
1.0
 76
     1
 77
     6
 78
     2
 67
     7
 79
     5
170
     0
171
     0
290
     0
174
     0
 93
        1
 44
0.0
173
     0
291
     1
 45
0.0
1001
ACAD
1000
AcDbSavedByObjectVersion
1070
     0
  0
VISUALSTYLE
  5
D3
102
{ACAD_XDICTIONARY
360
A01
102
}
102
{ACAD_REACTORS
330
C4
102
}
330
C4
100
AcDbVisualStyle
  2

 70
    15
 71
     2
 72
     2
 73
     0
 90
        0
 40
-0.6
 41
-30.0
 62
     5
 63
     7
 74
     1
 91
        4
 64
     7
 65
   257
 75
     1
175
     1
 42
1.0
 92
        8
 66
     7
 43
1.0
 76
     1
 77
     6
 78
     2
 67
     7
 79
     5
170
     0
171
     0
290
     0
174
     0
 93
        1
 44
0.0
173
     0
291
     1
 45
0.0
1001
ACAD
1000
AcDbSavedByObjectVersion
1070
     0
  0
VISUALSTYLE
  5
C5
102
{ACAD_XDICTIONARY
360
9E5
102
}
102
{ACAD_REACTORS
330
C4
102
}
330
C4
100
AcDbVisualStyle
  2

 70
     0
 71
     2
 72
     1
 73
     1
 90
        2
 40
-0.6
 41
30.0
 62
     5
 63
     7
 74
     0
 91
        4
 64
     7
 65
   257
 75
     1
175
     1
 42
1.0
 92
        8
 66
     7
 43
1.0
 76
     1
 77
     6
 78
     2
 67
     7
 79
     5
170
     0
171
     0
290
     0
174
     0
 93
       13
 44
0.0
173
     0
291
     1
 45
0.0
1001
ACAD
1000
AcDbSavedByObjectVersion
1070
     0
  0
VISUALSTYLE
  5
C6
102
{ACAD_XDICTIONARY
360
9E7
102
}
102
{ACAD_REACTORS
330
C4
102
}
330
C4
100
AcDbVisualStyle
  2

 70
     1
 71
     2
 72
     1
 73
     1
 90
        2
 40
-0.6
 41
30.0
 62
     5
 63
     7
 74
     1
 91
        4
 64
     7
 65
   257
 75
     1
175
     1
 42
1.0
 92
        0
 66
   257
 43
1.0
 76
     1
 77
     6
 78
     2
 67
     7
 79
     5
170
     0
171
     0
290
     0
174
     0
 93
       13
 44
0.0
173
     0
291
     1
 45
0.0
1001
ACAD
1000
AcDbSavedByObjectVersion
1070
     0
  0
VISUALSTYLE
  5
C7
102
{ACAD_XDICTIONARY
360
9E9
102
}
102
{ACAD_REACTORS
330
C4
102
}
330
C4
100
AcDbVisualStyle
  2

 70
     2
 71
     2
 72
     2
 73
     1
 90
        2
 40
-0.6
 41
30.0
 62
     5
 63
     7
 74
     0
 91
        4
 64
     7
 65
   257
 75
     1
175
     1
 42
1.0
 92
        0
 66
     7
 43
1.0
 76
     1
 77
     6
 78
     2
 67
     7
 79
     5
170
     0
171
     0
290
     0
174
     0
 93
       13
 44
0.0
173
     0
291
     1
 45
0.0
1001
ACAD
1000
AcDbSavedByObjectVersion
1070
     0
  0
VISUALSTYLE
  5
C8
102
{ACAD_XDICTIONARY
360
9EB
102
}
102
{ACAD_REACTORS
330
C4
102
}
330
C4
100
AcDbVisualStyle
  2

 70
     3
 71
     2
 72
     2
 73
     1
 90
        2
 40
-0.6
 41
30.0
 62
     5
 63
     7
 74
     1
 91
        4
 64
     7
 65
   257
 75
     1
175
     1
 42
1.0
 92
        0
 66
   257
 43
1.0
 76
     1
 77
     6
 78
     2
 67
     7
 79
     5
170
     0
171
     0
290
     0
174
     0
 93
       13
 44
0.0
173
     0
291
     1
 45
0.0
1001
ACAD
1000
AcDbSavedByObjectVersion
1070
     0
  0
VISUALSTYLE
  5
723
102
{ACAD_XDICTIONARY
360
A0F
102
}
102
{ACAD_REACTORS
330
C4
102
}
330
C4
100
AcDbVisualStyle
  2

 70
     6
 71
     1
 72
     2
 73
     2
 90
        0
 40
-0.6
 41
-30.0
 62
     5
 63
     7
 74
     2
 91
        2
 64
     7
 65
   257
 75
     2
175
     1
 42
40.0
 92
        0
 66
   257
 43
1.0
 76
     1
 77
     6
 78
     2
 67
     7
 79
     3
170
     0
171
     0
290
     0
174
     0
 93
        1
 44
0.0
173
     0
291
     0
 45
0.0
1001
ACAD
1000
AcDbSavedByObjectVersion
1070
     0
  0
VISUALSTYLE
  5
D5
102
{ACAD_XDICTIONARY
360
A05
102
}
102
{ACAD_REACTORS
330
C4
102
}
330
C4
100
AcDbVisualStyle
  2

 70
    20
 71
     2
 72
     2
 73
     0
 90
        0
 40
-0.6
 41
-30.0
 62
     5
 63
     7
 74
     1
 91
        4
 64
     7
 65
   257
 75
     1
175
     1
 42
1.0
 92
       10
 66
     7
 43
1.0
 76
     1
 77
     6
 78
     2
 67
     7
 79
     5
170
     0
171
     0
290
     0
174
     0
 93
        1
 44
0.0
173
     0
291
     1
 45
0.0
1001
ACAD
1000
AcDbSavedByObjectVersion
1070
     0
  0
VISUALSTYLE
  5
D2
102
{ACAD_XDICTIONARY
360
9FF
102
}
102
{ACAD_REACTORS
330
C4
102
}
330
C4
100
AcDbVisualStyle
  2

 70
    14
 71
     2
 72
     2
 73
     0
 90
        0
 40
-0.6
 41
-30.0
 62
     5
 63
     7
 74
     1
 91
        4
 64
     7
 65
   257
 75
     7
175
     7
 42
1.0
 92
        8
 66
     7
 43
1.0
 76
     1
 77
     6
 78
     2
 67
     7
 79
     5
170
     0
171
     0
290
     0
174
     0
 93
        1
 44
0.0
173
     0
291
     1
 45
0.0
1001
ACAD
1000
AcDbSavedByObjectVersion
1070
     0
  0
VISUALSTYLE
  5
D6
102
{ACAD_XDICTIONARY
360
A07
102
}
102
{ACAD_REACTORS
330
C4
102
}
330
C4
100
AcDbVisualStyle
  2

 70
    21
 71
     2
 72
     2
 73
     0
 90
        0
 40
-0.6
 41
-30.0
 62
     5
 63
     7
 74
     1
 91
        4
 64
     7
 65
   257
 75
     1
175
     1
 42
1.0
 92
        9
 66
     7
 43
1.0
 76
     1
 77
     6
 78
     2
 67
     7
 79
     5
170
     0
171
     0
290
     0
174
     0
 93
        1
 44
0.0
173
     0
291
     1
 45
0.0
1001
ACAD
1000
AcDbSavedByObjectVersion
1070
     0
  0
VISUALSTYLE
  5
CE
102
{ACAD_XDICTIONARY
360
9F7
102
}
102
{ACAD_REACTORS
330
C4
102
}
330
C4
100
AcDbVisualStyle
  2

 70
     8
 71
     2
 72
     2
 73
     0
 90
        0
 40
-0.6
 41
-30.0
 62
     5
 63
     7
 74
     1
 91
        0
 64
     7
 65
   257
 75
     1
175
     1
 42
1.0
 92
        8
 66
     8
 43
1.0
 76
     1
 77
     6
 78
     2
 67
     7
 79
     5
170
     0
171
     0
290
     0
174
     0
 93
       13
 44
0.0
173
     0
291
     0
 45
0.0
1001
ACAD
1000
AcDbSavedByObjectVersion
1070
     0
  0
VISUALSTYLE
  5
728
102
{ACAD_XDICTIONARY
360
A19
102
}
102
{ACAD_REACTORS
330
C4
102
}
330
C4
100
AcDbVisualStyle
  2

 70
    27
 71
     2
 72
     2
 73
     1
 90
        2
 40
-0.6
 41
30.0
 62
     5
 63
     7
 74
     0
 91
        4
 64
     7
 65
   257
 75
     1
175
     1
 42
1.0
 92
        8
 66
   257
 43
1.0
 76
     1
 77
     6
 78
     2
 67
     8
 79
     3
170
     0
171
     0
290
     0
174
     0
 93
        5
 44
0.0
173
     0
291
     0
 45
0.0
1001
ACAD
1000
AcDbSavedByObjectVersion
1070
     0
  0
VISUALSTYLE
  5
727
102
{ACAD_XDICTIONARY
360
A17
102
}
102
{ACAD_REACTORS
330
C4
102
}
330
C4
100
AcDbVisualStyle
  2

 70
    26
 71
     2
 72
     2
 73
     1
 90
        2
 40
-0.6
 41
30.0
 62
     5
 63
     7
 74
     1
 91
       10
 64
     7
 65
   257
 75
     2
175
     1
 42
1.0
 92
        8
 66
   257
 43
1.0
 76
     1
 77
     6
 78
     2
 67
     7
 79
     3
170
     0
171
     0
290
     0
174
     0
 93
        5
 44
0.0
173
     0
291
     0
 45
0.0
1001
ACAD
1000
AcDbSavedByObjectVersion
1070
     0
  0
VISUALSTYLE
  5
724
102
{ACAD_XDICTIONARY
360
A11
102
}
102
{ACAD_REACTORS
330
C4
102
}
330
C4
100
AcDbVisualStyle
  2

 70
    23
 71
     2
 72
     2
 73
     3
 90
        0
 40
-0.6
 41
-30.0
 62
     5
 63
     7
 74
     2
 91
        2
 64
     7
 65
     7
 75
     1
175
     1
 42
40.0
 92
        8
 66
     7
 43
1.0
 76
     1
 77
     6
 78
     2
 67
     7
 79
     3
170
     0
171
     0
290
     0
174
     0
 93
        1
 44
0.0
173
     0
291
     0
 45
0.0
1001
ACAD
1000
AcDbSavedByObjectVersion
1070
     0
  0
VISUALSTYLE
  5
725
102
{ACAD_XDICTIONARY
360
A13
102
}
102
{ACAD_REACTORS
330
C4
102
}
330
C4
100
AcDbVisualStyle
  2

 70
    24
 71
     1
 72
     2
 73
     2
 90
        0
 40
-0.6
 41
-30.0
 62
     5
 63
     7
 74
     2
 91
        2
 64
     7
 65
     7
 75
     1
175
     1
 42
40.0
 92
       11
 66
     7
 43
1.0
 76
     1
 77
     6
 78
     2
 67
     7
 79
     6
170
     0
171
     0
290
     0
174
     0
 93
        1
 44
0.0
173
     0
291
     0
 45
0.0
1001
ACAD
1000
AcDbSavedByObjectVersion
1070
     0
  0
VISUALSTYLE
  5
D1
102
{ACAD_XDICTIONARY
360
9FD
102
}
102
{ACAD_REACTORS
330
C4
102
}
330
C4
100
AcDbVisualStyle
  2

 70
    13
 71
     2
 72
     2
 73
     0
 90
        0
 40
-0.6
 41
-30.0
 62
     5
 63
     7
 74
     1
 91
        4
 64
     7
 65
   257
 75
     1
175
     1
 42
1.0
 92
       12
 66
     7
 43
1.0
 76
     1
 77
     6
 78
     2
 67
     7
 79
     5
170
     0
171
     0
290
     0
174
     0
 93
        1
 44
0.0
173
     0
291
     1
 45
0.0
1001
ACAD
1000
AcDbSavedByObjectVersion
1070
     0
  0
VISUALSTYLE
  5
722
102
{ACAD_XDICTIONARY
360
A0D
102
}
102
{ACAD_REACTORS
330
C4
102
}
330
C4
100
AcDbVisualStyle
  2

 70
     5
 71
     0
 72
     2
 73
     0
 90
        0
 40
-0.6
 41
-30.0
 62
     5
 63
     7
 74
     1
 91
        4
 64
     7
 65
   257
 75
     1
175
     1
 42
1.0
 92
        0
 66
   257
 43
1.0
 76
     1
 77
     6
 78
     2
 67
     7
 79
     3
170
     0
171
     0
290
     0
174
     0
 93
        1
 44
0.0
173
     0
291
     0
 45
0.0
1001
ACAD
1000
AcDbSavedByObjectVersion
1070
     0
  0
VISUALSTYLE
  5
726
102
{ACAD_XDICTIONARY
360
A15
102
}
102
{ACAD_REACTORS
330
C4
102
}
330
C4
100
AcDbVisualStyle
  2

 70
    25
 71
     2
 72
     2
 73
     1
 90
        1
 40
0.5
 41
-30.0
 62
     5
 63
     7
 74
     1
 91
        0
 64
     7
 65
   257
 75
     1
175
     1
 42
1.0
 92
        8
 66
     7
 43
1.0
 76
     1
 77
     6
 78
     2
 67
     7
 79
     3
170
     0
171
     0
290
     0
174
     0
 93
       13
 44
0.0
173
     0
291
     0
 45
0.0
1001
ACAD
1000
AcDbSavedByObjectVersion
1070
     0
  0
DICTIONARYVAR
  5
9D7
102
{ACAD_REACTORS
330
9D2
102
}
330
9D2
100
DictionaryVariables
280
     0
  1
1:1
  0
DICTIONARYVAR
  5
9D4
102
{ACAD_REACTORS
330
9D2
102
}
330
9D2
100
DictionaryVariables
280
     0
  1
STANDARD
  0
DICTIONARYVAR
  5
9D3
102
{ACAD_REACTORS
330
9D2
102
}
330
9D2
100
DictionaryVariables
280
     0
  1
STANDARD
  0
DICTIONARYVAR
  5
9D5
102
{ACAD_REACTORS
330
9D2
102
}
330
9D2
100
DictionaryVariables
280
     0
  1
METRIC50
  0
DICTIONARYVAR
  5
9D6
102
{ACAD_REACTORS
330
9D2
102
}
330
9D2
100
DictionaryVariables
280
     0
  1
METRIC50
  0
DICTIONARYVAR
  5
9DA
102
{ACAD_REACTORS
330
9D2
102
}
330
9D2
100
DictionaryVariables
280
     0
  1
1
  0
DICTIONARYVAR
  5
9D9
102
{ACAD_REACTORS
330
9D2
102
}
330
9D2
100
DictionaryVariables
280
     0
  1
0
  0
DICTIONARYVAR
  5
9D8
102
{ACAD_REACTORS
330
9D2
102
}
330
9D2
100
DictionaryVariables
280
     0
  1
127
  0
DICTIONARYVAR
  5
9DB
102
{ACAD_REACTORS
330
9D2
102
}
330
9D2
100
DictionaryVariables
280
     0
  1
2
  0
XRECORD
  5
569
102
{ACAD_REACTORS
330
568
102
}
330
568
100
AcDbXrecord
280
     1
  0
DICTIONARY
  5
A1D
330
72C
100
AcDbDictionary
280
     1
281
     1
  3
ACAD_XREC_ROUNDTRIP
360
A1E
  0
DICTIONARY
  5
9E1
330
21
100
AcDbDictionary
280
     1
281
     1
  3
ACAD_XREC_ROUNDTRIP
360
9E2
  0
DICTIONARY
  5
9DF
330
20
100
AcDbDictionary
280
     1
281
     1
  3
ACAD_XREC_ROUNDTRIP
360
9E0
  0
DICTIONARY
  5
B5
330
B4
100
AcDbDictionary
280
     1
281
     1
  3
ACAD_XREC_ROUNDTRIP
360
681
  3
BUMPTILE
360
B7
  3
DIFFUSETILE
360
B6
  3
OPACITYTILE
360
BA
  3
REFLECTIONTILE
360
B9
  3
REFRACTIONTILE
360
BB
  3
SPECULARTILE
360
B8
  0
DICTIONARY
  5
AD
330
AC
100
AcDbDictionary
280
     1
281
     1
  3
ACAD_XREC_ROUNDTRIP
360
680
  3
BUMPTILE
360
AF
  3
DIFFUSETILE
360
AE
  3
OPACITYTILE
360
B2
  3
REFLECTIONTILE
360
B1
  3
REFRACTIONTILE
360
B3
  3
SPECULARTILE
360
B0
  0
DICTIONARY
  5
BD
330
BC
100
AcDbDictionary
280
     1
281
     1
  3
ACAD_XREC_ROUNDTRIP
360
682
  3
BUMPTILE
360
BF
  3
DIFFUSETILE
360
BE
  3
OPACITYTILE
360
C2
  3
REFLECTIONTILE
360
C1
  3
REFRACTIONTILE
360
C3
  3
SPECULARTILE
360
C0
  0
DICTIONARY
  5
A1B
330
72A
100
AcDbDictionary
280
     1
281
     1
  3
ACAD_XREC_ROUNDTRIP
360
A1C
  0
DICTIONARY
  5
676
330
DA
100
AcDbDictionary
280
     1
281
     1
  3
ACAD_ROUNDTRIP_2008_TABLESTYLE_CELLSTYLEMAP
360
9DC
  3
ACAD_XREC_ROUNDTRIP
360
A0B
  0
DICTIONARY
  5
9EF
330
CA
100
AcDbDictionary
280
     1
281
     1
  3
ACAD_XREC_ROUNDTRIP
360
9F0
  0
DICTIONARY
  5
9F3
330
CC
100
AcDbDictionary
280
     1
281
     1
  3
ACAD_XREC_ROUNDTRIP
360
9F4
  0
DICTIONARY
  5
9F1
330
CB
100
AcDbDictionary
280
     1
281
     1
  3
ACAD_XREC_ROUNDTRIP
360
9F2
  0
DICTIONARY
  5
9ED
330
C9
100
AcDbDictionary
280
     1
281
     1
  3
ACAD_XREC_ROUNDTRIP
360
9EE
  0
DICTIONARY
  5
9FB
330
D0
100
AcDbDictionary
280
     1
281
     1
  3
ACAD_XREC_ROUNDTRIP
360
9FC
  0
DICTIONARY
  5
A03
330
D4
100
AcDbDictionary
280
     1
281
     1
  3
ACAD_XREC_ROUNDTRIP
360
A04
  0
DICTIONARY
  5
9F5
330
CD
100
AcDbDictionary
280
     1
281
     1
  3
ACAD_XREC_ROUNDTRIP
360
9F6
  0
DICTIONARY
  5
9F9
330
CF
100
AcDbDictionary
280
     1
281
     1
  3
ACAD_XREC_ROUNDTRIP
360
9FA
  0
DICTIONARY
  5
A09
330
D7
100
AcDbDictionary
280
     1
281
     1
  3
ACAD_XREC_ROUNDTRIP
360
A0A
  0
DICTIONARY
  5
A01
330
D3
100
AcDbDictionary
280
     1
281
     1
  3
ACAD_XREC_ROUNDTRIP
360
A02
  0
DICTIONARY
  5
9E5
330
C5
100
AcDbDictionary
280
     1
281
     1
  3
ACAD_XREC_ROUNDTRIP
360
9E6
  0
DICTIONARY
  5
9E7
330
C6
100
AcDbDictionary
280
     1
281
     1
  3
ACAD_XREC_ROUNDTRIP
360
9E8
  0
DICTIONARY
  5
9E9
330
C7
100
AcDbDictionary
280
     1
281
     1
  3
ACAD_XREC_ROUNDTRIP
360
9EA
  0
DICTIONARY
  5
9EB
330
C8
100
AcDbDictionary
280
     1
281
     1
  3
ACAD_XREC_ROUNDTRIP
360
9EC
  0
DICTIONARY
  5
A0F
330
723
100
AcDbDictionary
280
     1
281
     1
  3
ACAD_XREC_ROUNDTRIP
360
A10
  0
DICTIONARY
  5
A05
330
D5
100
AcDbDictionary
280
     1
281
     1
  3
ACAD_XREC_ROUNDTRIP
360
A06
  0
DICTIONARY
  5
9FF
330
D2
100
AcDbDictionary
280
     1
281
     1
  3
ACAD_XREC_ROUNDTRIP
360
A00
  0
DICTIONARY
  5
A07
330
D6
100
AcDbDictionary
280
     1
281
     1
  3
ACAD_XREC_ROUNDTRIP
360
A08
  0
DICTIONARY
  5
9F7
330
CE
100
AcDbDictionary
280
     1
281
     1
  3
ACAD_XREC_ROUNDTRIP
360
9F8
  0
DICTIONARY
  5
A19
330
728
100
AcDbDictionary
280
     1
281
     1
  3
ACAD_XREC_ROUNDTRIP
360
A1A
  0
DICTIONARY
  5
A17
330
727
100
AcDbDictionary
280
     1
281
     1
  3
ACAD_XREC_ROUNDTRIP
360
A18
  0
DICTIONARY
  5
A11
330
724
100
AcDbDictionary
280
     1
281
     1
  3
ACAD_XREC_ROUNDTRIP
360
A12
  0
DICTIONARY
  5
A13
330
725
100
AcDbDictionary
280
     1
281
     1
  3
ACAD_XREC_ROUNDTRIP
360
A14
  0
DICTIONARY
  5
9FD
330
D1
100
AcDbDictionary
280
     1
281
     1
  3
ACAD_XREC_ROUNDTRIP
360
9FE
  0
DICTIONARY
  5
A0D
330
722
100
AcDbDictionary
280
     1
281
     1
  3
ACAD_XREC_ROUNDTRIP
360
A0E
  0
DICTIONARY
  5
A15
330
726
100
AcDbDictionary
280
     1
281
     1
  3
ACAD_XREC_ROUNDTRIP
360
A16
  0
XRECORD
  5
A1E
102
{ACAD_REACTORS
330
A1D
102
}
330
A1D
100
AcDbXrecord
280
     1
102
DISPLAYNAME
  1
METRIC50
102
FLAGS
 90
        0
  0
XRECORD
  5
9E2
102
{ACAD_REACTORS
330
9E1
102
}
330
9E1
100
AcDbXrecord
280
     1
102
SHADEPLOT
 70
     0
102
SHADEPLOTRESLEVEL
 70
     2
102
SHADEPLOTCUSTOMDPI
 70
   300
  0
XRECORD
  5
9E0
102
{ACAD_REACTORS
330
9DF
102
}
330
9DF
100
AcDbXrecord
280
     1
102
SHADEPLOT
 70
     0
102
SHADEPLOTRESLEVEL
 70
     2
102
SHADEPLOTCUSTOMDPI
 70
   300
  0
XRECORD
  5
681
102
{ACAD_REACTORS
330
B5
102
}
330
B5
100
AcDbXrecord
280
     1
102
MATERIAL
148
0.0
149
0.0
149
0.0
 93
        0
 94
      127
282
     0
 72
     0
 77
     0
171
     0
175
     0
179
     0
273
     0
  0
XRECORD
  5
B7
102
{ACAD_REACTORS
330
B5
102
}
330
B5
100
AcDbXrecord
280
     1
270
     1
271
     1
  0
XRECORD
  5
B6
102
{ACAD_REACTORS
330
B5
102
}
330
B5
100
AcDbXrecord
280
     1
270
     1
271
     1
  0
XRECORD
  5
BA
102
{ACAD_REACTORS
330
B5
102
}
330
B5
100
AcDbXrecord
280
     1
270
     1
271
     1
  0
XRECORD
  5
B9
102
{ACAD_REACTORS
330
B5
102
}
330
B5
100
AcDbXrecord
280
     1
270
     1
271
     1
  0
XRECORD
  5
BB
102
{ACAD_REACTORS
330
B5
102
}
330
B5
100
AcDbXrecord
280
     1
270
     1
271
     1
  0
XRECORD
  5
B8
102
{ACAD_REACTORS
330
B5
102
}
330
B5
100
AcDbXrecord
280
     1
270
     1
271
     1
  0
XRECORD
  5
680
102
{ACAD_REACTORS
330
AD
102
}
330
AD
100
AcDbXrecord
280
     1
102
MATERIAL
148
0.0
149
0.0
149
0.0
 93
        0
 94
      127
282
     0
 72
     0
 77
     0
171
     0
175
     0
179
     0
273
     0
  0
XRECORD
  5
AF
102
{ACAD_REACTORS
330
AD
102
}
330
AD
100
AcDbXrecord
280
     1
270
     1
271
     1
  0
XRECORD
  5
AE
102
{ACAD_REACTORS
330
AD
102
}
330
AD
100
AcDbXrecord
280
     1
270
     1
271
     1
  0
XRECORD
  5
B2
102
{ACAD_REACTORS
330
AD
102
}
330
AD
100
AcDbXrecord
280
     1
270
     1
271
     1
  0
XRECORD
  5
B1
102
{ACAD_REACTORS
330
AD
102
}
330
AD
100
AcDbXrecord
280
     1
270
     1
271
     1
  0
XRECORD
  5
B3
102
{ACAD_REACTORS
330
AD
102
}
330
AD
100
AcDbXrecord
280
     1
270
     1
271
     1
  0
XRECORD
  5
B0
102
{ACAD_REACTORS
330
AD
102
}
330
AD
100
AcDbXrecord
280
     1
270
     1
271
     1
  0
XRECORD
  5
682
102
{ACAD_REACTORS
330
BD
102
}
330
BD
100
AcDbXrecord
280
     1
102
MATERIAL
148
0.0
149
0.0
149
0.0
 93
        0
 94
      127
282
     0
 72
     0
 77
     0
171
     0
175
     0
179
     0
273
     0
  0
XRECORD
  5
BF
102
{ACAD_REACTORS
330
BD
102
}
330
BD
100
AcDbXrecord
280
     1
270
     1
271
     1
  0
XRECORD
  5
BE
102
{ACAD_REACTORS
330
BD
102
}
330
BD
100
AcDbXrecord
280
     1
270
     1
271
     1
  0
XRECORD
  5
C2
102
{ACAD_REACTORS
330
BD
102
}
330
BD
100
AcDbXrecord
280
     1
270
     1
271
     1
  0
XRECORD
  5
C1
102
{ACAD_REACTORS
330
BD
102
}
330
BD
100
AcDbXrecord
280
     1
270
     1
271
     1
  0
XRECORD
  5
C3
102
{ACAD_REACTORS
330
BD
102
}
330
BD
100
AcDbXrecord
280
     1
270
     1
271
     1
  0
XRECORD
  5
C0
102
{ACAD_REACTORS
330
BD
102
}
330
BD
100
AcDbXrecord
280
     1
270
     1
271
     1
  0
XRECORD
  5
A1C
102
{ACAD_REACTORS
330
A1B
102
}
330
A1B
100
AcDbXrecord
280
     1
102
DISPLAYNAME
  1
METRIC50
102
FLAGS
 90
        0
  0
CELLSTYLEMAP
  5
9DC
102
{ACAD_REACTORS
330
676
102
}
330
676
100
AcDbCellStyleMap
 90
        3
300
CELLSTYLE
  1
TABLEFORMAT_BEGIN
 90
        5
170
     1
 91
        0
 92
    32768
 62
   257
 93
        1
300
CONTENTFORMAT
  1
CONTENTFORMAT_BEGIN
 90
        0
 91
        0
 92
      512
 93
        0
300

 40
0.0
140
1.0
 94
        5
 62
     0
340
17
144
6.0
309
CONTENTFORMAT_END
171
     1
301
MARGIN
  1
CELLMARGIN_BEGIN
 40
1.5
 40
1.5
 40
1.5
 40
1.5
 40
0.18
 40
0.18
309
CELLMARGIN_END
 94
        6
 95
        1
302
GRIDFORMAT
  1
GRIDFORMAT_BEGIN
 90
        0
 91
        1
 62
     0
 92
       -2
340
0
 93
        0
 40
1.125
309
GRIDFORMAT_END
 95
        2
302
GRIDFORMAT
  1
GRIDFORMAT_BEGIN
 90
        0
 91
        1
 62
     0
 92
       -2
340
0
 93
        0
 40
1.125
309
GRIDFORMAT_END
 95
        4
302
GRIDFORMAT
  1
GRIDFORMAT_BEGIN
 90
        0
 91
        1
 62
     0
 92
       -2
340
0
 93
        0
 40
1.125
309
GRIDFORMAT_END
 95
        8
302
GRIDFORMAT
  1
GRIDFORMAT_BEGIN
 90
        0
 91
        1
 62
     0
 92
       -2
340
0
 93
        0
 40
1.125
309
GRIDFORMAT_END
 95
       16
302
GRIDFORMAT
  1
GRIDFORMAT_BEGIN
 90
        0
 91
        1
 62
     0
 92
       -2
340
0
 93
        0
 40
1.125
309
GRIDFORMAT_END
 95
       32
302
GRIDFORMAT
  1
GRIDFORMAT_BEGIN
 90
        0
 91
        1
 62
     0
 92
       -2
340
0
 93
        0
 40
1.125
309
GRIDFORMAT_END
309
TABLEFORMAT_END
  1
CELLSTYLE_BEGIN
 90
        1
 91
        1
300
_TITLE
309
CELLSTYLE_END
300
CELLSTYLE
  1
TABLEFORMAT_BEGIN
 90
        5
170
     1
 91
        0
 92
        0
 62
   257
 93
        1
300
CONTENTFORMAT
  1
CONTENTFORMAT_BEGIN
 90
        0
 91
        0
 92
      512
 93
        0
300

 40
0.0
140
1.0
 94
        5
 62
     0
340
17
144
4.5
309
CONTENTFORMAT_END
171
     1
301
MARGIN
  1
CELLMARGIN_BEGIN
 40
1.5
 40
1.5
 40
1.5
 40
1.5
 40
0.18
 40
0.18
309
CELLMARGIN_END
 94
        6
 95
        1
302
GRIDFORMAT
  1
GRIDFORMAT_BEGIN
 90
        0
 91
        1
 62
     0
 92
       -2
340
0
 93
        0
 40
1.125
309
GRIDFORMAT_END
 95
        2
302
GRIDFORMAT
  1
GRIDFORMAT_BEGIN
 90
        0
 91
        1
 62
     0
 92
       -2
340
0
 93
        0
 40
1.125
309
GRIDFORMAT_END
 95
        4
302
GRIDFORMAT
  1
GRIDFORMAT_BEGIN
 90
        0
 91
        1
 62
     0
 92
       -2
340
0
 93
        0
 40
1.125
309
GRIDFORMAT_END
 95
        8
302
GRIDFORMAT
  1
GRIDFORMAT_BEGIN
 90
        0
 91
        1
 62
     0
 92
       -2
340
0
 93
        0
 40
1.125
309
GRIDFORMAT_END
 95
       16
302
GRIDFORMAT
  1
GRIDFORMAT_BEGIN
 90
        0
 91
        1
 62
     0
 92
       -2
340
0
 93
        0
 40
1.125
309
GRIDFORMAT_END
 95
       32
302
GRIDFORMAT
  1
GRIDFORMAT_BEGIN
 90
        0
 91
        1
 62
     0
 92
       -2
340
0
 93
        0
 40
1.125
309
GRIDFORMAT_END
309
TABLEFORMAT_END
  1
CELLSTYLE_BEGIN
 90
        2
 91
        1
300
_HEADER
309
CELLSTYLE_END
300
CELLSTYLE
  1
TABLEFORMAT_BEGIN
 90
        5
170
     1
 91
        0
 92
        0
 62
   257
 93
        1
300
CONTENTFORMAT
  1
CONTENTFORMAT_BEGIN
 90
        0
 91
        0
 92
      512
 93
        0
300

 40
0.0
140
1.0
 94
        2
 62
     0
340
17
144
4.5
309
CONTENTFORMAT_END
171
     1
301
MARGIN
  1
CELLMARGIN_BEGIN
 40
1.5
 40
1.5
 40
1.5
 40
1.5
 40
0.18
 40
0.18
309
CELLMARGIN_END
 94
        6
 95
        1
302
GRIDFORMAT
  1
GRIDFORMAT_BEGIN
 90
        0
 91
        1
 62
     0
 92
       -2
340
0
 93
        0
 40
1.125
309
GRIDFORMAT_END
 95
        2
302
GRIDFORMAT
  1
GRIDFORMAT_BEGIN
 90
        0
 91
        1
 62
     0
 92
       -2
340
0
 93
        0
 40
1.125
309
GRIDFORMAT_END
 95
        4
302
GRIDFORMAT
  1
GRIDFORMAT_BEGIN
 90
        0
 91
        1
 62
     0
 92
       -2
340
0
 93
        0
 40
1.125
309
GRIDFORMAT_END
 95
        8
302
GRIDFORMAT
  1
GRIDFORMAT_BEGIN
 90
        0
 91
        1
 62
     0
 92
       -2
340
0
 93
        0
 40
1.125
309
GRIDFORMAT_END
 95
       16
302
GRIDFORMAT
  1
GRIDFORMAT_BEGIN
 90
        0
 91
        1
 62
     0
 92
       -2
340
0
 93
        0
 40
1.125
309
GRIDFORMAT_END
 95
       32
302
GRIDFORMAT
  1
GRIDFORMAT_BEGIN
 90
        0
 91
        1
 62
     0
 92
       -2
340
0
 93
        0
 40
1.125
309
GRIDFORMAT_END
309
TABLEFORMAT_END
  1
CELLSTYLE_BEGIN
 90
        3
 91
        2
300
_DATA
309
CELLSTYLE_END
  0
XRECORD
  5
A0B
102
{ACAD_REACTORS
330
676
102
}
330
676
100
AcDbXrecord
280
     1
102
ACAD_ROUNDTRIP_PRE2007_TABLESTYLE
 90
      512
 91
        0
  1

 92
      512
 93
        0
  2

 94
      512
 95
        0
  3

  0
XRECORD
  5
9F0
102
{ACAD_REACTORS
330
9EF
102
}
330
9EF
100
AcDbXrecord
280
     1
102
RTVSPost2010Prop28
280
     1
102
RTVSPost2010PropOp28
 70
     1
102
RTVSPost2010Prop29
280
     1
102
RTVSPost2010PropOp29
 70
     1
102
RTVSPost2010Prop30
280
     0
102
RTVSPost2010PropOp30
 70
     1
102
RTVSPost2010Prop31
280
     0
102
RTVSPost2010PropOp31
 70
     1
102
RTVSPost2010Prop32
280
     0
102
RTVSPost2010PropOp32
 70
     1
102
RTVSPost2010Prop33
280
     0
102
RTVSPost2010PropOp33
 70
     1
102
RTVSPost2010Prop34
280
     0
102
RTVSPost2010PropOp34
 70
     1
102
RTVSPost2010Prop35
280
     0
102
RTVSPost2010PropOp35
 70
     1
102
RTVSPost2010Prop36
280
     0
102
RTVSPost2010PropOp36
 70
     1
102
RTVSPost2010Prop37
 90
       50
102
RTVSPost2010PropOp37
 70
     1
102
RTVSPost2010Prop38
140
0.0
102
RTVSPost2010PropOp38
 70
     1
102
RTVSPost2010Prop39
140
1.0
102
RTVSPost2010PropOp39
 70
     1
102
RTVSPost2010Prop40
 90
        0
102
RTVSPost2010PropOp40
 70
     1
102
RTVSPost2010Prop41ColorIndex
 90
       18
102
RTVSPost2010Prop41ColorRGB
 90
        0
102
RTVSPost2010PropOp41
 70
     1
102
RTVSPost2010Prop42
 90
       50
102
RTVSPost2010PropOp42
 70
     1
102
RTVSPost2010Prop43
 90
        3
102
RTVSPost2010PropOp43
 70
     1
102
RTVSPost2010Prop44ColorIndex
 90
        5
102
RTVSPost2010Prop44ColorRGB
 90
      255
102
RTVSPost2010PropOp44
 70
     1
102
RTVSPost2010Prop45
280
     0
102
RTVSPost2010PropOp45
 70
     1
102
RTVSPost2010Prop46
 90
       50
102
RTVSPost2010PropOp46
 70
     1
102
RTVSPost2010Prop47
 90
       50
102
RTVSPost2010PropOp47
 70
     1
102
RTVSPost2010Prop48
 90
       50
102
RTVSPost2010PropOp48
 70
     1
102
RTVSPost2010Prop49
280
     0
102
RTVSPost2010PropOp49
 70
     1
102
RTVSPost2010Prop50
 90
       50
102
RTVSPost2010PropOp50
 70
     1
102
RTVSPost2010Prop51ColorIndex
 90
      256
102
RTVSPost2010Prop51ColorRGB
 90
-16777216
102
RTVSPost2010PropOp51
 70
     0
102
RTVSPost2010Prop52
140
1.0
102
RTVSPost2010PropOp52
 70
     0
102
RTVSPost2010Prop53
 90
        2
102
RTVSPost2010PropOp53
 70
     1
102
RTVSPost2010Prop54
  1
strokes_ogs.tif
102
RTVSPost2010PropOp54
 70
     1
102
RTVSPost2010Prop55
280
     0
102
RTVSPost2010PropOp55
 70
     1
102
RTVSPost2010Prop56
140
1.0
102
RTVSPost2010PropOp56
 70
     1
102
RTVSPost2010Prop57
140
1.0
102
RTVSPost2010PropOp57
 70
     1
102
RTVSPropertyOp0
 70
     1
102
RTVSPropertyOp1
 70
     1
102
RTVSPropertyOp2
 70
     1
102
RTVSPropertyOp3
 70
     1
102
RTVSPropertyOp4
 70
     1
102
RTVSPropertyOp5
 70
     1
102
RTVSPropertyOp6
 70
     1
102
RTVSPropertyOp7
 70
     1
102
RTVSPropertyOp8
 70
     1
102
RTVSPropertyOp9
 70
     1
102
RTVSPropertyOp10
 70
     1
102
RTVSPropertyOp11
 70
     1
102
RTVSPropertyOp12
 70
     1
102
RTVSPropertyOp13
 70
     1
102
RTVSPropertyOp14
 70
     1
102
RTVSPropertyOp15
 70
     1
102
RTVSPropertyOp16
 70
     1
102
RTVSPropertyOp17
 70
     1
102
RTVSPropertyOp18
 70
     1
102
RTVSPropertyOp19
 70
     1
102
RTVSPropertyOp20
 70
     1
102
RTVSPropertyOp21
 70
     1
102
RTVSPropertyOp22
 70
     1
102
RTVSPropertyOp23
 70
     1
102
RTVSPropertyOp24
 70
     1
102
RTVSPropertyOp25
 70
     1
102
RTVSPropertyOp26
 70
     1
102
RTVSPropertyOp27
 70
     1
102
RTVSPropertyOp28
 70
     1
102
RTVSPropertyOp29
 70
     1
102
RTVSPropertyOp30
 70
     1
102
RTVSPropertyOp31
 70
     1
102
RTVSPropertyOp32
 70
     1
102
RTVSPropertyOp33
 70
     1
102
RTVSPropertyOp34
 70
     1
102
RTVSPropertyOp35
 70
     1
102
RTVSPropertyOp36
 70
     1
102
RTVSPropertyOp37
 70
     1
102
RTVSPropertyOp38
 70
     1
102
RTVSPropertyOp39
 70
     1
102
RTVSPropertyOp40
 70
     1
102
RTVSPropertyOp41
 70
     1
102
RTVSPropertyOp42
 70
     1
102
RTVSPropertyOp43
 70
     1
102
RTVSPropertyOp44
 70
     1
102
RTVSPropertyOp45
 70
     1
102
RTVSPropertyOp46
 70
     1
102
RTVSPropertyOp47
 70
     1
102
RTVSPropertyOp48
 70
     1
102
RTVSPropertyOp49
 70
     1
102
RTVSPropertyOp50
 70
     1
102
RTVSPropertyOp51
 70
     0
102
RTVSPropertyOp52
 70
     0
102
RTVSPropertyOp53
 70
     1
102
RTVSPropertyOp54
 70
     1
102
RTVSPropertyOp55
 70
     1
102
RTVSPropertyOp56
 70
     1
102
RTVSPropertyOp57
 70
     1
102
RTVSPropertyOp58
 70
     1
102
RTVSPropertyOp59
 70
     1
102
RTVSPropertyOp60
 70
     1
102
RTVSPropertyOp61
 70
     1
102
RTVSPropertyOp62
 70
     1
  0
XRECORD
  5
9F4
102
{ACAD_REACTORS
330
9F3
102
}
330
9F3
100
AcDbXrecord
280
     1
102
RTVSPost2010Prop28
280
     0
102
RTVSPost2010PropOp28
 70
     1
102
RTVSPost2010Prop29
280
     1
102
RTVSPost2010PropOp29
 70
     1
102
RTVSPost2010Prop30
280
     1
102
RTVSPost2010PropOp30
 70
     1
102
RTVSPost2010Prop31
280
     0
102
RTVSPost2010PropOp31
 70
     1
102
RTVSPost2010Prop32
280
     0
102
RTVSPost2010PropOp32
 70
     1
102
RTVSPost2010Prop33
280
     0
102
RTVSPost2010PropOp33
 70
     1
102
RTVSPost2010Prop34
280
     0
102
RTVSPost2010PropOp34
 70
     1
102
RTVSPost2010Prop35
280
     0
102
RTVSPost2010PropOp35
 70
     1
102
RTVSPost2010Prop36
280
     0
102
RTVSPost2010PropOp36
 70
     1
102
RTVSPost2010Prop37
 90
       50
102
RTVSPost2010PropOp37
 70
     1
102
RTVSPost2010Prop38
140
0.0
102
RTVSPost2010PropOp38
 70
     1
102
RTVSPost2010Prop39
140
1.0
102
RTVSPost2010PropOp39
 70
     1
102
RTVSPost2010Prop40
 90
        0
102
RTVSPost2010PropOp40
 70
     1
102
RTVSPost2010Prop41ColorIndex
 90
       18
102
RTVSPost2010Prop41ColorRGB
 90
        0
102
RTVSPost2010PropOp41
 70
     1
102
RTVSPost2010Prop42
 90
       50
102
RTVSPost2010PropOp42
 70
     1
102
RTVSPost2010Prop43
 90
        3
102
RTVSPost2010PropOp43
 70
     1
102
RTVSPost2010Prop44ColorIndex
 90
        5
102
RTVSPost2010Prop44ColorRGB
 90
      255
102
RTVSPost2010PropOp44
 70
     1
102
RTVSPost2010Prop45
280
     0
102
RTVSPost2010PropOp45
 70
     1
102
RTVSPost2010Prop46
 90
       50
102
RTVSPost2010PropOp46
 70
     1
102
RTVSPost2010Prop47
 90
       50
102
RTVSPost2010PropOp47
 70
     1
102
RTVSPost2010Prop48
 90
       50
102
RTVSPost2010PropOp48
 70
     1
102
RTVSPost2010Prop49
280
     0
102
RTVSPost2010PropOp49
 70
     1
102
RTVSPost2010Prop50
 90
       50
102
RTVSPost2010PropOp50
 70
     1
102
RTVSPost2010Prop51ColorIndex
 90
      256
102
RTVSPost2010Prop51ColorRGB
 90
-16777216
102
RTVSPost2010PropOp51
 70
     0
102
RTVSPost2010Prop52
140
1.0
102
RTVSPost2010PropOp52
 70
     0
102
RTVSPost2010Prop53
 90
        2
102
RTVSPost2010PropOp53
 70
     1
102
RTVSPost2010Prop54
  1
strokes_ogs.tif
102
RTVSPost2010PropOp54
 70
     1
102
RTVSPost2010Prop55
280
     0
102
RTVSPost2010PropOp55
 70
     1
102
RTVSPost2010Prop56
140
1.0
102
RTVSPost2010PropOp56
 70
     1
102
RTVSPost2010Prop57
140
1.0
102
RTVSPost2010PropOp57
 70
     1
102
RTVSPropertyOp0
 70
     1
102
RTVSPropertyOp1
 70
     1
102
RTVSPropertyOp2
 70
     1
102
RTVSPropertyOp3
 70
     1
102
RTVSPropertyOp4
 70
     1
102
RTVSPropertyOp5
 70
     1
102
RTVSPropertyOp6
 70
     1
102
RTVSPropertyOp7
 70
     1
102
RTVSPropertyOp8
 70
     1
102
RTVSPropertyOp9
 70
     1
102
RTVSPropertyOp10
 70
     1
102
RTVSPropertyOp11
 70
     1
102
RTVSPropertyOp12
 70
     1
102
RTVSPropertyOp13
 70
     1
102
RTVSPropertyOp14
 70
     1
102
RTVSPropertyOp15
 70
     1
102
RTVSPropertyOp16
 70
     1
102
RTVSPropertyOp17
 70
     1
102
RTVSPropertyOp18
 70
     1
102
RTVSPropertyOp19
 70
     1
102
RTVSPropertyOp20
 70
     1
102
RTVSPropertyOp21
 70
     1
102
RTVSPropertyOp22
 70
     1
102
RTVSPropertyOp23
 70
     1
102
RTVSPropertyOp24
 70
     1
102
RTVSPropertyOp25
 70
     1
102
RTVSPropertyOp26
 70
     1
102
RTVSPropertyOp27
 70
     1
102
RTVSPropertyOp28
 70
     1
102
RTVSPropertyOp29
 70
     1
102
RTVSPropertyOp30
 70
     1
102
RTVSPropertyOp31
 70
     1
102
RTVSPropertyOp32
 70
     1
102
RTVSPropertyOp33
 70
     1
102
RTVSPropertyOp34
 70
     1
102
RTVSPropertyOp35
 70
     1
102
RTVSPropertyOp36
 70
     1
102
RTVSPropertyOp37
 70
     1
102
RTVSPropertyOp38
 70
     1
102
RTVSPropertyOp39
 70
     1
102
RTVSPropertyOp40
 70
     1
102
RTVSPropertyOp41
 70
     1
102
RTVSPropertyOp42
 70
     1
102
RTVSPropertyOp43
 70
     1
102
RTVSPropertyOp44
 70
     1
102
RTVSPropertyOp45
 70
     1
102
RTVSPropertyOp46
 70
     1
102
RTVSPropertyOp47
 70
     1
102
RTVSPropertyOp48
 70
     1
102
RTVSPropertyOp49
 70
     1
102
RTVSPropertyOp50
 70
     1
102
RTVSPropertyOp51
 70
     0
102
RTVSPropertyOp52
 70
     0
102
RTVSPropertyOp53
 70
     1
102
RTVSPropertyOp54
 70
     1
102
RTVSPropertyOp55
 70
     1
102
RTVSPropertyOp56
 70
     1
102
RTVSPropertyOp57
 70
     1
102
RTVSPropertyOp58
 70
     1
102
RTVSPropertyOp59
 70
     1
102
RTVSPropertyOp60
 70
     1
102
RTVSPropertyOp61
 70
     1
102
RTVSPropertyOp62
 70
     1
  0
XRECORD
  5
9F2
102
{ACAD_REACTORS
330
9F1
102
}
330
9F1
100
AcDbXrecord
280
     1
102
RTVSPost2010Prop28
280
     0
102
RTVSPost2010PropOp28
 70
     1
102
RTVSPost2010Prop29
280
     1
102
RTVSPost2010PropOp29
 70
     1
102
RTVSPost2010Prop30
280
     1
102
RTVSPost2010PropOp30
 70
     1
102
RTVSPost2010Prop31
280
     0
102
RTVSPost2010PropOp31
 70
     1
102
RTVSPost2010Prop32
280
     0
102
RTVSPost2010PropOp32
 70
     1
102
RTVSPost2010Prop33
280
     0
102
RTVSPost2010PropOp33
 70
     1
102
RTVSPost2010Prop34
280
     0
102
RTVSPost2010PropOp34
 70
     1
102
RTVSPost2010Prop35
280
     0
102
RTVSPost2010PropOp35
 70
     1
102
RTVSPost2010Prop36
280
     0
102
RTVSPost2010PropOp36
 70
     1
102
RTVSPost2010Prop37
 90
       50
102
RTVSPost2010PropOp37
 70
     1
102
RTVSPost2010Prop38
140
0.0
102
RTVSPost2010PropOp38
 70
     1
102
RTVSPost2010Prop39
140
1.0
102
RTVSPost2010PropOp39
 70
     1
102
RTVSPost2010Prop40
 90
        0
102
RTVSPost2010PropOp40
 70
     1
102
RTVSPost2010Prop41ColorIndex
 90
       18
102
RTVSPost2010Prop41ColorRGB
 90
        0
102
RTVSPost2010PropOp41
 70
     1
102
RTVSPost2010Prop42
 90
       50
102
RTVSPost2010PropOp42
 70
     1
102
RTVSPost2010Prop43
 90
        3
102
RTVSPost2010PropOp43
 70
     1
102
RTVSPost2010Prop44ColorIndex
 90
        5
102
RTVSPost2010Prop44ColorRGB
 90
      255
102
RTVSPost2010PropOp44
 70
     1
102
RTVSPost2010Prop45
280
     0
102
RTVSPost2010PropOp45
 70
     1
102
RTVSPost2010Prop46
 90
       50
102
RTVSPost2010PropOp46
 70
     1
102
RTVSPost2010Prop47
 90
       50
102
RTVSPost2010PropOp47
 70
     1
102
RTVSPost2010Prop48
 90
       50
102
RTVSPost2010PropOp48
 70
     1
102
RTVSPost2010Prop49
280
     0
102
RTVSPost2010PropOp49
 70
     1
102
RTVSPost2010Prop50
 90
       50
102
RTVSPost2010PropOp50
 70
     1
102
RTVSPost2010Prop51ColorIndex
 90
      256
102
RTVSPost2010Prop51ColorRGB
 90
-16777216
102
RTVSPost2010PropOp51
 70
     0
102
RTVSPost2010Prop52
140
1.0
102
RTVSPost2010PropOp52
 70
     0
102
RTVSPost2010Prop53
 90
        2
102
RTVSPost2010PropOp53
 70
     1
102
RTVSPost2010Prop54
  1
strokes_ogs.tif
102
RTVSPost2010PropOp54
 70
     1
102
RTVSPost2010Prop55
280
     0
102
RTVSPost2010PropOp55
 70
     1
102
RTVSPost2010Prop56
140
1.0
102
RTVSPost2010PropOp56
 70
     1
102
RTVSPost2010Prop57
140
1.0
102
RTVSPost2010PropOp57
 70
     1
102
RTVSPropertyOp0
 70
     1
102
RTVSPropertyOp1
 70
     1
102
RTVSPropertyOp2
 70
     1
102
RTVSPropertyOp3
 70
     1
102
RTVSPropertyOp4
 70
     1
102
RTVSPropertyOp5
 70
     1
102
RTVSPropertyOp6
 70
     1
102
RTVSPropertyOp7
 70
     1
102
RTVSPropertyOp8
 70
     1
102
RTVSPropertyOp9
 70
     1
102
RTVSPropertyOp10
 70
     1
102
RTVSPropertyOp11
 70
     1
102
RTVSPropertyOp12
 70
     1
102
RTVSPropertyOp13
 70
     1
102
RTVSPropertyOp14
 70
     1
102
RTVSPropertyOp15
 70
     1
102
RTVSPropertyOp16
 70
     1
102
RTVSPropertyOp17
 70
     1
102
RTVSPropertyOp18
 70
     1
102
RTVSPropertyOp19
 70
     1
102
RTVSPropertyOp20
 70
     1
102
RTVSPropertyOp21
 70
     1
102
RTVSPropertyOp22
 70
     1
102
RTVSPropertyOp23
 70
     1
102
RTVSPropertyOp24
 70
     1
102
RTVSPropertyOp25
 70
     1
102
RTVSPropertyOp26
 70
     1
102
RTVSPropertyOp27
 70
     1
102
RTVSPropertyOp28
 70
     1
102
RTVSPropertyOp29
 70
     1
102
RTVSPropertyOp30
 70
     1
102
RTVSPropertyOp31
 70
     1
102
RTVSPropertyOp32
 70
     1
102
RTVSPropertyOp33
 70
     1
102
RTVSPropertyOp34
 70
     1
102
RTVSPropertyOp35
 70
     1
102
RTVSPropertyOp36
 70
     1
102
RTVSPropertyOp37
 70
     1
102
RTVSPropertyOp38
 70
     1
102
RTVSPropertyOp39
 70
     1
102
RTVSPropertyOp40
 70
     1
102
RTVSPropertyOp41
 70
     1
102
RTVSPropertyOp42
 70
     1
102
RTVSPropertyOp43
 70
     1
102
RTVSPropertyOp44
 70
     1
102
RTVSPropertyOp45
 70
     1
102
RTVSPropertyOp46
 70
     1
102
RTVSPropertyOp47
 70
     1
102
RTVSPropertyOp48
 70
     1
102
RTVSPropertyOp49
 70
     1
102
RTVSPropertyOp50
 70
     1
102
RTVSPropertyOp51
 70
     0
102
RTVSPropertyOp52
 70
     0
102
RTVSPropertyOp53
 70
     1
102
RTVSPropertyOp54
 70
     1
102
RTVSPropertyOp55
 70
     1
102
RTVSPropertyOp56
 70
     1
102
RTVSPropertyOp57
 70
     1
102
RTVSPropertyOp58
 70
     1
102
RTVSPropertyOp59
 70
     1
102
RTVSPropertyOp60
 70
     1
102
RTVSPropertyOp61
 70
     1
102
RTVSPropertyOp62
 70
     1
  0
XRECORD
  5
9EE
102
{ACAD_REACTORS
330
9ED
102
}
330
9ED
100
AcDbXrecord
280
     1
102
RTVSPost2010Prop28
280
     0
102
RTVSPost2010PropOp28
 70
     1
102
RTVSPost2010Prop29
280
     1
102
RTVSPost2010PropOp29
 70
     1
102
RTVSPost2010Prop30
280
     1
102
RTVSPost2010PropOp30
 70
     1
102
RTVSPost2010Prop31
280
     0
102
RTVSPost2010PropOp31
 70
     1
102
RTVSPost2010Prop32
280
     0
102
RTVSPost2010PropOp32
 70
     1
102
RTVSPost2010Prop33
280
     0
102
RTVSPost2010PropOp33
 70
     1
102
RTVSPost2010Prop34
280
     0
102
RTVSPost2010PropOp34
 70
     1
102
RTVSPost2010Prop35
280
     0
102
RTVSPost2010PropOp35
 70
     1
102
RTVSPost2010Prop36
280
     0
102
RTVSPost2010PropOp36
 70
     1
102
RTVSPost2010Prop37
 90
       50
102
RTVSPost2010PropOp37
 70
     1
102
RTVSPost2010Prop38
140
0.0
102
RTVSPost2010PropOp38
 70
     1
102
RTVSPost2010Prop39
140
1.0
102
RTVSPost2010PropOp39
 70
     1
102
RTVSPost2010Prop40
 90
        0
102
RTVSPost2010PropOp40
 70
     1
102
RTVSPost2010Prop41ColorIndex
 90
       18
102
RTVSPost2010Prop41ColorRGB
 90
        0
102
RTVSPost2010PropOp41
 70
     1
102
RTVSPost2010Prop42
 90
       50
102
RTVSPost2010PropOp42
 70
     1
102
RTVSPost2010Prop43
 90
        3
102
RTVSPost2010PropOp43
 70
     1
102
RTVSPost2010Prop44ColorIndex
 90
        5
102
RTVSPost2010Prop44ColorRGB
 90
      255
102
RTVSPost2010PropOp44
 70
     1
102
RTVSPost2010Prop45
280
     0
102
RTVSPost2010PropOp45
 70
     1
102
RTVSPost2010Prop46
 90
       50
102
RTVSPost2010PropOp46
 70
     1
102
RTVSPost2010Prop47
 90
       50
102
RTVSPost2010PropOp47
 70
     1
102
RTVSPost2010Prop48
 90
       50
102
RTVSPost2010PropOp48
 70
     1
102
RTVSPost2010Prop49
280
     0
102
RTVSPost2010PropOp49
 70
     1
102
RTVSPost2010Prop50
 90
       50
102
RTVSPost2010PropOp50
 70
     1
102
RTVSPost2010Prop51ColorIndex
 90
      256
102
RTVSPost2010Prop51ColorRGB
 90
-16777216
102
RTVSPost2010PropOp51
 70
     0
102
RTVSPost2010Prop52
140
1.0
102
RTVSPost2010PropOp52
 70
     0
102
RTVSPost2010Prop53
 90
        2
102
RTVSPost2010PropOp53
 70
     1
102
RTVSPost2010Prop54
  1
strokes_ogs.tif
102
RTVSPost2010PropOp54
 70
     1
102
RTVSPost2010Prop55
280
     0
102
RTVSPost2010PropOp55
 70
     1
102
RTVSPost2010Prop56
140
1.0
102
RTVSPost2010PropOp56
 70
     1
102
RTVSPost2010Prop57
140
1.0
102
RTVSPost2010PropOp57
 70
     1
102
RTVSPropertyOp0
 70
     1
102
RTVSPropertyOp1
 70
     1
102
RTVSPropertyOp2
 70
     1
102
RTVSPropertyOp3
 70
     1
102
RTVSPropertyOp4
 70
     1
102
RTVSPropertyOp5
 70
     1
102
RTVSPropertyOp6
 70
     1
102
RTVSPropertyOp7
 70
     1
102
RTVSPropertyOp8
 70
     1
102
RTVSPropertyOp9
 70
     1
102
RTVSPropertyOp10
 70
     1
102
RTVSPropertyOp11
 70
     1
102
RTVSPropertyOp12
 70
     1
102
RTVSPropertyOp13
 70
     1
102
RTVSPropertyOp14
 70
     1
102
RTVSPropertyOp15
 70
     1
102
RTVSPropertyOp16
 70
     1
102
RTVSPropertyOp17
 70
     1
102
RTVSPropertyOp18
 70
     1
102
RTVSPropertyOp19
 70
     1
102
RTVSPropertyOp20
 70
     1
102
RTVSPropertyOp21
 70
     1
102
RTVSPropertyOp22
 70
     1
102
RTVSPropertyOp23
 70
     1
102
RTVSPropertyOp24
 70
     1
102
RTVSPropertyOp25
 70
     1
102
RTVSPropertyOp26
 70
     1
102
RTVSPropertyOp27
 70
     1
102
RTVSPropertyOp28
 70
     1
102
RTVSPropertyOp29
 70
     1
102
RTVSPropertyOp30
 70
     1
102
RTVSPropertyOp31
 70
     1
102
RTVSPropertyOp32
 70
     1
102
RTVSPropertyOp33
 70
     1
102
RTVSPropertyOp34
 70
     1
102
RTVSPropertyOp35
 70
     1
102
RTVSPropertyOp36
 70
     1
102
RTVSPropertyOp37
 70
     1
102
RTVSPropertyOp38
 70
     1
102
RTVSPropertyOp39
 70
     1
102
RTVSPropertyOp40
 70
     1
102
RTVSPropertyOp41
 70
     1
102
RTVSPropertyOp42
 70
     1
102
RTVSPropertyOp43
 70
     1
102
RTVSPropertyOp44
 70
     1
102
RTVSPropertyOp45
 70
     1
102
RTVSPropertyOp46
 70
     1
102
RTVSPropertyOp47
 70
     1
102
RTVSPropertyOp48
 70
     1
102
RTVSPropertyOp49
 70
     1
102
RTVSPropertyOp50
 70
     1
102
RTVSPropertyOp51
 70
     0
102
RTVSPropertyOp52
 70
     0
102
RTVSPropertyOp53
 70
     1
102
RTVSPropertyOp54
 70
     1
102
RTVSPropertyOp55
 70
     1
102
RTVSPropertyOp56
 70
     1
102
RTVSPropertyOp57
 70
     1
102
RTVSPropertyOp58
 70
     1
102
RTVSPropertyOp59
 70
     1
102
RTVSPropertyOp60
 70
     1
102
RTVSPropertyOp61
 70
     1
102
RTVSPropertyOp62
 70
     1
  0
XRECORD
  5
9FC
102
{ACAD_REACTORS
330
9FB
102
}
330
9FB
100
AcDbXrecord
280
     1
102
RTVSPost2010Prop28
280
     0
102
RTVSPost2010PropOp28
 70
     1
102
RTVSPost2010Prop29
280
     1
102
RTVSPost2010PropOp29
 70
     1
102
RTVSPost2010Prop30
280
     1
102
RTVSPost2010PropOp30
 70
     1
102
RTVSPost2010Prop31
280
     0
102
RTVSPost2010PropOp31
 70
     1
102
RTVSPost2010Prop32
280
     0
102
RTVSPost2010PropOp32
 70
     1
102
RTVSPost2010Prop33
280
     0
102
RTVSPost2010PropOp33
 70
     1
102
RTVSPost2010Prop34
280
     0
102
RTVSPost2010PropOp34
 70
     1
102
RTVSPost2010Prop35
280
     0
102
RTVSPost2010PropOp35
 70
     1
102
RTVSPost2010Prop36
280
     0
102
RTVSPost2010PropOp36
 70
     1
102
RTVSPost2010Prop37
 90
       50
102
RTVSPost2010PropOp37
 70
     1
102
RTVSPost2010Prop38
140
0.0
102
RTVSPost2010PropOp38
 70
     1
102
RTVSPost2010Prop39
140
1.0
102
RTVSPost2010PropOp39
 70
     1
102
RTVSPost2010Prop40
 90
        0
102
RTVSPost2010PropOp40
 70
     1
102
RTVSPost2010Prop41ColorIndex
 90
       18
102
RTVSPost2010Prop41ColorRGB
 90
        0
102
RTVSPost2010PropOp41
 70
     1
102
RTVSPost2010Prop42
 90
       50
102
RTVSPost2010PropOp42
 70
     1
102
RTVSPost2010Prop43
 90
        3
102
RTVSPost2010PropOp43
 70
     1
102
RTVSPost2010Prop44ColorIndex
 90
        5
102
RTVSPost2010Prop44ColorRGB
 90
      255
102
RTVSPost2010PropOp44
 70
     1
102
RTVSPost2010Prop45
280
     0
102
RTVSPost2010PropOp45
 70
     1
102
RTVSPost2010Prop46
 90
       50
102
RTVSPost2010PropOp46
 70
     1
102
RTVSPost2010Prop47
 90
       50
102
RTVSPost2010PropOp47
 70
     1
102
RTVSPost2010Prop48
 90
       50
102
RTVSPost2010PropOp48
 70
     1
102
RTVSPost2010Prop49
280
     0
102
RTVSPost2010PropOp49
 70
     1
102
RTVSPost2010Prop50
 90
       50
102
RTVSPost2010PropOp50
 70
     1
102
RTVSPost2010Prop51ColorIndex
 90
      256
102
RTVSPost2010Prop51ColorRGB
 90
-16777216
102
RTVSPost2010PropOp51
 70
     0
102
RTVSPost2010Prop52
140
1.0
102
RTVSPost2010PropOp52
 70
     0
102
RTVSPost2010Prop53
 90
        2
102
RTVSPost2010PropOp53
 70
     1
102
RTVSPost2010Prop54
  1
strokes_ogs.tif
102
RTVSPost2010PropOp54
 70
     1
102
RTVSPost2010Prop55
280
     0
102
RTVSPost2010PropOp55
 70
     1
102
RTVSPost2010Prop56
140
1.0
102
RTVSPost2010PropOp56
 70
     1
102
RTVSPost2010Prop57
140
1.0
102
RTVSPost2010PropOp57
 70
     1
102
RTVSPropertyOp0
 70
     1
102
RTVSPropertyOp1
 70
     1
102
RTVSPropertyOp2
 70
     1
102
RTVSPropertyOp3
 70
     1
102
RTVSPropertyOp4
 70
     1
102
RTVSPropertyOp5
 70
     1
102
RTVSPropertyOp6
 70
     1
102
RTVSPropertyOp7
 70
     1
102
RTVSPropertyOp8
 70
     1
102
RTVSPropertyOp9
 70
     1
102
RTVSPropertyOp10
 70
     1
102
RTVSPropertyOp11
 70
     1
102
RTVSPropertyOp12
 70
     1
102
RTVSPropertyOp13
 70
     1
102
RTVSPropertyOp14
 70
     1
102
RTVSPropertyOp15
 70
     1
102
RTVSPropertyOp16
 70
     1
102
RTVSPropertyOp17
 70
     1
102
RTVSPropertyOp18
 70
     1
102
RTVSPropertyOp19
 70
     1
102
RTVSPropertyOp20
 70
     1
102
RTVSPropertyOp21
 70
     1
102
RTVSPropertyOp22
 70
     1
102
RTVSPropertyOp23
 70
     1
102
RTVSPropertyOp24
 70
     1
102
RTVSPropertyOp25
 70
     1
102
RTVSPropertyOp26
 70
     1
102
RTVSPropertyOp27
 70
     1
102
RTVSPropertyOp28
 70
     1
102
RTVSPropertyOp29
 70
     1
102
RTVSPropertyOp30
 70
     1
102
RTVSPropertyOp31
 70
     1
102
RTVSPropertyOp32
 70
     1
102
RTVSPropertyOp33
 70
     1
102
RTVSPropertyOp34
 70
     1
102
RTVSPropertyOp35
 70
     1
102
RTVSPropertyOp36
 70
     1
102
RTVSPropertyOp37
 70
     1
102
RTVSPropertyOp38
 70
     1
102
RTVSPropertyOp39
 70
     1
102
RTVSPropertyOp40
 70
     1
102
RTVSPropertyOp41
 70
     1
102
RTVSPropertyOp42
 70
     1
102
RTVSPropertyOp43
 70
     1
102
RTVSPropertyOp44
 70
     1
102
RTVSPropertyOp45
 70
     1
102
RTVSPropertyOp46
 70
     1
102
RTVSPropertyOp47
 70
     1
102
RTVSPropertyOp48
 70
     1
102
RTVSPropertyOp49
 70
     1
102
RTVSPropertyOp50
 70
     1
102
RTVSPropertyOp51
 70
     0
102
RTVSPropertyOp52
 70
     0
102
RTVSPropertyOp53
 70
     1
102
RTVSPropertyOp54
 70
     1
102
RTVSPropertyOp55
 70
     1
102
RTVSPropertyOp56
 70
     1
102
RTVSPropertyOp57
 70
     1
102
RTVSPropertyOp58
 70
     1
102
RTVSPropertyOp59
 70
     1
102
RTVSPropertyOp60
 70
     1
102
RTVSPropertyOp61
 70
     1
102
RTVSPropertyOp62
 70
     1
  0
XRECORD
  5
A04
102
{ACAD_REACTORS
330
A03
102
}
330
A03
100
AcDbXrecord
280
     1
102
RTVSPost2010Prop28
280
     0
102
RTVSPost2010PropOp28
 70
     1
102
RTVSPost2010Prop29
280
     1
102
RTVSPost2010PropOp29
 70
     1
102
RTVSPost2010Prop30
280
     1
102
RTVSPost2010PropOp30
 70
     1
102
RTVSPost2010Prop31
280
     0
102
RTVSPost2010PropOp31
 70
     1
102
RTVSPost2010Prop32
280
     0
102
RTVSPost2010PropOp32
 70
     1
102
RTVSPost2010Prop33
280
     0
102
RTVSPost2010PropOp33
 70
     1
102
RTVSPost2010Prop34
280
     0
102
RTVSPost2010PropOp34
 70
     1
102
RTVSPost2010Prop35
280
     0
102
RTVSPost2010PropOp35
 70
     1
102
RTVSPost2010Prop36
280
     0
102
RTVSPost2010PropOp36
 70
     1
102
RTVSPost2010Prop37
 90
       50
102
RTVSPost2010PropOp37
 70
     1
102
RTVSPost2010Prop38
140
0.0
102
RTVSPost2010PropOp38
 70
     1
102
RTVSPost2010Prop39
140
1.0
102
RTVSPost2010PropOp39
 70
     1
102
RTVSPost2010Prop40
 90
        0
102
RTVSPost2010PropOp40
 70
     1
102
RTVSPost2010Prop41ColorIndex
 90
       18
102
RTVSPost2010Prop41ColorRGB
 90
        0
102
RTVSPost2010PropOp41
 70
     1
102
RTVSPost2010Prop42
 90
       50
102
RTVSPost2010PropOp42
 70
     1
102
RTVSPost2010Prop43
 90
        3
102
RTVSPost2010PropOp43
 70
     1
102
RTVSPost2010Prop44ColorIndex
 90
        5
102
RTVSPost2010Prop44ColorRGB
 90
      255
102
RTVSPost2010PropOp44
 70
     1
102
RTVSPost2010Prop45
280
     0
102
RTVSPost2010PropOp45
 70
     1
102
RTVSPost2010Prop46
 90
       50
102
RTVSPost2010PropOp46
 70
     1
102
RTVSPost2010Prop47
 90
       50
102
RTVSPost2010PropOp47
 70
     1
102
RTVSPost2010Prop48
 90
       50
102
RTVSPost2010PropOp48
 70
     1
102
RTVSPost2010Prop49
280
     0
102
RTVSPost2010PropOp49
 70
     1
102
RTVSPost2010Prop50
 90
       50
102
RTVSPost2010PropOp50
 70
     1
102
RTVSPost2010Prop51ColorIndex
 90
      256
102
RTVSPost2010Prop51ColorRGB
 90
-16777216
102
RTVSPost2010PropOp51
 70
     0
102
RTVSPost2010Prop52
140
1.0
102
RTVSPost2010PropOp52
 70
     0
102
RTVSPost2010Prop53
 90
        2
102
RTVSPost2010PropOp53
 70
     1
102
RTVSPost2010Prop54
  1
strokes_ogs.tif
102
RTVSPost2010PropOp54
 70
     1
102
RTVSPost2010Prop55
280
     0
102
RTVSPost2010PropOp55
 70
     1
102
RTVSPost2010Prop56
140
1.0
102
RTVSPost2010PropOp56
 70
     1
102
RTVSPost2010Prop57
140
1.0
102
RTVSPost2010PropOp57
 70
     1
102
RTVSPropertyOp0
 70
     1
102
RTVSPropertyOp1
 70
     1
102
RTVSPropertyOp2
 70
     1
102
RTVSPropertyOp3
 70
     1
102
RTVSPropertyOp4
 70
     1
102
RTVSPropertyOp5
 70
     1
102
RTVSPropertyOp6
 70
     1
102
RTVSPropertyOp7
 70
     1
102
RTVSPropertyOp8
 70
     1
102
RTVSPropertyOp9
 70
     1
102
RTVSPropertyOp10
 70
     1
102
RTVSPropertyOp11
 70
     1
102
RTVSPropertyOp12
 70
     1
102
RTVSPropertyOp13
 70
     1
102
RTVSPropertyOp14
 70
     1
102
RTVSPropertyOp15
 70
     1
102
RTVSPropertyOp16
 70
     1
102
RTVSPropertyOp17
 70
     1
102
RTVSPropertyOp18
 70
     1
102
RTVSPropertyOp19
 70
     1
102
RTVSPropertyOp20
 70
     1
102
RTVSPropertyOp21
 70
     1
102
RTVSPropertyOp22
 70
     1
102
RTVSPropertyOp23
 70
     1
102
RTVSPropertyOp24
 70
     1
102
RTVSPropertyOp25
 70
     1
102
RTVSPropertyOp26
 70
     1
102
RTVSPropertyOp27
 70
     1
102
RTVSPropertyOp28
 70
     1
102
RTVSPropertyOp29
 70
     1
102
RTVSPropertyOp30
 70
     1
102
RTVSPropertyOp31
 70
     1
102
RTVSPropertyOp32
 70
     1
102
RTVSPropertyOp33
 70
     1
102
RTVSPropertyOp34
 70
     1
102
RTVSPropertyOp35
 70
     1
102
RTVSPropertyOp36
 70
     1
102
RTVSPropertyOp37
 70
     1
102
RTVSPropertyOp38
 70
     1
102
RTVSPropertyOp39
 70
     1
102
RTVSPropertyOp40
 70
     1
102
RTVSPropertyOp41
 70
     1
102
RTVSPropertyOp42
 70
     1
102
RTVSPropertyOp43
 70
     1
102
RTVSPropertyOp44
 70
     1
102
RTVSPropertyOp45
 70
     1
102
RTVSPropertyOp46
 70
     1
102
RTVSPropertyOp47
 70
     1
102
RTVSPropertyOp48
 70
     1
102
RTVSPropertyOp49
 70
     1
102
RTVSPropertyOp50
 70
     1
102
RTVSPropertyOp51
 70
     0
102
RTVSPropertyOp52
 70
     0
102
RTVSPropertyOp53
 70
     1
102
RTVSPropertyOp54
 70
     1
102
RTVSPropertyOp55
 70
     1
102
RTVSPropertyOp56
 70
     1
102
RTVSPropertyOp57
 70
     1
102
RTVSPropertyOp58
 70
     1
102
RTVSPropertyOp59
 70
     1
102
RTVSPropertyOp60
 70
     1
102
RTVSPropertyOp61
 70
     1
102
RTVSPropertyOp62
 70
     1
  0
XRECORD
  5
9F6
102
{ACAD_REACTORS
330
9F5
102
}
330
9F5
100
AcDbXrecord
280
     1
102
RTVSPost2010Prop28
280
     0
102
RTVSPost2010PropOp28
 70
     1
102
RTVSPost2010Prop29
280
     1
102
RTVSPost2010PropOp29
 70
     1
102
RTVSPost2010Prop30
280
     1
102
RTVSPost2010PropOp30
 70
     1
102
RTVSPost2010Prop31
280
     0
102
RTVSPost2010PropOp31
 70
     1
102
RTVSPost2010Prop32
280
     0
102
RTVSPost2010PropOp32
 70
     1
102
RTVSPost2010Prop33
280
     0
102
RTVSPost2010PropOp33
 70
     1
102
RTVSPost2010Prop34
280
     0
102
RTVSPost2010PropOp34
 70
     1
102
RTVSPost2010Prop35
280
     0
102
RTVSPost2010PropOp35
 70
     1
102
RTVSPost2010Prop36
280
     0
102
RTVSPost2010PropOp36
 70
     1
102
RTVSPost2010Prop37
 90
       50
102
RTVSPost2010PropOp37
 70
     1
102
RTVSPost2010Prop38
140
0.0
102
RTVSPost2010PropOp38
 70
     1
102
RTVSPost2010Prop39
140
1.0
102
RTVSPost2010PropOp39
 70
     1
102
RTVSPost2010Prop40
 90
        0
102
RTVSPost2010PropOp40
 70
     1
102
RTVSPost2010Prop41ColorIndex
 90
       18
102
RTVSPost2010Prop41ColorRGB
 90
        0
102
RTVSPost2010PropOp41
 70
     1
102
RTVSPost2010Prop42
 90
       50
102
RTVSPost2010PropOp42
 70
     1
102
RTVSPost2010Prop43
 90
        3
102
RTVSPost2010PropOp43
 70
     1
102
RTVSPost2010Prop44ColorIndex
 90
        5
102
RTVSPost2010Prop44ColorRGB
 90
      255
102
RTVSPost2010PropOp44
 70
     1
102
RTVSPost2010Prop45
280
     0
102
RTVSPost2010PropOp45
 70
     1
102
RTVSPost2010Prop46
 90
       50
102
RTVSPost2010PropOp46
 70
     1
102
RTVSPost2010Prop47
 90
       50
102
RTVSPost2010PropOp47
 70
     1
102
RTVSPost2010Prop48
 90
       50
102
RTVSPost2010PropOp48
 70
     1
102
RTVSPost2010Prop49
280
     0
102
RTVSPost2010PropOp49
 70
     1
102
RTVSPost2010Prop50
 90
       50
102
RTVSPost2010PropOp50
 70
     1
102
RTVSPost2010Prop51ColorIndex
 90
      256
102
RTVSPost2010Prop51ColorRGB
 90
-16777216
102
RTVSPost2010PropOp51
 70
     0
102
RTVSPost2010Prop52
140
1.0
102
RTVSPost2010PropOp52
 70
     0
102
RTVSPost2010Prop53
 90
        2
102
RTVSPost2010PropOp53
 70
     1
102
RTVSPost2010Prop54
  1
strokes_ogs.tif
102
RTVSPost2010PropOp54
 70
     1
102
RTVSPost2010Prop55
280
     0
102
RTVSPost2010PropOp55
 70
     1
102
RTVSPost2010Prop56
140
1.0
102
RTVSPost2010PropOp56
 70
     1
102
RTVSPost2010Prop57
140
1.0
102
RTVSPost2010PropOp57
 70
     1
102
RTVSPropertyOp0
 70
     1
102
RTVSPropertyOp1
 70
     1
102
RTVSPropertyOp2
 70
     1
102
RTVSPropertyOp3
 70
     1
102
RTVSPropertyOp4
 70
     1
102
RTVSPropertyOp5
 70
     1
102
RTVSPropertyOp6
 70
     1
102
RTVSPropertyOp7
 70
     1
102
RTVSPropertyOp8
 70
     1
102
RTVSPropertyOp9
 70
     1
102
RTVSPropertyOp10
 70
     1
102
RTVSPropertyOp11
 70
     1
102
RTVSPropertyOp12
 70
     1
102
RTVSPropertyOp13
 70
     1
102
RTVSPropertyOp14
 70
     1
102
RTVSPropertyOp15
 70
     1
102
RTVSPropertyOp16
 70
     1
102
RTVSPropertyOp17
 70
     1
102
RTVSPropertyOp18
 70
     1
102
RTVSPropertyOp19
 70
     1
102
RTVSPropertyOp20
 70
     1
102
RTVSPropertyOp21
 70
     1
102
RTVSPropertyOp22
 70
     1
102
RTVSPropertyOp23
 70
     1
102
RTVSPropertyOp24
 70
     1
102
RTVSPropertyOp25
 70
     1
102
RTVSPropertyOp26
 70
     1
102
RTVSPropertyOp27
 70
     1
102
RTVSPropertyOp28
 70
     1
102
RTVSPropertyOp29
 70
     1
102
RTVSPropertyOp30
 70
     1
102
RTVSPropertyOp31
 70
     1
102
RTVSPropertyOp32
 70
     1
102
RTVSPropertyOp33
 70
     1
102
RTVSPropertyOp34
 70
     1
102
RTVSPropertyOp35
 70
     1
102
RTVSPropertyOp36
 70
     1
102
RTVSPropertyOp37
 70
     1
102
RTVSPropertyOp38
 70
     1
102
RTVSPropertyOp39
 70
     1
102
RTVSPropertyOp40
 70
     1
102
RTVSPropertyOp41
 70
     1
102
RTVSPropertyOp42
 70
     1
102
RTVSPropertyOp43
 70
     1
102
RTVSPropertyOp44
 70
     1
102
RTVSPropertyOp45
 70
     1
102
RTVSPropertyOp46
 70
     1
102
RTVSPropertyOp47
 70
     1
102
RTVSPropertyOp48
 70
     1
102
RTVSPropertyOp49
 70
     1
102
RTVSPropertyOp50
 70
     1
102
RTVSPropertyOp51
 70
     0
102
RTVSPropertyOp52
 70
     0
102
RTVSPropertyOp53
 70
     1
102
RTVSPropertyOp54
 70
     1
102
RTVSPropertyOp55
 70
     1
102
RTVSPropertyOp56
 70
     1
102
RTVSPropertyOp57
 70
     1
102
RTVSPropertyOp58
 70
     1
102
RTVSPropertyOp59
 70
     1
102
RTVSPropertyOp60
 70
     1
102
RTVSPropertyOp61
 70
     1
102
RTVSPropertyOp62
 70
     1
  0
XRECORD
  5
9FA
102
{ACAD_REACTORS
330
9F9
102
}
330
9F9
100
AcDbXrecord
280
     1
102
RTVSPost2010Prop28
280
     0
102
RTVSPost2010PropOp28
 70
     1
102
RTVSPost2010Prop29
280
     1
102
RTVSPost2010PropOp29
 70
     1
102
RTVSPost2010Prop30
280
     1
102
RTVSPost2010PropOp30
 70
     1
102
RTVSPost2010Prop31
280
     0
102
RTVSPost2010PropOp31
 70
     1
102
RTVSPost2010Prop32
280
     0
102
RTVSPost2010PropOp32
 70
     1
102
RTVSPost2010Prop33
280
     0
102
RTVSPost2010PropOp33
 70
     1
102
RTVSPost2010Prop34
280
     0
102
RTVSPost2010PropOp34
 70
     1
102
RTVSPost2010Prop35
280
     0
102
RTVSPost2010PropOp35
 70
     1
102
RTVSPost2010Prop36
280
     0
102
RTVSPost2010PropOp36
 70
     1
102
RTVSPost2010Prop37
 90
       50
102
RTVSPost2010PropOp37
 70
     1
102
RTVSPost2010Prop38
140
0.0
102
RTVSPost2010PropOp38
 70
     1
102
RTVSPost2010Prop39
140
1.0
102
RTVSPost2010PropOp39
 70
     1
102
RTVSPost2010Prop40
 90
        0
102
RTVSPost2010PropOp40
 70
     1
102
RTVSPost2010Prop41ColorIndex
 90
       18
102
RTVSPost2010Prop41ColorRGB
 90
        0
102
RTVSPost2010PropOp41
 70
     1
102
RTVSPost2010Prop42
 90
       50
102
RTVSPost2010PropOp42
 70
     1
102
RTVSPost2010Prop43
 90
        3
102
RTVSPost2010PropOp43
 70
     1
102
RTVSPost2010Prop44ColorIndex
 90
        5
102
RTVSPost2010Prop44ColorRGB
 90
      255
102
RTVSPost2010PropOp44
 70
     1
102
RTVSPost2010Prop45
280
     0
102
RTVSPost2010PropOp45
 70
     1
102
RTVSPost2010Prop46
 90
       50
102
RTVSPost2010PropOp46
 70
     1
102
RTVSPost2010Prop47
 90
       50
102
RTVSPost2010PropOp47
 70
     1
102
RTVSPost2010Prop48
 90
       50
102
RTVSPost2010PropOp48
 70
     1
102
RTVSPost2010Prop49
280
     0
102
RTVSPost2010PropOp49
 70
     1
102
RTVSPost2010Prop50
 90
       50
102
RTVSPost2010PropOp50
 70
     1
102
RTVSPost2010Prop51ColorIndex
 90
      256
102
RTVSPost2010Prop51ColorRGB
 90
-16777216
102
RTVSPost2010PropOp51
 70
     0
102
RTVSPost2010Prop52
140
1.0
102
RTVSPost2010PropOp52
 70
     0
102
RTVSPost2010Prop53
 90
        2
102
RTVSPost2010PropOp53
 70
     1
102
RTVSPost2010Prop54
  1
strokes_ogs.tif
102
RTVSPost2010PropOp54
 70
     1
102
RTVSPost2010Prop55
280
     0
102
RTVSPost2010PropOp55
 70
     1
102
RTVSPost2010Prop56
140
1.0
102
RTVSPost2010PropOp56
 70
     1
102
RTVSPost2010Prop57
140
1.0
102
RTVSPost2010PropOp57
 70
     1
102
RTVSPropertyOp0
 70
     1
102
RTVSPropertyOp1
 70
     1
102
RTVSPropertyOp2
 70
     1
102
RTVSPropertyOp3
 70
     1
102
RTVSPropertyOp4
 70
     1
102
RTVSPropertyOp5
 70
     1
102
RTVSPropertyOp6
 70
     1
102
RTVSPropertyOp7
 70
     1
102
RTVSPropertyOp8
 70
     1
102
RTVSPropertyOp9
 70
     1
102
RTVSPropertyOp10
 70
     1
102
RTVSPropertyOp11
 70
     1
102
RTVSPropertyOp12
 70
     1
102
RTVSPropertyOp13
 70
     1
102
RTVSPropertyOp14
 70
     1
102
RTVSPropertyOp15
 70
     1
102
RTVSPropertyOp16
 70
     1
102
RTVSPropertyOp17
 70
     1
102
RTVSPropertyOp18
 70
     1
102
RTVSPropertyOp19
 70
     1
102
RTVSPropertyOp20
 70
     1
102
RTVSPropertyOp21
 70
     1
102
RTVSPropertyOp22
 70
     1
102
RTVSPropertyOp23
 70
     1
102
RTVSPropertyOp24
 70
     1
102
RTVSPropertyOp25
 70
     1
102
RTVSPropertyOp26
 70
     1
102
RTVSPropertyOp27
 70
     1
102
RTVSPropertyOp28
 70
     1
102
RTVSPropertyOp29
 70
     1
102
RTVSPropertyOp30
 70
     1
102
RTVSPropertyOp31
 70
     1
102
RTVSPropertyOp32
 70
     1
102
RTVSPropertyOp33
 70
     1
102
RTVSPropertyOp34
 70
     1
102
RTVSPropertyOp35
 70
     1
102
RTVSPropertyOp36
 70
     1
102
RTVSPropertyOp37
 70
     1
102
RTVSPropertyOp38
 70
     1
102
RTVSPropertyOp39
 70
     1
102
RTVSPropertyOp40
 70
     1
102
RTVSPropertyOp41
 70
     1
102
RTVSPropertyOp42
 70
     1
102
RTVSPropertyOp43
 70
     1
102
RTVSPropertyOp44
 70
     1
102
RTVSPropertyOp45
 70
     1
102
RTVSPropertyOp46
 70
     1
102
RTVSPropertyOp47
 70
     1
102
RTVSPropertyOp48
 70
     1
102
RTVSPropertyOp49
 70
     1
102
RTVSPropertyOp50
 70
     1
102
RTVSPropertyOp51
 70
     0
102
RTVSPropertyOp52
 70
     0
102
RTVSPropertyOp53
 70
     1
102
RTVSPropertyOp54
 70
     1
102
RTVSPropertyOp55
 70
     1
102
RTVSPropertyOp56
 70
     1
102
RTVSPropertyOp57
 70
     1
102
RTVSPropertyOp58
 70
     1
102
RTVSPropertyOp59
 70
     1
102
RTVSPropertyOp60
 70
     1
102
RTVSPropertyOp61
 70
     1
102
RTVSPropertyOp62
 70
     1
  0
XRECORD
  5
A0A
102
{ACAD_REACTORS
330
A09
102
}
330
A09
100
AcDbXrecord
280
     1
102
RTVSPost2010Prop28
280
     0
102
RTVSPost2010PropOp28
 70
     1
102
RTVSPost2010Prop29
280
     1
102
RTVSPost2010PropOp29
 70
     1
102
RTVSPost2010Prop30
280
     1
102
RTVSPost2010PropOp30
 70
     1
102
RTVSPost2010Prop31
280
     0
102
RTVSPost2010PropOp31
 70
     1
102
RTVSPost2010Prop32
280
     0
102
RTVSPost2010PropOp32
 70
     1
102
RTVSPost2010Prop33
280
     0
102
RTVSPost2010PropOp33
 70
     1
102
RTVSPost2010Prop34
280
     0
102
RTVSPost2010PropOp34
 70
     1
102
RTVSPost2010Prop35
280
     0
102
RTVSPost2010PropOp35
 70
     1
102
RTVSPost2010Prop36
280
     0
102
RTVSPost2010PropOp36
 70
     1
102
RTVSPost2010Prop37
 90
       50
102
RTVSPost2010PropOp37
 70
     1
102
RTVSPost2010Prop38
140
0.0
102
RTVSPost2010PropOp38
 70
     1
102
RTVSPost2010Prop39
140
1.0
102
RTVSPost2010PropOp39
 70
     1
102
RTVSPost2010Prop40
 90
        0
102
RTVSPost2010PropOp40
 70
     1
102
RTVSPost2010Prop41ColorIndex
 90
       18
102
RTVSPost2010Prop41ColorRGB
 90
        0
102
RTVSPost2010PropOp41
 70
     1
102
RTVSPost2010Prop42
 90
       50
102
RTVSPost2010PropOp42
 70
     1
102
RTVSPost2010Prop43
 90
        3
102
RTVSPost2010PropOp43
 70
     1
102
RTVSPost2010Prop44ColorIndex
 90
        5
102
RTVSPost2010Prop44ColorRGB
 90
      255
102
RTVSPost2010PropOp44
 70
     1
102
RTVSPost2010Prop45
280
     0
102
RTVSPost2010PropOp45
 70
     1
102
RTVSPost2010Prop46
 90
       50
102
RTVSPost2010PropOp46
 70
     1
102
RTVSPost2010Prop47
 90
       50
102
RTVSPost2010PropOp47
 70
     1
102
RTVSPost2010Prop48
 90
       50
102
RTVSPost2010PropOp48
 70
     1
102
RTVSPost2010Prop49
280
     0
102
RTVSPost2010PropOp49
 70
     1
102
RTVSPost2010Prop50
 90
       50
102
RTVSPost2010PropOp50
 70
     1
102
RTVSPost2010Prop51ColorIndex
 90
      256
102
RTVSPost2010Prop51ColorRGB
 90
-16777216
102
RTVSPost2010PropOp51
 70
     0
102
RTVSPost2010Prop52
140
1.0
102
RTVSPost2010PropOp52
 70
     0
102
RTVSPost2010Prop53
 90
        2
102
RTVSPost2010PropOp53
 70
     1
102
RTVSPost2010Prop54
  1
strokes_ogs.tif
102
RTVSPost2010PropOp54
 70
     1
102
RTVSPost2010Prop55
280
     0
102
RTVSPost2010PropOp55
 70
     1
102
RTVSPost2010Prop56
140
1.0
102
RTVSPost2010PropOp56
 70
     1
102
RTVSPost2010Prop57
140
1.0
102
RTVSPost2010PropOp57
 70
     1
102
RTVSPropertyOp0
 70
     0
102
RTVSPropertyOp1
 70
     0
102
RTVSPropertyOp2
 70
     0
102
RTVSPropertyOp3
 70
     0
102
RTVSPropertyOp4
 70
     0
102
RTVSPropertyOp5
 70
     0
102
RTVSPropertyOp6
 70
     0
102
RTVSPropertyOp7
 70
     0
102
RTVSPropertyOp8
 70
     0
102
RTVSPropertyOp9
 70
     0
102
RTVSPropertyOp10
 70
     0
102
RTVSPropertyOp11
 70
     0
102
RTVSPropertyOp12
 70
     0
102
RTVSPropertyOp13
 70
     0
102
RTVSPropertyOp14
 70
     2
102
RTVSPropertyOp15
 70
     0
102
RTVSPropertyOp16
 70
     0
102
RTVSPropertyOp17
 70
     0
102
RTVSPropertyOp18
 70
     0
102
RTVSPropertyOp19
 70
     0
102
RTVSPropertyOp20
 70
     0
102
RTVSPropertyOp21
 70
     0
102
RTVSPropertyOp22
 70
     0
102
RTVSPropertyOp23
 70
     0
102
RTVSPropertyOp24
 70
     0
102
RTVSPropertyOp25
 70
     0
102
RTVSPropertyOp26
 70
     0
102
RTVSPropertyOp27
 70
     0
102
RTVSPropertyOp28
 70
     1
102
RTVSPropertyOp29
 70
     1
102
RTVSPropertyOp30
 70
     1
102
RTVSPropertyOp31
 70
     1
102
RTVSPropertyOp32
 70
     1
102
RTVSPropertyOp33
 70
     1
102
RTVSPropertyOp34
 70
     1
102
RTVSPropertyOp35
 70
     1
102
RTVSPropertyOp36
 70
     1
102
RTVSPropertyOp37
 70
     1
102
RTVSPropertyOp38
 70
     1
102
RTVSPropertyOp39
 70
     1
102
RTVSPropertyOp40
 70
     1
102
RTVSPropertyOp41
 70
     1
102
RTVSPropertyOp42
 70
     1
102
RTVSPropertyOp43
 70
     1
102
RTVSPropertyOp44
 70
     1
102
RTVSPropertyOp45
 70
     1
102
RTVSPropertyOp46
 70
     1
102
RTVSPropertyOp47
 70
     1
102
RTVSPropertyOp48
 70
     1
102
RTVSPropertyOp49
 70
     1
102
RTVSPropertyOp50
 70
     1
102
RTVSPropertyOp51
 70
     0
102
RTVSPropertyOp52
 70
     0
102
RTVSPropertyOp53
 70
     1
102
RTVSPropertyOp54
 70
     1
102
RTVSPropertyOp55
 70
     1
102
RTVSPropertyOp56
 70
     1
102
RTVSPropertyOp57
 70
     1
102
RTVSPropertyOp58
 70
     1
102
RTVSPropertyOp59
 70
     1
102
RTVSPropertyOp60
 70
     1
102
RTVSPropertyOp61
 70
     1
102
RTVSPropertyOp62
 70
     1
  0
XRECORD
  5
A02
102
{ACAD_REACTORS
330
A01
102
}
330
A01
100
AcDbXrecord
280
     1
102
RTVSPost2010Prop28
280
     0
102
RTVSPost2010PropOp28
 70
     1
102
RTVSPost2010Prop29
280
     1
102
RTVSPost2010PropOp29
 70
     1
102
RTVSPost2010Prop30
280
     1
102
RTVSPost2010PropOp30
 70
     1
102
RTVSPost2010Prop31
280
     0
102
RTVSPost2010PropOp31
 70
     1
102
RTVSPost2010Prop32
280
     0
102
RTVSPost2010PropOp32
 70
     1
102
RTVSPost2010Prop33
280
     0
102
RTVSPost2010PropOp33
 70
     1
102
RTVSPost2010Prop34
280
     0
102
RTVSPost2010PropOp34
 70
     1
102
RTVSPost2010Prop35
280
     0
102
RTVSPost2010PropOp35
 70
     1
102
RTVSPost2010Prop36
280
     0
102
RTVSPost2010PropOp36
 70
     1
102
RTVSPost2010Prop37
 90
       50
102
RTVSPost2010PropOp37
 70
     1
102
RTVSPost2010Prop38
140
0.0
102
RTVSPost2010PropOp38
 70
     1
102
RTVSPost2010Prop39
140
1.0
102
RTVSPost2010PropOp39
 70
     1
102
RTVSPost2010Prop40
 90
        0
102
RTVSPost2010PropOp40
 70
     1
102
RTVSPost2010Prop41ColorIndex
 90
       18
102
RTVSPost2010Prop41ColorRGB
 90
        0
102
RTVSPost2010PropOp41
 70
     1
102
RTVSPost2010Prop42
 90
       50
102
RTVSPost2010PropOp42
 70
     1
102
RTVSPost2010Prop43
 90
        3
102
RTVSPost2010PropOp43
 70
     1
102
RTVSPost2010Prop44ColorIndex
 90
        5
102
RTVSPost2010Prop44ColorRGB
 90
      255
102
RTVSPost2010PropOp44
 70
     1
102
RTVSPost2010Prop45
280
     0
102
RTVSPost2010PropOp45
 70
     1
102
RTVSPost2010Prop46
 90
       50
102
RTVSPost2010PropOp46
 70
     1
102
RTVSPost2010Prop47
 90
       50
102
RTVSPost2010PropOp47
 70
     1
102
RTVSPost2010Prop48
 90
       50
102
RTVSPost2010PropOp48
 70
     1
102
RTVSPost2010Prop49
280
     0
102
RTVSPost2010PropOp49
 70
     1
102
RTVSPost2010Prop50
 90
       50
102
RTVSPost2010PropOp50
 70
     1
102
RTVSPost2010Prop51ColorIndex
 90
      256
102
RTVSPost2010Prop51ColorRGB
 90
-16777216
102
RTVSPost2010PropOp51
 70
     0
102
RTVSPost2010Prop52
140
1.0
102
RTVSPost2010PropOp52
 70
     0
102
RTVSPost2010Prop53
 90
        2
102
RTVSPost2010PropOp53
 70
     1
102
RTVSPost2010Prop54
  1
strokes_ogs.tif
102
RTVSPost2010PropOp54
 70
     1
102
RTVSPost2010Prop55
280
     0
102
RTVSPost2010PropOp55
 70
     1
102
RTVSPost2010Prop56
140
1.0
102
RTVSPost2010PropOp56
 70
     1
102
RTVSPost2010Prop57
140
1.0
102
RTVSPost2010PropOp57
 70
     1
102
RTVSPropertyOp0
 70
     1
102
RTVSPropertyOp1
 70
     1
102
RTVSPropertyOp2
 70
     1
102
RTVSPropertyOp3
 70
     1
102
RTVSPropertyOp4
 70
     1
102
RTVSPropertyOp5
 70
     1
102
RTVSPropertyOp6
 70
     1
102
RTVSPropertyOp7
 70
     1
102
RTVSPropertyOp8
 70
     1
102
RTVSPropertyOp9
 70
     1
102
RTVSPropertyOp10
 70
     1
102
RTVSPropertyOp11
 70
     1
102
RTVSPropertyOp12
 70
     1
102
RTVSPropertyOp13
 70
     1
102
RTVSPropertyOp14
 70
     1
102
RTVSPropertyOp15
 70
     1
102
RTVSPropertyOp16
 70
     1
102
RTVSPropertyOp17
 70
     1
102
RTVSPropertyOp18
 70
     1
102
RTVSPropertyOp19
 70
     1
102
RTVSPropertyOp20
 70
     1
102
RTVSPropertyOp21
 70
     1
102
RTVSPropertyOp22
 70
     1
102
RTVSPropertyOp23
 70
     1
102
RTVSPropertyOp24
 70
     1
102
RTVSPropertyOp25
 70
     1
102
RTVSPropertyOp26
 70
     1
102
RTVSPropertyOp27
 70
     1
102
RTVSPropertyOp28
 70
     1
102
RTVSPropertyOp29
 70
     1
102
RTVSPropertyOp30
 70
     1
102
RTVSPropertyOp31
 70
     1
102
RTVSPropertyOp32
 70
     1
102
RTVSPropertyOp33
 70
     1
102
RTVSPropertyOp34
 70
     1
102
RTVSPropertyOp35
 70
     1
102
RTVSPropertyOp36
 70
     1
102
RTVSPropertyOp37
 70
     1
102
RTVSPropertyOp38
 70
     1
102
RTVSPropertyOp39
 70
     1
102
RTVSPropertyOp40
 70
     1
102
RTVSPropertyOp41
 70
     1
102
RTVSPropertyOp42
 70
     1
102
RTVSPropertyOp43
 70
     1
102
RTVSPropertyOp44
 70
     1
102
RTVSPropertyOp45
 70
     1
102
RTVSPropertyOp46
 70
     1
102
RTVSPropertyOp47
 70
     1
102
RTVSPropertyOp48
 70
     1
102
RTVSPropertyOp49
 70
     1
102
RTVSPropertyOp50
 70
     1
102
RTVSPropertyOp51
 70
     0
102
RTVSPropertyOp52
 70
     0
102
RTVSPropertyOp53
 70
     1
102
RTVSPropertyOp54
 70
     1
102
RTVSPropertyOp55
 70
     1
102
RTVSPropertyOp56
 70
     1
102
RTVSPropertyOp57
 70
     1
102
RTVSPropertyOp58
 70
     1
102
RTVSPropertyOp59
 70
     1
102
RTVSPropertyOp60
 70
     1
102
RTVSPropertyOp61
 70
     1
102
RTVSPropertyOp62
 70
     1
  0
XRECORD
  5
9E6
102
{ACAD_REACTORS
330
9E5
102
}
330
9E5
100
AcDbXrecord
280
     1
102
RTVSPost2010Prop28
280
     0
102
RTVSPost2010PropOp28
 70
     1
102
RTVSPost2010Prop29
280
     1
102
RTVSPost2010PropOp29
 70
     1
102
RTVSPost2010Prop30
280
     1
102
RTVSPost2010PropOp30
 70
     1
102
RTVSPost2010Prop31
280
     0
102
RTVSPost2010PropOp31
 70
     1
102
RTVSPost2010Prop32
280
     0
102
RTVSPost2010PropOp32
 70
     1
102
RTVSPost2010Prop33
280
     0
102
RTVSPost2010PropOp33
 70
     1
102
RTVSPost2010Prop34
280
     0
102
RTVSPost2010PropOp34
 70
     1
102
RTVSPost2010Prop35
280
     0
102
RTVSPost2010PropOp35
 70
     1
102
RTVSPost2010Prop36
280
     0
102
RTVSPost2010PropOp36
 70
     1
102
RTVSPost2010Prop37
 90
       50
102
RTVSPost2010PropOp37
 70
     1
102
RTVSPost2010Prop38
140
0.0
102
RTVSPost2010PropOp38
 70
     1
102
RTVSPost2010Prop39
140
1.0
102
RTVSPost2010PropOp39
 70
     1
102
RTVSPost2010Prop40
 90
        0
102
RTVSPost2010PropOp40
 70
     1
102
RTVSPost2010Prop41ColorIndex
 90
       18
102
RTVSPost2010Prop41ColorRGB
 90
        0
102
RTVSPost2010PropOp41
 70
     1
102
RTVSPost2010Prop42
 90
       50
102
RTVSPost2010PropOp42
 70
     1
102
RTVSPost2010Prop43
 90
        3
102
RTVSPost2010PropOp43
 70
     1
102
RTVSPost2010Prop44ColorIndex
 90
        5
102
RTVSPost2010Prop44ColorRGB
 90
      255
102
RTVSPost2010PropOp44
 70
     1
102
RTVSPost2010Prop45
280
     0
102
RTVSPost2010PropOp45
 70
     1
102
RTVSPost2010Prop46
 90
       50
102
RTVSPost2010PropOp46
 70
     1
102
RTVSPost2010Prop47
 90
       50
102
RTVSPost2010PropOp47
 70
     1
102
RTVSPost2010Prop48
 90
       50
102
RTVSPost2010PropOp48
 70
     1
102
RTVSPost2010Prop49
280
     0
102
RTVSPost2010PropOp49
 70
     1
102
RTVSPost2010Prop50
 90
       50
102
RTVSPost2010PropOp50
 70
     1
102
RTVSPost2010Prop51ColorIndex
 90
      256
102
RTVSPost2010Prop51ColorRGB
 90
-16777216
102
RTVSPost2010PropOp51
 70
     0
102
RTVSPost2010Prop52
140
1.0
102
RTVSPost2010PropOp52
 70
     0
102
RTVSPost2010Prop53
 90
        2
102
RTVSPost2010PropOp53
 70
     1
102
RTVSPost2010Prop54
  1
strokes_ogs.tif
102
RTVSPost2010PropOp54
 70
     1
102
RTVSPost2010Prop55
280
     0
102
RTVSPost2010PropOp55
 70
     1
102
RTVSPost2010Prop56
140
1.0
102
RTVSPost2010PropOp56
 70
     1
102
RTVSPost2010Prop57
140
1.0
102
RTVSPost2010PropOp57
 70
     1
102
RTVSPropertyOp0
 70
     1
102
RTVSPropertyOp1
 70
     1
102
RTVSPropertyOp2
 70
     1
102
RTVSPropertyOp3
 70
     1
102
RTVSPropertyOp4
 70
     1
102
RTVSPropertyOp5
 70
     1
102
RTVSPropertyOp6
 70
     1
102
RTVSPropertyOp7
 70
     1
102
RTVSPropertyOp8
 70
     1
102
RTVSPropertyOp9
 70
     1
102
RTVSPropertyOp10
 70
     1
102
RTVSPropertyOp11
 70
     1
102
RTVSPropertyOp12
 70
     1
102
RTVSPropertyOp13
 70
     1
102
RTVSPropertyOp14
 70
     1
102
RTVSPropertyOp15
 70
     1
102
RTVSPropertyOp16
 70
     1
102
RTVSPropertyOp17
 70
     1
102
RTVSPropertyOp18
 70
     1
102
RTVSPropertyOp19
 70
     1
102
RTVSPropertyOp20
 70
     1
102
RTVSPropertyOp21
 70
     1
102
RTVSPropertyOp22
 70
     1
102
RTVSPropertyOp23
 70
     1
102
RTVSPropertyOp24
 70
     1
102
RTVSPropertyOp25
 70
     1
102
RTVSPropertyOp26
 70
     1
102
RTVSPropertyOp27
 70
     1
102
RTVSPropertyOp28
 70
     1
102
RTVSPropertyOp29
 70
     1
102
RTVSPropertyOp30
 70
     1
102
RTVSPropertyOp31
 70
     1
102
RTVSPropertyOp32
 70
     1
102
RTVSPropertyOp33
 70
     1
102
RTVSPropertyOp34
 70
     1
102
RTVSPropertyOp35
 70
     1
102
RTVSPropertyOp36
 70
     1
102
RTVSPropertyOp37
 70
     1
102
RTVSPropertyOp38
 70
     1
102
RTVSPropertyOp39
 70
     1
102
RTVSPropertyOp40
 70
     1
102
RTVSPropertyOp41
 70
     1
102
RTVSPropertyOp42
 70
     1
102
RTVSPropertyOp43
 70
     1
102
RTVSPropertyOp44
 70
     1
102
RTVSPropertyOp45
 70
     1
102
RTVSPropertyOp46
 70
     1
102
RTVSPropertyOp47
 70
     1
102
RTVSPropertyOp48
 70
     1
102
RTVSPropertyOp49
 70
     1
102
RTVSPropertyOp50
 70
     1
102
RTVSPropertyOp51
 70
     0
102
RTVSPropertyOp52
 70
     0
102
RTVSPropertyOp53
 70
     1
102
RTVSPropertyOp54
 70
     1
102
RTVSPropertyOp55
 70
     1
102
RTVSPropertyOp56
 70
     1
102
RTVSPropertyOp57
 70
     1
102
RTVSPropertyOp58
 70
     1
102
RTVSPropertyOp59
 70
     1
102
RTVSPropertyOp60
 70
     1
102
RTVSPropertyOp61
 70
     1
102
RTVSPropertyOp62
 70
     1
  0
XRECORD
  5
9E8
102
{ACAD_REACTORS
330
9E7
102
}
330
9E7
100
AcDbXrecord
280
     1
102
RTVSPost2010Prop28
280
     0
102
RTVSPost2010PropOp28
 70
     1
102
RTVSPost2010Prop29
280
     1
102
RTVSPost2010PropOp29
 70
     1
102
RTVSPost2010Prop30
280
     1
102
RTVSPost2010PropOp30
 70
     1
102
RTVSPost2010Prop31
280
     0
102
RTVSPost2010PropOp31
 70
     1
102
RTVSPost2010Prop32
280
     0
102
RTVSPost2010PropOp32
 70
     1
102
RTVSPost2010Prop33
280
     0
102
RTVSPost2010PropOp33
 70
     1
102
RTVSPost2010Prop34
280
     0
102
RTVSPost2010PropOp34
 70
     1
102
RTVSPost2010Prop35
280
     0
102
RTVSPost2010PropOp35
 70
     1
102
RTVSPost2010Prop36
280
     0
102
RTVSPost2010PropOp36
 70
     1
102
RTVSPost2010Prop37
 90
       50
102
RTVSPost2010PropOp37
 70
     1
102
RTVSPost2010Prop38
140
0.0
102
RTVSPost2010PropOp38
 70
     1
102
RTVSPost2010Prop39
140
1.0
102
RTVSPost2010PropOp39
 70
     1
102
RTVSPost2010Prop40
 90
        0
102
RTVSPost2010PropOp40
 70
     1
102
RTVSPost2010Prop41ColorIndex
 90
       18
102
RTVSPost2010Prop41ColorRGB
 90
        0
102
RTVSPost2010PropOp41
 70
     1
102
RTVSPost2010Prop42
 90
       50
102
RTVSPost2010PropOp42
 70
     1
102
RTVSPost2010Prop43
 90
        3
102
RTVSPost2010PropOp43
 70
     1
102
RTVSPost2010Prop44ColorIndex
 90
        5
102
RTVSPost2010Prop44ColorRGB
 90
      255
102
RTVSPost2010PropOp44
 70
     1
102
RTVSPost2010Prop45
280
     0
102
RTVSPost2010PropOp45
 70
     1
102
RTVSPost2010Prop46
 90
       50
102
RTVSPost2010PropOp46
 70
     1
102
RTVSPost2010Prop47
 90
       50
102
RTVSPost2010PropOp47
 70
     1
102
RTVSPost2010Prop48
 90
       50
102
RTVSPost2010PropOp48
 70
     1
102
RTVSPost2010Prop49
280
     0
102
RTVSPost2010PropOp49
 70
     1
102
RTVSPost2010Prop50
 90
       50
102
RTVSPost2010PropOp50
 70
     1
102
RTVSPost2010Prop51ColorIndex
 90
      256
102
RTVSPost2010Prop51ColorRGB
 90
-16777216
102
RTVSPost2010PropOp51
 70
     0
102
RTVSPost2010Prop52
140
1.0
102
RTVSPost2010PropOp52
 70
     0
102
RTVSPost2010Prop53
 90
        2
102
RTVSPost2010PropOp53
 70
     1
102
RTVSPost2010Prop54
  1
strokes_ogs.tif
102
RTVSPost2010PropOp54
 70
     1
102
RTVSPost2010Prop55
280
     0
102
RTVSPost2010PropOp55
 70
     1
102
RTVSPost2010Prop56
140
1.0
102
RTVSPost2010PropOp56
 70
     1
102
RTVSPost2010Prop57
140
1.0
102
RTVSPost2010PropOp57
 70
     1
102
RTVSPropertyOp0
 70
     1
102
RTVSPropertyOp1
 70
     1
102
RTVSPropertyOp2
 70
     1
102
RTVSPropertyOp3
 70
     1
102
RTVSPropertyOp4
 70
     1
102
RTVSPropertyOp5
 70
     1
102
RTVSPropertyOp6
 70
     1
102
RTVSPropertyOp7
 70
     1
102
RTVSPropertyOp8
 70
     1
102
RTVSPropertyOp9
 70
     1
102
RTVSPropertyOp10
 70
     1
102
RTVSPropertyOp11
 70
     1
102
RTVSPropertyOp12
 70
     1
102
RTVSPropertyOp13
 70
     1
102
RTVSPropertyOp14
 70
     1
102
RTVSPropertyOp15
 70
     1
102
RTVSPropertyOp16
 70
     1
102
RTVSPropertyOp17
 70
     1
102
RTVSPropertyOp18
 70
     1
102
RTVSPropertyOp19
 70
     1
102
RTVSPropertyOp20
 70
     1
102
RTVSPropertyOp21
 70
     1
102
RTVSPropertyOp22
 70
     1
102
RTVSPropertyOp23
 70
     1
102
RTVSPropertyOp24
 70
     1
102
RTVSPropertyOp25
 70
     1
102
RTVSPropertyOp26
 70
     1
102
RTVSPropertyOp27
 70
     1
102
RTVSPropertyOp28
 70
     1
102
RTVSPropertyOp29
 70
     1
102
RTVSPropertyOp30
 70
     1
102
RTVSPropertyOp31
 70
     1
102
RTVSPropertyOp32
 70
     1
102
RTVSPropertyOp33
 70
     1
102
RTVSPropertyOp34
 70
     1
102
RTVSPropertyOp35
 70
     1
102
RTVSPropertyOp36
 70
     1
102
RTVSPropertyOp37
 70
     1
102
RTVSPropertyOp38
 70
     1
102
RTVSPropertyOp39
 70
     1
102
RTVSPropertyOp40
 70
     1
102
RTVSPropertyOp41
 70
     1
102
RTVSPropertyOp42
 70
     1
102
RTVSPropertyOp43
 70
     1
102
RTVSPropertyOp44
 70
     1
102
RTVSPropertyOp45
 70
     1
102
RTVSPropertyOp46
 70
     1
102
RTVSPropertyOp47
 70
     1
102
RTVSPropertyOp48
 70
     1
102
RTVSPropertyOp49
 70
     1
102
RTVSPropertyOp50
 70
     1
102
RTVSPropertyOp51
 70
     0
102
RTVSPropertyOp52
 70
     0
102
RTVSPropertyOp53
 70
     1
102
RTVSPropertyOp54
 70
     1
102
RTVSPropertyOp55
 70
     1
102
RTVSPropertyOp56
 70
     1
102
RTVSPropertyOp57
 70
     1
102
RTVSPropertyOp58
 70
     1
102
RTVSPropertyOp59
 70
     1
102
RTVSPropertyOp60
 70
     1
102
RTVSPropertyOp61
 70
     1
102
RTVSPropertyOp62
 70
     1
  0
XRECORD
  5
9EA
102
{ACAD_REACTORS
330
9E9
102
}
330
9E9
100
AcDbXrecord
280
     1
102
RTVSPost2010Prop28
280
     0
102
RTVSPost2010PropOp28
 70
     1
102
RTVSPost2010Prop29
280
     1
102
RTVSPost2010PropOp29
 70
     1
102
RTVSPost2010Prop30
280
     1
102
RTVSPost2010PropOp30
 70
     1
102
RTVSPost2010Prop31
280
     0
102
RTVSPost2010PropOp31
 70
     1
102
RTVSPost2010Prop32
280
     0
102
RTVSPost2010PropOp32
 70
     1
102
RTVSPost2010Prop33
280
     0
102
RTVSPost2010PropOp33
 70
     1
102
RTVSPost2010Prop34
280
     0
102
RTVSPost2010PropOp34
 70
     1
102
RTVSPost2010Prop35
280
     0
102
RTVSPost2010PropOp35
 70
     1
102
RTVSPost2010Prop36
280
     0
102
RTVSPost2010PropOp36
 70
     1
102
RTVSPost2010Prop37
 90
       50
102
RTVSPost2010PropOp37
 70
     1
102
RTVSPost2010Prop38
140
0.0
102
RTVSPost2010PropOp38
 70
     1
102
RTVSPost2010Prop39
140
1.0
102
RTVSPost2010PropOp39
 70
     1
102
RTVSPost2010Prop40
 90
        0
102
RTVSPost2010PropOp40
 70
     1
102
RTVSPost2010Prop41ColorIndex
 90
       18
102
RTVSPost2010Prop41ColorRGB
 90
        0
102
RTVSPost2010PropOp41
 70
     1
102
RTVSPost2010Prop42
 90
       50
102
RTVSPost2010PropOp42
 70
     1
102
RTVSPost2010Prop43
 90
        3
102
RTVSPost2010PropOp43
 70
     1
102
RTVSPost2010Prop44ColorIndex
 90
        5
102
RTVSPost2010Prop44ColorRGB
 90
      255
102
RTVSPost2010PropOp44
 70
     1
102
RTVSPost2010Prop45
280
     0
102
RTVSPost2010PropOp45
 70
     1
102
RTVSPost2010Prop46
 90
       50
102
RTVSPost2010PropOp46
 70
     1
102
RTVSPost2010Prop47
 90
       50
102
RTVSPost2010PropOp47
 70
     1
102
RTVSPost2010Prop48
 90
       50
102
RTVSPost2010PropOp48
 70
     1
102
RTVSPost2010Prop49
280
     0
102
RTVSPost2010PropOp49
 70
     1
102
RTVSPost2010Prop50
 90
       50
102
RTVSPost2010PropOp50
 70
     1
102
RTVSPost2010Prop51ColorIndex
 90
      256
102
RTVSPost2010Prop51ColorRGB
 90
-16777216
102
RTVSPost2010PropOp51
 70
     0
102
RTVSPost2010Prop52
140
1.0
102
RTVSPost2010PropOp52
 70
     0
102
RTVSPost2010Prop53
 90
        2
102
RTVSPost2010PropOp53
 70
     1
102
RTVSPost2010Prop54
  1
strokes_ogs.tif
102
RTVSPost2010PropOp54
 70
     1
102
RTVSPost2010Prop55
280
     0
102
RTVSPost2010PropOp55
 70
     1
102
RTVSPost2010Prop56
140
1.0
102
RTVSPost2010PropOp56
 70
     1
102
RTVSPost2010Prop57
140
1.0
102
RTVSPost2010PropOp57
 70
     1
102
RTVSPropertyOp0
 70
     1
102
RTVSPropertyOp1
 70
     1
102
RTVSPropertyOp2
 70
     1
102
RTVSPropertyOp3
 70
     1
102
RTVSPropertyOp4
 70
     1
102
RTVSPropertyOp5
 70
     1
102
RTVSPropertyOp6
 70
     1
102
RTVSPropertyOp7
 70
     1
102
RTVSPropertyOp8
 70
     1
102
RTVSPropertyOp9
 70
     1
102
RTVSPropertyOp10
 70
     1
102
RTVSPropertyOp11
 70
     1
102
RTVSPropertyOp12
 70
     1
102
RTVSPropertyOp13
 70
     1
102
RTVSPropertyOp14
 70
     1
102
RTVSPropertyOp15
 70
     1
102
RTVSPropertyOp16
 70
     1
102
RTVSPropertyOp17
 70
     1
102
RTVSPropertyOp18
 70
     1
102
RTVSPropertyOp19
 70
     1
102
RTVSPropertyOp20
 70
     1
102
RTVSPropertyOp21
 70
     1
102
RTVSPropertyOp22
 70
     1
102
RTVSPropertyOp23
 70
     1
102
RTVSPropertyOp24
 70
     1
102
RTVSPropertyOp25
 70
     1
102
RTVSPropertyOp26
 70
     1
102
RTVSPropertyOp27
 70
     1
102
RTVSPropertyOp28
 70
     1
102
RTVSPropertyOp29
 70
     1
102
RTVSPropertyOp30
 70
     1
102
RTVSPropertyOp31
 70
     1
102
RTVSPropertyOp32
 70
     1
102
RTVSPropertyOp33
 70
     1
102
RTVSPropertyOp34
 70
     1
102
RTVSPropertyOp35
 70
     1
102
RTVSPropertyOp36
 70
     1
102
RTVSPropertyOp37
 70
     1
102
RTVSPropertyOp38
 70
     1
102
RTVSPropertyOp39
 70
     1
102
RTVSPropertyOp40
 70
     1
102
RTVSPropertyOp41
 70
     1
102
RTVSPropertyOp42
 70
     1
102
RTVSPropertyOp43
 70
     1
102
RTVSPropertyOp44
 70
     1
102
RTVSPropertyOp45
 70
     1
102
RTVSPropertyOp46
 70
     1
102
RTVSPropertyOp47
 70
     1
102
RTVSPropertyOp48
 70
     1
102
RTVSPropertyOp49
 70
     1
102
RTVSPropertyOp50
 70
     1
102
RTVSPropertyOp51
 70
     0
102
RTVSPropertyOp52
 70
     0
102
RTVSPropertyOp53
 70
     1
102
RTVSPropertyOp54
 70
     1
102
RTVSPropertyOp55
 70
     1
102
RTVSPropertyOp56
 70
     1
102
RTVSPropertyOp57
 70
     1
102
RTVSPropertyOp58
 70
     1
102
RTVSPropertyOp59
 70
     1
102
RTVSPropertyOp60
 70
     1
102
RTVSPropertyOp61
 70
     1
102
RTVSPropertyOp62
 70
     1
  0
XRECORD
  5
9EC
102
{ACAD_REACTORS
330
9EB
102
}
330
9EB
100
AcDbXrecord
280
     1
102
RTVSPost2010Prop28
280
     0
102
RTVSPost2010PropOp28
 70
     1
102
RTVSPost2010Prop29
280
     1
102
RTVSPost2010PropOp29
 70
     1
102
RTVSPost2010Prop30
280
     1
102
RTVSPost2010PropOp30
 70
     1
102
RTVSPost2010Prop31
280
     0
102
RTVSPost2010PropOp31
 70
     1
102
RTVSPost2010Prop32
280
     0
102
RTVSPost2010PropOp32
 70
     1
102
RTVSPost2010Prop33
280
     0
102
RTVSPost2010PropOp33
 70
     1
102
RTVSPost2010Prop34
280
     0
102
RTVSPost2010PropOp34
 70
     1
102
RTVSPost2010Prop35
280
     0
102
RTVSPost2010PropOp35
 70
     1
102
RTVSPost2010Prop36
280
     0
102
RTVSPost2010PropOp36
 70
     1
102
RTVSPost2010Prop37
 90
       50
102
RTVSPost2010PropOp37
 70
     1
102
RTVSPost2010Prop38
140
0.0
102
RTVSPost2010PropOp38
 70
     1
102
RTVSPost2010Prop39
140
1.0
102
RTVSPost2010PropOp39
 70
     1
102
RTVSPost2010Prop40
 90
        0
102
RTVSPost2010PropOp40
 70
     1
102
RTVSPost2010Prop41ColorIndex
 90
       18
102
RTVSPost2010Prop41ColorRGB
 90
        0
102
RTVSPost2010PropOp41
 70
     1
102
RTVSPost2010Prop42
 90
       50
102
RTVSPost2010PropOp42
 70
     1
102
RTVSPost2010Prop43
 90
        3
102
RTVSPost2010PropOp43
 70
     1
102
RTVSPost2010Prop44ColorIndex
 90
        5
102
RTVSPost2010Prop44ColorRGB
 90
      255
102
RTVSPost2010PropOp44
 70
     1
102
RTVSPost2010Prop45
280
     0
102
RTVSPost2010PropOp45
 70
     1
102
RTVSPost2010Prop46
 90
       50
102
RTVSPost2010PropOp46
 70
     1
102
RTVSPost2010Prop47
 90
       50
102
RTVSPost2010PropOp47
 70
     1
102
RTVSPost2010Prop48
 90
       50
102
RTVSPost2010PropOp48
 70
     1
102
RTVSPost2010Prop49
280
     0
102
RTVSPost2010PropOp49
 70
     1
102
RTVSPost2010Prop50
 90
       50
102
RTVSPost2010PropOp50
 70
     1
102
RTVSPost2010Prop51ColorIndex
 90
      256
102
RTVSPost2010Prop51ColorRGB
 90
-16777216
102
RTVSPost2010PropOp51
 70
     0
102
RTVSPost2010Prop52
140
1.0
102
RTVSPost2010PropOp52
 70
     0
102
RTVSPost2010Prop53
 90
        2
102
RTVSPost2010PropOp53
 70
     1
102
RTVSPost2010Prop54
  1
strokes_ogs.tif
102
RTVSPost2010PropOp54
 70
     1
102
RTVSPost2010Prop55
280
     0
102
RTVSPost2010PropOp55
 70
     1
102
RTVSPost2010Prop56
140
1.0
102
RTVSPost2010PropOp56
 70
     1
102
RTVSPost2010Prop57
140
1.0
102
RTVSPost2010PropOp57
 70
     1
102
RTVSPropertyOp0
 70
     1
102
RTVSPropertyOp1
 70
     1
102
RTVSPropertyOp2
 70
     1
102
RTVSPropertyOp3
 70
     1
102
RTVSPropertyOp4
 70
     1
102
RTVSPropertyOp5
 70
     1
102
RTVSPropertyOp6
 70
     1
102
RTVSPropertyOp7
 70
     1
102
RTVSPropertyOp8
 70
     1
102
RTVSPropertyOp9
 70
     1
102
RTVSPropertyOp10
 70
     1
102
RTVSPropertyOp11
 70
     1
102
RTVSPropertyOp12
 70
     1
102
RTVSPropertyOp13
 70
     1
102
RTVSPropertyOp14
 70
     1
102
RTVSPropertyOp15
 70
     1
102
RTVSPropertyOp16
 70
     1
102
RTVSPropertyOp17
 70
     1
102
RTVSPropertyOp18
 70
     1
102
RTVSPropertyOp19
 70
     1
102
RTVSPropertyOp20
 70
     1
102
RTVSPropertyOp21
 70
     1
102
RTVSPropertyOp22
 70
     1
102
RTVSPropertyOp23
 70
     1
102
RTVSPropertyOp24
 70
     1
102
RTVSPropertyOp25
 70
     1
102
RTVSPropertyOp26
 70
     1
102
RTVSPropertyOp27
 70
     1
102
RTVSPropertyOp28
 70
     1
102
RTVSPropertyOp29
 70
     1
102
RTVSPropertyOp30
 70
     1
102
RTVSPropertyOp31
 70
     1
102
RTVSPropertyOp32
 70
     1
102
RTVSPropertyOp33
 70
     1
102
RTVSPropertyOp34
 70
     1
102
RTVSPropertyOp35
 70
     1
102
RTVSPropertyOp36
 70
     1
102
RTVSPropertyOp37
 70
     1
102
RTVSPropertyOp38
 70
     1
102
RTVSPropertyOp39
 70
     1
102
RTVSPropertyOp40
 70
     1
102
RTVSPropertyOp41
 70
     1
102
RTVSPropertyOp42
 70
     1
102
RTVSPropertyOp43
 70
     1
102
RTVSPropertyOp44
 70
     1
102
RTVSPropertyOp45
 70
     1
102
RTVSPropertyOp46
 70
     1
102
RTVSPropertyOp47
 70
     1
102
RTVSPropertyOp48
 70
     1
102
RTVSPropertyOp49
 70
     1
102
RTVSPropertyOp50
 70
     1
102
RTVSPropertyOp51
 70
     0
102
RTVSPropertyOp52
 70
     0
102
RTVSPropertyOp53
 70
     1
102
RTVSPropertyOp54
 70
     1
102
RTVSPropertyOp55
 70
     1
102
RTVSPropertyOp56
 70
     1
102
RTVSPropertyOp57
 70
     1
102
RTVSPropertyOp58
 70
     1
102
RTVSPropertyOp59
 70
     1
102
RTVSPropertyOp60
 70
     1
102
RTVSPropertyOp61
 70
     1
102
RTVSPropertyOp62
 70
     1
  0
XRECORD
  5
A10
102
{ACAD_REACTORS
330
A0F
102
}
330
A0F
100
AcDbXrecord
280
     1
102
RTVSPost2010Prop28
280
     0
102
RTVSPost2010PropOp28
 70
     1
102
RTVSPost2010Prop29
280
     1
102
RTVSPost2010PropOp29
 70
     1
102
RTVSPost2010Prop30
280
     1
102
RTVSPost2010PropOp30
 70
     1
102
RTVSPost2010Prop31
280
     0
102
RTVSPost2010PropOp31
 70
     1
102
RTVSPost2010Prop32
280
     0
102
RTVSPost2010PropOp32
 70
     1
102
RTVSPost2010Prop33
280
     0
102
RTVSPost2010PropOp33
 70
     1
102
RTVSPost2010Prop34
280
     0
102
RTVSPost2010PropOp34
 70
     1
102
RTVSPost2010Prop35
280
     0
102
RTVSPost2010PropOp35
 70
     1
102
RTVSPost2010Prop36
280
     0
102
RTVSPost2010PropOp36
 70
     1
102
RTVSPost2010Prop37
 90
       50
102
RTVSPost2010PropOp37
 70
     1
102
RTVSPost2010Prop38
140
0.0
102
RTVSPost2010PropOp38
 70
     1
102
RTVSPost2010Prop39
140
1.0
102
RTVSPost2010PropOp39
 70
     1
102
RTVSPost2010Prop40
 90
        0
102
RTVSPost2010PropOp40
 70
     1
102
RTVSPost2010Prop41ColorIndex
 90
       18
102
RTVSPost2010Prop41ColorRGB
 90
        0
102
RTVSPost2010PropOp41
 70
     1
102
RTVSPost2010Prop42
 90
       50
102
RTVSPost2010PropOp42
 70
     1
102
RTVSPost2010Prop43
 90
        3
102
RTVSPost2010PropOp43
 70
     1
102
RTVSPost2010Prop44ColorIndex
 90
        5
102
RTVSPost2010Prop44ColorRGB
 90
      255
102
RTVSPost2010PropOp44
 70
     1
102
RTVSPost2010Prop45
280
     0
102
RTVSPost2010PropOp45
 70
     1
102
RTVSPost2010Prop46
 90
       50
102
RTVSPost2010PropOp46
 70
     1
102
RTVSPost2010Prop47
 90
       50
102
RTVSPost2010PropOp47
 70
     1
102
RTVSPost2010Prop48
 90
       50
102
RTVSPost2010PropOp48
 70
     1
102
RTVSPost2010Prop49
280
     0
102
RTVSPost2010PropOp49
 70
     1
102
RTVSPost2010Prop50
 90
       50
102
RTVSPost2010PropOp50
 70
     1
102
RTVSPost2010Prop51ColorIndex
 90
      256
102
RTVSPost2010Prop51ColorRGB
 90
-16777216
102
RTVSPost2010PropOp51
 70
     0
102
RTVSPost2010Prop52
140
1.0
102
RTVSPost2010PropOp52
 70
     0
102
RTVSPost2010Prop53
 90
        2
102
RTVSPost2010PropOp53
 70
     1
102
RTVSPost2010Prop54
  1
strokes_ogs.tif
102
RTVSPost2010PropOp54
 70
     1
102
RTVSPost2010Prop55
280
     0
102
RTVSPost2010PropOp55
 70
     1
102
RTVSPost2010Prop56
140
1.0
102
RTVSPost2010PropOp56
 70
     1
102
RTVSPost2010Prop57
140
1.0
102
RTVSPost2010PropOp57
 70
     1
102
RTVSPropertyOp0
 70
     1
102
RTVSPropertyOp1
 70
     1
102
RTVSPropertyOp2
 70
     1
102
RTVSPropertyOp3
 70
     1
102
RTVSPropertyOp4
 70
     1
102
RTVSPropertyOp5
 70
     1
102
RTVSPropertyOp6
 70
     1
102
RTVSPropertyOp7
 70
     1
102
RTVSPropertyOp8
 70
     1
102
RTVSPropertyOp9
 70
     1
102
RTVSPropertyOp10
 70
     1
102
RTVSPropertyOp11
 70
     1
102
RTVSPropertyOp12
 70
     1
102
RTVSPropertyOp13
 70
     1
102
RTVSPropertyOp14
 70
     1
102
RTVSPropertyOp15
 70
     1
102
RTVSPropertyOp16
 70
     1
102
RTVSPropertyOp17
 70
     1
102
RTVSPropertyOp18
 70
     1
102
RTVSPropertyOp19
 70
     1
102
RTVSPropertyOp20
 70
     1
102
RTVSPropertyOp21
 70
     1
102
RTVSPropertyOp22
 70
     1
102
RTVSPropertyOp23
 70
     1
102
RTVSPropertyOp24
 70
     1
102
RTVSPropertyOp25
 70
     1
102
RTVSPropertyOp26
 70
     1
102
RTVSPropertyOp27
 70
     1
102
RTVSPropertyOp28
 70
     1
102
RTVSPropertyOp29
 70
     1
102
RTVSPropertyOp30
 70
     1
102
RTVSPropertyOp31
 70
     1
102
RTVSPropertyOp32
 70
     1
102
RTVSPropertyOp33
 70
     1
102
RTVSPropertyOp34
 70
     1
102
RTVSPropertyOp35
 70
     1
102
RTVSPropertyOp36
 70
     1
102
RTVSPropertyOp37
 70
     1
102
RTVSPropertyOp38
 70
     1
102
RTVSPropertyOp39
 70
     1
102
RTVSPropertyOp40
 70
     1
102
RTVSPropertyOp41
 70
     1
102
RTVSPropertyOp42
 70
     1
102
RTVSPropertyOp43
 70
     1
102
RTVSPropertyOp44
 70
     1
102
RTVSPropertyOp45
 70
     1
102
RTVSPropertyOp46
 70
     1
102
RTVSPropertyOp47
 70
     1
102
RTVSPropertyOp48
 70
     1
102
RTVSPropertyOp49
 70
     1
102
RTVSPropertyOp50
 70
     1
102
RTVSPropertyOp51
 70
     0
102
RTVSPropertyOp52
 70
     0
102
RTVSPropertyOp53
 70
     1
102
RTVSPropertyOp54
 70
     1
102
RTVSPropertyOp55
 70
     1
102
RTVSPropertyOp56
 70
     1
102
RTVSPropertyOp57
 70
     1
102
RTVSPropertyOp58
 70
     1
102
RTVSPropertyOp59
 70
     1
102
RTVSPropertyOp60
 70
     1
102
RTVSPropertyOp61
 70
     1
102
RTVSPropertyOp62
 70
     1
  0
XRECORD
  5
A06
102
{ACAD_REACTORS
330
A05
102
}
330
A05
100
AcDbXrecord
280
     1
102
RTVSPost2010Prop28
280
     0
102
RTVSPost2010PropOp28
 70
     1
102
RTVSPost2010Prop29
280
     1
102
RTVSPost2010PropOp29
 70
     1
102
RTVSPost2010Prop30
280
     1
102
RTVSPost2010PropOp30
 70
     1
102
RTVSPost2010Prop31
280
     0
102
RTVSPost2010PropOp31
 70
     1
102
RTVSPost2010Prop32
280
     0
102
RTVSPost2010PropOp32
 70
     1
102
RTVSPost2010Prop33
280
     0
102
RTVSPost2010PropOp33
 70
     1
102
RTVSPost2010Prop34
280
     0
102
RTVSPost2010PropOp34
 70
     1
102
RTVSPost2010Prop35
280
     0
102
RTVSPost2010PropOp35
 70
     1
102
RTVSPost2010Prop36
280
     0
102
RTVSPost2010PropOp36
 70
     1
102
RTVSPost2010Prop37
 90
       50
102
RTVSPost2010PropOp37
 70
     1
102
RTVSPost2010Prop38
140
0.0
102
RTVSPost2010PropOp38
 70
     1
102
RTVSPost2010Prop39
140
1.0
102
RTVSPost2010PropOp39
 70
     1
102
RTVSPost2010Prop40
 90
        0
102
RTVSPost2010PropOp40
 70
     1
102
RTVSPost2010Prop41ColorIndex
 90
       18
102
RTVSPost2010Prop41ColorRGB
 90
        0
102
RTVSPost2010PropOp41
 70
     1
102
RTVSPost2010Prop42
 90
       50
102
RTVSPost2010PropOp42
 70
     1
102
RTVSPost2010Prop43
 90
        3
102
RTVSPost2010PropOp43
 70
     1
102
RTVSPost2010Prop44ColorIndex
 90
        5
102
RTVSPost2010Prop44ColorRGB
 90
      255
102
RTVSPost2010PropOp44
 70
     1
102
RTVSPost2010Prop45
280
     0
102
RTVSPost2010PropOp45
 70
     1
102
RTVSPost2010Prop46
 90
       50
102
RTVSPost2010PropOp46
 70
     1
102
RTVSPost2010Prop47
 90
       50
102
RTVSPost2010PropOp47
 70
     1
102
RTVSPost2010Prop48
 90
       50
102
RTVSPost2010PropOp48
 70
     1
102
RTVSPost2010Prop49
280
     0
102
RTVSPost2010PropOp49
 70
     1
102
RTVSPost2010Prop50
 90
       50
102
RTVSPost2010PropOp50
 70
     1
102
RTVSPost2010Prop51ColorIndex
 90
      256
102
RTVSPost2010Prop51ColorRGB
 90
-16777216
102
RTVSPost2010PropOp51
 70
     0
102
RTVSPost2010Prop52
140
1.0
102
RTVSPost2010PropOp52
 70
     0
102
RTVSPost2010Prop53
 90
        2
102
RTVSPost2010PropOp53
 70
     1
102
RTVSPost2010Prop54
  1
strokes_ogs.tif
102
RTVSPost2010PropOp54
 70
     1
102
RTVSPost2010Prop55
280
     0
102
RTVSPost2010PropOp55
 70
     1
102
RTVSPost2010Prop56
140
1.0
102
RTVSPost2010PropOp56
 70
     1
102
RTVSPost2010Prop57
140
1.0
102
RTVSPost2010PropOp57
 70
     1
102
RTVSPropertyOp0
 70
     0
102
RTVSPropertyOp1
 70
     0
102
RTVSPropertyOp2
 70
     0
102
RTVSPropertyOp3
 70
     0
102
RTVSPropertyOp4
 70
     0
102
RTVSPropertyOp5
 70
     0
102
RTVSPropertyOp6
 70
     0
102
RTVSPropertyOp7
 70
     0
102
RTVSPropertyOp8
 70
     0
102
RTVSPropertyOp9
 70
     0
102
RTVSPropertyOp10
 70
     0
102
RTVSPropertyOp11
 70
     0
102
RTVSPropertyOp12
 70
     0
102
RTVSPropertyOp13
 70
     0
102
RTVSPropertyOp14
 70
     2
102
RTVSPropertyOp15
 70
     0
102
RTVSPropertyOp16
 70
     0
102
RTVSPropertyOp17
 70
     0
102
RTVSPropertyOp18
 70
     0
102
RTVSPropertyOp19
 70
     0
102
RTVSPropertyOp20
 70
     0
102
RTVSPropertyOp21
 70
     0
102
RTVSPropertyOp22
 70
     0
102
RTVSPropertyOp23
 70
     0
102
RTVSPropertyOp24
 70
     0
102
RTVSPropertyOp25
 70
     0
102
RTVSPropertyOp26
 70
     0
102
RTVSPropertyOp27
 70
     0
102
RTVSPropertyOp28
 70
     1
102
RTVSPropertyOp29
 70
     1
102
RTVSPropertyOp30
 70
     1
102
RTVSPropertyOp31
 70
     1
102
RTVSPropertyOp32
 70
     1
102
RTVSPropertyOp33
 70
     1
102
RTVSPropertyOp34
 70
     1
102
RTVSPropertyOp35
 70
     1
102
RTVSPropertyOp36
 70
     1
102
RTVSPropertyOp37
 70
     1
102
RTVSPropertyOp38
 70
     1
102
RTVSPropertyOp39
 70
     1
102
RTVSPropertyOp40
 70
     1
102
RTVSPropertyOp41
 70
     1
102
RTVSPropertyOp42
 70
     1
102
RTVSPropertyOp43
 70
     1
102
RTVSPropertyOp44
 70
     1
102
RTVSPropertyOp45
 70
     1
102
RTVSPropertyOp46
 70
     1
102
RTVSPropertyOp47
 70
     1
102
RTVSPropertyOp48
 70
     1
102
RTVSPropertyOp49
 70
     1
102
RTVSPropertyOp50
 70
     1
102
RTVSPropertyOp51
 70
     0
102
RTVSPropertyOp52
 70
     0
102
RTVSPropertyOp53
 70
     1
102
RTVSPropertyOp54
 70
     1
102
RTVSPropertyOp55
 70
     1
102
RTVSPropertyOp56
 70
     1
102
RTVSPropertyOp57
 70
     1
102
RTVSPropertyOp58
 70
     1
102
RTVSPropertyOp59
 70
     1
102
RTVSPropertyOp60
 70
     1
102
RTVSPropertyOp61
 70
     1
102
RTVSPropertyOp62
 70
     1
  0
XRECORD
  5
A00
102
{ACAD_REACTORS
330
9FF
102
}
330
9FF
100
AcDbXrecord
280
     1
102
RTVSPost2010Prop28
280
     0
102
RTVSPost2010PropOp28
 70
     1
102
RTVSPost2010Prop29
280
     1
102
RTVSPost2010PropOp29
 70
     1
102
RTVSPost2010Prop30
280
     1
102
RTVSPost2010PropOp30
 70
     1
102
RTVSPost2010Prop31
280
     0
102
RTVSPost2010PropOp31
 70
     1
102
RTVSPost2010Prop32
280
     0
102
RTVSPost2010PropOp32
 70
     1
102
RTVSPost2010Prop33
280
     0
102
RTVSPost2010PropOp33
 70
     1
102
RTVSPost2010Prop34
280
     0
102
RTVSPost2010PropOp34
 70
     1
102
RTVSPost2010Prop35
280
     0
102
RTVSPost2010PropOp35
 70
     1
102
RTVSPost2010Prop36
280
     0
102
RTVSPost2010PropOp36
 70
     1
102
RTVSPost2010Prop37
 90
       50
102
RTVSPost2010PropOp37
 70
     1
102
RTVSPost2010Prop38
140
0.0
102
RTVSPost2010PropOp38
 70
     1
102
RTVSPost2010Prop39
140
1.0
102
RTVSPost2010PropOp39
 70
     1
102
RTVSPost2010Prop40
 90
        0
102
RTVSPost2010PropOp40
 70
     1
102
RTVSPost2010Prop41ColorIndex
 90
       18
102
RTVSPost2010Prop41ColorRGB
 90
        0
102
RTVSPost2010PropOp41
 70
     1
102
RTVSPost2010Prop42
 90
       50
102
RTVSPost2010PropOp42
 70
     1
102
RTVSPost2010Prop43
 90
        3
102
RTVSPost2010PropOp43
 70
     1
102
RTVSPost2010Prop44ColorIndex
 90
        5
102
RTVSPost2010Prop44ColorRGB
 90
      255
102
RTVSPost2010PropOp44
 70
     1
102
RTVSPost2010Prop45
280
     0
102
RTVSPost2010PropOp45
 70
     1
102
RTVSPost2010Prop46
 90
       50
102
RTVSPost2010PropOp46
 70
     1
102
RTVSPost2010Prop47
 90
       50
102
RTVSPost2010PropOp47
 70
     1
102
RTVSPost2010Prop48
 90
       50
102
RTVSPost2010PropOp48
 70
     1
102
RTVSPost2010Prop49
280
     0
102
RTVSPost2010PropOp49
 70
     1
102
RTVSPost2010Prop50
 90
       50
102
RTVSPost2010PropOp50
 70
     1
102
RTVSPost2010Prop51ColorIndex
 90
      256
102
RTVSPost2010Prop51ColorRGB
 90
-16777216
102
RTVSPost2010PropOp51
 70
     0
102
RTVSPost2010Prop52
140
1.0
102
RTVSPost2010PropOp52
 70
     0
102
RTVSPost2010Prop53
 90
        2
102
RTVSPost2010PropOp53
 70
     1
102
RTVSPost2010Prop54
  1
strokes_ogs.tif
102
RTVSPost2010PropOp54
 70
     1
102
RTVSPost2010Prop55
280
     0
102
RTVSPost2010PropOp55
 70
     1
102
RTVSPost2010Prop56
140
1.0
102
RTVSPost2010PropOp56
 70
     1
102
RTVSPost2010Prop57
140
1.0
102
RTVSPost2010PropOp57
 70
     1
102
RTVSPropertyOp0
 70
     1
102
RTVSPropertyOp1
 70
     1
102
RTVSPropertyOp2
 70
     1
102
RTVSPropertyOp3
 70
     1
102
RTVSPropertyOp4
 70
     1
102
RTVSPropertyOp5
 70
     1
102
RTVSPropertyOp6
 70
     1
102
RTVSPropertyOp7
 70
     1
102
RTVSPropertyOp8
 70
     1
102
RTVSPropertyOp9
 70
     1
102
RTVSPropertyOp10
 70
     1
102
RTVSPropertyOp11
 70
     1
102
RTVSPropertyOp12
 70
     1
102
RTVSPropertyOp13
 70
     1
102
RTVSPropertyOp14
 70
     1
102
RTVSPropertyOp15
 70
     1
102
RTVSPropertyOp16
 70
     1
102
RTVSPropertyOp17
 70
     1
102
RTVSPropertyOp18
 70
     1
102
RTVSPropertyOp19
 70
     1
102
RTVSPropertyOp20
 70
     1
102
RTVSPropertyOp21
 70
     1
102
RTVSPropertyOp22
 70
     1
102
RTVSPropertyOp23
 70
     1
102
RTVSPropertyOp24
 70
     1
102
RTVSPropertyOp25
 70
     1
102
RTVSPropertyOp26
 70
     1
102
RTVSPropertyOp27
 70
     1
102
RTVSPropertyOp28
 70
     1
102
RTVSPropertyOp29
 70
     1
102
RTVSPropertyOp30
 70
     1
102
RTVSPropertyOp31
 70
     1
102
RTVSPropertyOp32
 70
     1
102
RTVSPropertyOp33
 70
     1
102
RTVSPropertyOp34
 70
     1
102
RTVSPropertyOp35
 70
     1
102
RTVSPropertyOp36
 70
     1
102
RTVSPropertyOp37
 70
     1
102
RTVSPropertyOp38
 70
     1
102
RTVSPropertyOp39
 70
     1
102
RTVSPropertyOp40
 70
     1
102
RTVSPropertyOp41
 70
     1
102
RTVSPropertyOp42
 70
     1
102
RTVSPropertyOp43
 70
     1
102
RTVSPropertyOp44
 70
     1
102
RTVSPropertyOp45
 70
     1
102
RTVSPropertyOp46
 70
     1
102
RTVSPropertyOp47
 70
     1
102
RTVSPropertyOp48
 70
     1
102
RTVSPropertyOp49
 70
     1
102
RTVSPropertyOp50
 70
     1
102
RTVSPropertyOp51
 70
     0
102
RTVSPropertyOp52
 70
     0
102
RTVSPropertyOp53
 70
     1
102
RTVSPropertyOp54
 70
     1
102
RTVSPropertyOp55
 70
     1
102
RTVSPropertyOp56
 70
     1
102
RTVSPropertyOp57
 70
     1
102
RTVSPropertyOp58
 70
     1
102
RTVSPropertyOp59
 70
     1
102
RTVSPropertyOp60
 70
     1
102
RTVSPropertyOp61
 70
     1
102
RTVSPropertyOp62
 70
     1
  0
XRECORD
  5
A08
102
{ACAD_REACTORS
330
A07
102
}
330
A07
100
AcDbXrecord
280
     1
102
RTVSPost2010Prop28
280
     0
102
RTVSPost2010PropOp28
 70
     1
102
RTVSPost2010Prop29
280
     1
102
RTVSPost2010PropOp29
 70
     1
102
RTVSPost2010Prop30
280
     1
102
RTVSPost2010PropOp30
 70
     1
102
RTVSPost2010Prop31
280
     0
102
RTVSPost2010PropOp31
 70
     1
102
RTVSPost2010Prop32
280
     0
102
RTVSPost2010PropOp32
 70
     1
102
RTVSPost2010Prop33
280
     0
102
RTVSPost2010PropOp33
 70
     1
102
RTVSPost2010Prop34
280
     0
102
RTVSPost2010PropOp34
 70
     1
102
RTVSPost2010Prop35
280
     0
102
RTVSPost2010PropOp35
 70
     1
102
RTVSPost2010Prop36
280
     0
102
RTVSPost2010PropOp36
 70
     1
102
RTVSPost2010Prop37
 90
       50
102
RTVSPost2010PropOp37
 70
     1
102
RTVSPost2010Prop38
140
0.0
102
RTVSPost2010PropOp38
 70
     1
102
RTVSPost2010Prop39
140
1.0
102
RTVSPost2010PropOp39
 70
     1
102
RTVSPost2010Prop40
 90
        0
102
RTVSPost2010PropOp40
 70
     1
102
RTVSPost2010Prop41ColorIndex
 90
       18
102
RTVSPost2010Prop41ColorRGB
 90
        0
102
RTVSPost2010PropOp41
 70
     1
102
RTVSPost2010Prop42
 90
       50
102
RTVSPost2010PropOp42
 70
     1
102
RTVSPost2010Prop43
 90
        3
102
RTVSPost2010PropOp43
 70
     1
102
RTVSPost2010Prop44ColorIndex
 90
        5
102
RTVSPost2010Prop44ColorRGB
 90
      255
102
RTVSPost2010PropOp44
 70
     1
102
RTVSPost2010Prop45
280
     0
102
RTVSPost2010PropOp45
 70
     1
102
RTVSPost2010Prop46
 90
       50
102
RTVSPost2010PropOp46
 70
     1
102
RTVSPost2010Prop47
 90
       50
102
RTVSPost2010PropOp47
 70
     1
102
RTVSPost2010Prop48
 90
       50
102
RTVSPost2010PropOp48
 70
     1
102
RTVSPost2010Prop49
280
     0
102
RTVSPost2010PropOp49
 70
     1
102
RTVSPost2010Prop50
 90
       50
102
RTVSPost2010PropOp50
 70
     1
102
RTVSPost2010Prop51ColorIndex
 90
      256
102
RTVSPost2010Prop51ColorRGB
 90
-16777216
102
RTVSPost2010PropOp51
 70
     0
102
RTVSPost2010Prop52
140
1.0
102
RTVSPost2010PropOp52
 70
     0
102
RTVSPost2010Prop53
 90
        2
102
RTVSPost2010PropOp53
 70
     1
102
RTVSPost2010Prop54
  1
strokes_ogs.tif
102
RTVSPost2010PropOp54
 70
     1
102
RTVSPost2010Prop55
280
     0
102
RTVSPost2010PropOp55
 70
     1
102
RTVSPost2010Prop56
140
1.0
102
RTVSPost2010PropOp56
 70
     1
102
RTVSPost2010Prop57
140
1.0
102
RTVSPost2010PropOp57
 70
     1
102
RTVSPropertyOp0
 70
     0
102
RTVSPropertyOp1
 70
     0
102
RTVSPropertyOp2
 70
     0
102
RTVSPropertyOp3
 70
     0
102
RTVSPropertyOp4
 70
     0
102
RTVSPropertyOp5
 70
     0
102
RTVSPropertyOp6
 70
     0
102
RTVSPropertyOp7
 70
     0
102
RTVSPropertyOp8
 70
     0
102
RTVSPropertyOp9
 70
     0
102
RTVSPropertyOp10
 70
     0
102
RTVSPropertyOp11
 70
     0
102
RTVSPropertyOp12
 70
     0
102
RTVSPropertyOp13
 70
     0
102
RTVSPropertyOp14
 70
     2
102
RTVSPropertyOp15
 70
     0
102
RTVSPropertyOp16
 70
     0
102
RTVSPropertyOp17
 70
     0
102
RTVSPropertyOp18
 70
     0
102
RTVSPropertyOp19
 70
     0
102
RTVSPropertyOp20
 70
     0
102
RTVSPropertyOp21
 70
     0
102
RTVSPropertyOp22
 70
     0
102
RTVSPropertyOp23
 70
     0
102
RTVSPropertyOp24
 70
     0
102
RTVSPropertyOp25
 70
     0
102
RTVSPropertyOp26
 70
     0
102
RTVSPropertyOp27
 70
     0
102
RTVSPropertyOp28
 70
     1
102
RTVSPropertyOp29
 70
     1
102
RTVSPropertyOp30
 70
     1
102
RTVSPropertyOp31
 70
     1
102
RTVSPropertyOp32
 70
     1
102
RTVSPropertyOp33
 70
     1
102
RTVSPropertyOp34
 70
     1
102
RTVSPropertyOp35
 70
     1
102
RTVSPropertyOp36
 70
     1
102
RTVSPropertyOp37
 70
     1
102
RTVSPropertyOp38
 70
     1
102
RTVSPropertyOp39
 70
     1
102
RTVSPropertyOp40
 70
     1
102
RTVSPropertyOp41
 70
     1
102
RTVSPropertyOp42
 70
     1
102
RTVSPropertyOp43
 70
     1
102
RTVSPropertyOp44
 70
     1
102
RTVSPropertyOp45
 70
     1
102
RTVSPropertyOp46
 70
     1
102
RTVSPropertyOp47
 70
     1
102
RTVSPropertyOp48
 70
     1
102
RTVSPropertyOp49
 70
     1
102
RTVSPropertyOp50
 70
     1
102
RTVSPropertyOp51
 70
     0
102
RTVSPropertyOp52
 70
     0
102
RTVSPropertyOp53
 70
     1
102
RTVSPropertyOp54
 70
     1
102
RTVSPropertyOp55
 70
     1
102
RTVSPropertyOp56
 70
     1
102
RTVSPropertyOp57
 70
     1
102
RTVSPropertyOp58
 70
     1
102
RTVSPropertyOp59
 70
     1
102
RTVSPropertyOp60
 70
     1
102
RTVSPropertyOp61
 70
     1
102
RTVSPropertyOp62
 70
     1
  0
XRECORD
  5
9F8
102
{ACAD_REACTORS
330
9F7
102
}
330
9F7
100
AcDbXrecord
280
     1
102
RTVSPost2010Prop28
280
     0
102
RTVSPost2010PropOp28
 70
     1
102
RTVSPost2010Prop29
280
     1
102
RTVSPost2010PropOp29
 70
     1
102
RTVSPost2010Prop30
280
     1
102
RTVSPost2010PropOp30
 70
     1
102
RTVSPost2010Prop31
280
     0
102
RTVSPost2010PropOp31
 70
     1
102
RTVSPost2010Prop32
280
     0
102
RTVSPost2010PropOp32
 70
     1
102
RTVSPost2010Prop33
280
     0
102
RTVSPost2010PropOp33
 70
     1
102
RTVSPost2010Prop34
280
     0
102
RTVSPost2010PropOp34
 70
     1
102
RTVSPost2010Prop35
280
     0
102
RTVSPost2010PropOp35
 70
     1
102
RTVSPost2010Prop36
280
     0
102
RTVSPost2010PropOp36
 70
     1
102
RTVSPost2010Prop37
 90
       50
102
RTVSPost2010PropOp37
 70
     1
102
RTVSPost2010Prop38
140
0.0
102
RTVSPost2010PropOp38
 70
     1
102
RTVSPost2010Prop39
140
1.0
102
RTVSPost2010PropOp39
 70
     1
102
RTVSPost2010Prop40
 90
        0
102
RTVSPost2010PropOp40
 70
     1
102
RTVSPost2010Prop41ColorIndex
 90
       18
102
RTVSPost2010Prop41ColorRGB
 90
        0
102
RTVSPost2010PropOp41
 70
     1
102
RTVSPost2010Prop42
 90
       50
102
RTVSPost2010PropOp42
 70
     1
102
RTVSPost2010Prop43
 90
        3
102
RTVSPost2010PropOp43
 70
     1
102
RTVSPost2010Prop44ColorIndex
 90
        5
102
RTVSPost2010Prop44ColorRGB
 90
      255
102
RTVSPost2010PropOp44
 70
     1
102
RTVSPost2010Prop45
280
     0
102
RTVSPost2010PropOp45
 70
     1
102
RTVSPost2010Prop46
 90
       50
102
RTVSPost2010PropOp46
 70
     1
102
RTVSPost2010Prop47
 90
       50
102
RTVSPost2010PropOp47
 70
     1
102
RTVSPost2010Prop48
 90
       50
102
RTVSPost2010PropOp48
 70
     1
102
RTVSPost2010Prop49
280
     0
102
RTVSPost2010PropOp49
 70
     1
102
RTVSPost2010Prop50
 90
       50
102
RTVSPost2010PropOp50
 70
     1
102
RTVSPost2010Prop51ColorIndex
 90
      256
102
RTVSPost2010Prop51ColorRGB
 90
-16777216
102
RTVSPost2010PropOp51
 70
     0
102
RTVSPost2010Prop52
140
1.0
102
RTVSPost2010PropOp52
 70
     0
102
RTVSPost2010Prop53
 90
        2
102
RTVSPost2010PropOp53
 70
     1
102
RTVSPost2010Prop54
  1
strokes_ogs.tif
102
RTVSPost2010PropOp54
 70
     1
102
RTVSPost2010Prop55
280
     0
102
RTVSPost2010PropOp55
 70
     1
102
RTVSPost2010Prop56
140
1.0
102
RTVSPost2010PropOp56
 70
     1
102
RTVSPost2010Prop57
140
1.0
102
RTVSPost2010PropOp57
 70
     1
102
RTVSPropertyOp0
 70
     1
102
RTVSPropertyOp1
 70
     1
102
RTVSPropertyOp2
 70
     1
102
RTVSPropertyOp3
 70
     1
102
RTVSPropertyOp4
 70
     1
102
RTVSPropertyOp5
 70
     1
102
RTVSPropertyOp6
 70
     1
102
RTVSPropertyOp7
 70
     1
102
RTVSPropertyOp8
 70
     1
102
RTVSPropertyOp9
 70
     1
102
RTVSPropertyOp10
 70
     1
102
RTVSPropertyOp11
 70
     1
102
RTVSPropertyOp12
 70
     1
102
RTVSPropertyOp13
 70
     1
102
RTVSPropertyOp14
 70
     1
102
RTVSPropertyOp15
 70
     1
102
RTVSPropertyOp16
 70
     1
102
RTVSPropertyOp17
 70
     1
102
RTVSPropertyOp18
 70
     1
102
RTVSPropertyOp19
 70
     1
102
RTVSPropertyOp20
 70
     1
102
RTVSPropertyOp21
 70
     1
102
RTVSPropertyOp22
 70
     1
102
RTVSPropertyOp23
 70
     1
102
RTVSPropertyOp24
 70
     1
102
RTVSPropertyOp25
 70
     1
102
RTVSPropertyOp26
 70
     1
102
RTVSPropertyOp27
 70
     1
102
RTVSPropertyOp28
 70
     1
102
RTVSPropertyOp29
 70
     1
102
RTVSPropertyOp30
 70
     1
102
RTVSPropertyOp31
 70
     1
102
RTVSPropertyOp32
 70
     1
102
RTVSPropertyOp33
 70
     1
102
RTVSPropertyOp34
 70
     1
102
RTVSPropertyOp35
 70
     1
102
RTVSPropertyOp36
 70
     1
102
RTVSPropertyOp37
 70
     1
102
RTVSPropertyOp38
 70
     1
102
RTVSPropertyOp39
 70
     1
102
RTVSPropertyOp40
 70
     1
102
RTVSPropertyOp41
 70
     1
102
RTVSPropertyOp42
 70
     1
102
RTVSPropertyOp43
 70
     1
102
RTVSPropertyOp44
 70
     1
102
RTVSPropertyOp45
 70
     1
102
RTVSPropertyOp46
 70
     1
102
RTVSPropertyOp47
 70
     1
102
RTVSPropertyOp48
 70
     1
102
RTVSPropertyOp49
 70
     1
102
RTVSPropertyOp50
 70
     1
102
RTVSPropertyOp51
 70
     0
102
RTVSPropertyOp52
 70
     0
102
RTVSPropertyOp53
 70
     1
102
RTVSPropertyOp54
 70
     1
102
RTVSPropertyOp55
 70
     1
102
RTVSPropertyOp56
 70
     1
102
RTVSPropertyOp57
 70
     1
102
RTVSPropertyOp58
 70
     1
102
RTVSPropertyOp59
 70
     1
102
RTVSPropertyOp60
 70
     1
102
RTVSPropertyOp61
 70
     1
102
RTVSPropertyOp62
 70
     1
  0
XRECORD
  5
A1A
102
{ACAD_REACTORS
330
A19
102
}
330
A19
100
AcDbXrecord
280
     1
102
RTVSPost2010Prop28
280
     0
102
RTVSPost2010PropOp28
 70
     1
102
RTVSPost2010Prop29
280
     1
102
RTVSPost2010PropOp29
 70
     1
102
RTVSPost2010Prop30
280
     1
102
RTVSPost2010PropOp30
 70
     1
102
RTVSPost2010Prop31
280
     0
102
RTVSPost2010PropOp31
 70
     1
102
RTVSPost2010Prop32
280
     0
102
RTVSPost2010PropOp32
 70
     1
102
RTVSPost2010Prop33
280
     0
102
RTVSPost2010PropOp33
 70
     1
102
RTVSPost2010Prop34
280
     0
102
RTVSPost2010PropOp34
 70
     1
102
RTVSPost2010Prop35
280
     0
102
RTVSPost2010PropOp35
 70
     1
102
RTVSPost2010Prop36
280
     0
102
RTVSPost2010PropOp36
 70
     1
102
RTVSPost2010Prop37
 90
       50
102
RTVSPost2010PropOp37
 70
     1
102
RTVSPost2010Prop38
140
0.0
102
RTVSPost2010PropOp38
 70
     1
102
RTVSPost2010Prop39
140
1.0
102
RTVSPost2010PropOp39
 70
     1
102
RTVSPost2010Prop40
 90
        0
102
RTVSPost2010PropOp40
 70
     1
102
RTVSPost2010Prop41ColorIndex
 90
       18
102
RTVSPost2010Prop41ColorRGB
 90
        0
102
RTVSPost2010PropOp41
 70
     1
102
RTVSPost2010Prop42
 90
       50
102
RTVSPost2010PropOp42
 70
     1
102
RTVSPost2010Prop43
 90
        3
102
RTVSPost2010PropOp43
 70
     1
102
RTVSPost2010Prop44ColorIndex
 90
        5
102
RTVSPost2010Prop44ColorRGB
 90
      255
102
RTVSPost2010PropOp44
 70
     1
102
RTVSPost2010Prop45
280
     0
102
RTVSPost2010PropOp45
 70
     1
102
RTVSPost2010Prop46
 90
       50
102
RTVSPost2010PropOp46
 70
     1
102
RTVSPost2010Prop47
 90
       50
102
RTVSPost2010PropOp47
 70
     1
102
RTVSPost2010Prop48
 90
       50
102
RTVSPost2010PropOp48
 70
     1
102
RTVSPost2010Prop49
280
     0
102
RTVSPost2010PropOp49
 70
     1
102
RTVSPost2010Prop50
 90
       50
102
RTVSPost2010PropOp50
 70
     1
102
RTVSPost2010Prop51ColorIndex
 90
      256
102
RTVSPost2010Prop51ColorRGB
 90
-16777216
102
RTVSPost2010PropOp51
 70
     0
102
RTVSPost2010Prop52
140
1.0
102
RTVSPost2010PropOp52
 70
     0
102
RTVSPost2010Prop53
 90
        2
102
RTVSPost2010PropOp53
 70
     1
102
RTVSPost2010Prop54
  1
strokes_ogs.tif
102
RTVSPost2010PropOp54
 70
     1
102
RTVSPost2010Prop55
280
     0
102
RTVSPost2010PropOp55
 70
     1
102
RTVSPost2010Prop56
140
1.0
102
RTVSPost2010PropOp56
 70
     1
102
RTVSPost2010Prop57
140
1.0
102
RTVSPost2010PropOp57
 70
     1
102
RTVSPropertyOp0
 70
     1
102
RTVSPropertyOp1
 70
     1
102
RTVSPropertyOp2
 70
     1
102
RTVSPropertyOp3
 70
     1
102
RTVSPropertyOp4
 70
     1
102
RTVSPropertyOp5
 70
     1
102
RTVSPropertyOp6
 70
     1
102
RTVSPropertyOp7
 70
     1
102
RTVSPropertyOp8
 70
     1
102
RTVSPropertyOp9
 70
     1
102
RTVSPropertyOp10
 70
     1
102
RTVSPropertyOp11
 70
     1
102
RTVSPropertyOp12
 70
     1
102
RTVSPropertyOp13
 70
     1
102
RTVSPropertyOp14
 70
     1
102
RTVSPropertyOp15
 70
     1
102
RTVSPropertyOp16
 70
     1
102
RTVSPropertyOp17
 70
     1
102
RTVSPropertyOp18
 70
     1
102
RTVSPropertyOp19
 70
     1
102
RTVSPropertyOp20
 70
     1
102
RTVSPropertyOp21
 70
     1
102
RTVSPropertyOp22
 70
     1
102
RTVSPropertyOp23
 70
     1
102
RTVSPropertyOp24
 70
     1
102
RTVSPropertyOp25
 70
     1
102
RTVSPropertyOp26
 70
     1
102
RTVSPropertyOp27
 70
     1
102
RTVSPropertyOp28
 70
     1
102
RTVSPropertyOp29
 70
     1
102
RTVSPropertyOp30
 70
     1
102
RTVSPropertyOp31
 70
     1
102
RTVSPropertyOp32
 70
     1
102
RTVSPropertyOp33
 70
     1
102
RTVSPropertyOp34
 70
     1
102
RTVSPropertyOp35
 70
     1
102
RTVSPropertyOp36
 70
     1
102
RTVSPropertyOp37
 70
     1
102
RTVSPropertyOp38
 70
     1
102
RTVSPropertyOp39
 70
     1
102
RTVSPropertyOp40
 70
     1
102
RTVSPropertyOp41
 70
     1
102
RTVSPropertyOp42
 70
     1
102
RTVSPropertyOp43
 70
     1
102
RTVSPropertyOp44
 70
     1
102
RTVSPropertyOp45
 70
     1
102
RTVSPropertyOp46
 70
     1
102
RTVSPropertyOp47
 70
     1
102
RTVSPropertyOp48
 70
     1
102
RTVSPropertyOp49
 70
     1
102
RTVSPropertyOp50
 70
     1
102
RTVSPropertyOp51
 70
     0
102
RTVSPropertyOp52
 70
     0
102
RTVSPropertyOp53
 70
     1
102
RTVSPropertyOp54
 70
     1
102
RTVSPropertyOp55
 70
     1
102
RTVSPropertyOp56
 70
     1
102
RTVSPropertyOp57
 70
     1
102
RTVSPropertyOp58
 70
     1
102
RTVSPropertyOp59
 70
     1
102
RTVSPropertyOp60
 70
     1
102
RTVSPropertyOp61
 70
     1
102
RTVSPropertyOp62
 70
     1
  0
XRECORD
  5
A18
102
{ACAD_REACTORS
330
A17
102
}
330
A17
100
AcDbXrecord
280
     1
102
RTVSPost2010Prop28
280
     0
102
RTVSPost2010PropOp28
 70
     1
102
RTVSPost2010Prop29
280
     1
102
RTVSPost2010PropOp29
 70
     1
102
RTVSPost2010Prop30
280
     1
102
RTVSPost2010PropOp30
 70
     1
102
RTVSPost2010Prop31
280
     0
102
RTVSPost2010PropOp31
 70
     1
102
RTVSPost2010Prop32
280
     0
102
RTVSPost2010PropOp32
 70
     1
102
RTVSPost2010Prop33
280
     0
102
RTVSPost2010PropOp33
 70
     1
102
RTVSPost2010Prop34
280
     0
102
RTVSPost2010PropOp34
 70
     1
102
RTVSPost2010Prop35
280
     0
102
RTVSPost2010PropOp35
 70
     1
102
RTVSPost2010Prop36
280
     0
102
RTVSPost2010PropOp36
 70
     1
102
RTVSPost2010Prop37
 90
       50
102
RTVSPost2010PropOp37
 70
     1
102
RTVSPost2010Prop38
140
0.0
102
RTVSPost2010PropOp38
 70
     1
102
RTVSPost2010Prop39
140
1.0
102
RTVSPost2010PropOp39
 70
     1
102
RTVSPost2010Prop40
 90
        0
102
RTVSPost2010PropOp40
 70
     1
102
RTVSPost2010Prop41ColorIndex
 90
       18
102
RTVSPost2010Prop41ColorRGB
 90
        0
102
RTVSPost2010PropOp41
 70
     1
102
RTVSPost2010Prop42
 90
       50
102
RTVSPost2010PropOp42
 70
     1
102
RTVSPost2010Prop43
 90
        3
102
RTVSPost2010PropOp43
 70
     1
102
RTVSPost2010Prop44ColorIndex
 90
        5
102
RTVSPost2010Prop44ColorRGB
 90
      255
102
RTVSPost2010PropOp44
 70
     1
102
RTVSPost2010Prop45
280
     0
102
RTVSPost2010PropOp45
 70
     1
102
RTVSPost2010Prop46
 90
       50
102
RTVSPost2010PropOp46
 70
     1
102
RTVSPost2010Prop47
 90
       50
102
RTVSPost2010PropOp47
 70
     1
102
RTVSPost2010Prop48
 90
       50
102
RTVSPost2010PropOp48
 70
     1
102
RTVSPost2010Prop49
280
     0
102
RTVSPost2010PropOp49
 70
     1
102
RTVSPost2010Prop50
 90
       50
102
RTVSPost2010PropOp50
 70
     1
102
RTVSPost2010Prop51ColorIndex
 90
      256
102
RTVSPost2010Prop51ColorRGB
 90
-16777216
102
RTVSPost2010PropOp51
 70
     0
102
RTVSPost2010Prop52
140
1.0
102
RTVSPost2010PropOp52
 70
     0
102
RTVSPost2010Prop53
 90
        2
102
RTVSPost2010PropOp53
 70
     1
102
RTVSPost2010Prop54
  1
strokes_ogs.tif
102
RTVSPost2010PropOp54
 70
     1
102
RTVSPost2010Prop55
280
     0
102
RTVSPost2010PropOp55
 70
     1
102
RTVSPost2010Prop56
140
1.0
102
RTVSPost2010PropOp56
 70
     1
102
RTVSPost2010Prop57
140
1.0
102
RTVSPost2010PropOp57
 70
     1
102
RTVSPropertyOp0
 70
     1
102
RTVSPropertyOp1
 70
     1
102
RTVSPropertyOp2
 70
     1
102
RTVSPropertyOp3
 70
     1
102
RTVSPropertyOp4
 70
     1
102
RTVSPropertyOp5
 70
     1
102
RTVSPropertyOp6
 70
     1
102
RTVSPropertyOp7
 70
     1
102
RTVSPropertyOp8
 70
     1
102
RTVSPropertyOp9
 70
     1
102
RTVSPropertyOp10
 70
     1
102
RTVSPropertyOp11
 70
     1
102
RTVSPropertyOp12
 70
     1
102
RTVSPropertyOp13
 70
     1
102
RTVSPropertyOp14
 70
     1
102
RTVSPropertyOp15
 70
     1
102
RTVSPropertyOp16
 70
     1
102
RTVSPropertyOp17
 70
     1
102
RTVSPropertyOp18
 70
     1
102
RTVSPropertyOp19
 70
     1
102
RTVSPropertyOp20
 70
     1
102
RTVSPropertyOp21
 70
     1
102
RTVSPropertyOp22
 70
     1
102
RTVSPropertyOp23
 70
     1
102
RTVSPropertyOp24
 70
     1
102
RTVSPropertyOp25
 70
     1
102
RTVSPropertyOp26
 70
     1
102
RTVSPropertyOp27
 70
     1
102
RTVSPropertyOp28
 70
     1
102
RTVSPropertyOp29
 70
     1
102
RTVSPropertyOp30
 70
     1
102
RTVSPropertyOp31
 70
     1
102
RTVSPropertyOp32
 70
     1
102
RTVSPropertyOp33
 70
     1
102
RTVSPropertyOp34
 70
     1
102
RTVSPropertyOp35
 70
     1
102
RTVSPropertyOp36
 70
     1
102
RTVSPropertyOp37
 70
     1
102
RTVSPropertyOp38
 70
     1
102
RTVSPropertyOp39
 70
     1
102
RTVSPropertyOp40
 70
     1
102
RTVSPropertyOp41
 70
     1
102
RTVSPropertyOp42
 70
     1
102
RTVSPropertyOp43
 70
     1
102
RTVSPropertyOp44
 70
     1
102
RTVSPropertyOp45
 70
     1
102
RTVSPropertyOp46
 70
     1
102
RTVSPropertyOp47
 70
     1
102
RTVSPropertyOp48
 70
     1
102
RTVSPropertyOp49
 70
     1
102
RTVSPropertyOp50
 70
     1
102
RTVSPropertyOp51
 70
     0
102
RTVSPropertyOp52
 70
     0
102
RTVSPropertyOp53
 70
     1
102
RTVSPropertyOp54
 70
     1
102
RTVSPropertyOp55
 70
     1
102
RTVSPropertyOp56
 70
     1
102
RTVSPropertyOp57
 70
     1
102
RTVSPropertyOp58
 70
     1
102
RTVSPropertyOp59
 70
     1
102
RTVSPropertyOp60
 70
     1
102
RTVSPropertyOp61
 70
     1
102
RTVSPropertyOp62
 70
     1
  0
XRECORD
  5
A12
102
{ACAD_REACTORS
330
A11
102
}
330
A11
100
AcDbXrecord
280
     1
102
RTVSPost2010Prop28
280
     0
102
RTVSPost2010PropOp28
 70
     1
102
RTVSPost2010Prop29
280
     1
102
RTVSPost2010PropOp29
 70
     1
102
RTVSPost2010Prop30
280
     1
102
RTVSPost2010PropOp30
 70
     1
102
RTVSPost2010Prop31
280
     0
102
RTVSPost2010PropOp31
 70
     1
102
RTVSPost2010Prop32
280
     0
102
RTVSPost2010PropOp32
 70
     1
102
RTVSPost2010Prop33
280
     0
102
RTVSPost2010PropOp33
 70
     1
102
RTVSPost2010Prop34
280
     0
102
RTVSPost2010PropOp34
 70
     1
102
RTVSPost2010Prop35
280
     0
102
RTVSPost2010PropOp35
 70
     1
102
RTVSPost2010Prop36
280
     0
102
RTVSPost2010PropOp36
 70
     1
102
RTVSPost2010Prop37
 90
       50
102
RTVSPost2010PropOp37
 70
     1
102
RTVSPost2010Prop38
140
0.0
102
RTVSPost2010PropOp38
 70
     1
102
RTVSPost2010Prop39
140
1.0
102
RTVSPost2010PropOp39
 70
     1
102
RTVSPost2010Prop40
 90
        0
102
RTVSPost2010PropOp40
 70
     1
102
RTVSPost2010Prop41ColorIndex
 90
       18
102
RTVSPost2010Prop41ColorRGB
 90
        0
102
RTVSPost2010PropOp41
 70
     1
102
RTVSPost2010Prop42
 90
       50
102
RTVSPost2010PropOp42
 70
     1
102
RTVSPost2010Prop43
 90
        3
102
RTVSPost2010PropOp43
 70
     1
102
RTVSPost2010Prop44ColorIndex
 90
        5
102
RTVSPost2010Prop44ColorRGB
 90
      255
102
RTVSPost2010PropOp44
 70
     1
102
RTVSPost2010Prop45
280
     0
102
RTVSPost2010PropOp45
 70
     1
102
RTVSPost2010Prop46
 90
       50
102
RTVSPost2010PropOp46
 70
     1
102
RTVSPost2010Prop47
 90
       50
102
RTVSPost2010PropOp47
 70
     1
102
RTVSPost2010Prop48
 90
       50
102
RTVSPost2010PropOp48
 70
     1
102
RTVSPost2010Prop49
280
     0
102
RTVSPost2010PropOp49
 70
     1
102
RTVSPost2010Prop50
 90
       50
102
RTVSPost2010PropOp50
 70
     1
102
RTVSPost2010Prop51ColorIndex
 90
      256
102
RTVSPost2010Prop51ColorRGB
 90
-16777216
102
RTVSPost2010PropOp51
 70
     0
102
RTVSPost2010Prop52
140
1.0
102
RTVSPost2010PropOp52
 70
     0
102
RTVSPost2010Prop53
 90
        2
102
RTVSPost2010PropOp53
 70
     1
102
RTVSPost2010Prop54
  1
strokes_ogs.tif
102
RTVSPost2010PropOp54
 70
     1
102
RTVSPost2010Prop55
280
     0
102
RTVSPost2010PropOp55
 70
     1
102
RTVSPost2010Prop56
140
1.0
102
RTVSPost2010PropOp56
 70
     1
102
RTVSPost2010Prop57
140
1.0
102
RTVSPost2010PropOp57
 70
     1
102
RTVSPropertyOp0
 70
     1
102
RTVSPropertyOp1
 70
     1
102
RTVSPropertyOp2
 70
     1
102
RTVSPropertyOp3
 70
     1
102
RTVSPropertyOp4
 70
     1
102
RTVSPropertyOp5
 70
     1
102
RTVSPropertyOp6
 70
     1
102
RTVSPropertyOp7
 70
     1
102
RTVSPropertyOp8
 70
     1
102
RTVSPropertyOp9
 70
     1
102
RTVSPropertyOp10
 70
     1
102
RTVSPropertyOp11
 70
     1
102
RTVSPropertyOp12
 70
     1
102
RTVSPropertyOp13
 70
     1
102
RTVSPropertyOp14
 70
     1
102
RTVSPropertyOp15
 70
     1
102
RTVSPropertyOp16
 70
     1
102
RTVSPropertyOp17
 70
     1
102
RTVSPropertyOp18
 70
     1
102
RTVSPropertyOp19
 70
     1
102
RTVSPropertyOp20
 70
     1
102
RTVSPropertyOp21
 70
     1
102
RTVSPropertyOp22
 70
     1
102
RTVSPropertyOp23
 70
     1
102
RTVSPropertyOp24
 70
     1
102
RTVSPropertyOp25
 70
     1
102
RTVSPropertyOp26
 70
     1
102
RTVSPropertyOp27
 70
     1
102
RTVSPropertyOp28
 70
     1
102
RTVSPropertyOp29
 70
     1
102
RTVSPropertyOp30
 70
     1
102
RTVSPropertyOp31
 70
     1
102
RTVSPropertyOp32
 70
     1
102
RTVSPropertyOp33
 70
     1
102
RTVSPropertyOp34
 70
     1
102
RTVSPropertyOp35
 70
     1
102
RTVSPropertyOp36
 70
     1
102
RTVSPropertyOp37
 70
     1
102
RTVSPropertyOp38
 70
     1
102
RTVSPropertyOp39
 70
     1
102
RTVSPropertyOp40
 70
     1
102
RTVSPropertyOp41
 70
     1
102
RTVSPropertyOp42
 70
     1
102
RTVSPropertyOp43
 70
     1
102
RTVSPropertyOp44
 70
     1
102
RTVSPropertyOp45
 70
     1
102
RTVSPropertyOp46
 70
     1
102
RTVSPropertyOp47
 70
     1
102
RTVSPropertyOp48
 70
     1
102
RTVSPropertyOp49
 70
     1
102
RTVSPropertyOp50
 70
     1
102
RTVSPropertyOp51
 70
     0
102
RTVSPropertyOp52
 70
     0
102
RTVSPropertyOp53
 70
     1
102
RTVSPropertyOp54
 70
     1
102
RTVSPropertyOp55
 70
     1
102
RTVSPropertyOp56
 70
     1
102
RTVSPropertyOp57
 70
     1
102
RTVSPropertyOp58
 70
     1
102
RTVSPropertyOp59
 70
     1
102
RTVSPropertyOp60
 70
     1
102
RTVSPropertyOp61
 70
     1
102
RTVSPropertyOp62
 70
     1
  0
XRECORD
  5
A14
102
{ACAD_REACTORS
330
A13
102
}
330
A13
100
AcDbXrecord
280
     1
102
RTVSPost2010Prop28
280
     0
102
RTVSPost2010PropOp28
 70
     1
102
RTVSPost2010Prop29
280
     1
102
RTVSPost2010PropOp29
 70
     1
102
RTVSPost2010Prop30
280
     1
102
RTVSPost2010PropOp30
 70
     1
102
RTVSPost2010Prop31
280
     0
102
RTVSPost2010PropOp31
 70
     1
102
RTVSPost2010Prop32
280
     0
102
RTVSPost2010PropOp32
 70
     1
102
RTVSPost2010Prop33
280
     0
102
RTVSPost2010PropOp33
 70
     1
102
RTVSPost2010Prop34
280
     0
102
RTVSPost2010PropOp34
 70
     1
102
RTVSPost2010Prop35
280
     0
102
RTVSPost2010PropOp35
 70
     1
102
RTVSPost2010Prop36
280
     0
102
RTVSPost2010PropOp36
 70
     1
102
RTVSPost2010Prop37
 90
       50
102
RTVSPost2010PropOp37
 70
     1
102
RTVSPost2010Prop38
140
0.0
102
RTVSPost2010PropOp38
 70
     1
102
RTVSPost2010Prop39
140
1.0
102
RTVSPost2010PropOp39
 70
     1
102
RTVSPost2010Prop40
 90
        0
102
RTVSPost2010PropOp40
 70
     1
102
RTVSPost2010Prop41ColorIndex
 90
       18
102
RTVSPost2010Prop41ColorRGB
 90
        0
102
RTVSPost2010PropOp41
 70
     1
102
RTVSPost2010Prop42
 90
       50
102
RTVSPost2010PropOp42
 70
     1
102
RTVSPost2010Prop43
 90
        3
102
RTVSPost2010PropOp43
 70
     1
102
RTVSPost2010Prop44ColorIndex
 90
        5
102
RTVSPost2010Prop44ColorRGB
 90
      255
102
RTVSPost2010PropOp44
 70
     1
102
RTVSPost2010Prop45
280
     0
102
RTVSPost2010PropOp45
 70
     1
102
RTVSPost2010Prop46
 90
       50
102
RTVSPost2010PropOp46
 70
     1
102
RTVSPost2010Prop47
 90
       50
102
RTVSPost2010PropOp47
 70
     1
102
RTVSPost2010Prop48
 90
       50
102
RTVSPost2010PropOp48
 70
     1
102
RTVSPost2010Prop49
280
     0
102
RTVSPost2010PropOp49
 70
     1
102
RTVSPost2010Prop50
 90
       50
102
RTVSPost2010PropOp50
 70
     1
102
RTVSPost2010Prop51ColorIndex
 90
      256
102
RTVSPost2010Prop51ColorRGB
 90
-16777216
102
RTVSPost2010PropOp51
 70
     0
102
RTVSPost2010Prop52
140
1.0
102
RTVSPost2010PropOp52
 70
     0
102
RTVSPost2010Prop53
 90
        2
102
RTVSPost2010PropOp53
 70
     1
102
RTVSPost2010Prop54
  1
strokes_ogs.tif
102
RTVSPost2010PropOp54
 70
     1
102
RTVSPost2010Prop55
280
     0
102
RTVSPost2010PropOp55
 70
     1
102
RTVSPost2010Prop56
140
1.0
102
RTVSPost2010PropOp56
 70
     1
102
RTVSPost2010Prop57
140
1.0
102
RTVSPost2010PropOp57
 70
     1
102
RTVSPropertyOp0
 70
     1
102
RTVSPropertyOp1
 70
     1
102
RTVSPropertyOp2
 70
     1
102
RTVSPropertyOp3
 70
     1
102
RTVSPropertyOp4
 70
     1
102
RTVSPropertyOp5
 70
     1
102
RTVSPropertyOp6
 70
     1
102
RTVSPropertyOp7
 70
     1
102
RTVSPropertyOp8
 70
     1
102
RTVSPropertyOp9
 70
     1
102
RTVSPropertyOp10
 70
     1
102
RTVSPropertyOp11
 70
     1
102
RTVSPropertyOp12
 70
     1
102
RTVSPropertyOp13
 70
     1
102
RTVSPropertyOp14
 70
     1
102
RTVSPropertyOp15
 70
     1
102
RTVSPropertyOp16
 70
     1
102
RTVSPropertyOp17
 70
     1
102
RTVSPropertyOp18
 70
     1
102
RTVSPropertyOp19
 70
     1
102
RTVSPropertyOp20
 70
     1
102
RTVSPropertyOp21
 70
     1
102
RTVSPropertyOp22
 70
     1
102
RTVSPropertyOp23
 70
     1
102
RTVSPropertyOp24
 70
     1
102
RTVSPropertyOp25
 70
     1
102
RTVSPropertyOp26
 70
     1
102
RTVSPropertyOp27
 70
     1
102
RTVSPropertyOp28
 70
     1
102
RTVSPropertyOp29
 70
     1
102
RTVSPropertyOp30
 70
     1
102
RTVSPropertyOp31
 70
     1
102
RTVSPropertyOp32
 70
     1
102
RTVSPropertyOp33
 70
     1
102
RTVSPropertyOp34
 70
     1
102
RTVSPropertyOp35
 70
     1
102
RTVSPropertyOp36
 70
     1
102
RTVSPropertyOp37
 70
     1
102
RTVSPropertyOp38
 70
     1
102
RTVSPropertyOp39
 70
     1
102
RTVSPropertyOp40
 70
     1
102
RTVSPropertyOp41
 70
     1
102
RTVSPropertyOp42
 70
     1
102
RTVSPropertyOp43
 70
     1
102
RTVSPropertyOp44
 70
     1
102
RTVSPropertyOp45
 70
     1
102
RTVSPropertyOp46
 70
     1
102
RTVSPropertyOp47
 70
     1
102
RTVSPropertyOp48
 70
     1
102
RTVSPropertyOp49
 70
     1
102
RTVSPropertyOp50
 70
     1
102
RTVSPropertyOp51
 70
     0
102
RTVSPropertyOp52
 70
     0
102
RTVSPropertyOp53
 70
     1
102
RTVSPropertyOp54
 70
     1
102
RTVSPropertyOp55
 70
     1
102
RTVSPropertyOp56
 70
     1
102
RTVSPropertyOp57
 70
     1
102
RTVSPropertyOp58
 70
     1
102
RTVSPropertyOp59
 70
     1
102
RTVSPropertyOp60
 70
     1
102
RTVSPropertyOp61
 70
     1
102
RTVSPropertyOp62
 70
     1
  0
XRECORD
  5
9FE
102
{ACAD_REACTORS
330
9FD
102
}
330
9FD
100
AcDbXrecord
280
     1
102
RTVSPost2010Prop28
280
     0
102
RTVSPost2010PropOp28
 70
     1
102
RTVSPost2010Prop29
280
     1
102
RTVSPost2010PropOp29
 70
     1
102
RTVSPost2010Prop30
280
     1
102
RTVSPost2010PropOp30
 70
     1
102
RTVSPost2010Prop31
280
     0
102
RTVSPost2010PropOp31
 70
     1
102
RTVSPost2010Prop32
280
     0
102
RTVSPost2010PropOp32
 70
     1
102
RTVSPost2010Prop33
280
     0
102
RTVSPost2010PropOp33
 70
     1
102
RTVSPost2010Prop34
280
     0
102
RTVSPost2010PropOp34
 70
     1
102
RTVSPost2010Prop35
280
     0
102
RTVSPost2010PropOp35
 70
     1
102
RTVSPost2010Prop36
280
     0
102
RTVSPost2010PropOp36
 70
     1
102
RTVSPost2010Prop37
 90
       50
102
RTVSPost2010PropOp37
 70
     1
102
RTVSPost2010Prop38
140
0.0
102
RTVSPost2010PropOp38
 70
     1
102
RTVSPost2010Prop39
140
1.0
102
RTVSPost2010PropOp39
 70
     1
102
RTVSPost2010Prop40
 90
        0
102
RTVSPost2010PropOp40
 70
     1
102
RTVSPost2010Prop41ColorIndex
 90
       18
102
RTVSPost2010Prop41ColorRGB
 90
        0
102
RTVSPost2010PropOp41
 70
     1
102
RTVSPost2010Prop42
 90
       50
102
RTVSPost2010PropOp42
 70
     1
102
RTVSPost2010Prop43
 90
        3
102
RTVSPost2010PropOp43
 70
     1
102
RTVSPost2010Prop44ColorIndex
 90
        5
102
RTVSPost2010Prop44ColorRGB
 90
      255
102
RTVSPost2010PropOp44
 70
     1
102
RTVSPost2010Prop45
280
     0
102
RTVSPost2010PropOp45
 70
     1
102
RTVSPost2010Prop46
 90
       50
102
RTVSPost2010PropOp46
 70
     1
102
RTVSPost2010Prop47
 90
       50
102
RTVSPost2010PropOp47
 70
     1
102
RTVSPost2010Prop48
 90
       50
102
RTVSPost2010PropOp48
 70
     1
102
RTVSPost2010Prop49
280
     0
102
RTVSPost2010PropOp49
 70
     1
102
RTVSPost2010Prop50
 90
       50
102
RTVSPost2010PropOp50
 70
     1
102
RTVSPost2010Prop51ColorIndex
 90
      256
102
RTVSPost2010Prop51ColorRGB
 90
-16777216
102
RTVSPost2010PropOp51
 70
     0
102
RTVSPost2010Prop52
140
1.0
102
RTVSPost2010PropOp52
 70
     0
102
RTVSPost2010Prop53
 90
        2
102
RTVSPost2010PropOp53
 70
     1
102
RTVSPost2010Prop54
  1
strokes_ogs.tif
102
RTVSPost2010PropOp54
 70
     1
102
RTVSPost2010Prop55
280
     0
102
RTVSPost2010PropOp55
 70
     1
102
RTVSPost2010Prop56
140
1.0
102
RTVSPost2010PropOp56
 70
     1
102
RTVSPost2010Prop57
140
1.0
102
RTVSPost2010PropOp57
 70
     1
102
RTVSPropertyOp0
 70
     1
102
RTVSPropertyOp1
 70
     1
102
RTVSPropertyOp2
 70
     1
102
RTVSPropertyOp3
 70
     1
102
RTVSPropertyOp4
 70
     1
102
RTVSPropertyOp5
 70
     1
102
RTVSPropertyOp6
 70
     1
102
RTVSPropertyOp7
 70
     1
102
RTVSPropertyOp8
 70
     1
102
RTVSPropertyOp9
 70
     1
102
RTVSPropertyOp10
 70
     1
102
RTVSPropertyOp11
 70
     1
102
RTVSPropertyOp12
 70
     1
102
RTVSPropertyOp13
 70
     1
102
RTVSPropertyOp14
 70
     1
102
RTVSPropertyOp15
 70
     1
102
RTVSPropertyOp16
 70
     1
102
RTVSPropertyOp17
 70
     1
102
RTVSPropertyOp18
 70
     1
102
RTVSPropertyOp19
 70
     1
102
RTVSPropertyOp20
 70
     1
102
RTVSPropertyOp21
 70
     1
102
RTVSPropertyOp22
 70
     1
102
RTVSPropertyOp23
 70
     1
102
RTVSPropertyOp24
 70
     1
102
RTVSPropertyOp25
 70
     1
102
RTVSPropertyOp26
 70
     1
102
RTVSPropertyOp27
 70
     1
102
RTVSPropertyOp28
 70
     1
102
RTVSPropertyOp29
 70
     1
102
RTVSPropertyOp30
 70
     1
102
RTVSPropertyOp31
 70
     1
102
RTVSPropertyOp32
 70
     1
102
RTVSPropertyOp33
 70
     1
102
RTVSPropertyOp34
 70
     1
102
RTVSPropertyOp35
 70
     1
102
RTVSPropertyOp36
 70
     1
102
RTVSPropertyOp37
 70
     1
102
RTVSPropertyOp38
 70
     1
102
RTVSPropertyOp39
 70
     1
102
RTVSPropertyOp40
 70
     1
102
RTVSPropertyOp41
 70
     1
102
RTVSPropertyOp42
 70
     1
102
RTVSPropertyOp43
 70
     1
102
RTVSPropertyOp44
 70
     1
102
RTVSPropertyOp45
 70
     1
102
RTVSPropertyOp46
 70
     1
102
RTVSPropertyOp47
 70
     1
102
RTVSPropertyOp48
 70
     1
102
RTVSPropertyOp49
 70
     1
102
RTVSPropertyOp50
 70
     1
102
RTVSPropertyOp51
 70
     0
102
RTVSPropertyOp52
 70
     0
102
RTVSPropertyOp53
 70
     1
102
RTVSPropertyOp54
 70
     1
102
RTVSPropertyOp55
 70
     1
102
RTVSPropertyOp56
 70
     1
102
RTVSPropertyOp57
 70
     1
102
RTVSPropertyOp58
 70
     1
102
RTVSPropertyOp59
 70
     1
102
RTVSPropertyOp60
 70
     1
102
RTVSPropertyOp61
 70
     1
102
RTVSPropertyOp62
 70
     1
  0
XRECORD
  5
A0E
102
{ACAD_REACTORS
330
A0D
102
}
330
A0D
100
AcDbXrecord
280
     1
102
RTVSPost2010Prop28
280
     0
102
RTVSPost2010PropOp28
 70
     1
102
RTVSPost2010Prop29
280
     1
102
RTVSPost2010PropOp29
 70
     1
102
RTVSPost2010Prop30
280
     1
102
RTVSPost2010PropOp30
 70
     1
102
RTVSPost2010Prop31
280
     0
102
RTVSPost2010PropOp31
 70
     1
102
RTVSPost2010Prop32
280
     0
102
RTVSPost2010PropOp32
 70
     1
102
RTVSPost2010Prop33
280
     0
102
RTVSPost2010PropOp33
 70
     1
102
RTVSPost2010Prop34
280
     0
102
RTVSPost2010PropOp34
 70
     1
102
RTVSPost2010Prop35
280
     0
102
RTVSPost2010PropOp35
 70
     1
102
RTVSPost2010Prop36
280
     0
102
RTVSPost2010PropOp36
 70
     1
102
RTVSPost2010Prop37
 90
       50
102
RTVSPost2010PropOp37
 70
     1
102
RTVSPost2010Prop38
140
0.0
102
RTVSPost2010PropOp38
 70
     1
102
RTVSPost2010Prop39
140
1.0
102
RTVSPost2010PropOp39
 70
     1
102
RTVSPost2010Prop40
 90
        0
102
RTVSPost2010PropOp40
 70
     1
102
RTVSPost2010Prop41ColorIndex
 90
       18
102
RTVSPost2010Prop41ColorRGB
 90
        0
102
RTVSPost2010PropOp41
 70
     1
102
RTVSPost2010Prop42
 90
       50
102
RTVSPost2010PropOp42
 70
     1
102
RTVSPost2010Prop43
 90
        3
102
RTVSPost2010PropOp43
 70
     1
102
RTVSPost2010Prop44ColorIndex
 90
        5
102
RTVSPost2010Prop44ColorRGB
 90
      255
102
RTVSPost2010PropOp44
 70
     1
102
RTVSPost2010Prop45
280
     0
102
RTVSPost2010PropOp45
 70
     1
102
RTVSPost2010Prop46
 90
       50
102
RTVSPost2010PropOp46
 70
     1
102
RTVSPost2010Prop47
 90
       50
102
RTVSPost2010PropOp47
 70
     1
102
RTVSPost2010Prop48
 90
       50
102
RTVSPost2010PropOp48
 70
     1
102
RTVSPost2010Prop49
280
     0
102
RTVSPost2010PropOp49
 70
     1
102
RTVSPost2010Prop50
 90
       50
102
RTVSPost2010PropOp50
 70
     1
102
RTVSPost2010Prop51ColorIndex
 90
      256
102
RTVSPost2010Prop51ColorRGB
 90
-16777216
102
RTVSPost2010PropOp51
 70
     0
102
RTVSPost2010Prop52
140
1.0
102
RTVSPost2010PropOp52
 70
     0
102
RTVSPost2010Prop53
 90
        2
102
RTVSPost2010PropOp53
 70
     1
102
RTVSPost2010Prop54
  1
strokes_ogs.tif
102
RTVSPost2010PropOp54
 70
     1
102
RTVSPost2010Prop55
280
     0
102
RTVSPost2010PropOp55
 70
     1
102
RTVSPost2010Prop56
140
1.0
102
RTVSPost2010PropOp56
 70
     1
102
RTVSPost2010Prop57
140
1.0
102
RTVSPost2010PropOp57
 70
     1
102
RTVSPropertyOp0
 70
     1
102
RTVSPropertyOp1
 70
     1
102
RTVSPropertyOp2
 70
     1
102
RTVSPropertyOp3
 70
     1
102
RTVSPropertyOp4
 70
     1
102
RTVSPropertyOp5
 70
     1
102
RTVSPropertyOp6
 70
     1
102
RTVSPropertyOp7
 70
     1
102
RTVSPropertyOp8
 70
     1
102
RTVSPropertyOp9
 70
     1
102
RTVSPropertyOp10
 70
     1
102
RTVSPropertyOp11
 70
     1
102
RTVSPropertyOp12
 70
     1
102
RTVSPropertyOp13
 70
     1
102
RTVSPropertyOp14
 70
     1
102
RTVSPropertyOp15
 70
     1
102
RTVSPropertyOp16
 70
     1
102
RTVSPropertyOp17
 70
     1
102
RTVSPropertyOp18
 70
     1
102
RTVSPropertyOp19
 70
     1
102
RTVSPropertyOp20
 70
     1
102
RTVSPropertyOp21
 70
     1
102
RTVSPropertyOp22
 70
     1
102
RTVSPropertyOp23
 70
     1
102
RTVSPropertyOp24
 70
     1
102
RTVSPropertyOp25
 70
     1
102
RTVSPropertyOp26
 70
     1
102
RTVSPropertyOp27
 70
     1
102
RTVSPropertyOp28
 70
     1
102
RTVSPropertyOp29
 70
     1
102
RTVSPropertyOp30
 70
     1
102
RTVSPropertyOp31
 70
     1
102
RTVSPropertyOp32
 70
     1
102
RTVSPropertyOp33
 70
     1
102
RTVSPropertyOp34
 70
     1
102
RTVSPropertyOp35
 70
     1
102
RTVSPropertyOp36
 70
     1
102
RTVSPropertyOp37
 70
     1
102
RTVSPropertyOp38
 70
     1
102
RTVSPropertyOp39
 70
     1
102
RTVSPropertyOp40
 70
     1
102
RTVSPropertyOp41
 70
     1
102
RTVSPropertyOp42
 70
     1
102
RTVSPropertyOp43
 70
     1
102
RTVSPropertyOp44
 70
     1
102
RTVSPropertyOp45
 70
     1
102
RTVSPropertyOp46
 70
     1
102
RTVSPropertyOp47
 70
     1
102
RTVSPropertyOp48
 70
     1
102
RTVSPropertyOp49
 70
     1
102
RTVSPropertyOp50
 70
     1
102
RTVSPropertyOp51
 70
     0
102
RTVSPropertyOp52
 70
     0
102
RTVSPropertyOp53
 70
     1
102
RTVSPropertyOp54
 70
     1
102
RTVSPropertyOp55
 70
     1
102
RTVSPropertyOp56
 70
     1
102
RTVSPropertyOp57
 70
     1
102
RTVSPropertyOp58
 70
     1
102
RTVSPropertyOp59
 70
     1
102
RTVSPropertyOp60
 70
     1
102
RTVSPropertyOp61
 70
     1
102
RTVSPropertyOp62
 70
     1
  0
XRECORD
  5
A16
102
{ACAD_REACTORS
330
A15
102
}
330
A15
100
AcDbXrecord
280
     1
102
RTVSPost2010Prop28
280
     0
102
RTVSPost2010PropOp28
 70
     1
102
RTVSPost2010Prop29
280
     1
102
RTVSPost2010PropOp29
 70
     1
102
RTVSPost2010Prop30
280
     1
102
RTVSPost2010PropOp30
 70
     1
102
RTVSPost2010Prop31
280
     0
102
RTVSPost2010PropOp31
 70
     1
102
RTVSPost2010Prop32
280
     0
102
RTVSPost2010PropOp32
 70
     1
102
RTVSPost2010Prop33
280
     0
102
RTVSPost2010PropOp33
 70
     1
102
RTVSPost2010Prop34
280
     0
102
RTVSPost2010PropOp34
 70
     1
102
RTVSPost2010Prop35
280
     0
102
RTVSPost2010PropOp35
 70
     1
102
RTVSPost2010Prop36
280
     0
102
RTVSPost2010PropOp36
 70
     1
102
RTVSPost2010Prop37
 90
       50
102
RTVSPost2010PropOp37
 70
     1
102
RTVSPost2010Prop38
140
0.0
102
RTVSPost2010PropOp38
 70
     1
102
RTVSPost2010Prop39
140
1.0
102
RTVSPost2010PropOp39
 70
     1
102
RTVSPost2010Prop40
 90
        0
102
RTVSPost2010PropOp40
 70
     1
102
RTVSPost2010Prop41ColorIndex
 90
       18
102
RTVSPost2010Prop41ColorRGB
 90
        0
102
RTVSPost2010PropOp41
 70
     1
102
RTVSPost2010Prop42
 90
       50
102
RTVSPost2010PropOp42
 70
     1
102
RTVSPost2010Prop43
 90
        3
102
RTVSPost2010PropOp43
 70
     1
102
RTVSPost2010Prop44ColorIndex
 90
        5
102
RTVSPost2010Prop44ColorRGB
 90
      255
102
RTVSPost2010PropOp44
 70
     1
102
RTVSPost2010Prop45
280
     0
102
RTVSPost2010PropOp45
 70
     1
102
RTVSPost2010Prop46
 90
       50
102
RTVSPost2010PropOp46
 70
     1
102
RTVSPost2010Prop47
 90
       50
102
RTVSPost2010PropOp47
 70
     1
102
RTVSPost2010Prop48
 90
       50
102
RTVSPost2010PropOp48
 70
     1
102
RTVSPost2010Prop49
280
     0
102
RTVSPost2010PropOp49
 70
     1
102
RTVSPost2010Prop50
 90
       50
102
RTVSPost2010PropOp50
 70
     1
102
RTVSPost2010Prop51ColorIndex
 90
      256
102
RTVSPost2010Prop51ColorRGB
 90
-16777216
102
RTVSPost2010PropOp51
 70
     0
102
RTVSPost2010Prop52
140
1.0
102
RTVSPost2010PropOp52
 70
     0
102
RTVSPost2010Prop53
 90
        2
102
RTVSPost2010PropOp53
 70
     1
102
RTVSPost2010Prop54
  1
strokes_ogs.tif
102
RTVSPost2010PropOp54
 70
     1
102
RTVSPost2010Prop55
280
     0
102
RTVSPost2010PropOp55
 70
     1
102
RTVSPost2010Prop56
140
1.0
102
RTVSPost2010PropOp56
 70
     1
102
RTVSPost2010Prop57
140
1.0
102
RTVSPost2010PropOp57
 70
     1
102
RTVSPropertyOp0
 70
     1
102
RTVSPropertyOp1
 70
     1
102
RTVSPropertyOp2
 70
     1
102
RTVSPropertyOp3
 70
     1
102
RTVSPropertyOp4
 70
     1
102
RTVSPropertyOp5
 70
     1
102
RTVSPropertyOp6
 70
     1
102
RTVSPropertyOp7
 70
     1
102
RTVSPropertyOp8
 70
     1
102
RTVSPropertyOp9
 70
     1
102
RTVSPropertyOp10
 70
     1
102
RTVSPropertyOp11
 70
     1
102
RTVSPropertyOp12
 70
     1
102
RTVSPropertyOp13
 70
     1
102
RTVSPropertyOp14
 70
     1
102
RTVSPropertyOp15
 70
     1
102
RTVSPropertyOp16
 70
     1
102
RTVSPropertyOp17
 70
     1
102
RTVSPropertyOp18
 70
     1
102
RTVSPropertyOp19
 70
     1
102
RTVSPropertyOp20
 70
     1
102
RTVSPropertyOp21
 70
     1
102
RTVSPropertyOp22
 70
     1
102
RTVSPropertyOp23
 70
     1
102
RTVSPropertyOp24
 70
     1
102
RTVSPropertyOp25
 70
     1
102
RTVSPropertyOp26
 70
     1
102
RTVSPropertyOp27
 70
     1
102
RTVSPropertyOp28
 70
     1
102
RTVSPropertyOp29
 70
     1
102
RTVSPropertyOp30
 70
     1
102
RTVSPropertyOp31
 70
     1
102
RTVSPropertyOp32
 70
     1
102
RTVSPropertyOp33
 70
     1
102
RTVSPropertyOp34
 70
     1
102
RTVSPropertyOp35
 70
     1
102
RTVSPropertyOp36
 70
     1
102
RTVSPropertyOp37
 70
     1
102
RTVSPropertyOp38
 70
     1
102
RTVSPropertyOp39
 70
     1
102
RTVSPropertyOp40
 70
     1
102
RTVSPropertyOp41
 70
     1
102
RTVSPropertyOp42
 70
     1
102
RTVSPropertyOp43
 70
     1
102
RTVSPropertyOp44
 70
     1
102
RTVSPropertyOp45
 70
     1
102
RTVSPropertyOp46
 70
     1
102
RTVSPropertyOp47
 70
     1
102
RTVSPropertyOp48
 70
     1
102
RTVSPropertyOp49
 70
     1
102
RTVSPropertyOp50
 70
     1
102
RTVSPropertyOp51
 70
     0
102
RTVSPropertyOp52
 70
     0
102
RTVSPropertyOp53
 70
     1
102
RTVSPropertyOp54
 70
     1
102
RTVSPropertyOp55
 70
     1
102
RTVSPropertyOp56
 70
     1
102
RTVSPropertyOp57
 70
     1
102
RTVSPropertyOp58
 70
     1
102
RTVSPropertyOp59
 70
     1
102
RTVSPropertyOp60
 70
     1
102
RTVSPropertyOp61
 70
     1
102
RTVSPropertyOp62
 70
     1
  0
ENDSEC
  0
EOF
