  0
SECTION
  2
HEADER
  9
$ACADVER
  1
AC1015
  9
$ACADMAINTVER
 70
    20
  9
$DWGCODEPAGE
  3
ANSI_1252
  9
$INSBASE
 10
0.0
 20
0.0
 30
0.0
  9
$EXTMIN
 10
-31.92881536726974
 20
-47.64958020023125
 30
0.0
  9
$EXTMAX
 10
34.92363142194738
 20
22.85917302610807
 30
0.0
  9
$LIMMIN
 10
-170.0
 20
-170.0
  9
$LIMMAX
 10
519.0
 20
260.0
  9
$ORTHOMODE
 70
     0
  9
$REGENMODE
 70
     1
  9
$FILLMODE
 70
     1
  9
$QTEXTMODE
 70
     0
  9
$MIRRTEXT
 70
     0
  9
$LTSCALE
 40
1.0
  9
$ATTMODE
 70
     1
  9
$TEXTSIZE
 40
5.0
  9
$TRACEWID
 40
1.0
  9
$TEXTSTYLE
  7
STANDARD
  9
$CLAYER
  8
0
  9
$CELTYPE
  6
BYLAYER
  9
$CECOLOR
 62
   256
  9
$CELTSCALE
 40
1.0
  9
$DISPSILH
 70
     0
  9
$DIMSCALE
 40
1.0
  9
$DIMASZ
 40
2.5
  9
$DIMEXO
 40
0.0
  9
$DIMDLI
 40
3.75
  9
$DIMRND
 40
0.0
  9
$DIMDLE
 40
0.0
  9
$DIMEXE
 40
1.25
  9
$DIMTP
 40
0.0
  9
$DIMTM
 40
0.0
  9
$DIMTXT
 40
3.5
  9
$DIMCEN
 40
0.0
  9
$DIMTSZ
 40
0.0
  9
$DIMTOL
 70
     0
  9
$DIMLIM
 70
     0
  9
$DIMTIH
 70
     0
  9
$DIMTOH
 70
     0
  9
$DIMSE1
 70
     0
  9
$DIMSE2
 70
     0
  9
$DIMTAD
 70
     1
  9
$DIMZIN
 70
     1
  9
$DIMBLK
  1

  9
$DIMASO
 70
     1
  9
$DIMSHO
 70
     1
  9
$DIMPOST
  1

  9
$DIMAPOST
  1

  9
$DIMALT
 70
     0
  9
$DIMALTD
 70
     3
  9
$DIMALTF
 40
0.039370078
  9
$DIMLFAC
 40
1.0
  9
$DIMTOFL
 70
     0
  9
$DIMTVP
 40
0.0
  9
$DIMTIX
 70
     0
  9
$DIMSOXD
 70
     0
  9
$DIMSAH
 70
     0
  9
$DIMBLK1
  1

  9
$DIMBLK2
  1

  9
$DIMSTYLE
  2
STANDARD
  9
$DIMCLRD
 70
     0
  9
$DIMCLRE
 70
     0
  9
$DIMCLRT
 70
     0
  9
$DIMTFAC
 40
1.0
  9
$DIMGAP
 40
0.625
  9
$DIMJUST
 70
     0
  9
$DIMSD1
 70
     0
  9
$DIMSD2
 70
     0
  9
$DIMTOLJ
 70
     0
  9
$DIMTZIN
 70
     8
  9
$DIMALTZ
 70
     0
  9
$DIMALTTZ
 70
     0
  9
$DIMUPT
 70
     0
  9
$DIMDEC
 70
     2
  9
$DIMTDEC
 70
     2
  9
$DIMALTU
 70
     2
  9
$DIMALTTD
 70
     3
  9
$DIMTXSTY
  7
STANDARD
  9
$DIMAUNIT
 70
     0
  9
$DIMADEC
 70
     2
  9
$DIMALTRND
 40
0.0
  9
$DIMAZIN
 70
     0
  9
$DIMDSEP
 70
    46
  9
$DIMATFIT
 70
     3
  9
$DIMFRAC
 70
     0
  9
$DIMLDRBLK
  1

  9
$DIMLUNIT
 70
     2
  9
$DIMLWD
 70
    -2
  9
$DIMLWE
 70
    -2
  9
$DIMTMOVE
 70
     0
  9
$LUNITS
 70
     2
  9
$LUPREC
 70
     4
  9
$SKETCHINC
 40
1.0
  9
$FILLETRAD
 40
0.0
  9
$AUNITS
 70
     0
  9
$AUPREC
 70
     0
  9
$MENU
  1
c:\tdm21\cad\caduti13\tdm13
  9
$ELEVATION
 40
0.0
  9
$PELEVATION
 40
0.0
  9
$THICKNESS
 40
0.0
  9
$LIMCHECK
 70
     0
  9
$CHAMFERA
 40
0.0
  9
$CHAMFERB
 40
0.0
  9
$CHAMFERC
 40
0.0
  9
$CHAMFERD
 40
0.0
  9
$SKPOLY
 70
     0
  9
$TDCREATE
 40
2456169.414618114
  9
$TDUCREATE
 40
2456169.372951447
  9
$TDUPDATE
 40
2457338.536705671
  9
$TDUUPDATE
 40
2457338.495039005
  9
$TDINDWG
 40
0.0343098611
  9
$TDUSRTIMER
 40
0.0343096759
  9
$USRTIMER
 70
     1
  9
$ANGBASE
 50
0.0
  9
$ANGDIR
 70
     0
  9
$PDMODE
 70
     1
  9
$PDSIZE
 40
0.0
  9
$PLINEWID
 40
0.0
  9
$SPLFRAME
 70
     0
  9
$SPLINETYPE
 70
     6
  9
$SPLINESEGS
 70
     8
  9
$HANDSEED
  5
F92
  9
$SURFTAB1
 70
     6
  9
$SURFTAB2
 70
     6
  9
$SURFTYPE
 70
     6
  9
$SURFU
 70
     6
  9
$SURFV
 70
     6
  9
$UCSBASE
  2

  9
$UCSNAME
  2

  9
$UCSORG
 10
0.0
 20
0.0
 30
0.0
  9
$UCSXDIR
 10
1.0
 20
0.0
 30
0.0
  9
$UCSYDIR
 10
0.0
 20
1.0
 30
0.0
  9
$UCSORTHOREF
  2

  9
$UCSORTHOVIEW
 70
     0
  9
$UCSORGTOP
 10
0.0
 20
0.0
 30
0.0
  9
$UCSORGBOTTOM
 10
0.0
 20
0.0
 30
0.0
  9
$UCSORGLEFT
 10
0.0
 20
0.0
 30
0.0
  9
$UCSORGRIGHT
 10
0.0
 20
0.0
 30
0.0
  9
$UCSORGFRONT
 10
0.0
 20
0.0
 30
0.0
  9
$UCSORGBACK
 10
0.0
 20
0.0
 30
0.0
  9
$PUCSBASE
  2

  9
$PUCSNAME
  2

  9
$PUCSORG
 10
0.0
 20
0.0
 30
0.0
  9
$PUCSXDIR
 10
1.0
 20
0.0
 30
0.0
  9
$PUCSYDIR
 10
0.0
 20
1.0
 30
0.0
  9
$PUCSORTHOREF
  2

  9
$PUCSORTHOVIEW
 70
     0
  9
$PUCSORGTOP
 10
0.0
 20
0.0
 30
0.0
  9
$PUCSORGBOTTOM
 10
0.0
 20
0.0
 30
0.0
  9
$PUCSORGLEFT
 10
0.0
 20
0.0
 30
0.0
  9
$PUCSORGRIGHT
 10
0.0
 20
0.0
 30
0.0
  9
$PUCSORGFRONT
 10
0.0
 20
0.0
 30
0.0
  9
$PUCSORGBACK
 10
0.0
 20
0.0
 30
0.0
  9
$USERI1
 70
     0
  9
$USERI2
 70
     0
  9
$USERI3
 70
     0
  9
$USERI4
 70
     0
  9
$USERI5
 70
     0
  9
$USERR1
 40
0.0
  9
$USERR2
 40
0.0
  9
$USERR3
 40
0.0
  9
$USERR4
 40
0.0
  9
$USERR5
 40
0.0
  9
$WORLDVIEW
 70
     1
  9
$SHADEDGE
 70
     3
  9
$SHADEDIF
 70
    70
  9
$TILEMODE
 70
     1
  9
$MAXACTVP
 70
    64
  9
$PINSBASE
 10
0.0
 20
0.0
 30
0.0
  9
$PLIMCHECK
 70
     0
  9
$PEXTMIN
 10
0.0
 20
0.0
 30
0.0
  9
$PEXTMAX
 10
0.0
 20
0.0
 30
0.0
  9
$PLIMMIN
 10
0.0
 20
0.0
  9
$PLIMMAX
 10
12.0
 20
9.0
  9
$UNITMODE
 70
     0
  9
$VISRETAIN
 70
     0
  9
$PLINEGEN
 70
     0
  9
$PSLTSCALE
 70
     1
  9
$TREEDEPTH
 70
  3020
  9
$CMLSTYLE
  2
STANDARD
  9
$CMLJUST
 70
     0
  9
$CMLSCALE
 40
20.0
  9
$PROXYGRAPHICS
 70
     1
  9
$MEASUREMENT
 70
     1
  9
$CELWEIGHT
370
    -1
  9
$ENDCAPS
280
     0
  9
$JOINSTYLE
280
     0
  9
$LWDISPLAY
290
     0
  9
$INSUNITS
 70
     4
  9
$HYPERLINKBASE
  1

  9
$STYLESHEET
  1
MONOCHROME.CTB
  9
$XEDIT
290
     1
  9
$CEPSNTYPE
380
     0
  9
$PSTYLEMODE
290
     1
  9
$FINGERPRINTGUID
  2
{EB2F50E7-8447-403F-907E-469364BCD9F2}
  9
$VERSIONGUID
  2
{D6F51A4B-0089-4646-AA31-E6682D30FD07}
  9
$EXTNAMES
290
     1
  9
$PSVPSCALE
 40
0.0
  9
$OLESTARTUP
290
     0
  0
ENDSEC
  0
SECTION
  2
CLASSES
  0
CLASS
  1
ACDBDICTIONARYWDFLT
  2
AcDbDictionaryWithDefault
  3
ObjectDBX Classes
 90
        0
280
     0
281
     0
  0
CLASS
  1
DICTIONARYVAR
  2
AcDbDictionaryVar
  3
ObjectDBX Classes
 90
        0
280
     0
281
     0
  0
CLASS
  1
TABLESTYLE
  2
AcDbTableStyle
  3
ObjectDBX Classes
 90
     4095
280
     0
281
     0
  0
CLASS
  1
MATERIAL
  2
AcDbMaterial
  3
ObjectDBX Classes
 90
     1153
280
     0
281
     0
  0
CLASS
  1
VISUALSTYLE
  2
AcDbVisualStyle
  3
ObjectDBX Classes
 90
     4095
280
     0
281
     0
  0
CLASS
  1
SCALE
  2
AcDbScale
  3
ObjectDBX Classes
 90
     1153
280
     0
281
     0
  0
CLASS
  1
MLEADERSTYLE
  2
AcDbMLeaderStyle
  3
ACDB_MLEADERSTYLE_CLASS
 90
     4095
280
     0
281
     0
  0
CLASS
  1
CELLSTYLEMAP
  2
AcDbCellStyleMap
  3
ObjectDBX Classes
 90
     1152
280
     0
281
     0
  0
CLASS
  1
DIMASSOC
  2
AcDbDimAssoc
  3
"AcDbDimAssoc|Product Desc:     AcDim ARX App For Dimension|Company:          Autodesk, Inc.|WEB Address:      www.autodesk.com"
 90
        0
280
     0
281
     0
  0
CLASS
  1
SORTENTSTABLE
  2
AcDbSortentsTable
  3
ObjectDBX Classes
 90
        0
280
     0
281
     0
  0
CLASS
  1
ACME_DOCUMENT
  2
AcMeDbDoc
  3
AcMeServices
 90
    33792
280
     0
281
     0
  0
CLASS
  1
AMGSETTINGSOBJ
  2
AmgSettingsObj
  3
"AcadM|Product Description: AutoCAD Mechanical|Company: Autodesk, Inc."
 90
    33792
280
     0
281
     0
  0
CLASS
  1
ACMESCOPE
  2
AcMeScope
  3
AcMeServices
 90
    33792
280
     0
281
     0
  0
CLASS
  1
ACMECOMMANDHISTORY
  2
AcMeCommandHistory
  3
AcMeServices
 90
    33792
280
     0
281
     0
  0
CLASS
  1
ACIMSYSVARMAN
  2
AcImSysVarManager
  3
AcMeServices
 90
    33792
280
     0
281
     0
  0
CLASS
  1
ACIMINTSYSVAR
  2
AcImIntSysVar
  3
AcMeServices
 90
    33792
280
     0
281
     0
  0
CLASS
  1
ACMESTATEMGR
  2
AcMeStateMgr
  3
AcMeServices
 90
    33792
280
     0
281
     0
  0
CLASS
  1
ACDBENTITYCACHE
  2
AcMeEntityCache
  3
AcMeServices
 90
    33792
280
     0
281
     0
  0
CLASS
  1
ACGREFMASTER
  2
AcGrefMaster
  3
AcAttribServices
 90
    33792
280
     0
281
     0
  0
CLASS
  1
ACME_DATABASE
  2
AcMeDbDatabase
  3
AcMeServices
 90
    33792
280
     0
281
     0
  0
CLASS
  1
ACRFINSADJUSTERMGR
  2
AcRfInsAdjusterMgr
  3
AcMeServices
 90
    33792
280
     0
281
     0
  0
CLASS
  1
ACGREFACADMASTER
  2
AcGrefacadMaster
  3
AcGrefServices
 90
    33792
280
     0
281
     0
  0
CLASS
  1
AMDTMENUSTATEMGR
  2
AmdtMenuStateMgr
  3
McadcomServices
 90
    33792
280
     0
281
     0
  0
CLASS
  1
AMDTMCOMMENUSTATE
  2
AmdtMcomMenuState
  3
McadcomServices
 90
    33792
280
     0
281
     0
  0
CLASS
  1
AMIMASTER
  2
AmiMaster
  3
AmiServices
 90
    33792
280
     0
281
     0
  0
CLASS
  1
MAPIAMMOUDLE
  2
MApiAmModule
  3
MApiAmServices
 90
    33792
280
     0
281
     0
  0
CLASS
  1
ACIMSTRSYSVAR
  2
AcImStrSysVar
  3
AcMeServices
 90
    33792
280
     0
281
     0
  0
CLASS
  1
AMDTAMMENUSTATE
  2
AmdtAmMenuState
  3
DesignerAssemblies
 90
    33792
280
     0
281
     0
  0
CLASS
  1
ACAMPROJECT
  2
AcAmProject
  3
DesignerAssemblies
 90
    33792
280
     0
281
     0
  0
CLASS
  1
ACAMGRCOMPDEF
  2
AcAmGrCompDef
  3
DesignerAssemblies
 90
    33792
280
     0
281
     0
  0
CLASS
  1
ACAMCOMPDEF
  2
AcAmCompDef
  3
DesignerAssemblies
 90
    33792
280
     0
281
     0
  0
CLASS
  1
ACAMCOMPDEFMGR
  2
AcAmCompDefMgr
  3
DesignerAssemblies
 90
    33792
280
     0
281
     0
  0
CLASS
  1
AMCONTEXTMGR
  2
AcAmContextMgr
  3
DesignerAssemblies
 90
    33792
280
     0
281
     0
  0
CLASS
  1
ACAMCONTEXTMODELER
  2
AcAmContextModeler
  3
DesignerAssemblies
 90
    33792
280
     0
281
     0
  0
CLASS
  1
ACMDATADICTIONARY
  2
AcmDataDictionary
  3
"AcmSymBB|Product Description: AutoCAD Mechanical|Company: Autodesk, Inc."
 90
    33792
280
     0
281
     0
  0
CLASS
  1
ACMSTANDARDISO
  2
AcmStandardISO
  3
"Amdt_StdImp|Product Description: AutoCAD Mechanical|Company: Autodesk, Inc."
 90
    33792
280
     0
281
     0
  0
CLASS
  1
AMDTEDGESTANDARDISO13715
  2
AmdtEdgeStdISO13715
  3
"Amdt_StdImp|Product Description: AutoCAD Mechanical|Company: Autodesk, Inc."
 90
    33792
280
     0
281
     0
  0
CLASS
  1
ACMSURFSTANDARDISO2002
  2
AcmSurfTextStdISO2002
  3
"Amdt_StdImp|Product Description: AutoCAD Mechanical|Company: Autodesk, Inc."
 90
    33792
280
     0
281
     0
  0
CLASS
  1
ACMFCFSTANDARDISO2004
  2
AcmFCFStdISO2004
  3
"Amdt_StdImp|Product Description: AutoCAD Mechanical|Company: Autodesk, Inc."
 90
    33792
280
     0
281
     0
  0
CLASS
  1
ACMWELDSTANDARDISO
  2
AcmWeldingStdISO
  3
"Amdt_StdImp|Product Description: AutoCAD Mechanical|Company: Autodesk, Inc."
 90
    33792
280
     0
281
     0
  0
CLASS
  1
ACMIDSTANDARDISO2004
  2
AcmIdStdISO2004
  3
"Amdt_StdImp|Product Description: AutoCAD Mechanical|Company: Autodesk, Inc."
 90
    33792
280
     0
281
     0
  0
CLASS
  1
ACMDATUMSTANDARDISO
  2
AcmDatumStdISO
  3
"Amdt_StdImp|Product Description: AutoCAD Mechanical|Company: Autodesk, Inc."
 90
    33792
280
     0
281
     0
  0
CLASS
  1
ACMBOMSTANDARDISO
  2
AcmBOMStdISO
  3
"Amdt_StdImp|Product Description: AutoCAD Mechanical|Company: Autodesk, Inc."
 90
    33792
280
     0
281
     0
  0
CLASS
  1
ACMDETAILSTANDARDISO
  2
AmdtDetailSymStdISO
  3
"Amdt_StdImp|Product Description: AutoCAD Mechanical|Company: Autodesk, Inc."
 90
    33792
280
     0
281
     0
  0
CLASS
  1
ACMSECTIONSTANDARDISO2001
  2
AmdtSectionSymStdISO2001
  3
"Amdt_StdImp|Product Description: AutoCAD Mechanical|Company: Autodesk, Inc."
 90
    33792
280
     0
281
     0
  0
CLASS
  1
ACMCENTERLINESTANDARDISO
  2
AmdtCenterLineStdISO
  3
"Amdt_StdImp|Product Description: AutoCAD Mechanical|Company: Autodesk, Inc."
 90
    33792
280
     0
281
     0
  0
CLASS
  1
ACMTHREADLINESTANDARDISO
  2
AmdtThreadLineStdISO
  3
"Amdt_StdImp|Product Description: AutoCAD Mechanical|Company: Autodesk, Inc."
 90
    33792
280
     0
281
     0
  0
CLASS
  1
ACMNOTESTANDARDISO
  2
AmdtNoteStdISO
  3
"Amdt_StdImp|Product Description: AutoCAD Mechanical|Company: Autodesk, Inc."
 90
    33792
280
     0
281
     0
  0
CLASS
  1
ACMTAPERSTANDARDISO
  2
AcmTaperStdISO
  3
"Amdt_StdImp|Product Description: AutoCAD Mechanical|Company: Autodesk, Inc."
 90
    33792
280
     0
281
     0
  0
CLASS
  1
ACMANOOTATIONVIEWSTANDARDISO
  2
AmdtAnViewStdISO
  3
"Amdt_StdImp|Product Description: AutoCAD Mechanical|Company: Autodesk, Inc."
 90
    33792
280
     0
281
     0
  0
CLASS
  1
ACAMGLAYSTD
  2
AcAmgLayStd
  3
"AmgLay|Product Description: AutoCAD Mechanical|Company: Autodesk, Inc."
 90
    33792
280
     0
281
     0
  0
CLASS
  1
ACAMGDIMSTD
  2
AcAmgDimStd
  3
"AmgDim|Product Description: AutoCAD Mechanical|Company: Autodesk, Inc."
 90
    33792
280
     0
281
     0
  0
CLASS
  1
AMGOBJPROPCFG
  2
AmgObjPropCfg
  3
"AmgLay|Product Description: AutoCAD Mechanical|Company: Autodesk, Inc."
 90
    33793
280
     0
281
     0
  0
CLASS
  1
ACAMGHOLECHARTSTDISO
  2
AcAmgHoleChartStdISO
  3
AmgDim|Product Description: AutoCAD Mechanical|Company: Autodesk, Inc.
 90
    33792
280
     0
281
     0
  0
CLASS
  1
ACAMGTITLESTD
  2
AcAmgTitleStd
  3
"AmgTitle|Product Description: AutoCAD Mechanical|Company: Autodesk, Inc."
 90
    36863
280
     0
281
     0
  0
CLASS
  1
AMDTNOTETEMPLATEDB
  2
AmdtNoteTemplateDB
  3
AcmSymBB|Product Description: AutoCAD Mechanical|Company: Autodesk, Inc.
 90
    33792
280
     0
281
     0
  0
CLASS
  1
ACAMGRCOMPDEFSET
  2
AcAmGrCompDefSet
  3
DesignerAssemblies
 90
    33792
280
     0
281
     0
  0
CLASS
  1
AMDTBROWSERDBTAB
  2
AmdtBrowserDbTab
  3
McadcomServices
 90
    33792
280
     0
281
     0
  0
CLASS
  1
CBROWSERAPPOBJECT
  2
CBrowserAppObject
  3
McadcomServices
 90
    33792
280
     0
281
     0
  0
CLASS
  1
DM_PLACEHOLDER
  2
AcDmSelsetPlaceholder
  3
McadcomServices
 90
    33792
280
     0
281
     0
  0
CLASS
  1
CAMSSTRUCTBTNSTATE
  2
StructBtnState
  3
DesignerAssemblies
 90
    33792
280
     0
281
     0
  0
CLASS
  1
ACAMGFILTERDAT
  2
AcAmgFilterDat
  3
"AcadM|Product Description: AutoCAD Mechanical|Company: Autodesk, Inc."
 90
    33792
280
     0
281
     0
  0
CLASS
  1
MULTILEADER
  2
AcDbMLeader
  3
ACDB_MLEADER_CLASS
 90
     1025
280
     0
281
     1
  0
CLASS
  1
ACDBASSOC2DCONSTRAINTGROUP
  2
AcDbAssoc2dConstraintGroup
  3
ObjectDBX Classes
 90
     1025
280
     0
281
     0
  0
CLASS
  1
ACDBASSOCGEOMDEPENDENCY
  2
AcDbAssocGeomDependency
  3
ObjectDBX Classes
 90
     1025
280
     0
281
     0
  0
CLASS
  1
ACDBASSOCNETWORK
  2
AcDbAssocNetwork
  3
ObjectDBX Classes
 90
     1025
280
     0
281
     0
  0
CLASS
  1
AEC_REFEDIT_STATUS_TRACKER
  2
AecDbRefEditStatusTracker
  3
AecArchBase70|Product Desc: Autodesk Architectural Desktop 2007 |Company: Autodesk,Inc. |WEB Address: www.autodesk.com
 90
    32897
280
     0
281
     0
  0
CLASS
  1
NPOCOLLECTION
  2
AcDbImpNonPersistentObjectsCollection
  3
ObjectDBX Classes
 90
    33921
280
     0
281
     0
  0
CLASS
  1
ACDBSECTIONVIEWSTYLE
  2
AcDbSectionViewStyle
  3
ObjectDBX Classes
 90
     1025
280
     0
281
     0
  0
CLASS
  1
ACDBDETAILVIEWSTYLE
  2
AcDbDetailViewStyle
  3
ObjectDBX Classes
 90
     1025
280
     0
281
     0
  0
CLASS
  1
ACDBPLACEHOLDER
  2
AcDbPlaceHolder
  3
ObjectDBX Classes
 90
        0
280
     0
281
     0
  0
CLASS
  1
LAYOUT
  2
AcDbLayout
  3
ObjectDBX Classes
 90
        0
280
     0
281
     0
  0
ENDSEC
  0
SECTION
  2
TABLES
  0
TABLE
  2
VPORT
  5
8
330
0
100
AcDbSymbolTable
 70
     1
  0
VPORT
  5
3ED
330
8
100
AcDbSymbolTableRecord
100
AcDbViewportTableRecord
  2
*Active
 70
     0
 10
0.0
 20
0.0
 11
1.0
 21
1.0
 12
1.477273436469687
 22
-12.3947897150586
 13
0.0
 23
0.0
 14
5.0
 24
5.0
 15
5.0
 25
5.0
 16
0.0
 26
0.0
 36
1.0
 17
0.0
 27
0.0
 37
0.0
 40
71.17141463447885
 41
2.336194563662374
 42
50.0
 43
0.0
 44
0.0
 50
0.0
 51
0.0
 71
     0
 72
  2000
 73
     1
 74
     3
 75
     0
 76
     0
 77
     0
 78
     0
281
     0
 65
     1
110
0.0
120
0.0
130
0.0
111
1.0
121
0.0
131
0.0
112
0.0
122
1.0
132
0.0
 79
     0
146
0.0
1001
ACAD_NAV_VCDISPLAY
1070
     3
  0
ENDTAB
  0
TABLE
  2
LTYPE
  5
5
330
0
100
AcDbSymbolTable
 70
    12
  0
LTYPE
  5
12
330
5
100
AcDbSymbolTableRecord
100
AcDbLinetypeTableRecord
  2
BYBLOCK
 70
     0
  3

 72
    65
 73
     0
 40
0.0
  0
LTYPE
  5
13
330
5
100
AcDbSymbolTableRecord
100
AcDbLinetypeTableRecord
  2
BYLAYER
 70
     0
  3

 72
    65
 73
     0
 40
0.0
  0
LTYPE
  5
14
330
5
100
AcDbSymbolTableRecord
100
AcDbLinetypeTableRecord
  2
CONTINUOUS
 70
     0
  3
Solid line
 72
    65
 73
     0
 40
0.0
  0
LTYPE
  5
6A7
330
5
100
AcDbSymbolTableRecord
100
AcDbLinetypeTableRecord
  2
CENTER2
 70
     0
  3
Center (.5x) ___ _ ___ _ ___ _ ___ _ ___ _ ___
 72
    65
 73
     4
 40
28.575
 49
19.05
 74
     0
 49
-3.174999999999998
 74
     0
 49
3.174999999999998
 74
     0
 49
-3.174999999999998
 74
     0
  0
LTYPE
  5
783
330
5
100
AcDbSymbolTableRecord
100
AcDbLinetypeTableRecord
  2
AM_ISO02W050
 70
     0
  3
__ __ __ __ __ __ __ __ __ __ __ __ __ __ __
 72
    65
 73
     2
 40
7.5
 49
6.0
 74
     0
 49
-1.5
 74
     0
  0
LTYPE
  5
784
330
5
100
AcDbSymbolTableRecord
100
AcDbLinetypeTableRecord
  2
AM_ISO08W050
 70
     0
  3
____ . ____ . ____ . ____ . ____ . ____ . ____
 72
    65
 73
     4
 40
18.0
 49
12.0
 74
     0
 49
-1.5
 74
     0
 49
3.0
 74
     0
 49
-1.5
 74
     0
  0
LTYPE
  5
785
330
5
100
AcDbSymbolTableRecord
100
AcDbLinetypeTableRecord
  2
AM_ISO09W050
 70
     0
  3
_____ . . _____ . . _____ . . ____ .. ____
 72
    65
 73
     6
 40
22.5
 49
12.0
 74
     0
 49
-1.5
 74
     0
 49
3.0
 74
     0
 49
-1.5
 74
     0
 49
3.0
 74
     0
 49
-1.5
 74
     0
  0
LTYPE
  5
786
330
5
100
AcDbSymbolTableRecord
100
AcDbLinetypeTableRecord
  2
Amconstr
 70
     0
  3
_______________________
 72
    65
 73
     2
 40
9999.0
 49
9999.0
 74
     0
 49
0.0
 74
     0
  0
LTYPE
  5
787
330
5
100
AcDbSymbolTableRecord
100
AcDbLinetypeTableRecord
  2
AM_ISO08W050x2
 70
     0
  3
__ . __ . __ . __ . __ . __
 72
    65
 73
     4
 40
9.0
 49
6.0
 74
     0
 49
-0.75
 74
     0
 49
1.5
 74
     0
 49
-0.75
 74
     0
  0
LTYPE
  5
788
330
5
100
AcDbSymbolTableRecord
100
AcDbLinetypeTableRecord
  2
AM_ISO02W050x2
 70
     0
  3
 _ _ _ _ _ _ _ _ _ _ _ _
 72
    65
 73
     2
 40
3.75
 49
3.0
 74
     0
 49
-0.75
 74
     0
  0
LTYPE
  5
78B
330
5
100
AcDbSymbolTableRecord
100
AcDbLinetypeTableRecord
  2
Amzigzag
 70
     0
  3
/\/-/\/-/\/-/\/-/\/-/\/
 72
    65
 73
     2
 40
11.0001
 49
0.0001
 74
     4
 75
   136
340
78A
 46
0.04
 50
0.0
 44
0.0
 45
0.0
 49
-11.0
 74
     0
  0
LTYPE
  5
79A
330
5
100
AcDbSymbolTableRecord
100
AcDbLinetypeTableRecord
  2
ACISOWELD
 70
     0
  3
_ _ _ _ _
 72
    65
 73
     2
 40
2.0
 49
2.0
 74
     0
 49
-1.0
 74
     0
  0
LTYPE
  5
79B
330
5
100
AcDbSymbolTableRecord
100
AcDbLinetypeTableRecord
  2
ACISOTGL
 70
     0
  3
_ _ _ _ _
 72
    65
 73
     2
 40
3.0
 49
2.0
 74
     0
 49
-1.0
 74
     0
  0
LTYPE
  5
79C
330
5
100
AcDbSymbolTableRecord
100
AcDbLinetypeTableRecord
  2
ACISOTGB
 70
     0
  3
__ . . __ . .
 72
    65
 73
     6
 40
9.0
 49
4.0
 74
     0
 49
-1.0
 74
     0
 49
1.0
 74
     0
 49
-1.0
 74
     0
 49
1.0
 74
     0
 49
-1.0
 74
     0
  0
ENDTAB
  0
TABLE
  2
LAYER
  5
2
102
{ACAD_XDICTIONARY
360
451
102
}
330
0
100
AcDbSymbolTable
 70
    12
  0
LAYER
  5
F
102
{ACAD_XDICTIONARY
360
E39
102
}
330
2
100
AcDbSymbolTableRecord
100
AcDbLayerTableRecord
  2
0
 70
     0
 62
     7
  6
CONTINUOUS
370
    -3
390
300
  0
LAYER
  5
23
102
{ACAD_XDICTIONARY
360
E3B
102
}
330
2
100
AcDbSymbolTableRecord
100
AcDbLayerTableRecord
  2
1
 70
     0
 62
     4
  6
CONTINUOUS
370
    50
390
300
  0
LAYER
  5
24
102
{ACAD_XDICTIONARY
360
E3D
102
}
330
2
100
AcDbSymbolTableRecord
100
AcDbLayerTableRecord
  2
SK1
 70
     0
 62
     4
  6
CONTINUOUS
370
    50
390
300
  0
LAYER
  5
25
102
{ACAD_XDICTIONARY
360
E3F
102
}
330
2
100
AcDbSymbolTableRecord
100
AcDbLayerTableRecord
  2
2
 70
     0
 62
     7
  6
CONTINUOUS
370
    25
390
300
  0
LAYER
  5
27
102
{ACAD_XDICTIONARY
360
E41
102
}
330
2
100
AcDbSymbolTableRecord
100
AcDbLayerTableRecord
  2
SK2
 70
     0
 62
     7
  6
CONTINUOUS
370
    25
390
300
  0
LAYER
  5
2A
102
{ACAD_XDICTIONARY
360
E43
102
}
330
2
100
AcDbSymbolTableRecord
100
AcDbLayerTableRecord
  2
4
 70
     0
 62
     2
  6
CENTER2
370
    25
390
300
  0
LAYER
  5
2B
102
{ACAD_XDICTIONARY
360
E45
102
}
330
2
100
AcDbSymbolTableRecord
100
AcDbLayerTableRecord
  2
SK4
 70
     0
 62
     2
  6
CENTER2
370
    25
390
300
  0
LAYER
  5
2E
102
{ACAD_XDICTIONARY
360
E47
102
}
330
2
100
AcDbSymbolTableRecord
100
AcDbLayerTableRecord
  2
SK6
 70
     0
 62
     5
  6
CONTINUOUS
370
    -3
390
300
  0
LAYER
  5
2F
330
2
100
AcDbSymbolTableRecord
100
AcDbLayerTableRecord
  2
DEFPOINTS
 70
     0
 62
     7
  6
CONTINUOUS
290
     0
370
    25
390
300
  0
LAYER
  5
375
102
{ACAD_XDICTIONARY
360
E49
102
}
330
2
100
AcDbSymbolTableRecord
100
AcDbLayerTableRecord
  2
CUT
 70
     0
 62
     1
  6
CONTINUOUS
370
    25
390
300
  0
LAYER
  5
376
102
{ACAD_XDICTIONARY
360
E4B
102
}
330
2
100
AcDbSymbolTableRecord
100
AcDbLayerTableRecord
  2
NOCUT
 70
     0
 62
     7
  6
CONTINUOUS
370
    -3
390
300
  0
LAYER
  5
49B
102
{ACAD_XDICTIONARY
360
E4D
102
}
330
2
100
AcDbSymbolTableRecord
100
AcDbLayerTableRecord
  2
INFTOTAL
 70
     0
 62
     9
  6
CONTINUOUS
370
    18
390
300
1001
AcAecLayerStandard
1000

1000

  0
ENDTAB
  0
TABLE
  2
STYLE
  5
3
330
0
100
AcDbSymbolTable
 70
     3
  0
STYLE
  5
10
330
3
100
AcDbSymbolTableRecord
100
AcDbTextStyleTableRecord
  2
STANDARD
 70
     0
 40
0.0
 41
1.0
 50
0.0
 71
     0
 42
5.0
  3
monos.ttf
  4

1001
ACAD
1000
Monospac821 BT
1071
       49
  0
STYLE
  5
78A
330
3
100
AcDbSymbolTableRecord
100
AcDbTextStyleTableRecord
  2

 70
     1
 40
0.0
 41
1.0
 50
0.0
 71
     0
 42
3.5
  3
genltshp.shx
  4

  0
STYLE
  5
799
330
3
100
AcDbSymbolTableRecord
100
AcDbTextStyleTableRecord
  2
ACISOGDT
 70
     0
 40
0.0
 41
1.0
 50
0.0
 71
     0
 42
3.5
  3
amgdt.shx
  4

  0
ENDTAB
  0
TABLE
  2
VIEW
  5
6
330
0
100
AcDbSymbolTable
 70
     0
  0
ENDTAB
  0
TABLE
  2
UCS
  5
7
330
0
100
AcDbSymbolTable
 70
     0
  0
ENDTAB
  0
TABLE
  2
APPID
  5
9
330
0
100
AcDbSymbolTable
 70
    26
  0
APPID
  5
11
330
9
100
AcDbSymbolTableRecord
100
AcDbRegAppTableRecord
  2
ACAD
 70
     0
  0
APPID
  5
3A6
330
9
100
AcDbSymbolTableRecord
100
AcDbRegAppTableRecord
  2
ACAD_PSEXT
 70
     0
  0
APPID
  5
3A8
330
9
100
AcDbSymbolTableRecord
100
AcDbRegAppTableRecord
  2
ACAD_EXEMPT_FROM_CAD_STANDARDS
 70
     0
  0
APPID
  5
43E
330
9
100
AcDbSymbolTableRecord
100
AcDbRegAppTableRecord
  2
ACAD_MLEADERVER
 70
     0
  0
APPID
  5
460
330
9
100
AcDbSymbolTableRecord
100
AcDbRegAppTableRecord
  2
ACAD_DSTYLE_DIMJAG
 70
     0
  0
APPID
  5
461
330
9
100
AcDbSymbolTableRecord
100
AcDbRegAppTableRecord
  2
ACAD_DSTYLE_DIMBREAK
 70
     0
  0
APPID
  5
462
330
9
100
AcDbSymbolTableRecord
100
AcDbRegAppTableRecord
  2
ACAD_DSTYLE_DIMTALN
 70
     0
  0
APPID
  5
47A
330
9
100
AcDbSymbolTableRecord
100
AcDbRegAppTableRecord
  2
AcAecLayerStandard
 70
     0
  0
APPID
  5
4AB
330
9
100
AcDbSymbolTableRecord
100
AcDbRegAppTableRecord
  2
DCO15
 70
     0
  0
APPID
  5
4B9
330
9
100
AcDbSymbolTableRecord
100
AcDbRegAppTableRecord
  2
AcadAnnoPO
 70
     0
  0
APPID
  5
55F
330
9
100
AcDbSymbolTableRecord
100
AcDbRegAppTableRecord
  2
ACAD_DSTYLE_DIMRADIAL_EXTENSION
 70
     0
  0
APPID
  5
701
330
9
100
AcDbSymbolTableRecord
100
AcDbRegAppTableRecord
  2
AcadAnnotative
 70
     0
  0
APPID
  5
702
330
9
100
AcDbSymbolTableRecord
100
AcDbRegAppTableRecord
  2
AcDbDynamicBlockGUID
 70
     0
  0
APPID
  5
703
330
9
100
AcDbSymbolTableRecord
100
AcDbRegAppTableRecord
  2
AcDbBlockRepETag
 70
     0
  0
APPID
  5
748
330
9
100
AcDbSymbolTableRecord
100
AcDbRegAppTableRecord
  2
MCAD_NO_VIS
 70
     0
  0
APPID
  5
749
330
9
100
AcDbSymbolTableRecord
100
AcDbRegAppTableRecord
  2
ACAD_TEMP_GRAPHIC
 70
     0
  0
APPID
  5
754
330
9
100
AcDbSymbolTableRecord
100
AcDbRegAppTableRecord
  2
ACATTRIBSERVICES
 70
     0
  0
APPID
  5
76C
330
9
100
AcDbSymbolTableRecord
100
AcDbRegAppTableRecord
  2
DESIGNERASSEMBLIES
 70
     0
  0
APPID
  5
7A8
330
9
100
AcDbSymbolTableRecord
100
AcDbRegAppTableRecord
  2
ACAD_NAV_VCDISPLAY
 70
     0
  0
APPID
  5
87D
330
9
100
AcDbSymbolTableRecord
100
AcDbRegAppTableRecord
  2
ACAD_DSTYLE_DIMINSPECT
 70
     0
  0
APPID
  5
C4C
330
9
100
AcDbSymbolTableRecord
100
AcDbRegAppTableRecord
  2
GENIUS_GENDTOL_13
 70
     0
  0
APPID
  5
E99
330
9
100
AcDbSymbolTableRecord
100
AcDbRegAppTableRecord
  2
ACAD_DSTYLE_DIMARC_LENGTH_SYMBOL
 70
     0
  0
APPID
  5
E9A
330
9
100
AcDbSymbolTableRecord
100
AcDbRegAppTableRecord
  2
ACAD_DSTYLE_DIM_LINETYPE
 70
     0
  0
APPID
  5
E9B
330
9
100
AcDbSymbolTableRecord
100
AcDbRegAppTableRecord
  2
ACAD_DSTYLE_DIM_EXT1_LINETYPE
 70
     0
  0
APPID
  5
E9C
330
9
100
AcDbSymbolTableRecord
100
AcDbRegAppTableRecord
  2
ACAD_DSTYLE_DIM_EXT2_LINETYPE
 70
     0
  0
APPID
  5
EB4
330
9
100
AcDbSymbolTableRecord
100
AcDbRegAppTableRecord
  2
ACAD_DSTYLE_DIMJOGGED_JOGANGLE_SYMBOL
 70
     0
  0
ENDTAB
  0
TABLE
  2
DIMSTYLE
  5
A
330
0
100
AcDbSymbolTable
 70
     3
100
AcDbDimStyleTable
 71
     3
340
3F
340
781
340
467
  0
DIMSTYLE
105
3F
102
{ACAD_REACTORS
330
AB5
330
ABC
330
ABF
330
C12
102
}
330
A
100
AcDbSymbolTableRecord
100
AcDbDimStyleTableRecord
  2
STANDARD
 70
     0
 41
2.5
 42
0.0
 43
3.75
 44
1.25
 73
     0
 74
     0
 77
     1
 78
     1
140
3.5
141
0.0
143
0.039370078
147
0.625
171
     3
179
     2
271
     2
272
     2
274
     3
283
     0
284
     8
340
10
1001
ACAD_DSTYLE_DIMJAG
1070
   388
1040
1.5
1001
ACAD_DSTYLE_DIMTALN
1070
   392
1070
     0
  0
DIMSTYLE
105
467
102
{ACAD_REACTORS
330
AB8
102
}
330
A
100
AcDbSymbolTableRecord
100
AcDbDimStyleTableRecord
  2
DIAMETER
 70
     0
 41
2.5
 42
0.0
 43
3.75
 44
1.25
 73
     0
 74
     0
 76
     1
 77
     1
 78
     1
140
3.5
141
0.0
143
0.039370078
147
0.625
171
     3
173
     1
179
     2
271
     2
272
     2
274
     3
283
     0
284
     8
340
10
344
464
1001
ACAD_DSTYLE_DIMBREAK
1070
   391
1040
3.75
1001
ACAD_DSTYLE_DIMJAG
1070
   388
1040
1.5
1001
ACAD_DSTYLE_DIMTALN
1070
   392
1070
     0
  0
DIMSTYLE
105
781
330
A
100
AcDbSymbolTableRecord
100
AcDbDimStyleTableRecord
  2
AM_ISO
 70
     0
  4
"
 41
3.5
 42
1.0
 43
10.0
 44
1.0
 47
0.1
 48
0.1
 73
     0
 74
     0
 77
     1
 78
     8
 79
     2
140
3.5
141
0.0
143
0.0393701
146
0.71
147
1.5
172
     1
176
   256
177
   256
178
     2
271
     2
272
     3
274
     4
283
     0
284
     8
340
10
371
    -1
372
    -1
1001
ACAD_DSTYLE_DIMJAG
1070
   388
1040
1.5
1001
ACAD_DSTYLE_DIMBREAK
1070
   391
1040
3.75
1001
ACAD_DSTYLE_DIMARC_LENGTH_SYMBOL
1070
   379
1070
     1
1001
ACAD_DSTYLE_DIM_LINETYPE
1070
   380
1005
12
1001
ACAD_DSTYLE_DIM_EXT1_LINETYPE
1070
   381
1005
12
1001
ACAD_DSTYLE_DIM_EXT2_LINETYPE
1070
   382
1005
12
  0
ENDTAB
  0
TABLE
  2
BLOCK_RECORD
  5
1
330
0
100
AcDbSymbolTable
 70
     8
  0
BLOCK_RECORD
  5
18
102
{ACAD_XDICTIONARY
360
AEC
102
}
330
1
100
AcDbSymbolTableRecord
100
AcDbBlockTableRecord
  2
*MODEL_SPACE
340
303
  0
BLOCK_RECORD
  5
338
330
1
100
AcDbSymbolTableRecord
100
AcDbBlockTableRecord
  2
*Paper_Space
340
33B
  0
BLOCK_RECORD
  5
464
330
1
100
AcDbSymbolTableRecord
100
AcDbBlockTableRecord
  2
_None
340
0
  0
BLOCK_RECORD
  5
51F
330
1
100
AcDbSymbolTableRecord
100
AcDbBlockTableRecord
  2
CERO_POINT
340
0
310
2800000020000000200000000100080000000000000400000000000000000000000000000000000000000000000080000080000000808000800000008000800080800000C0C0C000C0DCC000F0CAA6000020400000206000002080000020A0000020C0000020E00000400000004020000040400000406000004080000040A0
310
000040C0000040E00000600000006020000060400000606000006080000060A0000060C0000060E00000800000008020000080400000806000008080000080A0000080C0000080E00000A0000000A0200000A0400000A0600000A0800000A0A00000A0C00000A0E00000C0000000C0200000C0400000C0600000C0800000C0
310
A00000C0C00000C0E00000E0000000E0200000E0400000E0600000E0800000E0A00000E0C00000E0E00040000000400020004000400040006000400080004000A0004000C0004000E00040200000402020004020400040206000402080004020A0004020C0004020E000404000004040200040404000404060004040800040
310
40A0004040C0004040E00040600000406020004060400040606000406080004060A0004060C0004060E00040800000408020004080400040806000408080004080A0004080C0004080E00040A0000040A0200040A0400040A0600040A0800040A0A00040A0C00040A0E00040C0000040C0200040C0400040C0600040C08000
310
40C0A00040C0C00040C0E00040E0000040E0200040E0400040E0600040E0800040E0A00040E0C00040E0E00080000000800020008000400080006000800080008000A0008000C0008000E00080200000802020008020400080206000802080008020A0008020C0008020E00080400000804020008040400080406000804080
310
008040A0008040C0008040E00080600000806020008060400080606000806080008060A0008060C0008060E00080800000808020008080400080806000808080008080A0008080C0008080E00080A0000080A0200080A0400080A0600080A0800080A0A00080A0C00080A0E00080C0000080C0200080C0400080C0600080C0
310
800080C0A00080C0C00080C0E00080E0000080E0200080E0400080E0600080E0800080E0A00080E0C00080E0E000C0000000C0002000C0004000C0006000C0008000C000A000C000C000C000E000C0200000C0202000C0204000C0206000C0208000C020A000C020C000C020E000C0400000C0402000C0404000C0406000C0
310
408000C040A000C040C000C040E000C0600000C0602000C0604000C0606000C0608000C060A000C060C000C060E000C0800000C0802000C0804000C0806000C0808000C080A000C080C000C080E000C0A00000C0A02000C0A04000C0A06000C0A08000C0A0A000C0A0C000C0A0E000C0C00000C0C02000C0C04000C0C06000
310
C0C08000C0C0A000F0FBFF00A4A0A000808080000000FF0000FF000000FFFF00FF000000FF00FF00FFFF0000FFFFFF00000000000000000000000000000000000000000000000000000000000000000000000000000000000000000000000000FF0000000000000000000000000000000000000000000000000000000000FF
310
FFFFFFFF000000000000000000000000000000000000000000FFFFFFFFFFFF0000FF0000FFFF00FF00000000000000000000000000000000FF00000000000000FFFFFF0000FFFFFFFF000000000000000000000000000000FF0000000000000000FF00FF0000FF00FFFF00000000000000000000000000FF00000000000000
310
0000FFFF00FF0000FF0000FFFF00000000000000000000FF000000000000000000FFFF00FF00FF0000FF0000FF000000000000000000FF0000000000000000000000FF0000FF00FF0000FF0000FF0000000000000000FF00000000000000000000FFFFFF0000FFFFFF0000FF00FFFF000000000000FF000000000000000000
310
000000FF00FF000000FFFF0000FF00FF0000000000FF00000000000000000000000000FFFF00FFFF0000FFFF0000FFFF0000000000FF000000000000000000000000FFFF00FF0000FF0000FFFF0000FF0000000000FF00000000000000000000000000FF0000FF0000FF0000FFFF0000FF00000000FF000000000000000000
310
000000FFFFFF0000FF0000FF0000FFFF00FF00000000FF00FF00000000FF0000FF00FF00FFFFFF0000FF0000FF0000FFFF00FF0000FFFFFFFFFFFFFFFFFFFFFFFFFFFFFFFFFFFFFFFFFFFFFFFFFFFFFFFFFFFF000000FF00FF00FF00FF0000FF0000FFFFFF00000000000000000000000000FF000000FF0000FF00FF00FF00
310
00FF0000FFFF000000000000000000000000FF00000000FFFF0000FF00FF00FF00FF000000FF000000000000000000000000FF00000000FF00FF0000FF00FF00FF00FF0000FF0000000000000000000000FF000000000000FF00FF0000FFFF0000FF00FF00FF0000000000000000000000FF000000000000FFFF00FF00FF00
310
FF0000FF00FFFF00000000000000000000FF0000000000000000FF0000FF00FF00FF0000FF00FF00000000000000000000FF000000000000000000FF0000FF00FF00FF0000FFFF000000000000000000FF0000000000000000000000FF0000FF00FF00FF0000FF000000000000000000FF000000000000000000000000FF00
310
00FF00FF00FF00FF00000000000000FFFF00000000000000000000000000FFFF0000FF00FF00FFFF0000000000FFFF00000000000000000000000000000000FFFFFFFFFF00FF00FF000000FFFF0000000000000000000000000000000000000000000000FFFFFFFFFFFFFF0000000000000000000000000000000000000000
310
0000000000000000FF0000000000000000000000000000000000000000000000000000000000000000000000000000000000000000000000
102
{BLKREFS
331
AC4
102
}
1001
ACAD
1000
DesignCenter Data
1002
{
1070
     1
1070
     4
1002
}
  0
BLOCK_RECORD
  5
6D0
102
{ACAD_XDICTIONARY
360
6D1
102
}
330
1
100
AcDbSymbolTableRecord
100
AcDbBlockTableRecord
  2
ISCAR_LOGO
340
0
310
2800000020000000200000000100080000000000000400000000000000000000000000000000000000000000000080000080000000808000800000008000800080800000C0C0C000C0DCC000F0CAA6000020400000206000002080000020A0000020C0000020E00000400000004020000040400000406000004080000040A0
310
000040C0000040E00000600000006020000060400000606000006080000060A0000060C0000060E00000800000008020000080400000806000008080000080A0000080C0000080E00000A0000000A0200000A0400000A0600000A0800000A0A00000A0C00000A0E00000C0000000C0200000C0400000C0600000C0800000C0
310
A00000C0C00000C0E00000E0000000E0200000E0400000E0600000E0800000E0A00000E0C00000E0E00040000000400020004000400040006000400080004000A0004000C0004000E00040200000402020004020400040206000402080004020A0004020C0004020E000404000004040200040404000404060004040800040
310
40A0004040C0004040E00040600000406020004060400040606000406080004060A0004060C0004060E00040800000408020004080400040806000408080004080A0004080C0004080E00040A0000040A0200040A0400040A0600040A0800040A0A00040A0C00040A0E00040C0000040C0200040C0400040C0600040C08000
310
40C0A00040C0C00040C0E00040E0000040E0200040E0400040E0600040E0800040E0A00040E0C00040E0E00080000000800020008000400080006000800080008000A0008000C0008000E00080200000802020008020400080206000802080008020A0008020C0008020E00080400000804020008040400080406000804080
310
008040A0008040C0008040E00080600000806020008060400080606000806080008060A0008060C0008060E00080800000808020008080400080806000808080008080A0008080C0008080E00080A0000080A0200080A0400080A0600080A0800080A0A00080A0C00080A0E00080C0000080C0200080C0400080C0600080C0
310
800080C0A00080C0C00080C0E00080E0000080E0200080E0400080E0600080E0800080E0A00080E0C00080E0E000C0000000C0002000C0004000C0006000C0008000C000A000C000C000C000E000C0200000C0202000C0204000C0206000C0208000C020A000C020C000C020E000C0400000C0402000C0404000C0406000C0
310
408000C040A000C040C000C040E000C0600000C0602000C0604000C0606000C0608000C060A000C060C000C060E000C0800000C0802000C0804000C0806000C0808000C080A000C080C000C080E000C0A00000C0A02000C0A04000C0A06000C0A08000C0A0A000C0A0C000C0A0E000C0C00000C0C02000C0C04000C0C06000
310
C0C08000C0C0A000F0FBFF00A4A0A000808080000000FF0000FF000000FFFF00FF000000FF00FF00FFFF0000FFFFFF0000000000000000000000000000000000000000000000000000000000000000000000000000000000000000000000000000000000000000000000000000000000000000000000000000000000000000
310
0000000000000000000000000000000000000000000000000000000000FC0000FC00000000000000000000000000000000000000000000000000000000FC000000FC000000000000000000000000000000000000000000000000000000FCFC0000FC000000000000000000000000000000000000000000000000000000FC00
310
000000FC0000000000000000000000000000000000000000000000000000FCFCFCFCFCFC000000000000000000000000000000000000000000000000000000000000000000000000000000000000000000000000000000000000000000FCFC00FCFCFC00FC000000000000000000000000000000000000000000000000FCFC
310
FCFCFCFCFCFC000000000000000000000000000000000000000000000000FC00FCFCFC00FCFC000000000000000000000000000000000000000000000000FC0000FCFC0000FC000000000000000000000000000000000000000000000000000000000000000000000000000000000000000000000000000000000000000000
310
000000000000000000000000000000000000000000FCFCFCFCFCFCFCFC0000000000FCFCFCFCFCFCFCFCFCFCFCFCFC000000000000FC0000FCFC000000FC000000FC000000FC0000FCFC00FCFC00FC000000000000FC0000FCFC000000FC0000FC00000000FC0000FCFC00FCFC00FC000000000000FC0000FCFCFCFCFCFCFC
310
FCFCFCFCFCFCFC0000FCFC00FCFCFCFC000000000000FC0000FCFCFCFCFCFCFCFCFCFCFCFCFCFC0000FCFC00FCFCFCFCFCFCFCFC0000FC0000FC00FC000000FC00FCFC000000FCFCFCFCFCFC0000FC00000000FC0000FCFCFCFC0000FCFCFCFC000000FCFCFCFC0000FCFC00000000FCFCFCFCFC0000000000FC0000000000
310
000000000000000000000000000000000000000000000000FCFCFC00000000000000000000000000000000000000000000000000000000FC0000FC00000000000000000000000000000000000000000000000000000000FC0000FC00000000000000000000000000000000000000000000000000000000FC00FC0000000000
310
000000000000000000000000000000000000000000000000FCFC000000000000000000000000000000000000000000000000000000000000FC00000000000000000000000000000000000000000000000000000000000000000000000000000000000000000000000000000000000000000000000000000000000000000000
310
0000000000000000000000000000000000000000000000000000000000000000000000000000000000000000000000000000000000000000
1001
AcDbDynamicBlockGUID
1000
{7F157122-0310-41DF-BAC8-CAC40B0A72D2}
1001
AcDbBlockRepETag
1070
     1
1071
       42
  0
BLOCK_RECORD
  5
AD1
330
1
100
AcDbSymbolTableRecord
100
AcDbBlockTableRecord
  2
*D3
340
0
  0
BLOCK_RECORD
  5
ADE
330
1
100
AcDbSymbolTableRecord
100
AcDbBlockTableRecord
  2
*D4
340
0
  0
BLOCK_RECORD
  5
AFB
330
1
100
AcDbSymbolTableRecord
100
AcDbBlockTableRecord
  2
*D5
340
0
  0
BLOCK_RECORD
  5
B06
330
1
100
AcDbSymbolTableRecord
100
AcDbBlockTableRecord
  2
*D6
340
0
  0
BLOCK_RECORD
  5
C13
330
1
100
AcDbSymbolTableRecord
100
AcDbBlockTableRecord
  2
*D7
340
0
  0
ENDTAB
  0
ENDSEC
  0
SECTION
  2
BLOCKS
  0
BLOCK
  5
32
330
18
100
AcDbEntity
  8
0
100
AcDbBlockBegin
  2
*MODEL_SPACE
 70
     0
 10
0.0
 20
0.0
 30
0.0
  3
*MODEL_SPACE
  1

  0
ENDBLK
  5
33
330
18
100
AcDbEntity
  8
0
100
AcDbBlockEnd
  0
BLOCK
  5
339
330
338
100
AcDbEntity
 67
     1
  8
0
100
AcDbBlockBegin
  2
*Paper_Space
 70
     0
 10
0.0
 20
0.0
 30
0.0
  3
*Paper_Space
  1

  0
ENDBLK
  5
33A
330
338
100
AcDbEntity
 67
     1
  8
0
100
AcDbBlockEnd
  0
BLOCK
  5
465
330
464
100
AcDbEntity
  8
0
100
AcDbBlockBegin
  2
_None
 70
     0
 10
0.0
 20
0.0
 30
0.0
  3
_None
  1

  0
ENDBLK
  5
466
330
464
100
AcDbEntity
  8
0
100
AcDbBlockEnd
  0
BLOCK
  5
520
330
51F
100
AcDbEntity
  8
0
100
AcDbBlockBegin
  2
CERO_POINT
 70
     0
 10
0.0
 20
0.0
 30
0.0
  3
CERO_POINT
  1

  0
CIRCLE
  5
521
102
{ACAD_REACTORS
330
526
102
}
330
51F
100
AcDbEntity
  8
SK2
100
AcDbCircle
 10
0.0
 20
0.0
 30
0.0
 40
2.5
  0
LINE
  5
522
330
51F
100
AcDbEntity
  8
SK2
100
AcDbLine
 10
0.0900000000037835
 20
0.0
 30
0.0
 11
-0.0899999999965076
 21
0.0
 31
0.0
  0
LINE
  5
523
330
51F
100
AcDbEntity
  8
SK2
100
AcDbLine
 10
0.0
 20
0.0899999999999182
 30
0.0
 11
0.0
 21
-0.0899999999999182
 31
0.0
  0
LINE
  5
524
102
{ACAD_REACTORS
330
526
102
}
330
51F
100
AcDbEntity
  8
SK2
100
AcDbLine
 10
0.0
 20
-2.5
 30
0.0
 11
0.0
 21
2.5
 31
0.0
  0
LINE
  5
525
102
{ACAD_REACTORS
330
526
102
}
330
51F
100
AcDbEntity
  8
SK2
100
AcDbLine
 10
2.5
 20
0.0
 30
0.0
 11
-2.5
 21
0.0
 31
0.0
  0
HATCH
  5
526
330
51F
100
AcDbEntity
  8
SK2
100
AcDbHatch
 10
0.0
 20
0.0
 30
0.0
210
0.0
220
0.0
230
1.0
  2
ANSI31
 70
     0
 71
     1
 91
        2
 92
        7
 72
     1
 73
     1
 93
        3
 10
0.0
 20
-2.5
 42
0.4142135623730951
 10
2.5
 20
0.0
 42
0.0
 10
0.0
 20
0.0
 42
0.0
 97
        3
330
521
330
525
330
524
 92
        7
 72
     1
 73
     1
 93
        3
 10
0.0
 20
0.0
 42
0.0
 10
0.0
 20
2.5
 42
0.4142135623730951
 10
-2.5
 20
0.0
 42
0.0
 97
        3
330
525
330
524
330
521
 75
     0
 76
     1
 52
180.0
 41
0.1
 77
     0
 78
     1
 53
225.0
 43
5.170976743218488
 44
0.0
 45
0.2245064030267288
 46
-0.2245064030267289
 79
     0
 47
0.0243816376539857
 98
        2
 10
0.8789156907296272
 20
-1.044463114528752
 10
-0.8545028512526187
 20
0.7841600866017872
  0
ENDBLK
  5
527
330
51F
100
AcDbEntity
  8
0
100
AcDbBlockEnd
  0
BLOCK
  5
6D3
330
6D0
100
AcDbEntity
  8
0
100
AcDbBlockBegin
  2
ISCAR_LOGO
 70
     2
 10
0.0
 20
0.0
 30
0.0
  3
ISCAR_LOGO
  1

  0
LINE
  5
6D4
330
6D0
100
AcDbEntity
  8
SK6
100
AcDbLine
 10
0.0
 20
6.250000000000794
 30
0.0
 11
1.750000000007275
 21
4.499999999999204
 31
0.0
  0
LINE
  5
6D5
330
6D0
100
AcDbEntity
  8
SK6
100
AcDbLine
 10
1.750000000007275
 20
4.499999999999204
 30
0.0
 11
1.750000000007275
 21
6.750000000000341
 31
0.0
  0
LINE
  5
6D6
330
6D0
100
AcDbEntity
  8
SK6
100
AcDbLine
 10
4.000000000007275
 20
4.0
 30
0.0
 11
6.250000000007275
 21
4.0
 31
0.0
  0
LINE
  5
6D7
330
6D0
100
AcDbEntity
  8
SK6
100
AcDbLine
 10
8.500000000003637
 20
4.0
 30
0.0
 11
10.74999999999636
 21
4.0
 31
0.0
  0
LINE
  5
6D8
330
6D0
100
AcDbEntity
  8
SK6
100
AcDbLine
 10
17.49999999997453
 20
4.0
 30
0.0
 11
19.74999999996362
 21
4.0
 31
0.0
  0
LINE
  5
6D9
330
6D0
100
AcDbEntity
  8
SK6
100
AcDbLine
 10
0.0
 20
4.0
 30
0.0
 11
1.750000000007275
 21
4.0
 31
0.0
  0
LINE
  5
6DA
330
6D0
100
AcDbEntity
  8
SK6
100
AcDbLine
 10
15.75000000000727
 20
1.750000000000681
 30
0.0
 11
17.49999999997453
 21
1.750000000000681
 31
0.0
  0
LINE
  5
6DB
330
6D0
100
AcDbEntity
  8
SK6
100
AcDbLine
 10
15.75000000000727
 20
2.250000000000113
 30
0.0
 11
19.74999999996362
 21
2.250000000000113
 31
0.0
  0
LINE
  5
6DC
330
6D0
100
AcDbEntity
  8
SK6
100
AcDbLine
 10
15.75000000000727
 20
0.0
 30
0.0
 11
17.49999999997453
 21
0.0
 31
0.0
  0
LINE
  5
6DD
330
6D0
100
AcDbEntity
  8
SK6
100
AcDbLine
 10
15.24999999997453
 20
0.0
 30
0.0
 11
15.24999999997453
 21
2.250000000000113
 31
0.0
  0
LINE
  5
6DE
330
6D0
100
AcDbEntity
  8
SK6
100
AcDbLine
 10
11.25000000000727
 20
0.0
 30
0.0
 11
11.25000000000727
 21
2.250000000000113
 31
0.0
  0
LINE
  5
6DF
330
6D0
100
AcDbEntity
  8
SK6
100
AcDbLine
 10
2.249999999996358
 20
1.750000000000681
 30
0.0
 11
6.250000000007275
 21
1.750000000000681
 31
0.0
  0
ARC
  5
6E0
330
6D0
100
AcDbEntity
  8
SK6
100
AcDbCircle
 10
4.499999999974534
 20
1.750000000000681
 30
0.0
 40
1.749999999999998
100
AcDbArc
 50
270.0
 51
0.0
  0
LINE
  5
6E1
330
6D0
100
AcDbEntity
  8
SK6
100
AcDbLine
 10
2.249999999996358
 20
0.0
 30
0.0
 11
4.499999999974534
 21
0.0
 31
0.0
  0
LINE
  5
6E2
330
6D0
100
AcDbEntity
  8
SK6
100
AcDbLine
 10
2.249999999996358
 20
0.0
 30
0.0
 11
2.249999999996358
 21
1.750000000000681
 31
0.0
  0
LINE
  5
6E3
330
6D0
100
AcDbEntity
  8
SK6
100
AcDbLine
 10
8.500000000003637
 20
0.0
 30
0.0
 11
10.74999999999636
 21
0.0
 31
0.0
  0
LINE
  5
6E4
330
6D0
100
AcDbEntity
  8
SK6
100
AcDbLine
 10
6.750000000003637
 20
1.750000000000681
 30
0.0
 11
10.74999999999636
 21
1.750000000000681
 31
0.0
  0
ARC
  5
6E5
330
6D0
100
AcDbEntity
  8
SK6
100
AcDbCircle
 10
8.500000000003637
 20
1.750000000000681
 30
0.0
 40
1.749999999999998
100
AcDbArc
 50
180.0
 51
270.0
  0
LINE
  5
6E6
330
6D0
100
AcDbEntity
  8
SK6
100
AcDbLine
 10
10.74999999999636
 20
0.0
 30
0.0
 11
10.74999999999636
 21
1.750000000000681
 31
0.0
  0
LINE
  5
6E7
330
6D0
100
AcDbEntity
  8
SK6
100
AcDbLine
 10
15.75000000000727
 20
0.0
 30
0.0
 11
15.75000000000727
 21
1.750000000000681
 31
0.0
  0
LINE
  5
6E8
330
6D0
100
AcDbEntity
  8
SK6
100
AcDbLine
 10
11.25000000000727
 20
0.0
 30
0.0
 11
12.99999999999272
 21
0.0
 31
0.0
  0
LINE
  5
6E9
330
6D0
100
AcDbEntity
  8
SK6
100
AcDbLine
 10
13.4999999999527
 20
0.0
 30
0.0
 11
15.24999999997453
 21
0.0
 31
0.0
  0
LINE
  5
6EA
330
6D0
100
AcDbEntity
  8
SK6
100
AcDbLine
 10
2.249999999996358
 20
2.250000000000113
 30
0.0
 11
6.250000000007275
 21
2.250000000000113
 31
0.0
  0
LINE
  5
6EB
330
6D0
100
AcDbEntity
  8
SK6
100
AcDbLine
 10
6.750000000003637
 20
2.250000000000113
 30
0.0
 11
10.74999999999636
 21
2.250000000000113
 31
0.0
  0
LINE
  5
6EC
330
6D0
100
AcDbEntity
  8
SK6
100
AcDbLine
 10
17.49999999997453
 20
0.0
 30
0.0
 11
17.49999999997453
 21
1.750000000000681
 31
0.0
  0
LINE
  5
6ED
330
6D0
100
AcDbEntity
  8
SK6
100
AcDbLine
 10
0.0
 20
0.0
 30
0.0
 11
1.750000000007275
 21
0.0
 31
0.0
  0
ARC
  5
6EE
330
6D0
100
AcDbEntity
  8
SK6
100
AcDbCircle
 10
17.49999999997453
 20
2.250000000000113
 30
0.0
 40
1.749999999999998
100
AcDbArc
 50
90.0
 51
180.0
  0
LINE
  5
6EF
330
6D0
100
AcDbEntity
  8
SK6
100
AcDbLine
 10
0.0
 20
0.0
 30
0.0
 11
0.0
 21
4.0
 31
0.0
  0
LINE
  5
6F0
330
6D0
100
AcDbEntity
  8
SK6
100
AcDbLine
 10
1.750000000007275
 20
0.0
 30
0.0
 11
1.750000000007275
 21
4.0
 31
0.0
  0
LINE
  5
6F1
330
6D0
100
AcDbEntity
  8
SK6
100
AcDbLine
 10
12.99999999999272
 20
0.0
 30
0.0
 11
12.99999999999272
 21
4.0
 31
0.0
  0
LINE
  5
6F2
330
6D0
100
AcDbEntity
  8
SK6
100
AcDbLine
 10
13.4999999999527
 20
0.0
 30
0.0
 11
13.4999999999527
 21
4.0
 31
0.0
  0
ARC
  5
6F3
330
6D0
100
AcDbEntity
  8
SK6
100
AcDbCircle
 10
4.000000000007275
 20
2.250000000000113
 30
0.0
 40
1.749999999999998
100
AcDbArc
 50
90.0
 51
180.0
  0
ARC
  5
6F4
330
6D0
100
AcDbEntity
  8
SK6
100
AcDbCircle
 10
12.99999999999272
 20
2.250000000000113
 30
0.0
 40
1.749999999999998
100
AcDbArc
 50
90.0
 51
180.0
  0
LINE
  5
6F5
330
6D0
100
AcDbEntity
  8
SK6
100
AcDbLine
 10
6.250000000007275
 20
2.250000000000113
 30
0.0
 11
6.250000000007275
 21
4.0
 31
0.0
  0
ARC
  5
6F6
330
6D0
100
AcDbEntity
  8
SK6
100
AcDbCircle
 10
8.500000000003637
 20
2.250000000000113
 30
0.0
 40
1.749999999999998
100
AcDbArc
 50
90.0
 51
180.0
  0
LINE
  5
6F7
330
6D0
100
AcDbEntity
  8
SK6
100
AcDbLine
 10
10.74999999999636
 20
2.250000000000113
 30
0.0
 11
10.74999999999636
 21
4.0
 31
0.0
  0
ARC
  5
6F8
330
6D0
100
AcDbEntity
  8
SK6
100
AcDbCircle
 10
13.4999999999527
 20
2.250000000000113
 30
0.0
 40
1.749999999999998
100
AcDbArc
 50
0.0
 51
90.0
  0
LINE
  5
6F9
330
6D0
100
AcDbEntity
  8
SK6
100
AcDbLine
 10
19.74999999996362
 20
2.250000000000113
 30
0.0
 11
19.74999999996362
 21
4.0
 31
0.0
  0
LINE
  5
6FA
330
6D0
100
AcDbEntity
  8
SK6
100
AcDbLine
 10
0.0
 20
8.499999999999545
 30
0.0
 11
1.750000000007275
 21
6.750000000000341
 31
0.0
  0
LINE
  5
6FB
330
6D0
100
AcDbEntity
  8
SK6
100
AcDbLine
 10
0.0
 20
6.250000000000794
 30
0.0
 11
0.0
 21
8.499999999999545
 31
0.0
  0
ATTDEF
  5
6FC
330
6D0
100
AcDbEntity
  8
SK6
100
AcDbText
 10
3.07280028710756
 20
-6.38769206708217
 30
0.0
 40
3.5
  1
----
 72
     1
 11
9.138155171155347
 21
-6.38769206708217
 31
0.0
100
AcDbAttributeDefinition
  3
NAME OF TOOL?
  2
MM
 70
     0
  0
ATTDEF
  5
6FD
330
6D0
100
AcDbEntity
  8
SK6
100
AcDbText
 10
9.138155171155347
 20
-12.42271564516345
 30
0.0
 40
3.5
  1

 72
     1
 11
9.138155171155347
 21
-12.42271564516345
 31
0.0
100
AcDbAttributeDefinition
  3

  2
F7
 70
     0
  0
ENDBLK
  5
6FE
330
6D0
100
AcDbEntity
  8
0
100
AcDbBlockEnd
  0
BLOCK
  5
AD2
330
AD1
100
AcDbEntity
  8
0
100
AcDbBlockBegin
  2
*D3
 70
     1
 10
0.0
 20
0.0
 30
0.0
  3
*D3
  1

  0
LINE
  5
B1E
330
AD1
100
AcDbEntity
  8
2
 62
     0
370
    -2
100
AcDbLine
 10
9.529999999996363
 20
-6.484567000000025
 30
0.0
 11
9.529999999996363
 21
-13.4007394475629
 31
0.0
  0
LINE
  5
B1F
330
AD1
100
AcDbEntity
  8
2
 62
     0
370
    -2
100
AcDbLine
 10
0.3253453800139283
 20
0.0
 30
0.0
 11
0.3253453800139275
 21
-13.4007394475629
 31
0.0
  0
LINE
  5
B20
330
AD1
100
AcDbEntity
  8
2
 62
     0
370
    -2
100
AcDbLine
 10
7.029999999996361
 20
-12.1507394475629
 30
0.0
 11
2.825345380013926
 21
-12.1507394475629
 31
0.0
  0
LINE
  5
B21
330
AD1
100
AcDbEntity
  8
2
 62
     0
370
    -2
100
AcDbLine
 10
0.3253453800139276
 20
-12.1507394475629
 30
0.0
 11
-14.96998139440631
 21
-12.1507394475629
 31
0.0
  0
SOLID
  5
B22
330
AD1
100
AcDbEntity
  8
2
 62
     0
100
AcDbTrace
 10
7.029999999996361
 20
-11.73407278089623
 30
0.0
 11
7.029999999996361
 21
-12.56740611422956
 31
0.0
 12
9.529999999996363
 22
-12.1507394475629
 32
0.0
 13
9.529999999996363
 23
-12.1507394475629
 33
0.0
  0
SOLID
  5
B23
330
AD1
100
AcDbEntity
  8
2
 62
     0
100
AcDbTrace
 10
2.825345380013926
 20
-11.73407278089623
 30
0.0
 11
2.825345380013926
 21
-12.56740611422956
 31
0.0
 12
0.3253453800139276
 22
-12.1507394475629
 32
0.0
 13
0.3253453800139276
 23
-12.1507394475629
 33
0.0
  0
MTEXT
  5
B24
330
AD1
100
AcDbEntity
  8
2
 62
     0
100
AcDbMText
 10
-8.572318007196191
 20
-9.714249637302883
 30
0.0
 40
3.5
 41
0.0
 71
     5
 72
     1
  1
9.20
 73
     1
 44
1.0
1001
ACAD
1000
MTEXTBEGIN
1070
    73
1070
     1
1070
    44
1040
1.0
1070
    74
1070
     0
1000
MTEXTEND
  0
POINT
  5
B25
330
AD1
100
AcDbEntity
  8
DEFPOINTS
 62
     0
100
AcDbPoint
 10
9.529999999996363
 20
-6.484567000000025
 30
0.0
  0
POINT
  5
B26
330
AD1
100
AcDbEntity
  8
DEFPOINTS
 62
     0
100
AcDbPoint
 10
0.3253453800139283
 20
0.0
 30
0.0
  0
POINT
  5
B27
330
AD1
100
AcDbEntity
  8
DEFPOINTS
 62
     0
100
AcDbPoint
 10
0.3253453800139276
 20
-12.1507394475629
 30
0.0
  0
ENDBLK
  5
AD3
330
AD1
100
AcDbEntity
  8
0
100
AcDbBlockEnd
  0
BLOCK
  5
ADF
330
ADE
100
AcDbEntity
  8
0
100
AcDbBlockBegin
  2
*D4
 70
     1
 10
0.0
 20
0.0
 30
0.0
  3
*D4
  1

  0
LINE
  5
B3A
330
ADE
100
AcDbEntity
  8
2
 62
     0
370
    -2
100
AcDbLine
 10
8.458494598552491
 20
6.999792327838918
 30
0.0
 11
-5.952741834014884
 21
13.86187454695193
 31
0.0
  0
LINE
  5
B3B
330
ADE
100
AcDbEntity
  8
2
 62
     0
370
    -2
100
AcDbLine
 10
8.458494598552505
 20
6.999778991469496
 30
0.0
 11
-7.503084398644838
 21
6.999778991751752
 31
0.0
  0
ARC
  5
B3C
330
ADE
100
AcDbEntity
  8
2
 62
     0
370
    -2
100
AcDbCircle
 10
8.458522606607004
 20
6.999778991469496
 30
0.0
 40
14.71160700525184
100
AcDbArc
 50
164.2862337832484
 51
170.2517542073324
  0
SOLID
  5
B3D
330
ADE
100
AcDbEntity
  8
2
 62
     0
100
AcDbTrace
 10
-6.093318920429142
 20
11.1306673580973
 30
0.0
 11
-5.313207349340284
 21
10.83763087385392
 31
0.0
 12
-4.824153682154596
 22
13.32448382924219
 32
0.0
 13
-4.824153682154596
 23
13.32448382924219
 33
0.0
  0
SOLID
  5
B3E
330
ADE
100
AcDbEntity
  8
2
 62
     0
100
AcDbTrace
 10
-5.62550718250134
 20
9.45533553738049
 30
0.0
 11
-6.455826992774235
 21
9.526141307716171
 31
0.0
 12
-6.253084398644838
 22
6.999778991729646
 32
0.0
 13
-6.253084398644838
 23
6.999778991729646
 33
0.0
  0
MTEXT
  5
B3F
102
{ACAD_XDICTIONARY
360
ED3
102
}
330
ADE
100
AcDbEntity
  8
2
 62
     0
100
AcDbMText
 10
-8.054634783714986
 20
11.62285777044589
 30
0.0
 40
3.5
 41
0.0
 71
     5
 72
     1
  1
25\U+00B0
 11
0.2695971937127424
 21
0.9629731840203101
 31
0.0
 73
     1
 44
1.0
1001
ACAD
1000
MTEXTBEGIN
1070
    73
1070
     1
1070
    44
1040
1.0
1070
    74
1070
     0
1000
MTEXTEND
  0
POINT
  5
B40
330
ADE
100
AcDbEntity
  8
DEFPOINTS
 62
     0
100
AcDbPoint
 10
-6.091970320612002
 20
9.171077278652687
 30
0.0
  0
POINT
  5
B41
330
ADE
100
AcDbEntity
  8
DEFPOINTS
 62
     0
100
AcDbPoint
 10
8.458522606607004
 20
6.999778991469496
 30
0.0
  0
POINT
  5
B42
330
ADE
100
AcDbEntity
  8
DEFPOINTS
 62
     0
100
AcDbPoint
 10
8.458522606607004
 20
6.999778991469496
 30
0.0
  0
POINT
  5
B43
330
ADE
100
AcDbEntity
  8
DEFPOINTS
 62
     0
100
AcDbPoint
 10
8.458494598552505
 20
6.999778991469496
 30
0.0
  0
POINT
  5
B44
330
ADE
100
AcDbEntity
  8
DEFPOINTS
 62
     0
100
AcDbPoint
 10
8.458494598552491
 20
6.999792327838918
 30
0.0
  0
ENDBLK
  5
AE0
330
ADE
100
AcDbEntity
  8
0
100
AcDbBlockEnd
  0
BLOCK
  5
AFC
330
AFB
100
AcDbEntity
  8
0
100
AcDbBlockBegin
  2
*D5
 70
     1
 10
0.0
 20
0.0
 30
0.0
  3
*D5
  1

  0
LINE
  5
EE2
330
AFB
100
AcDbEntity
  8
2
 62
     0
370
    -2
100
AcDbLine
 10
8.458522606607031
 20
6.999778991469496
 30
0.0
 11
23.30943458418986
 21
6.999778991469491
 31
0.0
  0
LINE
  5
EE3
330
AFB
100
AcDbEntity
  8
2
 62
     0
370
    -2
100
AcDbLine
 10
22.05943458418986
 20
4.499778991469492
 30
0.0
 11
22.05943458418986
 21
-6.999778981620014
 31
0.0
  0
LINE
  5
EE4
330
AFB
100
AcDbEntity
  8
2
 62
     0
370
    -2
100
AcDbLine
 10
22.05943458418986
 20
-6.999778981620014
 30
0.0
 11
22.05943458418985
 21
-28.50311699989127
 31
0.0
  0
SOLID
  5
EE5
330
AFB
100
AcDbEntity
  8
2
 62
     0
100
AcDbTrace
 10
21.64276791752319
 20
4.499778991469493
 30
0.0
 11
22.47610125085653
 21
4.499778991469492
 31
0.0
 12
22.05943458418986
 22
6.999778991469491
 32
0.0
 13
22.05943458418986
 23
6.999778991469491
 33
0.0
  0
MTEXT
  5
EE6
330
AFB
100
AcDbEntity
  8
2
 62
     0
100
AcDbMText
 10
19.57129333331143
 20
-19.00144799075564
 30
0.0
 40
3.5
 41
0.0
 71
     5
 72
     1
  1
%%c14.00
 11
0.0000000000000001
 21
1.0
 31
0.0
 73
     1
 44
1.0
1001
ACAD
1000
MTEXTBEGIN
1070
    73
1070
     1
1070
    44
1040
1.0
1070
    74
1070
     0
1000
MTEXTEND
  0
POINT
  5
EE7
330
AFB
100
AcDbEntity
  8
DEFPOINTS
 62
     0
100
AcDbPoint
 10
8.458522606607031
 20
6.999778991469496
 30
0.0
  0
POINT
  5
EE8
330
AFB
100
AcDbEntity
  8
DEFPOINTS
 62
     0
100
AcDbPoint
 10
8.458893939808049
 20
-6.999778981620011
 30
0.0
  0
POINT
  5
EE9
330
AFB
100
AcDbEntity
  8
DEFPOINTS
 62
     0
100
AcDbPoint
 10
22.05943458418986
 20
-6.999778981620014
 30
0.0
  0
ENDBLK
  5
AFD
330
AFB
100
AcDbEntity
  8
0
100
AcDbBlockEnd
  0
BLOCK
  5
B07
330
B06
100
AcDbEntity
  8
0
100
AcDbBlockBegin
  2
*D6
 70
     1
 10
0.0
 20
0.0
 30
0.0
  3
*D6
  1

  0
LINE
  5
DD2
330
B06
100
AcDbEntity
  8
2
 62
     0
370
    -2
100
AcDbLine
 10
8.458522606607031
 20
6.999778991469496
 30
0.0
 11
8.458522606607031
 21
16.57511872097893
 31
0.0
  0
LINE
  5
DD3
330
B06
100
AcDbEntity
  8
2
 62
     0
370
    -2
100
AcDbLine
 10
9.529999999996363
 20
6.485514923802496
 30
0.0
 11
9.529999999996363
 21
16.57511872097893
 31
0.0
  0
LINE
  5
DD4
330
B06
100
AcDbEntity
  8
2
 62
     0
370
    -2
100
AcDbLine
 10
5.958522606607031
 20
15.32511872097893
 30
0.0
 11
3.458522606607032
 21
15.32511872097893
 31
0.0
  0
LINE
  5
DD5
330
B06
100
AcDbEntity
  8
2
 62
     0
370
    -2
100
AcDbLine
 10
12.02999999999636
 20
15.32511872097893
 30
0.0
 11
27.00312016865413
 21
15.32511872097893
 31
0.0
  0
SOLID
  5
DD6
330
B06
100
AcDbEntity
  8
2
 62
     0
100
AcDbTrace
 10
5.958522606607031
 20
15.7417853876456
 30
0.0
 11
5.958522606607031
 21
14.90845205431227
 31
0.0
 12
8.458522606607031
 22
15.32511872097893
 32
0.0
 13
8.458522606607031
 23
15.32511872097893
 33
0.0
  0
SOLID
  5
DD7
330
B06
100
AcDbEntity
  8
2
 62
     0
100
AcDbTrace
 10
12.02999999999636
 20
15.7417853876456
 30
0.0
 11
12.02999999999636
 21
14.90845205431227
 31
0.0
 12
9.529999999996363
 22
15.32511872097893
 32
0.0
 13
9.529999999996363
 23
15.32511872097893
 33
0.0
  0
MTEXT
  5
DD8
330
B06
100
AcDbEntity
  8
2
 62
     0
100
AcDbMText
 10
20.76656008432525
 20
17.76160853123895
 30
0.0
 40
3.5
 41
0.0
 71
     5
 72
     1
  1
1.07
 73
     1
 44
1.0
1001
ACAD
1000
MTEXTBEGIN
1070
    73
1070
     1
1070
    44
1040
1.0
1070
    74
1070
     0
1000
MTEXTEND
  0
POINT
  5
DD9
330
B06
100
AcDbEntity
  8
DEFPOINTS
 62
     0
100
AcDbPoint
 10
8.458522606607031
 20
6.999778991469496
 30
0.0
  0
POINT
  5
DDA
330
B06
100
AcDbEntity
  8
DEFPOINTS
 62
     0
100
AcDbPoint
 10
9.529999999996363
 20
6.485514923802496
 30
0.0
  0
POINT
  5
DDB
330
B06
100
AcDbEntity
  8
DEFPOINTS
 62
     0
100
AcDbPoint
 10
9.529999999996363
 20
15.32511872097893
 30
0.0
  0
ENDBLK
  5
B08
330
B06
100
AcDbEntity
  8
0
100
AcDbBlockEnd
  0
BLOCK
  5
C14
330
C13
100
AcDbEntity
  8
0
100
AcDbBlockBegin
  2
*D7
 70
     1
 10
0.0
 20
0.0
 30
0.0
  3
*D7
  1

  0
LINE
  5
DBD
330
C13
100
AcDbEntity
  8
2
 62
     0
370
    -2
100
AcDbLine
 10
9.544862438216515
 20
2.516418999999983
 30
0.0
 11
27.73297266956222
 21
2.516418999999737
 31
0.0
  0
LINE
  5
DBE
330
C13
100
AcDbEntity
  8
2
 62
     0
370
    -2
100
AcDbLine
 10
9.544633538213668
 20
2.521820535100756
 30
0.0
 11
26.60960300909617
 21
8.812085831121072
 31
0.0
  0
ARC
  5
DBF
330
C13
100
AcDbEntity
  8
2
 62
     0
370
    -2
100
AcDbCircle
 10
9.529979620254296
 20
2.516418999999983
 30
0.0
 40
16.95299304930792
100
AcDbArc
 50
8.456887592078397
 51
11.77734635662792
  0
SOLID
  5
DC0
330
C13
100
AcDbEntity
  8
2
 62
     0
100
AcDbTrace
 10
26.71417193599394
 20
5.040336195613063
 30
0.0
 11
25.88310693923115
 21
4.978891784963169
 31
0.0
 12
26.48297266956222
 22
2.516418999999753
 32
0.0
 13
26.48297266956222
 23
2.516418999999753
 33
0.0
  0
SOLID
  5
DC1
330
C13
100
AcDbEntity
  8
2
 62
     0
100
AcDbTrace
 10
25.72556697636475
 20
5.861788264811637
 30
0.0
 11
26.52659517293368
 21
6.091567012188271
 31
0.0
 12
25.43674483251932
 22
8.37976222820674
 32
0.0
 13
25.43674483251932
 23
8.37976222820674
 33
0.0
  0
MTEXT
  5
DC2
102
{ACAD_XDICTIONARY
360
ED5
102
}
330
C13
100
AcDbEntity
  8
2
 62
     0
100
AcDbMText
 10
28.22914098881204
 20
7.644128983424971
 30
0.0
 40
3.5
 41
0.0
 71
     5
 72
     1
  1
20\U+00B0
 11
0.2644583159109199
 21
-0.9643971169313811
 31
0.0
 73
     1
 44
1.0
1001
ACAD
1000
MTEXTBEGIN
1070
    73
1070
     1
1070
    44
1040
1.0
1070
    74
1070
     0
1000
MTEXTEND
  0
POINT
  5
DC3
330
C13
100
AcDbEntity
  8
DEFPOINTS
 62
     0
100
AcDbPoint
 10
26.36564496624333
 20
4.507485469946931
 30
0.0
  0
POINT
  5
DC4
330
C13
100
AcDbEntity
  8
DEFPOINTS
 62
     0
100
AcDbPoint
 10
9.544633538213668
 20
2.521820535100756
 30
0.0
  0
POINT
  5
DC5
330
C13
100
AcDbEntity
  8
DEFPOINTS
 62
     0
100
AcDbPoint
 10
9.529979620254296
 20
2.516418999999983
 30
0.0
  0
POINT
  5
DC6
330
C13
100
AcDbEntity
  8
DEFPOINTS
 62
     0
100
AcDbPoint
 10
9.544862438216515
 20
2.516418999999983
 30
0.0
  0
POINT
  5
DC7
330
C13
100
AcDbEntity
  8
DEFPOINTS
 62
     0
100
AcDbPoint
 10
9.529979620254296
 20
2.516418999999983
 30
0.0
  0
ENDBLK
  5
C15
330
C13
100
AcDbEntity
  8
0
100
AcDbBlockEnd
  0
ENDSEC
  0
SECTION
  2
ENTITIES
  0
LINE
  5
9AE
102
{ACAD_REACTORS
330
AC9
102
}
330
18
100
AcDbEntity
  8
SK4
 48
0.0891
100
AcDbLine
 10
9.53002558884269
 20
0.0
 30
0.0
 11
-3.267000000076435
 21
0.0
 31
0.0
  0
LINE
  5
9AF
330
18
100
AcDbEntity
  8
1
 48
0.006241
100
AcDbLine
 10
9.529999999996363
 20
-2.540606000000025
 30
0.0
 11
9.529999999996363
 21
-2.290984999999976
 31
0.0
  0
LINE
  5
9B0
330
18
100
AcDbEntity
  8
1
 48
0.003249
100
AcDbLine
 10
9.529999999996363
 20
-2.670568000000002
 30
0.0
 11
9.529999999996363
 21
-2.540606000000025
 31
0.0
  0
LINE
  5
9B1
330
18
100
AcDbEntity
  8
1
 48
0.004956
100
AcDbLine
 10
9.529999999996363
 20
-2.253817000000025
 30
0.0
 11
9.529999999996363
 21
-2.452067999999997
 31
0.0
  0
LINE
  5
9B2
330
18
100
AcDbEntity
  8
1
 48
0.003639
100
AcDbLine
 10
9.529999999996363
 20
-2.108263000000022
 30
0.0
 11
9.529999999996363
 21
-2.253817000000025
 31
0.0
  0
LINE
  5
9B3
330
18
100
AcDbEntity
  8
1
 48
0.006248
100
AcDbLine
 10
9.529999999996363
 20
-2.835754000000008
 30
0.0
 11
9.529999999996363
 21
-2.585824999999998
 31
0.0
  0
LINE
  5
9B4
330
18
100
AcDbEntity
  8
1
 48
0.006157
100
AcDbLine
 10
9.529999999996363
 20
-3.082032000000026
 30
0.0
 11
9.529999999996363
 21
-2.835754000000008
 31
0.0
  0
LINE
  5
9B5
330
18
100
AcDbEntity
  8
1
 48
0.04252
100
AcDbLine
 10
9.529999999996363
 20
-0.8962060000000063
 30
0.0
 11
9.529999999996363
 21
-2.597021999999979
 31
0.0
  0
LINE
  5
9B6
330
18
100
AcDbEntity
  8
1
 48
0.006253
100
AcDbLine
 10
9.529999999996363
 20
-2.597020999999982
 30
0.0
 11
9.529999999996363
 21
-2.847139000000026
 31
0.0
  0
LINE
  5
9B7
330
18
100
AcDbEntity
  8
1
 48
0.000609
100
AcDbLine
 10
9.529999999996363
 20
-2.595933000000002
 30
0.0
 11
9.529999999996363
 21
-2.571575999999993
 31
0.0
  0
LINE
  5
9B8
330
18
100
AcDbEntity
  8
1
 48
0.000261
100
AcDbLine
 10
9.529999999996363
 20
-2.567822999999973
 30
0.0
 11
9.529999999996363
 21
-2.557371999999983
 31
0.0
  0
LINE
  5
9B9
330
18
100
AcDbEntity
  8
1
 48
0.000033
100
AcDbLine
 10
9.529999999996363
 20
-2.569147999999982
 30
0.0
 11
9.529999999996363
 21
-2.567822999999973
 31
0.0
  0
LINE
  5
9BA
330
18
100
AcDbEntity
  8
1
 48
0.000189
100
AcDbLine
 10
9.529999999996363
 20
-2.395051000000023
 30
0.0
 11
9.529999999996363
 21
-2.402625
 31
0.0
  0
LINE
  5
9BB
330
18
100
AcDbEntity
  8
1
 48
0.000163
100
AcDbLine
 10
9.529999999996363
 20
-2.452067999999997
 30
0.0
 11
9.529999999996363
 21
-2.458604999999975
 31
0.0
  0
LINE
  5
9BC
330
18
100
AcDbEntity
  8
1
 48
0.00318
100
AcDbLine
 10
9.529999999996363
 20
-2.585824999999998
 30
0.0
 11
9.529999999996363
 21
-2.458604999999975
 31
0.0
  0
LINE
  5
9BD
330
18
100
AcDbEntity
  8
1
 48
0.000956
100
AcDbLine
 10
9.529999999996363
 20
-2.615967000000009
 30
0.0
 11
9.529999999996363
 21
-2.577738000000009
 31
0.0
  0
LINE
  5
9BE
330
18
100
AcDbEntity
  8
1
 48
0.001561
100
AcDbLine
 10
9.529999999996363
 20
-2.678408999999984
 30
0.0
 11
9.529999999996363
 21
-2.615967000000009
 31
0.0
  0
LINE
  5
9BF
330
18
100
AcDbEntity
  8
1
 48
0.00015
100
AcDbLine
 10
9.529999999996363
 20
-2.684423999999978
 30
0.0
 11
9.529999999996363
 21
-2.678408999999984
 31
0.0
  0
SPLINE
  5
9C0
330
18
100
AcDbEntity
  8
1
100
AcDbSpline
210
0.0
220
0.0
230
1.0
 70
     8
 71
     5
 72
    45
 73
    39
 74
     0
 42
0.000000001
 43
0.0000000001
 40
0.0
 40
0.0
 40
0.0
 40
0.0
 40
0.0
 40
0.0
 40
0.1691493068645886
 40
0.1691493068645886
 40
0.1691493068645886
 40
0.3455376318666018
 40
0.3455376318666018
 40
0.3455376318666018
 40
0.6920512433405466
 40
0.6920512433405466
 40
0.6920512433405466
 40
0.8511871514801104
 40
0.8511871514801104
 40
0.8511871514801104
 40
1.010323059619674
 40
1.010323059619674
 40
1.010323059619674
 40
1.328562666330379
 40
1.328562666330379
 40
1.328562666330379
 40
3.526433337772431
 40
3.526433337772431
 40
3.526433337772431
 40
4.885272278320583
 40
4.885272278320583
 40
4.885272278320583
 40
5.037792281730221
 40
5.037792281730221
 40
5.037792281730221
 40
5.342823904283616
 40
5.342823904283616
 40
5.342823904283616
 40
5.650830609751221
 40
5.650830609751221
 40
5.650830609751221
 40
6.120544412268872
 40
6.120544412268872
 40
6.120544412268872
 40
6.120544412268872
 40
6.120544412268872
 40
6.120544412268872
 10
5.857933255309204
 20
-5.686728294568298
 30
0.0
 10
5.841347286797115
 20
-5.680571576377017
 30
0.0
 10
5.825062735067747
 20
-5.674331016975996
 30
0.0
 10
5.808573037238687
 20
-5.667785876231619
 30
0.0
 10
5.775020570099727
 20
-5.654053020987817
 30
0.0
 10
5.742747996701067
 20
-5.639989066970713
 30
0.0
 10
5.730234950048867
 20
-5.634355293619762
 30
0.0
 10
5.684880272196011
 20
-5.613277929477191
 30
0.0
 10
5.642217928800377
 20
-5.59137270103821
 30
0.0
 10
5.618591922845936
 20
-5.5784857333403
 30
0.0
 10
5.580175183189325
 20
-5.555926688413078
 30
0.0
 10
5.546281752011393
 20
-5.534040103957636
 30
0.0
 10
5.536124318174714
 20
-5.527263628854938
 30
0.0
 10
5.516292917920378
 20
-5.513566707878965
 30
0.0
 10
5.496937839691226
 20
-5.49926172084173
 30
0.0
 10
5.487195523245276
 20
-5.491837024099368
 30
0.0
 10
5.459100917738039
 20
-5.469621114918878
 30
0.0
 10
5.433544772015594
 20
-5.447034888034519
 30
0.0
 10
5.417624980661256
 20
-5.431827808374348
 30
0.0
 10
5.30080928898178
 20
-5.310852286871862
 30
0.0
 10
5.252741561326813
 20
-5.183480999988828
 30
0.0
 10
5.257167523734167
 20
-5.07294798716367
 30
0.0
 10
5.316193873187401
 20
-4.898589322170778
 30
0.0
 10
5.441539556173168
 20
-4.730269274466365
 30
0.0
 10
5.496966286717807
 20
-4.667417280250504
 30
0.0
 10
5.566579381850941
 20
-4.597972623579721
 30
0.0
 10
5.643691894623856
 20
-4.52946929159725
 30
0.0
 10
5.651549476392316
 20
-4.522565441206721
 30
0.0
 10
5.676061017855117
 20
-4.501294781860448
 30
0.0
 10
5.702524548615713
 20
-4.479044646631733
 30
0.0
 10
5.720702412350306
 20
-4.464032908765601
 30
0.0
 10
5.754954942624891
 20
-4.436357939115906
 30
0.0
 10
5.789688750629506
 20
-4.409320180320491
 30
0.0
 10
5.807649680943896
 20
-4.395553436012676
 30
0.0
 10
5.853311689907357
 20
-4.361157215819386
 30
0.0
 10
5.900496666456746
 20
-4.326999465110076
 30
0.0
 10
5.929526273335254
 20
-4.306452681339748
 30
0.0
 10
5.959055347842662
 20
-4.285992276803765
 30
0.0
 10
5.989062261679137
 20
-4.265614470740898
 30
0.0
  0
ARC
  5
9C1
330
18
100
AcDbEntity
  8
1
100
AcDbCircle
 10
56.41316299999636
 20
-115.995669
 30
0.0
 40
121.341854
100
AcDbArc
 50
113.7567530000001
 51
114.6223299999989
  0
LINE
  5
9C2
330
18
100
AcDbEntity
  8
1
 48
0.000225
100
AcDbLine
 10
7.530042999996367
 20
-4.935838999999987
 30
0.0
 11
7.529999999996361
 21
-4.926847000000009
 31
0.0
  0
LINE
  5
9C3
330
18
100
AcDbEntity
  8
1
 48
0.024785
100
AcDbLine
 10
7.529999999996361
 20
-3.935459999999975
 30
0.0
 11
7.529999999996361
 21
-4.926847000000009
 31
0.0
  0
ARC
  5
9C4
330
18
100
AcDbEntity
  8
1
100
AcDbCircle
 10
7.809551999996356
 20
-3.939048000000012
 30
0.0
 40
0.279683
100
AcDbArc
 50
149.1953869999998
 51
179.2645269999996
  0
ARC
  5
9C5
330
18
100
AcDbEntity
  8
1
100
AcDbCircle
 10
12.49373599999636
 20
-19.91350599999998
 30
0.0
 40
17.013142
100
AcDbArc
 50
100.6774399999993
 51
102.6577059999997
  0
LINE
  5
9C6
330
18
100
AcDbEntity
  8
1
 48
0.000967
100
AcDbLine
 10
9.377645999996355
 20
-3.181068999999978
 30
0.0
 11
9.341546999996367
 21
-3.194940999999971
 31
0.0
  0
ARC
  5
9C7
330
18
100
AcDbEntity
  8
1
100
AcDbCircle
 10
9.229270999996359
 20
-2.785042999999973
 30
0.0
 40
0.422797
100
AcDbArc
 50
290.5388939999993
 51
315.358478000001
  0
ARC
  5
9C8
330
18
100
AcDbEntity
  8
1
100
AcDbCircle
 10
9.293742999996368
 20
-1.090665999999997
 30
0.0
 40
0.305983
100
AcDbArc
 50
39.45727499999864
 51
74.08452700000096
  0
LINE
  5
9C9
330
18
100
AcDbEntity
  8
1
 48
0.000938
100
AcDbLine
 10
9.341546999996367
 20
-0.7861730000000195
 30
0.0
 11
9.377645999996355
 21
-0.7964240000000018
 31
0.0
  0
LINE
  5
9CA
330
18
100
AcDbEntity
  8
1
 48
0.013678
100
AcDbLine
 10
8.794482999996361
 20
-0.7778539999999908
 30
0.0
 11
9.341547999996363
 21
-0.7861730000000195
 31
0.0
  0
ARC
  5
9CB
330
18
100
AcDbEntity
  8
1
100
AcDbCircle
 10
-3.272109000003638
 20
34.66940599999998
 30
0.0
 40
37.444766
100
AcDbArc
 50
287.8540200000001
 51
288.7990389999986
  0
LINE
  5
9CC
330
18
100
AcDbEntity
  8
1
 48
0.001382
100
AcDbLine
 10
8.208263999996361
 20
-0.9722049999999741
 30
0.0
 11
8.173301999996366
 21
-1.015003999999976
 31
0.0
  0
ARC
  5
9CD
330
18
100
AcDbEntity
  8
1
100
AcDbCircle
 10
-17.75229500000364
 20
-4.279452999999986
 30
0.0
 40
26.130156
100
AcDbArc
 50
2.315468999998588
 51
7.177013999999406
  0
LINE
  5
9CE
330
18
100
AcDbEntity
  8
1
 48
0.000157
100
AcDbLine
 10
8.356415999996356
 20
-3.223764000000016
 30
0.0
 11
8.361252999996366
 21
-3.227779999999995
 31
0.0
  0
ARC
  5
9CF
330
18
100
AcDbEntity
  8
1
100
AcDbCircle
 10
29.24756899999636
 20
-40.52735300000001
 30
0.0
 40
42.749204
100
AcDbArc
 50
117.4670540000013
 51
119.247135
  0
ARC
  5
9D0
330
18
100
AcDbEntity
  8
1
100
AcDbCircle
 10
16.72511699999636
 20
-15.48409099999998
 30
0.0
 40
14.542132
100
AcDbArc
 50
119.6558480000012
 51
124.643647999999
  0
ARC
  5
9D1
330
18
100
AcDbEntity
  8
1
100
AcDbCircle
 10
10.16992799999636
 20
-2.790254000000004
 30
0.0
 40
1.860822
100
AcDbArc
 50
193.5988250000003
 51
203.0890000000003
  0
ARC
  5
9D2
330
18
100
AcDbEntity
  8
1
100
AcDbCircle
 10
-0.4195980000036317
 20
-5.560969999999997
 30
0.0
 40
0.7031500000000001
100
AcDbArc
 50
20.95272799999841
 51
48.92855000000134
  0
ARC
  5
9D3
330
18
100
AcDbEntity
  8
1
100
AcDbCircle
 10
0.2555709999963653
 20
-4.783403000000021
 30
0.0
 40
0.326751
100
AcDbArc
 50
218.5400529999981
 51
229.2541290000009
  0
SPLINE
  5
9D4
330
18
100
AcDbEntity
  8
1
100
AcDbSpline
210
0.0
220
0.0
230
1.0
 70
     8
 71
     5
 72
    27
 73
    21
 74
     0
 42
0.000000001
 43
0.0000000001
 40
0.0
 40
0.0
 40
0.0
 40
0.0
 40
0.0
 40
0.0
 40
2.026153494089426
 40
2.026153494089426
 40
2.026153494089426
 40
5.576647785813325
 40
5.576647785813325
 40
5.576647785813325
 40
8.02731206252336
 40
8.02731206252336
 40
8.02731206252336
 40
9.128961504348339
 40
9.128961504348339
 40
9.128961504348339
 40
10.12054781896062
 40
10.12054781896062
 40
10.12054781896062
 40
11.10144336385167
 40
11.10144336385167
 40
11.10144336385167
 40
11.10144336385167
 40
11.10144336385167
 40
11.10144336385167
 10
1.181946943241938
 20
-5.505992112588501
 30
0.0
 10
1.405823599694457
 20
-5.455679925171295
 30
0.0
 10
1.629649754541318
 20
-5.404446597795013
 30
0.0
 10
1.867666715205288
 20
-5.349104230257978
 30
0.0
 10
2.572236646289823
 20
-5.181860454355954
 30
0.0
 10
3.368735679968935
 20
-4.982700848050964
 30
0.0
 10
3.920129331231848
 20
-4.839629830932721
 30
0.0
 10
4.815261031674038
 20
-4.599232304682856
 30
0.0
 10
5.687127219474277
 20
-4.353332670361623
 30
0.0
 10
6.041188126050952
 20
-4.251542550545193
 30
0.0
 10
6.524860188102223
 20
-4.110111814219294
 30
0.0
 10
6.968243806781712
 20
-3.977779325779806
 30
0.0
 10
7.101768051909942
 20
-3.937679494011661
 30
0.0
 10
7.346654808802012
 20
-3.863724997426173
 30
0.0
 10
7.579549521330417
 20
-3.792671518958115
 30
0.0
 10
7.702453325397597
 20
-3.754999863837383
 30
0.0
 10
7.91895903127687
 20
-3.688320460712247
 30
0.0
 10
8.135380116490651
 20
-3.621062068640013
 30
0.0
 10
8.242986593637667
 20
-3.587475246316216
 30
0.0
 10
8.350599610840106
 20
-3.553758323097156
 30
0.0
 10
8.458200950867647
 20
-3.519908380222943
 30
0.0
  0
LINE
  5
9D5
330
18
100
AcDbEntity
  8
1
 48
0.024122
100
AcDbLine
 10
0.2372529999963575
 20
-5.309528
 30
0.0
 11
1.181912999996369
 21
-5.505960000000013
 31
0.0
  0
SPLINE
  5
9D6
330
18
100
AcDbEntity
  8
1
100
AcDbSpline
210
0.0
220
0.0
230
1.0
 70
     8
 71
     5
 72
    18
 73
    12
 74
     0
 42
0.000000001
 43
0.0000000001
 40
0.0
 40
0.0
 40
0.0
 40
0.0
 40
0.0
 40
0.0
 40
0.5692102770476862
 40
0.5692102770476862
 40
0.5692102770476862
 40
1.522233369363779
 40
1.522233369363779
 40
1.522233369363779
 40
1.906645982772399
 40
1.906645982772399
 40
1.906645982772399
 40
1.906645982772399
 40
1.906645982772399
 40
1.906645982772399
 10
8.029999999999503
 20
-5.739771665037324
 30
0.0
 10
7.968745764475386
 20
-5.737301467578276
 30
0.0
 10
7.909889195191269
 20
-5.720101206953303
 30
0.0
 10
7.856501154403133
 20
-5.690643762697561
 30
0.0
 10
7.730490686342065
 20
-5.59258902902286
 30
0.0
 10
7.642750762570527
 20
-5.453195546776552
 30
0.0
 10
7.600641706232407
 20
-5.358295394059155
 30
0.0
 10
7.557565089559004
 20
-5.216674594378446
 30
0.0
 10
7.536812307563307
 20
-5.067351304960933
 30
0.0
 10
7.532675806948602
 20
-5.02382680163754
 30
0.0
 10
7.530404841171558
 20
-4.979981388933254
 30
0.0
 10
7.530042844716048
 20
-4.935838675770241
 30
0.0
  0
LINE
  5
9D7
330
18
100
AcDbEntity
  8
1
 48
0.05215
100
AcDbLine
 10
8.029999999996361
 20
-3.653760999999973
 30
0.0
 11
8.029999999996361
 21
-5.739772000000016
 31
0.0
  0
ARC
  5
9D8
330
18
100
AcDbEntity
  8
1
100
AcDbCircle
 10
6.709041999996356
 20
-38.46422899999999
 30
0.0
 40
32.751109
100
AcDbArc
 50
85.80235899999982
 51
87.68844900000003
  0
ARC
  5
9D9
330
18
100
AcDbEntity
  8
1
100
AcDbCircle
 10
30.24341999999637
 20
90.43776800000001
 30
0.0
 40
99.169435
100
AcDbArc
 50
255.7651339999987
 51
257.1686159999998
  0
ARC
  5
9DA
330
18
100
AcDbEntity
  8
1
100
AcDbCircle
 10
-26.49897300000364
 20
62.58408999999995
 30
0.0
 40
77.099025
100
AcDbArc
 50
296.763599999998
 51
297.504148000001
  0
LINE
  5
9DB
330
18
100
AcDbEntity
  8
1
 48
0.027998
100
AcDbLine
 10
-0.000000000003638
 20
-6.107437000000002
 30
0.0
 11
-0.000000000003638
 21
-4.987509999999986
 31
0.0
  0
ARC
  5
9DC
330
18
100
AcDbEntity
  8
1
100
AcDbCircle
 10
0.4989859999963643
 20
-5.883810999999981
 30
0.0
 40
0.546799
100
AcDbArc
 50
204.1406900000005
 51
213.3611719999998
  0
ARC
  5
9DD
330
18
100
AcDbEntity
  8
1
100
AcDbCircle
 10
-1.462777000003639
 20
-7.183840999999972
 30
0.0
 40
1.806587999999999
100
AcDbArc
 50
22.40064000000038
 51
33.58344900000041
  0
ARC
  5
9DE
330
18
100
AcDbEntity
  8
1
100
AcDbCircle
 10
-1.076596000003632
 20
-7.025386000000024
 30
0.0
 40
1.389057999999999
100
AcDbArc
 50
13.57343600000008
 51
22.42818999999943
  0
ARC
  5
9DF
330
18
100
AcDbEntity
  8
1
100
AcDbCircle
 10
1.463955999996358
 20
48.516884
 30
0.0
 40
55.229099
100
AcDbArc
 50
268.7651489999999
 51
271.8988400000001
  0
ARC
  5
9E0
330
18
100
AcDbEntity
  8
1
100
AcDbCircle
 10
1.361281999996364
 20
50.28261299999996
 30
0.0
 40
56.99746700000001
100
AcDbArc
 50
271.9431810000005
 51
276.8392589999998
  0
LINE
  5
9E1
330
18
100
AcDbEntity
  8
1
 48
0.00223
100
AcDbLine
 10
8.219610999996362
 20
-6.255200000000002
 30
0.0
 11
8.148809999996357
 21
-6.309461999999996
 31
0.0
  0
LINE
  5
9E2
330
18
100
AcDbEntity
  8
1
 48
0.019112
100
AcDbLine
 10
8.029999999996361
 20
-0.77953100000002
 30
0.0
 11
8.794458999996365
 21
-0.7778559999999857
 31
0.0
  0
SPLINE
  5
9E3
330
18
100
AcDbEntity
  8
1
100
AcDbSpline
210
0.0
220
0.0
230
1.0
 70
     8
 71
     5
 72
    33
 73
    27
 74
     0
 42
0.000000001
 43
0.0000000001
 40
0.0
 40
0.0
 40
0.0
 40
0.0
 40
0.0
 40
0.0
 40
2.028321912064368
 40
2.028321912064368
 40
2.028321912064368
 40
5.60539133427682
 40
5.60539133427682
 40
5.60539133427682
 40
8.06532880462246
 40
8.06532880462246
 40
8.06532880462246
 40
9.672943576516654
 40
9.672943576516654
 40
9.672943576516654
 40
10.17987079897492
 40
10.17987079897492
 40
10.17987079897492
 40
11.03667472887019
 40
11.03667472887019
 40
11.03667472887019
 40
11.09787539447026
 40
11.09787539447026
 40
11.09787539447026
 40
11.15907606007032
 40
11.15907606007032
 40
11.15907606007032
 40
11.15907606007032
 40
11.15907606007032
 40
11.15907606007032
 10
1.076267153909608
 20
-5.292119098736347
 30
0.0
 10
1.298927195005504
 20
-5.239079225802981
 30
0.0
 10
1.521525022286794
 20
-5.18515902151415
 30
0.0
 10
1.759362929911486
 20
-5.126739735698151
 30
0.0
 10
2.468003631645768
 20
-4.949394137696171
 30
0.0
 10
3.271743411956663
 20
-4.738511345609308
 30
0.0
 10
3.830064206753816
 20
-4.586913882100873
 30
0.0
 10
4.732604222881931
 20
-4.333948992680006
 30
0.0
 10
5.609215771608901
 20
-4.07702100975672
 30
0.0
 10
5.964661203454511
 20
-3.971009423741861
 30
0.0
 10
6.515406608863612
 20
-3.804211521783258
 30
0.0
 10
7.01027165839983
 20
-3.651081297547762
 30
0.0
 10
7.194458657611392
 20
-3.593623230883848
 30
0.0
 10
7.426564933437718
 20
-3.520748090752761
 30
0.0
 10
7.656860715033388
 20
-3.447815168588476
 30
0.0
 10
7.712193269790418
 20
-3.430256336096419
 30
0.0
 10
7.860898917398968
 20
-3.382971724853973
 30
0.0
 10
8.009581671161097
 20
-3.335441416200012
 30
0.0
 10
8.10298724858103
 20
-3.305483826263298
 30
0.0
 10
8.203055411987561
 20
-3.273286222003718
 30
0.0
 10
8.303114015008702
 20
-3.24098323119972
 30
0.0
 10
8.309777697535011
 20
-3.238796522362348
 30
0.0
 10
8.323123270198891
 20
-3.234507831895881
 30
0.0
 10
8.336528014597718
 20
-3.230503042392342
 30
0.0
 10
8.343238593227496
 20
-3.228538063754171
 30
0.0
 10
8.349909238891259
 20
-3.226382115505089
 30
0.0
 10
8.356579971823263
 20
-3.224225122363236
 30
0.0
  0
ARC
  5
9E4
330
18
100
AcDbEntity
  8
1
100
AcDbCircle
 10
-0.0238970000036432
 20
-5.969420000000012
 30
0.0
 40
1.291875
100
AcDbArc
 50
21.0245979999994
 51
31.61791500000034
  0
ARC
  5
9E5
330
18
100
AcDbEntity
  8
1
100
AcDbCircle
 10
22.73685699999636
 20
-3.849622000000008
 30
0.0
 40
22.468652
100
AcDbArc
 50
179.2968780000006
 51
182.5013080000008
  0
ARC
  5
9E6
330
18
100
AcDbEntity
  8
1
100
AcDbCircle
 10
-10.91102200000364
 20
-24.81538
 30
0.0
 40
22.909585
100
AcDbArc
 50
58.45006099999911
 51
60.73311499999896
  0
SPLINE
  5
9E7
330
18
100
AcDbEntity
  8
1
100
AcDbSpline
210
0.0
220
0.0
230
1.0
 70
     8
 71
     5
 72
    21
 73
    15
 74
     0
 42
0.000000001
 43
0.0000000001
 40
0.0
 40
0.0
 40
0.0
 40
0.0
 40
0.0
 40
0.0
 40
3.149584631511106
 40
3.149584631511106
 40
3.149584631511106
 40
7.933482024223009
 40
7.933482024223009
 40
7.933482024223009
 40
12.51953139138182
 40
12.51953139138182
 40
12.51953139138182
 40
15.72091701530024
 40
15.72091701530024
 40
15.72091701530024
 40
15.72091701530024
 40
15.72091701530024
 40
15.72091701530024
 10
0.2703005772661697
 20
-3.57388443255837
 30
0.0
 10
0.5816243526924581
 20
-3.482229626927618
 30
0.0
 10
0.9033815111420722
 20
-3.386342206923926
 30
0.0
 10
1.238326490509265
 20
-3.285293068390615
 30
0.0
 10
2.105865284105803
 20
-3.020092936342392
 30
0.0
 10
2.978605465084683
 20
-2.74535075832756
 30
0.0
 10
3.479117745987962
 20
-2.584974174296462
 30
0.0
 10
4.383390928635478
 20
-2.291953726823122
 30
0.0
 10
5.214002909347327
 20
-2.017299737299254
 30
0.0
 10
5.605289482012963
 20
-1.887009380755898
 30
0.0
 10
6.33225153568415
 20
-1.643182503417051
 30
0.0
 10
7.131753165961297
 20
-1.371764857122909
 30
0.0
 10
7.473393382591352
 20
-1.255245750251446
 30
0.0
 10
7.823389514683142
 20
-1.135336609166472
 30
0.0
 10
8.173302166077462
 20
-1.015003525604694
 30
0.0
  0
LINE
  5
9E8
330
18
100
AcDbEntity
  8
1
 48
0.056097
100
AcDbLine
 10
-0.000000000003638
 20
-2.390448999999989
 30
0.0
 11
-0.000000000003638
 21
-0.1465789999999743
 31
0.0
  0
ARC
  5
9E9
330
18
100
AcDbEntity
  8
1
100
AcDbCircle
 10
1.383557999996354
 20
-2.059235000000001
 30
0.0
 40
1.422627
100
AcDbArc
 50
193.4633229999995
 51
199.4686230000007
  0
ARC
  5
9EA
330
18
100
AcDbEntity
  8
1
100
AcDbCircle
 10
-4.257394000003642
 20
-4.015955000000017
 30
0.0
 40
4.548617
100
AcDbArc
 50
5.576209000000782
 51
19.024762000001
  0
ARC
  5
9EB
330
18
100
AcDbEntity
  8
1
100
AcDbCircle
 10
12.22063099999636
 20
37.71594199999999
 30
0.0
 40
38.89565300000001
100
AcDbArc
 50
260.5850200000004
 51
264.0789939999997
  0
SPLINE
  5
9EC
330
18
100
AcDbEntity
  8
1
100
AcDbSpline
210
0.0
220
0.0
230
1.0
 70
     8
 71
     5
 72
    48
 73
    42
 74
     0
 42
0.000000001
 43
0.0000000001
 40
0.0
 40
0.0
 40
0.0
 40
0.0
 40
0.0
 40
0.0
 40
0.187195703644207
 40
0.187195703644207
 40
0.187195703644207
 40
0.3743914072884137
 40
0.3743914072884137
 40
0.3743914072884137
 40
0.5615860346445416
 40
0.5615860346445416
 40
0.5615860346445416
 40
0.7487806620006694
 40
0.7487806620006694
 40
0.7487806620006694
 40
0.9243412374728183
 40
0.9243412374728183
 40
0.9243412374728183
 40
1.099901812944965
 40
1.099901812944965
 40
1.099901812944965
 40
1.45097040722431
 40
1.45097040722431
 40
1.45097040722431
 40
3.242887710595426
 40
3.242887710595426
 40
3.242887710595426
 40
4.938658384513957
 40
4.938658384513957
 40
4.938658384513957
 40
5.29024638220105
 40
5.29024638220105
 40
5.29024638220105
 40
5.463730446779252
 40
5.463730446779252
 40
5.463730446779252
 40
5.984168280286451
 40
5.984168280286451
 40
5.984168280286451
 40
6.859847173830704
 40
6.859847173830704
 40
6.859847173830704
 40
6.859847173830704
 40
6.859847173830704
 40
6.859847173830704
 10
5.857933255309218
 20
-0.6557361454343324
 30
0.0
 10
5.839493624711905
 20
-0.6499073733215825
 30
0.0
 10
5.821432197580223
 20
-0.6438849969085254
 30
0.0
 10
5.803046189988886
 20
-0.6373916596272125
 30
0.0
 10
5.766618169069531
 20
-0.6238891477275388
 30
0.0
 10
5.732128518328735
 20
-0.6097991915889907
 30
0.0
 10
5.715881228012946
 20
-0.6027885765044517
 30
0.0
 10
5.683846162406553
 20
-0.5883101104419099
 30
0.0
 10
5.653231769086289
 20
-0.5730935650647098
 30
0.0
 10
5.638280313087605
 20
-0.5653030440683438
 30
0.0
 10
5.609163019860488
 20
-0.5494090960370386
 30
0.0
 10
5.581606043783565
 20
-0.5328945829984946
 30
0.0
 10
5.568098689137511
 20
-0.5243958522210052
 30
0.0
 10
5.543623707135735
 20
-0.5083512255504276
 30
0.0
 10
5.521084766521766
 20
-0.4921541740915245
 30
0.0
 10
5.510435557135308
 20
-0.4841425194898079
 30
0.0
 10
5.488929327371579
 20
-0.4672913493424744
 30
0.0
 10
5.468390425546374
 20
-0.4497379899514158
 30
0.0
 10
5.458617026067571
 20
-0.4409585288682936
 30
0.0
 10
5.430134804843233
 20
-0.4142033876734672
 30
0.0
 10
5.404747422877972
 20
-0.3866513865519891
 30
0.0
 10
5.389174995064351
 20
-0.3679631129590462
 30
0.0
 10
5.302300440651436
 20
-0.252275966267689
 30
0.0
 10
5.26370958030526
 20
-0.1277632897256922
 30
0.0
 10
5.260931347859838
 20
-0.0220293456000604
 30
0.0
 10
5.299474672472313
 20
0.1818519188532832
 30
0.0
 10
5.407803636791384
 20
0.38031979214594
 30
0.0
 10
5.472464275452878
 20
0.4735845485749337
 30
0.0
 10
5.564119160507573
 20
0.5850210581658644
 30
0.0
 10
5.669384793065942
 20
0.6937239370208204
 30
0.0
 10
5.686887517445454
 20
0.7113195947948725
 30
0.0
 10
5.717199772538973
 20
0.7411283115164338
 30
0.0
 10
5.746625084520442
 20
0.7690400631127547
 30
0.0
 10
5.756184098696067
 20
0.7779914857828203
 30
0.0
 10
5.795070471867047
 20
0.8140363128612762
 30
0.0
 10
5.83525085299638
 20
0.8497377512784396
 30
0.0
 10
5.866081333105807
 20
0.8763246267372435
 30
0.0
 10
5.950532448600029
 20
0.9471168105687295
 30
0.0
 10
6.039461815803079
 20
1.016523090533439
 30
0.0
 10
6.098754918502207
 20
1.060934359941654
 30
0.0
 10
6.157787517222601
 20
1.103470597776492
 30
0.0
 10
6.218002731491522
 20
1.145380698666198
 30
0.0
  0
ARC
  5
9ED
330
18
100
AcDbEntity
  8
1
100
AcDbCircle
 10
12.47747899999636
 20
-8.465552999999998
 30
0.0
 40
11.470458
100
AcDbArc
 50
115.3645409999986
 51
123.0756729999999
  0
SPLINE
  5
9EE
330
18
100
AcDbEntity
  8
1
100
AcDbSpline
210
0.0
220
0.0
230
1.0
 70
     8
 71
     5
 72
    12
 73
     6
 74
     0
 42
0.000000001
 43
0.0000000001
 40
0.0
 40
0.0
 40
0.0
 40
0.0
 40
0.0
 40
0.0
 40
11.17745543588589
 40
11.17745543588589
 40
11.17745543588589
 40
11.17745543588589
 40
11.17745543588589
 40
11.17745543588589
 10
7.564065331169102
 20
1.90016116987033
 30
0.0
 10
6.048939671527718
 20
1.5092800616473
 30
0.0
 10
4.53558503883532
 20
1.103911489466667
 30
0.0
 10
3.023391360234653
 20
0.6893594694994932
 30
0.0
 10
1.511771477171206
 20
0.2708107637961916
 30
0.0
 10
-0.000000000003638
 20
-0.146579191264891
 30
0.0
  0
SPLINE
  5
9EF
330
18
100
AcDbEntity
  8
1
100
AcDbSpline
210
0.0
220
0.0
230
1.0
 70
     8
 71
     5
 72
    15
 73
     9
 74
     0
 42
0.000000001
 43
0.0000000001
 40
0.0
 40
0.0
 40
0.0
 40
0.0
 40
0.0
 40
0.0
 40
0.7551170172421871
 40
0.7551170172421871
 40
0.7551170172421871
 40
1.813787352835086
 40
1.813787352835086
 40
1.813787352835086
 40
1.813787352835086
 40
1.813787352835086
 40
1.813787352835086
 10
8.029999999999503
 20
-0.779531025983431
 30
0.0
 10
7.948737322577755
 20
-0.7796689336987015
 30
0.0
 10
7.871491339144127
 20
-0.764041930376891
 30
0.0
 10
7.80423345709434
 20
-0.7359622706659934
 30
0.0
 10
7.666953661198047
 20
-0.6520290711922601
 30
0.0
 10
7.581397423865822
 20
-0.5356784082630952
 30
0.0
 10
7.547769416197297
 20
-0.4619177713973386
 30
0.0
 10
7.529999999995568
 20
-0.3836867719954284
 30
0.0
 10
7.529999999996361
 20
-0.3032646829909709
 30
0.0
  0
LINE
  5
9F0
330
18
100
AcDbEntity
  8
1
 48
0.002136
100
AcDbLine
 10
7.529999999996361
 20
-0.3032650000000103
 30
0.0
 11
7.529999999996361
 21
-0.2178210000000149
 31
0.0
  0
ARC
  5
9F1
330
18
100
AcDbEntity
  8
1
100
AcDbCircle
 10
-13.60485300000363
 20
77.08944099999995
 30
0.0
 40
80.144207
100
AcDbArc
 50
284.0546039999998
 51
285.2903320000011
  0
SPLINE
  5
9F2
330
18
100
AcDbEntity
  8
1
100
AcDbSpline
210
0.0
220
0.0
230
1.0
 70
     8
 71
     5
 72
    12
 73
     6
 74
     0
 42
0.000000001
 43
0.0000000001
 40
0.0
 40
0.0
 40
0.0
 40
0.0
 40
0.0
 40
0.0
 40
1.554597896375318
 40
1.554597896375318
 40
1.554597896375318
 40
1.554597896375318
 40
1.554597896375318
 40
1.554597896375318
 10
0.2371988778637473
 20
-5.309516938095041
 30
0.0
 10
0.2462847785344877
 20
-5.213051340262722
 30
0.0
 10
0.2576108522264064
 20
-5.117459895897525
 30
0.0
 10
0.2697331628197048
 20
-5.022077240637031
 30
0.0
 10
0.2807590862001632
 20
-4.926400667804273
 30
0.0
 10
0.2889309865396967
 20
-4.83021823747174
 30
0.0
  0
LINE
  5
9F3
330
18
100
AcDbEntity
  8
1
 48
0.000868
100
AcDbLine
 10
-0.000000000003638
 20
-6.142173000000012
 30
0.0
 11
-0.000000000003638
 21
-6.107437000000002
 31
0.0
  0
LINE
  5
9F4
330
18
100
AcDbEntity
  8
1
 48
0.064913
100
AcDbLine
 10
-0.000000000003638
 20
-4.986982000000011
 30
0.0
 11
-0.000000000003638
 21
-2.390448999999989
 31
0.0
  0
LINE
  5
9F5
330
18
100
AcDbEntity
  8
1
 48
0.000765
100
AcDbLine
 10
-0.000000000003638
 20
-0.1464290000000119
 30
0.0
 11
-0.000000000003638
 21
-0.1158369999999991
 31
0.0
  0
LINE
  5
9F6
102
{ACAD_REACTORS
330
AC8
102
}
330
18
100
AcDbEntity
  8
1
 48
0.020853
100
AcDbLine
 10
-0.0000000000764402
 20
0.7182690000000207
 30
0.0
 11
-0.0000000000764402
 21
-0.1158369999999991
 31
0.0
  0
LINE
  5
9F7
330
18
100
AcDbEntity
  8
1
 48
0.037952
100
AcDbLine
 10
-0.000000000003638
 20
0.7182690000000207
 30
0.0
 11
-0.000000000003638
 21
2.236356999999995
 31
0.0
  0
LINE
  5
9F8
330
18
100
AcDbEntity
  8
1
 48
0.027939
100
AcDbLine
 10
-0.000000000003638
 20
2.236356999999995
 30
0.0
 11
-0.000000000003638
 21
3.353903000000001
 31
0.0
  0
LINE
  5
9F9
330
18
100
AcDbEntity
  8
1
 48
0.024172
100
AcDbLine
 10
-0.000000000003638
 20
3.353903000000001
 30
0.0
 11
-0.000000000003638
 21
4.320803000000012
 31
0.0
  0
LINE
  5
9FA
330
18
100
AcDbEntity
  8
1
 48
0.000297
100
AcDbLine
 10
-0.000000000003638
 20
4.320809999999993
 30
0.0
 11
-0.000000000003638
 21
4.332672000000001
 31
0.0
  0
LINE
  5
9FB
330
18
100
AcDbEntity
  8
1
 48
0.028153
100
AcDbLine
 10
-0.000000000003638
 20
5.458803999999986
 30
0.0
 11
-0.000000000003638
 21
4.332672000000001
 31
0.0
  0
LINE
  5
9FC
330
18
100
AcDbEntity
  8
1
 48
0.017084
100
AcDbLine
 10
-0.000000000003638
 20
5.458803999999986
 30
0.0
 11
-0.000000000003638
 21
6.142173000000012
 31
0.0
  0
LINE
  5
9FD
330
18
100
AcDbEntity
  8
1
 48
0.06244
100
AcDbLine
 10
0.0422949999963578
 20
-5.030957999999998
 30
0.0
 11
0.0422949999963578
 21
-2.53337399999998
 31
0.0
  0
ARC
  5
9FE
330
18
100
AcDbEntity
  8
1
100
AcDbCircle
 10
8.026852999996361
 20
0.6097459999999728
 30
0.0
 40
0.497173
100
AcDbArc
 50
89.63760499999985
 51
179.7667270000001
  0
LINE
  5
9FF
330
18
100
AcDbEntity
  8
1
 48
0.01425
100
AcDbLine
 10
8.029999999996361
 20
1.107311999999978
 30
0.0
 11
8.599999999996356
 21
1.107311999999978
 31
0.0
  0
LINE
  5
A00
330
18
100
AcDbEntity
  8
1
 48
0.054155
100
AcDbLine
 10
9.341546999996367
 20
-5.710320000000024
 30
0.0
 11
9.341546999996367
 21
-3.544119000000023
 31
0.0
  0
LINE
  5
A01
330
18
100
AcDbEntity
  8
1
 48
0.003752
100
AcDbLine
 10
9.228997999996368
 20
-3.444842999999991
 30
0.0
 11
9.341547999996363
 21
-3.54412000000002
 31
0.0
  0
ARC
  5
A02
330
18
100
AcDbEntity
  8
1
100
AcDbCircle
 10
8.956337999996362
 20
-4.166454999999984
 30
0.0
 40
0.771413
100
AcDbArc
 50
69.30102300000005
 51
81.17821600000015
  0
LINE
  5
A03
330
18
100
AcDbEntity
  8
1
 48
0.008602
100
AcDbLine
 10
8.734694999996362
 20
-3.351121999999973
 30
0.0
 11
9.074643999996368
 21
-3.404161999999985
 31
0.0
  0
LINE
  5
A04
330
18
100
AcDbEntity
  8
1
 48
0.000498
100
AcDbLine
 10
8.734694999996362
 20
-3.351121999999973
 30
0.0
 11
8.715213999996365
 21
-3.34697299999999
 31
0.0
  0
LINE
  5
A05
330
18
100
AcDbEntity
  8
1
 48
0.006302
100
AcDbLine
 10
9.106330999996359
 20
-5.800972000000001
 30
0.0
 11
9.341547999996363
 21
-5.710320000000024
 31
0.0
  0
ARC
  5
A06
330
18
100
AcDbEntity
  8
1
100
AcDbCircle
 10
9.518613999996359
 20
-6.141457000000002
 30
0.0
 40
0.462886
100
AcDbArc
 50
88.58923699999996
 51
107.7139639999995
  0
LINE
  5
A07
330
18
100
AcDbEntity
  8
1
 48
0.000938
100
AcDbLine
 10
9.341546999996367
 20
-5.710320000000024
 30
0.0
 11
9.377645999996355
 21
-5.700115999999977
 31
0.0
  0
ARC
  5
A08
330
18
100
AcDbEntity
  8
1
100
AcDbCircle
 10
6.333643999996367
 20
-7.229353000000002
 30
0.0
 40
2.035267999999998
100
AcDbArc
 50
6.47417500000049
 51
26.86879300000022
  0
LINE
  5
A09
330
18
100
AcDbEntity
  8
1
 48
0.000121
100
AcDbLine
 10
8.356415999996356
 20
-6.999812000000019
 30
0.0
 11
8.361252999996366
 21
-6.999777999999992
 31
0.0
  0
ARC
  5
A0A
330
18
100
AcDbEntity
  8
1
100
AcDbCircle
 10
-20.56981500000365
 20
55.55270099999995
 30
0.0
 40
68.91893899999999
100
AcDbArc
 50
294.8209539999989
 51
295.8962090000016
  0
LINE
  5
A0B
330
18
100
AcDbEntity
  8
1
 48
0.019168
100
AcDbLine
 10
9.530000999996355
 20
-5.679139000000017
 30
0.0
 11
9.529999999996363
 21
-6.445861999999975
 31
0.0
  0
ARC
  5
A0C
330
18
100
AcDbEntity
  8
1
100
AcDbCircle
 10
8.532631999996366
 20
46.91239699999999
 30
0.0
 40
53.91277500000001
100
AcDbArc
 50
263.9057530000003
 51
269.8129
  0
LINE
  5
A0D
330
18
100
AcDbEntity
  8
1
 48
0.00057
100
AcDbLine
 10
0.0422949999963578
 20
-6.207303000000022
 30
0.0
 11
0.0422949999963578
 21
-6.184499000000016
 31
0.0
  0
LINE
  5
A0E
330
18
100
AcDbEntity
  8
1
 48
0.002886
100
AcDbLine
 10
7.564054999996357
 20
1.900042999999979
 30
0.0
 11
7.666977999996361
 21
1.952295999999988
 31
0.0
  0
SPLINE
  5
A0F
330
18
100
AcDbEntity
  8
1
100
AcDbSpline
210
0.0
220
0.0
230
1.0
 70
     8
 71
     5
 72
    12
 73
     6
 74
     0
 42
0.000000001
 43
0.0000000001
 40
0.0
 40
0.0
 40
0.0
 40
0.0
 40
0.0
 40
0.0
 40
11.24044400921712
 40
11.24044400921712
 40
11.24044400921712
 40
11.24044400921712
 40
11.24044400921712
 40
11.24044400921712
 10
7.666977858634637
 20
1.952295796039948
 30
0.0
 10
6.131094825766052
 20
1.558300327874178
 30
0.0
 10
4.597079808365093
 20
1.149182866081102
 30
0.0
 10
3.064319323937851
 20
0.7302242344298408
 30
0.0
 10
1.532218482061608
 20
0.3067505118798977
 30
0.0
 10
-0.000000000003638
 20
-0.1158374402959339
 30
0.0
  0
ARC
  5
A10
330
18
100
AcDbEntity
  8
1
100
AcDbCircle
 10
-14.58592300000364
 20
82.23831400000007
 30
0.0
 40
83.28959899999999
100
AcDbArc
 50
285.5624779999986
 51
286.8305979999996
  0
LINE
  5
A11
330
18
100
AcDbEntity
  8
1
 48
0.002634
100
AcDbLine
 10
7.759759999996362
 20
2.002246000000013
 30
0.0
 11
7.666977999996361
 21
1.952295999999988
 31
0.0
  0
ARC
  5
A12
330
18
100
AcDbEntity
  8
1
100
AcDbCircle
 10
-14.28725900000364
 20
80.71301600000003
 30
0.0
 40
82.167294
100
AcDbArc
 50
284.4511770000011
 51
286.8497450000004
  0
LINE
  5
A13
330
18
100
AcDbEntity
  8
1
 48
0.011079
100
AcDbLine
 10
9.529997940390613
 20
2.073276587538198
 30
0.0
 11
9.529997940390613
 21
2.516424587538207
 31
0.0
  0
LINE
  5
A14
330
18
100
AcDbEntity
  8
1
 48
0.022271
100
AcDbLine
 10
7.529999999996361
 20
0.6730000000000019
 30
0.0
 11
7.529999999996361
 21
-0.2178210000000149
 31
0.0
  0
ARC
  5
A15
330
18
100
AcDbEntity
  8
1
100
AcDbCircle
 10
8.022409999996368
 20
0.6718109999999911
 30
0.0
 40
0.4925800000000001
100
AcDbArc
 50
89.11756500000022
 51
179.8616279999992
  0
LINE
  5
A16
330
18
100
AcDbEntity
  8
1
 48
0.03279
100
AcDbLine
 10
9.341547999996363
 20
1.152792999999971
 30
0.0
 11
8.029999999996361
 21
1.164581999999995
 31
0.0
  0
LINE
  5
A17
330
18
100
AcDbEntity
  8
1
 48
0.000932
100
AcDbLine
 10
9.377645999996355
 20
1.162094000000024
 30
0.0
 11
9.341546999996367
 21
1.152792999999971
 31
0.0
  0
ARC
  5
A18
330
18
100
AcDbEntity
  8
1
100
AcDbCircle
 10
9.303854999996355
 20
1.450197000000002
 30
0.0
 40
0.297385
100
AcDbArc
 50
284.3660759999989
 51
319.5072349999982
  0
LINE
  5
A19
330
18
100
AcDbEntity
  8
1
 48
0.020404
100
AcDbLine
 10
9.529999999996363
 20
1.257100999999977
 30
0.0
 11
9.529999999996363
 21
2.073270999999973
 31
0.0
  0
LINE
  5
A1A
330
18
100
AcDbEntity
  8
1
 48
0.004432
100
AcDbLine
 10
9.529999999996363
 20
2.831059999999978
 30
0.0
 11
9.529999999996363
 21
3.008332999999993
 31
0.0
  0
ARC
  5
A1B
330
18
100
AcDbEntity
  8
1
100
AcDbCircle
 10
-1.06713100000364
 20
7.056841000000019
 30
0.0
 40
1.396373999999999
100
AcDbArc
 50
328.0560590000014
 51
343.1330290000017
  0
ARC
  5
A1C
330
18
100
AcDbEntity
  8
1
100
AcDbCircle
 10
2.354815999996358
 20
-48.83183500000001
 30
0.0
 40
55.522774
100
AcDbArc
 50
89.59251099999985
 51
92.15299999999992
  0
ARC
  5
A1D
330
18
100
AcDbEntity
  8
1
100
AcDbCircle
 10
0.4587519999963662
 20
5.205754000000012
 30
0.0
 40
0.523922
100
AcDbArc
 50
142.6438469999986
 51
151.1182249999994
  0
LINE
  5
A1E
330
18
100
AcDbEntity
  8
1
 48
0.017091
100
AcDbLine
 10
0.0422949999963578
 20
5.523655000000019
 30
0.0
 11
0.0422949999963578
 21
6.207303000000022
 31
0.0
  0
ARC
  5
A1F
330
18
100
AcDbEntity
  8
1
100
AcDbCircle
 10
-1.051324000003631
 20
6.372113000000013
 30
0.0
 40
1.383929
100
AcDbArc
 50
322.1947650000017
 51
338.6275430000015
  0
LINE
  5
A20
330
18
100
AcDbEntity
  8
1
 48
0.002167
100
AcDbLine
 10
7.666977999996361
 20
5.18167199999999
 30
0.0
 11
7.580467999996357
 21
5.176488000000006
 31
0.0
  0
ARC
  5
A21
330
18
100
AcDbEntity
  8
1
100
AcDbCircle
 10
12.57900999999636
 20
-73.87342199999998
 30
0.0
 40
79.210664
100
AcDbArc
 50
94.46978300000015
 51
99.13744200000024
  0
LINE
  5
A22
330
18
100
AcDbEntity
  8
1
 48
0.002328
100
AcDbLine
 10
7.759759999996362
 20
5.189658000000005
 30
0.0
 11
7.666977999996361
 21
5.18167199999999
 31
0.0
  0
ARC
  5
A23
330
18
100
AcDbEntity
  8
1
100
AcDbCircle
 10
6.866910999996362
 20
15.53176999999999
 30
0.0
 40
10.380338
100
AcDbArc
 50
274.9341919999995
 51
284.8658729999987
  0
LINE
  5
A24
330
18
100
AcDbEntity
  8
1
 48
0.004137
100
AcDbLine
 10
9.529943999996362
 20
5.498925999999983
 30
0.0
 11
9.530021999996362
 21
5.664420000000006
 31
0.0
  0
LINE
  5
A25
330
18
100
AcDbEntity
  8
1
 48
0.020504
100
AcDbLine
 10
9.530021999996362
 20
5.664420000000006
 30
0.0
 11
9.529934999996351
 21
6.484587999999972
 31
0.0
  0
ARC
  5
A26
330
18
100
AcDbEntity
  8
1
100
AcDbCircle
 10
-20.75069600000364
 20
-56.42216600000001
 30
0.0
 40
69.815207
100
AcDbArc
 50
64.29581800000143
 51
65.26795499999926
  0
ARC
  5
A27
330
18
100
AcDbEntity
  8
1
100
AcDbCircle
 10
9.651196999996356
 20
-48.30344500000001
 30
0.0
 40
55.305949
100
AcDbArc
 50
91.23602999999985
 51
98.80849099999998
  0
ARC
  5
A28
330
18
100
AcDbEntity
  8
1
100
AcDbCircle
 10
29.89759599999636
 20
-50.95311099999998
 30
0.0
 40
64.09644899999999
100
AcDbArc
 50
116.615893999998
 51
117.564428000001
  0
LINE
  5
A29
330
18
100
AcDbEntity
  8
1
 48
0.000368
100
AcDbLine
 10
6.044175999996367
 20
5.064847999999983
 30
0.0
 11
6.029517999996357
 21
5.063620000000011
 31
0.0
  0
ARC
  5
A2A
330
18
100
AcDbEntity
  8
1
100
AcDbCircle
 10
12.87678099999635
 20
-75.26321799999998
 30
0.0
 40
80.61857899999997
100
AcDbArc
 50
94.87225899999964
 51
99.19086799999957
  0
LINE
  5
A2B
330
18
100
AcDbEntity
  8
1
 48
0.001455
100
AcDbLine
 10
7.564054999996357
 20
5.175640999999983
 30
0.0
 11
7.622179999996361
 21
5.178521999999983
 31
0.0
  0
LINE
  5
A2C
330
18
100
AcDbEntity
  8
1
 48
0.001123
100
AcDbLine
 10
7.622179999996361
 20
5.178521999999983
 30
0.0
 11
7.666977999996361
 21
5.18167199999999
 31
0.0
  0
ARC
  5
A2D
330
18
100
AcDbEntity
  8
1
100
AcDbCircle
 10
0.4495339999963619
 20
3.567192999999971
 30
0.0
 40
0.4975590000000001
100
AcDbArc
 50
205.3835880000017
 51
215.0656580000004
  0
ARC
  5
A2E
330
18
100
AcDbEntity
  8
1
100
AcDbCircle
 10
-1.134289000003632
 20
2.490212999999982
 30
0.0
 40
1.418503
100
AcDbArc
 50
8.728333000000747
 51
33.91681500000011
  0
SPLINE
  5
A2F
330
18
100
AcDbEntity
  8
1
100
AcDbSpline
210
0.0
220
0.0
230
1.0
 70
     8
 71
     5
 72
    18
 73
    12
 74
     0
 42
0.000000001
 43
0.0000000001
 40
0.0
 40
0.0
 40
0.0
 40
0.0
 40
0.0
 40
0.0
 40
8.700774311004089
 40
8.700774311004089
 40
8.700774311004089
 40
13.76328590503159
 40
13.76328590503159
 40
13.76328590503159
 40
14.41666698543444
 40
14.41666698543444
 40
14.41666698543444
 40
14.41666698543444
 40
14.41666698543444
 40
14.41666698543444
 10
0.268627458757706
 20
2.705618843745014
 30
0.0
 10
1.221977117718807
 20
3.008903927195035
 30
0.0
 10
2.17610316011715
 20
3.304171631640142
 30
0.0
 10
3.136310229453428
 20
3.591723947106459
 30
0.0
 10
4.647821251931643
 20
4.026043441719024
 30
0.0
 10
6.163079275410638
 20
4.428328998035339
 30
0.0
 10
6.720992320211436
 20
4.571766040766704
 30
0.0
 10
7.351279445966357
 20
4.728360630192867
 30
0.0
 10
7.981922515481045
 20
4.87863088141529
 30
0.0
 10
8.090713426419242
 20
4.90439381777571
 30
0.0
 10
8.162926328225976
 20
4.921404144558039
 30
0.0
 10
8.235025116397622
 20
4.938294965785245
 30
0.0
  0
LINE
  5
A30
330
18
100
AcDbEntity
  8
1
 48
0.000068
100
AcDbLine
 10
8.237415999996356
 20
4.939556999999978
 30
0.0
 11
8.235024999996369
 21
4.938294999999981
 31
0.0
  0
ARC
  5
A31
330
18
100
AcDbEntity
  8
1
100
AcDbCircle
 10
1.473823999996369
 20
65.87913400000002
 30
0.0
 40
61.31375699999999
100
AcDbArc
 50
274.1003119999999
 51
276.3332520000001
  0
ARC
  5
A32
330
18
100
AcDbEntity
  8
1
100
AcDbCircle
 10
5.728995999996357
 20
7.039965999999991
 30
0.0
 40
2.320497
100
AcDbArc
 50
261.9030830000012
 51
273.1842560000004
  0
SPLINE
  5
A33
330
18
100
AcDbEntity
  8
1
100
AcDbSpline
210
0.0
220
0.0
230
1.0
 70
     8
 71
     5
 72
    27
 73
    21
 74
     0
 42
0.000000001
 43
0.0000000001
 40
0.0
 40
0.0
 40
0.0
 40
0.0
 40
0.0
 40
0.0
 40
1.750638003229678
 40
1.750638003229678
 40
1.750638003229678
 40
3.34829164057752
 40
3.34829164057752
 40
3.34829164057752
 40
3.619811308231076
 40
3.619811308231076
 40
3.619811308231076
 40
3.891330975884631
 40
3.891330975884631
 40
3.891330975884631
 40
4.40398134172641
 40
4.40398134172641
 40
4.40398134172641
 40
5.345201137612728
 40
5.345201137612728
 40
5.345201137612728
 40
5.345201137612728
 40
5.345201137612728
 40
5.345201137612728
 10
5.402266392456937
 20
4.743356342874278
 30
0.0
 10
5.32018201674461
 20
4.758910471798799
 30
0.0
 10
5.273567097088601
 20
4.779727948954755
 30
0.0
 10
5.25974052276004
 20
4.803207191619094
 30
0.0
 10
5.281532863734867
 20
4.84970477693059
 30
0.0
 10
5.377771059089496
 20
4.896391116415427
 30
0.0
 10
5.437115088584164
 20
4.91816677532995
 30
0.0
 10
5.519007300377636
 20
4.942599218121528
 30
0.0
 10
5.613288078608347
 20
4.965735101080553
 30
0.0
 10
5.627203472163386
 20
4.969059145045718
 30
0.0
 10
5.655293577111803
 20
4.975606475081346
 30
0.0
 10
5.686542082633835
 20
4.98251341405313
 30
0.0
 10
5.703073445565905
 20
4.986072877679077
 30
0.0
 10
5.749640747496329
 20
4.995843647639617
 30
0.0
 10
5.793634863278497
 20
5.004418488100442
 30
0.0
 10
5.836048870840213
 20
5.012350026470584
 30
0.0
 10
5.925408019549537
 20
5.028241438455438
 30
0.0
 10
6.019982005646127
 20
5.043242370716027
 30
0.0
 10
6.086208642009452
 20
5.053012839541281
 30
0.0
 10
6.151412675520417
 20
5.061968839634686
 30
0.0
 10
6.218002731491522
 20
5.070516310138372
 30
0.0
  0
ARC
  5
A34
330
18
100
AcDbEntity
  8
1
100
AcDbCircle
 10
7.807630999996361
 20
-7.566949000000022
 30
0.0
 40
12.737074
100
AcDbArc
 50
95.09487699999956
 51
97.1694059999997
  0
ARC
  5
A35
330
18
100
AcDbEntity
  8
1
100
AcDbCircle
 10
8.23592899999636
 20
-12.51122800000002
 30
0.0
 40
17.699949
100
AcDbArc
 50
92.17748399999974
 51
95.05450399999979
  0
LINE
  5
A36
330
18
100
AcDbEntity
  8
1
 48
0.025532
100
AcDbLine
 10
0.0422949999963578
 20
2.260068999999985
 30
0.0
 11
0.0422949999963578
 21
3.281344999999987
 31
0.0
  0
LINE
  5
A37
330
18
100
AcDbEntity
  8
1
 48
0.001201
100
AcDbLine
 10
-0.000000000003638
 20
0.7182700000000182
 30
0.0
 11
0.0422949999963578
 21
0.7410090000000196
 31
0.0
  0
LINE
  5
A38
330
18
100
AcDbEntity
  8
1
 48
0.037977
100
AcDbLine
 10
0.0422949999963578
 20
0.7410090000000196
 30
0.0
 11
0.0422949999963578
 21
2.260068999999985
 31
0.0
  0
LINE
  5
A39
330
18
100
AcDbEntity
  8
1
 48
0.000927
100
AcDbLine
 10
0.2372119999963615
 20
0.8197420000000191
 30
0.0
 11
0.2015459999963696
 21
0.8095609999999735
 31
0.0
  0
ARC
  5
A3A
330
18
100
AcDbEntity
  8
1
100
AcDbCircle
 10
0.6967359999963634
 20
-0.5523689999999988
 30
0.0
 40
1.449333
100
AcDbArc
 50
109.9809809999988
 51
116.839113999999
  0
ARC
  5
A3B
330
18
100
AcDbEntity
  8
1
100
AcDbCircle
 10
-12.57030900000363
 20
40.75690300000002
 30
0.0
 40
43.76383599999999
100
AcDbArc
 50
297.6807799999986
 51
300.3302640000019
  0
LINE
  5
A3C
330
18
100
AcDbEntity
  8
1
 48
0.01834
100
AcDbLine
 10
9.529999999996363
 20
2.982574999999997
 30
0.0
 11
9.529999999996363
 21
3.716184999999995
 31
0.0
  0
ARC
  5
A3D
330
18
100
AcDbEntity
  8
1
100
AcDbCircle
 10
9.99295299999636
 20
-4.510598000000014
 30
0.0
 40
8.240057
100
AcDbArc
 50
93.22124700000003
 51
100.7340760000002
  0
ARC
  5
A3E
330
18
100
AcDbEntity
  8
1
100
AcDbCircle
 10
97.11209299999637
 20
-265.428097
 30
0.0
 40
283.276754
100
AcDbArc
 50
109.2503740000013
 51
109.7943120000003
  0
ARC
  5
A3F
330
18
100
AcDbEntity
  8
1
100
AcDbCircle
 10
54.29229899999636
 20
-142.184613
 30
0.0
 40
152.806307
100
AcDbArc
 50
107.4545919999997
 51
109.3281319999984
  0
ARC
  5
A40
330
18
100
AcDbEntity
  8
1
100
AcDbCircle
 10
13.41142199999636
 20
-40.19685500000004
 30
0.0
 40
43.08032599999999
100
AcDbArc
 50
106.4917009999997
 51
107.8066109999997
  0
ARC
  5
A41
330
18
100
AcDbEntity
  8
1
100
AcDbCircle
 10
-20.75069600000364
 20
56.42216599999994
 30
0.0
 40
69.815207
100
AcDbArc
 50
294.7320450000007
 51
295.7041819999986
  0
LINE
  5
A42
330
18
100
AcDbEntity
  8
SK1
 48
0.141263
100
AcDbLine
 10
-0.2842990000036423
 20
-4.142323999999971
 30
0.0
 11
-0.2842990000036423
 21
1.508214000000009
 31
0.0
  0
LINE
  5
A43
330
18
100
AcDbEntity
  8
SK1
 48
0.065853
100
AcDbLine
 10
-0.2842990000036423
 20
1.508214000000009
 30
0.0
 11
-0.2842990000036423
 21
4.142323999999971
 31
0.0
  0
LINE
  5
A44
330
18
100
AcDbEntity
  8
1
 48
0.005398
100
AcDbLine
 10
8.599999999996356
 20
0.8914700000000266
 30
0.0
 11
8.599999999996356
 21
1.10738500000002
 31
0.0
  0
LINE
  5
A45
330
18
100
AcDbEntity
  8
1
 48
0.01425
100
AcDbLine
 10
8.029999999996361
 20
0.8914700000000266
 30
0.0
 11
8.599999999996356
 21
0.8914700000000266
 31
0.0
  0
ARC
  5
A46
330
18
100
AcDbEntity
  8
1
100
AcDbCircle
 10
8.032812999996366
 20
0.3892860000000269
 30
0.0
 40
0.5025460000000001
100
AcDbArc
 50
90.32096799999999
 51
180.1895330000005
  0
LINE
  5
A47
330
18
100
AcDbEntity
  8
1
 48
0.00873
100
AcDbLine
 10
9.341546999996367
 20
-3.194934999999986
 30
0.0
 11
9.341546999996367
 21
-3.544119000000023
 31
0.0
  0
LINE
  5
A48
330
18
100
AcDbEntity
  8
1
 48
0.001432
100
AcDbLine
 10
8.029999999996361
 20
1.107311999999978
 30
0.0
 11
8.029999999996361
 21
1.164581999999995
 31
0.0
  0
LINE
  5
A49
330
18
100
AcDbEntity
  8
1
 48
0.000058
100
AcDbLine
 10
8.599999999996356
 20
1.107311999999978
 30
0.0
 11
8.599999999996356
 21
1.109627999999985
 31
0.0
  0
ARC
  5
A4A
330
18
100
AcDbEntity
  8
1
100
AcDbCircle
 10
8.699838999996357
 20
0.1334979999999746
 30
0.0
 40
0.981892
100
AcDbArc
 50
87.96712900000006
 51
95.83994499999972
  0
LINE
  5
A4B
330
18
100
AcDbEntity
  8
1
 48
0.008499
100
AcDbLine
 10
8.734694999996362
 20
1.115491000000019
 30
0.0
 11
9.074643999996368
 21
1.11767400000002
 31
0.0
  0
LINE
  5
A4C
330
18
100
AcDbEntity
  8
1
 48
0.003859
100
AcDbLine
 10
9.074643999996368
 20
1.11767400000002
 30
0.0
 11
9.228997999996368
 21
1.119348000000002
 31
0.0
  0
LINE
  5
A4D
330
18
100
AcDbEntity
  8
1
 48
0.002816
100
AcDbLine
 10
9.228997999996368
 20
1.119348000000002
 30
0.0
 11
9.341547999996363
 21
1.123432999999977
 31
0.0
  0
LINE
  5
A4E
330
18
100
AcDbEntity
  8
1
 48
0.000734
100
AcDbLine
 10
9.341546999996367
 20
1.152792999999971
 30
0.0
 11
9.341546999996367
 21
1.123432999999977
 31
0.0
  0
LINE
  5
A4F
330
18
100
AcDbEntity
  8
1
 48
0.053034
100
AcDbLine
 10
9.377645999996355
 20
-3.578738999999984
 30
0.0
 11
9.377645999996355
 21
-5.700115999999977
 31
0.0
  0
LINE
  5
A50
330
18
100
AcDbEntity
  8
1
 48
0.00125
100
AcDbLine
 10
9.341546999996367
 20
-3.544119000000023
 30
0.0
 11
9.377645999996355
 21
-3.578738999999984
 31
0.0
  0
ARC
  5
A51
330
18
100
AcDbEntity
  8
1
100
AcDbCircle
 10
8.046063999996361
 20
-4.985175000000026
 30
0.0
 40
1.936692999999999
100
AcDbArc
 50
39.98011599999786
 51
46.56600700000026
  0
LINE
  5
A52
330
18
100
AcDbEntity
  8
1
 48
0.000968
100
AcDbLine
 10
9.529999999996363
 20
-6.445861999999975
 30
0.0
 11
9.529999999996363
 21
-6.484567000000025
 31
0.0
  0
LINE
  5
A53
330
18
100
AcDbEntity
  8
1
 48
0.048456
100
AcDbLine
 10
9.529999999996363
 20
-5.679139000000017
 30
0.0
 11
9.529999999996363
 21
-3.740881999999998
 31
0.0
  0
ARC
  5
A54
330
18
100
AcDbEntity
  8
1
100
AcDbCircle
 10
8.307650999996369
 20
-6.078146000000002
 30
0.0
 40
0.923272
100
AcDbArc
 50
273.3285490000003
 51
279.3823550000003
  0
LINE
  5
A55
330
18
100
AcDbEntity
  8
1
 48
0.021325
100
AcDbLine
 10
9.529999999996363
 20
4.763918999999987
 30
0.0
 11
9.529999999996363
 21
3.910915999999986
 31
0.0
  0
LINE
  5
A56
330
18
100
AcDbEntity
  8
1
 48
0.004868
100
AcDbLine
 10
9.529999999996363
 20
3.910915999999986
 30
0.0
 11
9.529999999996363
 21
3.716184999999995
 31
0.0
  0
LINE
  5
A57
330
18
100
AcDbEntity
  8
1
 48
0.011654
100
AcDbLine
 10
9.529997940390613
 20
2.516424587538207
 30
0.0
 11
9.529997940390613
 21
2.982580587538218
 31
0.0
  0
LINE
  5
A58
330
18
100
AcDbEntity
  8
1
 48
0.000528
100
AcDbLine
 10
9.529999999996363
 20
1.257100999999977
 30
0.0
 11
9.529999999996363
 21
1.235972
 31
0.0
  0
LINE
  5
A59
330
18
100
AcDbEntity
  8
1
 48
0.000695
100
AcDbLine
 10
9.377645999996355
 20
1.134314000000017
 30
0.0
 11
9.377645999996355
 21
1.162094000000024
 31
0.0
  0
ARC
  5
A5A
330
18
100
AcDbEntity
  8
1
100
AcDbCircle
 10
9.286331999996363
 20
1.436128999999993
 30
0.0
 40
0.315334
100
AcDbArc
 50
286.8331570000007
 51
320.5992259999986
  0
LINE
  5
A5B
330
18
100
AcDbEntity
  8
1
 48
0.000943
100
AcDbLine
 10
9.341546999996367
 20
1.123432999999977
 30
0.0
 11
9.377645999996355
 21
1.134314000000017
 31
0.0
  0
LINE
  5
A5C
330
18
100
AcDbEntity
  8
1
 48
0.013474
100
AcDbLine
 10
9.529999999996363
 20
2.567813999999998
 30
0.0
 11
9.529999999996363
 21
3.106790999999986
 31
0.0
  0
LINE
  5
A5D
330
18
100
AcDbEntity
  8
1
 48
0.039787
100
AcDbLine
 10
9.529999999996363
 20
0.9763520000000196
 30
0.0
 11
9.529999999996363
 21
2.567813999999998
 31
0.0
  0
LINE
  5
A5E
330
18
100
AcDbEntity
  8
1
 48
0.001414
100
AcDbLine
 10
9.529999999996363
 20
0.9763520000000196
 30
0.0
 11
9.529999999996363
 21
0.9198069999999916
 31
0.0
  0
LINE
  5
A5F
330
18
100
AcDbEntity
  8
1
 48
0.001445
100
AcDbLine
 10
9.529994999996359
 20
2.788338000000009
 30
0.0
 11
9.529999999996363
 21
2.846157000000004
 31
0.0
  0
LINE
  5
A60
330
18
100
AcDbEntity
  8
1
 48
0.008126
100
AcDbLine
 10
9.529999999996363
 20
2.463295000000015
 30
0.0
 11
9.529999999996363
 21
2.788335000000017
 31
0.0
  0
LINE
  5
A61
330
18
100
AcDbEntity
  8
1
 48
0.00717
100
AcDbLine
 10
9.529999999996363
 20
2.176507000000015
 30
0.0
 11
9.529999999996363
 21
2.463295000000015
 31
0.0
  0
LINE
  5
A62
330
18
100
AcDbEntity
  8
1
 48
0.001543
100
AcDbLine
 10
9.529999999996363
 20
2.176507000000015
 30
0.0
 11
9.529999999996363
 21
2.114776000000003
 31
0.0
  0
LINE
  5
A63
330
18
100
AcDbEntity
  8
1
 48
0.000121
100
AcDbLine
 10
8.356415999996356
 20
6.999812000000019
 30
0.0
 11
8.361251999996369
 21
6.999777999999992
 31
0.0
  0
ARC
  5
A64
330
18
100
AcDbEntity
  8
1
100
AcDbCircle
 10
0.8673939999963662
 20
6.618266000000001
 30
0.0
 40
0.599516
100
AcDbArc
 50
176.766941
 51
195.3575510000008
  0
ARC
  5
A65
330
18
100
AcDbEntity
  8
1
100
AcDbCircle
 10
0.3626899999963626
 20
16.31022100000001
 30
0.0
 40
9.851072
100
AcDbArc
 50
269.5710620000002
 51
274.1539509999996
  0
ARC
  5
A66
330
18
100
AcDbEntity
  8
1
100
AcDbCircle
 10
8.917240999996367
 20
-50.71487600000001
 30
0.0
 40
57.734832
100
AcDbArc
 50
96.55912299999988
 51
97.80546600000022
  0
ARC
  5
A67
330
18
100
AcDbEntity
  8
1
100
AcDbCircle
 10
8.539253999996361
 20
-47.06138900000001
 30
0.0
 40
54.061851
100
AcDbArc
 50
90.19360300000039
 51
96.60344300000012
  0
SPLINE
  5
A68
330
18
100
AcDbEntity
  8
1
100
AcDbSpline
210
0.0
220
0.0
230
1.0
 70
     8
 71
     5
 72
    12
 73
     6
 74
     0
 42
0.000000001
 43
0.0000000001
 40
0.0
 40
0.0
 40
0.0
 40
0.0
 40
0.0
 40
0.0
 40
1.592827854193999
 40
1.592827854193999
 40
1.592827854193999
 40
1.592827854193999
 40
1.592827854193999
 40
1.592827854193999
 10
0.2371988778637473
 20
5.867755329444602
 30
0.0
 10
0.2463203071371822
 20
5.983660739658033
 30
0.0
 10
0.2576703631465165
 20
6.101253695380191
 30
0.0
 10
0.2697706764372327
 20
6.220095395086616
 30
0.0
 10
0.2807723627433773
 20
6.339625453735436
 30
0.0
 10
0.2889309865396967
 20
6.459408266630759
 30
0.0
  0
ARC
  5
A69
330
18
100
AcDbEntity
  8
1
100
AcDbCircle
 10
0.6976389999963573
 20
6.077200000000002
 30
0.0
 40
0.556426
100
AcDbArc
 50
29.48963000000041
 51
47.12719199999794
  0
ARC
  5
A6A
330
18
100
AcDbEntity
  8
1
100
AcDbCircle
 10
8.307650999996369
 20
6.078149999999991
 30
0.0
 40
0.9232689999999999
100
AcDbArc
 50
80.61763700000081
 51
86.67148299999999
  0
LINE
  5
A6B
330
18
100
AcDbEntity
  8
1
 48
0.00159
100
AcDbLine
 10
9.529999999996363
 20
3.740881999999998
 30
0.0
 11
9.529999999996363
 21
3.804467999999985
 31
0.0
  0
LINE
  5
A6C
330
18
100
AcDbEntity
  8
1
 48
0.014029
100
AcDbLine
 10
9.529999999996363
 20
4.364943999999978
 30
0.0
 11
9.529999999996363
 21
3.803786
 31
0.0
  0
LINE
  5
A6D
330
18
100
AcDbEntity
  8
1
 48
0.00715
100
AcDbLine
 10
9.529999999996363
 20
4.364943999999978
 30
0.0
 11
9.529999999996363
 21
4.650935000000004
 31
0.0
  0
LINE
  5
A6E
330
18
100
AcDbEntity
  8
1
 48
0.007615
100
AcDbLine
 10
9.529999999996363
 20
4.650935000000004
 30
0.0
 11
9.529999999996363
 21
4.955523000000026
 31
0.0
  0
LINE
  5
A6F
330
18
100
AcDbEntity
  8
1
 48
0.003018
100
AcDbLine
 10
9.529999999996363
 20
5.076254000000004
 30
0.0
 11
9.529999999996363
 21
4.955523000000026
 31
0.0
  0
LINE
  5
A70
330
18
100
AcDbEntity
  8
1
 48
0.000456
100
AcDbLine
 10
9.529999999996363
 20
5.076254000000004
 30
0.0
 11
9.529999999996363
 21
5.094479999999974
 31
0.0
  0
LINE
  5
A71
330
18
100
AcDbEntity
  8
1
 48
0.010115
100
AcDbLine
 10
9.52997799999636
 20
5.094484000000021
 30
0.0
 11
9.529999999996363
 21
5.499099000000001
 31
0.0
  0
LINE
  5
A72
330
18
100
AcDbEntity
  8
1
 48
0.00003
100
AcDbLine
 10
9.513440999996362
 20
5.000161999999988
 30
0.0
 11
9.513717999996359
 21
4.998988999999993
 31
0.0
  0
ARC
  5
A73
330
18
100
AcDbEntity
  8
1
100
AcDbCircle
 10
9.625220999996356
 20
5.029582000000003
 30
0.0
 40
0.115395
100
AcDbArc
 50
145.7227589999996
 51
194.7454819999997
  0
ARC
  5
A74
330
18
100
AcDbEntity
  8
1
100
AcDbCircle
 10
13.23148999999637
 20
47.360838
 30
0.0
 40
42.524677
100
AcDbArc
 50
262.6071479999995
 51
264.9844429999996
  0
LINE
  5
A75
330
18
100
AcDbEntity
  8
1
 48
0.00116
100
AcDbLine
 10
9.529999999996363
 20
4.955523000000026
 30
0.0
 11
9.513717999996359
 21
4.998988999999993
 31
0.0
  0
ARC
  5
A76
330
18
100
AcDbEntity
  8
1
100
AcDbCircle
 10
13.23316299999637
 20
47.13223699999995
 30
0.0
 40
42.64251699999999
100
AcDbArc
 50
260.5311489999997
 51
262.3597880000001
  0
ARC
  5
A77
330
18
100
AcDbEntity
  8
1
100
AcDbCircle
 10
24.64021699999638
 20
120.5995769999999
 30
0.0
 40
116.816963
100
AcDbArc
 50
261.9281250000004
 51
262.5679999999998
  0
ARC
  5
A78
330
18
100
AcDbEntity
  8
1
100
AcDbCircle
 10
-3.039724000003641
 20
3.111467000000004
 30
0.0
 40
11.421621
100
AcDbArc
 50
3.815658000000333
 51
9.205832000000011
  0
LINE
  5
A79
330
18
100
AcDbEntity
  8
1
 48
0.000153
100
AcDbLine
 10
8.356415999996356
 20
3.871523000000023
 30
0.0
 11
8.361251999996369
 21
3.86775399999999
 31
0.0
  0
ARC
  5
A7A
330
18
100
AcDbEntity
  8
1
100
AcDbCircle
 10
9.667596999996362
 20
-15.64926300000002
 30
0.0
 40
19.560674
100
AcDbArc
 50
90.4030399999999
 51
93.82930000000007
  0
LINE
  5
A7B
330
18
100
AcDbEntity
  8
1
 48
0.0066
100
AcDbLine
 10
0.2725009999963674
 20
2.441906000000015
 30
0.0
 11
0.2685749999963605
 21
2.705877999999982
 31
0.0
  0
LINE
  5
A7C
330
18
100
AcDbEntity
  8
1
 48
0.014896
100
AcDbLine
 10
0.2725009999963674
 20
2.441906000000015
 30
0.0
 11
0.2889299999963555
 21
1.846299999999985
 31
0.0
  0
ARC
  5
A7D
330
18
100
AcDbEntity
  8
1
100
AcDbCircle
 10
18.31674399999636
 20
35.94245599999999
 30
0.0
 40
38.568649
100
AcDbArc
 50
242.1330409999979
 51
243.4480930000019
  0
SPLINE
  5
A7E
330
18
100
AcDbEntity
  8
1
100
AcDbSpline
210
0.0
220
0.0
230
1.0
 70
     8
 71
     5
 72
    33
 73
    27
 74
     0
 42
0.000000001
 43
0.0000000001
 40
0.0
 40
0.0
 40
0.0
 40
0.0
 40
0.0
 40
0.0
 40
2.05037711620084
 40
2.05037711620084
 40
2.05037711620084
 40
5.667628109129972
 40
5.667628109129972
 40
5.667628109129972
 40
8.142688490083827
 40
8.142688490083827
 40
8.142688490083827
 40
9.751980812860088
 40
9.751980812860088
 40
9.751980812860088
 40
10.25887750784227
 40
10.25887750784227
 40
10.25887750784227
 40
11.10948480088734
 40
11.10948480088734
 40
11.10948480088734
 40
11.17024267102799
 40
11.17024267102799
 40
11.17024267102799
 40
11.23100054116863
 40
11.23100054116863
 40
11.23100054116863
 40
11.23100054116863
 40
11.23100054116863
 40
11.23100054116863
 10
1.07626715390968
 20
1.441716922246595
 30
0.0
 10
1.299009001553355
 20
1.52104290722525
 30
0.0
 10
1.52177720689495
 20
1.600146205792326
 30
0.0
 10
1.759519011103975
 20
1.684320438045233
 30
0.0
 10
2.467341553184411
 20
1.933845168617153
 30
0.0
 10
3.269190458837497
 20
2.212848323557238
 30
0.0
 10
3.828346931238741
 20
2.405189904083894
 30
0.0
 10
4.7301116065465
 20
2.711060759715393
 30
0.0
 10
5.609298310801261
 20
3.002074774867308
 30
0.0
 10
5.965363995847597
 20
3.118624679605943
 30
0.0
 10
6.516746115571308
 20
3.297074134345165
 30
0.0
 10
7.012923557687996
 20
3.454877512024721
 30
0.0
 10
7.197113131898746
 20
3.513037539366564
 30
0.0
 10
7.429281572829323
 20
3.585907901639416
 30
0.0
 10
7.659893804744996
 20
3.657640645772231
 30
0.0
 10
7.715258085291237
 20
3.67482412022889
 30
0.0
 10
7.863399404150825
 20
3.720700417412216
 30
0.0
 10
8.011567239454887
 20
3.766308253671752
 30
0.0
 10
8.104419445516494
 20
3.794778915668756
 30
0.0
 10
8.203915447218065
 20
3.825166627060696
 30
0.0
 10
8.303424123566742
 20
3.855427568848995
 30
0.0
 10
8.310052331804286
 20
3.857465469512646
 30
0.0
 10
8.323324871356463
 20
3.861482105909941
 30
0.0
 10
8.336644721793874
 20
3.865324339453194
 30
0.0
 10
8.343310713861555
 20
3.867223668586518
 30
0.0
 10
8.349945239707395
 20
3.869237605513886
 30
0.0
 10
8.356579971823251
 20
3.871251353426998
 30
0.0
  0
SPLINE
  5
A7F
330
18
100
AcDbEntity
  8
1
100
AcDbSpline
210
0.0
220
0.0
230
1.0
 70
     8
 71
     5
 72
    12
 73
     6
 74
     0
 42
0.000000001
 43
0.0000000001
 40
0.0
 40
0.0
 40
0.0
 40
0.0
 40
0.0
 40
0.0
 40
1.800342461733859
 40
1.800342461733859
 40
1.800342461733859
 40
1.800342461733859
 40
1.800342461733859
 40
1.800342461733859
 10
0.2371988778637473
 20
0.8195960345761932
 30
0.0
 10
0.2463214265279987
 20
1.02350225785517
 30
0.0
 10
0.2576790499535377
 20
1.228089451133995
 30
0.0
 10
0.2697889112698419
 20
1.433504008563261
 30
0.0
 10
0.2807819659866908
 20
1.639647562027334
 30
0.0
 10
0.2889309865396967
 20
1.846331445719158
 30
0.0
  0
ARC
  5
A80
330
18
100
AcDbEntity
  8
1
100
AcDbCircle
 10
-1.006016000003639
 20
0.5940200000000006
 30
0.0
 40
2.248229999999999
100
AcDbArc
 50
13.30051300000087
 51
22.15121900000146
  0
ARC
  5
A81
330
18
100
AcDbEntity
  8
1
100
AcDbCircle
 10
10.25083899999636
 20
4.358962000000016
 30
0.0
 40
1.952404999999999
100
AcDbArc
 50
194.5718680000006
 51
203.3397970000002
  0
LINE
  5
A82
330
18
100
AcDbEntity
  8
1
 48
0.00075
100
AcDbLine
 10
9.529999999996363
 20
-4.731024999999988
 30
0.0
 11
9.529999999996363
 21
-4.761013999999987
 31
0.0
  0
LINE
  5
A83
330
18
100
AcDbEntity
  8
1
 48
0.004425
100
AcDbLine
 10
9.529999999996363
 20
-1.41296699999998
 30
0.0
 11
9.529999999996363
 21
-1.235972
 31
0.0
  0
LINE
  5
A84
330
18
100
AcDbEntity
  8
1
 48
0.007648
100
AcDbLine
 10
9.529999999996363
 20
-2.764529999999979
 30
0.0
 11
9.529999999996363
 21
-2.458604999999975
 31
0.0
  0
LINE
  5
A85
330
18
100
AcDbEntity
  8
1
 48
0.021266
100
AcDbLine
 10
9.529999999996363
 20
-2.263589000000024
 30
0.0
 11
9.529999999996363
 21
-1.41296699999998
 31
0.0
  0
LINE
  5
A86
330
18
100
AcDbEntity
  8
1
 48
0.049162
100
AcDbLine
 10
9.529999999996363
 20
-2.764529999999979
 30
0.0
 11
9.529999999996363
 21
-4.731024999999988
 31
0.0
  0
LINE
  5
A87
330
18
100
AcDbEntity
  8
1
 48
0.007223
100
AcDbLine
 10
8.318904999996361
 20
0.8194740000000138
 30
0.0
 11
8.029999999996361
 21
0.8190920000000119
 31
0.0
  0
ARC
  5
A88
330
18
100
AcDbEntity
  8
1
100
AcDbCircle
 10
8.026450999996356
 20
0.3216679999999883
 30
0.0
 40
0.4968830000000001
100
AcDbArc
 50
89.59120400000029
 51
179.6771659999988
  0
ARC
  5
A89
330
18
100
AcDbEntity
  8
1
100
AcDbCircle
 10
9.304056999996362
 20
1.117505999999991
 30
0.0
 40
0.300259
100
AcDbArc
 50
284.1852980000012
 51
318.8142669999993
  0
LINE
  5
A8A
330
18
100
AcDbEntity
  8
1
 48
0.000932
100
AcDbLine
 10
9.341546999996367
 20
0.8171300000000201
 30
0.0
 11
9.377645999996355
 21
0.8263729999999894
 31
0.0
  0
LINE
  5
A8B
330
18
100
AcDbEntity
  8
1
 48
0.025566
100
AcDbLine
 10
8.318904999996361
 20
0.8194740000000138
 30
0.0
 11
9.341547999996363
 21
0.8171300000000201
 31
0.0
  0
LINE
  5
A8C
330
18
100
AcDbEntity
  8
SK1
 48
0.136946
100
AcDbLine
 10
-2.700000000003639
 20
-4.015721999999982
 30
0.0
 11
-2.700000000003639
 21
1.462117999999974
 31
0.0
  0
LINE
  5
A8D
330
18
100
AcDbEntity
  8
SK1
 48
0.06384
100
AcDbLine
 10
-2.700000000003639
 20
1.462117999999974
 30
0.0
 11
-2.700000000003639
 21
4.015721999999982
 31
0.0
  0
LINE
  5
A8E
330
18
100
AcDbEntity
  8
1
 48
0.000058
100
AcDbLine
 10
8.599999999996356
 20
0.8891530000000216
 30
0.0
 11
8.599999999996356
 21
0.8914700000000266
 31
0.0
  0
LINE
  5
A8F
330
18
100
AcDbEntity
  8
1
 48
0.001455
100
AcDbLine
 10
9.341546999996367
 20
0.875347999999974
 30
0.0
 11
9.341546999996367
 21
0.8171300000000201
 31
0.0
  0
LINE
  5
A90
330
18
100
AcDbEntity
  8
1
 48
0.002816
100
AcDbLine
 10
9.228997999996368
 20
0.8794340000000032
 30
0.0
 11
9.341547999996363
 21
0.875347999999974
 31
0.0
  0
LINE
  5
A91
330
18
100
AcDbEntity
  8
1
 48
0.003859
100
AcDbLine
 10
9.074643999996368
 20
0.8811079999999833
 30
0.0
 11
9.228997999996368
 21
0.8794330000000059
 31
0.0
  0
LINE
  5
A92
330
18
100
AcDbEntity
  8
1
 48
0.008499
100
AcDbLine
 10
8.734694999996362
 20
0.8832909999999856
 30
0.0
 11
9.074643999996368
 21
0.8811079999999833
 31
0.0
  0
ARC
  5
A93
330
18
100
AcDbEntity
  8
1
100
AcDbCircle
 10
8.699899999996361
 20
1.867033999999988
 30
0.0
 40
0.9836389999999999
100
AcDbArc
 50
264.1669379999998
 51
272.0257450000001
  0
LINE
  5
A94
330
18
100
AcDbEntity
  8
1
 48
0.001809
100
AcDbLine
 10
8.029999999996361
 20
0.8190920000000119
 30
0.0
 11
8.029999999996361
 21
0.8914700000000266
 31
0.0
  0
LINE
  5
A95
330
18
100
AcDbEntity
  8
1
 48
0.009942
100
AcDbLine
 10
9.377645999996355
 20
-3.578738999999984
 30
0.0
 11
9.377645999996355
 21
-3.181063999999991
 31
0.0
  0
LINE
  5
A96
330
18
100
AcDbEntity
  8
1
 48
0.005998
100
AcDbLine
 10
9.228997999996368
 20
1.119347000000004
 30
0.0
 11
9.228997999996368
 21
0.8794330000000059
 31
0.0
  0
LINE
  5
A97
330
18
100
AcDbEntity
  8
1
 48
0.000927
100
AcDbLine
 10
9.341546999996367
 20
0.875347999999974
 30
0.0
 11
9.377645999996355
 21
0.8838010000000052
 31
0.0
  0
ARC
  5
A98
330
18
100
AcDbEntity
  8
1
100
AcDbCircle
 10
9.312903999996363
 20
1.162104999999995
 30
0.0
 40
0.285724
100
AcDbArc
 50
283.0958250000015
 51
319.4489549999982
  0
LINE
  5
A99
330
18
100
AcDbEntity
  8
1
 48
0.001436
100
AcDbLine
 10
9.377645999996355
 20
0.8263729999999894
 30
0.0
 11
9.377645999996355
 21
0.8838010000000052
 31
0.0
  0
LINE
  5
A9A
330
18
100
AcDbEntity
  8
1
 48
0.007215
100
AcDbLine
 10
9.529999999996363
 20
2.586082999999973
 30
0.0
 11
9.529999999996363
 21
2.297465999999984
 31
0.0
  0
LINE
  5
A9B
330
18
100
AcDbEntity
  8
1
 48
0.006462
100
AcDbLine
 10
9.529999999996363
 20
2.844550000000026
 30
0.0
 11
9.529999999996363
 21
2.586082999999973
 31
0.0
  0
LINE
  5
A9C
330
18
100
AcDbEntity
  8
1
 48
0.000941
100
AcDbLine
 10
9.529999999996363
 20
1.454226000000004
 30
0.0
 11
9.529999999996363
 21
1.416596000000025
 31
0.0
  0
LINE
  5
A9D
330
18
100
AcDbEntity
  8
1
 48
0.004668
100
AcDbLine
 10
9.529999999996363
 20
1.454226000000004
 30
0.0
 11
9.529999999996363
 21
1.640941999999995
 31
0.0
  0
LINE
  5
A9E
330
18
100
AcDbEntity
  8
1
 48
0.001894
100
AcDbLine
 10
9.529999999996363
 20
1.640941999999995
 30
0.0
 11
9.529999999996363
 21
1.716721000000004
 31
0.0
  0
LINE
  5
A9F
330
18
100
AcDbEntity
  8
1
 48
0.002317
100
AcDbLine
 10
9.529999999996363
 20
1.716721000000004
 30
0.0
 11
9.529999999996363
 21
1.809414000000003
 31
0.0
  0
ELLIPSE
  5
AA0
330
18
100
AcDbEntity
  8
1
100
AcDbEllipse
 10
9.664999999996368
 20
5.003302000000018
 30
0.0
 11
-0.1630000025033951
 21
0.0
 31
0.0
210
0.0
220
0.0
230
1.0
 40
0.7986360000000003
 41
5.688314416596772
 42
5.950763169067467
  0
LINE
  5
AA1
330
18
100
AcDbEntity
  8
SK1
 48
0.134479
100
AcDbLine
 10
-2.970000000003636
 20
-3.943376
 30
0.0
 11
-2.970000000003636
 21
1.435776999999973
 31
0.0
  0
LINE
  5
AA2
330
18
100
AcDbEntity
  8
SK1
 48
0.06269
100
AcDbLine
 10
-2.970000000003636
 20
1.435776999999973
 30
0.0
 11
-2.970000000003636
 21
3.943376
 31
0.0
  0
LINE
  5
AA3
330
18
100
AcDbEntity
  8
1
 48
0.005805
100
AcDbLine
 10
8.734694999996362
 20
0.8832909999999856
 30
0.0
 11
8.734694999996362
 21
1.11549000000002
 31
0.0
  0
LINE
  5
AA4
330
18
100
AcDbEntity
  8
1
 48
0.005914
100
AcDbLine
 10
9.074643999996368
 20
0.8811079999999833
 30
0.0
 11
9.074643999996368
 21
1.117673000000024
 31
0.0
  0
ARC
  5
AA5
330
18
100
AcDbEntity
  8
1
100
AcDbCircle
 10
-0.9500000000036408
 20
-6.967467999999996
 30
0.0
 40
1.25
100
AcDbArc
 50
22.18811999999843
 51
37.4545309999998
  0
ARC
  5
AA6
330
18
100
AcDbEntity
  8
1
100
AcDbCircle
 10
0.4392189999963705
 20
-5.903233
 30
0.0
 40
0.500007
100
AcDbArc
 50
208.5469069999986
 51
217.4544680000005
  0
ARC
  5
AA7
330
18
100
AcDbEntity
  8
1
100
AcDbCircle
 10
0.4392169999963615
 20
5.903234999999995
 30
0.0
 40
0.5000040000000002
100
AcDbArc
 50
142.5455090000004
 51
151.4531159999984
  0
LINE
  5
AA8
330
18
100
AcDbEntity
  8
1
 48
0.015868
100
AcDbLine
 10
6.044175999996367
 20
5.064847999999983
 30
0.0
 11
6.676509999996367
 21
5.11982499999999
 31
0.0
  0
ARC
  5
AA9
330
18
100
AcDbEntity
  8
SK1
100
AcDbCircle
 10
-0.3000000000036351
 20
-4.441912999999996
 30
0.0
 40
0.3
100
AcDbArc
 50
0.0000019999995499
 51
86.99999700000038
  0
ARC
  5
AAA
330
18
100
AcDbEntity
  8
SK1
100
AcDbCircle
 10
-0.3000000000036351
 20
4.441912999999996
 30
0.0
 40
0.3
100
AcDbArc
 50
273.0000029999997
 51
359.9999980000005
  0
ARC
  5
AAB
330
18
100
AcDbEntity
  8
1
100
AcDbCircle
 10
-0.9500270000036435
 20
6.967486000000008
 30
0.0
 40
1.250032999999999
100
AcDbArc
 50
322.5455390000017
 51
328.6915589999996
  0
LINE
  5
AAC
330
18
100
AcDbEntity
  8
SK1
 48
0.060475
100
AcDbLine
 10
-2.700000000003639
 20
-4.015721999999982
 30
0.0
 11
-0.2842990000036423
 21
-4.142323999999971
 31
0.0
  0
LINE
  5
AAD
330
18
100
AcDbEntity
  8
SK1
 48
0.060475
100
AcDbLine
 10
-2.700000000003639
 20
4.015721999999982
 30
0.0
 11
-0.2842990000036423
 21
4.142323999999971
 31
0.0
  0
LINE
  5
AAE
330
18
100
AcDbEntity
  8
SK1
 48
0.006988
100
AcDbLine
 10
-2.970000000003636
 20
-3.943376
 30
0.0
 11
-2.700000000003639
 21
-4.015721999999982
 31
0.0
  0
LINE
  5
AAF
330
18
100
AcDbEntity
  8
SK1
 48
0.006988
100
AcDbLine
 10
-2.970000000003636
 20
3.943376
 30
0.0
 11
-2.700000000003639
 21
4.015721999999982
 31
0.0
  0
LINE
  5
AB0
102
{ACAD_REACTORS
330
AD0
102
}
330
18
100
AcDbEntity
  8
4
100
AcDbLine
 10
-0.0000000000764402
 20
0.0
 30
0.0
 11
10.66160389299968
 21
0.0
 31
0.0
  0
DIMENSION
  5
AB5
330
18
100
AcDbEntity
  8
2
100
AcDbDimension
  2
*D3
 10
0.3253453800139276
 20
-12.1507394475629
 30
0.0
 11
-8.572318007196191
 21
-9.714249637302883
 31
0.0
 70
    32
 71
     5
 42
9.204654619982431
  3
STANDARD
100
AcDbAlignedDimension
 13
9.529999999996363
 23
-6.484567000000025
 33
0.0
 14
0.3253453800139283
 24
0.0
 34
0.0
100
AcDbRotatedDimension
  0
LWPOLYLINE
  5
AB6
102
{ACAD_XDICTIONARY
360
F86
102
}
102
{ACAD_REACTORS
330
ABA
330
ABE
102
}
330
18
100
AcDbEntity
  8
CUT
100
AcDbPolyline
 90
        7
 70
     1
 43
0.0
 10
0.3253453800139283
 20
6.615779746926362
 10
0.3253453800139283
 20
0.0
 10
9.529999999996363
 20
0.0
 10
9.529999999996363
 20
6.485514923802496
 10
8.993281577224337
 20
6.741079806206299
 42
-0.0015449874055649
 10
8.458522606607004
 20
6.999778991469496
 10
1.181846125325549
 20
6.99997200267569
  0
LWPOLYLINE
  5
AB7
102
{ACAD_XDICTIONARY
360
F88
102
}
102
{ACAD_REACTORS
330
ACF
102
}
330
18
100
AcDbEntity
  8
NOCUT
100
AcDbPolyline
 90
        7
 70
     1
 43
0.0
 10
0.2371994397955035
 20
6.576240975018662
 10
0.3253453800139709
 20
6.615779746926362
 10
0.3253453800139709
 20
0.0
 10
-0.0000000000764402
 20
0.0
 10
-0.0000000000764402
 20
6.142176210357092
 42
-0.0194325492023404
 10
0.0198813270012863
 20
6.175561681825852
 10
0.098337443630129
 20
6.286666622675852
 42
0.0644979044832288
  0
DIMENSION
  5
AB8
102
{ACAD_XDICTIONARY
360
AB9
102
}
102
{ACAD_REACTORS
330
ABA
102
}
330
18
100
AcDbEntity
  8
2
100
AcDbDimension
  2
*D5
 10
22.05943458418986
 20
-6.999778981620014
 30
0.0
 11
19.57129333331143
 21
-19.00144799075564
 31
0.0
 70
    32
  1
%%c<>
 71
     5
 42
13.99955797308951
  3
DIAMETER
100
AcDbAlignedDimension
 13
8.458522606607031
 23
6.999778991469496
 33
0.0
 14
8.458893939808049
 24
-6.999778981620011
 34
0.0
 50
90.0
100
AcDbRotatedDimension
1001
ACAD_DSTYLE_DIMINSPECT
1070
   396
1000
100%
1070
   395
1000

1070
   394
1070
    33
1070
   393
1070
     0
  0
MULTILEADER
  5
ABB
102
{ACAD_XDICTIONARY
360
F8A
102
}
330
18
100
AcDbEntity
  8
SK6
 92
      664
310
98020000180000000C00000016000000000000C00C00000033000000000000000C00000013000000993A0000A40000000B00000053D3876F27BA37C078ED10AEFF89D2BF000000000000000000000000000000000000000000000000000000000000F03F000000000000F03F00000000000000000000000000000000424E36
310
0003000000010000000000000000001040000000000000F03F0000000000000000000000000000F03F00000000000000000000000000000000000000004D6F6E6F73706163383231204254004000B0F7080C00000033000000000000000C00000010000000070000000C00000016000000000000C00C00000012000000FF7F
310
00000C00000013000000010000000C0000001400000001000000540000000700000003000000D414AB83AEED19C0758E32312D6C044000000000000000009CB99999999905C0804F8F6D1910104000000000000000001069EECC7E3617C0BA4465E8F77BF63F00000000000000000C00000013000000891300003C00000006
310
00000002000000F2BE4CA8169218C0D230652529AAFF3F000000000000000009B92B74F89226C0FD5BB225AD07F1BF00000000000000000C00000013000000112700003C000000060000000200000009B92B74F89226C0FD5BB225AD07F1BF0000000000000000C1D7B05F4A4B27C0FD5BB225AD07F1BF0000000000000000
310
0C00000016000000000000C00C00000012000000FF7F00000C00000017000000000000000C000000130000009A3A00003C000000060000000200000010410A15405337C0015CB225AD07F1BF0000000000000000C2D7B05F4A4B27C0015CB225AD07F1BF00000000000000000C00000016000000000000C00C000000120000
310
00FF7F00000C00000017000000FFFFFFFF0C0000003300000000000000
100
AcDbMLeader
300
CONTEXT_DATA{
 40
1.0
 10
-25.32519656658502
 20
1.678001153064808
 30
0.0
 41
4.0
140
4.0
145
2.0
174
     1
175
     6
176
     2
177
     0
290
     1
304
BN6
 11
0.0
 21
0.0
 31
1.0
340
10
 12
-13.64705180200315
 22
3.73562588953706
 32
0.0
 13
1.0
 23
0.0
 33
0.0
 42
0.0
 43
0.0
 44
0.0
 45
1.0
170
     1
 90
-1073741824
171
     3
172
     5
 91
-1073741824
141
0.0
 92
        0
291
     0
292
     0
173
     0
293
     0
142
0.0
143
0.0
294
     0
295
     0
296
     0
110
-2.051592231139693
120
4.049703734716612
130
0.0
111
1.0
121
0.0
131
0.0
112
0.0
122
1.0
132
0.0
297
     0
302
LEADER{
290
     1
291
     1
 10
-11.28705180200315
 20
-1.064374110462949
 30
0.0
 11
-1.0
 21
0.0
 31
0.0
 90
        0
 40
0.36
304
LEADER_LINE{
 10
-2.700000000003639
 20
4.015721999999982
 30
0.0
 91
        0
305
}
303
}
301
}
340
43D
 90
   279552
170
     1
 91
-1056964608
341
12
171
    -2
290
     1
291
     1
 41
0.36
 42
4.0
172
     2
343
10
173
     1
 95
        6
174
     1
175
     2
 92
-1056964608
292
     0
 93
-1056964608
 10
1.0
 20
1.0
 30
1.0
 43
0.0
176
     0
293
     0
294
     0
178
     0
179
     3
 45
1.0
1001
ACAD_MLEADERVER
1070
     2
  0
DIMENSION
  5
ABC
102
{ACAD_XDICTIONARY
360
ABD
102
}
102
{ACAD_REACTORS
330
ABE
102
}
330
18
100
AcDbEntity
  8
2
100
AcDbDimension
  2
*D6
 10
9.529999999996363
 20
15.32511872097893
 30
0.0
 11
20.76656008432525
 21
15.32511872097893
 31
0.0
 70
   160
 71
     5
 42
1.071477393389329
  3
STANDARD
100
AcDbAlignedDimension
 13
8.458522606607031
 23
6.999778991469496
 33
0.0
 14
9.529999999996363
 24
6.485514923802496
 34
0.0
100
AcDbRotatedDimension
1001
ACAD_DSTYLE_DIMINSPECT
1070
   396
1000
100%
1070
   395
1000

1070
   394
1070
    33
1070
   393
1070
     0
  0
DIMENSION
  5
ABF
330
18
100
AcDbEntity
  8
2
100
AcDbDimension
  2
*D4
 10
8.458494598552491
 20
6.999792327838918
 30
0.0
 11
-5.708360433295863
 21
10.9659869550901
 31
0.0
 70
   162
 71
     5
 42
0.4443959437113343
  3
STANDARD
100
AcDb2LineAngularDimension
 13
8.458522606607004
 23
6.999778991469496
 33
0.0
 14
8.458494598552505
 24
6.999778991469496
 34
0.0
 15
8.458522606607004
 25
6.999778991469496
 35
0.0
 16
-6.091970320612002
 26
9.171077278652687
 36
0.0
1001
ACAD_DSTYLE_DIMINSPECT
1070
   396
1000
100%
1070
   395
1000

1070
   394
1070
    33
1070
   393
1070
     0
1001
ACAD
1000
DSTYLE
1002
{
1070
   179
1070
     0
1002
}
  0
LINE
  5
AC0
102
{ACAD_REACTORS
330
ACA
102
}
330
18
100
AcDbEntity
  8
INFTOTAL
100
AcDbLine
 10
34.92363142194738
 20
-24.53778581267159
 30
0.0
 11
34.92363142194738
 21
-47.64958020023125
 31
0.0
  0
LINE
  5
AC1
102
{ACAD_REACTORS
330
ACB
102
}
330
18
100
AcDbEntity
  8
INFTOTAL
100
AcDbLine
 10
34.92363142194738
 20
-47.64958020023125
 30
0.0
 11
11.54350648465014
 21
-47.64958020023125
 31
0.0
  0
LINE
  5
AC2
102
{ACAD_REACTORS
330
ACC
102
}
330
18
100
AcDbEntity
  8
INFTOTAL
100
AcDbLine
 10
-9.285340067256226
 20
22.85917302610807
 30
0.0
 11
-31.92881536726974
 21
22.85917302610807
 31
0.0
  0
LINE
  5
AC3
102
{ACAD_REACTORS
330
ACD
102
}
330
18
100
AcDbEntity
  8
INFTOTAL
100
AcDbLine
 10
-31.92881536726974
 20
22.85917302610807
 30
0.0
 11
-31.92881536726973
 21
-9.990737002733283
 31
0.0
  0
INSERT
  5
AC4
102
{ACAD_REACTORS
330
ACE
102
}
330
18
100
AcDbEntity
  8
SK2
100
AcDbBlockReference
  2
CERO_POINT
 10
-0.0000000000764402
 20
0.0
 30
0.0
  0
DIMENSION
  5
C12
330
18
100
AcDbEntity
  8
2
100
AcDbDimension
  2
*D7
 10
9.529979620254296
 20
2.516418999999983
 30
0.0
 11
25.8793972403646
 21
6.999778991469491
 31
0.0
 70
   162
 71
     5
 42
0.3531540040237657
  3
STANDARD
100
AcDb2LineAngularDimension
 13
9.529979620254296
 23
2.516418999999983
 33
0.0
 14
9.544862438216515
 24
2.516418999999983
 34
0.0
 15
9.544633538213664
 25
2.521820535100756
 35
0.0
 16
26.36564496624333
 26
4.507485469946931
 36
0.0
1001
ACAD_DSTYLE_DIMINSPECT
1070
   396
1000
100%
1070
   395
1000

1070
   394
1070
    33
1070
   393
1070
     0
1001
ACAD
1000
DSTYLE
1002
{
1070
   179
1070
     0
1002
}
  0
TEXT
  5
EEB
330
18
100
AcDbEntity
  8
SK6
100
AcDbText
 10
-22.64699226185935
 20
-43.96810114813127
 30
0.0
 40
3.5
  1
XLB14000R71
100
AcDbText
1001
ACAD
1000
MTEXTBEGIN
1070
    73
1070
     1
1070
    44
1040
1.0
1070
    74
1070
     0
1000
MTEXTEND
  0
ENDSEC
  0
SECTION
  2
OBJECTS
  0
DICTIONARY
  5
C
330
0
100
AcDbDictionary
281
     1
  3
ACAD_2007HEADERVARS_RT
350
F46
  3
ACAD_ASSOCNETWORK
350
9A9
  3
ACAD_CIP_PREVIOUS_PRODUCT_INFO
350
741
  3
ACAD_COLOR
350
387
  3
ACAD_DETAILVIEWSTYLE
350
EDC
  3
ACAD_GROUP
350
D
  3
ACAD_LAYOUT
350
301
  3
ACAD_MATERIAL
350
386
  3
ACAD_MLEADERSTYLE
350
43C
  3
ACAD_MLINESTYLE
350
E
  3
ACAD_PLOTSETTINGS
350
302
  3
ACAD_PLOTSTYLENAME
350
2FF
  3
ACAD_SCALELIST
350
41A
  3
ACAD_SECTIONVIEWSTYLE
350
EDA
  3
ACAD_TABLESTYLE
350
388
  3
ACAD_VISUALSTYLE
350
3F2
  3
ACDB_RECOMPOSE_DATA
350
F44
  3
AcDbVariableDictionary
350
357
  3
AcmDictionary
350
76D
  3
AEC_PROPERTY_SET_DEFS
350
5CF
  3
AMG
350
743
  3
AMGSNAPSETTINGS
350
7F6
  3
ASE_INDEX_DICTIONARY
350
C7C
  3
DWGPROPS
350
F45
  0
DICTIONARY
  5
451
330
2
100
AcDbDictionary
280
     1
281
     1
  3
ACAD_LAYERFILTERS
360
6C6
  3
ACAD_LAYERSTATES
360
EB5
  3
ACLYDICTIONARY
360
6C5
  0
DICTIONARY
  5
E39
330
F
100
AcDbDictionary
280
     1
281
     1
  3
ADSK_XREC_LAYER_RECONCILED
360
E3A
  0
DICTIONARY
  5
E3B
330
23
100
AcDbDictionary
280
     1
281
     1
  3
ADSK_XREC_LAYER_RECONCILED
360
E3C
  0
DICTIONARY
  5
E3D
330
24
100
AcDbDictionary
280
     1
281
     1
  3
ADSK_XREC_LAYER_RECONCILED
360
E3E
  0
DICTIONARY
  5
E3F
330
25
100
AcDbDictionary
280
     1
281
     1
  3
ADSK_XREC_LAYER_RECONCILED
360
E40
  0
DICTIONARY
  5
E41
330
27
100
AcDbDictionary
280
     1
281
     1
  3
ADSK_XREC_LAYER_RECONCILED
360
E42
  0
DICTIONARY
  5
E43
330
2A
100
AcDbDictionary
280
     1
281
     1
  3
ADSK_XREC_LAYER_RECONCILED
360
E44
  0
DICTIONARY
  5
E45
330
2B
100
AcDbDictionary
280
     1
281
     1
  3
ADSK_XREC_LAYER_RECONCILED
360
E46
  0
DICTIONARY
  5
E47
330
2E
100
AcDbDictionary
280
     1
281
     1
  3
ADSK_XREC_LAYER_RECONCILED
360
E48
  0
DICTIONARY
  5
E49
330
375
100
AcDbDictionary
280
     1
281
     1
  3
ADSK_XREC_LAYER_RECONCILED
360
E4A
  0
DICTIONARY
  5
E4B
330
376
100
AcDbDictionary
280
     1
281
     1
  3
ADSK_XREC_LAYER_RECONCILED
360
E4C
  0
DICTIONARY
  5
E4D
330
49B
100
AcDbDictionary
280
     1
281
     1
  3
ADSK_XREC_LAYER_RECONCILED
360
E4E
  0
DICTIONARY
  5
AEC
330
18
100
AcDbDictionary
280
     1
281
     1
  3
ACAD_ASSOCNETWORK
360
AED
  3
ACAD_SORTENTS
360
EEC
  0
DICTIONARY
  5
6D1
330
6D0
100
AcDbDictionary
280
     1
281
     1
  3
ACAD_SORTENTS
360
6D2
  0
DICTIONARY
  5
ED3
330
B3F
100
AcDbDictionary
280
     1
281
     1
  3
ACAD_MTEXT_RT
360
F8C
  0
DICTIONARY
  5
ED5
330
DC2
100
AcDbDictionary
280
     1
281
     1
  3
ACAD_MTEXT_RT
360
F8D
  0
DICTIONARY
  5
F86
330
AB6
100
AcDbDictionary
280
     1
281
     1
  3
ACAD_XREC_ROUNDTRIP
360
F87
  0
DICTIONARY
  5
F88
330
AB7
100
AcDbDictionary
280
     1
281
     1
  3
ACAD_XREC_ROUNDTRIP
360
F89
  0
DICTIONARY
  5
AB9
330
AB8
100
AcDbDictionary
280
     1
281
     1
  3
ACAD_DIMASSOC
360
ABA
  0
DICTIONARY
  5
F8A
330
ABB
100
AcDbDictionary
280
     1
281
     1
  3
ACAD_XREC_ROUNDTRIP
360
F8B
  0
DICTIONARY
  5
ABD
330
ABC
100
AcDbDictionary
280
     1
281
     1
  3
ACAD_DIMASSOC
360
ABE
  0
DICTIONARY
  5
F46
102
{ACAD_REACTORS
330
C
102
}
330
C
100
AcDbDictionary
281
     1
  3
DIMARCSYM
350
F47
  3
DIMLTEX1
350
F49
  3
DIMLTEX2
350
F4A
  3
DIMLTYPE
350
F48
  0
DICTIONARY
  5
9A9
102
{ACAD_REACTORS
330
C
102
}
330
C
100
AcDbDictionary
281
     1
  3
ACAD_ASSOCNETWORK
350
9AA
  0
XRECORD
  5
741
102
{ACAD_REACTORS
330
C
102
}
330
C
100
AcDbXrecord
280
     1
300
ACDLT
300
2015
300
ACDLT_F_S
  0
DICTIONARY
  5
387
102
{ACAD_REACTORS
330
C
102
}
330
C
100
AcDbDictionary
281
     1
  0
DICTIONARY
  5
EDC
102
{ACAD_REACTORS
330
C
102
}
330
C
100
AcDbDictionary
281
     1
  3
Metric50
350
EDD
  0
DICTIONARY
  5
D
102
{ACAD_REACTORS
330
C
102
}
330
C
100
AcDbDictionary
281
     1
  0
DICTIONARY
  5
301
102
{ACAD_REACTORS
330
C
102
}
330
C
100
AcDbDictionary
281
     1
  3
Layout1
350
33B
  3
Model
350
303
  0
DICTIONARY
  5
386
102
{ACAD_REACTORS
330
C
102
}
330
C
100
AcDbDictionary
281
     1
  3
ByBlock
350
3F0
  3
ByLayer
350
3EF
  3
Global
350
3F1
  0
DICTIONARY
  5
43C
102
{ACAD_REACTORS
330
C
102
}
330
C
100
AcDbDictionary
281
     1
  3
Standard
350
43D
  0
DICTIONARY
  5
E
102
{ACAD_REACTORS
330
C
102
}
330
C
100
AcDbDictionary
281
     1
  3
STANDARD
350
1B
  0
DICTIONARY
  5
302
102
{ACAD_REACTORS
330
C
102
}
330
C
100
AcDbDictionary
281
     1
  0
ACDBDICTIONARYWDFLT
  5
2FF
102
{ACAD_REACTORS
330
C
102
}
330
C
100
AcDbDictionary
281
     1
  3
Normal
350
300
100
AcDbDictionaryWithDefault
340
300
  0
DICTIONARY
  5
41A
102
{ACAD_REACTORS
330
C
102
}
330
C
100
AcDbDictionary
281
     1
  3
A0
350
41B
  3
A1
350
41C
  3
A2
350
41D
  3
A3
350
41E
  3
A4
350
41F
  3
A5
350
420
  3
A6
350
421
  3
A7
350
422
  3
A8
350
423
  3
A9
350
424
  3
B0
350
425
  3
B1
350
426
  3
B2
350
427
  3
B3
350
428
  3
B4
350
429
  3
B5
350
42A
  3
B6
350
42B
  3
B7
350
42C
  3
B8
350
42D
  3
B9
350
42E
  3
C0
350
42F
  3
C1
350
430
  3
C2
350
431
  3
C3
350
432
  3
C4
350
433
  3
C5
350
434
  3
C6
350
435
  3
C7
350
436
  3
C8
350
437
  3
C9
350
438
  3
D0
350
439
  3
D1
350
43A
  3
D2
350
43B
  0
DICTIONARY
  5
EDA
102
{ACAD_REACTORS
330
C
102
}
330
C
100
AcDbDictionary
281
     1
  3
Metric50
350
EDB
  0
DICTIONARY
  5
388
102
{ACAD_REACTORS
330
C
102
}
330
C
100
AcDbDictionary
281
     1
  3
Standard
350
389
  0
DICTIONARY
  5
3F2
102
{ACAD_REACTORS
330
C
102
}
330
C
100
AcDbDictionary
281
     1
  3
2dWireframe
350
3F8
  3
3D Hidden
350
3FA
  3
3dWireframe
350
3F9
  3
Basic
350
3F7
  3
Brighten
350
3FE
  3
ColorChange
350
402
  3
Conceptual
350
3FB
  3
Dim
350
3FD
  3
EdgeColorOff
350
73A
  3
Facepattern
350
401
  3
Flat
350
3F3
  3
FlatWithEdges
350
3F4
  3
Gouraud
350
3F5
  3
GouraudWithEdges
350
3F6
  3
Hidden
350
732
  3
JitterOff
350
738
  3
Linepattern
350
400
  3
OverhangOff
350
739
  3
Realistic
350
3FC
  3
Shaded
350
737
  3
Shaded with edges
350
736
  3
Shades of Gray
350
733
  3
Sketchy
350
734
  3
Thicken
350
3FF
  3
Wireframe
350
731
  3
X-Ray
350
735
  0
XRECORD
  5
F44
102
{ACAD_REACTORS
330
C
102
}
330
C
100
AcDbXrecord
280
     1
 90
        1
330
389
  0
DICTIONARY
  5
357
102
{ACAD_REACTORS
330
C
102
}
330
C
100
AcDbDictionary
281
     1
  3
CANNOSCALE
350
449
  3
CMLEADERSTYLE
350
447
  3
CTABLESTYLE
350
38E
  3
CVIEWDETAILSTYLE
350
EEE
  3
CVIEWSECTIONSTYLE
350
EEF
  3
DIMASSOC
350
359
  3
HIDETEXT
350
358
  3
INDEXCTL
350
E50
  3
LAYEREVAL
350
7AE
  3
LAYERNOTIFY
350
7AF
  3
LIGHTINGUNITS
350
44A
  3
MSLTSCALE
350
448
  3
SOLIDHIST
350
E52
  3
SORTENTS
350
E4F
  3
XCLIPFRAME
350
F42
  0
DICTIONARY
  5
76D
102
{ACAD_REACTORS
330
C
102
}
330
C
100
AcDbDictionary
281
     1
  3
AcmStdDictionary
350
76F
  0
DICTIONARY
  5
5CF
102
{ACAD_REACTORS
330
C
102
}
330
C
100
AcDbDictionary
281
     1
  0
DICTIONARY
  5
743
102
{ACAD_REACTORS
330
C
102
}
330
C
100
AcDbDictionary
281
     1
  0
DICTIONARY
  5
7F6
102
{ACAD_REACTORS
330
C
102
}
330
C
100
AcDbDictionary
281
     1
  0
DICTIONARY
  5
C7C
102
{ACAD_REACTORS
330
C
102
}
330
C
100
AcDbDictionary
281
     1
  3
ASEBlockHierarchyIndexRecord
350
C7D
1001
DCO15
1040
1759650032.19
  0
XRECORD
  5
F45
102
{ACAD_REACTORS
330
C
102
}
330
C
100
AcDbXrecord
280
     1
  1
DWGPROPS COOKIE
  2

  3

  4

  6

  7

  8
kamerka
  9

300
=
301
=
302
=
303
=
304
=
305
=
306
=
307
=
308
=
309
=
 40
0.0343086226851852
 41
2456169.414618114
 42
2457338.536705671
  1

 90
        0
  0
DICTIONARY
  5
6C6
102
{ACAD_REACTORS
330
451
102
}
330
451
100
AcDbDictionary
281
     1
  0
DICTIONARY
  5
EB5
102
{ACAD_REACTORS
330
451
102
}
330
451
100
AcDbDictionary
281
     1
  0
DICTIONARY
  5
6C5
102
{ACAD_REACTORS
330
451
102
}
330
451
100
AcDbDictionary
281
     1
1001
ACAD
1000
<All
  0
XRECORD
  5
E3A
102
{ACAD_REACTORS
330
E39
102
}
330
E39
100
AcDbXrecord
280
     1
290
     1
  0
XRECORD
  5
E3C
102
{ACAD_REACTORS
330
E3B
102
}
330
E3B
100
AcDbXrecord
280
     1
290
     1
  0
XRECORD
  5
E3E
102
{ACAD_REACTORS
330
E3D
102
}
330
E3D
100
AcDbXrecord
280
     1
290
     1
  0
XRECORD
  5
E40
102
{ACAD_REACTORS
330
E3F
102
}
330
E3F
100
AcDbXrecord
280
     1
290
     1
  0
XRECORD
  5
E42
102
{ACAD_REACTORS
330
E41
102
}
330
E41
100
AcDbXrecord
280
     1
290
     1
  0
XRECORD
  5
E44
102
{ACAD_REACTORS
330
E43
102
}
330
E43
100
AcDbXrecord
280
     1
290
     1
  0
XRECORD
  5
E46
102
{ACAD_REACTORS
330
E45
102
}
330
E45
100
AcDbXrecord
280
     1
290
     1
  0
XRECORD
  5
E48
102
{ACAD_REACTORS
330
E47
102
}
330
E47
100
AcDbXrecord
280
     1
290
     1
  0
XRECORD
  5
E4A
102
{ACAD_REACTORS
330
E49
102
}
330
E49
100
AcDbXrecord
280
     1
290
     1
  0
XRECORD
  5
E4C
102
{ACAD_REACTORS
330
E4B
102
}
330
E4B
100
AcDbXrecord
280
     1
290
     1
  0
XRECORD
  5
E4E
102
{ACAD_REACTORS
330
E4D
102
}
330
E4D
100
AcDbXrecord
280
     1
290
     1
  0
DICTIONARY
  5
AED
102
{ACAD_REACTORS
330
AEC
102
}
330
AEC
100
AcDbDictionary
281
     1
  3
ACAD_ASSOCNETWORK
350
AEE
  0
SORTENTSTABLE
  5
EEC
102
{ACAD_REACTORS
330
AEC
102
}
330
AEC
100
AcDbSortentsTable
330
18
331
A5F
  5
A5F
331
9E5
  5
9E5
331
9E1
  5
9E1
331
A5B
  5
A5B
331
A96
  5
A96
331
9DD
  5
9DD
331
A1C
  5
A1C
331
A57
  5
A57
331
A92
  5
A92
331
9D9
  5
9D9
331
A18
  5
A18
331
A53
  5
A53
331
AB5
  5
AB5
331
A14
  5
A14
331
A4F
  5
A4F
331
A8E
  5
A8E
331
9D5
  5
9D5
331
9D1
  5
9D1
331
A10
  5
A10
331
A4B
  5
A4B
331
A8A
  5
A8A
331
9CD
  5
9CD
331
A0C
  5
A0C
331
A47
  5
A47
331
A86
  5
A86
331
A82
  5
A82
331
9C9
  5
9C9
331
A08
  5
A08
331
A43
  5
A43
331
AAF
  5
AAF
331
AAB
  5
AAB
331
AC3
  5
AC3
331
A04
  5
A04
331
A3F
  5
A3F
331
A7E
  5
A7E
331
9C5
  5
9C5
331
A00
  5
A00
331
A3B
  5
A3B
331
A7A
  5
A7A
331
9C1
  5
9C1
331
9BD
  5
9BD
331
9FC
  5
9FC
331
A37
  5
A37
331
A76
  5
A76
331
A72
  5
A72
331
9B9
  5
9B9
331
9F8
  5
9F8
331
A33
  5
A33
331
AA7
  5
AA7
331
AA3
  5
AA3
331
A9F
  5
A9F
331
A9B
  5
A9B
331
A2F
  5
A2F
331
A6E
  5
A6E
331
9B5
  5
9B5
331
9F4
  5
9F4
331
9F0
  5
9F0
331
A2B
  5
A2B
331
A6A
  5
A6A
331
9B1
  5
9B1
331
9EC
  5
9EC
331
A27
  5
A27
331
A66
  5
A66
331
A62
  5
A62
331
9E8
  5
9E8
331
A23
  5
A23
331
ABC
  5
ABC
331
AB8
  5
AB8
331
A5E
  5
A5E
331
9E4
  5
9E4
331
9E0
  5
9E0
331
A1F
  5
A1F
331
A5A
  5
A5A
331
A95
  5
A95
331
9DC
  5
9DC
331
A1B
  5
A1B
331
A56
  5
A56
331
A52
  5
A52
331
A91
  5
A91
331
9D8
  5
9D8
331
AB0
  5
AB0
331
A17
  5
A17
331
A13
  5
A13
331
A4E
  5
A4E
331
A8D
  5
A8D
331
9D4
  5
9D4
331
9D0
  5
9D0
331
A0F
  5
A0F
331
A4A
  5
A4A
331
A89
  5
A89
331
A85
  5
A85
331
9CC
  5
9CC
331
A0B
  5
A0B
331
A46
  5
A46
331
A81
  5
A81
331
9C8
  5
9C8
331
A42
  5
A42
331
AAE
  5
AAE
331
AAA
  5
AAA
331
A07
  5
A07
331
AC2
  5
AC2
331
A03
  5
A03
331
A3E
  5
A3E
331
A7D
  5
A7D
331
9C4
  5
9C4
331
9C0
  5
9C0
331
9FF
  5
9FF
331
A3A
  5
A3A
331
A79
  5
A79
331
9BC
  5
9BC
331
9FB
  5
9FB
331
A36
  5
A36
331
A75
  5
A75
331
A71
  5
A71
331
9B8
  5
9B8
331
A32
  5
A32
331
AA6
  5
AA6
331
AA2
  5
AA2
331
A9E
  5
A9E
331
A9A
  5
A9A
331
9F7
  5
9F7
331
9F3
  5
9F3
331
A2E
  5
A2E
331
A6D
  5
A6D
331
9B4
  5
9B4
331
9EF
  5
9EF
331
A2A
  5
A2A
331
A69
  5
A69
331
9B0
  5
9B0
331
9EB
  5
9EB
331
A26
  5
A26
331
A65
  5
A65
331
A61
  5
A61
331
A22
  5
A22
331
ABF
  5
ABF
331
ABB
  5
ABB
331
9E7
  5
9E7
331
A5D
  5
A5D
331
9E3
  5
9E3
331
9DF
  5
9DF
331
A1E
  5
A1E
331
A59
  5
A59
331
A94
  5
A94
331
9DB
  5
9DB
331
A1A
  5
A1A
331
A55
  5
A55
331
A51
  5
A51
331
A90
  5
A90
331
AB7
  5
AB7
331
9D7
  5
9D7
331
A16
  5
A16
331
A12
  5
A12
331
A4D
  5
A4D
331
A8C
  5
A8C
331
9D3
  5
9D3
331
9CF
  5
9CF
331
A0E
  5
A0E
331
A49
  5
A49
331
A88
  5
A88
331
A84
  5
A84
331
9CB
  5
9CB
331
A0A
  5
A0A
331
A45
  5
A45
331
A41
  5
A41
331
A80
  5
A80
331
AAD
  5
AAD
331
AA9
  5
AA9
331
AC1
  5
AC1
331
9C7
  5
9C7
331
A06
  5
A06
331
A02
  5
A02
331
A3D
  5
A3D
331
A7C
  5
A7C
331
9C3
  5
9C3
331
9BF
  5
9BF
331
9FE
  5
9FE
331
A39
  5
A39
331
A78
  5
A78
331
A74
  5
A74
331
9BB
  5
9BB
331
9FA
  5
9FA
331
A35
  5
A35
331
A70
  5
A70
331
A31
  5
A31
331
AA5
  5
AA5
331
AA1
  5
AA1
331
A9D
  5
A9D
331
A99
  5
A99
331
9B7
  5
9B7
331
9F6
  5
9F6
331
9F2
  5
9F2
331
A2D
  5
A2D
331
A6C
  5
A6C
331
9B3
  5
9B3
331
9AF
  5
9AF
331
9EE
  5
9EE
331
A29
  5
A29
331
A68
  5
A68
331
9EA
  5
9EA
331
A25
  5
A25
331
A64
  5
A64
331
A60
  5
A60
331
A21
  5
A21
331
C12
  5
C12
331
9E6
  5
9E6
331
9E2
  5
9E2
331
A5C
  5
A5C
331
9DE
  5
9DE
331
A1D
  5
A1D
331
A58
  5
A58
331
A97
  5
A97
331
A93
  5
A93
331
9DA
  5
9DA
331
A19
  5
A19
331
A54
  5
A54
331
A50
  5
A50
331
AB6
  5
AB6
331
A15
  5
A15
331
A8F
  5
A8F
331
9D6
  5
9D6
331
A11
  5
A11
331
A4C
  5
A4C
331
A8B
  5
A8B
331
9D2
  5
9D2
331
9CE
  5
9CE
331
A0D
  5
A0D
331
A48
  5
A48
331
A87
  5
A87
331
A83
  5
A83
331
9CA
  5
9CA
331
A09
  5
A09
331
A44
  5
A44
331
A40
  5
A40
331
EEB
  5
EEB
331
AAC
  5
AAC
331
AA8
  5
AA8
331
AC4
  5
AC4
331
AC0
  5
AC0
331
A7F
  5
A7F
331
9C6
  5
9C6
331
A05
  5
A05
331
A01
  5
A01
331
A3C
  5
A3C
331
A7B
  5
A7B
331
9C2
  5
9C2
331
9BE
  5
9BE
331
9FD
  5
9FD
331
A38
  5
A38
331
A77
  5
A77
331
A73
  5
A73
331
9BA
  5
9BA
331
9F9
  5
9F9
331
A34
  5
A34
331
A30
  5
A30
331
AA4
  5
AA4
331
AA0
  5
AA0
331
A9C
  5
A9C
331
A98
  5
A98
331
A6F
  5
A6F
331
9B6
  5
9B6
331
9F5
  5
9F5
331
9F1
  5
9F1
331
A2C
  5
A2C
331
A6B
  5
A6B
331
9B2
  5
9B2
331
9AE
  5
9AE
331
9ED
  5
9ED
331
A28
  5
A28
331
A67
  5
A67
331
A63
  5
A63
331
9E9
  5
9E9
331
A24
  5
A24
331
A20
  5
A20
  0
SORTENTSTABLE
  5
6D2
102
{ACAD_REACTORS
330
6D1
102
}
330
6D1
100
AcDbSortentsTable
330
6D0
  0
XRECORD
  5
F8C
102
{ACAD_REACTORS
330
ED3
102
}
330
ED3
100
AcDbXrecord
280
     1
 40
2571.0
  1
25°
  0
XRECORD
  5
F8D
102
{ACAD_REACTORS
330
ED5
102
}
330
ED5
100
AcDbXrecord
280
     1
 40
2561.0
  1
20°
  0
XRECORD
  5
F87
102
{ACAD_REACTORS
330
F86
102
}
330
F86
100
AcDbXrecord
280
     1
102
VERTEXIDENTIFIER
310
0800000007000000080000000900000000000000000000000000000000000000
  0
XRECORD
  5
F89
102
{ACAD_REACTORS
330
F88
102
}
330
F88
100
AcDbXrecord
280
     1
102
VERTEXIDENTIFIER
310
080000000000000000000000000000000A0000000B0000000000000000000000
  0
DIMASSOC
  5
ABA
102
{ACAD_REACTORS
330
AB9
102
}
330
AB9
100
AcDbDimAssoc
330
AB8
 90
        1
 70
     0
 71
     0
  1
AcDbOsnapPointRef
 72
    11
331
AB6
 73
     2
 91
        0
 40
5.0
 10
0.0
 20
0.0
 30
0.0
332
AB6
 74
     2
 92
        0
 75
     0
  0
XRECORD
  5
F8B
102
{ACAD_REACTORS
330
F8A
102
}
330
F8A
100
AcDbXrecord
280
     1
102
ACAD_ROUNDTRIP_2012_MLEADER
295
     1
  0
DIMASSOC
  5
ABE
102
{ACAD_REACTORS
330
ABD
102
}
330
ABD
100
AcDbDimAssoc
330
ABC
 90
        2
 70
     0
 71
     0
  1
AcDbOsnapPointRef
 72
     1
331
AB6
 73
     2
 91
        3
 40
1.0
 10
0.0
 20
0.0
 30
2.000000000000000E+50
 75
     0
  0
XRECORD
  5
F47
102
{ACAD_REACTORS
330
F46
102
}
330
F46
100
AcDbXrecord
280
     1
 70
     1
  0
XRECORD
  5
F49
102
{ACAD_REACTORS
330
F46
102
}
330
F46
100
AcDbXrecord
280
     1
340
12
  0
XRECORD
  5
F4A
102
{ACAD_REACTORS
330
F46
102
}
330
F46
100
AcDbXrecord
280
     1
340
12
  0
XRECORD
  5
F48
102
{ACAD_REACTORS
330
F46
102
}
330
F46
100
AcDbXrecord
280
     1
340
12
  0
ACDBASSOCNETWORK
  5
9AA
102
{ACAD_REACTORS
330
9A9
102
}
330
9A9
100
AcDbAssocAction
 90
        1
 90
        0
330
0
360
0
 90
        0
 90
        0
 90
        0
100
AcDbAssocNetwork
 90
        0
 90
        2
 90
        1
330
AEE
 90
        0
  0
ACDBDETAILVIEWSTYLE
  5
EDD
102
{ACAD_XDICTIONARY
360
F90
102
}
102
{ACAD_REACTORS
330
EDC
102
}
330
EDC
100
AcDbModelDocViewStyle
 70
     0
  3
Metric50
290
     0
100
AcDbDetailViewStyle
 70
     0
 71
     0
 90
        3
 71
     1
340
10
 40
5.0
340
0
 40
5.0
300

 40
0.0
280
     1
 71
     2
340
14
 90
       25
 71
     3
340
10
 40
5.0
 90
        0
 40
15.0
 90
        1
300
%<\AcVar ViewDetailId>% (%<\AcVar ViewScale \f "%sn">%)
 71
     4
340
14
 90
       25
340
14
 90
       25
280
     0
  0
LAYOUT
  5
33B
102
{ACAD_XDICTIONARY
360
F4D
102
}
102
{ACAD_REACTORS
330
301
102
}
330
301
100
AcDbPlotSettings
  1

  2
Lexmark Optra PS2
  4

  6

 40
0.0
 41
0.0
 42
0.0
 43
0.0
 44
0.0
 45
0.0
 46
0.0
 47
0.0
 48
0.0
 49
0.0
140
0.0
141
0.0
142
1.0
143
1.0
 70
   688
 72
     0
 73
     0
 74
     5
  7
monochrome.ctb
 75
    16
147
1.0
148
0.0
149
0.0
100
AcDbLayout
  1
Layout1
 70
     1
 71
     1
 10
0.0
 20
0.0
 11
12.0
 21
9.0
 12
0.0
 22
0.0
 32
0.0
 14
0.0
 24
0.0
 34
0.0
 15
0.0
 25
0.0
 35
0.0
146
0.0
 13
0.0
 23
0.0
 33
0.0
 16
1.0
 26
0.0
 36
0.0
 17
0.0
 27
1.0
 37
0.0
 76
     0
330
338
  0
LAYOUT
  5
303
102
{ACAD_XDICTIONARY
360
F4B
102
}
102
{ACAD_REACTORS
330
301
102
}
330
301
100
AcDbPlotSettings
  1

  2
Default Windows System Printer.pc3
  4
A4
  6

 40
6.805083274841307
 41
5.535083293914794
 42
6.974411010742187
 43
7.14373779296875
 44
209.9733276367186
 45
296.9259948730469
 46
67.83299579489725
 47
0.0
 48
0.0
 49
0.0
140
0.0
141
0.0
142
1.0
143
0.3604333568168785
 70
  3764
 72
     1
 73
     1
 74
     1
  7
monochrome.ctb
 75
     0
147
2.774437995504559
148
-82.35087775247029
149
-53.69369632994493
100
AcDbLayout
  1
Model
 70
     1
 71
     0
 10
0.0
 20
0.0
 11
12.0
 21
9.0
 12
0.0
 22
0.0
 32
0.0
 14
0.0
 24
0.0
 34
0.0
 15
0.0
 25
0.0
 35
0.0
146
0.0
 13
0.0
 23
0.0
 33
0.0
 16
1.0
 26
0.0
 36
0.0
 17
0.0
 27
1.0
 37
0.0
 76
     0
330
18
331
3ED
1001
ACAD_PSEXT
1000
Default Windows System Printer.pc3
1000
Lexmark Optra Rx
1000
Lexmark Rx
1000
Erstellt von Lexmark Benutzerdefinierte Installation,Nov 13,2005,10:03
1070
     0
  0
MATERIAL
  5
3F0
102
{ACAD_XDICTIONARY
360
E61
102
}
102
{ACAD_REACTORS
330
386
102
}
330
386
100
AcDbMaterial
  1
ByBlock
 73
     1
 78
     1
172
     1
176
     1
270
     1
274
     1
  0
MATERIAL
  5
3EF
102
{ACAD_XDICTIONARY
360
E5F
102
}
102
{ACAD_REACTORS
330
386
102
}
330
386
100
AcDbMaterial
  1
ByLayer
 73
     1
 78
     1
172
     1
176
     1
270
     1
274
     1
  0
MATERIAL
  5
3F1
102
{ACAD_XDICTIONARY
360
E63
102
}
102
{ACAD_REACTORS
330
386
102
}
330
386
100
AcDbMaterial
  1
Global
 73
     1
 78
     1
172
     1
176
     1
270
     1
274
     1
  0
MLEADERSTYLE
  5
43D
102
{ACAD_XDICTIONARY
360
F70
102
}
102
{ACAD_REACTORS
330
43C
330
ABB
102
}
330
43C
100
AcDbMLeaderStyle
170
     2
171
     1
172
     0
 90
        2
 40
0.0
 41
0.0
173
     1
 91
-1056964608
340
12
 92
       -2
290
     1
 42
2.0
291
     1
 43
0.36
  3
Standard
 44
4.0
300

342
10
174
     1
178
     6
175
     1
176
     0
 93
-1056964608
 45
4.0
292
     0
297
     0
 46
4.0
 94
-1056964608
 47
1.0
 49
1.0
140
1.0
293
     1
141
0.0
294
     1
177
     0
142
1.0
295
     0
296
     0
143
0.125
1001
ACAD_MLEADERVER
1070
     2
  0
MLINESTYLE
  5
1B
102
{ACAD_REACTORS
330
E
102
}
330
E
100
AcDbMlineStyle
  2
STANDARD
 70
     0
  3

 62
     0
 51
90.0
 52
90.0
 71
     2
 49
0.5
 62
   256
  6
BYLAYER
 49
-0.5
 62
   256
  6
BYLAYER
  0
ACDBPLACEHOLDER
  5
300
102
{ACAD_REACTORS
330
2FF
102
}
330
2FF
  0
SCALE
  5
41B
102
{ACAD_REACTORS
330
41A
102
}
330
41A
100
AcDbScale
 70
     0
300
1:1
140
1.0
141
1.0
290
     1
  0
SCALE
  5
41C
102
{ACAD_REACTORS
330
41A
102
}
330
41A
100
AcDbScale
 70
     0
300
1:2
140
1.0
141
2.0
290
     0
  0
SCALE
  5
41D
102
{ACAD_REACTORS
330
41A
102
}
330
41A
100
AcDbScale
 70
     0
300
1:4
140
1.0
141
4.0
290
     0
  0
SCALE
  5
41E
102
{ACAD_REACTORS
330
41A
102
}
330
41A
100
AcDbScale
 70
     0
300
1:5
140
1.0
141
5.0
290
     0
  0
SCALE
  5
41F
102
{ACAD_REACTORS
330
41A
102
}
330
41A
100
AcDbScale
 70
     0
300
1:8
140
1.0
141
8.0
290
     0
  0
SCALE
  5
420
102
{ACAD_REACTORS
330
41A
102
}
330
41A
100
AcDbScale
 70
     0
300
1:10
140
1.0
141
10.0
290
     0
  0
SCALE
  5
421
102
{ACAD_REACTORS
330
41A
102
}
330
41A
100
AcDbScale
 70
     0
300
1:16
140
1.0
141
16.0
290
     0
  0
SCALE
  5
422
102
{ACAD_REACTORS
330
41A
102
}
330
41A
100
AcDbScale
 70
     0
300
1:20
140
1.0
141
20.0
290
     0
  0
SCALE
  5
423
102
{ACAD_REACTORS
330
41A
102
}
330
41A
100
AcDbScale
 70
     0
300
1:30
140
1.0
141
30.0
290
     0
  0
SCALE
  5
424
102
{ACAD_REACTORS
330
41A
102
}
330
41A
100
AcDbScale
 70
     0
300
1:40
140
1.0
141
40.0
290
     0
  0
SCALE
  5
425
102
{ACAD_REACTORS
330
41A
102
}
330
41A
100
AcDbScale
 70
     0
300
1:50
140
1.0
141
50.0
290
     0
  0
SCALE
  5
426
102
{ACAD_REACTORS
330
41A
102
}
330
41A
100
AcDbScale
 70
     0
300
1:100
140
1.0
141
100.0
290
     0
  0
SCALE
  5
427
102
{ACAD_REACTORS
330
41A
102
}
330
41A
100
AcDbScale
 70
     0
300
2:1
140
2.0
141
1.0
290
     0
  0
SCALE
  5
428
102
{ACAD_REACTORS
330
41A
102
}
330
41A
100
AcDbScale
 70
     0
300
4:1
140
4.0
141
1.0
290
     0
  0
SCALE
  5
429
102
{ACAD_REACTORS
330
41A
102
}
330
41A
100
AcDbScale
 70
     0
300
8:1
140
8.0
141
1.0
290
     0
  0
SCALE
  5
42A
102
{ACAD_REACTORS
330
41A
102
}
330
41A
100
AcDbScale
 70
     0
300
10:1
140
10.0
141
1.0
290
     0
  0
SCALE
  5
42B
102
{ACAD_REACTORS
330
41A
102
}
330
41A
100
AcDbScale
 70
     0
300
100:1
140
100.0
141
1.0
290
     0
  0
SCALE
  5
42C
102
{ACAD_REACTORS
330
41A
102
}
330
41A
100
AcDbScale
 70
     0
300
1/128" = 1'-0"
140
0.0078125
141
12.0
290
     0
  0
SCALE
  5
42D
102
{ACAD_REACTORS
330
41A
102
}
330
41A
100
AcDbScale
 70
     0
300
1/64" = 1'-0"
140
0.015625
141
12.0
290
     0
  0
SCALE
  5
42E
102
{ACAD_REACTORS
330
41A
102
}
330
41A
100
AcDbScale
 70
     0
300
1/32" = 1'-0"
140
0.03125
141
12.0
290
     0
  0
SCALE
  5
42F
102
{ACAD_REACTORS
330
41A
102
}
330
41A
100
AcDbScale
 70
     0
300
1/16" = 1'-0"
140
0.0625
141
12.0
290
     0
  0
SCALE
  5
430
102
{ACAD_REACTORS
330
41A
102
}
330
41A
100
AcDbScale
 70
     0
300
3/32" = 1'-0"
140
0.09375
141
12.0
290
     0
  0
SCALE
  5
431
102
{ACAD_REACTORS
330
41A
102
}
330
41A
100
AcDbScale
 70
     0
300
1/8" = 1'-0"
140
0.125
141
12.0
290
     0
  0
SCALE
  5
432
102
{ACAD_REACTORS
330
41A
102
}
330
41A
100
AcDbScale
 70
     0
300
3/16" = 1'-0"
140
0.1875
141
12.0
290
     0
  0
SCALE
  5
433
102
{ACAD_REACTORS
330
41A
102
}
330
41A
100
AcDbScale
 70
     0
300
1/4" = 1'-0"
140
0.25
141
12.0
290
     0
  0
SCALE
  5
434
102
{ACAD_REACTORS
330
41A
102
}
330
41A
100
AcDbScale
 70
     0
300
3/8" = 1'-0"
140
0.375
141
12.0
290
     0
  0
SCALE
  5
435
102
{ACAD_REACTORS
330
41A
102
}
330
41A
100
AcDbScale
 70
     0
300
1/2" = 1'-0"
140
0.5
141
12.0
290
     0
  0
SCALE
  5
436
102
{ACAD_REACTORS
330
41A
102
}
330
41A
100
AcDbScale
 70
     0
300
3/4" = 1'-0"
140
0.75
141
12.0
290
     0
  0
SCALE
  5
437
102
{ACAD_REACTORS
330
41A
102
}
330
41A
100
AcDbScale
 70
     0
300
1" = 1'-0"
140
1.0
141
12.0
290
     0
  0
SCALE
  5
438
102
{ACAD_REACTORS
330
41A
102
}
330
41A
100
AcDbScale
 70
     0
300
1-1/2" = 1'-0"
140
1.5
141
12.0
290
     0
  0
SCALE
  5
439
102
{ACAD_REACTORS
330
41A
102
}
330
41A
100
AcDbScale
 70
     0
300
3" = 1'-0"
140
3.0
141
12.0
290
     0
  0
SCALE
  5
43A
102
{ACAD_REACTORS
330
41A
102
}
330
41A
100
AcDbScale
 70
     0
300
6" = 1'-0"
140
6.0
141
12.0
290
     0
  0
SCALE
  5
43B
102
{ACAD_REACTORS
330
41A
102
}
330
41A
100
AcDbScale
 70
     0
300
1'-0" = 1'-0"
140
12.0
141
12.0
290
     0
  0
ACDBSECTIONVIEWSTYLE
  5
EDB
102
{ACAD_XDICTIONARY
360
F8E
102
}
102
{ACAD_REACTORS
330
EDA
102
}
330
EDA
100
AcDbModelDocViewStyle
 70
     0
  3
Metric50
290
     0
100
AcDbSectionViewStyle
 70
     0
 71
     0
 90
      102
 71
     1
340
10
 40
5.0
340
0
340
0
 40
5.0
300
I, O, Q, S, X, Z
 40
10.0
 90
        0
 40
2.5
 90
        0
 71
     2
340
14
 90
       25
340
14
 90
       50
 40
5.0
 40
2.5
 40
5.0
 71
     3
340
10
 40
5.0
 90
        0
 40
15.0
 90
        1
300
%<\AcVar ViewSectionStartId>%-%<\AcVar ViewSectionEndId>% (%<\AcVar ViewScale \f "%sn">%)
 71
     4
300
ANSI31
 40
1.0
 90
        0
290
     0
290
     0
 90
        6
 40
0.0
 40
1.570796326794896
 40
0.2617993877991494
 40
1.308996938995747
 40
-0.2617993877991494
 40
1.832595714594045
  0
TABLESTYLE
  5
389
102
{ACAD_XDICTIONARY
360
444
102
}
102
{ACAD_REACTORS
330
388
102
}
330
388
100
AcDbTableStyle
  3
Standard
 70
     0
 71
     0
 40
1.5
 41
1.5
280
     0
281
     0
  7
STANDARD
140
4.5
170
     2
 62
     0
 63
     7
283
     0
274
    -2
284
     1
 64
     0
275
    -2
285
     1
 65
     0
276
    -2
286
     1
 66
     0
277
    -2
287
     1
 67
     0
278
    -2
288
     1
 68
     0
279
    -2
289
     1
 69
     0
  7
STANDARD
140
6.0
170
     5
 62
     0
 63
     7
283
     0
274
    -2
284
     1
 64
     0
275
    -2
285
     1
 65
     0
276
    -2
286
     1
 66
     0
277
    -2
287
     1
 67
     0
278
    -2
288
     1
 68
     0
279
    -2
289
     1
 69
     0
  7
STANDARD
140
4.5
170
     5
 62
     0
 63
     7
283
     0
274
    -2
284
     1
 64
     0
275
    -2
285
     1
 65
     0
276
    -2
286
     1
 66
     0
277
    -2
287
     1
 67
     0
278
    -2
288
     1
 68
     0
279
    -2
289
     1
 69
     0
  0
VISUALSTYLE
  5
3F8
102
{ACAD_XDICTIONARY
360
F5A
102
}
102
{ACAD_REACTORS
330
3F2
102
}
330
3F2
100
AcDbVisualStyle
  2

 70
     4
 71
     0
 72
     2
 73
     0
 90
        0
 40
-0.6
 41
-30.0
 62
     5
 63
     7
 74
     1
 91
        4
 64
     7
 65
   257
 75
     1
175
     1
 42
1.0
 92
        0
 66
   257
 43
1.0
 76
     1
 77
     6
 78
     2
 67
     7
 79
     5
170
     0
171
     0
290
     0
174
     0
 93
        1
 44
0.0
173
     0
291
     0
 45
0.0
1001
ACAD
1000
AcDbSavedByObjectVersion
1070
     0
  0
VISUALSTYLE
  5
3FA
102
{ACAD_XDICTIONARY
360
F5E
102
}
102
{ACAD_REACTORS
330
3F2
102
}
330
3F2
100
AcDbVisualStyle
  2

 70
     6
 71
     1
 72
     2
 73
     2
 90
        0
 40
-0.6
 41
-30.0
 62
     5
 63
     7
 74
     2
 91
        2
 64
     7
 65
   257
 75
     2
175
     1
 42
40.0
 92
        0
 66
   257
 43
1.0
 76
     1
 77
     6
 78
     2
 67
     7
 79
     3
170
     0
171
     0
290
     0
174
     0
 93
        1
 44
0.0
173
     0
291
     0
 45
0.0
1001
ACAD
1000
AcDbSavedByObjectVersion
1070
     0
  0
VISUALSTYLE
  5
3F9
102
{ACAD_XDICTIONARY
360
F5C
102
}
102
{ACAD_REACTORS
330
3F2
102
}
330
3F2
100
AcDbVisualStyle
  2

 70
     5
 71
     0
 72
     2
 73
     0
 90
        0
 40
-0.6
 41
-30.0
 62
     5
 63
     7
 74
     1
 91
        4
 64
     7
 65
   257
 75
     1
175
     1
 42
1.0
 92
        0
 66
   257
 43
1.0
 76
     1
 77
     6
 78
     2
 67
     7
 79
     5
170
     0
171
     0
290
     0
174
     0
 93
        1
 44
0.0
173
     0
291
     0
 45
0.0
1001
ACAD
1000
AcDbSavedByObjectVersion
1070
     0
  0
VISUALSTYLE
  5
3F7
102
{ACAD_XDICTIONARY
360
F58
102
}
102
{ACAD_REACTORS
330
3F2
102
}
330
3F2
100
AcDbVisualStyle
  2

 70
     7
 71
     1
 72
     0
 73
     1
 90
        0
 40
-0.6
 41
-30.0
 62
     5
 63
     7
 74
     0
 91
        4
 64
     7
 65
   257
 75
     1
175
     1
 42
1.0
 92
        8
 66
     7
 43
1.0
 76
     1
 77
     6
 78
     2
 67
     7
 79
     5
170
     0
171
     0
290
     0
174
     0
 93
        1
 44
0.0
173
     0
291
     1
 45
0.0
1001
ACAD
1000
AcDbSavedByObjectVersion
1070
     0
  0
VISUALSTYLE
  5
3FE
102
{ACAD_XDICTIONARY
360
F66
102
}
102
{ACAD_REACTORS
330
3F2
102
}
330
3F2
100
AcDbVisualStyle
  2

 70
    12
 71
     2
 72
     2
 73
     0
 90
        0
 40
-0.6
 41
-30.0
 62
     5
 63
     7
 74
     1
 91
        4
 64
     7
 65
   257
 75
     1
175
     1
 42
1.0
 92
        8
 66
     7
 43
1.0
 76
     1
 77
     6
 78
     2
 67
     7
 79
     5
170
     0
171
     0
290
     0
174
     0
 93
        1
 44
50.0
173
     0
291
     1
 45
0.0
1001
ACAD
1000
AcDbSavedByObjectVersion
1070
     0
  0
VISUALSTYLE
  5
402
102
{ACAD_XDICTIONARY
360
F6E
102
}
102
{ACAD_REACTORS
330
3F2
102
}
330
3F2
100
AcDbVisualStyle
  2

 70
    16
 71
     2
 72
     2
 73
     3
 90
        0
 40
-0.6
 41
-30.0
 62
     5
 63
     8
 74
     1
 91
        4
 64
     7
 65
   257
 75
     1
175
     1
 42
1.0
 92
        8
 66
     8
 43
1.0
 76
     1
 77
     6
 78
     2
 67
     7
 79
     5
170
     0
171
     0
290
     0
174
     0
 93
        1
 44
0.0
173
     0
291
     1
 45
0.0
1001
ACAD
1000
AcDbSavedByObjectVersion
1070
     0
  0
VISUALSTYLE
  5
3FB
102
{ACAD_XDICTIONARY
360
F60
102
}
102
{ACAD_REACTORS
330
3F2
102
}
330
3F2
100
AcDbVisualStyle
  2

 70
     9
 71
     3
 72
     2
 73
     0
 90
        0
 40
-0.6
 41
-30.0
 62
     5
 63
     7
 74
     2
 91
        2
 64
     7
 65
   257
 75
     1
175
     1
 42
40.0
 92
        8
 66
     7
 43
1.0
 76
     1
 77
     6
 78
     2
 67
     7
 79
     3
170
     0
171
     0
290
     0
174
     0
 93
        1
 44
0.0
173
     0
291
     0
 45
0.0
1001
ACAD
1000
AcDbSavedByObjectVersion
1070
     0
  0
VISUALSTYLE
  5
3FD
102
{ACAD_XDICTIONARY
360
F64
102
}
102
{ACAD_REACTORS
330
3F2
102
}
330
3F2
100
AcDbVisualStyle
  2

 70
    11
 71
     2
 72
     2
 73
     0
 90
        0
 40
-0.6
 41
-30.0
 62
     5
 63
     7
 74
     1
 91
        4
 64
     7
 65
   257
 75
     1
175
     1
 42
1.0
 92
        8
 66
     7
 43
1.0
 76
     1
 77
     6
 78
     2
 67
     7
 79
     5
170
     0
171
     0
290
     0
174
     0
 93
        1
 44
-50.0
173
     0
291
     1
 45
0.0
1001
ACAD
1000
AcDbSavedByObjectVersion
1070
     0
  0
VISUALSTYLE
  5
73A
102
{ACAD_XDICTIONARY
360
F84
102
}
102
{ACAD_REACTORS
330
3F2
102
}
330
3F2
100
AcDbVisualStyle
  2

 70
    22
 71
     2
 72
     2
 73
     0
 90
        0
 40
-0.6
 41
-30.0
 62
     5
 63
     7
 74
     1
 91
        4
 64
     7
 65
   257
 75
     1
175
     1
 42
1.0
 92
        8
 66
     7
 43
1.0
 76
     1
 77
     6
 78
     2
 67
     7
 79
     5
170
     0
171
     0
290
     0
174
     0
 93
        1
 44
0.0
173
     0
291
     1
 45
0.0
1001
ACAD
1000
AcDbSavedByObjectVersion
1070
     0
  0
VISUALSTYLE
  5
401
102
{ACAD_XDICTIONARY
360
F6C
102
}
102
{ACAD_REACTORS
330
3F2
102
}
330
3F2
100
AcDbVisualStyle
  2

 70
    15
 71
     2
 72
     2
 73
     0
 90
        0
 40
-0.6
 41
-30.0
 62
     5
 63
     7
 74
     1
 91
        4
 64
     7
 65
   257
 75
     1
175
     1
 42
1.0
 92
        8
 66
     7
 43
1.0
 76
     1
 77
     6
 78
     2
 67
     7
 79
     5
170
     0
171
     0
290
     0
174
     0
 93
        1
 44
0.0
173
     0
291
     1
 45
0.0
1001
ACAD
1000
AcDbSavedByObjectVersion
1070
     0
  0
VISUALSTYLE
  5
3F3
102
{ACAD_XDICTIONARY
360
F50
102
}
102
{ACAD_REACTORS
330
3F2
102
}
330
3F2
100
AcDbVisualStyle
  2

 70
     0
 71
     2
 72
     1
 73
     1
 90
        2
 40
-0.6
 41
30.0
 62
     5
 63
     7
 74
     0
 91
        4
 64
     7
 65
   257
 75
     1
175
     1
 42
1.0
 92
        8
 66
     7
 43
1.0
 76
     1
 77
     6
 78
     2
 67
     7
 79
     5
170
     0
171
     0
290
     0
174
     0
 93
       13
 44
0.0
173
     0
291
     1
 45
0.0
1001
ACAD
1000
AcDbSavedByObjectVersion
1070
     0
  0
VISUALSTYLE
  5
3F4
102
{ACAD_XDICTIONARY
360
F52
102
}
102
{ACAD_REACTORS
330
3F2
102
}
330
3F2
100
AcDbVisualStyle
  2

 70
     1
 71
     2
 72
     1
 73
     1
 90
        2
 40
-0.6
 41
30.0
 62
     5
 63
     7
 74
     1
 91
        4
 64
     7
 65
   257
 75
     1
175
     1
 42
1.0
 92
        0
 66
   257
 43
1.0
 76
     1
 77
     6
 78
     2
 67
     7
 79
     5
170
     0
171
     0
290
     0
174
     0
 93
       13
 44
0.0
173
     0
291
     1
 45
0.0
1001
ACAD
1000
AcDbSavedByObjectVersion
1070
     0
  0
VISUALSTYLE
  5
3F5
102
{ACAD_XDICTIONARY
360
F54
102
}
102
{ACAD_REACTORS
330
3F2
102
}
330
3F2
100
AcDbVisualStyle
  2

 70
     2
 71
     2
 72
     2
 73
     1
 90
        2
 40
-0.6
 41
30.0
 62
     5
 63
     7
 74
     0
 91
        4
 64
     7
 65
   257
 75
     1
175
     1
 42
1.0
 92
        0
 66
     7
 43
1.0
 76
     1
 77
     6
 78
     2
 67
     7
 79
     5
170
     0
171
     0
290
     0
174
     0
 93
       13
 44
0.0
173
     0
291
     1
 45
0.0
1001
ACAD
1000
AcDbSavedByObjectVersion
1070
     0
  0
VISUALSTYLE
  5
3F6
102
{ACAD_XDICTIONARY
360
F56
102
}
102
{ACAD_REACTORS
330
3F2
102
}
330
3F2
100
AcDbVisualStyle
  2

 70
     3
 71
     2
 72
     2
 73
     1
 90
        2
 40
-0.6
 41
30.0
 62
     5
 63
     7
 74
     1
 91
        4
 64
     7
 65
   257
 75
     1
175
     1
 42
1.0
 92
        0
 66
   257
 43
1.0
 76
     1
 77
     6
 78
     2
 67
     7
 79
     5
170
     0
171
     0
290
     0
174
     0
 93
       13
 44
0.0
173
     0
291
     1
 45
0.0
1001
ACAD
1000
AcDbSavedByObjectVersion
1070
     0
  0
VISUALSTYLE
  5
732
102
{ACAD_XDICTIONARY
360
F74
102
}
102
{ACAD_REACTORS
330
3F2
102
}
330
3F2
100
AcDbVisualStyle
  2

 70
     6
 71
     1
 72
     2
 73
     2
 90
        0
 40
-0.6
 41
-30.0
 62
     5
 63
     7
 74
     2
 91
        2
 64
     7
 65
   257
 75
     2
175
     1
 42
40.0
 92
        0
 66
   257
 43
1.0
 76
     1
 77
     6
 78
     2
 67
     7
 79
     3
170
     0
171
     0
290
     0
174
     0
 93
        1
 44
0.0
173
     0
291
     0
 45
0.0
1001
ACAD
1000
AcDbSavedByObjectVersion
1070
     0
  0
VISUALSTYLE
  5
738
102
{ACAD_XDICTIONARY
360
F80
102
}
102
{ACAD_REACTORS
330
3F2
102
}
330
3F2
100
AcDbVisualStyle
  2

 70
    20
 71
     2
 72
     2
 73
     0
 90
        0
 40
-0.6
 41
-30.0
 62
     5
 63
     7
 74
     1
 91
        4
 64
     7
 65
   257
 75
     1
175
     1
 42
1.0
 92
       10
 66
     7
 43
1.0
 76
     1
 77
     6
 78
     2
 67
     7
 79
     5
170
     0
171
     0
290
     0
174
     0
 93
        1
 44
0.0
173
     0
291
     1
 45
0.0
1001
ACAD
1000
AcDbSavedByObjectVersion
1070
     0
  0
VISUALSTYLE
  5
400
102
{ACAD_XDICTIONARY
360
F6A
102
}
102
{ACAD_REACTORS
330
3F2
102
}
330
3F2
100
AcDbVisualStyle
  2

 70
    14
 71
     2
 72
     2
 73
     0
 90
        0
 40
-0.6
 41
-30.0
 62
     5
 63
     7
 74
     1
 91
        4
 64
     7
 65
   257
 75
     7
175
     7
 42
1.0
 92
        8
 66
     7
 43
1.0
 76
     1
 77
     6
 78
     2
 67
     7
 79
     5
170
     0
171
     0
290
     0
174
     0
 93
        1
 44
0.0
173
     0
291
     1
 45
0.0
1001
ACAD
1000
AcDbSavedByObjectVersion
1070
     0
  0
VISUALSTYLE
  5
739
102
{ACAD_XDICTIONARY
360
F82
102
}
102
{ACAD_REACTORS
330
3F2
102
}
330
3F2
100
AcDbVisualStyle
  2

 70
    21
 71
     2
 72
     2
 73
     0
 90
        0
 40
-0.6
 41
-30.0
 62
     5
 63
     7
 74
     1
 91
        4
 64
     7
 65
   257
 75
     1
175
     1
 42
1.0
 92
        9
 66
     7
 43
1.0
 76
     1
 77
     6
 78
     2
 67
     7
 79
     5
170
     0
171
     0
290
     0
174
     0
 93
        1
 44
0.0
173
     0
291
     1
 45
0.0
1001
ACAD
1000
AcDbSavedByObjectVersion
1070
     0
  0
VISUALSTYLE
  5
3FC
102
{ACAD_XDICTIONARY
360
F62
102
}
102
{ACAD_REACTORS
330
3F2
102
}
330
3F2
100
AcDbVisualStyle
  2

 70
     8
 71
     2
 72
     2
 73
     0
 90
        0
 40
-0.6
 41
-30.0
 62
     5
 63
     7
 74
     1
 91
        0
 64
     7
 65
   257
 75
     1
175
     1
 42
1.0
 92
        8
 66
     8
 43
1.0
 76
     1
 77
     6
 78
     2
 67
     7
 79
     5
170
     0
171
     0
290
     0
174
     0
 93
       13
 44
0.0
173
     0
291
     0
 45
0.0
1001
ACAD
1000
AcDbSavedByObjectVersion
1070
     0
  0
VISUALSTYLE
  5
737
102
{ACAD_XDICTIONARY
360
F7E
102
}
102
{ACAD_REACTORS
330
3F2
102
}
330
3F2
100
AcDbVisualStyle
  2

 70
    27
 71
     2
 72
     2
 73
     1
 90
        2
 40
-0.6
 41
30.0
 62
     5
 63
     7
 74
     0
 91
        4
 64
     7
 65
   257
 75
     1
175
     1
 42
1.0
 92
        8
 66
   257
 43
1.0
 76
     1
 77
     6
 78
     2
 67
     8
 79
     3
170
     0
171
     0
290
     0
174
     0
 93
        5
 44
0.0
173
     0
291
     0
 45
0.0
1001
ACAD
1000
AcDbSavedByObjectVersion
1070
     0
  0
VISUALSTYLE
  5
736
102
{ACAD_XDICTIONARY
360
F7C
102
}
102
{ACAD_REACTORS
330
3F2
102
}
330
3F2
100
AcDbVisualStyle
  2

 70
    26
 71
     2
 72
     2
 73
     1
 90
        2
 40
-0.6
 41
30.0
 62
     5
 63
     7
 74
     1
 91
       10
 64
     7
 65
   257
 75
     2
175
     1
 42
1.0
 92
        8
 66
   257
 43
1.0
 76
     1
 77
     6
 78
     2
 67
     7
 79
     3
170
     0
171
     0
290
     0
174
     0
 93
        5
 44
0.0
173
     0
291
     0
 45
0.0
1001
ACAD
1000
AcDbSavedByObjectVersion
1070
     0
  0
VISUALSTYLE
  5
733
102
{ACAD_XDICTIONARY
360
F76
102
}
102
{ACAD_REACTORS
330
3F2
102
}
330
3F2
100
AcDbVisualStyle
  2

 70
    23
 71
     2
 72
     2
 73
     3
 90
        0
 40
-0.6
 41
-30.0
 62
     5
 63
     7
 74
     2
 91
        2
 64
     7
 65
     7
 75
     1
175
     1
 42
40.0
 92
        8
 66
     7
 43
1.0
 76
     1
 77
     6
 78
     2
 67
     7
 79
     3
170
     0
171
     0
290
     0
174
     0
 93
        1
 44
0.0
173
     0
291
     0
 45
0.0
1001
ACAD
1000
AcDbSavedByObjectVersion
1070
     0
  0
VISUALSTYLE
  5
734
102
{ACAD_XDICTIONARY
360
F78
102
}
102
{ACAD_REACTORS
330
3F2
102
}
330
3F2
100
AcDbVisualStyle
  2

 70
    24
 71
     1
 72
     2
 73
     2
 90
        0
 40
-0.6
 41
-30.0
 62
     5
 63
     7
 74
     2
 91
        2
 64
     7
 65
     7
 75
     1
175
     1
 42
40.0
 92
       11
 66
     7
 43
1.0
 76
     1
 77
     6
 78
     2
 67
     7
 79
     6
170
     0
171
     0
290
     0
174
     0
 93
        1
 44
0.0
173
     0
291
     0
 45
0.0
1001
ACAD
1000
AcDbSavedByObjectVersion
1070
     0
  0
VISUALSTYLE
  5
3FF
102
{ACAD_XDICTIONARY
360
F68
102
}
102
{ACAD_REACTORS
330
3F2
102
}
330
3F2
100
AcDbVisualStyle
  2

 70
    13
 71
     2
 72
     2
 73
     0
 90
        0
 40
-0.6
 41
-30.0
 62
     5
 63
     7
 74
     1
 91
        4
 64
     7
 65
   257
 75
     1
175
     1
 42
1.0
 92
       12
 66
     7
 43
1.0
 76
     1
 77
     6
 78
     2
 67
     7
 79
     5
170
     0
171
     0
290
     0
174
     0
 93
        1
 44
0.0
173
     0
291
     1
 45
0.0
1001
ACAD
1000
AcDbSavedByObjectVersion
1070
     0
  0
VISUALSTYLE
  5
731
102
{ACAD_XDICTIONARY
360
F72
102
}
102
{ACAD_REACTORS
330
3F2
102
}
330
3F2
100
AcDbVisualStyle
  2

 70
     5
 71
     0
 72
     2
 73
     0
 90
        0
 40
-0.6
 41
-30.0
 62
     5
 63
     7
 74
     1
 91
        4
 64
     7
 65
   257
 75
     1
175
     1
 42
1.0
 92
        0
 66
   257
 43
1.0
 76
     1
 77
     6
 78
     2
 67
     7
 79
     3
170
     0
171
     0
290
     0
174
     0
 93
        1
 44
0.0
173
     0
291
     0
 45
0.0
1001
ACAD
1000
AcDbSavedByObjectVersion
1070
     0
  0
VISUALSTYLE
  5
735
102
{ACAD_XDICTIONARY
360
F7A
102
}
102
{ACAD_REACTORS
330
3F2
102
}
330
3F2
100
AcDbVisualStyle
  2

 70
    25
 71
     2
 72
     2
 73
     1
 90
        1
 40
0.5
 41
-30.0
 62
     5
 63
     7
 74
     1
 91
        0
 64
     7
 65
   257
 75
     1
175
     1
 42
1.0
 92
        8
 66
     7
 43
1.0
 76
     1
 77
     6
 78
     2
 67
     7
 79
     3
170
     0
171
     0
290
     0
174
     0
 93
       13
 44
0.0
173
     0
291
     0
 45
0.0
1001
ACAD
1000
AcDbSavedByObjectVersion
1070
     0
  0
DICTIONARYVAR
  5
449
102
{ACAD_REACTORS
330
357
102
}
330
357
100
DictionaryVariables
280
     0
  1
1:1
  0
DICTIONARYVAR
  5
447
102
{ACAD_REACTORS
330
357
102
}
330
357
100
DictionaryVariables
280
     0
  1
STANDARD
  0
DICTIONARYVAR
  5
38E
102
{ACAD_REACTORS
330
357
102
}
330
357
100
DictionaryVariables
280
     0
  1
STANDARD
  0
DICTIONARYVAR
  5
EEE
102
{ACAD_REACTORS
330
357
102
}
330
357
100
DictionaryVariables
280
     0
  1
Metric50
  0
DICTIONARYVAR
  5
EEF
102
{ACAD_REACTORS
330
357
102
}
330
357
100
DictionaryVariables
280
     0
  1
Metric50
  0
DICTIONARYVAR
  5
359
102
{ACAD_REACTORS
330
357
102
}
330
357
100
DictionaryVariables
280
     0
  1
2
  0
DICTIONARYVAR
  5
358
102
{ACAD_REACTORS
330
357
102
}
330
357
100
DictionaryVariables
280
     0
  1
1
  0
DICTIONARYVAR
  5
E50
102
{ACAD_REACTORS
330
357
102
}
330
357
100
DictionaryVariables
280
     0
  1
0
  0
DICTIONARYVAR
  5
7AE
102
{ACAD_REACTORS
330
357
102
}
330
357
100
DictionaryVariables
280
     0
  1
1
  0
DICTIONARYVAR
  5
7AF
102
{ACAD_REACTORS
330
357
102
}
330
357
100
DictionaryVariables
280
     0
  1
15
  0
DICTIONARYVAR
  5
44A
102
{ACAD_REACTORS
330
357
102
}
330
357
100
DictionaryVariables
280
     0
  1
0
  0
DICTIONARYVAR
  5
448
102
{ACAD_REACTORS
330
357
102
}
330
357
100
DictionaryVariables
280
     0
  1
0
  0
DICTIONARYVAR
  5
E52
102
{ACAD_REACTORS
330
357
102
}
330
357
100
DictionaryVariables
280
     0
  1
1
  0
DICTIONARYVAR
  5
E4F
102
{ACAD_REACTORS
330
357
102
}
330
357
100
DictionaryVariables
280
     0
  1
127
  0
DICTIONARYVAR
  5
F42
102
{ACAD_REACTORS
330
357
102
}
330
357
100
DictionaryVariables
280
     0
  1
2
  0
DICTIONARY
  5
76F
102
{ACAD_REACTORS
330
76D
102
}
330
76D
100
AcDbDictionary
281
     1
  0
XRECORD
  5
C7D
102
{ACAD_REACTORS
330
C7C
102
}
330
C7C
100
AcDbXrecord
280
     1
330
AB1
330
AC4
330
982
330
995
  0
ACDBASSOCNETWORK
  5
AEE
102
{ACAD_REACTORS
330
AED
102
}
330
AED
100
AcDbAssocAction
 90
        1
 90
        0
330
9AA
360
0
 90
        2
 90
        0
 90
        0
100
AcDbAssocNetwork
 90
        0
 90
        3
 90
        1
360
AC7
 90
        0
  0
DICTIONARY
  5
F90
330
EDD
100
AcDbDictionary
280
     1
281
     1
  3
ACAD_XREC_ROUNDTRIP
360
F91
  0
DICTIONARY
  5
F4D
330
33B
100
AcDbDictionary
280
     1
281
     1
  3
ACAD_XREC_ROUNDTRIP
360
F4E
  0
DICTIONARY
  5
F4B
330
303
100
AcDbDictionary
280
     1
281
     1
  3
ACAD_XREC_ROUNDTRIP
360
F4C
  0
DICTIONARY
  5
E61
330
3F0
100
AcDbDictionary
280
     1
281
     1
  3
ACAD_XREC_ROUNDTRIP
360
E62
  0
DICTIONARY
  5
E5F
330
3EF
100
AcDbDictionary
280
     1
281
     1
  3
ACAD_XREC_ROUNDTRIP
360
E60
  0
DICTIONARY
  5
E63
330
3F1
100
AcDbDictionary
280
     1
281
     1
  3
ACAD_XREC_ROUNDTRIP
360
E64
  0
DICTIONARY
  5
F70
330
43D
100
AcDbDictionary
280
     1
281
     1
  3
ACAD_XREC_ROUNDTRIP
360
F71
  0
DICTIONARY
  5
F8E
330
EDB
100
AcDbDictionary
280
     1
281
     1
  3
ACAD_XREC_ROUNDTRIP
360
F8F
  0
DICTIONARY
  5
444
330
389
100
AcDbDictionary
280
     1
281
     1
  3
ACAD_ROUNDTRIP_2008_TABLESTYLE_CELLSTYLEMAP
360
F43
  3
ACAD_XREC_ROUNDTRIP
360
F4F
  0
DICTIONARY
  5
F5A
330
3F8
100
AcDbDictionary
280
     1
281
     1
  3
ACAD_XREC_ROUNDTRIP
360
F5B
  0
DICTIONARY
  5
F5E
330
3FA
100
AcDbDictionary
280
     1
281
     1
  3
ACAD_XREC_ROUNDTRIP
360
F5F
  0
DICTIONARY
  5
F5C
330
3F9
100
AcDbDictionary
280
     1
281
     1
  3
ACAD_XREC_ROUNDTRIP
360
F5D
  0
DICTIONARY
  5
F58
330
3F7
100
AcDbDictionary
280
     1
281
     1
  3
ACAD_XREC_ROUNDTRIP
360
F59
  0
DICTIONARY
  5
F66
330
3FE
100
AcDbDictionary
280
     1
281
     1
  3
ACAD_XREC_ROUNDTRIP
360
F67
  0
DICTIONARY
  5
F6E
330
402
100
AcDbDictionary
280
     1
281
     1
  3
ACAD_XREC_ROUNDTRIP
360
F6F
  0
DICTIONARY
  5
F60
330
3FB
100
AcDbDictionary
280
     1
281
     1
  3
ACAD_XREC_ROUNDTRIP
360
F61
  0
DICTIONARY
  5
F64
330
3FD
100
AcDbDictionary
280
     1
281
     1
  3
ACAD_XREC_ROUNDTRIP
360
F65
  0
DICTIONARY
  5
F84
330
73A
100
AcDbDictionary
280
     1
281
     1
  3
ACAD_XREC_ROUNDTRIP
360
F85
  0
DICTIONARY
  5
F6C
330
401
100
AcDbDictionary
280
     1
281
     1
  3
ACAD_XREC_ROUNDTRIP
360
F6D
  0
DICTIONARY
  5
F50
330
3F3
100
AcDbDictionary
280
     1
281
     1
  3
ACAD_XREC_ROUNDTRIP
360
F51
  0
DICTIONARY
  5
F52
330
3F4
100
AcDbDictionary
280
     1
281
     1
  3
ACAD_XREC_ROUNDTRIP
360
F53
  0
DICTIONARY
  5
F54
330
3F5
100
AcDbDictionary
280
     1
281
     1
  3
ACAD_XREC_ROUNDTRIP
360
F55
  0
DICTIONARY
  5
F56
330
3F6
100
AcDbDictionary
280
     1
281
     1
  3
ACAD_XREC_ROUNDTRIP
360
F57
  0
DICTIONARY
  5
F74
330
732
100
AcDbDictionary
280
     1
281
     1
  3
ACAD_XREC_ROUNDTRIP
360
F75
  0
DICTIONARY
  5
F80
330
738
100
AcDbDictionary
280
     1
281
     1
  3
ACAD_XREC_ROUNDTRIP
360
F81
  0
DICTIONARY
  5
F6A
330
400
100
AcDbDictionary
280
     1
281
     1
  3
ACAD_XREC_ROUNDTRIP
360
F6B
  0
DICTIONARY
  5
F82
330
739
100
AcDbDictionary
280
     1
281
     1
  3
ACAD_XREC_ROUNDTRIP
360
F83
  0
DICTIONARY
  5
F62
330
3FC
100
AcDbDictionary
280
     1
281
     1
  3
ACAD_XREC_ROUNDTRIP
360
F63
  0
DICTIONARY
  5
F7E
330
737
100
AcDbDictionary
280
     1
281
     1
  3
ACAD_XREC_ROUNDTRIP
360
F7F
  0
DICTIONARY
  5
F7C
330
736
100
AcDbDictionary
280
     1
281
     1
  3
ACAD_XREC_ROUNDTRIP
360
F7D
  0
DICTIONARY
  5
F76
330
733
100
AcDbDictionary
280
     1
281
     1
  3
ACAD_XREC_ROUNDTRIP
360
F77
  0
DICTIONARY
  5
F78
330
734
100
AcDbDictionary
280
     1
281
     1
  3
ACAD_XREC_ROUNDTRIP
360
F79
  0
DICTIONARY
  5
F68
330
3FF
100
AcDbDictionary
280
     1
281
     1
  3
ACAD_XREC_ROUNDTRIP
360
F69
  0
DICTIONARY
  5
F72
330
731
100
AcDbDictionary
280
     1
281
     1
  3
ACAD_XREC_ROUNDTRIP
360
F73
  0
DICTIONARY
  5
F7A
330
735
100
AcDbDictionary
280
     1
281
     1
  3
ACAD_XREC_ROUNDTRIP
360
F7B
  0
ACDBASSOC2DCONSTRAINTGROUP
  5
AC7
330
AEE
100
AcDbAssocAction
 90
        1
 90
        0
330
AEE
360
0
 90
        1
 90
       66
 90
        0
 90
        2
 70
     0
 10
15.80300545176896
 20
21.84448680193395
 30
0.0
 10
1.0
 20
0.0
 30
0.0
 10
0.0
 20
1.0
 30
0.0
360
0
 90
        9
360
AC8
360
ACC
360
AC9
360
ACD
360
ACA
360
ACE
360
ACB
360
ACF
360
AD0
 90
      451
 90
       55
  1
AcConstrainedBoundedLine
330
AC7
 90
        1
 70
     1
 90
        3
 90
        3
 90
        5
 90
        8
330
AD0
 90
        0
 10
-15.80300545184541
 20
-21.84448680193395
 30
0.0
 10
1.0
 20
0.0
 30
0.0
290
     0
 10
-15.80300545184541
 20
-21.84448680193395
 30
0.0
 11
-5.141401558769286
 21
-21.84448680193395
 31
0.0
  1
AcConstrainedImplicitPoint
330
AC7
 90
        2
 70
     1
 90
        2
 90
        3
 90
      262
330
0
 90
        0
280
     0
 90
       -1
 90
        1
  1
AcPointCurveConstraint
330
AC7
 90
        3
 70
     0
 90
        2
 90
        2
 90
        1
 90
        0
290
     1
290
     1
  1
AcConstrainedImplicitPoint
330
AC7
 90
        4
 70
     1
 90
        1
 90
        5
330
0
 90
        0
280
     1
 90
       -1
 90
        1
  1
AcPointCurveConstraint
330
AC7
 90
        5
 70
     0
 90
        2
 90
        4
 90
        1
 90
        0
290
     1
290
     1
  1
AcConstrainedDatumLine
330
AC7
 90
        6
 70
     0
 90
        0
330
0
 90
        0
 10
0.0
 20
0.0
 30
0.0
 10
1.0
 20
0.0
 30
0.0
  1
AcHorizontalConstraint
330
AC7
 90
        8
 70
     0
 90
        1
 90
        1
 90
        0
290
     0
290
     1
 90
        6
  1
AcConstrainedBoundedLine
330
AC7
 90
      183
 70
     1
 90
        3
 90
      185
 90
      187
 90
      194
330
AC8
 90
        0
 10
-15.80300545184541
 20
-21.12621780193393
 30
0.0
 10
0.0
 20
-1.0
 30
0.0
290
     0
 10
-15.80300545184541
 20
-21.12621780193393
 30
0.0
 11
-15.80300545184541
 21
-21.96032380193395
 31
0.0
  1
AcConstrainedImplicitPoint
330
AC7
 90
      184
 70
     1
 90
        1
 90
      185
330
0
 90
        0
280
     0
 90
       -1
 90
      183
  1
AcPointCurveConstraint
330
AC7
 90
      185
 70
     0
 90
        2
 90
      184
 90
      183
 90
        0
290
     1
290
     1
  1
AcConstrainedImplicitPoint
330
AC7
 90
      186
 70
     1
 90
        1
 90
      187
330
0
 90
        0
280
     1
 90
       -1
 90
      183
  1
AcPointCurveConstraint
330
AC7
 90
      187
 70
     0
 90
        2
 90
      186
 90
      183
 90
        0
290
     1
290
     1
  1
AcConstrainedBoundedLine
330
AC7
 90
      189
 70
     1
 90
        3
 90
      191
 90
      193
 90
      194
330
AC9
 90
        0
 10
-6.272979862926276
 20
-21.84448680193395
 30
0.0
 10
-1.0
 20
0.0
 30
0.0
290
     0
 10
-6.272979862926276
 20
-21.84448680193395
 30
0.0
 11
-19.0700054518454
 21
-21.84448680193395
 31
0.0
  1
AcConstrainedImplicitPoint
330
AC7
 90
      190
 70
     1
 90
        1
 90
      191
330
0
 90
        0
280
     0
 90
       -1
 90
      189
  1
AcPointCurveConstraint
330
AC7
 90
      191
 70
     0
 90
        2
 90
      190
 90
      189
 90
        0
290
     1
290
     1
  1
AcConstrainedImplicitPoint
330
AC7
 90
      192
 70
     1
 90
        1
 90
      193
330
0
 90
        0
280
     1
 90
       -1
 90
      189
  1
AcPointCurveConstraint
330
AC7
 90
      193
 70
     0
 90
        2
 90
      192
 90
      189
 90
        0
290
     1
290
     1
  1
AcPerpendicularConstraint
330
AC7
 90
      194
 70
     0
 90
        2
 90
      183
 90
      189
 90
        0
290
     0
290
     1
  1
AcConstrainedBoundedLine
330
AC7
 90
      214
 70
     1
 90
        4
 90
      223
 90
      226
 90
      224
 90
      218
330
ACA
 90
        0
 10
19.12062597017841
 20
-46.38227261460554
 30
0.0
 10
0.0
 20
-1.0
 30
0.0
290
     0
 10
19.12062597017841
 20
-46.38227261460554
 30
0.0
 11
19.12062597017841
 21
-69.4940670021652
 31
0.0
  1
AcConstrainedImplicitPoint
330
AC7
 90
      215
 70
     1
 90
        1
 90
      223
330
0
 90
        0
280
     0
 90
       -1
 90
      214
  1
AcPointCurveConstraint
330
AC7
 90
      216
 70
     0
 90
        2
 90
      219
 90
      227
 90
        0
290
     1
290
     1
  1
AcConstrainedImplicitPoint
330
AC7
 90
      217
 70
     1
 90
        2
 90
      226
 90
      222
330
0
 90
        0
280
     1
 90
       -1
 90
      214
  1
AcPerpendicularConstraint
330
AC7
 90
      218
 70
     0
 90
        2
 90
      227
 90
      214
 90
        0
290
     0
290
     1
  1
AcConstrainedImplicitPoint
330
AC7
 90
      219
 70
     1
 90
        1
 90
      216
330
0
 90
        0
280
     1
 90
       -1
 90
      227
  1
AcConstrainedDatumLine
330
AC7
 90
      220
 70
     0
 90
        0
330
0
 90
        0
 10
63.10327175838711
 20
334.2002322250682
 30
0.0
 10
0.0
 20
1.0
 30
0.0
  1
AcPointCurveConstraint
330
AC7
 90
      221
 70
     0
 90
        2
 90
      225
 90
      227
 90
        0
290
     1
290
     1
  1
AcPointCoincidenceConstraint
330
AC7
 90
      222
 70
     0
 90
        2
 90
      225
 90
      217
 90
        0
290
     0
290
     1
  1
AcPointCurveConstraint
330
AC7
 90
      223
 70
     0
 90
        2
 90
      215
 90
      214
 90
        0
290
     1
290
     1
  1
AcVerticalConstraint
330
AC7
 90
      224
 70
     0
 90
        1
 90
      214
 90
        0
290
     0
290
     1
 90
      220
  1
AcConstrainedImplicitPoint
330
AC7
 90
      225
 70
     1
 90
        2
 90
      221
 90
      222
330
0
 90
        0
280
     0
 90
       -1
 90
      227
  1
AcPointCurveConstraint
330
AC7
 90
      226
 70
     0
 90
        2
 90
      217
 90
      214
 90
        0
290
     1
290
     1
  1
AcConstrainedBoundedLine
330
AC7
 90
      227
 70
     1
 90
        3
 90
      221
 90
      216
 90
      218
330
ACB
 90
        0
 10
19.12062597017841
 20
-69.4940670021652
 30
0.0
 10
-1.0
 20
0.0
 30
0.0
290
     0
 10
19.12062597017841
 20
-69.4940670021652
 30
0.0
 11
-4.25949896711883
 21
-69.4940670021652
 31
0.0
  1
AcConstrainedImplicitPoint
330
AC7
 90
      228
 70
     1
 90
        1
 90
      238
330
0
 90
        0
280
     1
 90
       -1
 90
      237
  1
AcPointCurveConstraint
330
AC7
 90
      229
 70
     0
 90
        2
 90
      234
 90
      237
 90
        0
290
     1
290
     1
  1
AcHorizontalConstraint
330
AC7
 90
      230
 70
     0
 90
        1
 90
      240
 90
        0
290
     0
290
     1
 90
      235
  1
AcConstrainedImplicitPoint
330
AC7
 90
      231
 70
     1
 90
        1
 90
      239
330
0
 90
        0
280
     0
 90
       -1
 90
      240
  1
AcPointCoincidenceConstraint
330
AC7
 90
      232
 70
     0
 90
        2
 90
      234
 90
      233
 90
        0
290
     0
290
     1
  1
AcConstrainedImplicitPoint
330
AC7
 90
      233
 70
     1
 90
        2
 90
      241
 90
      232
330
0
 90
        0
280
     1
 90
       -1
 90
      240
  1
AcConstrainedImplicitPoint
330
AC7
 90
      234
 70
     1
 90
        2
 90
      229
 90
      232
330
0
 90
        0
280
     0
 90
       -1
 90
      237
  1
AcConstrainedDatumLine
330
AC7
 90
      235
 70
     0
 90
        0
330
0
 90
        0
 10
70.18758687023603
 20
323.2826195708362
 30
0.0
 10
1.0
 20
0.0
 30
0.0
  1
AcPerpendicularConstraint
330
AC7
 90
      236
 70
     0
 90
        2
 90
      237
 90
      240
 90
        0
290
     0
290
     1
  1
AcConstrainedBoundedLine
330
AC7
 90
      237
 70
     1
 90
        3
 90
      229
 90
      238
 90
      236
330
ACD
 90
        0
 10
-47.7318208190387
 20
1.014686224174113
 30
0.0
 10
0.0
 20
-1.0
 30
0.0
290
     0
 10
-47.7318208190387
 20
1.014686224174113
 30
0.0
 11
-47.73182081903867
 21
-31.83522380466724
 31
0.0
  1
AcPointCurveConstraint
330
AC7
 90
      238
 70
     0
 90
        2
 90
      228
 90
      237
 90
        0
290
     1
290
     1
  1
AcPointCurveConstraint
330
AC7
 90
      239
 70
     0
 90
        2
 90
      231
 90
      240
 90
        0
290
     1
290
     1
  1
AcConstrainedBoundedLine
330
AC7
 90
      240
 70
     1
 90
        4
 90
      239
 90
      241
 90
      230
 90
      236
330
ACC
 90
        0
 10
-25.0883455190252
 20
1.014686224174113
 30
0.0
 10
-1.0
 20
0.0
 30
0.0
290
     0
 10
-25.0883455190252
 20
1.014686224174113
 30
0.0
 11
-47.7318208190387
 21
1.014686224174113
 31
0.0
  1
AcPointCurveConstraint
330
AC7
 90
      241
 70
     0
 90
        2
 90
      233
 90
      240
 90
        0
290
     1
290
     1
  1
AcConstrainedPoint
330
AC7
 90
      254
 70
     1
 90
        2
 90
      261
 90
      262
330
ACE
 90
      255
 10
-15.80300545184541
 20
-21.84448680193395
 30
0.0
  1
AcConstrainedRigidSet
330
AC7
 90
      255
 70
     1
 90
        0
330
0
 90
        0
290
     0
 40
1.0
 40
0.0
 40
0.0
 40
-15.8030054518454
 40
0.0
 40
1.0
 40
0.0
 40
-21.84448680193395
 40
0.0
 40
0.0
 40
1.0
 40
0.0
 40
0.0
 40
0.0
 40
0.0
 40
1.0
 90
        1
 90
      254
  1
AcConstrainedBoundedLine
330
AC7
 90
      256
 70
     1
 90
        2
 90
      258
 90
      260
330
ACF
 90
        0
 10
-15.80300545184541
 20
-21.84448680193395
 30
0.0
 10
0.0
 20
1.0
 30
0.0
290
     0
 10
-15.80300545184541
 20
-21.84448680193395
 30
0.0
 11
-15.80300545184541
 21
-15.70231059157686
 31
0.0
  1
AcConstrainedImplicitPoint
330
AC7
 90
      257
 70
     1
 90
        2
 90
      258
 90
      261
330
0
 90
        0
280
     0
 90
       -1
 90
      256
  1
AcPointCurveConstraint
330
AC7
 90
      258
 70
     0
 90
        2
 90
      257
 90
      256
 90
        0
290
     1
290
     1
  1
AcConstrainedImplicitPoint
330
AC7
 90
      259
 70
     1
 90
        1
 90
      260
330
0
 90
        0
280
     1
 90
       -1
 90
      256
  1
AcPointCurveConstraint
330
AC7
 90
      260
 70
     0
 90
        2
 90
      259
 90
      256
 90
        0
290
     1
290
     1
  1
AcPointCoincidenceConstraint
330
AC7
 90
      261
 70
     0
 90
        2
 90
      254
 90
      257
 90
        0
290
     0
290
     1
  1
AcPointCoincidenceConstraint
330
AC7
 90
      262
 70
     0
 90
        2
 90
      254
 90
        2
 90
        0
290
     0
290
     1
  0
XRECORD
  5
F91
102
{ACAD_REACTORS
330
F90
102
}
330
F90
100
AcDbXrecord
280
     1
102
DISPLAYNAME
  1
Metric50
102
FLAGS
 90
        0
  0
XRECORD
  5
F4E
102
{ACAD_REACTORS
330
F4D
102
}
330
F4D
100
AcDbXrecord
280
     1
102
SHADEPLOT
 70
     0
102
SHADEPLOTRESLEVEL
 70
     2
102
SHADEPLOTCUSTOMDPI
 70
   300
  0
XRECORD
  5
F4C
102
{ACAD_REACTORS
330
F4B
102
}
330
F4B
100
AcDbXrecord
280
     1
102
SHADEPLOT
 70
     1
102
SHADEPLOTRESLEVEL
 70
     2
102
SHADEPLOTCUSTOMDPI
 70
   300
  0
XRECORD
  5
E62
102
{ACAD_REACTORS
330
E61
102
}
330
E61
100
AcDbXrecord
280
     1
102
MATERIAL
148
0.0
149
0.0
149
0.0
 93
        0
 94
      127
282
     0
 72
     1
 77
     1
171
     1
175
     1
179
     1
273
     0
  0
XRECORD
  5
E60
102
{ACAD_REACTORS
330
E5F
102
}
330
E5F
100
AcDbXrecord
280
     1
102
MATERIAL
148
0.0
149
0.0
149
0.0
 93
        0
 94
      127
282
     0
 72
     1
 77
     1
171
     1
175
     1
179
     1
273
     0
  0
XRECORD
  5
E64
102
{ACAD_REACTORS
330
E63
102
}
330
E63
100
AcDbXrecord
280
     1
102
MATERIAL
148
0.0
149
0.0
149
0.0
 93
        0
 94
      127
282
     0
 72
     1
 77
     1
171
     1
175
     1
179
     1
273
     0
  0
XRECORD
  5
F71
102
{ACAD_REACTORS
330
F70
102
}
330
F70
100
AcDbXrecord
280
     1
102
ACAD_ROUNDTRIP_2012_MLEADER_STYLE
298
     1
  0
XRECORD
  5
F8F
102
{ACAD_REACTORS
330
F8E
102
}
330
F8E
100
AcDbXrecord
280
     1
102
DISPLAYNAME
  1
Metric50
102
FLAGS
 90
        0
  0
CELLSTYLEMAP
  5
F43
102
{ACAD_REACTORS
330
444
102
}
330
444
100
AcDbCellStyleMap
 90
        3
300
CELLSTYLE
  1
TABLEFORMAT_BEGIN
 90
        5
170
     1
 91
        0
 92
    32768
 62
   257
 93
        1
300
CONTENTFORMAT
  1
CONTENTFORMAT_BEGIN
 90
        0
 91
        0
 92
        4
 93
        0
300

 40
0.0
140
1.0
 94
        5
 62
     0
340
10
144
6.0
309
CONTENTFORMAT_END
171
     1
301
MARGIN
  1
CELLMARGIN_BEGIN
 40
1.5
 40
1.5
 40
1.5
 40
1.5
 40
0.18
 40
0.18
309
CELLMARGIN_END
 94
        6
 95
        1
302
GRIDFORMAT
  1
GRIDFORMAT_BEGIN
 90
        0
 91
        1
 62
     0
 92
       -2
340
0
 93
        0
 40
0.045
309
GRIDFORMAT_END
 95
        2
302
GRIDFORMAT
  1
GRIDFORMAT_BEGIN
 90
        0
 91
        1
 62
     0
 92
       -2
340
0
 93
        0
 40
0.045
309
GRIDFORMAT_END
 95
        4
302
GRIDFORMAT
  1
GRIDFORMAT_BEGIN
 90
        0
 91
        1
 62
     0
 92
       -2
340
0
 93
        0
 40
0.045
309
GRIDFORMAT_END
 95
        8
302
GRIDFORMAT
  1
GRIDFORMAT_BEGIN
 90
        0
 91
        1
 62
     0
 92
       -2
340
0
 93
        0
 40
0.045
309
GRIDFORMAT_END
 95
       16
302
GRIDFORMAT
  1
GRIDFORMAT_BEGIN
 90
        0
 91
        1
 62
     0
 92
       -2
340
0
 93
        0
 40
0.045
309
GRIDFORMAT_END
 95
       32
302
GRIDFORMAT
  1
GRIDFORMAT_BEGIN
 90
        0
 91
        1
 62
     0
 92
       -2
340
0
 93
        0
 40
0.045
309
GRIDFORMAT_END
309
TABLEFORMAT_END
  1
CELLSTYLE_BEGIN
 90
        1
 91
        1
300
_TITLE
309
CELLSTYLE_END
300
CELLSTYLE
  1
TABLEFORMAT_BEGIN
 90
        5
170
     1
 91
        0
 92
        0
 62
   257
 93
        1
300
CONTENTFORMAT
  1
CONTENTFORMAT_BEGIN
 90
        0
 91
        0
 92
        4
 93
        0
300

 40
0.0
140
1.0
 94
        5
 62
     0
340
10
144
4.5
309
CONTENTFORMAT_END
171
     1
301
MARGIN
  1
CELLMARGIN_BEGIN
 40
1.5
 40
1.5
 40
1.5
 40
1.5
 40
0.18
 40
0.18
309
CELLMARGIN_END
 94
        6
 95
        1
302
GRIDFORMAT
  1
GRIDFORMAT_BEGIN
 90
        0
 91
        1
 62
     0
 92
       -2
340
0
 93
        0
 40
0.045
309
GRIDFORMAT_END
 95
        2
302
GRIDFORMAT
  1
GRIDFORMAT_BEGIN
 90
        0
 91
        1
 62
     0
 92
       -2
340
0
 93
        0
 40
0.045
309
GRIDFORMAT_END
 95
        4
302
GRIDFORMAT
  1
GRIDFORMAT_BEGIN
 90
        0
 91
        1
 62
     0
 92
       -2
340
0
 93
        0
 40
0.045
309
GRIDFORMAT_END
 95
        8
302
GRIDFORMAT
  1
GRIDFORMAT_BEGIN
 90
        0
 91
        1
 62
     0
 92
       -2
340
0
 93
        0
 40
0.045
309
GRIDFORMAT_END
 95
       16
302
GRIDFORMAT
  1
GRIDFORMAT_BEGIN
 90
        0
 91
        1
 62
     0
 92
       -2
340
0
 93
        0
 40
0.045
309
GRIDFORMAT_END
 95
       32
302
GRIDFORMAT
  1
GRIDFORMAT_BEGIN
 90
        0
 91
        1
 62
     0
 92
       -2
340
0
 93
        0
 40
0.045
309
GRIDFORMAT_END
309
TABLEFORMAT_END
  1
CELLSTYLE_BEGIN
 90
        2
 91
        1
300
_HEADER
309
CELLSTYLE_END
300
CELLSTYLE
  1
TABLEFORMAT_BEGIN
 90
        5
170
     1
 91
        0
 92
        0
 62
   257
 93
        1
300
CONTENTFORMAT
  1
CONTENTFORMAT_BEGIN
 90
        0
 91
        0
 92
        4
 93
        0
300

 40
0.0
140
1.0
 94
        2
 62
     0
340
10
144
4.5
309
CONTENTFORMAT_END
171
     1
301
MARGIN
  1
CELLMARGIN_BEGIN
 40
1.5
 40
1.5
 40
1.5
 40
1.5
 40
0.18
 40
0.18
309
CELLMARGIN_END
 94
        6
 95
        1
302
GRIDFORMAT
  1
GRIDFORMAT_BEGIN
 90
        0
 91
        1
 62
     0
 92
       -2
340
0
 93
        0
 40
0.045
309
GRIDFORMAT_END
 95
        2
302
GRIDFORMAT
  1
GRIDFORMAT_BEGIN
 90
        0
 91
        1
 62
     0
 92
       -2
340
0
 93
        0
 40
0.045
309
GRIDFORMAT_END
 95
        4
302
GRIDFORMAT
  1
GRIDFORMAT_BEGIN
 90
        0
 91
        1
 62
     0
 92
       -2
340
0
 93
        0
 40
0.045
309
GRIDFORMAT_END
 95
        8
302
GRIDFORMAT
  1
GRIDFORMAT_BEGIN
 90
        0
 91
        1
 62
     0
 92
       -2
340
0
 93
        0
 40
0.045
309
GRIDFORMAT_END
 95
       16
302
GRIDFORMAT
  1
GRIDFORMAT_BEGIN
 90
        0
 91
        1
 62
     0
 92
       -2
340
0
 93
        0
 40
0.045
309
GRIDFORMAT_END
 95
       32
302
GRIDFORMAT
  1
GRIDFORMAT_BEGIN
 90
        0
 91
        1
 62
     0
 92
       -2
340
0
 93
        0
 40
0.045
309
GRIDFORMAT_END
309
TABLEFORMAT_END
  1
CELLSTYLE_BEGIN
 90
        3
 91
        2
300
_DATA
309
CELLSTYLE_END
  0
XRECORD
  5
F4F
102
{ACAD_REACTORS
330
444
102
}
330
444
100
AcDbXrecord
280
     1
102
ACAD_ROUNDTRIP_PRE2007_TABLESTYLE
 90
        4
 91
        0
  1

 92
        4
 93
        0
  2

 94
        4
 95
        0
  3

  0
XRECORD
  5
F5B
102
{ACAD_REACTORS
330
F5A
102
}
330
F5A
100
AcDbXrecord
280
     1
102
RTVSPost2010Prop28
280
     1
102
RTVSPost2010PropOp28
 70
     1
102
RTVSPost2010Prop29
280
     1
102
RTVSPost2010PropOp29
 70
     1
102
RTVSPost2010Prop30
280
     0
102
RTVSPost2010PropOp30
 70
     1
102
RTVSPost2010Prop31
280
     0
102
RTVSPost2010PropOp31
 70
     1
102
RTVSPost2010Prop32
280
     0
102
RTVSPost2010PropOp32
 70
     1
102
RTVSPost2010Prop33
280
     0
102
RTVSPost2010PropOp33
 70
     1
102
RTVSPost2010Prop34
280
     0
102
RTVSPost2010PropOp34
 70
     1
102
RTVSPost2010Prop35
280
     0
102
RTVSPost2010PropOp35
 70
     1
102
RTVSPost2010Prop36
280
     0
102
RTVSPost2010PropOp36
 70
     1
102
RTVSPost2010Prop37
 90
       50
102
RTVSPost2010PropOp37
 70
     1
102
RTVSPost2010Prop38
140
0.0
102
RTVSPost2010PropOp38
 70
     1
102
RTVSPost2010Prop39
140
1.0
102
RTVSPost2010PropOp39
 70
     1
102
RTVSPost2010Prop40
 90
        0
102
RTVSPost2010PropOp40
 70
     1
102
RTVSPost2010Prop41ColorIndex
 90
       18
102
RTVSPost2010Prop41ColorRGB
 90
        0
102
RTVSPost2010PropOp41
 70
     1
102
RTVSPost2010Prop42
 90
       50
102
RTVSPost2010PropOp42
 70
     1
102
RTVSPost2010Prop43
 90
        3
102
RTVSPost2010PropOp43
 70
     1
102
RTVSPost2010Prop44ColorIndex
 90
        5
102
RTVSPost2010Prop44ColorRGB
 90
      255
102
RTVSPost2010PropOp44
 70
     1
102
RTVSPost2010Prop45
280
     0
102
RTVSPost2010PropOp45
 70
     1
102
RTVSPost2010Prop46
 90
       50
102
RTVSPost2010PropOp46
 70
     1
102
RTVSPost2010Prop47
 90
       50
102
RTVSPost2010PropOp47
 70
     1
102
RTVSPost2010Prop48
 90
       50
102
RTVSPost2010PropOp48
 70
     1
102
RTVSPost2010Prop49
280
     0
102
RTVSPost2010PropOp49
 70
     1
102
RTVSPost2010Prop50
 90
       50
102
RTVSPost2010PropOp50
 70
     1
102
RTVSPost2010Prop51ColorIndex
 90
      256
102
RTVSPost2010Prop51ColorRGB
 90
-16777216
102
RTVSPost2010PropOp51
 70
     0
102
RTVSPost2010Prop52
140
1.0
102
RTVSPost2010PropOp52
 70
     0
102
RTVSPost2010Prop53
 90
        2
102
RTVSPost2010PropOp53
 70
     1
102
RTVSPost2010Prop54
  1
strokes_ogs.tif
102
RTVSPost2010PropOp54
 70
     1
102
RTVSPost2010Prop55
280
     0
102
RTVSPost2010PropOp55
 70
     1
102
RTVSPost2010Prop56
140
1.0
102
RTVSPost2010PropOp56
 70
     1
102
RTVSPost2010Prop57
140
1.0
102
RTVSPost2010PropOp57
 70
     1
102
RTVSPropertyOp0
 70
     1
102
RTVSPropertyOp1
 70
     1
102
RTVSPropertyOp2
 70
     1
102
RTVSPropertyOp3
 70
     1
102
RTVSPropertyOp4
 70
     1
102
RTVSPropertyOp5
 70
     1
102
RTVSPropertyOp6
 70
     1
102
RTVSPropertyOp7
 70
     1
102
RTVSPropertyOp8
 70
     1
102
RTVSPropertyOp9
 70
     1
102
RTVSPropertyOp10
 70
     1
102
RTVSPropertyOp11
 70
     1
102
RTVSPropertyOp12
 70
     1
102
RTVSPropertyOp13
 70
     1
102
RTVSPropertyOp14
 70
     1
102
RTVSPropertyOp15
 70
     1
102
RTVSPropertyOp16
 70
     1
102
RTVSPropertyOp17
 70
     1
102
RTVSPropertyOp18
 70
     1
102
RTVSPropertyOp19
 70
     1
102
RTVSPropertyOp20
 70
     1
102
RTVSPropertyOp21
 70
     1
102
RTVSPropertyOp22
 70
     1
102
RTVSPropertyOp23
 70
     1
102
RTVSPropertyOp24
 70
     1
102
RTVSPropertyOp25
 70
     1
102
RTVSPropertyOp26
 70
     1
102
RTVSPropertyOp27
 70
     1
102
RTVSPropertyOp28
 70
     1
102
RTVSPropertyOp29
 70
     1
102
RTVSPropertyOp30
 70
     1
102
RTVSPropertyOp31
 70
     1
102
RTVSPropertyOp32
 70
     1
102
RTVSPropertyOp33
 70
     1
102
RTVSPropertyOp34
 70
     1
102
RTVSPropertyOp35
 70
     1
102
RTVSPropertyOp36
 70
     1
102
RTVSPropertyOp37
 70
     1
102
RTVSPropertyOp38
 70
     1
102
RTVSPropertyOp39
 70
     1
102
RTVSPropertyOp40
 70
     1
102
RTVSPropertyOp41
 70
     1
102
RTVSPropertyOp42
 70
     1
102
RTVSPropertyOp43
 70
     1
102
RTVSPropertyOp44
 70
     1
102
RTVSPropertyOp45
 70
     1
102
RTVSPropertyOp46
 70
     1
102
RTVSPropertyOp47
 70
     1
102
RTVSPropertyOp48
 70
     1
102
RTVSPropertyOp49
 70
     1
102
RTVSPropertyOp50
 70
     1
102
RTVSPropertyOp51
 70
     0
102
RTVSPropertyOp52
 70
     0
102
RTVSPropertyOp53
 70
     1
102
RTVSPropertyOp54
 70
     1
102
RTVSPropertyOp55
 70
     1
102
RTVSPropertyOp56
 70
     1
102
RTVSPropertyOp57
 70
     1
102
RTVSPropertyOp58
 70
     1
102
RTVSPropertyOp59
 70
     1
102
RTVSPropertyOp60
 70
     1
102
RTVSPropertyOp61
 70
     1
102
RTVSPropertyOp62
 70
     1
  0
XRECORD
  5
F5F
102
{ACAD_REACTORS
330
F5E
102
}
330
F5E
100
AcDbXrecord
280
     1
102
RTVSPost2010Prop28
280
     0
102
RTVSPost2010PropOp28
 70
     1
102
RTVSPost2010Prop29
280
     1
102
RTVSPost2010PropOp29
 70
     1
102
RTVSPost2010Prop30
280
     1
102
RTVSPost2010PropOp30
 70
     1
102
RTVSPost2010Prop31
280
     0
102
RTVSPost2010PropOp31
 70
     1
102
RTVSPost2010Prop32
280
     0
102
RTVSPost2010PropOp32
 70
     1
102
RTVSPost2010Prop33
280
     0
102
RTVSPost2010PropOp33
 70
     1
102
RTVSPost2010Prop34
280
     0
102
RTVSPost2010PropOp34
 70
     1
102
RTVSPost2010Prop35
280
     0
102
RTVSPost2010PropOp35
 70
     1
102
RTVSPost2010Prop36
280
     0
102
RTVSPost2010PropOp36
 70
     1
102
RTVSPost2010Prop37
 90
       50
102
RTVSPost2010PropOp37
 70
     1
102
RTVSPost2010Prop38
140
0.0
102
RTVSPost2010PropOp38
 70
     1
102
RTVSPost2010Prop39
140
1.0
102
RTVSPost2010PropOp39
 70
     1
102
RTVSPost2010Prop40
 90
        0
102
RTVSPost2010PropOp40
 70
     1
102
RTVSPost2010Prop41ColorIndex
 90
       18
102
RTVSPost2010Prop41ColorRGB
 90
        0
102
RTVSPost2010PropOp41
 70
     1
102
RTVSPost2010Prop42
 90
       50
102
RTVSPost2010PropOp42
 70
     1
102
RTVSPost2010Prop43
 90
        3
102
RTVSPost2010PropOp43
 70
     1
102
RTVSPost2010Prop44ColorIndex
 90
        5
102
RTVSPost2010Prop44ColorRGB
 90
      255
102
RTVSPost2010PropOp44
 70
     1
102
RTVSPost2010Prop45
280
     0
102
RTVSPost2010PropOp45
 70
     1
102
RTVSPost2010Prop46
 90
       50
102
RTVSPost2010PropOp46
 70
     1
102
RTVSPost2010Prop47
 90
       50
102
RTVSPost2010PropOp47
 70
     1
102
RTVSPost2010Prop48
 90
       50
102
RTVSPost2010PropOp48
 70
     1
102
RTVSPost2010Prop49
280
     0
102
RTVSPost2010PropOp49
 70
     1
102
RTVSPost2010Prop50
 90
       50
102
RTVSPost2010PropOp50
 70
     1
102
RTVSPost2010Prop51ColorIndex
 90
      256
102
RTVSPost2010Prop51ColorRGB
 90
-16777216
102
RTVSPost2010PropOp51
 70
     0
102
RTVSPost2010Prop52
140
1.0
102
RTVSPost2010PropOp52
 70
     0
102
RTVSPost2010Prop53
 90
        2
102
RTVSPost2010PropOp53
 70
     1
102
RTVSPost2010Prop54
  1
strokes_ogs.tif
102
RTVSPost2010PropOp54
 70
     1
102
RTVSPost2010Prop55
280
     0
102
RTVSPost2010PropOp55
 70
     1
102
RTVSPost2010Prop56
140
1.0
102
RTVSPost2010PropOp56
 70
     1
102
RTVSPost2010Prop57
140
1.0
102
RTVSPost2010PropOp57
 70
     1
102
RTVSPropertyOp0
 70
     1
102
RTVSPropertyOp1
 70
     1
102
RTVSPropertyOp2
 70
     1
102
RTVSPropertyOp3
 70
     1
102
RTVSPropertyOp4
 70
     1
102
RTVSPropertyOp5
 70
     1
102
RTVSPropertyOp6
 70
     1
102
RTVSPropertyOp7
 70
     1
102
RTVSPropertyOp8
 70
     1
102
RTVSPropertyOp9
 70
     1
102
RTVSPropertyOp10
 70
     1
102
RTVSPropertyOp11
 70
     1
102
RTVSPropertyOp12
 70
     1
102
RTVSPropertyOp13
 70
     1
102
RTVSPropertyOp14
 70
     1
102
RTVSPropertyOp15
 70
     1
102
RTVSPropertyOp16
 70
     1
102
RTVSPropertyOp17
 70
     1
102
RTVSPropertyOp18
 70
     1
102
RTVSPropertyOp19
 70
     1
102
RTVSPropertyOp20
 70
     1
102
RTVSPropertyOp21
 70
     1
102
RTVSPropertyOp22
 70
     1
102
RTVSPropertyOp23
 70
     1
102
RTVSPropertyOp24
 70
     1
102
RTVSPropertyOp25
 70
     1
102
RTVSPropertyOp26
 70
     1
102
RTVSPropertyOp27
 70
     1
102
RTVSPropertyOp28
 70
     1
102
RTVSPropertyOp29
 70
     1
102
RTVSPropertyOp30
 70
     1
102
RTVSPropertyOp31
 70
     1
102
RTVSPropertyOp32
 70
     1
102
RTVSPropertyOp33
 70
     1
102
RTVSPropertyOp34
 70
     1
102
RTVSPropertyOp35
 70
     1
102
RTVSPropertyOp36
 70
     1
102
RTVSPropertyOp37
 70
     1
102
RTVSPropertyOp38
 70
     1
102
RTVSPropertyOp39
 70
     1
102
RTVSPropertyOp40
 70
     1
102
RTVSPropertyOp41
 70
     1
102
RTVSPropertyOp42
 70
     1
102
RTVSPropertyOp43
 70
     1
102
RTVSPropertyOp44
 70
     1
102
RTVSPropertyOp45
 70
     1
102
RTVSPropertyOp46
 70
     1
102
RTVSPropertyOp47
 70
     1
102
RTVSPropertyOp48
 70
     1
102
RTVSPropertyOp49
 70
     1
102
RTVSPropertyOp50
 70
     1
102
RTVSPropertyOp51
 70
     0
102
RTVSPropertyOp52
 70
     0
102
RTVSPropertyOp53
 70
     1
102
RTVSPropertyOp54
 70
     1
102
RTVSPropertyOp55
 70
     1
102
RTVSPropertyOp56
 70
     1
102
RTVSPropertyOp57
 70
     1
102
RTVSPropertyOp58
 70
     1
102
RTVSPropertyOp59
 70
     1
102
RTVSPropertyOp60
 70
     1
102
RTVSPropertyOp61
 70
     1
102
RTVSPropertyOp62
 70
     1
  0
XRECORD
  5
F5D
102
{ACAD_REACTORS
330
F5C
102
}
330
F5C
100
AcDbXrecord
280
     1
102
RTVSPost2010Prop28
280
     0
102
RTVSPost2010PropOp28
 70
     1
102
RTVSPost2010Prop29
280
     1
102
RTVSPost2010PropOp29
 70
     1
102
RTVSPost2010Prop30
280
     1
102
RTVSPost2010PropOp30
 70
     1
102
RTVSPost2010Prop31
280
     0
102
RTVSPost2010PropOp31
 70
     1
102
RTVSPost2010Prop32
280
     0
102
RTVSPost2010PropOp32
 70
     1
102
RTVSPost2010Prop33
280
     0
102
RTVSPost2010PropOp33
 70
     1
102
RTVSPost2010Prop34
280
     0
102
RTVSPost2010PropOp34
 70
     1
102
RTVSPost2010Prop35
280
     0
102
RTVSPost2010PropOp35
 70
     1
102
RTVSPost2010Prop36
280
     0
102
RTVSPost2010PropOp36
 70
     1
102
RTVSPost2010Prop37
 90
       50
102
RTVSPost2010PropOp37
 70
     1
102
RTVSPost2010Prop38
140
0.0
102
RTVSPost2010PropOp38
 70
     1
102
RTVSPost2010Prop39
140
1.0
102
RTVSPost2010PropOp39
 70
     1
102
RTVSPost2010Prop40
 90
        0
102
RTVSPost2010PropOp40
 70
     1
102
RTVSPost2010Prop41ColorIndex
 90
       18
102
RTVSPost2010Prop41ColorRGB
 90
        0
102
RTVSPost2010PropOp41
 70
     1
102
RTVSPost2010Prop42
 90
       50
102
RTVSPost2010PropOp42
 70
     1
102
RTVSPost2010Prop43
 90
        3
102
RTVSPost2010PropOp43
 70
     1
102
RTVSPost2010Prop44ColorIndex
 90
        5
102
RTVSPost2010Prop44ColorRGB
 90
      255
102
RTVSPost2010PropOp44
 70
     1
102
RTVSPost2010Prop45
280
     0
102
RTVSPost2010PropOp45
 70
     1
102
RTVSPost2010Prop46
 90
       50
102
RTVSPost2010PropOp46
 70
     1
102
RTVSPost2010Prop47
 90
       50
102
RTVSPost2010PropOp47
 70
     1
102
RTVSPost2010Prop48
 90
       50
102
RTVSPost2010PropOp48
 70
     1
102
RTVSPost2010Prop49
280
     0
102
RTVSPost2010PropOp49
 70
     1
102
RTVSPost2010Prop50
 90
       50
102
RTVSPost2010PropOp50
 70
     1
102
RTVSPost2010Prop51ColorIndex
 90
      256
102
RTVSPost2010Prop51ColorRGB
 90
-16777216
102
RTVSPost2010PropOp51
 70
     0
102
RTVSPost2010Prop52
140
1.0
102
RTVSPost2010PropOp52
 70
     0
102
RTVSPost2010Prop53
 90
        2
102
RTVSPost2010PropOp53
 70
     1
102
RTVSPost2010Prop54
  1
strokes_ogs.tif
102
RTVSPost2010PropOp54
 70
     1
102
RTVSPost2010Prop55
280
     0
102
RTVSPost2010PropOp55
 70
     1
102
RTVSPost2010Prop56
140
1.0
102
RTVSPost2010PropOp56
 70
     1
102
RTVSPost2010Prop57
140
1.0
102
RTVSPost2010PropOp57
 70
     1
102
RTVSPropertyOp0
 70
     1
102
RTVSPropertyOp1
 70
     1
102
RTVSPropertyOp2
 70
     1
102
RTVSPropertyOp3
 70
     1
102
RTVSPropertyOp4
 70
     1
102
RTVSPropertyOp5
 70
     1
102
RTVSPropertyOp6
 70
     1
102
RTVSPropertyOp7
 70
     1
102
RTVSPropertyOp8
 70
     1
102
RTVSPropertyOp9
 70
     1
102
RTVSPropertyOp10
 70
     1
102
RTVSPropertyOp11
 70
     1
102
RTVSPropertyOp12
 70
     1
102
RTVSPropertyOp13
 70
     1
102
RTVSPropertyOp14
 70
     1
102
RTVSPropertyOp15
 70
     1
102
RTVSPropertyOp16
 70
     1
102
RTVSPropertyOp17
 70
     1
102
RTVSPropertyOp18
 70
     1
102
RTVSPropertyOp19
 70
     1
102
RTVSPropertyOp20
 70
     1
102
RTVSPropertyOp21
 70
     1
102
RTVSPropertyOp22
 70
     1
102
RTVSPropertyOp23
 70
     1
102
RTVSPropertyOp24
 70
     1
102
RTVSPropertyOp25
 70
     1
102
RTVSPropertyOp26
 70
     1
102
RTVSPropertyOp27
 70
     1
102
RTVSPropertyOp28
 70
     1
102
RTVSPropertyOp29
 70
     1
102
RTVSPropertyOp30
 70
     1
102
RTVSPropertyOp31
 70
     1
102
RTVSPropertyOp32
 70
     1
102
RTVSPropertyOp33
 70
     1
102
RTVSPropertyOp34
 70
     1
102
RTVSPropertyOp35
 70
     1
102
RTVSPropertyOp36
 70
     1
102
RTVSPropertyOp37
 70
     1
102
RTVSPropertyOp38
 70
     1
102
RTVSPropertyOp39
 70
     1
102
RTVSPropertyOp40
 70
     1
102
RTVSPropertyOp41
 70
     1
102
RTVSPropertyOp42
 70
     1
102
RTVSPropertyOp43
 70
     1
102
RTVSPropertyOp44
 70
     1
102
RTVSPropertyOp45
 70
     1
102
RTVSPropertyOp46
 70
     1
102
RTVSPropertyOp47
 70
     1
102
RTVSPropertyOp48
 70
     1
102
RTVSPropertyOp49
 70
     1
102
RTVSPropertyOp50
 70
     1
102
RTVSPropertyOp51
 70
     0
102
RTVSPropertyOp52
 70
     0
102
RTVSPropertyOp53
 70
     1
102
RTVSPropertyOp54
 70
     1
102
RTVSPropertyOp55
 70
     1
102
RTVSPropertyOp56
 70
     1
102
RTVSPropertyOp57
 70
     1
102
RTVSPropertyOp58
 70
     1
102
RTVSPropertyOp59
 70
     1
102
RTVSPropertyOp60
 70
     1
102
RTVSPropertyOp61
 70
     1
102
RTVSPropertyOp62
 70
     1
  0
XRECORD
  5
F59
102
{ACAD_REACTORS
330
F58
102
}
330
F58
100
AcDbXrecord
280
     1
102
RTVSPost2010Prop28
280
     0
102
RTVSPost2010PropOp28
 70
     1
102
RTVSPost2010Prop29
280
     1
102
RTVSPost2010PropOp29
 70
     1
102
RTVSPost2010Prop30
280
     1
102
RTVSPost2010PropOp30
 70
     1
102
RTVSPost2010Prop31
280
     0
102
RTVSPost2010PropOp31
 70
     1
102
RTVSPost2010Prop32
280
     0
102
RTVSPost2010PropOp32
 70
     1
102
RTVSPost2010Prop33
280
     0
102
RTVSPost2010PropOp33
 70
     1
102
RTVSPost2010Prop34
280
     0
102
RTVSPost2010PropOp34
 70
     1
102
RTVSPost2010Prop35
280
     0
102
RTVSPost2010PropOp35
 70
     1
102
RTVSPost2010Prop36
280
     0
102
RTVSPost2010PropOp36
 70
     1
102
RTVSPost2010Prop37
 90
       50
102
RTVSPost2010PropOp37
 70
     1
102
RTVSPost2010Prop38
140
0.0
102
RTVSPost2010PropOp38
 70
     1
102
RTVSPost2010Prop39
140
1.0
102
RTVSPost2010PropOp39
 70
     1
102
RTVSPost2010Prop40
 90
        0
102
RTVSPost2010PropOp40
 70
     1
102
RTVSPost2010Prop41ColorIndex
 90
       18
102
RTVSPost2010Prop41ColorRGB
 90
        0
102
RTVSPost2010PropOp41
 70
     1
102
RTVSPost2010Prop42
 90
       50
102
RTVSPost2010PropOp42
 70
     1
102
RTVSPost2010Prop43
 90
        3
102
RTVSPost2010PropOp43
 70
     1
102
RTVSPost2010Prop44ColorIndex
 90
        5
102
RTVSPost2010Prop44ColorRGB
 90
      255
102
RTVSPost2010PropOp44
 70
     1
102
RTVSPost2010Prop45
280
     0
102
RTVSPost2010PropOp45
 70
     1
102
RTVSPost2010Prop46
 90
       50
102
RTVSPost2010PropOp46
 70
     1
102
RTVSPost2010Prop47
 90
       50
102
RTVSPost2010PropOp47
 70
     1
102
RTVSPost2010Prop48
 90
       50
102
RTVSPost2010PropOp48
 70
     1
102
RTVSPost2010Prop49
280
     0
102
RTVSPost2010PropOp49
 70
     1
102
RTVSPost2010Prop50
 90
       50
102
RTVSPost2010PropOp50
 70
     1
102
RTVSPost2010Prop51ColorIndex
 90
      256
102
RTVSPost2010Prop51ColorRGB
 90
-16777216
102
RTVSPost2010PropOp51
 70
     0
102
RTVSPost2010Prop52
140
1.0
102
RTVSPost2010PropOp52
 70
     0
102
RTVSPost2010Prop53
 90
        2
102
RTVSPost2010PropOp53
 70
     1
102
RTVSPost2010Prop54
  1
strokes_ogs.tif
102
RTVSPost2010PropOp54
 70
     1
102
RTVSPost2010Prop55
280
     0
102
RTVSPost2010PropOp55
 70
     1
102
RTVSPost2010Prop56
140
1.0
102
RTVSPost2010PropOp56
 70
     1
102
RTVSPost2010Prop57
140
1.0
102
RTVSPost2010PropOp57
 70
     1
102
RTVSPropertyOp0
 70
     1
102
RTVSPropertyOp1
 70
     1
102
RTVSPropertyOp2
 70
     1
102
RTVSPropertyOp3
 70
     1
102
RTVSPropertyOp4
 70
     1
102
RTVSPropertyOp5
 70
     1
102
RTVSPropertyOp6
 70
     1
102
RTVSPropertyOp7
 70
     1
102
RTVSPropertyOp8
 70
     1
102
RTVSPropertyOp9
 70
     1
102
RTVSPropertyOp10
 70
     1
102
RTVSPropertyOp11
 70
     1
102
RTVSPropertyOp12
 70
     1
102
RTVSPropertyOp13
 70
     1
102
RTVSPropertyOp14
 70
     1
102
RTVSPropertyOp15
 70
     1
102
RTVSPropertyOp16
 70
     1
102
RTVSPropertyOp17
 70
     1
102
RTVSPropertyOp18
 70
     1
102
RTVSPropertyOp19
 70
     1
102
RTVSPropertyOp20
 70
     1
102
RTVSPropertyOp21
 70
     1
102
RTVSPropertyOp22
 70
     1
102
RTVSPropertyOp23
 70
     1
102
RTVSPropertyOp24
 70
     1
102
RTVSPropertyOp25
 70
     1
102
RTVSPropertyOp26
 70
     1
102
RTVSPropertyOp27
 70
     1
102
RTVSPropertyOp28
 70
     1
102
RTVSPropertyOp29
 70
     1
102
RTVSPropertyOp30
 70
     1
102
RTVSPropertyOp31
 70
     1
102
RTVSPropertyOp32
 70
     1
102
RTVSPropertyOp33
 70
     1
102
RTVSPropertyOp34
 70
     1
102
RTVSPropertyOp35
 70
     1
102
RTVSPropertyOp36
 70
     1
102
RTVSPropertyOp37
 70
     1
102
RTVSPropertyOp38
 70
     1
102
RTVSPropertyOp39
 70
     1
102
RTVSPropertyOp40
 70
     1
102
RTVSPropertyOp41
 70
     1
102
RTVSPropertyOp42
 70
     1
102
RTVSPropertyOp43
 70
     1
102
RTVSPropertyOp44
 70
     1
102
RTVSPropertyOp45
 70
     1
102
RTVSPropertyOp46
 70
     1
102
RTVSPropertyOp47
 70
     1
102
RTVSPropertyOp48
 70
     1
102
RTVSPropertyOp49
 70
     1
102
RTVSPropertyOp50
 70
     1
102
RTVSPropertyOp51
 70
     0
102
RTVSPropertyOp52
 70
     0
102
RTVSPropertyOp53
 70
     1
102
RTVSPropertyOp54
 70
     1
102
RTVSPropertyOp55
 70
     1
102
RTVSPropertyOp56
 70
     1
102
RTVSPropertyOp57
 70
     1
102
RTVSPropertyOp58
 70
     1
102
RTVSPropertyOp59
 70
     1
102
RTVSPropertyOp60
 70
     1
102
RTVSPropertyOp61
 70
     1
102
RTVSPropertyOp62
 70
     1
  0
XRECORD
  5
F67
102
{ACAD_REACTORS
330
F66
102
}
330
F66
100
AcDbXrecord
280
     1
102
RTVSPost2010Prop28
280
     0
102
RTVSPost2010PropOp28
 70
     1
102
RTVSPost2010Prop29
280
     1
102
RTVSPost2010PropOp29
 70
     1
102
RTVSPost2010Prop30
280
     1
102
RTVSPost2010PropOp30
 70
     1
102
RTVSPost2010Prop31
280
     0
102
RTVSPost2010PropOp31
 70
     1
102
RTVSPost2010Prop32
280
     0
102
RTVSPost2010PropOp32
 70
     1
102
RTVSPost2010Prop33
280
     0
102
RTVSPost2010PropOp33
 70
     1
102
RTVSPost2010Prop34
280
     0
102
RTVSPost2010PropOp34
 70
     1
102
RTVSPost2010Prop35
280
     0
102
RTVSPost2010PropOp35
 70
     1
102
RTVSPost2010Prop36
280
     0
102
RTVSPost2010PropOp36
 70
     1
102
RTVSPost2010Prop37
 90
       50
102
RTVSPost2010PropOp37
 70
     1
102
RTVSPost2010Prop38
140
0.0
102
RTVSPost2010PropOp38
 70
     1
102
RTVSPost2010Prop39
140
1.0
102
RTVSPost2010PropOp39
 70
     1
102
RTVSPost2010Prop40
 90
        0
102
RTVSPost2010PropOp40
 70
     1
102
RTVSPost2010Prop41ColorIndex
 90
       18
102
RTVSPost2010Prop41ColorRGB
 90
        0
102
RTVSPost2010PropOp41
 70
     1
102
RTVSPost2010Prop42
 90
       50
102
RTVSPost2010PropOp42
 70
     1
102
RTVSPost2010Prop43
 90
        3
102
RTVSPost2010PropOp43
 70
     1
102
RTVSPost2010Prop44ColorIndex
 90
        5
102
RTVSPost2010Prop44ColorRGB
 90
      255
102
RTVSPost2010PropOp44
 70
     1
102
RTVSPost2010Prop45
280
     0
102
RTVSPost2010PropOp45
 70
     1
102
RTVSPost2010Prop46
 90
       50
102
RTVSPost2010PropOp46
 70
     1
102
RTVSPost2010Prop47
 90
       50
102
RTVSPost2010PropOp47
 70
     1
102
RTVSPost2010Prop48
 90
       50
102
RTVSPost2010PropOp48
 70
     1
102
RTVSPost2010Prop49
280
     0
102
RTVSPost2010PropOp49
 70
     1
102
RTVSPost2010Prop50
 90
       50
102
RTVSPost2010PropOp50
 70
     1
102
RTVSPost2010Prop51ColorIndex
 90
      256
102
RTVSPost2010Prop51ColorRGB
 90
-16777216
102
RTVSPost2010PropOp51
 70
     0
102
RTVSPost2010Prop52
140
1.0
102
RTVSPost2010PropOp52
 70
     0
102
RTVSPost2010Prop53
 90
        2
102
RTVSPost2010PropOp53
 70
     1
102
RTVSPost2010Prop54
  1
strokes_ogs.tif
102
RTVSPost2010PropOp54
 70
     1
102
RTVSPost2010Prop55
280
     0
102
RTVSPost2010PropOp55
 70
     1
102
RTVSPost2010Prop56
140
1.0
102
RTVSPost2010PropOp56
 70
     1
102
RTVSPost2010Prop57
140
1.0
102
RTVSPost2010PropOp57
 70
     1
102
RTVSPropertyOp0
 70
     1
102
RTVSPropertyOp1
 70
     1
102
RTVSPropertyOp2
 70
     1
102
RTVSPropertyOp3
 70
     1
102
RTVSPropertyOp4
 70
     1
102
RTVSPropertyOp5
 70
     1
102
RTVSPropertyOp6
 70
     1
102
RTVSPropertyOp7
 70
     1
102
RTVSPropertyOp8
 70
     1
102
RTVSPropertyOp9
 70
     1
102
RTVSPropertyOp10
 70
     1
102
RTVSPropertyOp11
 70
     1
102
RTVSPropertyOp12
 70
     1
102
RTVSPropertyOp13
 70
     1
102
RTVSPropertyOp14
 70
     1
102
RTVSPropertyOp15
 70
     1
102
RTVSPropertyOp16
 70
     1
102
RTVSPropertyOp17
 70
     1
102
RTVSPropertyOp18
 70
     1
102
RTVSPropertyOp19
 70
     1
102
RTVSPropertyOp20
 70
     1
102
RTVSPropertyOp21
 70
     1
102
RTVSPropertyOp22
 70
     1
102
RTVSPropertyOp23
 70
     1
102
RTVSPropertyOp24
 70
     1
102
RTVSPropertyOp25
 70
     1
102
RTVSPropertyOp26
 70
     1
102
RTVSPropertyOp27
 70
     1
102
RTVSPropertyOp28
 70
     1
102
RTVSPropertyOp29
 70
     1
102
RTVSPropertyOp30
 70
     1
102
RTVSPropertyOp31
 70
     1
102
RTVSPropertyOp32
 70
     1
102
RTVSPropertyOp33
 70
     1
102
RTVSPropertyOp34
 70
     1
102
RTVSPropertyOp35
 70
     1
102
RTVSPropertyOp36
 70
     1
102
RTVSPropertyOp37
 70
     1
102
RTVSPropertyOp38
 70
     1
102
RTVSPropertyOp39
 70
     1
102
RTVSPropertyOp40
 70
     1
102
RTVSPropertyOp41
 70
     1
102
RTVSPropertyOp42
 70
     1
102
RTVSPropertyOp43
 70
     1
102
RTVSPropertyOp44
 70
     1
102
RTVSPropertyOp45
 70
     1
102
RTVSPropertyOp46
 70
     1
102
RTVSPropertyOp47
 70
     1
102
RTVSPropertyOp48
 70
     1
102
RTVSPropertyOp49
 70
     1
102
RTVSPropertyOp50
 70
     1
102
RTVSPropertyOp51
 70
     0
102
RTVSPropertyOp52
 70
     0
102
RTVSPropertyOp53
 70
     1
102
RTVSPropertyOp54
 70
     1
102
RTVSPropertyOp55
 70
     1
102
RTVSPropertyOp56
 70
     1
102
RTVSPropertyOp57
 70
     1
102
RTVSPropertyOp58
 70
     1
102
RTVSPropertyOp59
 70
     1
102
RTVSPropertyOp60
 70
     1
102
RTVSPropertyOp61
 70
     1
102
RTVSPropertyOp62
 70
     1
  0
XRECORD
  5
F6F
102
{ACAD_REACTORS
330
F6E
102
}
330
F6E
100
AcDbXrecord
280
     1
102
RTVSPost2010Prop28
280
     0
102
RTVSPost2010PropOp28
 70
     1
102
RTVSPost2010Prop29
280
     1
102
RTVSPost2010PropOp29
 70
     1
102
RTVSPost2010Prop30
280
     1
102
RTVSPost2010PropOp30
 70
     1
102
RTVSPost2010Prop31
280
     0
102
RTVSPost2010PropOp31
 70
     1
102
RTVSPost2010Prop32
280
     0
102
RTVSPost2010PropOp32
 70
     1
102
RTVSPost2010Prop33
280
     0
102
RTVSPost2010PropOp33
 70
     1
102
RTVSPost2010Prop34
280
     0
102
RTVSPost2010PropOp34
 70
     1
102
RTVSPost2010Prop35
280
     0
102
RTVSPost2010PropOp35
 70
     1
102
RTVSPost2010Prop36
280
     0
102
RTVSPost2010PropOp36
 70
     1
102
RTVSPost2010Prop37
 90
       50
102
RTVSPost2010PropOp37
 70
     1
102
RTVSPost2010Prop38
140
0.0
102
RTVSPost2010PropOp38
 70
     1
102
RTVSPost2010Prop39
140
1.0
102
RTVSPost2010PropOp39
 70
     1
102
RTVSPost2010Prop40
 90
        0
102
RTVSPost2010PropOp40
 70
     1
102
RTVSPost2010Prop41ColorIndex
 90
       18
102
RTVSPost2010Prop41ColorRGB
 90
        0
102
RTVSPost2010PropOp41
 70
     1
102
RTVSPost2010Prop42
 90
       50
102
RTVSPost2010PropOp42
 70
     1
102
RTVSPost2010Prop43
 90
        3
102
RTVSPost2010PropOp43
 70
     1
102
RTVSPost2010Prop44ColorIndex
 90
        5
102
RTVSPost2010Prop44ColorRGB
 90
      255
102
RTVSPost2010PropOp44
 70
     1
102
RTVSPost2010Prop45
280
     0
102
RTVSPost2010PropOp45
 70
     1
102
RTVSPost2010Prop46
 90
       50
102
RTVSPost2010PropOp46
 70
     1
102
RTVSPost2010Prop47
 90
       50
102
RTVSPost2010PropOp47
 70
     1
102
RTVSPost2010Prop48
 90
       50
102
RTVSPost2010PropOp48
 70
     1
102
RTVSPost2010Prop49
280
     0
102
RTVSPost2010PropOp49
 70
     1
102
RTVSPost2010Prop50
 90
       50
102
RTVSPost2010PropOp50
 70
     1
102
RTVSPost2010Prop51ColorIndex
 90
      256
102
RTVSPost2010Prop51ColorRGB
 90
-16777216
102
RTVSPost2010PropOp51
 70
     0
102
RTVSPost2010Prop52
140
1.0
102
RTVSPost2010PropOp52
 70
     0
102
RTVSPost2010Prop53
 90
        2
102
RTVSPost2010PropOp53
 70
     1
102
RTVSPost2010Prop54
  1
strokes_ogs.tif
102
RTVSPost2010PropOp54
 70
     1
102
RTVSPost2010Prop55
280
     0
102
RTVSPost2010PropOp55
 70
     1
102
RTVSPost2010Prop56
140
1.0
102
RTVSPost2010PropOp56
 70
     1
102
RTVSPost2010Prop57
140
1.0
102
RTVSPost2010PropOp57
 70
     1
102
RTVSPropertyOp0
 70
     1
102
RTVSPropertyOp1
 70
     1
102
RTVSPropertyOp2
 70
     1
102
RTVSPropertyOp3
 70
     1
102
RTVSPropertyOp4
 70
     1
102
RTVSPropertyOp5
 70
     1
102
RTVSPropertyOp6
 70
     1
102
RTVSPropertyOp7
 70
     1
102
RTVSPropertyOp8
 70
     1
102
RTVSPropertyOp9
 70
     1
102
RTVSPropertyOp10
 70
     1
102
RTVSPropertyOp11
 70
     1
102
RTVSPropertyOp12
 70
     1
102
RTVSPropertyOp13
 70
     1
102
RTVSPropertyOp14
 70
     1
102
RTVSPropertyOp15
 70
     1
102
RTVSPropertyOp16
 70
     1
102
RTVSPropertyOp17
 70
     1
102
RTVSPropertyOp18
 70
     1
102
RTVSPropertyOp19
 70
     1
102
RTVSPropertyOp20
 70
     1
102
RTVSPropertyOp21
 70
     1
102
RTVSPropertyOp22
 70
     1
102
RTVSPropertyOp23
 70
     1
102
RTVSPropertyOp24
 70
     1
102
RTVSPropertyOp25
 70
     1
102
RTVSPropertyOp26
 70
     1
102
RTVSPropertyOp27
 70
     1
102
RTVSPropertyOp28
 70
     1
102
RTVSPropertyOp29
 70
     1
102
RTVSPropertyOp30
 70
     1
102
RTVSPropertyOp31
 70
     1
102
RTVSPropertyOp32
 70
     1
102
RTVSPropertyOp33
 70
     1
102
RTVSPropertyOp34
 70
     1
102
RTVSPropertyOp35
 70
     1
102
RTVSPropertyOp36
 70
     1
102
RTVSPropertyOp37
 70
     1
102
RTVSPropertyOp38
 70
     1
102
RTVSPropertyOp39
 70
     1
102
RTVSPropertyOp40
 70
     1
102
RTVSPropertyOp41
 70
     1
102
RTVSPropertyOp42
 70
     1
102
RTVSPropertyOp43
 70
     1
102
RTVSPropertyOp44
 70
     1
102
RTVSPropertyOp45
 70
     1
102
RTVSPropertyOp46
 70
     1
102
RTVSPropertyOp47
 70
     1
102
RTVSPropertyOp48
 70
     1
102
RTVSPropertyOp49
 70
     1
102
RTVSPropertyOp50
 70
     1
102
RTVSPropertyOp51
 70
     0
102
RTVSPropertyOp52
 70
     0
102
RTVSPropertyOp53
 70
     1
102
RTVSPropertyOp54
 70
     1
102
RTVSPropertyOp55
 70
     1
102
RTVSPropertyOp56
 70
     1
102
RTVSPropertyOp57
 70
     1
102
RTVSPropertyOp58
 70
     1
102
RTVSPropertyOp59
 70
     1
102
RTVSPropertyOp60
 70
     1
102
RTVSPropertyOp61
 70
     1
102
RTVSPropertyOp62
 70
     1
  0
XRECORD
  5
F61
102
{ACAD_REACTORS
330
F60
102
}
330
F60
100
AcDbXrecord
280
     1
102
RTVSPost2010Prop28
280
     0
102
RTVSPost2010PropOp28
 70
     1
102
RTVSPost2010Prop29
280
     1
102
RTVSPost2010PropOp29
 70
     1
102
RTVSPost2010Prop30
280
     1
102
RTVSPost2010PropOp30
 70
     1
102
RTVSPost2010Prop31
280
     0
102
RTVSPost2010PropOp31
 70
     1
102
RTVSPost2010Prop32
280
     0
102
RTVSPost2010PropOp32
 70
     1
102
RTVSPost2010Prop33
280
     0
102
RTVSPost2010PropOp33
 70
     1
102
RTVSPost2010Prop34
280
     0
102
RTVSPost2010PropOp34
 70
     1
102
RTVSPost2010Prop35
280
     0
102
RTVSPost2010PropOp35
 70
     1
102
RTVSPost2010Prop36
280
     0
102
RTVSPost2010PropOp36
 70
     1
102
RTVSPost2010Prop37
 90
       50
102
RTVSPost2010PropOp37
 70
     1
102
RTVSPost2010Prop38
140
0.0
102
RTVSPost2010PropOp38
 70
     1
102
RTVSPost2010Prop39
140
1.0
102
RTVSPost2010PropOp39
 70
     1
102
RTVSPost2010Prop40
 90
        0
102
RTVSPost2010PropOp40
 70
     1
102
RTVSPost2010Prop41ColorIndex
 90
       18
102
RTVSPost2010Prop41ColorRGB
 90
        0
102
RTVSPost2010PropOp41
 70
     1
102
RTVSPost2010Prop42
 90
       50
102
RTVSPost2010PropOp42
 70
     1
102
RTVSPost2010Prop43
 90
        3
102
RTVSPost2010PropOp43
 70
     1
102
RTVSPost2010Prop44ColorIndex
 90
        5
102
RTVSPost2010Prop44ColorRGB
 90
      255
102
RTVSPost2010PropOp44
 70
     1
102
RTVSPost2010Prop45
280
     0
102
RTVSPost2010PropOp45
 70
     1
102
RTVSPost2010Prop46
 90
       50
102
RTVSPost2010PropOp46
 70
     1
102
RTVSPost2010Prop47
 90
       50
102
RTVSPost2010PropOp47
 70
     1
102
RTVSPost2010Prop48
 90
       50
102
RTVSPost2010PropOp48
 70
     1
102
RTVSPost2010Prop49
280
     0
102
RTVSPost2010PropOp49
 70
     1
102
RTVSPost2010Prop50
 90
       50
102
RTVSPost2010PropOp50
 70
     1
102
RTVSPost2010Prop51ColorIndex
 90
      256
102
RTVSPost2010Prop51ColorRGB
 90
-16777216
102
RTVSPost2010PropOp51
 70
     0
102
RTVSPost2010Prop52
140
1.0
102
RTVSPost2010PropOp52
 70
     0
102
RTVSPost2010Prop53
 90
        2
102
RTVSPost2010PropOp53
 70
     1
102
RTVSPost2010Prop54
  1
strokes_ogs.tif
102
RTVSPost2010PropOp54
 70
     1
102
RTVSPost2010Prop55
280
     0
102
RTVSPost2010PropOp55
 70
     1
102
RTVSPost2010Prop56
140
1.0
102
RTVSPost2010PropOp56
 70
     1
102
RTVSPost2010Prop57
140
1.0
102
RTVSPost2010PropOp57
 70
     1
102
RTVSPropertyOp0
 70
     1
102
RTVSPropertyOp1
 70
     1
102
RTVSPropertyOp2
 70
     1
102
RTVSPropertyOp3
 70
     1
102
RTVSPropertyOp4
 70
     1
102
RTVSPropertyOp5
 70
     1
102
RTVSPropertyOp6
 70
     1
102
RTVSPropertyOp7
 70
     1
102
RTVSPropertyOp8
 70
     1
102
RTVSPropertyOp9
 70
     1
102
RTVSPropertyOp10
 70
     1
102
RTVSPropertyOp11
 70
     1
102
RTVSPropertyOp12
 70
     1
102
RTVSPropertyOp13
 70
     1
102
RTVSPropertyOp14
 70
     1
102
RTVSPropertyOp15
 70
     1
102
RTVSPropertyOp16
 70
     1
102
RTVSPropertyOp17
 70
     1
102
RTVSPropertyOp18
 70
     1
102
RTVSPropertyOp19
 70
     1
102
RTVSPropertyOp20
 70
     1
102
RTVSPropertyOp21
 70
     1
102
RTVSPropertyOp22
 70
     1
102
RTVSPropertyOp23
 70
     1
102
RTVSPropertyOp24
 70
     1
102
RTVSPropertyOp25
 70
     1
102
RTVSPropertyOp26
 70
     1
102
RTVSPropertyOp27
 70
     1
102
RTVSPropertyOp28
 70
     1
102
RTVSPropertyOp29
 70
     1
102
RTVSPropertyOp30
 70
     1
102
RTVSPropertyOp31
 70
     1
102
RTVSPropertyOp32
 70
     1
102
RTVSPropertyOp33
 70
     1
102
RTVSPropertyOp34
 70
     1
102
RTVSPropertyOp35
 70
     1
102
RTVSPropertyOp36
 70
     1
102
RTVSPropertyOp37
 70
     1
102
RTVSPropertyOp38
 70
     1
102
RTVSPropertyOp39
 70
     1
102
RTVSPropertyOp40
 70
     1
102
RTVSPropertyOp41
 70
     1
102
RTVSPropertyOp42
 70
     1
102
RTVSPropertyOp43
 70
     1
102
RTVSPropertyOp44
 70
     1
102
RTVSPropertyOp45
 70
     1
102
RTVSPropertyOp46
 70
     1
102
RTVSPropertyOp47
 70
     1
102
RTVSPropertyOp48
 70
     1
102
RTVSPropertyOp49
 70
     1
102
RTVSPropertyOp50
 70
     1
102
RTVSPropertyOp51
 70
     0
102
RTVSPropertyOp52
 70
     0
102
RTVSPropertyOp53
 70
     1
102
RTVSPropertyOp54
 70
     1
102
RTVSPropertyOp55
 70
     1
102
RTVSPropertyOp56
 70
     1
102
RTVSPropertyOp57
 70
     1
102
RTVSPropertyOp58
 70
     1
102
RTVSPropertyOp59
 70
     1
102
RTVSPropertyOp60
 70
     1
102
RTVSPropertyOp61
 70
     1
102
RTVSPropertyOp62
 70
     1
  0
XRECORD
  5
F65
102
{ACAD_REACTORS
330
F64
102
}
330
F64
100
AcDbXrecord
280
     1
102
RTVSPost2010Prop28
280
     0
102
RTVSPost2010PropOp28
 70
     1
102
RTVSPost2010Prop29
280
     1
102
RTVSPost2010PropOp29
 70
     1
102
RTVSPost2010Prop30
280
     1
102
RTVSPost2010PropOp30
 70
     1
102
RTVSPost2010Prop31
280
     0
102
RTVSPost2010PropOp31
 70
     1
102
RTVSPost2010Prop32
280
     0
102
RTVSPost2010PropOp32
 70
     1
102
RTVSPost2010Prop33
280
     0
102
RTVSPost2010PropOp33
 70
     1
102
RTVSPost2010Prop34
280
     0
102
RTVSPost2010PropOp34
 70
     1
102
RTVSPost2010Prop35
280
     0
102
RTVSPost2010PropOp35
 70
     1
102
RTVSPost2010Prop36
280
     0
102
RTVSPost2010PropOp36
 70
     1
102
RTVSPost2010Prop37
 90
       50
102
RTVSPost2010PropOp37
 70
     1
102
RTVSPost2010Prop38
140
0.0
102
RTVSPost2010PropOp38
 70
     1
102
RTVSPost2010Prop39
140
1.0
102
RTVSPost2010PropOp39
 70
     1
102
RTVSPost2010Prop40
 90
        0
102
RTVSPost2010PropOp40
 70
     1
102
RTVSPost2010Prop41ColorIndex
 90
       18
102
RTVSPost2010Prop41ColorRGB
 90
        0
102
RTVSPost2010PropOp41
 70
     1
102
RTVSPost2010Prop42
 90
       50
102
RTVSPost2010PropOp42
 70
     1
102
RTVSPost2010Prop43
 90
        3
102
RTVSPost2010PropOp43
 70
     1
102
RTVSPost2010Prop44ColorIndex
 90
        5
102
RTVSPost2010Prop44ColorRGB
 90
      255
102
RTVSPost2010PropOp44
 70
     1
102
RTVSPost2010Prop45
280
     0
102
RTVSPost2010PropOp45
 70
     1
102
RTVSPost2010Prop46
 90
       50
102
RTVSPost2010PropOp46
 70
     1
102
RTVSPost2010Prop47
 90
       50
102
RTVSPost2010PropOp47
 70
     1
102
RTVSPost2010Prop48
 90
       50
102
RTVSPost2010PropOp48
 70
     1
102
RTVSPost2010Prop49
280
     0
102
RTVSPost2010PropOp49
 70
     1
102
RTVSPost2010Prop50
 90
       50
102
RTVSPost2010PropOp50
 70
     1
102
RTVSPost2010Prop51ColorIndex
 90
      256
102
RTVSPost2010Prop51ColorRGB
 90
-16777216
102
RTVSPost2010PropOp51
 70
     0
102
RTVSPost2010Prop52
140
1.0
102
RTVSPost2010PropOp52
 70
     0
102
RTVSPost2010Prop53
 90
        2
102
RTVSPost2010PropOp53
 70
     1
102
RTVSPost2010Prop54
  1
strokes_ogs.tif
102
RTVSPost2010PropOp54
 70
     1
102
RTVSPost2010Prop55
280
     0
102
RTVSPost2010PropOp55
 70
     1
102
RTVSPost2010Prop56
140
1.0
102
RTVSPost2010PropOp56
 70
     1
102
RTVSPost2010Prop57
140
1.0
102
RTVSPost2010PropOp57
 70
     1
102
RTVSPropertyOp0
 70
     1
102
RTVSPropertyOp1
 70
     1
102
RTVSPropertyOp2
 70
     1
102
RTVSPropertyOp3
 70
     1
102
RTVSPropertyOp4
 70
     1
102
RTVSPropertyOp5
 70
     1
102
RTVSPropertyOp6
 70
     1
102
RTVSPropertyOp7
 70
     1
102
RTVSPropertyOp8
 70
     1
102
RTVSPropertyOp9
 70
     1
102
RTVSPropertyOp10
 70
     1
102
RTVSPropertyOp11
 70
     1
102
RTVSPropertyOp12
 70
     1
102
RTVSPropertyOp13
 70
     1
102
RTVSPropertyOp14
 70
     1
102
RTVSPropertyOp15
 70
     1
102
RTVSPropertyOp16
 70
     1
102
RTVSPropertyOp17
 70
     1
102
RTVSPropertyOp18
 70
     1
102
RTVSPropertyOp19
 70
     1
102
RTVSPropertyOp20
 70
     1
102
RTVSPropertyOp21
 70
     1
102
RTVSPropertyOp22
 70
     1
102
RTVSPropertyOp23
 70
     1
102
RTVSPropertyOp24
 70
     1
102
RTVSPropertyOp25
 70
     1
102
RTVSPropertyOp26
 70
     1
102
RTVSPropertyOp27
 70
     1
102
RTVSPropertyOp28
 70
     1
102
RTVSPropertyOp29
 70
     1
102
RTVSPropertyOp30
 70
     1
102
RTVSPropertyOp31
 70
     1
102
RTVSPropertyOp32
 70
     1
102
RTVSPropertyOp33
 70
     1
102
RTVSPropertyOp34
 70
     1
102
RTVSPropertyOp35
 70
     1
102
RTVSPropertyOp36
 70
     1
102
RTVSPropertyOp37
 70
     1
102
RTVSPropertyOp38
 70
     1
102
RTVSPropertyOp39
 70
     1
102
RTVSPropertyOp40
 70
     1
102
RTVSPropertyOp41
 70
     1
102
RTVSPropertyOp42
 70
     1
102
RTVSPropertyOp43
 70
     1
102
RTVSPropertyOp44
 70
     1
102
RTVSPropertyOp45
 70
     1
102
RTVSPropertyOp46
 70
     1
102
RTVSPropertyOp47
 70
     1
102
RTVSPropertyOp48
 70
     1
102
RTVSPropertyOp49
 70
     1
102
RTVSPropertyOp50
 70
     1
102
RTVSPropertyOp51
 70
     0
102
RTVSPropertyOp52
 70
     0
102
RTVSPropertyOp53
 70
     1
102
RTVSPropertyOp54
 70
     1
102
RTVSPropertyOp55
 70
     1
102
RTVSPropertyOp56
 70
     1
102
RTVSPropertyOp57
 70
     1
102
RTVSPropertyOp58
 70
     1
102
RTVSPropertyOp59
 70
     1
102
RTVSPropertyOp60
 70
     1
102
RTVSPropertyOp61
 70
     1
102
RTVSPropertyOp62
 70
     1
  0
XRECORD
  5
F85
102
{ACAD_REACTORS
330
F84
102
}
330
F84
100
AcDbXrecord
280
     1
102
RTVSPost2010Prop28
280
     0
102
RTVSPost2010PropOp28
 70
     1
102
RTVSPost2010Prop29
280
     1
102
RTVSPost2010PropOp29
 70
     1
102
RTVSPost2010Prop30
280
     1
102
RTVSPost2010PropOp30
 70
     1
102
RTVSPost2010Prop31
280
     0
102
RTVSPost2010PropOp31
 70
     1
102
RTVSPost2010Prop32
280
     0
102
RTVSPost2010PropOp32
 70
     1
102
RTVSPost2010Prop33
280
     0
102
RTVSPost2010PropOp33
 70
     1
102
RTVSPost2010Prop34
280
     0
102
RTVSPost2010PropOp34
 70
     1
102
RTVSPost2010Prop35
280
     0
102
RTVSPost2010PropOp35
 70
     1
102
RTVSPost2010Prop36
280
     0
102
RTVSPost2010PropOp36
 70
     1
102
RTVSPost2010Prop37
 90
       50
102
RTVSPost2010PropOp37
 70
     1
102
RTVSPost2010Prop38
140
0.0
102
RTVSPost2010PropOp38
 70
     1
102
RTVSPost2010Prop39
140
1.0
102
RTVSPost2010PropOp39
 70
     1
102
RTVSPost2010Prop40
 90
        0
102
RTVSPost2010PropOp40
 70
     1
102
RTVSPost2010Prop41ColorIndex
 90
       18
102
RTVSPost2010Prop41ColorRGB
 90
        0
102
RTVSPost2010PropOp41
 70
     1
102
RTVSPost2010Prop42
 90
       50
102
RTVSPost2010PropOp42
 70
     1
102
RTVSPost2010Prop43
 90
        3
102
RTVSPost2010PropOp43
 70
     1
102
RTVSPost2010Prop44ColorIndex
 90
        5
102
RTVSPost2010Prop44ColorRGB
 90
      255
102
RTVSPost2010PropOp44
 70
     1
102
RTVSPost2010Prop45
280
     0
102
RTVSPost2010PropOp45
 70
     1
102
RTVSPost2010Prop46
 90
       50
102
RTVSPost2010PropOp46
 70
     1
102
RTVSPost2010Prop47
 90
       50
102
RTVSPost2010PropOp47
 70
     1
102
RTVSPost2010Prop48
 90
       50
102
RTVSPost2010PropOp48
 70
     1
102
RTVSPost2010Prop49
280
     0
102
RTVSPost2010PropOp49
 70
     1
102
RTVSPost2010Prop50
 90
       50
102
RTVSPost2010PropOp50
 70
     1
102
RTVSPost2010Prop51ColorIndex
 90
      256
102
RTVSPost2010Prop51ColorRGB
 90
-16777216
102
RTVSPost2010PropOp51
 70
     0
102
RTVSPost2010Prop52
140
1.0
102
RTVSPost2010PropOp52
 70
     0
102
RTVSPost2010Prop53
 90
        2
102
RTVSPost2010PropOp53
 70
     1
102
RTVSPost2010Prop54
  1
strokes_ogs.tif
102
RTVSPost2010PropOp54
 70
     1
102
RTVSPost2010Prop55
280
     0
102
RTVSPost2010PropOp55
 70
     1
102
RTVSPost2010Prop56
140
1.0
102
RTVSPost2010PropOp56
 70
     1
102
RTVSPost2010Prop57
140
1.0
102
RTVSPost2010PropOp57
 70
     1
102
RTVSPropertyOp0
 70
     0
102
RTVSPropertyOp1
 70
     0
102
RTVSPropertyOp2
 70
     0
102
RTVSPropertyOp3
 70
     0
102
RTVSPropertyOp4
 70
     0
102
RTVSPropertyOp5
 70
     0
102
RTVSPropertyOp6
 70
     0
102
RTVSPropertyOp7
 70
     0
102
RTVSPropertyOp8
 70
     0
102
RTVSPropertyOp9
 70
     0
102
RTVSPropertyOp10
 70
     0
102
RTVSPropertyOp11
 70
     0
102
RTVSPropertyOp12
 70
     0
102
RTVSPropertyOp13
 70
     0
102
RTVSPropertyOp14
 70
     2
102
RTVSPropertyOp15
 70
     0
102
RTVSPropertyOp16
 70
     0
102
RTVSPropertyOp17
 70
     0
102
RTVSPropertyOp18
 70
     0
102
RTVSPropertyOp19
 70
     0
102
RTVSPropertyOp20
 70
     0
102
RTVSPropertyOp21
 70
     0
102
RTVSPropertyOp22
 70
     0
102
RTVSPropertyOp23
 70
     0
102
RTVSPropertyOp24
 70
     0
102
RTVSPropertyOp25
 70
     0
102
RTVSPropertyOp26
 70
     0
102
RTVSPropertyOp27
 70
     0
102
RTVSPropertyOp28
 70
     1
102
RTVSPropertyOp29
 70
     1
102
RTVSPropertyOp30
 70
     1
102
RTVSPropertyOp31
 70
     1
102
RTVSPropertyOp32
 70
     1
102
RTVSPropertyOp33
 70
     1
102
RTVSPropertyOp34
 70
     1
102
RTVSPropertyOp35
 70
     1
102
RTVSPropertyOp36
 70
     1
102
RTVSPropertyOp37
 70
     1
102
RTVSPropertyOp38
 70
     1
102
RTVSPropertyOp39
 70
     1
102
RTVSPropertyOp40
 70
     1
102
RTVSPropertyOp41
 70
     1
102
RTVSPropertyOp42
 70
     1
102
RTVSPropertyOp43
 70
     1
102
RTVSPropertyOp44
 70
     1
102
RTVSPropertyOp45
 70
     1
102
RTVSPropertyOp46
 70
     1
102
RTVSPropertyOp47
 70
     1
102
RTVSPropertyOp48
 70
     1
102
RTVSPropertyOp49
 70
     1
102
RTVSPropertyOp50
 70
     1
102
RTVSPropertyOp51
 70
     0
102
RTVSPropertyOp52
 70
     0
102
RTVSPropertyOp53
 70
     1
102
RTVSPropertyOp54
 70
     1
102
RTVSPropertyOp55
 70
     1
102
RTVSPropertyOp56
 70
     1
102
RTVSPropertyOp57
 70
     1
102
RTVSPropertyOp58
 70
     1
102
RTVSPropertyOp59
 70
     1
102
RTVSPropertyOp60
 70
     1
102
RTVSPropertyOp61
 70
     1
102
RTVSPropertyOp62
 70
     1
  0
XRECORD
  5
F6D
102
{ACAD_REACTORS
330
F6C
102
}
330
F6C
100
AcDbXrecord
280
     1
102
RTVSPost2010Prop28
280
     0
102
RTVSPost2010PropOp28
 70
     1
102
RTVSPost2010Prop29
280
     1
102
RTVSPost2010PropOp29
 70
     1
102
RTVSPost2010Prop30
280
     1
102
RTVSPost2010PropOp30
 70
     1
102
RTVSPost2010Prop31
280
     0
102
RTVSPost2010PropOp31
 70
     1
102
RTVSPost2010Prop32
280
     0
102
RTVSPost2010PropOp32
 70
     1
102
RTVSPost2010Prop33
280
     0
102
RTVSPost2010PropOp33
 70
     1
102
RTVSPost2010Prop34
280
     0
102
RTVSPost2010PropOp34
 70
     1
102
RTVSPost2010Prop35
280
     0
102
RTVSPost2010PropOp35
 70
     1
102
RTVSPost2010Prop36
280
     0
102
RTVSPost2010PropOp36
 70
     1
102
RTVSPost2010Prop37
 90
       50
102
RTVSPost2010PropOp37
 70
     1
102
RTVSPost2010Prop38
140
0.0
102
RTVSPost2010PropOp38
 70
     1
102
RTVSPost2010Prop39
140
1.0
102
RTVSPost2010PropOp39
 70
     1
102
RTVSPost2010Prop40
 90
        0
102
RTVSPost2010PropOp40
 70
     1
102
RTVSPost2010Prop41ColorIndex
 90
       18
102
RTVSPost2010Prop41ColorRGB
 90
        0
102
RTVSPost2010PropOp41
 70
     1
102
RTVSPost2010Prop42
 90
       50
102
RTVSPost2010PropOp42
 70
     1
102
RTVSPost2010Prop43
 90
        3
102
RTVSPost2010PropOp43
 70
     1
102
RTVSPost2010Prop44ColorIndex
 90
        5
102
RTVSPost2010Prop44ColorRGB
 90
      255
102
RTVSPost2010PropOp44
 70
     1
102
RTVSPost2010Prop45
280
     0
102
RTVSPost2010PropOp45
 70
     1
102
RTVSPost2010Prop46
 90
       50
102
RTVSPost2010PropOp46
 70
     1
102
RTVSPost2010Prop47
 90
       50
102
RTVSPost2010PropOp47
 70
     1
102
RTVSPost2010Prop48
 90
       50
102
RTVSPost2010PropOp48
 70
     1
102
RTVSPost2010Prop49
280
     0
102
RTVSPost2010PropOp49
 70
     1
102
RTVSPost2010Prop50
 90
       50
102
RTVSPost2010PropOp50
 70
     1
102
RTVSPost2010Prop51ColorIndex
 90
      256
102
RTVSPost2010Prop51ColorRGB
 90
-16777216
102
RTVSPost2010PropOp51
 70
     0
102
RTVSPost2010Prop52
140
1.0
102
RTVSPost2010PropOp52
 70
     0
102
RTVSPost2010Prop53
 90
        2
102
RTVSPost2010PropOp53
 70
     1
102
RTVSPost2010Prop54
  1
strokes_ogs.tif
102
RTVSPost2010PropOp54
 70
     1
102
RTVSPost2010Prop55
280
     0
102
RTVSPost2010PropOp55
 70
     1
102
RTVSPost2010Prop56
140
1.0
102
RTVSPost2010PropOp56
 70
     1
102
RTVSPost2010Prop57
140
1.0
102
RTVSPost2010PropOp57
 70
     1
102
RTVSPropertyOp0
 70
     1
102
RTVSPropertyOp1
 70
     1
102
RTVSPropertyOp2
 70
     1
102
RTVSPropertyOp3
 70
     1
102
RTVSPropertyOp4
 70
     1
102
RTVSPropertyOp5
 70
     1
102
RTVSPropertyOp6
 70
     1
102
RTVSPropertyOp7
 70
     1
102
RTVSPropertyOp8
 70
     1
102
RTVSPropertyOp9
 70
     1
102
RTVSPropertyOp10
 70
     1
102
RTVSPropertyOp11
 70
     1
102
RTVSPropertyOp12
 70
     1
102
RTVSPropertyOp13
 70
     1
102
RTVSPropertyOp14
 70
     1
102
RTVSPropertyOp15
 70
     1
102
RTVSPropertyOp16
 70
     1
102
RTVSPropertyOp17
 70
     1
102
RTVSPropertyOp18
 70
     1
102
RTVSPropertyOp19
 70
     1
102
RTVSPropertyOp20
 70
     1
102
RTVSPropertyOp21
 70
     1
102
RTVSPropertyOp22
 70
     1
102
RTVSPropertyOp23
 70
     1
102
RTVSPropertyOp24
 70
     1
102
RTVSPropertyOp25
 70
     1
102
RTVSPropertyOp26
 70
     1
102
RTVSPropertyOp27
 70
     1
102
RTVSPropertyOp28
 70
     1
102
RTVSPropertyOp29
 70
     1
102
RTVSPropertyOp30
 70
     1
102
RTVSPropertyOp31
 70
     1
102
RTVSPropertyOp32
 70
     1
102
RTVSPropertyOp33
 70
     1
102
RTVSPropertyOp34
 70
     1
102
RTVSPropertyOp35
 70
     1
102
RTVSPropertyOp36
 70
     1
102
RTVSPropertyOp37
 70
     1
102
RTVSPropertyOp38
 70
     1
102
RTVSPropertyOp39
 70
     1
102
RTVSPropertyOp40
 70
     1
102
RTVSPropertyOp41
 70
     1
102
RTVSPropertyOp42
 70
     1
102
RTVSPropertyOp43
 70
     1
102
RTVSPropertyOp44
 70
     1
102
RTVSPropertyOp45
 70
     1
102
RTVSPropertyOp46
 70
     1
102
RTVSPropertyOp47
 70
     1
102
RTVSPropertyOp48
 70
     1
102
RTVSPropertyOp49
 70
     1
102
RTVSPropertyOp50
 70
     1
102
RTVSPropertyOp51
 70
     0
102
RTVSPropertyOp52
 70
     0
102
RTVSPropertyOp53
 70
     1
102
RTVSPropertyOp54
 70
     1
102
RTVSPropertyOp55
 70
     1
102
RTVSPropertyOp56
 70
     1
102
RTVSPropertyOp57
 70
     1
102
RTVSPropertyOp58
 70
     1
102
RTVSPropertyOp59
 70
     1
102
RTVSPropertyOp60
 70
     1
102
RTVSPropertyOp61
 70
     1
102
RTVSPropertyOp62
 70
     1
  0
XRECORD
  5
F51
102
{ACAD_REACTORS
330
F50
102
}
330
F50
100
AcDbXrecord
280
     1
102
RTVSPost2010Prop28
280
     0
102
RTVSPost2010PropOp28
 70
     1
102
RTVSPost2010Prop29
280
     1
102
RTVSPost2010PropOp29
 70
     1
102
RTVSPost2010Prop30
280
     1
102
RTVSPost2010PropOp30
 70
     1
102
RTVSPost2010Prop31
280
     0
102
RTVSPost2010PropOp31
 70
     1
102
RTVSPost2010Prop32
280
     0
102
RTVSPost2010PropOp32
 70
     1
102
RTVSPost2010Prop33
280
     0
102
RTVSPost2010PropOp33
 70
     1
102
RTVSPost2010Prop34
280
     0
102
RTVSPost2010PropOp34
 70
     1
102
RTVSPost2010Prop35
280
     0
102
RTVSPost2010PropOp35
 70
     1
102
RTVSPost2010Prop36
280
     0
102
RTVSPost2010PropOp36
 70
     1
102
RTVSPost2010Prop37
 90
       50
102
RTVSPost2010PropOp37
 70
     1
102
RTVSPost2010Prop38
140
0.0
102
RTVSPost2010PropOp38
 70
     1
102
RTVSPost2010Prop39
140
1.0
102
RTVSPost2010PropOp39
 70
     1
102
RTVSPost2010Prop40
 90
        0
102
RTVSPost2010PropOp40
 70
     1
102
RTVSPost2010Prop41ColorIndex
 90
       18
102
RTVSPost2010Prop41ColorRGB
 90
        0
102
RTVSPost2010PropOp41
 70
     1
102
RTVSPost2010Prop42
 90
       50
102
RTVSPost2010PropOp42
 70
     1
102
RTVSPost2010Prop43
 90
        3
102
RTVSPost2010PropOp43
 70
     1
102
RTVSPost2010Prop44ColorIndex
 90
        5
102
RTVSPost2010Prop44ColorRGB
 90
      255
102
RTVSPost2010PropOp44
 70
     1
102
RTVSPost2010Prop45
280
     0
102
RTVSPost2010PropOp45
 70
     1
102
RTVSPost2010Prop46
 90
       50
102
RTVSPost2010PropOp46
 70
     1
102
RTVSPost2010Prop47
 90
       50
102
RTVSPost2010PropOp47
 70
     1
102
RTVSPost2010Prop48
 90
       50
102
RTVSPost2010PropOp48
 70
     1
102
RTVSPost2010Prop49
280
     0
102
RTVSPost2010PropOp49
 70
     1
102
RTVSPost2010Prop50
 90
       50
102
RTVSPost2010PropOp50
 70
     1
102
RTVSPost2010Prop51ColorIndex
 90
      256
102
RTVSPost2010Prop51ColorRGB
 90
-16777216
102
RTVSPost2010PropOp51
 70
     0
102
RTVSPost2010Prop52
140
1.0
102
RTVSPost2010PropOp52
 70
     0
102
RTVSPost2010Prop53
 90
        2
102
RTVSPost2010PropOp53
 70
     1
102
RTVSPost2010Prop54
  1
strokes_ogs.tif
102
RTVSPost2010PropOp54
 70
     1
102
RTVSPost2010Prop55
280
     0
102
RTVSPost2010PropOp55
 70
     1
102
RTVSPost2010Prop56
140
1.0
102
RTVSPost2010PropOp56
 70
     1
102
RTVSPost2010Prop57
140
1.0
102
RTVSPost2010PropOp57
 70
     1
102
RTVSPropertyOp0
 70
     1
102
RTVSPropertyOp1
 70
     1
102
RTVSPropertyOp2
 70
     1
102
RTVSPropertyOp3
 70
     1
102
RTVSPropertyOp4
 70
     1
102
RTVSPropertyOp5
 70
     1
102
RTVSPropertyOp6
 70
     1
102
RTVSPropertyOp7
 70
     1
102
RTVSPropertyOp8
 70
     1
102
RTVSPropertyOp9
 70
     1
102
RTVSPropertyOp10
 70
     1
102
RTVSPropertyOp11
 70
     1
102
RTVSPropertyOp12
 70
     1
102
RTVSPropertyOp13
 70
     1
102
RTVSPropertyOp14
 70
     1
102
RTVSPropertyOp15
 70
     1
102
RTVSPropertyOp16
 70
     1
102
RTVSPropertyOp17
 70
     1
102
RTVSPropertyOp18
 70
     1
102
RTVSPropertyOp19
 70
     1
102
RTVSPropertyOp20
 70
     1
102
RTVSPropertyOp21
 70
     1
102
RTVSPropertyOp22
 70
     1
102
RTVSPropertyOp23
 70
     1
102
RTVSPropertyOp24
 70
     1
102
RTVSPropertyOp25
 70
     1
102
RTVSPropertyOp26
 70
     1
102
RTVSPropertyOp27
 70
     1
102
RTVSPropertyOp28
 70
     1
102
RTVSPropertyOp29
 70
     1
102
RTVSPropertyOp30
 70
     1
102
RTVSPropertyOp31
 70
     1
102
RTVSPropertyOp32
 70
     1
102
RTVSPropertyOp33
 70
     1
102
RTVSPropertyOp34
 70
     1
102
RTVSPropertyOp35
 70
     1
102
RTVSPropertyOp36
 70
     1
102
RTVSPropertyOp37
 70
     1
102
RTVSPropertyOp38
 70
     1
102
RTVSPropertyOp39
 70
     1
102
RTVSPropertyOp40
 70
     1
102
RTVSPropertyOp41
 70
     1
102
RTVSPropertyOp42
 70
     1
102
RTVSPropertyOp43
 70
     1
102
RTVSPropertyOp44
 70
     1
102
RTVSPropertyOp45
 70
     1
102
RTVSPropertyOp46
 70
     1
102
RTVSPropertyOp47
 70
     1
102
RTVSPropertyOp48
 70
     1
102
RTVSPropertyOp49
 70
     1
102
RTVSPropertyOp50
 70
     1
102
RTVSPropertyOp51
 70
     0
102
RTVSPropertyOp52
 70
     0
102
RTVSPropertyOp53
 70
     1
102
RTVSPropertyOp54
 70
     1
102
RTVSPropertyOp55
 70
     1
102
RTVSPropertyOp56
 70
     1
102
RTVSPropertyOp57
 70
     1
102
RTVSPropertyOp58
 70
     1
102
RTVSPropertyOp59
 70
     1
102
RTVSPropertyOp60
 70
     1
102
RTVSPropertyOp61
 70
     1
102
RTVSPropertyOp62
 70
     1
  0
XRECORD
  5
F53
102
{ACAD_REACTORS
330
F52
102
}
330
F52
100
AcDbXrecord
280
     1
102
RTVSPost2010Prop28
280
     0
102
RTVSPost2010PropOp28
 70
     1
102
RTVSPost2010Prop29
280
     1
102
RTVSPost2010PropOp29
 70
     1
102
RTVSPost2010Prop30
280
     1
102
RTVSPost2010PropOp30
 70
     1
102
RTVSPost2010Prop31
280
     0
102
RTVSPost2010PropOp31
 70
     1
102
RTVSPost2010Prop32
280
     0
102
RTVSPost2010PropOp32
 70
     1
102
RTVSPost2010Prop33
280
     0
102
RTVSPost2010PropOp33
 70
     1
102
RTVSPost2010Prop34
280
     0
102
RTVSPost2010PropOp34
 70
     1
102
RTVSPost2010Prop35
280
     0
102
RTVSPost2010PropOp35
 70
     1
102
RTVSPost2010Prop36
280
     0
102
RTVSPost2010PropOp36
 70
     1
102
RTVSPost2010Prop37
 90
       50
102
RTVSPost2010PropOp37
 70
     1
102
RTVSPost2010Prop38
140
0.0
102
RTVSPost2010PropOp38
 70
     1
102
RTVSPost2010Prop39
140
1.0
102
RTVSPost2010PropOp39
 70
     1
102
RTVSPost2010Prop40
 90
        0
102
RTVSPost2010PropOp40
 70
     1
102
RTVSPost2010Prop41ColorIndex
 90
       18
102
RTVSPost2010Prop41ColorRGB
 90
        0
102
RTVSPost2010PropOp41
 70
     1
102
RTVSPost2010Prop42
 90
       50
102
RTVSPost2010PropOp42
 70
     1
102
RTVSPost2010Prop43
 90
        3
102
RTVSPost2010PropOp43
 70
     1
102
RTVSPost2010Prop44ColorIndex
 90
        5
102
RTVSPost2010Prop44ColorRGB
 90
      255
102
RTVSPost2010PropOp44
 70
     1
102
RTVSPost2010Prop45
280
     0
102
RTVSPost2010PropOp45
 70
     1
102
RTVSPost2010Prop46
 90
       50
102
RTVSPost2010PropOp46
 70
     1
102
RTVSPost2010Prop47
 90
       50
102
RTVSPost2010PropOp47
 70
     1
102
RTVSPost2010Prop48
 90
       50
102
RTVSPost2010PropOp48
 70
     1
102
RTVSPost2010Prop49
280
     0
102
RTVSPost2010PropOp49
 70
     1
102
RTVSPost2010Prop50
 90
       50
102
RTVSPost2010PropOp50
 70
     1
102
RTVSPost2010Prop51ColorIndex
 90
      256
102
RTVSPost2010Prop51ColorRGB
 90
-16777216
102
RTVSPost2010PropOp51
 70
     0
102
RTVSPost2010Prop52
140
1.0
102
RTVSPost2010PropOp52
 70
     0
102
RTVSPost2010Prop53
 90
        2
102
RTVSPost2010PropOp53
 70
     1
102
RTVSPost2010Prop54
  1
strokes_ogs.tif
102
RTVSPost2010PropOp54
 70
     1
102
RTVSPost2010Prop55
280
     0
102
RTVSPost2010PropOp55
 70
     1
102
RTVSPost2010Prop56
140
1.0
102
RTVSPost2010PropOp56
 70
     1
102
RTVSPost2010Prop57
140
1.0
102
RTVSPost2010PropOp57
 70
     1
102
RTVSPropertyOp0
 70
     1
102
RTVSPropertyOp1
 70
     1
102
RTVSPropertyOp2
 70
     1
102
RTVSPropertyOp3
 70
     1
102
RTVSPropertyOp4
 70
     1
102
RTVSPropertyOp5
 70
     1
102
RTVSPropertyOp6
 70
     1
102
RTVSPropertyOp7
 70
     1
102
RTVSPropertyOp8
 70
     1
102
RTVSPropertyOp9
 70
     1
102
RTVSPropertyOp10
 70
     1
102
RTVSPropertyOp11
 70
     1
102
RTVSPropertyOp12
 70
     1
102
RTVSPropertyOp13
 70
     1
102
RTVSPropertyOp14
 70
     1
102
RTVSPropertyOp15
 70
     1
102
RTVSPropertyOp16
 70
     1
102
RTVSPropertyOp17
 70
     1
102
RTVSPropertyOp18
 70
     1
102
RTVSPropertyOp19
 70
     1
102
RTVSPropertyOp20
 70
     1
102
RTVSPropertyOp21
 70
     1
102
RTVSPropertyOp22
 70
     1
102
RTVSPropertyOp23
 70
     1
102
RTVSPropertyOp24
 70
     1
102
RTVSPropertyOp25
 70
     1
102
RTVSPropertyOp26
 70
     1
102
RTVSPropertyOp27
 70
     1
102
RTVSPropertyOp28
 70
     1
102
RTVSPropertyOp29
 70
     1
102
RTVSPropertyOp30
 70
     1
102
RTVSPropertyOp31
 70
     1
102
RTVSPropertyOp32
 70
     1
102
RTVSPropertyOp33
 70
     1
102
RTVSPropertyOp34
 70
     1
102
RTVSPropertyOp35
 70
     1
102
RTVSPropertyOp36
 70
     1
102
RTVSPropertyOp37
 70
     1
102
RTVSPropertyOp38
 70
     1
102
RTVSPropertyOp39
 70
     1
102
RTVSPropertyOp40
 70
     1
102
RTVSPropertyOp41
 70
     1
102
RTVSPropertyOp42
 70
     1
102
RTVSPropertyOp43
 70
     1
102
RTVSPropertyOp44
 70
     1
102
RTVSPropertyOp45
 70
     1
102
RTVSPropertyOp46
 70
     1
102
RTVSPropertyOp47
 70
     1
102
RTVSPropertyOp48
 70
     1
102
RTVSPropertyOp49
 70
     1
102
RTVSPropertyOp50
 70
     1
102
RTVSPropertyOp51
 70
     0
102
RTVSPropertyOp52
 70
     0
102
RTVSPropertyOp53
 70
     1
102
RTVSPropertyOp54
 70
     1
102
RTVSPropertyOp55
 70
     1
102
RTVSPropertyOp56
 70
     1
102
RTVSPropertyOp57
 70
     1
102
RTVSPropertyOp58
 70
     1
102
RTVSPropertyOp59
 70
     1
102
RTVSPropertyOp60
 70
     1
102
RTVSPropertyOp61
 70
     1
102
RTVSPropertyOp62
 70
     1
  0
XRECORD
  5
F55
102
{ACAD_REACTORS
330
F54
102
}
330
F54
100
AcDbXrecord
280
     1
102
RTVSPost2010Prop28
280
     0
102
RTVSPost2010PropOp28
 70
     1
102
RTVSPost2010Prop29
280
     1
102
RTVSPost2010PropOp29
 70
     1
102
RTVSPost2010Prop30
280
     1
102
RTVSPost2010PropOp30
 70
     1
102
RTVSPost2010Prop31
280
     0
102
RTVSPost2010PropOp31
 70
     1
102
RTVSPost2010Prop32
280
     0
102
RTVSPost2010PropOp32
 70
     1
102
RTVSPost2010Prop33
280
     0
102
RTVSPost2010PropOp33
 70
     1
102
RTVSPost2010Prop34
280
     0
102
RTVSPost2010PropOp34
 70
     1
102
RTVSPost2010Prop35
280
     0
102
RTVSPost2010PropOp35
 70
     1
102
RTVSPost2010Prop36
280
     0
102
RTVSPost2010PropOp36
 70
     1
102
RTVSPost2010Prop37
 90
       50
102
RTVSPost2010PropOp37
 70
     1
102
RTVSPost2010Prop38
140
0.0
102
RTVSPost2010PropOp38
 70
     1
102
RTVSPost2010Prop39
140
1.0
102
RTVSPost2010PropOp39
 70
     1
102
RTVSPost2010Prop40
 90
        0
102
RTVSPost2010PropOp40
 70
     1
102
RTVSPost2010Prop41ColorIndex
 90
       18
102
RTVSPost2010Prop41ColorRGB
 90
        0
102
RTVSPost2010PropOp41
 70
     1
102
RTVSPost2010Prop42
 90
       50
102
RTVSPost2010PropOp42
 70
     1
102
RTVSPost2010Prop43
 90
        3
102
RTVSPost2010PropOp43
 70
     1
102
RTVSPost2010Prop44ColorIndex
 90
        5
102
RTVSPost2010Prop44ColorRGB
 90
      255
102
RTVSPost2010PropOp44
 70
     1
102
RTVSPost2010Prop45
280
     0
102
RTVSPost2010PropOp45
 70
     1
102
RTVSPost2010Prop46
 90
       50
102
RTVSPost2010PropOp46
 70
     1
102
RTVSPost2010Prop47
 90
       50
102
RTVSPost2010PropOp47
 70
     1
102
RTVSPost2010Prop48
 90
       50
102
RTVSPost2010PropOp48
 70
     1
102
RTVSPost2010Prop49
280
     0
102
RTVSPost2010PropOp49
 70
     1
102
RTVSPost2010Prop50
 90
       50
102
RTVSPost2010PropOp50
 70
     1
102
RTVSPost2010Prop51ColorIndex
 90
      256
102
RTVSPost2010Prop51ColorRGB
 90
-16777216
102
RTVSPost2010PropOp51
 70
     0
102
RTVSPost2010Prop52
140
1.0
102
RTVSPost2010PropOp52
 70
     0
102
RTVSPost2010Prop53
 90
        2
102
RTVSPost2010PropOp53
 70
     1
102
RTVSPost2010Prop54
  1
strokes_ogs.tif
102
RTVSPost2010PropOp54
 70
     1
102
RTVSPost2010Prop55
280
     0
102
RTVSPost2010PropOp55
 70
     1
102
RTVSPost2010Prop56
140
1.0
102
RTVSPost2010PropOp56
 70
     1
102
RTVSPost2010Prop57
140
1.0
102
RTVSPost2010PropOp57
 70
     1
102
RTVSPropertyOp0
 70
     1
102
RTVSPropertyOp1
 70
     1
102
RTVSPropertyOp2
 70
     1
102
RTVSPropertyOp3
 70
     1
102
RTVSPropertyOp4
 70
     1
102
RTVSPropertyOp5
 70
     1
102
RTVSPropertyOp6
 70
     1
102
RTVSPropertyOp7
 70
     1
102
RTVSPropertyOp8
 70
     1
102
RTVSPropertyOp9
 70
     1
102
RTVSPropertyOp10
 70
     1
102
RTVSPropertyOp11
 70
     1
102
RTVSPropertyOp12
 70
     1
102
RTVSPropertyOp13
 70
     1
102
RTVSPropertyOp14
 70
     1
102
RTVSPropertyOp15
 70
     1
102
RTVSPropertyOp16
 70
     1
102
RTVSPropertyOp17
 70
     1
102
RTVSPropertyOp18
 70
     1
102
RTVSPropertyOp19
 70
     1
102
RTVSPropertyOp20
 70
     1
102
RTVSPropertyOp21
 70
     1
102
RTVSPropertyOp22
 70
     1
102
RTVSPropertyOp23
 70
     1
102
RTVSPropertyOp24
 70
     1
102
RTVSPropertyOp25
 70
     1
102
RTVSPropertyOp26
 70
     1
102
RTVSPropertyOp27
 70
     1
102
RTVSPropertyOp28
 70
     1
102
RTVSPropertyOp29
 70
     1
102
RTVSPropertyOp30
 70
     1
102
RTVSPropertyOp31
 70
     1
102
RTVSPropertyOp32
 70
     1
102
RTVSPropertyOp33
 70
     1
102
RTVSPropertyOp34
 70
     1
102
RTVSPropertyOp35
 70
     1
102
RTVSPropertyOp36
 70
     1
102
RTVSPropertyOp37
 70
     1
102
RTVSPropertyOp38
 70
     1
102
RTVSPropertyOp39
 70
     1
102
RTVSPropertyOp40
 70
     1
102
RTVSPropertyOp41
 70
     1
102
RTVSPropertyOp42
 70
     1
102
RTVSPropertyOp43
 70
     1
102
RTVSPropertyOp44
 70
     1
102
RTVSPropertyOp45
 70
     1
102
RTVSPropertyOp46
 70
     1
102
RTVSPropertyOp47
 70
     1
102
RTVSPropertyOp48
 70
     1
102
RTVSPropertyOp49
 70
     1
102
RTVSPropertyOp50
 70
     1
102
RTVSPropertyOp51
 70
     0
102
RTVSPropertyOp52
 70
     0
102
RTVSPropertyOp53
 70
     1
102
RTVSPropertyOp54
 70
     1
102
RTVSPropertyOp55
 70
     1
102
RTVSPropertyOp56
 70
     1
102
RTVSPropertyOp57
 70
     1
102
RTVSPropertyOp58
 70
     1
102
RTVSPropertyOp59
 70
     1
102
RTVSPropertyOp60
 70
     1
102
RTVSPropertyOp61
 70
     1
102
RTVSPropertyOp62
 70
     1
  0
XRECORD
  5
F57
102
{ACAD_REACTORS
330
F56
102
}
330
F56
100
AcDbXrecord
280
     1
102
RTVSPost2010Prop28
280
     0
102
RTVSPost2010PropOp28
 70
     1
102
RTVSPost2010Prop29
280
     1
102
RTVSPost2010PropOp29
 70
     1
102
RTVSPost2010Prop30
280
     1
102
RTVSPost2010PropOp30
 70
     1
102
RTVSPost2010Prop31
280
     0
102
RTVSPost2010PropOp31
 70
     1
102
RTVSPost2010Prop32
280
     0
102
RTVSPost2010PropOp32
 70
     1
102
RTVSPost2010Prop33
280
     0
102
RTVSPost2010PropOp33
 70
     1
102
RTVSPost2010Prop34
280
     0
102
RTVSPost2010PropOp34
 70
     1
102
RTVSPost2010Prop35
280
     0
102
RTVSPost2010PropOp35
 70
     1
102
RTVSPost2010Prop36
280
     0
102
RTVSPost2010PropOp36
 70
     1
102
RTVSPost2010Prop37
 90
       50
102
RTVSPost2010PropOp37
 70
     1
102
RTVSPost2010Prop38
140
0.0
102
RTVSPost2010PropOp38
 70
     1
102
RTVSPost2010Prop39
140
1.0
102
RTVSPost2010PropOp39
 70
     1
102
RTVSPost2010Prop40
 90
        0
102
RTVSPost2010PropOp40
 70
     1
102
RTVSPost2010Prop41ColorIndex
 90
       18
102
RTVSPost2010Prop41ColorRGB
 90
        0
102
RTVSPost2010PropOp41
 70
     1
102
RTVSPost2010Prop42
 90
       50
102
RTVSPost2010PropOp42
 70
     1
102
RTVSPost2010Prop43
 90
        3
102
RTVSPost2010PropOp43
 70
     1
102
RTVSPost2010Prop44ColorIndex
 90
        5
102
RTVSPost2010Prop44ColorRGB
 90
      255
102
RTVSPost2010PropOp44
 70
     1
102
RTVSPost2010Prop45
280
     0
102
RTVSPost2010PropOp45
 70
     1
102
RTVSPost2010Prop46
 90
       50
102
RTVSPost2010PropOp46
 70
     1
102
RTVSPost2010Prop47
 90
       50
102
RTVSPost2010PropOp47
 70
     1
102
RTVSPost2010Prop48
 90
       50
102
RTVSPost2010PropOp48
 70
     1
102
RTVSPost2010Prop49
280
     0
102
RTVSPost2010PropOp49
 70
     1
102
RTVSPost2010Prop50
 90
       50
102
RTVSPost2010PropOp50
 70
     1
102
RTVSPost2010Prop51ColorIndex
 90
      256
102
RTVSPost2010Prop51ColorRGB
 90
-16777216
102
RTVSPost2010PropOp51
 70
     0
102
RTVSPost2010Prop52
140
1.0
102
RTVSPost2010PropOp52
 70
     0
102
RTVSPost2010Prop53
 90
        2
102
RTVSPost2010PropOp53
 70
     1
102
RTVSPost2010Prop54
  1
strokes_ogs.tif
102
RTVSPost2010PropOp54
 70
     1
102
RTVSPost2010Prop55
280
     0
102
RTVSPost2010PropOp55
 70
     1
102
RTVSPost2010Prop56
140
1.0
102
RTVSPost2010PropOp56
 70
     1
102
RTVSPost2010Prop57
140
1.0
102
RTVSPost2010PropOp57
 70
     1
102
RTVSPropertyOp0
 70
     1
102
RTVSPropertyOp1
 70
     1
102
RTVSPropertyOp2
 70
     1
102
RTVSPropertyOp3
 70
     1
102
RTVSPropertyOp4
 70
     1
102
RTVSPropertyOp5
 70
     1
102
RTVSPropertyOp6
 70
     1
102
RTVSPropertyOp7
 70
     1
102
RTVSPropertyOp8
 70
     1
102
RTVSPropertyOp9
 70
     1
102
RTVSPropertyOp10
 70
     1
102
RTVSPropertyOp11
 70
     1
102
RTVSPropertyOp12
 70
     1
102
RTVSPropertyOp13
 70
     1
102
RTVSPropertyOp14
 70
     1
102
RTVSPropertyOp15
 70
     1
102
RTVSPropertyOp16
 70
     1
102
RTVSPropertyOp17
 70
     1
102
RTVSPropertyOp18
 70
     1
102
RTVSPropertyOp19
 70
     1
102
RTVSPropertyOp20
 70
     1
102
RTVSPropertyOp21
 70
     1
102
RTVSPropertyOp22
 70
     1
102
RTVSPropertyOp23
 70
     1
102
RTVSPropertyOp24
 70
     1
102
RTVSPropertyOp25
 70
     1
102
RTVSPropertyOp26
 70
     1
102
RTVSPropertyOp27
 70
     1
102
RTVSPropertyOp28
 70
     1
102
RTVSPropertyOp29
 70
     1
102
RTVSPropertyOp30
 70
     1
102
RTVSPropertyOp31
 70
     1
102
RTVSPropertyOp32
 70
     1
102
RTVSPropertyOp33
 70
     1
102
RTVSPropertyOp34
 70
     1
102
RTVSPropertyOp35
 70
     1
102
RTVSPropertyOp36
 70
     1
102
RTVSPropertyOp37
 70
     1
102
RTVSPropertyOp38
 70
     1
102
RTVSPropertyOp39
 70
     1
102
RTVSPropertyOp40
 70
     1
102
RTVSPropertyOp41
 70
     1
102
RTVSPropertyOp42
 70
     1
102
RTVSPropertyOp43
 70
     1
102
RTVSPropertyOp44
 70
     1
102
RTVSPropertyOp45
 70
     1
102
RTVSPropertyOp46
 70
     1
102
RTVSPropertyOp47
 70
     1
102
RTVSPropertyOp48
 70
     1
102
RTVSPropertyOp49
 70
     1
102
RTVSPropertyOp50
 70
     1
102
RTVSPropertyOp51
 70
     0
102
RTVSPropertyOp52
 70
     0
102
RTVSPropertyOp53
 70
     1
102
RTVSPropertyOp54
 70
     1
102
RTVSPropertyOp55
 70
     1
102
RTVSPropertyOp56
 70
     1
102
RTVSPropertyOp57
 70
     1
102
RTVSPropertyOp58
 70
     1
102
RTVSPropertyOp59
 70
     1
102
RTVSPropertyOp60
 70
     1
102
RTVSPropertyOp61
 70
     1
102
RTVSPropertyOp62
 70
     1
  0
XRECORD
  5
F75
102
{ACAD_REACTORS
330
F74
102
}
330
F74
100
AcDbXrecord
280
     1
102
RTVSPost2010Prop28
280
     0
102
RTVSPost2010PropOp28
 70
     1
102
RTVSPost2010Prop29
280
     1
102
RTVSPost2010PropOp29
 70
     1
102
RTVSPost2010Prop30
280
     1
102
RTVSPost2010PropOp30
 70
     1
102
RTVSPost2010Prop31
280
     0
102
RTVSPost2010PropOp31
 70
     1
102
RTVSPost2010Prop32
280
     0
102
RTVSPost2010PropOp32
 70
     1
102
RTVSPost2010Prop33
280
     0
102
RTVSPost2010PropOp33
 70
     1
102
RTVSPost2010Prop34
280
     0
102
RTVSPost2010PropOp34
 70
     1
102
RTVSPost2010Prop35
280
     0
102
RTVSPost2010PropOp35
 70
     1
102
RTVSPost2010Prop36
280
     0
102
RTVSPost2010PropOp36
 70
     1
102
RTVSPost2010Prop37
 90
       50
102
RTVSPost2010PropOp37
 70
     1
102
RTVSPost2010Prop38
140
0.0
102
RTVSPost2010PropOp38
 70
     1
102
RTVSPost2010Prop39
140
1.0
102
RTVSPost2010PropOp39
 70
     1
102
RTVSPost2010Prop40
 90
        0
102
RTVSPost2010PropOp40
 70
     1
102
RTVSPost2010Prop41ColorIndex
 90
       18
102
RTVSPost2010Prop41ColorRGB
 90
        0
102
RTVSPost2010PropOp41
 70
     1
102
RTVSPost2010Prop42
 90
       50
102
RTVSPost2010PropOp42
 70
     1
102
RTVSPost2010Prop43
 90
        3
102
RTVSPost2010PropOp43
 70
     1
102
RTVSPost2010Prop44ColorIndex
 90
        5
102
RTVSPost2010Prop44ColorRGB
 90
      255
102
RTVSPost2010PropOp44
 70
     1
102
RTVSPost2010Prop45
280
     0
102
RTVSPost2010PropOp45
 70
     1
102
RTVSPost2010Prop46
 90
       50
102
RTVSPost2010PropOp46
 70
     1
102
RTVSPost2010Prop47
 90
       50
102
RTVSPost2010PropOp47
 70
     1
102
RTVSPost2010Prop48
 90
       50
102
RTVSPost2010PropOp48
 70
     1
102
RTVSPost2010Prop49
280
     0
102
RTVSPost2010PropOp49
 70
     1
102
RTVSPost2010Prop50
 90
       50
102
RTVSPost2010PropOp50
 70
     1
102
RTVSPost2010Prop51ColorIndex
 90
      256
102
RTVSPost2010Prop51ColorRGB
 90
-16777216
102
RTVSPost2010PropOp51
 70
     0
102
RTVSPost2010Prop52
140
1.0
102
RTVSPost2010PropOp52
 70
     0
102
RTVSPost2010Prop53
 90
        2
102
RTVSPost2010PropOp53
 70
     1
102
RTVSPost2010Prop54
  1
strokes_ogs.tif
102
RTVSPost2010PropOp54
 70
     1
102
RTVSPost2010Prop55
280
     0
102
RTVSPost2010PropOp55
 70
     1
102
RTVSPost2010Prop56
140
1.0
102
RTVSPost2010PropOp56
 70
     1
102
RTVSPost2010Prop57
140
1.0
102
RTVSPost2010PropOp57
 70
     1
102
RTVSPropertyOp0
 70
     1
102
RTVSPropertyOp1
 70
     1
102
RTVSPropertyOp2
 70
     1
102
RTVSPropertyOp3
 70
     1
102
RTVSPropertyOp4
 70
     1
102
RTVSPropertyOp5
 70
     1
102
RTVSPropertyOp6
 70
     1
102
RTVSPropertyOp7
 70
     1
102
RTVSPropertyOp8
 70
     1
102
RTVSPropertyOp9
 70
     1
102
RTVSPropertyOp10
 70
     1
102
RTVSPropertyOp11
 70
     1
102
RTVSPropertyOp12
 70
     1
102
RTVSPropertyOp13
 70
     1
102
RTVSPropertyOp14
 70
     1
102
RTVSPropertyOp15
 70
     1
102
RTVSPropertyOp16
 70
     1
102
RTVSPropertyOp17
 70
     1
102
RTVSPropertyOp18
 70
     1
102
RTVSPropertyOp19
 70
     1
102
RTVSPropertyOp20
 70
     1
102
RTVSPropertyOp21
 70
     1
102
RTVSPropertyOp22
 70
     1
102
RTVSPropertyOp23
 70
     1
102
RTVSPropertyOp24
 70
     1
102
RTVSPropertyOp25
 70
     1
102
RTVSPropertyOp26
 70
     1
102
RTVSPropertyOp27
 70
     1
102
RTVSPropertyOp28
 70
     1
102
RTVSPropertyOp29
 70
     1
102
RTVSPropertyOp30
 70
     1
102
RTVSPropertyOp31
 70
     1
102
RTVSPropertyOp32
 70
     1
102
RTVSPropertyOp33
 70
     1
102
RTVSPropertyOp34
 70
     1
102
RTVSPropertyOp35
 70
     1
102
RTVSPropertyOp36
 70
     1
102
RTVSPropertyOp37
 70
     1
102
RTVSPropertyOp38
 70
     1
102
RTVSPropertyOp39
 70
     1
102
RTVSPropertyOp40
 70
     1
102
RTVSPropertyOp41
 70
     1
102
RTVSPropertyOp42
 70
     1
102
RTVSPropertyOp43
 70
     1
102
RTVSPropertyOp44
 70
     1
102
RTVSPropertyOp45
 70
     1
102
RTVSPropertyOp46
 70
     1
102
RTVSPropertyOp47
 70
     1
102
RTVSPropertyOp48
 70
     1
102
RTVSPropertyOp49
 70
     1
102
RTVSPropertyOp50
 70
     1
102
RTVSPropertyOp51
 70
     0
102
RTVSPropertyOp52
 70
     0
102
RTVSPropertyOp53
 70
     1
102
RTVSPropertyOp54
 70
     1
102
RTVSPropertyOp55
 70
     1
102
RTVSPropertyOp56
 70
     1
102
RTVSPropertyOp57
 70
     1
102
RTVSPropertyOp58
 70
     1
102
RTVSPropertyOp59
 70
     1
102
RTVSPropertyOp60
 70
     1
102
RTVSPropertyOp61
 70
     1
102
RTVSPropertyOp62
 70
     1
  0
XRECORD
  5
F81
102
{ACAD_REACTORS
330
F80
102
}
330
F80
100
AcDbXrecord
280
     1
102
RTVSPost2010Prop28
280
     0
102
RTVSPost2010PropOp28
 70
     1
102
RTVSPost2010Prop29
280
     1
102
RTVSPost2010PropOp29
 70
     1
102
RTVSPost2010Prop30
280
     1
102
RTVSPost2010PropOp30
 70
     1
102
RTVSPost2010Prop31
280
     0
102
RTVSPost2010PropOp31
 70
     1
102
RTVSPost2010Prop32
280
     0
102
RTVSPost2010PropOp32
 70
     1
102
RTVSPost2010Prop33
280
     0
102
RTVSPost2010PropOp33
 70
     1
102
RTVSPost2010Prop34
280
     0
102
RTVSPost2010PropOp34
 70
     1
102
RTVSPost2010Prop35
280
     0
102
RTVSPost2010PropOp35
 70
     1
102
RTVSPost2010Prop36
280
     0
102
RTVSPost2010PropOp36
 70
     1
102
RTVSPost2010Prop37
 90
       50
102
RTVSPost2010PropOp37
 70
     1
102
RTVSPost2010Prop38
140
0.0
102
RTVSPost2010PropOp38
 70
     1
102
RTVSPost2010Prop39
140
1.0
102
RTVSPost2010PropOp39
 70
     1
102
RTVSPost2010Prop40
 90
        0
102
RTVSPost2010PropOp40
 70
     1
102
RTVSPost2010Prop41ColorIndex
 90
       18
102
RTVSPost2010Prop41ColorRGB
 90
        0
102
RTVSPost2010PropOp41
 70
     1
102
RTVSPost2010Prop42
 90
       50
102
RTVSPost2010PropOp42
 70
     1
102
RTVSPost2010Prop43
 90
        3
102
RTVSPost2010PropOp43
 70
     1
102
RTVSPost2010Prop44ColorIndex
 90
        5
102
RTVSPost2010Prop44ColorRGB
 90
      255
102
RTVSPost2010PropOp44
 70
     1
102
RTVSPost2010Prop45
280
     0
102
RTVSPost2010PropOp45
 70
     1
102
RTVSPost2010Prop46
 90
       50
102
RTVSPost2010PropOp46
 70
     1
102
RTVSPost2010Prop47
 90
       50
102
RTVSPost2010PropOp47
 70
     1
102
RTVSPost2010Prop48
 90
       50
102
RTVSPost2010PropOp48
 70
     1
102
RTVSPost2010Prop49
280
     0
102
RTVSPost2010PropOp49
 70
     1
102
RTVSPost2010Prop50
 90
       50
102
RTVSPost2010PropOp50
 70
     1
102
RTVSPost2010Prop51ColorIndex
 90
      256
102
RTVSPost2010Prop51ColorRGB
 90
-16777216
102
RTVSPost2010PropOp51
 70
     0
102
RTVSPost2010Prop52
140
1.0
102
RTVSPost2010PropOp52
 70
     0
102
RTVSPost2010Prop53
 90
        2
102
RTVSPost2010PropOp53
 70
     1
102
RTVSPost2010Prop54
  1
strokes_ogs.tif
102
RTVSPost2010PropOp54
 70
     1
102
RTVSPost2010Prop55
280
     0
102
RTVSPost2010PropOp55
 70
     1
102
RTVSPost2010Prop56
140
1.0
102
RTVSPost2010PropOp56
 70
     1
102
RTVSPost2010Prop57
140
1.0
102
RTVSPost2010PropOp57
 70
     1
102
RTVSPropertyOp0
 70
     0
102
RTVSPropertyOp1
 70
     0
102
RTVSPropertyOp2
 70
     0
102
RTVSPropertyOp3
 70
     0
102
RTVSPropertyOp4
 70
     0
102
RTVSPropertyOp5
 70
     0
102
RTVSPropertyOp6
 70
     0
102
RTVSPropertyOp7
 70
     0
102
RTVSPropertyOp8
 70
     0
102
RTVSPropertyOp9
 70
     0
102
RTVSPropertyOp10
 70
     0
102
RTVSPropertyOp11
 70
     0
102
RTVSPropertyOp12
 70
     0
102
RTVSPropertyOp13
 70
     0
102
RTVSPropertyOp14
 70
     2
102
RTVSPropertyOp15
 70
     0
102
RTVSPropertyOp16
 70
     0
102
RTVSPropertyOp17
 70
     0
102
RTVSPropertyOp18
 70
     0
102
RTVSPropertyOp19
 70
     0
102
RTVSPropertyOp20
 70
     0
102
RTVSPropertyOp21
 70
     0
102
RTVSPropertyOp22
 70
     0
102
RTVSPropertyOp23
 70
     0
102
RTVSPropertyOp24
 70
     0
102
RTVSPropertyOp25
 70
     0
102
RTVSPropertyOp26
 70
     0
102
RTVSPropertyOp27
 70
     0
102
RTVSPropertyOp28
 70
     1
102
RTVSPropertyOp29
 70
     1
102
RTVSPropertyOp30
 70
     1
102
RTVSPropertyOp31
 70
     1
102
RTVSPropertyOp32
 70
     1
102
RTVSPropertyOp33
 70
     1
102
RTVSPropertyOp34
 70
     1
102
RTVSPropertyOp35
 70
     1
102
RTVSPropertyOp36
 70
     1
102
RTVSPropertyOp37
 70
     1
102
RTVSPropertyOp38
 70
     1
102
RTVSPropertyOp39
 70
     1
102
RTVSPropertyOp40
 70
     1
102
RTVSPropertyOp41
 70
     1
102
RTVSPropertyOp42
 70
     1
102
RTVSPropertyOp43
 70
     1
102
RTVSPropertyOp44
 70
     1
102
RTVSPropertyOp45
 70
     1
102
RTVSPropertyOp46
 70
     1
102
RTVSPropertyOp47
 70
     1
102
RTVSPropertyOp48
 70
     1
102
RTVSPropertyOp49
 70
     1
102
RTVSPropertyOp50
 70
     1
102
RTVSPropertyOp51
 70
     0
102
RTVSPropertyOp52
 70
     0
102
RTVSPropertyOp53
 70
     1
102
RTVSPropertyOp54
 70
     1
102
RTVSPropertyOp55
 70
     1
102
RTVSPropertyOp56
 70
     1
102
RTVSPropertyOp57
 70
     1
102
RTVSPropertyOp58
 70
     1
102
RTVSPropertyOp59
 70
     1
102
RTVSPropertyOp60
 70
     1
102
RTVSPropertyOp61
 70
     1
102
RTVSPropertyOp62
 70
     1
  0
XRECORD
  5
F6B
102
{ACAD_REACTORS
330
F6A
102
}
330
F6A
100
AcDbXrecord
280
     1
102
RTVSPost2010Prop28
280
     0
102
RTVSPost2010PropOp28
 70
     1
102
RTVSPost2010Prop29
280
     1
102
RTVSPost2010PropOp29
 70
     1
102
RTVSPost2010Prop30
280
     1
102
RTVSPost2010PropOp30
 70
     1
102
RTVSPost2010Prop31
280
     0
102
RTVSPost2010PropOp31
 70
     1
102
RTVSPost2010Prop32
280
     0
102
RTVSPost2010PropOp32
 70
     1
102
RTVSPost2010Prop33
280
     0
102
RTVSPost2010PropOp33
 70
     1
102
RTVSPost2010Prop34
280
     0
102
RTVSPost2010PropOp34
 70
     1
102
RTVSPost2010Prop35
280
     0
102
RTVSPost2010PropOp35
 70
     1
102
RTVSPost2010Prop36
280
     0
102
RTVSPost2010PropOp36
 70
     1
102
RTVSPost2010Prop37
 90
       50
102
RTVSPost2010PropOp37
 70
     1
102
RTVSPost2010Prop38
140
0.0
102
RTVSPost2010PropOp38
 70
     1
102
RTVSPost2010Prop39
140
1.0
102
RTVSPost2010PropOp39
 70
     1
102
RTVSPost2010Prop40
 90
        0
102
RTVSPost2010PropOp40
 70
     1
102
RTVSPost2010Prop41ColorIndex
 90
       18
102
RTVSPost2010Prop41ColorRGB
 90
        0
102
RTVSPost2010PropOp41
 70
     1
102
RTVSPost2010Prop42
 90
       50
102
RTVSPost2010PropOp42
 70
     1
102
RTVSPost2010Prop43
 90
        3
102
RTVSPost2010PropOp43
 70
     1
102
RTVSPost2010Prop44ColorIndex
 90
        5
102
RTVSPost2010Prop44ColorRGB
 90
      255
102
RTVSPost2010PropOp44
 70
     1
102
RTVSPost2010Prop45
280
     0
102
RTVSPost2010PropOp45
 70
     1
102
RTVSPost2010Prop46
 90
       50
102
RTVSPost2010PropOp46
 70
     1
102
RTVSPost2010Prop47
 90
       50
102
RTVSPost2010PropOp47
 70
     1
102
RTVSPost2010Prop48
 90
       50
102
RTVSPost2010PropOp48
 70
     1
102
RTVSPost2010Prop49
280
     0
102
RTVSPost2010PropOp49
 70
     1
102
RTVSPost2010Prop50
 90
       50
102
RTVSPost2010PropOp50
 70
     1
102
RTVSPost2010Prop51ColorIndex
 90
      256
102
RTVSPost2010Prop51ColorRGB
 90
-16777216
102
RTVSPost2010PropOp51
 70
     0
102
RTVSPost2010Prop52
140
1.0
102
RTVSPost2010PropOp52
 70
     0
102
RTVSPost2010Prop53
 90
        2
102
RTVSPost2010PropOp53
 70
     1
102
RTVSPost2010Prop54
  1
strokes_ogs.tif
102
RTVSPost2010PropOp54
 70
     1
102
RTVSPost2010Prop55
280
     0
102
RTVSPost2010PropOp55
 70
     1
102
RTVSPost2010Prop56
140
1.0
102
RTVSPost2010PropOp56
 70
     1
102
RTVSPost2010Prop57
140
1.0
102
RTVSPost2010PropOp57
 70
     1
102
RTVSPropertyOp0
 70
     1
102
RTVSPropertyOp1
 70
     1
102
RTVSPropertyOp2
 70
     1
102
RTVSPropertyOp3
 70
     1
102
RTVSPropertyOp4
 70
     1
102
RTVSPropertyOp5
 70
     1
102
RTVSPropertyOp6
 70
     1
102
RTVSPropertyOp7
 70
     1
102
RTVSPropertyOp8
 70
     1
102
RTVSPropertyOp9
 70
     1
102
RTVSPropertyOp10
 70
     1
102
RTVSPropertyOp11
 70
     1
102
RTVSPropertyOp12
 70
     1
102
RTVSPropertyOp13
 70
     1
102
RTVSPropertyOp14
 70
     1
102
RTVSPropertyOp15
 70
     1
102
RTVSPropertyOp16
 70
     1
102
RTVSPropertyOp17
 70
     1
102
RTVSPropertyOp18
 70
     1
102
RTVSPropertyOp19
 70
     1
102
RTVSPropertyOp20
 70
     1
102
RTVSPropertyOp21
 70
     1
102
RTVSPropertyOp22
 70
     1
102
RTVSPropertyOp23
 70
     1
102
RTVSPropertyOp24
 70
     1
102
RTVSPropertyOp25
 70
     1
102
RTVSPropertyOp26
 70
     1
102
RTVSPropertyOp27
 70
     1
102
RTVSPropertyOp28
 70
     1
102
RTVSPropertyOp29
 70
     1
102
RTVSPropertyOp30
 70
     1
102
RTVSPropertyOp31
 70
     1
102
RTVSPropertyOp32
 70
     1
102
RTVSPropertyOp33
 70
     1
102
RTVSPropertyOp34
 70
     1
102
RTVSPropertyOp35
 70
     1
102
RTVSPropertyOp36
 70
     1
102
RTVSPropertyOp37
 70
     1
102
RTVSPropertyOp38
 70
     1
102
RTVSPropertyOp39
 70
     1
102
RTVSPropertyOp40
 70
     1
102
RTVSPropertyOp41
 70
     1
102
RTVSPropertyOp42
 70
     1
102
RTVSPropertyOp43
 70
     1
102
RTVSPropertyOp44
 70
     1
102
RTVSPropertyOp45
 70
     1
102
RTVSPropertyOp46
 70
     1
102
RTVSPropertyOp47
 70
     1
102
RTVSPropertyOp48
 70
     1
102
RTVSPropertyOp49
 70
     1
102
RTVSPropertyOp50
 70
     1
102
RTVSPropertyOp51
 70
     0
102
RTVSPropertyOp52
 70
     0
102
RTVSPropertyOp53
 70
     1
102
RTVSPropertyOp54
 70
     1
102
RTVSPropertyOp55
 70
     1
102
RTVSPropertyOp56
 70
     1
102
RTVSPropertyOp57
 70
     1
102
RTVSPropertyOp58
 70
     1
102
RTVSPropertyOp59
 70
     1
102
RTVSPropertyOp60
 70
     1
102
RTVSPropertyOp61
 70
     1
102
RTVSPropertyOp62
 70
     1
  0
XRECORD
  5
F83
102
{ACAD_REACTORS
330
F82
102
}
330
F82
100
AcDbXrecord
280
     1
102
RTVSPost2010Prop28
280
     0
102
RTVSPost2010PropOp28
 70
     1
102
RTVSPost2010Prop29
280
     1
102
RTVSPost2010PropOp29
 70
     1
102
RTVSPost2010Prop30
280
     1
102
RTVSPost2010PropOp30
 70
     1
102
RTVSPost2010Prop31
280
     0
102
RTVSPost2010PropOp31
 70
     1
102
RTVSPost2010Prop32
280
     0
102
RTVSPost2010PropOp32
 70
     1
102
RTVSPost2010Prop33
280
     0
102
RTVSPost2010PropOp33
 70
     1
102
RTVSPost2010Prop34
280
     0
102
RTVSPost2010PropOp34
 70
     1
102
RTVSPost2010Prop35
280
     0
102
RTVSPost2010PropOp35
 70
     1
102
RTVSPost2010Prop36
280
     0
102
RTVSPost2010PropOp36
 70
     1
102
RTVSPost2010Prop37
 90
       50
102
RTVSPost2010PropOp37
 70
     1
102
RTVSPost2010Prop38
140
0.0
102
RTVSPost2010PropOp38
 70
     1
102
RTVSPost2010Prop39
140
1.0
102
RTVSPost2010PropOp39
 70
     1
102
RTVSPost2010Prop40
 90
        0
102
RTVSPost2010PropOp40
 70
     1
102
RTVSPost2010Prop41ColorIndex
 90
       18
102
RTVSPost2010Prop41ColorRGB
 90
        0
102
RTVSPost2010PropOp41
 70
     1
102
RTVSPost2010Prop42
 90
       50
102
RTVSPost2010PropOp42
 70
     1
102
RTVSPost2010Prop43
 90
        3
102
RTVSPost2010PropOp43
 70
     1
102
RTVSPost2010Prop44ColorIndex
 90
        5
102
RTVSPost2010Prop44ColorRGB
 90
      255
102
RTVSPost2010PropOp44
 70
     1
102
RTVSPost2010Prop45
280
     0
102
RTVSPost2010PropOp45
 70
     1
102
RTVSPost2010Prop46
 90
       50
102
RTVSPost2010PropOp46
 70
     1
102
RTVSPost2010Prop47
 90
       50
102
RTVSPost2010PropOp47
 70
     1
102
RTVSPost2010Prop48
 90
       50
102
RTVSPost2010PropOp48
 70
     1
102
RTVSPost2010Prop49
280
     0
102
RTVSPost2010PropOp49
 70
     1
102
RTVSPost2010Prop50
 90
       50
102
RTVSPost2010PropOp50
 70
     1
102
RTVSPost2010Prop51ColorIndex
 90
      256
102
RTVSPost2010Prop51ColorRGB
 90
-16777216
102
RTVSPost2010PropOp51
 70
     0
102
RTVSPost2010Prop52
140
1.0
102
RTVSPost2010PropOp52
 70
     0
102
RTVSPost2010Prop53
 90
        2
102
RTVSPost2010PropOp53
 70
     1
102
RTVSPost2010Prop54
  1
strokes_ogs.tif
102
RTVSPost2010PropOp54
 70
     1
102
RTVSPost2010Prop55
280
     0
102
RTVSPost2010PropOp55
 70
     1
102
RTVSPost2010Prop56
140
1.0
102
RTVSPost2010PropOp56
 70
     1
102
RTVSPost2010Prop57
140
1.0
102
RTVSPost2010PropOp57
 70
     1
102
RTVSPropertyOp0
 70
     0
102
RTVSPropertyOp1
 70
     0
102
RTVSPropertyOp2
 70
     0
102
RTVSPropertyOp3
 70
     0
102
RTVSPropertyOp4
 70
     0
102
RTVSPropertyOp5
 70
     0
102
RTVSPropertyOp6
 70
     0
102
RTVSPropertyOp7
 70
     0
102
RTVSPropertyOp8
 70
     0
102
RTVSPropertyOp9
 70
     0
102
RTVSPropertyOp10
 70
     0
102
RTVSPropertyOp11
 70
     0
102
RTVSPropertyOp12
 70
     0
102
RTVSPropertyOp13
 70
     0
102
RTVSPropertyOp14
 70
     2
102
RTVSPropertyOp15
 70
     0
102
RTVSPropertyOp16
 70
     0
102
RTVSPropertyOp17
 70
     0
102
RTVSPropertyOp18
 70
     0
102
RTVSPropertyOp19
 70
     0
102
RTVSPropertyOp20
 70
     0
102
RTVSPropertyOp21
 70
     0
102
RTVSPropertyOp22
 70
     0
102
RTVSPropertyOp23
 70
     0
102
RTVSPropertyOp24
 70
     0
102
RTVSPropertyOp25
 70
     0
102
RTVSPropertyOp26
 70
     0
102
RTVSPropertyOp27
 70
     0
102
RTVSPropertyOp28
 70
     1
102
RTVSPropertyOp29
 70
     1
102
RTVSPropertyOp30
 70
     1
102
RTVSPropertyOp31
 70
     1
102
RTVSPropertyOp32
 70
     1
102
RTVSPropertyOp33
 70
     1
102
RTVSPropertyOp34
 70
     1
102
RTVSPropertyOp35
 70
     1
102
RTVSPropertyOp36
 70
     1
102
RTVSPropertyOp37
 70
     1
102
RTVSPropertyOp38
 70
     1
102
RTVSPropertyOp39
 70
     1
102
RTVSPropertyOp40
 70
     1
102
RTVSPropertyOp41
 70
     1
102
RTVSPropertyOp42
 70
     1
102
RTVSPropertyOp43
 70
     1
102
RTVSPropertyOp44
 70
     1
102
RTVSPropertyOp45
 70
     1
102
RTVSPropertyOp46
 70
     1
102
RTVSPropertyOp47
 70
     1
102
RTVSPropertyOp48
 70
     1
102
RTVSPropertyOp49
 70
     1
102
RTVSPropertyOp50
 70
     1
102
RTVSPropertyOp51
 70
     0
102
RTVSPropertyOp52
 70
     0
102
RTVSPropertyOp53
 70
     1
102
RTVSPropertyOp54
 70
     1
102
RTVSPropertyOp55
 70
     1
102
RTVSPropertyOp56
 70
     1
102
RTVSPropertyOp57
 70
     1
102
RTVSPropertyOp58
 70
     1
102
RTVSPropertyOp59
 70
     1
102
RTVSPropertyOp60
 70
     1
102
RTVSPropertyOp61
 70
     1
102
RTVSPropertyOp62
 70
     1
  0
XRECORD
  5
F63
102
{ACAD_REACTORS
330
F62
102
}
330
F62
100
AcDbXrecord
280
     1
102
RTVSPost2010Prop28
280
     0
102
RTVSPost2010PropOp28
 70
     1
102
RTVSPost2010Prop29
280
     1
102
RTVSPost2010PropOp29
 70
     1
102
RTVSPost2010Prop30
280
     1
102
RTVSPost2010PropOp30
 70
     1
102
RTVSPost2010Prop31
280
     0
102
RTVSPost2010PropOp31
 70
     1
102
RTVSPost2010Prop32
280
     0
102
RTVSPost2010PropOp32
 70
     1
102
RTVSPost2010Prop33
280
     0
102
RTVSPost2010PropOp33
 70
     1
102
RTVSPost2010Prop34
280
     0
102
RTVSPost2010PropOp34
 70
     1
102
RTVSPost2010Prop35
280
     0
102
RTVSPost2010PropOp35
 70
     1
102
RTVSPost2010Prop36
280
     0
102
RTVSPost2010PropOp36
 70
     1
102
RTVSPost2010Prop37
 90
       50
102
RTVSPost2010PropOp37
 70
     1
102
RTVSPost2010Prop38
140
0.0
102
RTVSPost2010PropOp38
 70
     1
102
RTVSPost2010Prop39
140
1.0
102
RTVSPost2010PropOp39
 70
     1
102
RTVSPost2010Prop40
 90
        0
102
RTVSPost2010PropOp40
 70
     1
102
RTVSPost2010Prop41ColorIndex
 90
       18
102
RTVSPost2010Prop41ColorRGB
 90
        0
102
RTVSPost2010PropOp41
 70
     1
102
RTVSPost2010Prop42
 90
       50
102
RTVSPost2010PropOp42
 70
     1
102
RTVSPost2010Prop43
 90
        3
102
RTVSPost2010PropOp43
 70
     1
102
RTVSPost2010Prop44ColorIndex
 90
        5
102
RTVSPost2010Prop44ColorRGB
 90
      255
102
RTVSPost2010PropOp44
 70
     1
102
RTVSPost2010Prop45
280
     0
102
RTVSPost2010PropOp45
 70
     1
102
RTVSPost2010Prop46
 90
       50
102
RTVSPost2010PropOp46
 70
     1
102
RTVSPost2010Prop47
 90
       50
102
RTVSPost2010PropOp47
 70
     1
102
RTVSPost2010Prop48
 90
       50
102
RTVSPost2010PropOp48
 70
     1
102
RTVSPost2010Prop49
280
     0
102
RTVSPost2010PropOp49
 70
     1
102
RTVSPost2010Prop50
 90
       50
102
RTVSPost2010PropOp50
 70
     1
102
RTVSPost2010Prop51ColorIndex
 90
      256
102
RTVSPost2010Prop51ColorRGB
 90
-16777216
102
RTVSPost2010PropOp51
 70
     0
102
RTVSPost2010Prop52
140
1.0
102
RTVSPost2010PropOp52
 70
     0
102
RTVSPost2010Prop53
 90
        2
102
RTVSPost2010PropOp53
 70
     1
102
RTVSPost2010Prop54
  1
strokes_ogs.tif
102
RTVSPost2010PropOp54
 70
     1
102
RTVSPost2010Prop55
280
     0
102
RTVSPost2010PropOp55
 70
     1
102
RTVSPost2010Prop56
140
1.0
102
RTVSPost2010PropOp56
 70
     1
102
RTVSPost2010Prop57
140
1.0
102
RTVSPost2010PropOp57
 70
     1
102
RTVSPropertyOp0
 70
     1
102
RTVSPropertyOp1
 70
     1
102
RTVSPropertyOp2
 70
     1
102
RTVSPropertyOp3
 70
     1
102
RTVSPropertyOp4
 70
     1
102
RTVSPropertyOp5
 70
     1
102
RTVSPropertyOp6
 70
     1
102
RTVSPropertyOp7
 70
     1
102
RTVSPropertyOp8
 70
     1
102
RTVSPropertyOp9
 70
     1
102
RTVSPropertyOp10
 70
     1
102
RTVSPropertyOp11
 70
     1
102
RTVSPropertyOp12
 70
     1
102
RTVSPropertyOp13
 70
     1
102
RTVSPropertyOp14
 70
     1
102
RTVSPropertyOp15
 70
     1
102
RTVSPropertyOp16
 70
     1
102
RTVSPropertyOp17
 70
     1
102
RTVSPropertyOp18
 70
     1
102
RTVSPropertyOp19
 70
     1
102
RTVSPropertyOp20
 70
     1
102
RTVSPropertyOp21
 70
     1
102
RTVSPropertyOp22
 70
     1
102
RTVSPropertyOp23
 70
     1
102
RTVSPropertyOp24
 70
     1
102
RTVSPropertyOp25
 70
     1
102
RTVSPropertyOp26
 70
     1
102
RTVSPropertyOp27
 70
     1
102
RTVSPropertyOp28
 70
     1
102
RTVSPropertyOp29
 70
     1
102
RTVSPropertyOp30
 70
     1
102
RTVSPropertyOp31
 70
     1
102
RTVSPropertyOp32
 70
     1
102
RTVSPropertyOp33
 70
     1
102
RTVSPropertyOp34
 70
     1
102
RTVSPropertyOp35
 70
     1
102
RTVSPropertyOp36
 70
     1
102
RTVSPropertyOp37
 70
     1
102
RTVSPropertyOp38
 70
     1
102
RTVSPropertyOp39
 70
     1
102
RTVSPropertyOp40
 70
     1
102
RTVSPropertyOp41
 70
     1
102
RTVSPropertyOp42
 70
     1
102
RTVSPropertyOp43
 70
     1
102
RTVSPropertyOp44
 70
     1
102
RTVSPropertyOp45
 70
     1
102
RTVSPropertyOp46
 70
     1
102
RTVSPropertyOp47
 70
     1
102
RTVSPropertyOp48
 70
     1
102
RTVSPropertyOp49
 70
     1
102
RTVSPropertyOp50
 70
     1
102
RTVSPropertyOp51
 70
     0
102
RTVSPropertyOp52
 70
     0
102
RTVSPropertyOp53
 70
     1
102
RTVSPropertyOp54
 70
     1
102
RTVSPropertyOp55
 70
     1
102
RTVSPropertyOp56
 70
     1
102
RTVSPropertyOp57
 70
     1
102
RTVSPropertyOp58
 70
     1
102
RTVSPropertyOp59
 70
     1
102
RTVSPropertyOp60
 70
     1
102
RTVSPropertyOp61
 70
     1
102
RTVSPropertyOp62
 70
     1
  0
XRECORD
  5
F7F
102
{ACAD_REACTORS
330
F7E
102
}
330
F7E
100
AcDbXrecord
280
     1
102
RTVSPost2010Prop28
280
     0
102
RTVSPost2010PropOp28
 70
     1
102
RTVSPost2010Prop29
280
     1
102
RTVSPost2010PropOp29
 70
     1
102
RTVSPost2010Prop30
280
     1
102
RTVSPost2010PropOp30
 70
     1
102
RTVSPost2010Prop31
280
     0
102
RTVSPost2010PropOp31
 70
     1
102
RTVSPost2010Prop32
280
     0
102
RTVSPost2010PropOp32
 70
     1
102
RTVSPost2010Prop33
280
     0
102
RTVSPost2010PropOp33
 70
     1
102
RTVSPost2010Prop34
280
     0
102
RTVSPost2010PropOp34
 70
     1
102
RTVSPost2010Prop35
280
     0
102
RTVSPost2010PropOp35
 70
     1
102
RTVSPost2010Prop36
280
     0
102
RTVSPost2010PropOp36
 70
     1
102
RTVSPost2010Prop37
 90
       50
102
RTVSPost2010PropOp37
 70
     1
102
RTVSPost2010Prop38
140
0.0
102
RTVSPost2010PropOp38
 70
     1
102
RTVSPost2010Prop39
140
1.0
102
RTVSPost2010PropOp39
 70
     1
102
RTVSPost2010Prop40
 90
        0
102
RTVSPost2010PropOp40
 70
     1
102
RTVSPost2010Prop41ColorIndex
 90
       18
102
RTVSPost2010Prop41ColorRGB
 90
        0
102
RTVSPost2010PropOp41
 70
     1
102
RTVSPost2010Prop42
 90
       50
102
RTVSPost2010PropOp42
 70
     1
102
RTVSPost2010Prop43
 90
        3
102
RTVSPost2010PropOp43
 70
     1
102
RTVSPost2010Prop44ColorIndex
 90
        5
102
RTVSPost2010Prop44ColorRGB
 90
      255
102
RTVSPost2010PropOp44
 70
     1
102
RTVSPost2010Prop45
280
     0
102
RTVSPost2010PropOp45
 70
     1
102
RTVSPost2010Prop46
 90
       50
102
RTVSPost2010PropOp46
 70
     1
102
RTVSPost2010Prop47
 90
       50
102
RTVSPost2010PropOp47
 70
     1
102
RTVSPost2010Prop48
 90
       50
102
RTVSPost2010PropOp48
 70
     1
102
RTVSPost2010Prop49
280
     0
102
RTVSPost2010PropOp49
 70
     1
102
RTVSPost2010Prop50
 90
       50
102
RTVSPost2010PropOp50
 70
     1
102
RTVSPost2010Prop51ColorIndex
 90
      256
102
RTVSPost2010Prop51ColorRGB
 90
-16777216
102
RTVSPost2010PropOp51
 70
     0
102
RTVSPost2010Prop52
140
1.0
102
RTVSPost2010PropOp52
 70
     0
102
RTVSPost2010Prop53
 90
        2
102
RTVSPost2010PropOp53
 70
     1
102
RTVSPost2010Prop54
  1
strokes_ogs.tif
102
RTVSPost2010PropOp54
 70
     1
102
RTVSPost2010Prop55
280
     0
102
RTVSPost2010PropOp55
 70
     1
102
RTVSPost2010Prop56
140
1.0
102
RTVSPost2010PropOp56
 70
     1
102
RTVSPost2010Prop57
140
1.0
102
RTVSPost2010PropOp57
 70
     1
102
RTVSPropertyOp0
 70
     1
102
RTVSPropertyOp1
 70
     1
102
RTVSPropertyOp2
 70
     1
102
RTVSPropertyOp3
 70
     1
102
RTVSPropertyOp4
 70
     1
102
RTVSPropertyOp5
 70
     1
102
RTVSPropertyOp6
 70
     1
102
RTVSPropertyOp7
 70
     1
102
RTVSPropertyOp8
 70
     1
102
RTVSPropertyOp9
 70
     1
102
RTVSPropertyOp10
 70
     1
102
RTVSPropertyOp11
 70
     1
102
RTVSPropertyOp12
 70
     1
102
RTVSPropertyOp13
 70
     1
102
RTVSPropertyOp14
 70
     1
102
RTVSPropertyOp15
 70
     1
102
RTVSPropertyOp16
 70
     1
102
RTVSPropertyOp17
 70
     1
102
RTVSPropertyOp18
 70
     1
102
RTVSPropertyOp19
 70
     1
102
RTVSPropertyOp20
 70
     1
102
RTVSPropertyOp21
 70
     1
102
RTVSPropertyOp22
 70
     1
102
RTVSPropertyOp23
 70
     1
102
RTVSPropertyOp24
 70
     1
102
RTVSPropertyOp25
 70
     1
102
RTVSPropertyOp26
 70
     1
102
RTVSPropertyOp27
 70
     1
102
RTVSPropertyOp28
 70
     1
102
RTVSPropertyOp29
 70
     1
102
RTVSPropertyOp30
 70
     1
102
RTVSPropertyOp31
 70
     1
102
RTVSPropertyOp32
 70
     1
102
RTVSPropertyOp33
 70
     1
102
RTVSPropertyOp34
 70
     1
102
RTVSPropertyOp35
 70
     1
102
RTVSPropertyOp36
 70
     1
102
RTVSPropertyOp37
 70
     1
102
RTVSPropertyOp38
 70
     1
102
RTVSPropertyOp39
 70
     1
102
RTVSPropertyOp40
 70
     1
102
RTVSPropertyOp41
 70
     1
102
RTVSPropertyOp42
 70
     1
102
RTVSPropertyOp43
 70
     1
102
RTVSPropertyOp44
 70
     1
102
RTVSPropertyOp45
 70
     1
102
RTVSPropertyOp46
 70
     1
102
RTVSPropertyOp47
 70
     1
102
RTVSPropertyOp48
 70
     1
102
RTVSPropertyOp49
 70
     1
102
RTVSPropertyOp50
 70
     1
102
RTVSPropertyOp51
 70
     0
102
RTVSPropertyOp52
 70
     0
102
RTVSPropertyOp53
 70
     1
102
RTVSPropertyOp54
 70
     1
102
RTVSPropertyOp55
 70
     1
102
RTVSPropertyOp56
 70
     1
102
RTVSPropertyOp57
 70
     1
102
RTVSPropertyOp58
 70
     1
102
RTVSPropertyOp59
 70
     1
102
RTVSPropertyOp60
 70
     1
102
RTVSPropertyOp61
 70
     1
102
RTVSPropertyOp62
 70
     1
  0
XRECORD
  5
F7D
102
{ACAD_REACTORS
330
F7C
102
}
330
F7C
100
AcDbXrecord
280
     1
102
RTVSPost2010Prop28
280
     0
102
RTVSPost2010PropOp28
 70
     1
102
RTVSPost2010Prop29
280
     1
102
RTVSPost2010PropOp29
 70
     1
102
RTVSPost2010Prop30
280
     1
102
RTVSPost2010PropOp30
 70
     1
102
RTVSPost2010Prop31
280
     0
102
RTVSPost2010PropOp31
 70
     1
102
RTVSPost2010Prop32
280
     0
102
RTVSPost2010PropOp32
 70
     1
102
RTVSPost2010Prop33
280
     0
102
RTVSPost2010PropOp33
 70
     1
102
RTVSPost2010Prop34
280
     0
102
RTVSPost2010PropOp34
 70
     1
102
RTVSPost2010Prop35
280
     0
102
RTVSPost2010PropOp35
 70
     1
102
RTVSPost2010Prop36
280
     0
102
RTVSPost2010PropOp36
 70
     1
102
RTVSPost2010Prop37
 90
       50
102
RTVSPost2010PropOp37
 70
     1
102
RTVSPost2010Prop38
140
0.0
102
RTVSPost2010PropOp38
 70
     1
102
RTVSPost2010Prop39
140
1.0
102
RTVSPost2010PropOp39
 70
     1
102
RTVSPost2010Prop40
 90
        0
102
RTVSPost2010PropOp40
 70
     1
102
RTVSPost2010Prop41ColorIndex
 90
       18
102
RTVSPost2010Prop41ColorRGB
 90
        0
102
RTVSPost2010PropOp41
 70
     1
102
RTVSPost2010Prop42
 90
       50
102
RTVSPost2010PropOp42
 70
     1
102
RTVSPost2010Prop43
 90
        3
102
RTVSPost2010PropOp43
 70
     1
102
RTVSPost2010Prop44ColorIndex
 90
        5
102
RTVSPost2010Prop44ColorRGB
 90
      255
102
RTVSPost2010PropOp44
 70
     1
102
RTVSPost2010Prop45
280
     0
102
RTVSPost2010PropOp45
 70
     1
102
RTVSPost2010Prop46
 90
       50
102
RTVSPost2010PropOp46
 70
     1
102
RTVSPost2010Prop47
 90
       50
102
RTVSPost2010PropOp47
 70
     1
102
RTVSPost2010Prop48
 90
       50
102
RTVSPost2010PropOp48
 70
     1
102
RTVSPost2010Prop49
280
     0
102
RTVSPost2010PropOp49
 70
     1
102
RTVSPost2010Prop50
 90
       50
102
RTVSPost2010PropOp50
 70
     1
102
RTVSPost2010Prop51ColorIndex
 90
      256
102
RTVSPost2010Prop51ColorRGB
 90
-16777216
102
RTVSPost2010PropOp51
 70
     0
102
RTVSPost2010Prop52
140
1.0
102
RTVSPost2010PropOp52
 70
     0
102
RTVSPost2010Prop53
 90
        2
102
RTVSPost2010PropOp53
 70
     1
102
RTVSPost2010Prop54
  1
strokes_ogs.tif
102
RTVSPost2010PropOp54
 70
     1
102
RTVSPost2010Prop55
280
     0
102
RTVSPost2010PropOp55
 70
     1
102
RTVSPost2010Prop56
140
1.0
102
RTVSPost2010PropOp56
 70
     1
102
RTVSPost2010Prop57
140
1.0
102
RTVSPost2010PropOp57
 70
     1
102
RTVSPropertyOp0
 70
     1
102
RTVSPropertyOp1
 70
     1
102
RTVSPropertyOp2
 70
     1
102
RTVSPropertyOp3
 70
     1
102
RTVSPropertyOp4
 70
     1
102
RTVSPropertyOp5
 70
     1
102
RTVSPropertyOp6
 70
     1
102
RTVSPropertyOp7
 70
     1
102
RTVSPropertyOp8
 70
     1
102
RTVSPropertyOp9
 70
     1
102
RTVSPropertyOp10
 70
     1
102
RTVSPropertyOp11
 70
     1
102
RTVSPropertyOp12
 70
     1
102
RTVSPropertyOp13
 70
     1
102
RTVSPropertyOp14
 70
     1
102
RTVSPropertyOp15
 70
     1
102
RTVSPropertyOp16
 70
     1
102
RTVSPropertyOp17
 70
     1
102
RTVSPropertyOp18
 70
     1
102
RTVSPropertyOp19
 70
     1
102
RTVSPropertyOp20
 70
     1
102
RTVSPropertyOp21
 70
     1
102
RTVSPropertyOp22
 70
     1
102
RTVSPropertyOp23
 70
     1
102
RTVSPropertyOp24
 70
     1
102
RTVSPropertyOp25
 70
     1
102
RTVSPropertyOp26
 70
     1
102
RTVSPropertyOp27
 70
     1
102
RTVSPropertyOp28
 70
     1
102
RTVSPropertyOp29
 70
     1
102
RTVSPropertyOp30
 70
     1
102
RTVSPropertyOp31
 70
     1
102
RTVSPropertyOp32
 70
     1
102
RTVSPropertyOp33
 70
     1
102
RTVSPropertyOp34
 70
     1
102
RTVSPropertyOp35
 70
     1
102
RTVSPropertyOp36
 70
     1
102
RTVSPropertyOp37
 70
     1
102
RTVSPropertyOp38
 70
     1
102
RTVSPropertyOp39
 70
     1
102
RTVSPropertyOp40
 70
     1
102
RTVSPropertyOp41
 70
     1
102
RTVSPropertyOp42
 70
     1
102
RTVSPropertyOp43
 70
     1
102
RTVSPropertyOp44
 70
     1
102
RTVSPropertyOp45
 70
     1
102
RTVSPropertyOp46
 70
     1
102
RTVSPropertyOp47
 70
     1
102
RTVSPropertyOp48
 70
     1
102
RTVSPropertyOp49
 70
     1
102
RTVSPropertyOp50
 70
     1
102
RTVSPropertyOp51
 70
     0
102
RTVSPropertyOp52
 70
     0
102
RTVSPropertyOp53
 70
     1
102
RTVSPropertyOp54
 70
     1
102
RTVSPropertyOp55
 70
     1
102
RTVSPropertyOp56
 70
     1
102
RTVSPropertyOp57
 70
     1
102
RTVSPropertyOp58
 70
     1
102
RTVSPropertyOp59
 70
     1
102
RTVSPropertyOp60
 70
     1
102
RTVSPropertyOp61
 70
     1
102
RTVSPropertyOp62
 70
     1
  0
XRECORD
  5
F77
102
{ACAD_REACTORS
330
F76
102
}
330
F76
100
AcDbXrecord
280
     1
102
RTVSPost2010Prop28
280
     0
102
RTVSPost2010PropOp28
 70
     1
102
RTVSPost2010Prop29
280
     1
102
RTVSPost2010PropOp29
 70
     1
102
RTVSPost2010Prop30
280
     1
102
RTVSPost2010PropOp30
 70
     1
102
RTVSPost2010Prop31
280
     0
102
RTVSPost2010PropOp31
 70
     1
102
RTVSPost2010Prop32
280
     0
102
RTVSPost2010PropOp32
 70
     1
102
RTVSPost2010Prop33
280
     0
102
RTVSPost2010PropOp33
 70
     1
102
RTVSPost2010Prop34
280
     0
102
RTVSPost2010PropOp34
 70
     1
102
RTVSPost2010Prop35
280
     0
102
RTVSPost2010PropOp35
 70
     1
102
RTVSPost2010Prop36
280
     0
102
RTVSPost2010PropOp36
 70
     1
102
RTVSPost2010Prop37
 90
       50
102
RTVSPost2010PropOp37
 70
     1
102
RTVSPost2010Prop38
140
0.0
102
RTVSPost2010PropOp38
 70
     1
102
RTVSPost2010Prop39
140
1.0
102
RTVSPost2010PropOp39
 70
     1
102
RTVSPost2010Prop40
 90
        0
102
RTVSPost2010PropOp40
 70
     1
102
RTVSPost2010Prop41ColorIndex
 90
       18
102
RTVSPost2010Prop41ColorRGB
 90
        0
102
RTVSPost2010PropOp41
 70
     1
102
RTVSPost2010Prop42
 90
       50
102
RTVSPost2010PropOp42
 70
     1
102
RTVSPost2010Prop43
 90
        3
102
RTVSPost2010PropOp43
 70
     1
102
RTVSPost2010Prop44ColorIndex
 90
        5
102
RTVSPost2010Prop44ColorRGB
 90
      255
102
RTVSPost2010PropOp44
 70
     1
102
RTVSPost2010Prop45
280
     0
102
RTVSPost2010PropOp45
 70
     1
102
RTVSPost2010Prop46
 90
       50
102
RTVSPost2010PropOp46
 70
     1
102
RTVSPost2010Prop47
 90
       50
102
RTVSPost2010PropOp47
 70
     1
102
RTVSPost2010Prop48
 90
       50
102
RTVSPost2010PropOp48
 70
     1
102
RTVSPost2010Prop49
280
     0
102
RTVSPost2010PropOp49
 70
     1
102
RTVSPost2010Prop50
 90
       50
102
RTVSPost2010PropOp50
 70
     1
102
RTVSPost2010Prop51ColorIndex
 90
      256
102
RTVSPost2010Prop51ColorRGB
 90
-16777216
102
RTVSPost2010PropOp51
 70
     0
102
RTVSPost2010Prop52
140
1.0
102
RTVSPost2010PropOp52
 70
     0
102
RTVSPost2010Prop53
 90
        2
102
RTVSPost2010PropOp53
 70
     1
102
RTVSPost2010Prop54
  1
strokes_ogs.tif
102
RTVSPost2010PropOp54
 70
     1
102
RTVSPost2010Prop55
280
     0
102
RTVSPost2010PropOp55
 70
     1
102
RTVSPost2010Prop56
140
1.0
102
RTVSPost2010PropOp56
 70
     1
102
RTVSPost2010Prop57
140
1.0
102
RTVSPost2010PropOp57
 70
     1
102
RTVSPropertyOp0
 70
     1
102
RTVSPropertyOp1
 70
     1
102
RTVSPropertyOp2
 70
     1
102
RTVSPropertyOp3
 70
     1
102
RTVSPropertyOp4
 70
     1
102
RTVSPropertyOp5
 70
     1
102
RTVSPropertyOp6
 70
     1
102
RTVSPropertyOp7
 70
     1
102
RTVSPropertyOp8
 70
     1
102
RTVSPropertyOp9
 70
     1
102
RTVSPropertyOp10
 70
     1
102
RTVSPropertyOp11
 70
     1
102
RTVSPropertyOp12
 70
     1
102
RTVSPropertyOp13
 70
     1
102
RTVSPropertyOp14
 70
     1
102
RTVSPropertyOp15
 70
     1
102
RTVSPropertyOp16
 70
     1
102
RTVSPropertyOp17
 70
     1
102
RTVSPropertyOp18
 70
     1
102
RTVSPropertyOp19
 70
     1
102
RTVSPropertyOp20
 70
     1
102
RTVSPropertyOp21
 70
     1
102
RTVSPropertyOp22
 70
     1
102
RTVSPropertyOp23
 70
     1
102
RTVSPropertyOp24
 70
     1
102
RTVSPropertyOp25
 70
     1
102
RTVSPropertyOp26
 70
     1
102
RTVSPropertyOp27
 70
     1
102
RTVSPropertyOp28
 70
     1
102
RTVSPropertyOp29
 70
     1
102
RTVSPropertyOp30
 70
     1
102
RTVSPropertyOp31
 70
     1
102
RTVSPropertyOp32
 70
     1
102
RTVSPropertyOp33
 70
     1
102
RTVSPropertyOp34
 70
     1
102
RTVSPropertyOp35
 70
     1
102
RTVSPropertyOp36
 70
     1
102
RTVSPropertyOp37
 70
     1
102
RTVSPropertyOp38
 70
     1
102
RTVSPropertyOp39
 70
     1
102
RTVSPropertyOp40
 70
     1
102
RTVSPropertyOp41
 70
     1
102
RTVSPropertyOp42
 70
     1
102
RTVSPropertyOp43
 70
     1
102
RTVSPropertyOp44
 70
     1
102
RTVSPropertyOp45
 70
     1
102
RTVSPropertyOp46
 70
     1
102
RTVSPropertyOp47
 70
     1
102
RTVSPropertyOp48
 70
     1
102
RTVSPropertyOp49
 70
     1
102
RTVSPropertyOp50
 70
     1
102
RTVSPropertyOp51
 70
     0
102
RTVSPropertyOp52
 70
     0
102
RTVSPropertyOp53
 70
     1
102
RTVSPropertyOp54
 70
     1
102
RTVSPropertyOp55
 70
     1
102
RTVSPropertyOp56
 70
     1
102
RTVSPropertyOp57
 70
     1
102
RTVSPropertyOp58
 70
     1
102
RTVSPropertyOp59
 70
     1
102
RTVSPropertyOp60
 70
     1
102
RTVSPropertyOp61
 70
     1
102
RTVSPropertyOp62
 70
     1
  0
XRECORD
  5
F79
102
{ACAD_REACTORS
330
F78
102
}
330
F78
100
AcDbXrecord
280
     1
102
RTVSPost2010Prop28
280
     0
102
RTVSPost2010PropOp28
 70
     1
102
RTVSPost2010Prop29
280
     1
102
RTVSPost2010PropOp29
 70
     1
102
RTVSPost2010Prop30
280
     1
102
RTVSPost2010PropOp30
 70
     1
102
RTVSPost2010Prop31
280
     0
102
RTVSPost2010PropOp31
 70
     1
102
RTVSPost2010Prop32
280
     0
102
RTVSPost2010PropOp32
 70
     1
102
RTVSPost2010Prop33
280
     0
102
RTVSPost2010PropOp33
 70
     1
102
RTVSPost2010Prop34
280
     0
102
RTVSPost2010PropOp34
 70
     1
102
RTVSPost2010Prop35
280
     0
102
RTVSPost2010PropOp35
 70
     1
102
RTVSPost2010Prop36
280
     0
102
RTVSPost2010PropOp36
 70
     1
102
RTVSPost2010Prop37
 90
       50
102
RTVSPost2010PropOp37
 70
     1
102
RTVSPost2010Prop38
140
0.0
102
RTVSPost2010PropOp38
 70
     1
102
RTVSPost2010Prop39
140
1.0
102
RTVSPost2010PropOp39
 70
     1
102
RTVSPost2010Prop40
 90
        0
102
RTVSPost2010PropOp40
 70
     1
102
RTVSPost2010Prop41ColorIndex
 90
       18
102
RTVSPost2010Prop41ColorRGB
 90
        0
102
RTVSPost2010PropOp41
 70
     1
102
RTVSPost2010Prop42
 90
       50
102
RTVSPost2010PropOp42
 70
     1
102
RTVSPost2010Prop43
 90
        3
102
RTVSPost2010PropOp43
 70
     1
102
RTVSPost2010Prop44ColorIndex
 90
        5
102
RTVSPost2010Prop44ColorRGB
 90
      255
102
RTVSPost2010PropOp44
 70
     1
102
RTVSPost2010Prop45
280
     0
102
RTVSPost2010PropOp45
 70
     1
102
RTVSPost2010Prop46
 90
       50
102
RTVSPost2010PropOp46
 70
     1
102
RTVSPost2010Prop47
 90
       50
102
RTVSPost2010PropOp47
 70
     1
102
RTVSPost2010Prop48
 90
       50
102
RTVSPost2010PropOp48
 70
     1
102
RTVSPost2010Prop49
280
     0
102
RTVSPost2010PropOp49
 70
     1
102
RTVSPost2010Prop50
 90
       50
102
RTVSPost2010PropOp50
 70
     1
102
RTVSPost2010Prop51ColorIndex
 90
      256
102
RTVSPost2010Prop51ColorRGB
 90
-16777216
102
RTVSPost2010PropOp51
 70
     0
102
RTVSPost2010Prop52
140
1.0
102
RTVSPost2010PropOp52
 70
     0
102
RTVSPost2010Prop53
 90
        2
102
RTVSPost2010PropOp53
 70
     1
102
RTVSPost2010Prop54
  1
strokes_ogs.tif
102
RTVSPost2010PropOp54
 70
     1
102
RTVSPost2010Prop55
280
     0
102
RTVSPost2010PropOp55
 70
     1
102
RTVSPost2010Prop56
140
1.0
102
RTVSPost2010PropOp56
 70
     1
102
RTVSPost2010Prop57
140
1.0
102
RTVSPost2010PropOp57
 70
     1
102
RTVSPropertyOp0
 70
     1
102
RTVSPropertyOp1
 70
     1
102
RTVSPropertyOp2
 70
     1
102
RTVSPropertyOp3
 70
     1
102
RTVSPropertyOp4
 70
     1
102
RTVSPropertyOp5
 70
     1
102
RTVSPropertyOp6
 70
     1
102
RTVSPropertyOp7
 70
     1
102
RTVSPropertyOp8
 70
     1
102
RTVSPropertyOp9
 70
     1
102
RTVSPropertyOp10
 70
     1
102
RTVSPropertyOp11
 70
     1
102
RTVSPropertyOp12
 70
     1
102
RTVSPropertyOp13
 70
     1
102
RTVSPropertyOp14
 70
     1
102
RTVSPropertyOp15
 70
     1
102
RTVSPropertyOp16
 70
     1
102
RTVSPropertyOp17
 70
     1
102
RTVSPropertyOp18
 70
     1
102
RTVSPropertyOp19
 70
     1
102
RTVSPropertyOp20
 70
     1
102
RTVSPropertyOp21
 70
     1
102
RTVSPropertyOp22
 70
     1
102
RTVSPropertyOp23
 70
     1
102
RTVSPropertyOp24
 70
     1
102
RTVSPropertyOp25
 70
     1
102
RTVSPropertyOp26
 70
     1
102
RTVSPropertyOp27
 70
     1
102
RTVSPropertyOp28
 70
     1
102
RTVSPropertyOp29
 70
     1
102
RTVSPropertyOp30
 70
     1
102
RTVSPropertyOp31
 70
     1
102
RTVSPropertyOp32
 70
     1
102
RTVSPropertyOp33
 70
     1
102
RTVSPropertyOp34
 70
     1
102
RTVSPropertyOp35
 70
     1
102
RTVSPropertyOp36
 70
     1
102
RTVSPropertyOp37
 70
     1
102
RTVSPropertyOp38
 70
     1
102
RTVSPropertyOp39
 70
     1
102
RTVSPropertyOp40
 70
     1
102
RTVSPropertyOp41
 70
     1
102
RTVSPropertyOp42
 70
     1
102
RTVSPropertyOp43
 70
     1
102
RTVSPropertyOp44
 70
     1
102
RTVSPropertyOp45
 70
     1
102
RTVSPropertyOp46
 70
     1
102
RTVSPropertyOp47
 70
     1
102
RTVSPropertyOp48
 70
     1
102
RTVSPropertyOp49
 70
     1
102
RTVSPropertyOp50
 70
     1
102
RTVSPropertyOp51
 70
     0
102
RTVSPropertyOp52
 70
     0
102
RTVSPropertyOp53
 70
     1
102
RTVSPropertyOp54
 70
     1
102
RTVSPropertyOp55
 70
     1
102
RTVSPropertyOp56
 70
     1
102
RTVSPropertyOp57
 70
     1
102
RTVSPropertyOp58
 70
     1
102
RTVSPropertyOp59
 70
     1
102
RTVSPropertyOp60
 70
     1
102
RTVSPropertyOp61
 70
     1
102
RTVSPropertyOp62
 70
     1
  0
XRECORD
  5
F69
102
{ACAD_REACTORS
330
F68
102
}
330
F68
100
AcDbXrecord
280
     1
102
RTVSPost2010Prop28
280
     0
102
RTVSPost2010PropOp28
 70
     1
102
RTVSPost2010Prop29
280
     1
102
RTVSPost2010PropOp29
 70
     1
102
RTVSPost2010Prop30
280
     1
102
RTVSPost2010PropOp30
 70
     1
102
RTVSPost2010Prop31
280
     0
102
RTVSPost2010PropOp31
 70
     1
102
RTVSPost2010Prop32
280
     0
102
RTVSPost2010PropOp32
 70
     1
102
RTVSPost2010Prop33
280
     0
102
RTVSPost2010PropOp33
 70
     1
102
RTVSPost2010Prop34
280
     0
102
RTVSPost2010PropOp34
 70
     1
102
RTVSPost2010Prop35
280
     0
102
RTVSPost2010PropOp35
 70
     1
102
RTVSPost2010Prop36
280
     0
102
RTVSPost2010PropOp36
 70
     1
102
RTVSPost2010Prop37
 90
       50
102
RTVSPost2010PropOp37
 70
     1
102
RTVSPost2010Prop38
140
0.0
102
RTVSPost2010PropOp38
 70
     1
102
RTVSPost2010Prop39
140
1.0
102
RTVSPost2010PropOp39
 70
     1
102
RTVSPost2010Prop40
 90
        0
102
RTVSPost2010PropOp40
 70
     1
102
RTVSPost2010Prop41ColorIndex
 90
       18
102
RTVSPost2010Prop41ColorRGB
 90
        0
102
RTVSPost2010PropOp41
 70
     1
102
RTVSPost2010Prop42
 90
       50
102
RTVSPost2010PropOp42
 70
     1
102
RTVSPost2010Prop43
 90
        3
102
RTVSPost2010PropOp43
 70
     1
102
RTVSPost2010Prop44ColorIndex
 90
        5
102
RTVSPost2010Prop44ColorRGB
 90
      255
102
RTVSPost2010PropOp44
 70
     1
102
RTVSPost2010Prop45
280
     0
102
RTVSPost2010PropOp45
 70
     1
102
RTVSPost2010Prop46
 90
       50
102
RTVSPost2010PropOp46
 70
     1
102
RTVSPost2010Prop47
 90
       50
102
RTVSPost2010PropOp47
 70
     1
102
RTVSPost2010Prop48
 90
       50
102
RTVSPost2010PropOp48
 70
     1
102
RTVSPost2010Prop49
280
     0
102
RTVSPost2010PropOp49
 70
     1
102
RTVSPost2010Prop50
 90
       50
102
RTVSPost2010PropOp50
 70
     1
102
RTVSPost2010Prop51ColorIndex
 90
      256
102
RTVSPost2010Prop51ColorRGB
 90
-16777216
102
RTVSPost2010PropOp51
 70
     0
102
RTVSPost2010Prop52
140
1.0
102
RTVSPost2010PropOp52
 70
     0
102
RTVSPost2010Prop53
 90
        2
102
RTVSPost2010PropOp53
 70
     1
102
RTVSPost2010Prop54
  1
strokes_ogs.tif
102
RTVSPost2010PropOp54
 70
     1
102
RTVSPost2010Prop55
280
     0
102
RTVSPost2010PropOp55
 70
     1
102
RTVSPost2010Prop56
140
1.0
102
RTVSPost2010PropOp56
 70
     1
102
RTVSPost2010Prop57
140
1.0
102
RTVSPost2010PropOp57
 70
     1
102
RTVSPropertyOp0
 70
     1
102
RTVSPropertyOp1
 70
     1
102
RTVSPropertyOp2
 70
     1
102
RTVSPropertyOp3
 70
     1
102
RTVSPropertyOp4
 70
     1
102
RTVSPropertyOp5
 70
     1
102
RTVSPropertyOp6
 70
     1
102
RTVSPropertyOp7
 70
     1
102
RTVSPropertyOp8
 70
     1
102
RTVSPropertyOp9
 70
     1
102
RTVSPropertyOp10
 70
     1
102
RTVSPropertyOp11
 70
     1
102
RTVSPropertyOp12
 70
     1
102
RTVSPropertyOp13
 70
     1
102
RTVSPropertyOp14
 70
     1
102
RTVSPropertyOp15
 70
     1
102
RTVSPropertyOp16
 70
     1
102
RTVSPropertyOp17
 70
     1
102
RTVSPropertyOp18
 70
     1
102
RTVSPropertyOp19
 70
     1
102
RTVSPropertyOp20
 70
     1
102
RTVSPropertyOp21
 70
     1
102
RTVSPropertyOp22
 70
     1
102
RTVSPropertyOp23
 70
     1
102
RTVSPropertyOp24
 70
     1
102
RTVSPropertyOp25
 70
     1
102
RTVSPropertyOp26
 70
     1
102
RTVSPropertyOp27
 70
     1
102
RTVSPropertyOp28
 70
     1
102
RTVSPropertyOp29
 70
     1
102
RTVSPropertyOp30
 70
     1
102
RTVSPropertyOp31
 70
     1
102
RTVSPropertyOp32
 70
     1
102
RTVSPropertyOp33
 70
     1
102
RTVSPropertyOp34
 70
     1
102
RTVSPropertyOp35
 70
     1
102
RTVSPropertyOp36
 70
     1
102
RTVSPropertyOp37
 70
     1
102
RTVSPropertyOp38
 70
     1
102
RTVSPropertyOp39
 70
     1
102
RTVSPropertyOp40
 70
     1
102
RTVSPropertyOp41
 70
     1
102
RTVSPropertyOp42
 70
     1
102
RTVSPropertyOp43
 70
     1
102
RTVSPropertyOp44
 70
     1
102
RTVSPropertyOp45
 70
     1
102
RTVSPropertyOp46
 70
     1
102
RTVSPropertyOp47
 70
     1
102
RTVSPropertyOp48
 70
     1
102
RTVSPropertyOp49
 70
     1
102
RTVSPropertyOp50
 70
     1
102
RTVSPropertyOp51
 70
     0
102
RTVSPropertyOp52
 70
     0
102
RTVSPropertyOp53
 70
     1
102
RTVSPropertyOp54
 70
     1
102
RTVSPropertyOp55
 70
     1
102
RTVSPropertyOp56
 70
     1
102
RTVSPropertyOp57
 70
     1
102
RTVSPropertyOp58
 70
     1
102
RTVSPropertyOp59
 70
     1
102
RTVSPropertyOp60
 70
     1
102
RTVSPropertyOp61
 70
     1
102
RTVSPropertyOp62
 70
     1
  0
XRECORD
  5
F73
102
{ACAD_REACTORS
330
F72
102
}
330
F72
100
AcDbXrecord
280
     1
102
RTVSPost2010Prop28
280
     0
102
RTVSPost2010PropOp28
 70
     1
102
RTVSPost2010Prop29
280
     1
102
RTVSPost2010PropOp29
 70
     1
102
RTVSPost2010Prop30
280
     1
102
RTVSPost2010PropOp30
 70
     1
102
RTVSPost2010Prop31
280
     0
102
RTVSPost2010PropOp31
 70
     1
102
RTVSPost2010Prop32
280
     0
102
RTVSPost2010PropOp32
 70
     1
102
RTVSPost2010Prop33
280
     0
102
RTVSPost2010PropOp33
 70
     1
102
RTVSPost2010Prop34
280
     0
102
RTVSPost2010PropOp34
 70
     1
102
RTVSPost2010Prop35
280
     0
102
RTVSPost2010PropOp35
 70
     1
102
RTVSPost2010Prop36
280
     0
102
RTVSPost2010PropOp36
 70
     1
102
RTVSPost2010Prop37
 90
       50
102
RTVSPost2010PropOp37
 70
     1
102
RTVSPost2010Prop38
140
0.0
102
RTVSPost2010PropOp38
 70
     1
102
RTVSPost2010Prop39
140
1.0
102
RTVSPost2010PropOp39
 70
     1
102
RTVSPost2010Prop40
 90
        0
102
RTVSPost2010PropOp40
 70
     1
102
RTVSPost2010Prop41ColorIndex
 90
       18
102
RTVSPost2010Prop41ColorRGB
 90
        0
102
RTVSPost2010PropOp41
 70
     1
102
RTVSPost2010Prop42
 90
       50
102
RTVSPost2010PropOp42
 70
     1
102
RTVSPost2010Prop43
 90
        3
102
RTVSPost2010PropOp43
 70
     1
102
RTVSPost2010Prop44ColorIndex
 90
        5
102
RTVSPost2010Prop44ColorRGB
 90
      255
102
RTVSPost2010PropOp44
 70
     1
102
RTVSPost2010Prop45
280
     0
102
RTVSPost2010PropOp45
 70
     1
102
RTVSPost2010Prop46
 90
       50
102
RTVSPost2010PropOp46
 70
     1
102
RTVSPost2010Prop47
 90
       50
102
RTVSPost2010PropOp47
 70
     1
102
RTVSPost2010Prop48
 90
       50
102
RTVSPost2010PropOp48
 70
     1
102
RTVSPost2010Prop49
280
     0
102
RTVSPost2010PropOp49
 70
     1
102
RTVSPost2010Prop50
 90
       50
102
RTVSPost2010PropOp50
 70
     1
102
RTVSPost2010Prop51ColorIndex
 90
      256
102
RTVSPost2010Prop51ColorRGB
 90
-16777216
102
RTVSPost2010PropOp51
 70
     0
102
RTVSPost2010Prop52
140
1.0
102
RTVSPost2010PropOp52
 70
     0
102
RTVSPost2010Prop53
 90
        2
102
RTVSPost2010PropOp53
 70
     1
102
RTVSPost2010Prop54
  1
strokes_ogs.tif
102
RTVSPost2010PropOp54
 70
     1
102
RTVSPost2010Prop55
280
     0
102
RTVSPost2010PropOp55
 70
     1
102
RTVSPost2010Prop56
140
1.0
102
RTVSPost2010PropOp56
 70
     1
102
RTVSPost2010Prop57
140
1.0
102
RTVSPost2010PropOp57
 70
     1
102
RTVSPropertyOp0
 70
     1
102
RTVSPropertyOp1
 70
     1
102
RTVSPropertyOp2
 70
     1
102
RTVSPropertyOp3
 70
     1
102
RTVSPropertyOp4
 70
     1
102
RTVSPropertyOp5
 70
     1
102
RTVSPropertyOp6
 70
     1
102
RTVSPropertyOp7
 70
     1
102
RTVSPropertyOp8
 70
     1
102
RTVSPropertyOp9
 70
     1
102
RTVSPropertyOp10
 70
     1
102
RTVSPropertyOp11
 70
     1
102
RTVSPropertyOp12
 70
     1
102
RTVSPropertyOp13
 70
     1
102
RTVSPropertyOp14
 70
     1
102
RTVSPropertyOp15
 70
     1
102
RTVSPropertyOp16
 70
     1
102
RTVSPropertyOp17
 70
     1
102
RTVSPropertyOp18
 70
     1
102
RTVSPropertyOp19
 70
     1
102
RTVSPropertyOp20
 70
     1
102
RTVSPropertyOp21
 70
     1
102
RTVSPropertyOp22
 70
     1
102
RTVSPropertyOp23
 70
     1
102
RTVSPropertyOp24
 70
     1
102
RTVSPropertyOp25
 70
     1
102
RTVSPropertyOp26
 70
     1
102
RTVSPropertyOp27
 70
     1
102
RTVSPropertyOp28
 70
     1
102
RTVSPropertyOp29
 70
     1
102
RTVSPropertyOp30
 70
     1
102
RTVSPropertyOp31
 70
     1
102
RTVSPropertyOp32
 70
     1
102
RTVSPropertyOp33
 70
     1
102
RTVSPropertyOp34
 70
     1
102
RTVSPropertyOp35
 70
     1
102
RTVSPropertyOp36
 70
     1
102
RTVSPropertyOp37
 70
     1
102
RTVSPropertyOp38
 70
     1
102
RTVSPropertyOp39
 70
     1
102
RTVSPropertyOp40
 70
     1
102
RTVSPropertyOp41
 70
     1
102
RTVSPropertyOp42
 70
     1
102
RTVSPropertyOp43
 70
     1
102
RTVSPropertyOp44
 70
     1
102
RTVSPropertyOp45
 70
     1
102
RTVSPropertyOp46
 70
     1
102
RTVSPropertyOp47
 70
     1
102
RTVSPropertyOp48
 70
     1
102
RTVSPropertyOp49
 70
     1
102
RTVSPropertyOp50
 70
     1
102
RTVSPropertyOp51
 70
     0
102
RTVSPropertyOp52
 70
     0
102
RTVSPropertyOp53
 70
     1
102
RTVSPropertyOp54
 70
     1
102
RTVSPropertyOp55
 70
     1
102
RTVSPropertyOp56
 70
     1
102
RTVSPropertyOp57
 70
     1
102
RTVSPropertyOp58
 70
     1
102
RTVSPropertyOp59
 70
     1
102
RTVSPropertyOp60
 70
     1
102
RTVSPropertyOp61
 70
     1
102
RTVSPropertyOp62
 70
     1
  0
XRECORD
  5
F7B
102
{ACAD_REACTORS
330
F7A
102
}
330
F7A
100
AcDbXrecord
280
     1
102
RTVSPost2010Prop28
280
     0
102
RTVSPost2010PropOp28
 70
     1
102
RTVSPost2010Prop29
280
     1
102
RTVSPost2010PropOp29
 70
     1
102
RTVSPost2010Prop30
280
     1
102
RTVSPost2010PropOp30
 70
     1
102
RTVSPost2010Prop31
280
     0
102
RTVSPost2010PropOp31
 70
     1
102
RTVSPost2010Prop32
280
     0
102
RTVSPost2010PropOp32
 70
     1
102
RTVSPost2010Prop33
280
     0
102
RTVSPost2010PropOp33
 70
     1
102
RTVSPost2010Prop34
280
     0
102
RTVSPost2010PropOp34
 70
     1
102
RTVSPost2010Prop35
280
     0
102
RTVSPost2010PropOp35
 70
     1
102
RTVSPost2010Prop36
280
     0
102
RTVSPost2010PropOp36
 70
     1
102
RTVSPost2010Prop37
 90
       50
102
RTVSPost2010PropOp37
 70
     1
102
RTVSPost2010Prop38
140
0.0
102
RTVSPost2010PropOp38
 70
     1
102
RTVSPost2010Prop39
140
1.0
102
RTVSPost2010PropOp39
 70
     1
102
RTVSPost2010Prop40
 90
        0
102
RTVSPost2010PropOp40
 70
     1
102
RTVSPost2010Prop41ColorIndex
 90
       18
102
RTVSPost2010Prop41ColorRGB
 90
        0
102
RTVSPost2010PropOp41
 70
     1
102
RTVSPost2010Prop42
 90
       50
102
RTVSPost2010PropOp42
 70
     1
102
RTVSPost2010Prop43
 90
        3
102
RTVSPost2010PropOp43
 70
     1
102
RTVSPost2010Prop44ColorIndex
 90
        5
102
RTVSPost2010Prop44ColorRGB
 90
      255
102
RTVSPost2010PropOp44
 70
     1
102
RTVSPost2010Prop45
280
     0
102
RTVSPost2010PropOp45
 70
     1
102
RTVSPost2010Prop46
 90
       50
102
RTVSPost2010PropOp46
 70
     1
102
RTVSPost2010Prop47
 90
       50
102
RTVSPost2010PropOp47
 70
     1
102
RTVSPost2010Prop48
 90
       50
102
RTVSPost2010PropOp48
 70
     1
102
RTVSPost2010Prop49
280
     0
102
RTVSPost2010PropOp49
 70
     1
102
RTVSPost2010Prop50
 90
       50
102
RTVSPost2010PropOp50
 70
     1
102
RTVSPost2010Prop51ColorIndex
 90
      256
102
RTVSPost2010Prop51ColorRGB
 90
-16777216
102
RTVSPost2010PropOp51
 70
     0
102
RTVSPost2010Prop52
140
1.0
102
RTVSPost2010PropOp52
 70
     0
102
RTVSPost2010Prop53
 90
        2
102
RTVSPost2010PropOp53
 70
     1
102
RTVSPost2010Prop54
  1
strokes_ogs.tif
102
RTVSPost2010PropOp54
 70
     1
102
RTVSPost2010Prop55
280
     0
102
RTVSPost2010PropOp55
 70
     1
102
RTVSPost2010Prop56
140
1.0
102
RTVSPost2010PropOp56
 70
     1
102
RTVSPost2010Prop57
140
1.0
102
RTVSPost2010PropOp57
 70
     1
102
RTVSPropertyOp0
 70
     1
102
RTVSPropertyOp1
 70
     1
102
RTVSPropertyOp2
 70
     1
102
RTVSPropertyOp3
 70
     1
102
RTVSPropertyOp4
 70
     1
102
RTVSPropertyOp5
 70
     1
102
RTVSPropertyOp6
 70
     1
102
RTVSPropertyOp7
 70
     1
102
RTVSPropertyOp8
 70
     1
102
RTVSPropertyOp9
 70
     1
102
RTVSPropertyOp10
 70
     1
102
RTVSPropertyOp11
 70
     1
102
RTVSPropertyOp12
 70
     1
102
RTVSPropertyOp13
 70
     1
102
RTVSPropertyOp14
 70
     1
102
RTVSPropertyOp15
 70
     1
102
RTVSPropertyOp16
 70
     1
102
RTVSPropertyOp17
 70
     1
102
RTVSPropertyOp18
 70
     1
102
RTVSPropertyOp19
 70
     1
102
RTVSPropertyOp20
 70
     1
102
RTVSPropertyOp21
 70
     1
102
RTVSPropertyOp22
 70
     1
102
RTVSPropertyOp23
 70
     1
102
RTVSPropertyOp24
 70
     1
102
RTVSPropertyOp25
 70
     1
102
RTVSPropertyOp26
 70
     1
102
RTVSPropertyOp27
 70
     1
102
RTVSPropertyOp28
 70
     1
102
RTVSPropertyOp29
 70
     1
102
RTVSPropertyOp30
 70
     1
102
RTVSPropertyOp31
 70
     1
102
RTVSPropertyOp32
 70
     1
102
RTVSPropertyOp33
 70
     1
102
RTVSPropertyOp34
 70
     1
102
RTVSPropertyOp35
 70
     1
102
RTVSPropertyOp36
 70
     1
102
RTVSPropertyOp37
 70
     1
102
RTVSPropertyOp38
 70
     1
102
RTVSPropertyOp39
 70
     1
102
RTVSPropertyOp40
 70
     1
102
RTVSPropertyOp41
 70
     1
102
RTVSPropertyOp42
 70
     1
102
RTVSPropertyOp43
 70
     1
102
RTVSPropertyOp44
 70
     1
102
RTVSPropertyOp45
 70
     1
102
RTVSPropertyOp46
 70
     1
102
RTVSPropertyOp47
 70
     1
102
RTVSPropertyOp48
 70
     1
102
RTVSPropertyOp49
 70
     1
102
RTVSPropertyOp50
 70
     1
102
RTVSPropertyOp51
 70
     0
102
RTVSPropertyOp52
 70
     0
102
RTVSPropertyOp53
 70
     1
102
RTVSPropertyOp54
 70
     1
102
RTVSPropertyOp55
 70
     1
102
RTVSPropertyOp56
 70
     1
102
RTVSPropertyOp57
 70
     1
102
RTVSPropertyOp58
 70
     1
102
RTVSPropertyOp59
 70
     1
102
RTVSPropertyOp60
 70
     1
102
RTVSPropertyOp61
 70
     1
102
RTVSPropertyOp62
 70
     1
  0
ACDBASSOCGEOMDEPENDENCY
  5
AC8
330
AC7
100
AcDbAssocDependency
 90
        2
 90
        0
290
     1
290
     1
290
     1
290
     1
 90
   -10000
330
9F6
290
     0
330
0
330
0
360
0
 90
       28
100
AcDbAssocGeomDependency
 90
        0
290
     1
  1
AcDbAssocSingleEdgePersSubentId
290
     0
  0
ACDBASSOCGEOMDEPENDENCY
  5
ACC
330
AC7
100
AcDbAssocDependency
 90
        2
 90
        0
290
     1
290
     1
290
     1
290
     1
 90
   -10000
330
AC2
290
     0
330
0
330
0
360
0
 90
       35
100
AcDbAssocGeomDependency
 90
        0
290
     1
  1
AcDbAssocSingleEdgePersSubentId
290
     0
  0
ACDBASSOCGEOMDEPENDENCY
  5
AC9
330
AC7
100
AcDbAssocDependency
 90
        2
 90
        0
290
     1
290
     1
290
     1
290
     1
 90
   -10000
330
9AE
290
     0
330
0
330
0
360
0
 90
       29
100
AcDbAssocGeomDependency
 90
        0
290
     1
  1
AcDbAssocSingleEdgePersSubentId
290
     0
  0
ACDBASSOCGEOMDEPENDENCY
  5
ACD
330
AC7
100
AcDbAssocDependency
 90
        2
 90
        0
290
     1
290
     1
290
     1
290
     1
 90
   -10000
330
AC3
290
     0
330
0
330
0
360
0
 90
       36
100
AcDbAssocGeomDependency
 90
        0
290
     1
  1
AcDbAssocSingleEdgePersSubentId
290
     0
  0
ACDBASSOCGEOMDEPENDENCY
  5
ACA
330
AC7
100
AcDbAssocDependency
 90
        2
 90
        0
290
     1
290
     1
290
     1
290
     1
 90
   -10000
330
AC0
290
     0
330
0
330
0
360
0
 90
       33
100
AcDbAssocGeomDependency
 90
        0
290
     1
  1
AcDbAssocSingleEdgePersSubentId
290
     0
  0
ACDBASSOCGEOMDEPENDENCY
  5
ACE
330
AC7
100
AcDbAssocDependency
 90
        2
 90
        0
290
     1
290
     1
290
     1
290
     1
 90
   -10000
330
AC4
290
     0
330
0
330
0
360
0
 90
       38
100
AcDbAssocGeomDependency
 90
        0
290
     1
  1
AcDbAssocSimplePersSubentId
 90
        0
 90
        3
 90
       -1
290
     0
  0
ACDBASSOCGEOMDEPENDENCY
  5
ACB
330
AC7
100
AcDbAssocDependency
 90
        2
 90
        0
290
     1
290
     1
290
     1
290
     1
 90
   -10000
330
AC1
290
     0
330
0
330
0
360
0
 90
       34
100
AcDbAssocGeomDependency
 90
        0
290
     1
  1
AcDbAssocSingleEdgePersSubentId
290
     0
  0
ACDBASSOCGEOMDEPENDENCY
  5
ACF
330
AC7
100
AcDbAssocDependency
 90
        2
 90
        0
290
     1
290
     1
290
     1
290
     1
 90
   -10000
330
AB7
290
     0
330
0
330
0
360
0
 90
       39
100
AcDbAssocGeomDependency
 90
        0
290
     1
  1
AcDbAssocEdgePersSubentId
 90
        0
 90
       10
 90
       11
290
     0
  0
ACDBASSOCGEOMDEPENDENCY
  5
AD0
330
AC7
100
AcDbAssocDependency
 90
        2
 90
        0
290
     1
290
     1
290
     1
290
     1
 90
   -10000
330
AB0
290
     0
330
0
330
0
360
0
 90
        1
100
AcDbAssocGeomDependency
 90
        0
290
     1
  1
AcDbAssocSingleEdgePersSubentId
290
     0
  0
ENDSEC
  0
EOF
