  0
SECTION
  2
HEADER
  9
$ACADVER
  1
AC1015
  9
$ACADMAINTVER
 70
    20
  9
$DWGCODEPAGE
  3
ANSI_1252
  9
$INSBASE
 10
0.0
 20
0.0
 30
0.0
  9
$EXTMIN
 10
-43.25279621703671
 20
-58.71169660710439
 30
0.0
  9
$EXTMAX
 10
49.40316287169148
 20
37.08122562680954
 30
0.0
  9
$LIMMIN
 10
-170.0
 20
-170.0
  9
$LIMMAX
 10
519.0
 20
260.0
  9
$ORTHOMODE
 70
     0
  9
$REGENMODE
 70
     1
  9
$FILLMODE
 70
     1
  9
$QTEXTMODE
 70
     0
  9
$MIRRTEXT
 70
     0
  9
$LTSCALE
 40
1.0
  9
$ATTMODE
 70
     1
  9
$TEXTSIZE
 40
5.0
  9
$TRACEWID
 40
1.0
  9
$TEXTSTYLE
  7
STANDARD
  9
$CLAYER
  8
0
  9
$CELTYPE
  6
BYLAYER
  9
$CECOLOR
 62
   256
  9
$CELTSCALE
 40
1.0
  9
$DISPSILH
 70
     0
  9
$DIMSCALE
 40
1.0
  9
$DIMASZ
 40
2.5
  9
$DIMEXO
 40
0.0
  9
$DIMDLI
 40
3.75
  9
$DIMRND
 40
0.0
  9
$DIMDLE
 40
0.0
  9
$DIMEXE
 40
1.25
  9
$DIMTP
 40
0.0
  9
$DIMTM
 40
0.0
  9
$DIMTXT
 40
3.5
  9
$DIMCEN
 40
0.0
  9
$DIMTSZ
 40
0.0
  9
$DIMTOL
 70
     0
  9
$DIMLIM
 70
     0
  9
$DIMTIH
 70
     0
  9
$DIMTOH
 70
     0
  9
$DIMSE1
 70
     0
  9
$DIMSE2
 70
     0
  9
$DIMTAD
 70
     1
  9
$DIMZIN
 70
     1
  9
$DIMBLK
  1

  9
$DIMASO
 70
     1
  9
$DIMSHO
 70
     1
  9
$DIMPOST
  1

  9
$DIMAPOST
  1

  9
$DIMALT
 70
     0
  9
$DIMALTD
 70
     3
  9
$DIMALTF
 40
0.039370078
  9
$DIMLFAC
 40
1.0
  9
$DIMTOFL
 70
     0
  9
$DIMTVP
 40
0.0
  9
$DIMTIX
 70
     0
  9
$DIMSOXD
 70
     0
  9
$DIMSAH
 70
     0
  9
$DIMBLK1
  1

  9
$DIMBLK2
  1

  9
$DIMSTYLE
  2
STANDARD
  9
$DIMCLRD
 70
     0
  9
$DIMCLRE
 70
     0
  9
$DIMCLRT
 70
     0
  9
$DIMTFAC
 40
1.0
  9
$DIMGAP
 40
0.625
  9
$DIMJUST
 70
     0
  9
$DIMSD1
 70
     0
  9
$DIMSD2
 70
     0
  9
$DIMTOLJ
 70
     0
  9
$DIMTZIN
 70
     8
  9
$DIMALTZ
 70
     0
  9
$DIMALTTZ
 70
     0
  9
$DIMUPT
 70
     0
  9
$DIMDEC
 70
     2
  9
$DIMTDEC
 70
     2
  9
$DIMALTU
 70
     2
  9
$DIMALTTD
 70
     3
  9
$DIMTXSTY
  7
STANDARD
  9
$DIMAUNIT
 70
     0
  9
$DIMADEC
 70
     2
  9
$DIMALTRND
 40
0.0
  9
$DIMAZIN
 70
     0
  9
$DIMDSEP
 70
    46
  9
$DIMATFIT
 70
     3
  9
$DIMFRAC
 70
     0
  9
$DIMLDRBLK
  1

  9
$DIMLUNIT
 70
     2
  9
$DIMLWD
 70
    -2
  9
$DIMLWE
 70
    -2
  9
$DIMTMOVE
 70
     0
  9
$LUNITS
 70
     2
  9
$LUPREC
 70
     4
  9
$SKETCHINC
 40
1.0
  9
$FILLETRAD
 40
0.0
  9
$AUNITS
 70
     0
  9
$AUPREC
 70
     0
  9
$MENU
  1
c:\tdm21\cad\caduti13\tdm13
  9
$ELEVATION
 40
0.0
  9
$PELEVATION
 40
0.0
  9
$THICKNESS
 40
0.0
  9
$LIMCHECK
 70
     0
  9
$CHAMFERA
 40
0.0
  9
$CHAMFERB
 40
0.0
  9
$CHAMFERC
 40
0.0
  9
$CHAMFERD
 40
0.0
  9
$SKPOLY
 70
     0
  9
$TDCREATE
 40
2456169.530488056
  9
$TDUCREATE
 40
2456169.488821389
  9
$TDUPDATE
 40
2457338.536741574
  9
$TDUUPDATE
 40
2457338.495074907
  9
$TDINDWG
 40
0.0126559954
  9
$TDUSRTIMER
 40
0.0126557986
  9
$USRTIMER
 70
     1
  9
$ANGBASE
 50
0.0
  9
$ANGDIR
 70
     0
  9
$PDMODE
 70
     3
  9
$PDSIZE
 40
0.0
  9
$PLINEWID
 40
0.0
  9
$SPLFRAME
 70
     0
  9
$SPLINETYPE
 70
     6
  9
$SPLINESEGS
 70
     8
  9
$HANDSEED
  5
10A8
  9
$SURFTAB1
 70
     6
  9
$SURFTAB2
 70
     6
  9
$SURFTYPE
 70
     6
  9
$SURFU
 70
     6
  9
$SURFV
 70
     6
  9
$UCSBASE
  2

  9
$UCSNAME
  2

  9
$UCSORG
 10
0.0
 20
0.0
 30
0.0
  9
$UCSXDIR
 10
1.0
 20
0.0
 30
0.0
  9
$UCSYDIR
 10
0.0
 20
1.0
 30
0.0
  9
$UCSORTHOREF
  2

  9
$UCSORTHOVIEW
 70
     0
  9
$UCSORGTOP
 10
0.0
 20
0.0
 30
0.0
  9
$UCSORGBOTTOM
 10
0.0
 20
0.0
 30
0.0
  9
$UCSORGLEFT
 10
0.0
 20
0.0
 30
0.0
  9
$UCSORGRIGHT
 10
0.0
 20
0.0
 30
0.0
  9
$UCSORGFRONT
 10
0.0
 20
0.0
 30
0.0
  9
$UCSORGBACK
 10
0.0
 20
0.0
 30
0.0
  9
$PUCSBASE
  2

  9
$PUCSNAME
  2

  9
$PUCSORG
 10
0.0
 20
0.0
 30
0.0
  9
$PUCSXDIR
 10
1.0
 20
0.0
 30
0.0
  9
$PUCSYDIR
 10
0.0
 20
1.0
 30
0.0
  9
$PUCSORTHOREF
  2

  9
$PUCSORTHOVIEW
 70
     0
  9
$PUCSORGTOP
 10
0.0
 20
0.0
 30
0.0
  9
$PUCSORGBOTTOM
 10
0.0
 20
0.0
 30
0.0
  9
$PUCSORGLEFT
 10
0.0
 20
0.0
 30
0.0
  9
$PUCSORGRIGHT
 10
0.0
 20
0.0
 30
0.0
  9
$PUCSORGFRONT
 10
0.0
 20
0.0
 30
0.0
  9
$PUCSORGBACK
 10
0.0
 20
0.0
 30
0.0
  9
$USERI1
 70
     0
  9
$USERI2
 70
     0
  9
$USERI3
 70
     0
  9
$USERI4
 70
     0
  9
$USERI5
 70
     0
  9
$USERR1
 40
0.0
  9
$USERR2
 40
0.0
  9
$USERR3
 40
0.0
  9
$USERR4
 40
0.0
  9
$USERR5
 40
0.0
  9
$WORLDVIEW
 70
     1
  9
$SHADEDGE
 70
     3
  9
$SHADEDIF
 70
    70
  9
$TILEMODE
 70
     1
  9
$MAXACTVP
 70
    64
  9
$PINSBASE
 10
0.0
 20
0.0
 30
0.0
  9
$PLIMCHECK
 70
     0
  9
$PEXTMIN
 10
0.0
 20
0.0
 30
0.0
  9
$PEXTMAX
 10
0.0
 20
0.0
 30
0.0
  9
$PLIMMIN
 10
0.0
 20
0.0
  9
$PLIMMAX
 10
12.0
 20
9.0
  9
$UNITMODE
 70
     0
  9
$VISRETAIN
 70
     0
  9
$PLINEGEN
 70
     0
  9
$PSLTSCALE
 70
     1
  9
$TREEDEPTH
 70
  3020
  9
$CMLSTYLE
  2
STANDARD
  9
$CMLJUST
 70
     0
  9
$CMLSCALE
 40
20.0
  9
$PROXYGRAPHICS
 70
     1
  9
$MEASUREMENT
 70
     1
  9
$CELWEIGHT
370
    -1
  9
$ENDCAPS
280
     0
  9
$JOINSTYLE
280
     0
  9
$LWDISPLAY
290
     0
  9
$INSUNITS
 70
     4
  9
$HYPERLINKBASE
  1

  9
$STYLESHEET
  1
MONOCHROME.CTB
  9
$XEDIT
290
     1
  9
$CEPSNTYPE
380
     0
  9
$PSTYLEMODE
290
     1
  9
$FINGERPRINTGUID
  2
{ED309B72-8B1A-4223-8FB6-ACCC34FE9DAC}
  9
$VERSIONGUID
  2
{96A71D87-77E4-49E9-A6AF-59A874E90C52}
  9
$EXTNAMES
290
     1
  9
$PSVPSCALE
 40
0.0
  9
$OLESTARTUP
290
     0
  0
ENDSEC
  0
SECTION
  2
CLASSES
  0
CLASS
  1
ACDBDICTIONARYWDFLT
  2
AcDbDictionaryWithDefault
  3
ObjectDBX Classes
 90
        0
280
     0
281
     0
  0
CLASS
  1
DICTIONARYVAR
  2
AcDbDictionaryVar
  3
ObjectDBX Classes
 90
        0
280
     0
281
     0
  0
CLASS
  1
TABLESTYLE
  2
AcDbTableStyle
  3
ObjectDBX Classes
 90
     4095
280
     0
281
     0
  0
CLASS
  1
MATERIAL
  2
AcDbMaterial
  3
ObjectDBX Classes
 90
     1153
280
     0
281
     0
  0
CLASS
  1
VISUALSTYLE
  2
AcDbVisualStyle
  3
ObjectDBX Classes
 90
     4095
280
     0
281
     0
  0
CLASS
  1
SCALE
  2
AcDbScale
  3
ObjectDBX Classes
 90
     1153
280
     0
281
     0
  0
CLASS
  1
MLEADERSTYLE
  2
AcDbMLeaderStyle
  3
ACDB_MLEADERSTYLE_CLASS
 90
     4095
280
     0
281
     0
  0
CLASS
  1
CELLSTYLEMAP
  2
AcDbCellStyleMap
  3
ObjectDBX Classes
 90
     1152
280
     0
281
     0
  0
CLASS
  1
DIMASSOC
  2
AcDbDimAssoc
  3
"AcDbDimAssoc|Product Desc:     AcDim ARX App For Dimension|Company:          Autodesk, Inc.|WEB Address:      www.autodesk.com"
 90
        0
280
     0
281
     0
  0
CLASS
  1
SORTENTSTABLE
  2
AcDbSortentsTable
  3
ObjectDBX Classes
 90
        0
280
     0
281
     0
  0
CLASS
  1
ACME_DOCUMENT
  2
AcMeDbDoc
  3
AcMeServices
 90
    33792
280
     0
281
     0
  0
CLASS
  1
AMGSETTINGSOBJ
  2
AmgSettingsObj
  3
"AcadM|Product Description: AutoCAD Mechanical|Company: Autodesk, Inc."
 90
    33792
280
     0
281
     0
  0
CLASS
  1
ACMESCOPE
  2
AcMeScope
  3
AcMeServices
 90
    33792
280
     0
281
     0
  0
CLASS
  1
ACMECOMMANDHISTORY
  2
AcMeCommandHistory
  3
AcMeServices
 90
    33792
280
     0
281
     0
  0
CLASS
  1
ACIMSYSVARMAN
  2
AcImSysVarManager
  3
AcMeServices
 90
    33792
280
     0
281
     0
  0
CLASS
  1
ACIMINTSYSVAR
  2
AcImIntSysVar
  3
AcMeServices
 90
    33792
280
     0
281
     0
  0
CLASS
  1
ACMESTATEMGR
  2
AcMeStateMgr
  3
AcMeServices
 90
    33792
280
     0
281
     0
  0
CLASS
  1
ACDBENTITYCACHE
  2
AcMeEntityCache
  3
AcMeServices
 90
    33792
280
     0
281
     0
  0
CLASS
  1
ACGREFMASTER
  2
AcGrefMaster
  3
AcAttribServices
 90
    33792
280
     0
281
     0
  0
CLASS
  1
ACME_DATABASE
  2
AcMeDbDatabase
  3
AcMeServices
 90
    33792
280
     0
281
     0
  0
CLASS
  1
ACRFINSADJUSTERMGR
  2
AcRfInsAdjusterMgr
  3
AcMeServices
 90
    33792
280
     0
281
     0
  0
CLASS
  1
ACGREFACADMASTER
  2
AcGrefacadMaster
  3
AcGrefServices
 90
    33792
280
     0
281
     0
  0
CLASS
  1
AMDTMENUSTATEMGR
  2
AmdtMenuStateMgr
  3
McadcomServices
 90
    33792
280
     0
281
     0
  0
CLASS
  1
AMDTMCOMMENUSTATE
  2
AmdtMcomMenuState
  3
McadcomServices
 90
    33792
280
     0
281
     0
  0
CLASS
  1
AMIMASTER
  2
AmiMaster
  3
AmiServices
 90
    33792
280
     0
281
     0
  0
CLASS
  1
MAPIAMMOUDLE
  2
MApiAmModule
  3
MApiAmServices
 90
    33792
280
     0
281
     0
  0
CLASS
  1
ACIMSTRSYSVAR
  2
AcImStrSysVar
  3
AcMeServices
 90
    33792
280
     0
281
     0
  0
CLASS
  1
AMDTAMMENUSTATE
  2
AmdtAmMenuState
  3
DesignerAssemblies
 90
    33792
280
     0
281
     0
  0
CLASS
  1
ACAMPROJECT
  2
AcAmProject
  3
DesignerAssemblies
 90
    33792
280
     0
281
     0
  0
CLASS
  1
ACAMGRCOMPDEF
  2
AcAmGrCompDef
  3
DesignerAssemblies
 90
    33792
280
     0
281
     0
  0
CLASS
  1
ACAMCOMPDEF
  2
AcAmCompDef
  3
DesignerAssemblies
 90
    33792
280
     0
281
     0
  0
CLASS
  1
ACAMCOMPDEFMGR
  2
AcAmCompDefMgr
  3
DesignerAssemblies
 90
    33792
280
     0
281
     0
  0
CLASS
  1
AMCONTEXTMGR
  2
AcAmContextMgr
  3
DesignerAssemblies
 90
    33792
280
     0
281
     0
  0
CLASS
  1
ACAMCONTEXTMODELER
  2
AcAmContextModeler
  3
DesignerAssemblies
 90
    33792
280
     0
281
     0
  0
CLASS
  1
ACMDATADICTIONARY
  2
AcmDataDictionary
  3
"AcmSymBB|Product Description: AutoCAD Mechanical|Company: Autodesk, Inc."
 90
    33792
280
     0
281
     0
  0
CLASS
  1
ACMSTANDARDISO
  2
AcmStandardISO
  3
"Amdt_StdImp|Product Description: AutoCAD Mechanical|Company: Autodesk, Inc."
 90
    33792
280
     0
281
     0
  0
CLASS
  1
AMDTEDGESTANDARDISO13715
  2
AmdtEdgeStdISO13715
  3
"Amdt_StdImp|Product Description: AutoCAD Mechanical|Company: Autodesk, Inc."
 90
    33792
280
     0
281
     0
  0
CLASS
  1
ACMSURFSTANDARDISO2002
  2
AcmSurfTextStdISO2002
  3
"Amdt_StdImp|Product Description: AutoCAD Mechanical|Company: Autodesk, Inc."
 90
    33792
280
     0
281
     0
  0
CLASS
  1
ACMFCFSTANDARDISO2004
  2
AcmFCFStdISO2004
  3
"Amdt_StdImp|Product Description: AutoCAD Mechanical|Company: Autodesk, Inc."
 90
    33792
280
     0
281
     0
  0
CLASS
  1
ACMWELDSTANDARDISO
  2
AcmWeldingStdISO
  3
"Amdt_StdImp|Product Description: AutoCAD Mechanical|Company: Autodesk, Inc."
 90
    33792
280
     0
281
     0
  0
CLASS
  1
ACMIDSTANDARDISO2004
  2
AcmIdStdISO2004
  3
"Amdt_StdImp|Product Description: AutoCAD Mechanical|Company: Autodesk, Inc."
 90
    33792
280
     0
281
     0
  0
CLASS
  1
ACMDATUMSTANDARDISO
  2
AcmDatumStdISO
  3
"Amdt_StdImp|Product Description: AutoCAD Mechanical|Company: Autodesk, Inc."
 90
    33792
280
     0
281
     0
  0
CLASS
  1
ACMBOMSTANDARDISO
  2
AcmBOMStdISO
  3
"Amdt_StdImp|Product Description: AutoCAD Mechanical|Company: Autodesk, Inc."
 90
    33792
280
     0
281
     0
  0
CLASS
  1
ACMDETAILSTANDARDISO
  2
AmdtDetailSymStdISO
  3
"Amdt_StdImp|Product Description: AutoCAD Mechanical|Company: Autodesk, Inc."
 90
    33792
280
     0
281
     0
  0
CLASS
  1
ACMSECTIONSTANDARDISO2001
  2
AmdtSectionSymStdISO2001
  3
"Amdt_StdImp|Product Description: AutoCAD Mechanical|Company: Autodesk, Inc."
 90
    33792
280
     0
281
     0
  0
CLASS
  1
ACMCENTERLINESTANDARDISO
  2
AmdtCenterLineStdISO
  3
"Amdt_StdImp|Product Description: AutoCAD Mechanical|Company: Autodesk, Inc."
 90
    33792
280
     0
281
     0
  0
CLASS
  1
ACMTHREADLINESTANDARDISO
  2
AmdtThreadLineStdISO
  3
"Amdt_StdImp|Product Description: AutoCAD Mechanical|Company: Autodesk, Inc."
 90
    33792
280
     0
281
     0
  0
CLASS
  1
ACMNOTESTANDARDISO
  2
AmdtNoteStdISO
  3
"Amdt_StdImp|Product Description: AutoCAD Mechanical|Company: Autodesk, Inc."
 90
    33792
280
     0
281
     0
  0
CLASS
  1
ACMTAPERSTANDARDISO
  2
AcmTaperStdISO
  3
"Amdt_StdImp|Product Description: AutoCAD Mechanical|Company: Autodesk, Inc."
 90
    33792
280
     0
281
     0
  0
CLASS
  1
ACMANOOTATIONVIEWSTANDARDISO
  2
AmdtAnViewStdISO
  3
"Amdt_StdImp|Product Description: AutoCAD Mechanical|Company: Autodesk, Inc."
 90
    33792
280
     0
281
     0
  0
CLASS
  1
ACAMGLAYSTD
  2
AcAmgLayStd
  3
"AmgLay|Product Description: AutoCAD Mechanical|Company: Autodesk, Inc."
 90
    33792
280
     0
281
     0
  0
CLASS
  1
ACAMGDIMSTD
  2
AcAmgDimStd
  3
"AmgDim|Product Description: AutoCAD Mechanical|Company: Autodesk, Inc."
 90
    33792
280
     0
281
     0
  0
CLASS
  1
AMGOBJPROPCFG
  2
AmgObjPropCfg
  3
"AmgLay|Product Description: AutoCAD Mechanical|Company: Autodesk, Inc."
 90
    33793
280
     0
281
     0
  0
CLASS
  1
ACAMGHOLECHARTSTDISO
  2
AcAmgHoleChartStdISO
  3
AmgDim|Product Description: AutoCAD Mechanical|Company: Autodesk, Inc.
 90
    33792
280
     0
281
     0
  0
CLASS
  1
ACAMGTITLESTD
  2
AcAmgTitleStd
  3
"AmgTitle|Product Description: AutoCAD Mechanical|Company: Autodesk, Inc."
 90
    36863
280
     0
281
     0
  0
CLASS
  1
AMDTNOTETEMPLATEDB
  2
AmdtNoteTemplateDB
  3
AcmSymBB|Product Description: AutoCAD Mechanical|Company: Autodesk, Inc.
 90
    33792
280
     0
281
     0
  0
CLASS
  1
ACAMGRCOMPDEFSET
  2
AcAmGrCompDefSet
  3
DesignerAssemblies
 90
    33792
280
     0
281
     0
  0
CLASS
  1
AMDTBROWSERDBTAB
  2
AmdtBrowserDbTab
  3
McadcomServices
 90
    33792
280
     0
281
     0
  0
CLASS
  1
CBROWSERAPPOBJECT
  2
CBrowserAppObject
  3
McadcomServices
 90
    33792
280
     0
281
     0
  0
CLASS
  1
DM_PLACEHOLDER
  2
AcDmSelsetPlaceholder
  3
McadcomServices
 90
    33792
280
     0
281
     0
  0
CLASS
  1
CAMSSTRUCTBTNSTATE
  2
StructBtnState
  3
DesignerAssemblies
 90
    33792
280
     0
281
     0
  0
CLASS
  1
ACAMGFILTERDAT
  2
AcAmgFilterDat
  3
"AcadM|Product Description: AutoCAD Mechanical|Company: Autodesk, Inc."
 90
    33792
280
     0
281
     0
  0
CLASS
  1
AEC_REFEDIT_STATUS_TRACKER
  2
AecDbRefEditStatusTracker
  3
AecArchBase70|Product Desc: Autodesk Architectural Desktop 2007 |Company: Autodesk,Inc. |WEB Address: www.autodesk.com
 90
    32897
280
     0
281
     0
  0
CLASS
  1
NPOCOLLECTION
  2
AcDbImpNonPersistentObjectsCollection
  3
ObjectDBX Classes
 90
    33921
280
     0
281
     0
  0
CLASS
  1
ACDBSECTIONVIEWSTYLE
  2
AcDbSectionViewStyle
  3
ObjectDBX Classes
 90
     1025
280
     0
281
     0
  0
CLASS
  1
ACDBDETAILVIEWSTYLE
  2
AcDbDetailViewStyle
  3
ObjectDBX Classes
 90
     1025
280
     0
281
     0
  0
CLASS
  1
ACDBPLACEHOLDER
  2
AcDbPlaceHolder
  3
ObjectDBX Classes
 90
        0
280
     0
281
     0
  0
CLASS
  1
LAYOUT
  2
AcDbLayout
  3
ObjectDBX Classes
 90
        0
280
     0
281
     0
  0
ENDSEC
  0
SECTION
  2
TABLES
  0
TABLE
  2
VPORT
  5
8
330
0
100
AcDbSymbolTable
 70
     1
  0
VPORT
  5
3ED
330
8
100
AcDbSymbolTableRecord
100
AcDbViewportTableRecord
  2
*Active
 70
     0
 10
0.0
 20
0.0
 11
1.0
 21
1.0
 12
3.080552552105515
 22
-10.82008268197535
 13
0.0
 23
0.0
 14
5.0
 24
5.0
 15
5.0
 25
5.0
 16
0.0
 26
0.0
 36
1.0
 17
0.0
 27
0.0
 37
0.0
 40
96.67076973201174
 41
2.336194563662374
 42
50.0
 43
0.0
 44
0.0
 50
0.0
 51
0.0
 71
     0
 72
  2000
 73
     1
 74
     3
 75
     0
 76
     0
 77
     0
 78
     0
281
     0
 65
     1
110
0.0
120
0.0
130
0.0
111
1.0
121
0.0
131
0.0
112
0.0
122
1.0
132
0.0
 79
     0
146
0.0
1001
ACAD_NAV_VCDISPLAY
1070
     3
  0
ENDTAB
  0
TABLE
  2
LTYPE
  5
5
330
0
100
AcDbSymbolTable
 70
    12
  0
LTYPE
  5
12
330
5
100
AcDbSymbolTableRecord
100
AcDbLinetypeTableRecord
  2
BYBLOCK
 70
     0
  3

 72
    65
 73
     0
 40
0.0
  0
LTYPE
  5
13
330
5
100
AcDbSymbolTableRecord
100
AcDbLinetypeTableRecord
  2
BYLAYER
 70
     0
  3

 72
    65
 73
     0
 40
0.0
  0
LTYPE
  5
14
330
5
100
AcDbSymbolTableRecord
100
AcDbLinetypeTableRecord
  2
CONTINUOUS
 70
     0
  3
Solid line
 72
    65
 73
     0
 40
0.0
  0
LTYPE
  5
6A7
330
5
100
AcDbSymbolTableRecord
100
AcDbLinetypeTableRecord
  2
CENTER2
 70
     0
  3
Center (.5x) ___ _ ___ _ ___ _ ___ _ ___ _ ___
 72
    65
 73
     4
 40
28.575
 49
19.05
 74
     0
 49
-3.174999999999998
 74
     0
 49
3.174999999999998
 74
     0
 49
-3.174999999999998
 74
     0
  0
LTYPE
  5
783
330
5
100
AcDbSymbolTableRecord
100
AcDbLinetypeTableRecord
  2
AM_ISO02W050
 70
     0
  3
__ __ __ __ __ __ __ __ __ __ __ __ __ __ __
 72
    65
 73
     2
 40
7.5
 49
6.0
 74
     0
 49
-1.5
 74
     0
  0
LTYPE
  5
784
330
5
100
AcDbSymbolTableRecord
100
AcDbLinetypeTableRecord
  2
AM_ISO08W050
 70
     0
  3
____ . ____ . ____ . ____ . ____ . ____ . ____
 72
    65
 73
     4
 40
18.0
 49
12.0
 74
     0
 49
-1.5
 74
     0
 49
3.0
 74
     0
 49
-1.5
 74
     0
  0
LTYPE
  5
785
330
5
100
AcDbSymbolTableRecord
100
AcDbLinetypeTableRecord
  2
AM_ISO09W050
 70
     0
  3
_____ . . _____ . . _____ . . ____ .. ____
 72
    65
 73
     6
 40
22.5
 49
12.0
 74
     0
 49
-1.5
 74
     0
 49
3.0
 74
     0
 49
-1.5
 74
     0
 49
3.0
 74
     0
 49
-1.5
 74
     0
  0
LTYPE
  5
786
330
5
100
AcDbSymbolTableRecord
100
AcDbLinetypeTableRecord
  2
Amconstr
 70
     0
  3
_______________________
 72
    65
 73
     2
 40
9999.0
 49
9999.0
 74
     0
 49
0.0
 74
     0
  0
LTYPE
  5
787
330
5
100
AcDbSymbolTableRecord
100
AcDbLinetypeTableRecord
  2
AM_ISO08W050x2
 70
     0
  3
__ . __ . __ . __ . __ . __
 72
    65
 73
     4
 40
9.0
 49
6.0
 74
     0
 49
-0.75
 74
     0
 49
1.5
 74
     0
 49
-0.75
 74
     0
  0
LTYPE
  5
788
330
5
100
AcDbSymbolTableRecord
100
AcDbLinetypeTableRecord
  2
AM_ISO02W050x2
 70
     0
  3
 _ _ _ _ _ _ _ _ _ _ _ _
 72
    65
 73
     2
 40
3.75
 49
3.0
 74
     0
 49
-0.75
 74
     0
  0
LTYPE
  5
78B
330
5
100
AcDbSymbolTableRecord
100
AcDbLinetypeTableRecord
  2
Amzigzag
 70
     0
  3
/\/-/\/-/\/-/\/-/\/-/\/
 72
    65
 73
     2
 40
11.0001
 49
0.0001
 74
     4
 75
   136
340
78A
 46
0.04
 50
0.0
 44
0.0
 45
0.0
 49
-11.0
 74
     0
  0
LTYPE
  5
79A
330
5
100
AcDbSymbolTableRecord
100
AcDbLinetypeTableRecord
  2
ACISOWELD
 70
     0
  3
_ _ _ _ _
 72
    65
 73
     2
 40
2.0
 49
2.0
 74
     0
 49
-1.0
 74
     0
  0
LTYPE
  5
79B
330
5
100
AcDbSymbolTableRecord
100
AcDbLinetypeTableRecord
  2
ACISOTGL
 70
     0
  3
_ _ _ _ _
 72
    65
 73
     2
 40
3.0
 49
2.0
 74
     0
 49
-1.0
 74
     0
  0
LTYPE
  5
79C
330
5
100
AcDbSymbolTableRecord
100
AcDbLinetypeTableRecord
  2
ACISOTGB
 70
     0
  3
__ . . __ . .
 72
    65
 73
     6
 40
9.0
 49
4.0
 74
     0
 49
-1.0
 74
     0
 49
1.0
 74
     0
 49
-1.0
 74
     0
 49
1.0
 74
     0
 49
-1.0
 74
     0
  0
ENDTAB
  0
TABLE
  2
LAYER
  5
2
102
{ACAD_XDICTIONARY
360
451
102
}
330
0
100
AcDbSymbolTable
 70
    12
  0
LAYER
  5
F
102
{ACAD_XDICTIONARY
360
D72
102
}
330
2
100
AcDbSymbolTableRecord
100
AcDbLayerTableRecord
  2
0
 70
     0
 62
     7
  6
CONTINUOUS
370
    -3
390
300
  0
LAYER
  5
23
102
{ACAD_XDICTIONARY
360
D74
102
}
330
2
100
AcDbSymbolTableRecord
100
AcDbLayerTableRecord
  2
1
 70
     0
 62
     4
  6
CONTINUOUS
370
    50
390
300
  0
LAYER
  5
24
102
{ACAD_XDICTIONARY
360
D76
102
}
330
2
100
AcDbSymbolTableRecord
100
AcDbLayerTableRecord
  2
SK1
 70
     0
 62
     4
  6
CONTINUOUS
370
    50
390
300
  0
LAYER
  5
25
102
{ACAD_XDICTIONARY
360
D78
102
}
330
2
100
AcDbSymbolTableRecord
100
AcDbLayerTableRecord
  2
2
 70
     0
 62
     7
  6
CONTINUOUS
370
    25
390
300
  0
LAYER
  5
27
102
{ACAD_XDICTIONARY
360
D7A
102
}
330
2
100
AcDbSymbolTableRecord
100
AcDbLayerTableRecord
  2
SK2
 70
     0
 62
     7
  6
CONTINUOUS
370
    25
390
300
  0
LAYER
  5
2A
102
{ACAD_XDICTIONARY
360
D7C
102
}
330
2
100
AcDbSymbolTableRecord
100
AcDbLayerTableRecord
  2
4
 70
     0
 62
     2
  6
CENTER2
370
    25
390
300
  0
LAYER
  5
2B
102
{ACAD_XDICTIONARY
360
D7E
102
}
330
2
100
AcDbSymbolTableRecord
100
AcDbLayerTableRecord
  2
SK4
 70
     0
 62
     2
  6
CENTER2
370
    25
390
300
  0
LAYER
  5
2E
102
{ACAD_XDICTIONARY
360
D80
102
}
330
2
100
AcDbSymbolTableRecord
100
AcDbLayerTableRecord
  2
SK6
 70
     0
 62
     5
  6
CONTINUOUS
370
    -3
390
300
  0
LAYER
  5
2F
330
2
100
AcDbSymbolTableRecord
100
AcDbLayerTableRecord
  2
DEFPOINTS
 70
     0
 62
     7
  6
CONTINUOUS
290
     0
370
    25
390
300
  0
LAYER
  5
375
102
{ACAD_XDICTIONARY
360
D82
102
}
330
2
100
AcDbSymbolTableRecord
100
AcDbLayerTableRecord
  2
CUT
 70
     0
 62
     1
  6
CONTINUOUS
370
    25
390
300
  0
LAYER
  5
376
102
{ACAD_XDICTIONARY
360
D84
102
}
330
2
100
AcDbSymbolTableRecord
100
AcDbLayerTableRecord
  2
NOCUT
 70
     0
 62
     7
  6
CONTINUOUS
370
    -3
390
300
  0
LAYER
  5
49B
102
{ACAD_XDICTIONARY
360
D86
102
}
330
2
100
AcDbSymbolTableRecord
100
AcDbLayerTableRecord
  2
INFTOTAL
 70
     0
 62
     9
  6
CONTINUOUS
370
    18
390
300
1001
AcAecLayerStandard
1000

1000

  0
ENDTAB
  0
TABLE
  2
STYLE
  5
3
330
0
100
AcDbSymbolTable
 70
     3
  0
STYLE
  5
10
330
3
100
AcDbSymbolTableRecord
100
AcDbTextStyleTableRecord
  2
STANDARD
 70
     0
 40
0.0
 41
1.0
 50
0.0
 71
     0
 42
5.0
  3
monos.ttf
  4

1001
ACAD
1000
Monospac821 BT
1071
       49
  0
STYLE
  5
78A
330
3
100
AcDbSymbolTableRecord
100
AcDbTextStyleTableRecord
  2

 70
     1
 40
0.0
 41
1.0
 50
0.0
 71
     0
 42
3.5
  3
genltshp.shx
  4

  0
STYLE
  5
799
330
3
100
AcDbSymbolTableRecord
100
AcDbTextStyleTableRecord
  2
ACISOGDT
 70
     0
 40
0.0
 41
1.0
 50
0.0
 71
     0
 42
3.5
  3
amgdt.shx
  4

  0
ENDTAB
  0
TABLE
  2
VIEW
  5
6
330
0
100
AcDbSymbolTable
 70
     0
  0
ENDTAB
  0
TABLE
  2
UCS
  5
7
330
0
100
AcDbSymbolTable
 70
     0
  0
ENDTAB
  0
TABLE
  2
APPID
  5
9
330
0
100
AcDbSymbolTable
 70
    43
  0
APPID
  5
11
330
9
100
AcDbSymbolTableRecord
100
AcDbRegAppTableRecord
  2
ACAD
 70
     0
  0
APPID
  5
3A6
330
9
100
AcDbSymbolTableRecord
100
AcDbRegAppTableRecord
  2
ACAD_PSEXT
 70
     0
  0
APPID
  5
3A8
330
9
100
AcDbSymbolTableRecord
100
AcDbRegAppTableRecord
  2
ACAD_EXEMPT_FROM_CAD_STANDARDS
 70
     0
  0
APPID
  5
43E
330
9
100
AcDbSymbolTableRecord
100
AcDbRegAppTableRecord
  2
ACAD_MLEADERVER
 70
     0
  0
APPID
  5
460
330
9
100
AcDbSymbolTableRecord
100
AcDbRegAppTableRecord
  2
ACAD_DSTYLE_DIMJAG
 70
     0
  0
APPID
  5
461
330
9
100
AcDbSymbolTableRecord
100
AcDbRegAppTableRecord
  2
ACAD_DSTYLE_DIMBREAK
 70
     0
  0
APPID
  5
462
330
9
100
AcDbSymbolTableRecord
100
AcDbRegAppTableRecord
  2
ACAD_DSTYLE_DIMTALN
 70
     0
  0
APPID
  5
47A
330
9
100
AcDbSymbolTableRecord
100
AcDbRegAppTableRecord
  2
AcAecLayerStandard
 70
     0
  0
APPID
  5
4AB
330
9
100
AcDbSymbolTableRecord
100
AcDbRegAppTableRecord
  2
DCO15
 70
     0
  0
APPID
  5
4B9
330
9
100
AcDbSymbolTableRecord
100
AcDbRegAppTableRecord
  2
AcadAnnoPO
 70
     0
  0
APPID
  5
55F
330
9
100
AcDbSymbolTableRecord
100
AcDbRegAppTableRecord
  2
ACAD_DSTYLE_DIMRADIAL_EXTENSION
 70
     0
  0
APPID
  5
701
330
9
100
AcDbSymbolTableRecord
100
AcDbRegAppTableRecord
  2
AcadAnnotative
 70
     0
  0
APPID
  5
702
330
9
100
AcDbSymbolTableRecord
100
AcDbRegAppTableRecord
  2
AcDbDynamicBlockGUID
 70
     0
  0
APPID
  5
703
330
9
100
AcDbSymbolTableRecord
100
AcDbRegAppTableRecord
  2
AcDbBlockRepETag
 70
     0
  0
APPID
  5
748
330
9
100
AcDbSymbolTableRecord
100
AcDbRegAppTableRecord
  2
MCAD_NO_VIS
 70
     0
  0
APPID
  5
749
330
9
100
AcDbSymbolTableRecord
100
AcDbRegAppTableRecord
  2
ACAD_TEMP_GRAPHIC
 70
     0
  0
APPID
  5
754
330
9
100
AcDbSymbolTableRecord
100
AcDbRegAppTableRecord
  2
ACATTRIBSERVICES
 70
     0
  0
APPID
  5
76C
330
9
100
AcDbSymbolTableRecord
100
AcDbRegAppTableRecord
  2
DESIGNERASSEMBLIES
 70
     0
  0
APPID
  5
7A8
330
9
100
AcDbSymbolTableRecord
100
AcDbRegAppTableRecord
  2
ACAD_NAV_VCDISPLAY
 70
     0
  0
APPID
  5
A49
330
9
100
AcDbSymbolTableRecord
100
AcDbRegAppTableRecord
  2
ADCADD_ZZ
 70
     0
  0
APPID
  5
A4A
330
9
100
AcDbSymbolTableRecord
100
AcDbRegAppTableRecord
  2
SDSK_PMN
 70
     0
  0
APPID
  5
A4B
330
9
100
AcDbSymbolTableRecord
100
AcDbRegAppTableRecord
  2
AEC_DWGVARSSETUP_DATA
 70
     0
  0
APPID
  5
A4C
330
9
100
AcDbSymbolTableRecord
100
AcDbRegAppTableRecord
  2
AECBASE
 70
     0
  0
APPID
  5
A4D
330
9
100
AcDbSymbolTableRecord
100
AcDbRegAppTableRecord
  2
AEC_DISPREPCONFIG_DATA
 70
     0
  0
APPID
  5
A4E
330
9
100
AcDbSymbolTableRecord
100
AcDbRegAppTableRecord
  2
AEC_DISPREPSET_DATA
 70
     0
  0
APPID
  5
A4F
330
9
100
AcDbSymbolTableRecord
100
AcDbRegAppTableRecord
  2
AD_DRAW
 70
     0
  0
APPID
  5
A50
330
9
100
AcDbSymbolTableRecord
100
AcDbRegAppTableRecord
  2
ACADM_DIM_EDIT
 70
     0
  0
APPID
  5
A51
330
9
100
AcDbSymbolTableRecord
100
AcDbRegAppTableRecord
  2
AMDT_DM_ADJ
 70
     0
  0
APPID
  5
A52
330
9
100
AcDbSymbolTableRecord
100
AcDbRegAppTableRecord
  2
ACAD_DSTYLE_DIMTEXT_FILL
 70
     0
  0
APPID
  5
A53
330
9
100
AcDbSymbolTableRecord
100
AcDbRegAppTableRecord
  2
GENIUS_GENREC_14
 70
     0
  0
APPID
  5
A54
330
9
100
AcDbSymbolTableRecord
100
AcDbRegAppTableRecord
  2
GENIUS_GENODEF_13
 70
     0
  0
APPID
  5
A55
330
9
100
AcDbSymbolTableRecord
100
AcDbRegAppTableRecord
  2
GENIUS_GENOBJ-N-REC_13
 70
     0
  0
APPID
  5
A5D
330
9
100
AcDbSymbolTableRecord
100
AcDbRegAppTableRecord
  2
CONTENTBLOCKICON
 70
     0
  0
APPID
  5
A5E
330
9
100
AcDbSymbolTableRecord
100
AcDbRegAppTableRecord
  2
ACAUTHENVIRON
 70
     0
  0
APPID
  5
A5F
330
9
100
AcDbSymbolTableRecord
100
AcDbRegAppTableRecord
  2
AcDbDynamicBlockTrueName
 70
     0
  0
APPID
  5
A60
330
9
100
AcDbSymbolTableRecord
100
AcDbRegAppTableRecord
  2
AcDbBlockRepBTag
 70
     0
  0
APPID
  5
A9C
330
9
100
AcDbSymbolTableRecord
100
AcDbRegAppTableRecord
  2
ACAD_DSTYLE_DIMINSPECT
 70
     0
  0
APPID
  5
B27
330
9
100
AcDbSymbolTableRecord
100
AcDbRegAppTableRecord
  2
GENIUS_GENDTOL_13
 70
     0
  0
APPID
  5
FD8
330
9
100
AcDbSymbolTableRecord
100
AcDbRegAppTableRecord
  2
ACAD_DSTYLE_DIMARC_LENGTH_SYMBOL
 70
     0
  0
APPID
  5
FD9
330
9
100
AcDbSymbolTableRecord
100
AcDbRegAppTableRecord
  2
ACAD_DSTYLE_DIM_LINETYPE
 70
     0
  0
APPID
  5
FDA
330
9
100
AcDbSymbolTableRecord
100
AcDbRegAppTableRecord
  2
ACAD_DSTYLE_DIM_EXT1_LINETYPE
 70
     0
  0
APPID
  5
FDB
330
9
100
AcDbSymbolTableRecord
100
AcDbRegAppTableRecord
  2
ACAD_DSTYLE_DIM_EXT2_LINETYPE
 70
     0
  0
APPID
  5
FE3
330
9
100
AcDbSymbolTableRecord
100
AcDbRegAppTableRecord
  2
ACAD_DSTYLE_DIMJOGGED_JOGANGLE_SYMBOL
 70
     0
  0
ENDTAB
  0
TABLE
  2
DIMSTYLE
  5
A
330
0
100
AcDbSymbolTable
 70
     3
100
AcDbDimStyleTable
 71
     3
340
3F
340
467
340
781
  0
DIMSTYLE
105
3F
102
{ACAD_REACTORS
330
B03
330
B4E
330
C1B
330
E48
330
EC0
102
}
330
A
100
AcDbSymbolTableRecord
100
AcDbDimStyleTableRecord
  2
STANDARD
 70
     0
 41
2.5
 42
0.0
 43
3.75
 44
1.25
 73
     0
 74
     0
 77
     1
 78
     1
140
3.5
141
0.0
143
0.039370078
147
0.625
171
     3
179
     2
271
     2
272
     2
274
     3
283
     0
284
     8
340
10
1001
ACAD_DSTYLE_DIMJAG
1070
   388
1040
1.5
1001
ACAD_DSTYLE_DIMTALN
1070
   392
1070
     0
  0
DIMSTYLE
105
467
102
{ACAD_REACTORS
330
A78
102
}
330
A
100
AcDbSymbolTableRecord
100
AcDbDimStyleTableRecord
  2
DIAMETER
 70
     0
 41
2.5
 42
0.0
 43
3.75
 44
1.25
 73
     0
 74
     0
 76
     1
 77
     1
 78
     1
140
3.5
141
0.0
143
0.039370078
147
0.625
171
     3
173
     1
179
     2
271
     2
272
     2
274
     3
283
     0
284
     8
340
10
344
464
1001
ACAD_DSTYLE_DIMBREAK
1070
   391
1040
3.75
1001
ACAD_DSTYLE_DIMJAG
1070
   388
1040
1.5
1001
ACAD_DSTYLE_DIMTALN
1070
   392
1070
     0
  0
DIMSTYLE
105
781
330
A
100
AcDbSymbolTableRecord
100
AcDbDimStyleTableRecord
  2
AM_ISO
 70
     0
  4
"
 41
3.5
 42
1.0
 43
10.0
 44
1.0
 47
0.1
 48
0.1
 73
     0
 74
     0
 77
     1
 78
     8
 79
     2
140
3.5
141
0.0
143
0.0393701
146
0.71
147
1.5
172
     1
176
   256
177
   256
178
     2
271
     2
272
     3
274
     4
283
     0
284
     8
340
10
371
    -1
372
    -1
1001
ACAD_DSTYLE_DIMJAG
1070
   388
1040
1.5
1001
ACAD_DSTYLE_DIMBREAK
1070
   391
1040
3.75
1001
ACAD_DSTYLE_DIMARC_LENGTH_SYMBOL
1070
   379
1070
     1
1001
ACAD_DSTYLE_DIM_LINETYPE
1070
   380
1005
12
1001
ACAD_DSTYLE_DIM_EXT1_LINETYPE
1070
   381
1005
12
1001
ACAD_DSTYLE_DIM_EXT2_LINETYPE
1070
   382
1005
12
  0
ENDTAB
  0
TABLE
  2
BLOCK_RECORD
  5
1
330
0
100
AcDbSymbolTable
 70
     9
  0
BLOCK_RECORD
  5
18
102
{ACAD_XDICTIONARY
360
A3F
102
}
330
1
100
AcDbSymbolTableRecord
100
AcDbBlockTableRecord
  2
*MODEL_SPACE
340
303
  0
BLOCK_RECORD
  5
338
330
1
100
AcDbSymbolTableRecord
100
AcDbBlockTableRecord
  2
*Paper_Space
340
33B
  0
BLOCK_RECORD
  5
464
330
1
100
AcDbSymbolTableRecord
100
AcDbBlockTableRecord
  2
_None
340
0
  0
BLOCK_RECORD
  5
51F
330
1
100
AcDbSymbolTableRecord
100
AcDbBlockTableRecord
  2
CERO_POINT
340
0
310
2800000020000000200000000100080000000000000400000000000000000000000000000000000000000000000080000080000000808000800000008000800080800000C0C0C000C0DCC000F0CAA6000020400000206000002080000020A0000020C0000020E00000400000004020000040400000406000004080000040A0
310
000040C0000040E00000600000006020000060400000606000006080000060A0000060C0000060E00000800000008020000080400000806000008080000080A0000080C0000080E00000A0000000A0200000A0400000A0600000A0800000A0A00000A0C00000A0E00000C0000000C0200000C0400000C0600000C0800000C0
310
A00000C0C00000C0E00000E0000000E0200000E0400000E0600000E0800000E0A00000E0C00000E0E00040000000400020004000400040006000400080004000A0004000C0004000E00040200000402020004020400040206000402080004020A0004020C0004020E000404000004040200040404000404060004040800040
310
40A0004040C0004040E00040600000406020004060400040606000406080004060A0004060C0004060E00040800000408020004080400040806000408080004080A0004080C0004080E00040A0000040A0200040A0400040A0600040A0800040A0A00040A0C00040A0E00040C0000040C0200040C0400040C0600040C08000
310
40C0A00040C0C00040C0E00040E0000040E0200040E0400040E0600040E0800040E0A00040E0C00040E0E00080000000800020008000400080006000800080008000A0008000C0008000E00080200000802020008020400080206000802080008020A0008020C0008020E00080400000804020008040400080406000804080
310
008040A0008040C0008040E00080600000806020008060400080606000806080008060A0008060C0008060E00080800000808020008080400080806000808080008080A0008080C0008080E00080A0000080A0200080A0400080A0600080A0800080A0A00080A0C00080A0E00080C0000080C0200080C0400080C0600080C0
310
800080C0A00080C0C00080C0E00080E0000080E0200080E0400080E0600080E0800080E0A00080E0C00080E0E000C0000000C0002000C0004000C0006000C0008000C000A000C000C000C000E000C0200000C0202000C0204000C0206000C0208000C020A000C020C000C020E000C0400000C0402000C0404000C0406000C0
310
408000C040A000C040C000C040E000C0600000C0602000C0604000C0606000C0608000C060A000C060C000C060E000C0800000C0802000C0804000C0806000C0808000C080A000C080C000C080E000C0A00000C0A02000C0A04000C0A06000C0A08000C0A0A000C0A0C000C0A0E000C0C00000C0C02000C0C04000C0C06000
310
C0C08000C0C0A000F0FBFF00A4A0A000808080000000FF0000FF000000FFFF00FF000000FF00FF00FFFF0000FFFFFF00000000000000000000000000000000000000000000000000000000000000000000000000000000000000000000000000FF0000000000000000000000000000000000000000000000000000000000FF
310
FFFFFFFF000000000000000000000000000000000000000000FFFFFFFFFFFF0000FF0000FFFF00FF00000000000000000000000000000000FF00000000000000FFFFFF0000FFFFFFFF000000000000000000000000000000FF0000000000000000FF00FF0000FF00FFFF00000000000000000000000000FF00000000000000
310
0000FFFF00FF0000FF0000FFFF00000000000000000000FF000000000000000000FFFF00FF00FF0000FF0000FF000000000000000000FF0000000000000000000000FF0000FF00FF0000FF0000FF0000000000000000FF00000000000000000000FFFFFF0000FFFFFF0000FF00FFFF000000000000FF000000000000000000
310
000000FF00FF000000FFFF0000FF00FF0000000000FF00000000000000000000000000FFFF00FFFF0000FFFF0000FFFF0000000000FF000000000000000000000000FFFF00FF0000FF0000FFFF0000FF0000000000FF00000000000000000000000000FF0000FF0000FF0000FFFF0000FF00000000FF000000000000000000
310
000000FFFFFF0000FF0000FF0000FFFF00FF00000000FF00FF00000000FF0000FF00FF00FFFFFF0000FF0000FF0000FFFF00FF0000FFFFFFFFFFFFFFFFFFFFFFFFFFFFFFFFFFFFFFFFFFFFFFFFFFFFFFFFFFFF000000FF00FF00FF00FF0000FF0000FFFFFF00000000000000000000000000FF000000FF0000FF00FF00FF00
310
00FF0000FFFF000000000000000000000000FF00000000FFFF0000FF00FF00FF00FF000000FF000000000000000000000000FF00000000FF00FF0000FF00FF00FF00FF0000FF0000000000000000000000FF000000000000FF00FF0000FFFF0000FF00FF00FF0000000000000000000000FF000000000000FFFF00FF00FF00
310
FF0000FF00FFFF00000000000000000000FF0000000000000000FF0000FF00FF00FF0000FF00FF00000000000000000000FF000000000000000000FF0000FF00FF00FF0000FFFF000000000000000000FF0000000000000000000000FF0000FF00FF00FF0000FF000000000000000000FF000000000000000000000000FF00
310
00FF00FF00FF00FF00000000000000FFFF00000000000000000000000000FFFF0000FF00FF00FFFF0000000000FFFF00000000000000000000000000000000FFFFFFFFFF00FF00FF000000FFFF0000000000000000000000000000000000000000000000FFFFFFFFFFFFFF0000000000000000000000000000000000000000
310
0000000000000000FF0000000000000000000000000000000000000000000000000000000000000000000000000000000000000000000000
102
{BLKREFS
331
A5B
102
}
1001
ACAD
1000
DesignCenter Data
1002
{
1070
     1
1070
     4
1002
}
  0
BLOCK_RECORD
  5
6D0
102
{ACAD_XDICTIONARY
360
6D1
102
}
330
1
100
AcDbSymbolTableRecord
100
AcDbBlockTableRecord
  2
ISCAR_LOGO
340
0
310
2800000020000000200000000100080000000000000400000000000000000000000000000000000000000000000080000080000000808000800000008000800080800000C0C0C000C0DCC000F0CAA6000020400000206000002080000020A0000020C0000020E00000400000004020000040400000406000004080000040A0
310
000040C0000040E00000600000006020000060400000606000006080000060A0000060C0000060E00000800000008020000080400000806000008080000080A0000080C0000080E00000A0000000A0200000A0400000A0600000A0800000A0A00000A0C00000A0E00000C0000000C0200000C0400000C0600000C0800000C0
310
A00000C0C00000C0E00000E0000000E0200000E0400000E0600000E0800000E0A00000E0C00000E0E00040000000400020004000400040006000400080004000A0004000C0004000E00040200000402020004020400040206000402080004020A0004020C0004020E000404000004040200040404000404060004040800040
310
40A0004040C0004040E00040600000406020004060400040606000406080004060A0004060C0004060E00040800000408020004080400040806000408080004080A0004080C0004080E00040A0000040A0200040A0400040A0600040A0800040A0A00040A0C00040A0E00040C0000040C0200040C0400040C0600040C08000
310
40C0A00040C0C00040C0E00040E0000040E0200040E0400040E0600040E0800040E0A00040E0C00040E0E00080000000800020008000400080006000800080008000A0008000C0008000E00080200000802020008020400080206000802080008020A0008020C0008020E00080400000804020008040400080406000804080
310
008040A0008040C0008040E00080600000806020008060400080606000806080008060A0008060C0008060E00080800000808020008080400080806000808080008080A0008080C0008080E00080A0000080A0200080A0400080A0600080A0800080A0A00080A0C00080A0E00080C0000080C0200080C0400080C0600080C0
310
800080C0A00080C0C00080C0E00080E0000080E0200080E0400080E0600080E0800080E0A00080E0C00080E0E000C0000000C0002000C0004000C0006000C0008000C000A000C000C000C000E000C0200000C0202000C0204000C0206000C0208000C020A000C020C000C020E000C0400000C0402000C0404000C0406000C0
310
408000C040A000C040C000C040E000C0600000C0602000C0604000C0606000C0608000C060A000C060C000C060E000C0800000C0802000C0804000C0806000C0808000C080A000C080C000C080E000C0A00000C0A02000C0A04000C0A06000C0A08000C0A0A000C0A0C000C0A0E000C0C00000C0C02000C0C04000C0C06000
310
C0C08000C0C0A000F0FBFF00A4A0A000808080000000FF0000FF000000FFFF00FF000000FF00FF00FFFF0000FFFFFF0000000000000000000000000000000000000000000000000000000000000000000000000000000000000000000000000000000000000000000000000000000000000000000000000000000000000000
310
0000000000000000000000000000000000000000000000000000000000FC0000FC00000000000000000000000000000000000000000000000000000000FC000000FC000000000000000000000000000000000000000000000000000000FCFC0000FC000000000000000000000000000000000000000000000000000000FC00
310
000000FC0000000000000000000000000000000000000000000000000000FCFCFCFCFCFC000000000000000000000000000000000000000000000000000000000000000000000000000000000000000000000000000000000000000000FCFC00FCFCFC00FC000000000000000000000000000000000000000000000000FCFC
310
FCFCFCFCFCFC000000000000000000000000000000000000000000000000FC00FCFCFC00FCFC000000000000000000000000000000000000000000000000FC0000FCFC0000FC000000000000000000000000000000000000000000000000000000000000000000000000000000000000000000000000000000000000000000
310
000000000000000000000000000000000000000000FCFCFCFCFCFCFCFC0000000000FCFCFCFCFCFCFCFCFCFCFCFCFC000000000000FC0000FCFC000000FC000000FC000000FC0000FCFC00FCFC00FC000000000000FC0000FCFC000000FC0000FC00000000FC0000FCFC00FCFC00FC000000000000FC0000FCFCFCFCFCFCFC
310
FCFCFCFCFCFCFC0000FCFC00FCFCFCFC000000000000FC0000FCFCFCFCFCFCFCFCFCFCFCFCFCFC0000FCFC00FCFCFCFCFCFCFCFC0000FC0000FC00FC000000FC00FCFC000000FCFCFCFCFCFC0000FC00000000FC0000FCFCFCFC0000FCFCFCFC000000FCFCFCFC0000FCFC00000000FCFCFCFCFC0000000000FC0000000000
310
000000000000000000000000000000000000000000000000FCFCFC00000000000000000000000000000000000000000000000000000000FC0000FC00000000000000000000000000000000000000000000000000000000FC0000FC00000000000000000000000000000000000000000000000000000000FC00FC0000000000
310
000000000000000000000000000000000000000000000000FCFC000000000000000000000000000000000000000000000000000000000000FC00000000000000000000000000000000000000000000000000000000000000000000000000000000000000000000000000000000000000000000000000000000000000000000
310
0000000000000000000000000000000000000000000000000000000000000000000000000000000000000000000000000000000000000000
1001
AcDbDynamicBlockGUID
1000
{7F157122-0310-41DF-BAC8-CAC40B0A72D2}
1001
AcDbBlockRepETag
1070
     1
1071
       42
  0
BLOCK_RECORD
  5
A79
330
1
100
AcDbSymbolTableRecord
100
AcDbBlockTableRecord
  2
*D3
340
0
  0
BLOCK_RECORD
  5
B04
330
1
100
AcDbSymbolTableRecord
100
AcDbBlockTableRecord
  2
*D4
340
0
  0
BLOCK_RECORD
  5
B4F
330
1
100
AcDbSymbolTableRecord
100
AcDbBlockTableRecord
  2
*D5
340
0
  0
BLOCK_RECORD
  5
C1C
330
1
100
AcDbSymbolTableRecord
100
AcDbBlockTableRecord
  2
*D6
340
0
  0
BLOCK_RECORD
  5
E4B
330
1
100
AcDbSymbolTableRecord
100
AcDbBlockTableRecord
  2
*D7
340
0
  0
BLOCK_RECORD
  5
EC1
330
1
100
AcDbSymbolTableRecord
100
AcDbBlockTableRecord
  2
*D8
340
0
  0
ENDTAB
  0
ENDSEC
  0
SECTION
  2
BLOCKS
  0
BLOCK
  5
32
330
18
100
AcDbEntity
  8
0
100
AcDbBlockBegin
  2
*MODEL_SPACE
 70
     0
 10
0.0
 20
0.0
 30
0.0
  3
*MODEL_SPACE
  1

  0
ENDBLK
  5
33
330
18
100
AcDbEntity
  8
0
100
AcDbBlockEnd
  0
BLOCK
  5
339
330
338
100
AcDbEntity
 67
     1
  8
0
100
AcDbBlockBegin
  2
*Paper_Space
 70
     0
 10
0.0
 20
0.0
 30
0.0
  3
*Paper_Space
  1

  0
ENDBLK
  5
33A
330
338
100
AcDbEntity
 67
     1
  8
0
100
AcDbBlockEnd
  0
BLOCK
  5
465
330
464
100
AcDbEntity
  8
0
100
AcDbBlockBegin
  2
_None
 70
     0
 10
0.0
 20
0.0
 30
0.0
  3
_None
  1

  0
ENDBLK
  5
466
330
464
100
AcDbEntity
  8
0
100
AcDbBlockEnd
  0
BLOCK
  5
520
330
51F
100
AcDbEntity
  8
0
100
AcDbBlockBegin
  2
CERO_POINT
 70
     0
 10
0.0
 20
0.0
 30
0.0
  3
CERO_POINT
  1

  0
CIRCLE
  5
521
102
{ACAD_REACTORS
330
526
102
}
330
51F
100
AcDbEntity
  8
SK2
100
AcDbCircle
 10
0.0
 20
0.0
 30
0.0
 40
2.5
  0
LINE
  5
522
330
51F
100
AcDbEntity
  8
SK2
100
AcDbLine
 10
0.0900000000037835
 20
0.0
 30
0.0
 11
-0.0899999999965076
 21
0.0
 31
0.0
  0
LINE
  5
523
330
51F
100
AcDbEntity
  8
SK2
100
AcDbLine
 10
0.0
 20
0.0899999999999182
 30
0.0
 11
0.0
 21
-0.0899999999999182
 31
0.0
  0
LINE
  5
524
102
{ACAD_REACTORS
330
526
102
}
330
51F
100
AcDbEntity
  8
SK2
100
AcDbLine
 10
0.0
 20
-2.5
 30
0.0
 11
0.0
 21
2.5
 31
0.0
  0
LINE
  5
525
102
{ACAD_REACTORS
330
526
102
}
330
51F
100
AcDbEntity
  8
SK2
100
AcDbLine
 10
2.5
 20
0.0
 30
0.0
 11
-2.5
 21
0.0
 31
0.0
  0
HATCH
  5
526
330
51F
100
AcDbEntity
  8
SK2
100
AcDbHatch
 10
0.0
 20
0.0
 30
0.0
210
0.0
220
0.0
230
1.0
  2
ANSI31
 70
     0
 71
     1
 91
        2
 92
        7
 72
     1
 73
     1
 93
        3
 10
0.0
 20
-2.5
 42
0.4142135623730951
 10
2.5
 20
0.0
 42
0.0
 10
0.0
 20
0.0
 42
0.0
 97
        3
330
521
330
525
330
524
 92
        7
 72
     1
 73
     1
 93
        3
 10
0.0
 20
0.0
 42
0.0
 10
0.0
 20
2.5
 42
0.4142135623730951
 10
-2.5
 20
0.0
 42
0.0
 97
        3
330
525
330
524
330
521
 75
     0
 76
     1
 52
180.0
 41
0.1
 77
     0
 78
     1
 53
225.0
 43
5.170976743218488
 44
0.0
 45
0.2245064030267288
 46
-0.2245064030267289
 79
     0
 47
0.0243816376539857
 98
        2
 10
0.8789156907296272
 20
-1.044463114528752
 10
-0.8545028512526187
 20
0.7841600866017872
  0
ENDBLK
  5
527
330
51F
100
AcDbEntity
  8
0
100
AcDbBlockEnd
  0
BLOCK
  5
6D3
330
6D0
100
AcDbEntity
  8
0
100
AcDbBlockBegin
  2
ISCAR_LOGO
 70
     2
 10
0.0
 20
0.0
 30
0.0
  3
ISCAR_LOGO
  1

  0
LINE
  5
6D4
330
6D0
100
AcDbEntity
  8
SK6
100
AcDbLine
 10
0.0
 20
6.250000000000794
 30
0.0
 11
1.750000000007275
 21
4.499999999999204
 31
0.0
  0
LINE
  5
6D5
330
6D0
100
AcDbEntity
  8
SK6
100
AcDbLine
 10
1.750000000007275
 20
4.499999999999204
 30
0.0
 11
1.750000000007275
 21
6.750000000000341
 31
0.0
  0
LINE
  5
6D6
330
6D0
100
AcDbEntity
  8
SK6
100
AcDbLine
 10
4.000000000007275
 20
4.0
 30
0.0
 11
6.250000000007275
 21
4.0
 31
0.0
  0
LINE
  5
6D7
330
6D0
100
AcDbEntity
  8
SK6
100
AcDbLine
 10
8.500000000003637
 20
4.0
 30
0.0
 11
10.74999999999636
 21
4.0
 31
0.0
  0
LINE
  5
6D8
330
6D0
100
AcDbEntity
  8
SK6
100
AcDbLine
 10
17.49999999997453
 20
4.0
 30
0.0
 11
19.74999999996362
 21
4.0
 31
0.0
  0
LINE
  5
6D9
330
6D0
100
AcDbEntity
  8
SK6
100
AcDbLine
 10
0.0
 20
4.0
 30
0.0
 11
1.750000000007275
 21
4.0
 31
0.0
  0
LINE
  5
6DA
330
6D0
100
AcDbEntity
  8
SK6
100
AcDbLine
 10
15.75000000000727
 20
1.750000000000681
 30
0.0
 11
17.49999999997453
 21
1.750000000000681
 31
0.0
  0
LINE
  5
6DB
330
6D0
100
AcDbEntity
  8
SK6
100
AcDbLine
 10
15.75000000000727
 20
2.250000000000113
 30
0.0
 11
19.74999999996362
 21
2.250000000000113
 31
0.0
  0
LINE
  5
6DC
330
6D0
100
AcDbEntity
  8
SK6
100
AcDbLine
 10
15.75000000000727
 20
0.0
 30
0.0
 11
17.49999999997453
 21
0.0
 31
0.0
  0
LINE
  5
6DD
330
6D0
100
AcDbEntity
  8
SK6
100
AcDbLine
 10
15.24999999997453
 20
0.0
 30
0.0
 11
15.24999999997453
 21
2.250000000000113
 31
0.0
  0
LINE
  5
6DE
330
6D0
100
AcDbEntity
  8
SK6
100
AcDbLine
 10
11.25000000000727
 20
0.0
 30
0.0
 11
11.25000000000727
 21
2.250000000000113
 31
0.0
  0
LINE
  5
6DF
330
6D0
100
AcDbEntity
  8
SK6
100
AcDbLine
 10
2.249999999996358
 20
1.750000000000681
 30
0.0
 11
6.250000000007275
 21
1.750000000000681
 31
0.0
  0
ARC
  5
6E0
330
6D0
100
AcDbEntity
  8
SK6
100
AcDbCircle
 10
4.499999999974534
 20
1.750000000000681
 30
0.0
 40
1.749999999999998
100
AcDbArc
 50
270.0
 51
0.0
  0
LINE
  5
6E1
330
6D0
100
AcDbEntity
  8
SK6
100
AcDbLine
 10
2.249999999996358
 20
0.0
 30
0.0
 11
4.499999999974534
 21
0.0
 31
0.0
  0
LINE
  5
6E2
330
6D0
100
AcDbEntity
  8
SK6
100
AcDbLine
 10
2.249999999996358
 20
0.0
 30
0.0
 11
2.249999999996358
 21
1.750000000000681
 31
0.0
  0
LINE
  5
6E3
330
6D0
100
AcDbEntity
  8
SK6
100
AcDbLine
 10
8.500000000003637
 20
0.0
 30
0.0
 11
10.74999999999636
 21
0.0
 31
0.0
  0
LINE
  5
6E4
330
6D0
100
AcDbEntity
  8
SK6
100
AcDbLine
 10
6.750000000003637
 20
1.750000000000681
 30
0.0
 11
10.74999999999636
 21
1.750000000000681
 31
0.0
  0
ARC
  5
6E5
330
6D0
100
AcDbEntity
  8
SK6
100
AcDbCircle
 10
8.500000000003637
 20
1.750000000000681
 30
0.0
 40
1.749999999999998
100
AcDbArc
 50
180.0
 51
270.0
  0
LINE
  5
6E6
330
6D0
100
AcDbEntity
  8
SK6
100
AcDbLine
 10
10.74999999999636
 20
0.0
 30
0.0
 11
10.74999999999636
 21
1.750000000000681
 31
0.0
  0
LINE
  5
6E7
330
6D0
100
AcDbEntity
  8
SK6
100
AcDbLine
 10
15.75000000000727
 20
0.0
 30
0.0
 11
15.75000000000727
 21
1.750000000000681
 31
0.0
  0
LINE
  5
6E8
330
6D0
100
AcDbEntity
  8
SK6
100
AcDbLine
 10
11.25000000000727
 20
0.0
 30
0.0
 11
12.99999999999272
 21
0.0
 31
0.0
  0
LINE
  5
6E9
330
6D0
100
AcDbEntity
  8
SK6
100
AcDbLine
 10
13.4999999999527
 20
0.0
 30
0.0
 11
15.24999999997453
 21
0.0
 31
0.0
  0
LINE
  5
6EA
330
6D0
100
AcDbEntity
  8
SK6
100
AcDbLine
 10
2.249999999996358
 20
2.250000000000113
 30
0.0
 11
6.250000000007275
 21
2.250000000000113
 31
0.0
  0
LINE
  5
6EB
330
6D0
100
AcDbEntity
  8
SK6
100
AcDbLine
 10
6.750000000003637
 20
2.250000000000113
 30
0.0
 11
10.74999999999636
 21
2.250000000000113
 31
0.0
  0
LINE
  5
6EC
330
6D0
100
AcDbEntity
  8
SK6
100
AcDbLine
 10
17.49999999997453
 20
0.0
 30
0.0
 11
17.49999999997453
 21
1.750000000000681
 31
0.0
  0
LINE
  5
6ED
330
6D0
100
AcDbEntity
  8
SK6
100
AcDbLine
 10
0.0
 20
0.0
 30
0.0
 11
1.750000000007275
 21
0.0
 31
0.0
  0
ARC
  5
6EE
330
6D0
100
AcDbEntity
  8
SK6
100
AcDbCircle
 10
17.49999999997453
 20
2.250000000000113
 30
0.0
 40
1.749999999999998
100
AcDbArc
 50
90.0
 51
180.0
  0
LINE
  5
6EF
330
6D0
100
AcDbEntity
  8
SK6
100
AcDbLine
 10
0.0
 20
0.0
 30
0.0
 11
0.0
 21
4.0
 31
0.0
  0
LINE
  5
6F0
330
6D0
100
AcDbEntity
  8
SK6
100
AcDbLine
 10
1.750000000007275
 20
0.0
 30
0.0
 11
1.750000000007275
 21
4.0
 31
0.0
  0
LINE
  5
6F1
330
6D0
100
AcDbEntity
  8
SK6
100
AcDbLine
 10
12.99999999999272
 20
0.0
 30
0.0
 11
12.99999999999272
 21
4.0
 31
0.0
  0
LINE
  5
6F2
330
6D0
100
AcDbEntity
  8
SK6
100
AcDbLine
 10
13.4999999999527
 20
0.0
 30
0.0
 11
13.4999999999527
 21
4.0
 31
0.0
  0
ARC
  5
6F3
330
6D0
100
AcDbEntity
  8
SK6
100
AcDbCircle
 10
4.000000000007275
 20
2.250000000000113
 30
0.0
 40
1.749999999999998
100
AcDbArc
 50
90.0
 51
180.0
  0
ARC
  5
6F4
330
6D0
100
AcDbEntity
  8
SK6
100
AcDbCircle
 10
12.99999999999272
 20
2.250000000000113
 30
0.0
 40
1.749999999999998
100
AcDbArc
 50
90.0
 51
180.0
  0
LINE
  5
6F5
330
6D0
100
AcDbEntity
  8
SK6
100
AcDbLine
 10
6.250000000007275
 20
2.250000000000113
 30
0.0
 11
6.250000000007275
 21
4.0
 31
0.0
  0
ARC
  5
6F6
330
6D0
100
AcDbEntity
  8
SK6
100
AcDbCircle
 10
8.500000000003637
 20
2.250000000000113
 30
0.0
 40
1.749999999999998
100
AcDbArc
 50
90.0
 51
180.0
  0
LINE
  5
6F7
330
6D0
100
AcDbEntity
  8
SK6
100
AcDbLine
 10
10.74999999999636
 20
2.250000000000113
 30
0.0
 11
10.74999999999636
 21
4.0
 31
0.0
  0
ARC
  5
6F8
330
6D0
100
AcDbEntity
  8
SK6
100
AcDbCircle
 10
13.4999999999527
 20
2.250000000000113
 30
0.0
 40
1.749999999999998
100
AcDbArc
 50
0.0
 51
90.0
  0
LINE
  5
6F9
330
6D0
100
AcDbEntity
  8
SK6
100
AcDbLine
 10
19.74999999996362
 20
2.250000000000113
 30
0.0
 11
19.74999999996362
 21
4.0
 31
0.0
  0
LINE
  5
6FA
330
6D0
100
AcDbEntity
  8
SK6
100
AcDbLine
 10
0.0
 20
8.499999999999545
 30
0.0
 11
1.750000000007275
 21
6.750000000000341
 31
0.0
  0
LINE
  5
6FB
330
6D0
100
AcDbEntity
  8
SK6
100
AcDbLine
 10
0.0
 20
6.250000000000794
 30
0.0
 11
0.0
 21
8.499999999999545
 31
0.0
  0
ATTDEF
  5
6FC
330
6D0
100
AcDbEntity
  8
SK6
100
AcDbText
 10
3.07280028710756
 20
-6.38769206708217
 30
0.0
 40
3.5
  1
----
 72
     1
 11
9.138155171155347
 21
-6.38769206708217
 31
0.0
100
AcDbAttributeDefinition
  3
NAME OF TOOL?
  2
MM
 70
     0
  0
ATTDEF
  5
6FD
330
6D0
100
AcDbEntity
  8
SK6
100
AcDbText
 10
9.138155171155347
 20
-12.42271564516345
 30
0.0
 40
3.5
  1

 72
     1
 11
9.138155171155347
 21
-12.42271564516345
 31
0.0
100
AcDbAttributeDefinition
  3

  2
F7
 70
     0
  0
ENDBLK
  5
6FE
330
6D0
100
AcDbEntity
  8
0
100
AcDbBlockEnd
  0
BLOCK
  5
A7A
330
A79
100
AcDbEntity
  8
0
100
AcDbBlockBegin
  2
*D3
 70
     1
 10
0.0
 20
0.0
 30
0.0
  3
*D3
  1

  0
LINE
  5
F3A
330
A79
100
AcDbEntity
  8
2
 62
     0
370
    -2
100
AcDbLine
 10
8.457979406281031
 20
6.753506000097901
 30
0.0
 11
26.97787090856795
 21
6.753506000097892
 31
0.0
  0
LINE
  5
F3B
330
A79
100
AcDbEntity
  8
2
 62
     0
370
    -2
100
AcDbLine
 10
25.72787090856795
 20
4.253506000097895
 30
0.0
 11
25.72787090856795
 21
-6.746493999902048
 31
0.0
  0
LINE
  5
F3C
330
A79
100
AcDbEntity
  8
2
 62
     0
370
    -2
100
AcDbLine
 10
25.72787090856795
 20
-6.746493999902048
 30
0.0
 11
25.72787090856794
 21
-28.24983201817331
 31
0.0
  0
SOLID
  5
F3D
330
A79
100
AcDbEntity
  8
2
 62
     0
100
AcDbTrace
 10
25.31120424190128
 20
4.253506000097895
 30
0.0
 11
26.14453757523462
 21
4.253506000097893
 31
0.0
 12
25.72787090856795
 22
6.753506000097892
 32
0.0
 13
25.72787090856795
 23
6.753506000097892
 33
0.0
  0
MTEXT
  5
F3E
330
A79
100
AcDbEntity
  8
2
 62
     0
100
AcDbMText
 10
23.23972965768952
 20
-18.74816300903767
 30
0.0
 40
3.5
 41
0.0
 71
     5
 72
     1
  1
%%c13.50
 11
0.0000000000000001
 21
1.0
 31
0.0
 73
     1
 44
1.0
1001
ACAD
1000
MTEXTBEGIN
1070
    73
1070
     1
1070
    44
1040
1.0
1070
    74
1070
     0
1000
MTEXTEND
  0
POINT
  5
F3F
330
A79
100
AcDbEntity
  8
DEFPOINTS
 62
     0
100
AcDbPoint
 10
8.457979406281031
 20
6.753506000097901
 30
0.0
  0
POINT
  5
F40
330
A79
100
AcDbEntity
  8
DEFPOINTS
 62
     0
100
AcDbPoint
 10
8.457979406281031
 20
-6.746493999902043
 30
0.0
  0
POINT
  5
F41
330
A79
100
AcDbEntity
  8
DEFPOINTS
 62
     0
100
AcDbPoint
 10
25.72787090856795
 20
-6.746493999902048
 30
0.0
  0
ENDBLK
  5
A7B
330
A79
100
AcDbEntity
  8
0
100
AcDbBlockEnd
  0
BLOCK
  5
B05
330
B04
100
AcDbEntity
  8
0
100
AcDbBlockBegin
  2
*D4
 70
     1
 10
0.0
 20
0.0
 30
0.0
  3
*D4
  1

  0
LINE
  5
D3F
330
B04
100
AcDbEntity
  8
SK2
 62
     0
370
    -2
100
AcDbLine
 10
-2.999999999999998
 20
3.935338000000058
 30
0.0
 11
-11.7298031186439
 21
3.93533800000006
 31
0.0
  0
LINE
  5
D40
330
B04
100
AcDbEntity
  8
SK2
 62
     0
370
    -2
100
AcDbLine
 10
-2.999999999999998
 20
-3.935337999999943
 30
0.0
 11
-11.7298031186439
 21
-3.935337999999942
 31
0.0
  0
LINE
  5
D41
330
B04
100
AcDbEntity
  8
SK2
 62
     0
370
    -2
100
AcDbLine
 10
-10.4798031186439
 20
1.43533800000006
 30
0.0
 11
-10.4798031186439
 21
-1.435337999999939
 31
0.0
  0
SOLID
  5
D42
330
B04
100
AcDbEntity
  8
SK2
 62
     0
100
AcDbTrace
 10
-10.89646978531056
 20
1.43533800000006
 30
0.0
 11
-10.06313645197723
 21
1.43533800000006
 31
0.0
 12
-10.4798031186439
 22
3.93533800000006
 32
0.0
 13
-10.4798031186439
 23
3.93533800000006
 33
0.0
  0
SOLID
  5
D43
330
B04
100
AcDbEntity
  8
SK2
 62
     0
100
AcDbTrace
 10
-10.89646978531056
 20
-1.435337999999939
 30
0.0
 11
-10.06313645197723
 21
-1.435337999999939
 31
0.0
 12
-10.4798031186439
 22
-3.935337999999942
 32
0.0
 13
-10.4798031186439
 23
-3.935337999999942
 33
0.0
  0
MTEXT
  5
D44
330
B04
100
AcDbEntity
  8
SK2
 62
     0
100
AcDbMText
 10
-12.91629292890391
 20
0.0000000000000578
 30
0.0
 40
3.5
 41
0.0
 71
     5
 72
     1
  1
BN6
 11
0.0000000000000001
 21
1.0
 31
0.0
 73
     1
 44
1.0
1001
ACAD
1000
MTEXTBEGIN
1070
    73
1070
     1
1070
    44
1040
1.0
1070
    74
1070
     0
1000
MTEXTEND
  0
POINT
  5
D45
330
B04
100
AcDbEntity
  8
DEFPOINTS
 62
     0
100
AcDbPoint
 10
-2.999999999999998
 20
3.935338000000058
 30
0.0
  0
POINT
  5
D46
330
B04
100
AcDbEntity
  8
DEFPOINTS
 62
     0
100
AcDbPoint
 10
-2.999999999999998
 20
-3.935337999999943
 30
0.0
  0
POINT
  5
D47
330
B04
100
AcDbEntity
  8
DEFPOINTS
 62
     0
100
AcDbPoint
 10
-10.4798031186439
 20
-3.935337999999942
 30
0.0
  0
ENDBLK
  5
B06
330
B04
100
AcDbEntity
  8
0
100
AcDbBlockEnd
  0
BLOCK
  5
B50
330
B4F
100
AcDbEntity
  8
0
100
AcDbBlockBegin
  2
*D5
 70
     1
 10
0.0
 20
0.0
 30
0.0
  3
*D5
  1

  0
LINE
  5
D67
330
B4F
100
AcDbEntity
  8
2
 62
     0
370
    -2
100
AcDbLine
 10
9.529886423338883
 20
6.236456962476609
 30
0.0
 11
9.529886423338883
 21
25.31545417683457
 31
0.0
  0
LINE
  5
D68
330
B4F
100
AcDbEntity
  8
2
 62
     0
370
    -2
100
AcDbLine
 10
0.3298864233388841
 20
6.363832584480632
 30
0.0
 11
0.3298864233388852
 21
25.31545417683457
 31
0.0
  0
LINE
  5
D69
330
B4F
100
AcDbEntity
  8
2
 62
     0
370
    -2
100
AcDbLine
 10
2.829886423338883
 20
24.06545417683457
 30
0.0
 11
7.029886423338885
 21
24.06545417683457
 31
0.0
  0
LINE
  5
D6A
330
B4F
100
AcDbEntity
  8
2
 62
     0
370
    -2
100
AcDbLine
 10
9.529886423338883
 20
24.06545417683457
 30
0.0
 11
24.82521319775948
 21
24.06545417683457
 31
0.0
  0
SOLID
  5
D6B
330
B4F
100
AcDbEntity
  8
2
 62
     0
100
AcDbTrace
 10
2.829886423338883
 20
24.48212084350124
 30
0.0
 11
2.829886423338883
 21
23.64878751016791
 31
0.0
 12
0.3298864233388852
 22
24.06545417683457
 32
0.0
 13
0.3298864233388852
 23
24.06545417683457
 33
0.0
  0
SOLID
  5
D6C
330
B4F
100
AcDbEntity
  8
2
 62
     0
100
AcDbTrace
 10
7.029886423338885
 20
24.48212084350124
 30
0.0
 11
7.029886423338885
 21
23.64878751016791
 31
0.0
 12
9.529886423338883
 22
24.06545417683457
 32
0.0
 13
9.529886423338883
 23
24.06545417683457
 33
0.0
  0
MTEXT
  5
D6D
330
B4F
100
AcDbEntity
  8
2
 62
     0
100
AcDbMText
 10
18.42754981054936
 20
26.50194398709459
 30
0.0
 40
3.5
 41
0.0
 71
     5
 72
     1
  1
9.20
 73
     1
 44
1.0
1001
ACAD
1000
MTEXTBEGIN
1070
    73
1070
     1
1070
    44
1040
1.0
1070
    74
1070
     0
1000
MTEXTEND
  0
POINT
  5
D6E
330
B4F
100
AcDbEntity
  8
DEFPOINTS
 62
     0
100
AcDbPoint
 10
9.529886423338883
 20
6.236456962476609
 30
0.0
  0
POINT
  5
D6F
330
B4F
100
AcDbEntity
  8
DEFPOINTS
 62
     0
100
AcDbPoint
 10
0.3298864233388841
 20
6.363832584480632
 30
0.0
  0
POINT
  5
D70
330
B4F
100
AcDbEntity
  8
DEFPOINTS
 62
     0
100
AcDbPoint
 10
0.3298864233388852
 20
24.06545417683457
 30
0.0
  0
ENDBLK
  5
B51
330
B4F
100
AcDbEntity
  8
0
100
AcDbBlockEnd
  0
BLOCK
  5
C1D
330
C1C
100
AcDbEntity
  8
0
100
AcDbBlockBegin
  2
*D6
 70
     1
 10
0.0
 20
0.0
 30
0.0
  3
*D6
  1

  0
LINE
  5
D52
330
C1C
100
AcDbEntity
  8
2
 62
     0
370
    -2
100
AcDbLine
 10
9.529886423338883
 20
6.236456962476609
 30
0.0
 11
9.529886423338883
 21
16.08405652544439
 31
0.0
  0
LINE
  5
D53
330
C1C
100
AcDbEntity
  8
2
 62
     0
370
    -2
100
AcDbLine
 10
8.457979406281031
 20
6.753506000097901
 30
0.0
 11
8.457979406281031
 21
16.08405652544439
 31
0.0
  0
LINE
  5
D54
330
C1C
100
AcDbEntity
  8
2
 62
     0
370
    -2
100
AcDbLine
 10
5.957979406281032
 20
14.83405652544439
 30
0.0
 11
3.457979406281033
 21
14.83405652544439
 31
0.0
  0
LINE
  5
D55
330
C1C
100
AcDbEntity
  8
2
 62
     0
370
    -2
100
AcDbLine
 10
12.02988642333888
 20
14.83405652544439
 30
0.0
 11
27.00300659199665
 21
14.83405652544439
 31
0.0
  0
SOLID
  5
D56
330
C1C
100
AcDbEntity
  8
2
 62
     0
100
AcDbTrace
 10
5.957979406281032
 20
15.25072319211106
 30
0.0
 11
5.957979406281032
 21
14.41738985877773
 31
0.0
 12
8.457979406281031
 22
14.83405652544439
 32
0.0
 13
8.457979406281031
 23
14.83405652544439
 33
0.0
  0
SOLID
  5
D57
330
C1C
100
AcDbEntity
  8
2
 62
     0
100
AcDbTrace
 10
12.02988642333888
 20
15.25072319211106
 30
0.0
 11
12.02988642333888
 21
14.41738985877773
 31
0.0
 12
9.529886423338883
 22
14.83405652544439
 32
0.0
 13
9.529886423338883
 23
14.83405652544439
 33
0.0
  0
MTEXT
  5
D58
330
C1C
100
AcDbEntity
  8
2
 62
     0
100
AcDbMText
 10
20.76644650766777
 20
17.27054633570441
 30
0.0
 40
3.5
 41
0.0
 71
     5
 72
     1
  1
1.07
 73
     1
 44
1.0
1001
ACAD
1000
MTEXTBEGIN
1070
    73
1070
     1
1070
    44
1040
1.0
1070
    74
1070
     0
1000
MTEXTEND
  0
POINT
  5
D59
330
C1C
100
AcDbEntity
  8
DEFPOINTS
 62
     0
100
AcDbPoint
 10
9.529886423338883
 20
6.236456962476609
 30
0.0
  0
POINT
  5
D5A
330
C1C
100
AcDbEntity
  8
DEFPOINTS
 62
     0
100
AcDbPoint
 10
8.457979406281031
 20
6.753506000097901
 30
0.0
  0
POINT
  5
D5B
330
C1C
100
AcDbEntity
  8
DEFPOINTS
 62
     0
100
AcDbPoint
 10
8.457979406281031
 20
14.83405652544439
 30
0.0
  0
ENDBLK
  5
C1E
330
C1C
100
AcDbEntity
  8
0
100
AcDbBlockEnd
  0
BLOCK
  5
E4C
330
E4B
100
AcDbEntity
  8
0
100
AcDbBlockBegin
  2
*D7
 70
     1
 10
0.0
 20
0.0
 30
0.0
  3
*D7
  1

  0
LINE
  5
EB2
330
E4B
100
AcDbEntity
  8
SK2
 62
     0
370
    -2
100
AcDbLine
 10
9.529886423338883
 20
6.237761580930352
 30
0.0
 11
-5.306939983922164
 21
13.15628735735254
 31
0.0
  0
LINE
  5
EB3
330
E4B
100
AcDbEntity
  8
SK2
 62
     0
370
    -2
100
AcDbLine
 10
9.529886423338876
 20
5.603157460101816
 30
0.0
 11
-6.981428568391478
 21
5.60315746010182
 31
0.0
  0
ARC
  5
EB4
330
E4B
100
AcDbEntity
  8
SK2
 62
     0
370
    -2
100
AcDbCircle
 10
10.89079935223955
 20
5.603157460101816
 30
0.0
 40
16.62222792063103
100
AcDbArc
 50
163.6254863159546
 51
171.3745136840452
  0
SOLID
  5
EB5
330
E4B
100
AcDbEntity
  8
SK2
 62
     0
100
AcDbTrace
 10
-5.44702330066238
 20
10.43640246290161
 30
0.0
 11
-4.667421113949605
 21
10.14201347717507
 31
0.0
 12
-4.174055250126357
 22
12.62801453017666
 32
0.0
 13
-4.174055250126357
 23
12.62801453017666
 33
0.0
  0
SOLID
  5
EB6
330
E4B
100
AcDbEntity
  8
SK2
 62
     0
100
AcDbTrace
 10
-5.127940448927462
 20
8.064744996789656
 30
0.0
 11
-5.958914142959412
 21
8.127412087605669
 31
0.0
 12
-5.73142856839148
 22
5.603157460101821
 32
0.0
 13
-5.73142856839148
 23
5.603157460101821
 33
0.0
  0
MTEXT
  5
EB7
102
{ACAD_XDICTIONARY
360
FFE
102
}
330
E4B
100
AcDbEntity
  8
SK2
 62
     0
100
AcDbMText
 10
-6.623844223408491
 20
13.11794168613195
 30
0.0
 40
3.5
 41
0.0
 71
     5
 72
     1
  1
25\U+00B0
 11
0.3942964228831569
 21
0.918983313723131
 31
0.0
 73
     1
 44
1.0
1001
ACAD
1000
MTEXTBEGIN
1070
    73
1070
     1
1070
    44
1040
1.0
1070
    74
1070
     0
1000
MTEXTEND
  0
POINT
  5
EB8
330
E4B
100
AcDbEntity
  8
DEFPOINTS
 62
     0
100
AcDbPoint
 10
-5.55592507841554
 20
8.012247858467718
 30
0.0
  0
POINT
  5
EB9
330
E4B
100
AcDbEntity
  8
DEFPOINTS
 62
     0
100
AcDbPoint
 10
10.89079935223955
 20
5.603157460101816
 30
0.0
  0
POINT
  5
EBA
330
E4B
100
AcDbEntity
  8
DEFPOINTS
 62
     0
100
AcDbPoint
 10
9.529886423338883
 20
6.237761580930352
 30
0.0
  0
POINT
  5
EBB
330
E4B
100
AcDbEntity
  8
DEFPOINTS
 62
     0
100
AcDbPoint
 10
10.89079935223955
 20
5.603157460101816
 30
0.0
  0
POINT
  5
EBC
330
E4B
100
AcDbEntity
  8
DEFPOINTS
 62
     0
100
AcDbPoint
 10
9.529886423338876
 20
5.603157460101816
 30
0.0
  0
ENDBLK
  5
E4D
330
E4B
100
AcDbEntity
  8
0
100
AcDbBlockEnd
  0
BLOCK
  5
EC2
330
EC1
100
AcDbEntity
  8
0
100
AcDbBlockBegin
  2
*D8
 70
     1
 10
0.0
 20
0.0
 30
0.0
  3
*D8
  1

  0
LINE
  5
F4D
330
EC1
100
AcDbEntity
  8
2
 62
     0
370
    -2
100
AcDbLine
 10
5.201408712441986
 20
0.0000000000000568
 30
0.0
 11
19.11907725311955
 21
0.0000000000000577
 31
0.0
  0
LINE
  5
F4E
330
EC1
100
AcDbEntity
  8
2
 62
     0
370
    -2
100
AcDbLine
 10
5.221491909464619
 20
0.8632023081474413
 30
0.0
 11
18.13792358322414
 21
5.564398970329116
 31
0.0
  0
ARC
  5
F4F
330
EC1
100
AcDbEntity
  8
2
 62
     0
370
    -2
100
AcDbCircle
 10
2.849863059408575
 20
0.0000000000000568
 30
0.0
 40
15.01921419371098
100
AcDbArc
 50
9.548124621674617
 51
10.4518753783255
  0
SOLID
  5
F50
330
EC1
100
AcDbEntity
  8
2
 62
     0
100
AcDbTrace
 10
18.07623154132794
 20
2.526004396668438
 30
0.0
 11
17.24578934304585
 21
2.456648793024214
 31
0.0
 12
17.86907725311956
 22
0.0000000000000577
 32
0.0
 13
17.86907725311956
 23
0.0000000000000577
 33
0.0
  0
SOLID
  5
F51
330
EC1
100
AcDbEntity
  8
2
 62
     0
100
AcDbTrace
 10
17.21783212981138
 20
2.615202028168048
 30
0.0
 11
18.02191354902512
 21
2.834057038893551
 31
0.0
 12
16.96330780724175
 22
5.136873791172027
 32
0.0
 13
16.96330780724175
 23
5.136873791172027
 33
0.0
  0
MTEXT
  5
F52
102
{ACAD_XDICTIONARY
360
1000
102
}
330
EC1
100
AcDbEntity
  8
2
 62
     0
100
AcDbMText
 10
20.06074011599411
 20
2.9132993696747
 30
0.0
 40
3.5
 41
0.0
 71
     5
 72
     1
  1
20\U+00B0
 11
0.1668966985812715
 21
-0.9859743870926223
 31
0.0
 73
     1
 44
1.0
1001
ACAD
1000
MTEXTBEGIN
1070
    73
1070
     1
1070
    44
1040
1.0
1070
    74
1070
     0
1000
MTEXTEND
  0
POINT
  5
F53
330
EC1
100
AcDbEntity
  8
DEFPOINTS
 62
     0
100
AcDbPoint
 10
17.46423239073873
 20
3.463669159149949
 30
0.0
  0
POINT
  5
F54
330
EC1
100
AcDbEntity
  8
DEFPOINTS
 62
     0
100
AcDbPoint
 10
2.849863059408575
 20
0.0000000000000568
 30
0.0
  0
POINT
  5
F55
330
EC1
100
AcDbEntity
  8
DEFPOINTS
 62
     0
100
AcDbPoint
 10
5.221491909464619
 20
0.8632023081474413
 30
0.0
  0
POINT
  5
F56
330
EC1
100
AcDbEntity
  8
DEFPOINTS
 62
     0
100
AcDbPoint
 10
2.849863059408575
 20
0.0000000000000568
 30
0.0
  0
POINT
  5
F57
330
EC1
100
AcDbEntity
  8
DEFPOINTS
 62
     0
100
AcDbPoint
 10
5.201408712441986
 20
0.0000000000000568
 30
0.0
  0
ENDBLK
  5
EC3
330
EC1
100
AcDbEntity
  8
0
100
AcDbBlockEnd
  0
ENDSEC
  0
SECTION
  2
ENTITIES
  0
LINE
  5
947
330
18
100
AcDbEntity
  8
4
100
AcDbLine
 10
-0.000000000003638
 20
0.0
 30
0.0
 11
19.15045677469456
 21
0.0000000000000568
 31
0.0
  0
LINE
  5
955
330
18
100
AcDbEntity
  8
1
 48
0.001894
100
AcDbLine
 10
9.529999999999999
 20
1.64094200000005
 30
0.0
 11
9.529999999999999
 21
1.716721000000063
 31
0.0
  0
LINE
  5
956
330
18
100
AcDbEntity
  8
1
 48
0.004668
100
AcDbLine
 10
9.529999999999999
 20
1.454226000000061
 30
0.0
 11
9.529999999999999
 21
1.64094200000005
 31
0.0
  0
LINE
  5
957
330
18
100
AcDbEntity
  8
1
 48
0.000941
100
AcDbLine
 10
9.529999999999999
 20
1.454226000000061
 30
0.0
 11
9.529999999999999
 21
1.416592000000034
 31
0.0
  0
LINE
  5
958
330
18
100
AcDbEntity
  8
1
 48
0.002317
100
AcDbLine
 10
9.529999999999999
 20
1.716721000000063
 30
0.0
 11
9.529999999999999
 21
1.80941400000006
 31
0.0
  0
LINE
  5
959
330
18
100
AcDbEntity
  8
SK1
 48
0.098383
100
AcDbLine
 10
-2.999999999999998
 20
-3.935337999999943
 30
0.0
 11
-2.999999999999998
 21
0.0000000000000568
 31
0.0
  0
LINE
  5
95A
330
18
100
AcDbEntity
  8
SK1
 48
0.035821
100
AcDbLine
 10
-2.999999999999998
 20
0.0000000000000568
 30
0.0
 11
-2.999999999999998
 21
1.43285000000003
 31
0.0
  0
LINE
  5
95B
330
18
100
AcDbEntity
  8
SK1
 48
0.062562
100
AcDbLine
 10
-2.999999999999998
 20
1.43285000000003
 30
0.0
 11
-2.999999999999998
 21
3.935338000000058
 31
0.0
  0
LINE
  5
95C
330
18
100
AcDbEntity
  8
1
 48
0.00717
100
AcDbLine
 10
9.529999999999999
 20
2.176507000000071
 30
0.0
 11
9.529999999999999
 21
2.463295000000073
 31
0.0
  0
LINE
  5
95D
330
18
100
AcDbEntity
  8
1
 48
0.001543
100
AcDbLine
 10
9.529999999999999
 20
2.176507000000071
 30
0.0
 11
9.529999999999999
 21
2.114776000000063
 31
0.0
  0
LINE
  5
95E
330
18
100
AcDbEntity
  8
1
 48
0.007215
100
AcDbLine
 10
9.529999999999999
 20
2.586083000000029
 30
0.0
 11
9.529999999999999
 21
2.297466000000042
 31
0.0
  0
LINE
  5
95F
330
18
100
AcDbEntity
  8
1
 48
0.005144
100
AcDbLine
 10
9.529999999999999
 20
2.463295000000073
 30
0.0
 11
9.529999999999999
 21
2.669072000000085
 31
0.0
  0
LINE
  5
960
330
18
100
AcDbEntity
  8
1
 48
0.002431
100
AcDbLine
 10
9.529999999999999
 20
2.683318000000042
 30
0.0
 11
9.529999999999999
 21
2.586083000000029
 31
0.0
  0
LINE
  5
961
330
18
100
AcDbEntity
  8
1
 48
0.005398
100
AcDbLine
 10
8.600000000000001
 20
0.8914700000000832
 30
0.0
 11
8.600000000000001
 21
1.107385000000078
 31
0.0
  0
LINE
  5
962
330
18
100
AcDbEntity
  8
1
 48
0.01425
100
AcDbLine
 10
8.030000000000001
 20
0.8914700000000832
 30
0.0
 11
8.600000000000001
 21
0.8914700000000832
 31
0.0
  0
ARC
  5
963
330
18
100
AcDbEntity
  8
1
100
AcDbCircle
 10
8.032813
 20
0.3892860000000837
 30
0.0
 40
0.5025460000000001
100
AcDbArc
 50
90.32096799999999
 51
180.1895330000005
  0
ARC
  5
964
330
18
100
AcDbEntity
  8
1
100
AcDbCircle
 10
8.026853000000002
 20
0.6097460000000297
 30
0.0
 40
0.497173
100
AcDbArc
 50
89.63760500000004
 51
179.7667270000001
  0
LINE
  5
965
330
18
100
AcDbEntity
  8
1
 48
0.01425
100
AcDbLine
 10
8.030000000000001
 20
1.107312000000034
 30
0.0
 11
8.600000000000001
 21
1.107312000000034
 31
0.0
  0
LINE
  5
966
330
18
100
AcDbEntity
  8
1
 48
0.000058
100
AcDbLine
 10
8.600000000000001
 20
0.8891530000000782
 30
0.0
 11
8.600000000000001
 21
0.8914700000000832
 31
0.0
  0
LINE
  5
967
330
18
100
AcDbEntity
  8
1
 48
0.01472
100
AcDbLine
 10
8.618781000000002
 20
0.8313940000000457
 30
0.0
 11
8.030000000000001
 21
0.8303960000000643
 31
0.0
  0
LINE
  5
968
330
18
100
AcDbEntity
  8
1
 48
0.018069
100
AcDbLine
 10
8.618781000000002
 20
0.8313940000000457
 30
0.0
 11
9.341547999999999
 21
0.8296250000000782
 31
0.0
  0
LINE
  5
969
330
18
100
AcDbEntity
  8
1
 48
0.001143
100
AcDbLine
 10
9.341547000000002
 20
0.8753480000000307
 30
0.0
 11
9.341547000000002
 21
0.8296250000000782
 31
0.0
  0
LINE
  5
96A
330
18
100
AcDbEntity
  8
1
 48
0.002816
100
AcDbLine
 10
9.228997999999997
 20
0.8794340000000602
 30
0.0
 11
9.341547999999999
 21
0.8753480000000307
 31
0.0
  0
LINE
  5
96B
330
18
100
AcDbEntity
  8
1
 48
0.003859
100
AcDbLine
 10
9.074644000000002
 20
0.88110800000004
 30
0.0
 11
9.228997999999997
 21
0.8794330000000627
 31
0.0
  0
LINE
  5
96C
330
18
100
AcDbEntity
  8
1
 48
0.008499
100
AcDbLine
 10
8.734695000000002
 20
0.8832910000000422
 30
0.0
 11
9.074644000000002
 21
0.88110800000004
 31
0.0
  0
ARC
  5
96D
330
18
100
AcDbEntity
  8
1
100
AcDbCircle
 10
8.699899999999999
 20
1.867034000000043
 30
0.0
 40
0.9836389999999999
100
AcDbArc
 50
264.1669379999996
 51
272.0257450000001
  0
LINE
  5
96E
330
18
100
AcDbEntity
  8
1
 48
0.001527
100
AcDbLine
 10
8.030000000000001
 20
0.8303960000000643
 30
0.0
 11
8.030000000000001
 21
0.8914700000000832
 31
0.0
  0
ARC
  5
96F
330
18
100
AcDbEntity
  8
1
100
AcDbCircle
 10
8.027661000000001
 20
0.3319020000000705
 30
0.0
 40
0.498029
100
AcDbArc
 50
89.73111000000004
 51
179.7254269999996
  0
LINE
  5
970
330
18
100
AcDbEntity
  8
1
 48
0.000058
100
AcDbLine
 10
8.600000000000001
 20
1.107312000000034
 30
0.0
 11
8.600000000000001
 21
1.109628000000042
 31
0.0
  0
LINE
  5
971
330
18
100
AcDbEntity
  8
1
 48
0.0284
100
AcDbLine
 10
8.030000000000001
 20
-0.7944169999999531
 30
0.0
 11
9.165995999999999
 21
-0.7916649999999664
 31
0.0
  0
LINE
  5
972
330
18
100
AcDbEntity
  8
1
 48
0.004389
100
AcDbLine
 10
9.166
 20
-0.7916649999999664
 30
0.0
 11
9.341547999999999
 21
-0.7942869999999404
 31
0.0
  0
LINE
  5
973
330
18
100
AcDbEntity
  8
1
 48
0.001262
100
AcDbLine
 10
7.532736999999999
 20
-0.3679769999999394
 30
0.0
 11
7.530000000000001
 21
-0.3175769999999147
 31
0.0
  0
SPLINE
  5
974
330
18
100
AcDbEntity
  8
1
100
AcDbSpline
210
0.0
220
0.0
230
1.0
 70
     8
 71
     5
 72
    15
 73
     9
 74
     0
 42
0.000000001
 43
0.0000000001
 40
0.0
 40
0.0
 40
0.0
 40
0.0
 40
0.0
 40
0.0
 40
0.6998252042973646
 40
0.6998252042973646
 40
0.6998252042973646
 40
1.680086891880985
 40
1.680086891880985
 40
1.680086891880985
 40
1.680086891880985
 40
1.680086891880985
 40
1.680086891880985
 10
8.030000000003141
 20
-0.7944168665647453
 30
0.0
 10
7.954490322279671
 20
-0.794544345437771
 30
0.0
 10
7.88246547161412
 20
-0.7810599148950815
 30
0.0
 10
7.818757112722398
 20
-0.7565857165509442
 30
0.0
 10
7.68690683647544
 20
-0.6824966918909468
 30
0.0
 10
7.600032512530745
 20
-0.5783677086637911
 30
0.0
 10
7.56359455632953
 20
-0.5119359687352018
 30
0.0
 10
7.540808513261815
 20
-0.4412469222332902
 30
0.0
 10
7.532737269667527
 20
-0.3679774603853616
 30
0.0
  0
LINE
  5
975
330
18
100
AcDbEntity
  8
1
 48
0.024524
100
AcDbLine
 10
7.530000000000001
 20
0.6633840000000646
 30
0.0
 11
7.530000000000001
 21
-0.3175769999999147
 31
0.0
  0
ARC
  5
976
330
18
100
AcDbEntity
  8
1
100
AcDbCircle
 10
8.022697
 20
0.6630610000000843
 30
0.0
 40
0.492758
100
AcDbArc
 50
89.15108499999993
 51
179.9624860000006
  0
LINE
  5
977
330
18
100
AcDbEntity
  8
1
 48
0.001215
100
AcDbLine
 10
8.030000000000001
 20
1.107312000000034
 30
0.0
 11
8.030000000000001
 21
1.155920000000037
 31
0.0
  0
LINE
  5
978
330
18
100
AcDbEntity
  8
1
 48
0.03279
100
AcDbLine
 10
9.341547999999999
 20
1.143077000000062
 30
0.0
 11
8.030000000000001
 21
1.155920000000037
 31
0.0
  0
ARC
  5
979
330
18
100
AcDbEntity
  8
1
100
AcDbCircle
 10
8.699839
 20
0.1334980000000314
 30
0.0
 40
0.981892
100
AcDbArc
 50
87.96712900000006
 51
95.83994499999972
  0
LINE
  5
97A
330
18
100
AcDbEntity
  8
1
 48
0.008499
100
AcDbLine
 10
8.734695000000002
 20
1.115491000000075
 30
0.0
 11
9.074644000000002
 21
1.117674000000079
 31
0.0
  0
LINE
  5
97B
330
18
100
AcDbEntity
  8
1
 48
0.003859
100
AcDbLine
 10
9.074644000000002
 20
1.117674000000079
 30
0.0
 11
9.228997999999997
 21
1.119348000000059
 31
0.0
  0
LINE
  5
97C
330
18
100
AcDbEntity
  8
1
 48
0.002816
100
AcDbLine
 10
9.228997999999997
 20
1.119348000000059
 30
0.0
 11
9.341547999999999
 21
1.123433000000034
 31
0.0
  0
LINE
  5
97D
330
18
100
AcDbEntity
  8
1
 48
0.000491
100
AcDbLine
 10
9.341547000000002
 20
1.143077000000062
 30
0.0
 11
9.341547000000002
 21
1.123433000000034
 31
0.0
  0
LINE
  5
97E
330
18
100
AcDbEntity
  8
1
 48
0.014488
100
AcDbLine
 10
9.341547000000002
 20
-2.964607999999941
 30
0.0
 11
9.341547000000002
 21
-3.544118999999966
 31
0.0
  0
LINE
  5
97F
330
18
100
AcDbEntity
  8
1
 48
0.048024
100
AcDbLine
 10
9.341547000000002
 20
-5.465093999999965
 30
0.0
 11
9.341547000000002
 21
-3.544118999999966
 31
0.0
  0
LINE
  5
980
330
18
100
AcDbEntity
  8
1
 48
0.003752
100
AcDbLine
 10
9.228997999999997
 20
-3.444842999999933
 30
0.0
 11
9.341547999999999
 21
-3.544119999999963
 31
0.0
  0
ARC
  5
981
330
18
100
AcDbEntity
  8
1
100
AcDbCircle
 10
8.956338000000002
 20
-4.166454999999928
 30
0.0
 40
0.771413
100
AcDbArc
 50
69.30102300000043
 51
81.17821600000034
  0
LINE
  5
982
330
18
100
AcDbEntity
  8
1
 48
0.008602
100
AcDbLine
 10
8.734695000000002
 20
-3.351121999999917
 30
0.0
 11
9.074644000000002
 21
-3.404161999999928
 31
0.0
  0
ARC
  5
983
330
18
100
AcDbEntity
  8
1
100
AcDbCircle
 10
8.757830999999999
 20
-3.186562999999921
 30
0.0
 40
0.166045
100
AcDbArc
 50
218.9354910000017
 51
261.9972330000004
  0
LINE
  5
984
330
18
100
AcDbEntity
  8
1
 48
0.046106
100
AcDbLine
 10
8.030000000000001
 20
-3.541844999999966
 30
0.0
 11
8.030000000000001
 21
-5.386066999999965
 31
0.0
  0
ARC
  5
985
330
18
100
AcDbEntity
  8
1
100
AcDbCircle
 10
6.713499999999998
 20
-38.15443399999992
 30
0.0
 40
32.794806
100
AcDbArc
 50
85.40361199999997
 51
87.69932499999995
  0
ARC
  5
986
330
18
100
AcDbEntity
  8
1
100
AcDbCircle
 10
8.397666
 20
-4.609794999999961
 30
0.0
 40
0.867736
100
AcDbArc
 50
180.330757
 51
192.2910069999997
  0
SPLINE
  5
987
330
18
100
AcDbEntity
  8
1
100
AcDbSpline
210
0.0
220
0.0
230
1.0
 70
     8
 71
     5
 72
    18
 73
    12
 74
     0
 42
0.000000001
 43
0.0000000001
 40
0.0
 40
0.0
 40
0.0
 40
0.0
 40
0.0
 40
0.0
 40
0.458798975019545
 40
0.458798975019545
 40
0.458798975019545
 40
1.376721748247095
 40
1.376721748247095
 40
1.376721748247095
 40
1.529037133773123
 40
1.529037133773123
 40
1.529037133773123
 40
1.529037133773123
 40
1.529037133773123
 40
1.529037133773123
 10
8.030000000003141
 20
-5.386066923707858
 30
0.0
 10
7.980498024565664
 20
-5.384081047914548
 30
0.0
 10
7.932568967536766
 20
-5.372476574721645
 30
0.0
 10
7.887952673506351
 20
-5.352577990978203
 30
0.0
 10
7.765727972507335
 20
-5.275600112074696
 30
0.0
 10
7.675966576363022
 20
-5.157197909236572
 30
0.0
 10
7.629071423748801
 20
-5.069749337109382
 30
0.0
 10
7.587161036649308
 20
-4.960194104822392
 30
0.0
 10
7.559730935205812
 20
-4.844559357617242
 30
0.0
 10
7.556117060141673
 20
-4.82798137872021
 30
0.0
 10
7.552794820295851
 20
-4.811304098577918
 30
0.0
 10
7.549762220864633
 20
-4.794528275283252
 30
0.0
  0
LINE
  5
988
330
18
100
AcDbEntity
  8
1
 48
0.022668
100
AcDbLine
 10
7.530000000000001
 20
-3.708092999999961
 30
0.0
 11
7.530000000000001
 21
-4.614803999999933
 31
0.0
  0
LINE
  5
989
330
18
100
AcDbEntity
  8
1
 48
0.000318
100
AcDbLine
 10
7.530000000000001
 20
-3.708088999999913
 30
0.0
 11
7.530381999999997
 21
-3.69538899999992
 31
0.0
  0
LINE
  5
98A
330
18
100
AcDbEntity
  8
1
 48
0.008298
100
AcDbLine
 10
9.341547999999999
 20
-2.964613999999926
 30
0.0
 11
9.017236999999999
 21
-3.035330999999928
 31
0.0
  0
LINE
  5
98B
330
18
100
AcDbEntity
  8
1
 48
0.005805
100
AcDbLine
 10
8.734695000000002
 20
0.8832910000000422
 30
0.0
 11
8.734695000000002
 21
1.115490000000079
 31
0.0
  0
LINE
  5
98C
330
18
100
AcDbEntity
  8
1
 48
0.005914
100
AcDbLine
 10
9.074644000000002
 20
0.88110800000004
 30
0.0
 11
9.074644000000002
 21
1.11767300000008
 31
0.0
  0
LINE
  5
98D
330
18
100
AcDbEntity
  8
1
 48
0.005998
100
AcDbLine
 10
9.228997999999997
 20
1.119347000000061
 30
0.0
 11
9.228997999999997
 21
0.8794330000000627
 31
0.0
  0
LINE
  5
98E
330
18
100
AcDbEntity
  8
1
 48
0.039787
100
AcDbLine
 10
9.529999999999999
 20
0.9763520000000768
 30
0.0
 11
9.529999999999999
 21
2.567814000000055
 31
0.0
  0
LINE
  5
98F
330
18
100
AcDbEntity
  8
1
 48
0.000927
100
AcDbLine
 10
9.341547000000002
 20
0.8753480000000307
 30
0.0
 11
9.377646000000002
 21
0.8838010000000622
 31
0.0
  0
ARC
  5
990
330
18
100
AcDbEntity
  8
1
100
AcDbCircle
 10
9.312903999999999
 20
1.162105000000053
 30
0.0
 40
0.285724
100
AcDbArc
 50
283.0958249999993
 51
319.4489549999986
  0
LINE
  5
991
330
18
100
AcDbEntity
  8
1
 48
0.000932
100
AcDbLine
 10
9.341547000000002
 20
0.8296250000000782
 30
0.0
 11
9.377646000000002
 21
0.8388690000000449
 31
0.0
  0
LINE
  5
992
330
18
100
AcDbEntity
  8
1
 48
0.001123
100
AcDbLine
 10
9.377646000000002
 20
0.8388690000000449
 30
0.0
 11
9.377646000000002
 21
0.8838010000000622
 31
0.0
  0
ARC
  5
993
330
18
100
AcDbEntity
  8
1
100
AcDbCircle
 10
9.286331999999999
 20
1.43612900000005
 30
0.0
 40
0.315334
100
AcDbArc
 50
286.8331570000003
 51
320.5992259999986
  0
LINE
  5
994
330
18
100
AcDbEntity
  8
1
 48
0.000943
100
AcDbLine
 10
9.341547000000002
 20
1.123433000000034
 30
0.0
 11
9.377646000000002
 21
1.134314000000073
 31
0.0
  0
LINE
  5
995
330
18
100
AcDbEntity
  8
1
 48
0.000938
100
AcDbLine
 10
9.341547000000002
 20
-0.7942869999999404
 30
0.0
 11
9.377646000000002
 21
-0.8045339999999328
 31
0.0
  0
LINE
  5
996
330
18
100
AcDbEntity
  8
1
 48
0.000932
100
AcDbLine
 10
9.377646000000002
 20
1.152374000000065
 30
0.0
 11
9.341547000000002
 21
1.143077000000062
 31
0.0
  0
LINE
  5
997
330
18
100
AcDbEntity
  8
1
 48
0.000452
100
AcDbLine
 10
9.377646000000002
 20
1.134314000000073
 30
0.0
 11
9.377646000000002
 21
1.152374000000065
 31
0.0
  0
LINE
  5
998
330
18
100
AcDbEntity
  8
1
 48
0.00463
100
AcDbLine
 10
9.529999999999999
 20
-2.76452999999992
 30
0.0
 11
9.529999999999999
 21
-2.57932999999997
 31
0.0
  0
LINE
  5
999
330
18
100
AcDbEntity
  8
1
 48
0.015703
100
AcDbLine
 10
9.377646000000002
 20
-3.578738999999925
 30
0.0
 11
9.377646000000002
 21
-2.950632999999923
 31
0.0
  0
LINE
  5
99A
330
18
100
AcDbEntity
  8
1
 48
0.001924
100
AcDbLine
 10
9.529999999999999
 20
-3.880728999999917
 30
0.0
 11
9.529999999999999
 21
-3.803785999999944
 31
0.0
  0
LINE
  5
99B
330
18
100
AcDbEntity
  8
1
 48
0.00125
100
AcDbLine
 10
9.341547000000002
 20
-3.544118999999966
 30
0.0
 11
9.377646000000002
 21
-3.578738999999925
 31
0.0
  0
ARC
  5
99C
330
18
100
AcDbEntity
  8
1
100
AcDbCircle
 10
8.046064000000001
 20
-4.985174999999967
 30
0.0
 40
1.936692999999999
100
AcDbArc
 50
39.98011599999838
 51
46.56600700000042
  0
LINE
  5
99D
330
18
100
AcDbEntity
  8
1
 48
0.047618
100
AcDbLine
 10
9.377646000000002
 20
-3.578738999999925
 30
0.0
 11
9.377646000000002
 21
-5.483449999999947
 31
0.0
  0
LINE
  5
99E
330
18
100
AcDbEntity
  8
1
 48
0.001012
100
AcDbLine
 10
9.341547000000002
 20
-5.465093999999965
 30
0.0
 11
9.377646000000002
 21
-5.483449999999947
 31
0.0
  0
LINE
  5
99F
330
18
100
AcDbEntity
  8
1
 48
0.000968
100
AcDbLine
 10
9.377646000000002
 20
-2.950637999999969
 30
0.0
 11
9.341547000000002
 21
-2.964613999999926
 31
0.0
  0
LINE
  5
9A0
330
18
100
AcDbEntity
  8
1
 48
0.008141
100
AcDbLine
 10
9.529999999999999
 20
2.567814000000055
 30
0.0
 11
9.529999999999999
 21
2.893465000000048
 31
0.0
  0
LINE
  5
9A1
330
18
100
AcDbEntity
  8
1
 48
0.001101
100
AcDbLine
 10
9.529999999999999
 20
0.9763520000000768
 30
0.0
 11
9.529999999999999
 21
0.9323050000000419
 31
0.0
  0
ARC
  5
9A2
330
18
100
AcDbEntity
  8
1
100
AcDbCircle
 10
9.304053999999997
 20
1.130004000000041
 30
0.0
 40
0.300261
100
AcDbArc
 50
284.1858529999994
 51
318.8147170000011
  0
LINE
  5
9A3
330
18
100
AcDbEntity
  8
1
 48
0.000289
100
AcDbLine
 10
9.529999999999999
 20
1.24751800000007
 30
0.0
 11
9.529999999999999
 21
1.23597200000006
 31
0.0
  0
ARC
  5
9A4
330
18
100
AcDbEntity
  8
1
100
AcDbCircle
 10
9.303936
 20
1.440054000000031
 30
0.0
 40
0.296957
100
AcDbArc
 50
284.3713470000005
 51
319.5794409999991
  0
ARC
  5
9A5
330
18
100
AcDbEntity
  8
1
100
AcDbCircle
 10
9.293788000000002
 20
-1.09874899999994
 30
0.0
 40
0.305945
100
AcDbArc
 50
39.46202000000127
 51
74.09138700000013
  0
ARC
  5
9A6
330
18
100
AcDbEntity
  8
1
100
AcDbCircle
 10
9.219540999999999
 20
-2.529259999999962
 30
0.0
 40
0.4499260000000004
100
AcDbArc
 50
290.5665010000003
 51
313.6518360000009
  0
LINE
  5
9A7
330
18
100
AcDbEntity
  8
1
 48
0.040507
100
AcDbLine
 10
9.529999999999999
 20
-2.76452999999992
 30
0.0
 11
9.529999999999999
 21
-4.38479099999995
 31
0.0
  0
LINE
  5
9A8
330
18
100
AcDbEntity
  8
1
 48
0.043493
100
AcDbLine
 10
9.529999999999999
 20
-5.480595999999933
 30
0.0
 11
9.529999999999999
 21
-3.740881999999942
 31
0.0
  0
LINE
  5
9A9
330
18
100
AcDbEntity
  8
1
 48
0.000604
100
AcDbLine
 10
9.377646000000002
 20
-5.483449999999947
 30
0.0
 11
9.398619999999999
 21
-5.495461999999918
 31
0.0
  0
ARC
  5
9AA
330
18
100
AcDbEntity
  8
1
100
AcDbCircle
 10
9.513486999999999
 20
-5.905807999999922
 30
0.0
 40
0.4258250000000002
100
AcDbArc
 50
87.776039
 51
105.6380040000008
  0
LINE
  5
9AB
330
18
100
AcDbEntity
  8
1
 48
0.002875
100
AcDbLine
 10
9.529999999999999
 20
2.692174000000079
 30
0.0
 11
9.529999
 21
2.807163000000059
 31
0.0
  0
LINE
  5
9AC
330
18
100
AcDbEntity
  8
1
 48
0.00083
100
AcDbLine
 10
9.529999999999999
 20
2.669069000000034
 30
0.0
 11
9.529999
 21
2.70226800000006
 31
0.0
  0
ARC
  5
9AD
330
18
100
AcDbEntity
  8
1
100
AcDbCircle
 10
10.193545
 20
4.196094000000073
 30
0.0
 40
1.890158
100
AcDbArc
 50
194.336925
 51
203.3456519999998
  0
LINE
  5
9AE
330
18
100
AcDbEntity
  8
1
 48
0.000193
100
AcDbLine
 10
8.356204000000001
 20
3.732825000000048
 30
0.0
 11
8.362287000000002
 21
3.728056000000036
 31
0.0
  0
SPLINE
  5
9AF
330
18
100
AcDbEntity
  8
1
100
AcDbSpline
210
0.0
220
0.0
230
1.0
 70
     8
 71
     5
 72
    12
 73
     6
 74
     0
 42
0.000000001
 43
0.0000000001
 40
0.0
 40
0.0
 40
0.0
 40
0.0
 40
0.0
 40
0.0
 40
10.84638234766352
 40
10.84638234766352
 40
10.84638234766352
 40
10.84638234766352
 40
10.84638234766352
 40
10.84638234766352
 10
8.356203161092594
 20
3.732269099191569
 30
0.0
 10
6.899765216431957
 20
3.290340339117732
 30
0.0
 10
5.447270529604351
 20
2.820778379213209
 30
0.0
 10
3.997790057939471
 20
2.329711109672075
 30
0.0
 10
2.551287192765119
 20
1.823035861718549
 30
0.0
 10
1.10635361684945
 20
1.307016843497422
 30
0.0
  0
ARC
  5
9B0
330
18
100
AcDbEntity
  8
1
100
AcDbCircle
 10
-0.9633439999999991
 20
0.5607290000000376
 30
0.0
 40
2.200438999999998
100
AcDbArc
 50
10.76525099999853
 51
19.83501000000109
  0
ARC
  5
9B1
330
18
100
AcDbEntity
  8
1
100
AcDbCircle
 10
52.02408099999999
 20
-135.0266419999999
 30
0.0
 40
145.165598
100
AcDbArc
 50
107.4643640000002
 51
109.2107529999991
  0
ARC
  5
9B2
330
18
100
AcDbEntity
  8
1
100
AcDbCircle
 10
92.761043
 20
-252.56042
 30
0.0
 40
269.559267
100
AcDbArc
 50
109.1671240000009
 51
109.85708
  0
ARC
  5
9B3
330
18
100
AcDbEntity
  8
1
100
AcDbCircle
 10
10.034255
 20
-4.469453999999925
 30
0.0
 40
8.071797
100
AcDbArc
 50
93.58225599999988
 51
101.260075
  0
LINE
  5
9B4
330
18
100
AcDbEntity
  8
1
 48
0.004614
100
AcDbLine
 10
9.529999999999999
 20
3.770822000000066
 30
0.0
 11
9.529999999999999
 21
3.586271000000066
 31
0.0
  0
ARC
  5
9B5
330
18
100
AcDbEntity
  8
1
100
AcDbCircle
 10
9.629827999999999
 20
-15.00363899999996
 30
0.0
 40
18.774529
100
AcDbArc
 50
90.30449699999996
 51
93.87147199999999
  0
LINE
  5
9B6
330
18
100
AcDbEntity
  8
1
 48
0.017899
100
AcDbLine
 10
9.530001000000002
 20
3.770823000000063
 30
0.0
 11
9.529999999999999
 21
4.486800000000073
 31
0.0
  0
ARC
  5
9B7
330
18
100
AcDbEntity
  8
1
100
AcDbCircle
 10
24.43668300000001
 20
122.500443
 30
0.0
 40
118.951304
100
AcDbArc
 50
262.1818209999997
 51
262.8009109999997
  0
ARC
  5
9B8
330
18
100
AcDbEntity
  8
1
100
AcDbCircle
 10
-2.488240999999995
 20
3.015438000000073
 30
0.0
 40
10.868251
100
AcDbArc
 50
3.784761999999217
 51
8.675945999999159
  0
LINE
  5
9B9
330
18
100
AcDbEntity
  8
1
 48
0.00407
100
AcDbLine
 10
0.1936110000000006
 20
2.353109000000074
 30
0.0
 11
0.1899100000000011
 21
2.515883000000029
 31
0.0
  0
ARC
  5
9BA
330
18
100
AcDbEntity
  8
1
100
AcDbCircle
 10
13.77335
 20
2.79279000000008
 30
0.0
 40
13.586913
100
AcDbArc
 50
181.8544589999991
 51
184.2078690000013
  0
ARC
  5
9BB
330
18
100
AcDbEntity
  8
1
100
AcDbCircle
 10
16.96112
 20
31.01218500000005
 30
0.0
 40
33.67120900000001
100
AcDbArc
 50
240.1914649999995
 51
241.9094760000008
  0
ARC
  5
9BC
330
18
100
AcDbEntity
  8
1
100
AcDbCircle
 10
6.820680000000002
 20
45.86811100000004
 30
0.0
 40
41.23820300000001
100
AcDbArc
 50
271.1345170000001
 51
271.994278
  0
SPLINE
  5
9BD
330
18
100
AcDbEntity
  8
1
100
AcDbSpline
210
0.0
220
0.0
230
1.0
 70
     8
 71
     5
 72
    12
 73
     6
 74
     0
 42
0.000000001
 43
0.0000000001
 40
0.0
 40
0.0
 40
0.0
 40
0.0
 40
0.0
 40
0.0
 40
10.99295710576456
 40
10.99295710576456
 40
10.99295710576456
 40
10.99295710576456
 40
10.99295710576456
 40
10.99295710576456
 10
0.1900207863470626
 20
2.515644795251887
 30
0.0
 10
1.672226334705094
 20
2.990598931868873
 30
0.0
 10
3.157352300613663
 20
3.446434261304544
 30
0.0
 10
4.647132757448652
 20
3.876498919381106
 30
0.0
 10
6.140183013900803
 20
4.275603293919687
 30
0.0
 10
7.637465567050345
 20
4.638032421803299
 30
0.0
  0
SPLINE
  5
9BE
330
18
100
AcDbEntity
  8
1
100
AcDbSpline
210
0.0
220
0.0
230
1.0
 70
     8
 71
     5
 72
    12
 73
     6
 74
     0
 42
0.000000001
 43
0.0000000001
 40
0.0
 40
0.0
 40
0.0
 40
0.0
 40
0.0
 40
0.0
 40
2.033544814409395
 40
2.033544814409395
 40
2.033544814409395
 40
2.033544814409395
 40
2.033544814409395
 40
2.033544814409395
 10
0.0724045246546865
 20
0.6395826460785658
 30
0.0
 10
0.0959931962643523
 20
0.8652961479311898
 30
0.0
 10
0.1271282769536697
 20
1.091893136127622
 30
0.0
 10
0.1628822634986307
 20
1.335918412485227
 30
0.0
 10
0.1948926364241323
 20
1.5651323076018
 30
0.0
 10
0.2229891407374644
 20
1.795836689117775
 30
0.0
  0
ARC
  5
9BF
330
18
100
AcDbEntity
  8
1
100
AcDbCircle
 10
12.56284
 20
-39.65397099999997
 30
0.0
 40
42.18518699999999
100
AcDbArc
 50
105.6281900000008
 51
107.2225029999996
  0
LINE
  5
9C0
330
18
100
AcDbEntity
  8
1
 48
0.000782
100
AcDbLine
 10
0.0724720000000012
 20
0.6398420000000442
 30
0.0
 11
0.0422950000000029
 21
0.6315680000000726
 31
0.0
  0
LINE
  5
9C1
330
18
100
AcDbEntity
  8
1
 48
0.001103
100
AcDbLine
 10
0.0422950000000029
 20
0.6315680000000726
 30
0.0
 11
0.0
 21
0.6189860000000637
 31
0.0
  0
LINE
  5
9C2
330
18
100
AcDbEntity
  8
1
 48
0.020722
100
AcDbLine
 10
0.0
 20
0.6189870000000611
 30
0.0
 11
0.0
 21
-0.2098729999999591
 31
0.0
  0
SPLINE
  5
9C3
330
18
100
AcDbEntity
  8
1
100
AcDbSpline
210
0.0
220
0.0
230
1.0
 70
     8
 71
     5
 72
    12
 73
     6
 74
     0
 42
0.000000001
 43
0.0000000001
 40
0.0
 40
0.0
 40
0.0
 40
0.0
 40
0.0
 40
0.0
 40
11.21744614429156
 40
11.21744614429156
 40
11.21744614429156
 40
11.21744614429156
 40
11.21744614429156
 40
11.21744614429156
 10
7.657582765660762
 20
1.834709740200423
 30
0.0
 10
6.123648632615982
 20
1.445045681494715
 30
0.0
 10
4.591573530514068
 20
1.040199414444828
 30
0.0
 10
3.060742826596643
 20
0.6255610990380092
 30
0.0
 10
1.530484878380121
 20
0.2069799762851971
 30
0.0
 10
0.0
 20
-0.2098731278815649
 30
0.0
  0
ARC
  5
9C4
330
18
100
AcDbEntity
  8
1
100
AcDbCircle
 10
-12.61369
 20
41.82792000000006
 30
0.0
 40
44.837701
100
AcDbArc
 50
296.8789839999988
 51
299.5944630000005
  0
LINE
  5
9C5
330
18
100
AcDbEntity
  8
1
 48
0.018682
100
AcDbLine
 10
9.529994999999999
 20
2.839210000000036
 30
0.0
 11
9.529923999999999
 21
3.58647600000006
 31
0.0
  0
ARC
  5
9C6
330
18
100
AcDbEntity
  8
1
100
AcDbCircle
 10
1.238286999999999
 20
64.48205500000007
 30
0.0
 40
60.185229
100
AcDbArc
 50
274.2869409999998
 51
276.1031709999997
  0
LINE
  5
9C7
330
18
100
AcDbEntity
  8
1
 48
0.029963
100
AcDbLine
 10
0.0
 20
2.862936000000047
 30
0.0
 11
0.0
 21
4.061445000000047
 31
0.0
  0
ARC
  5
9C8
330
18
100
AcDbEntity
  8
1
100
AcDbCircle
 10
0.4271330000000014
 20
3.07059600000008
 30
0.0
 40
0.474927
100
AcDbArc
 50
205.9282200000016
 51
215.871835000001
  0
ARC
  5
9C9
330
18
100
AcDbEntity
  8
1
100
AcDbCircle
 10
-0.9236590000000004
 20
2.100019000000031
 30
0.0
 40
1.188533
100
AcDbArc
 50
20.46571400000026
 51
35.62878100000145
  0
ARC
  5
9CA
330
18
100
AcDbEntity
  8
1
100
AcDbCircle
 10
5.607603000000001
 20
6.66733300000004
 30
0.0
 40
2.205189999999999
100
AcDbArc
 50
261.6274539999996
 51
273.3685310000002
  0
SPLINE
  5
9CB
330
18
100
AcDbEntity
  8
1
100
AcDbSpline
210
0.0
220
0.0
230
1.0
 70
     8
 71
     5
 72
    42
 73
    36
 74
     0
 42
0.000000001
 43
0.0000000001
 40
0.0
 40
0.0
 40
0.0
 40
0.0
 40
0.0
 40
0.0
 40
1.721042380627604
 40
1.721042380627604
 40
1.721042380627604
 40
2.977898959582806
 40
2.977898959582806
 40
2.977898959582806
 40
3.644918991995586
 40
3.644918991995586
 40
3.644918991995586
 40
3.967607948703091
 40
3.967607948703091
 40
3.967607948703091
 40
4.290296905410595
 40
4.290296905410595
 40
4.290296905410595
 40
4.942364960429488
 40
4.942364960429488
 40
4.942364960429488
 40
5.271746340704202
 40
5.271746340704202
 40
5.271746340704202
 40
5.766392160790559
 40
5.766392160790559
 40
5.766392160790559
 40
5.931693086086497
 40
5.931693086086497
 40
5.931693086086497
 40
6.262279546034212
 40
6.262279546034212
 40
6.262279546034212
 40
6.457799694595355
 40
6.457799694595355
 40
6.457799694595355
 40
6.457799694595355
 40
6.457799694595355
 40
6.457799694595355
 10
5.286622356581012
 20
4.486425216197119
 30
0.0
 10
5.209096507300101
 20
4.501675715588477
 30
0.0
 10
5.164142147471838
 20
4.521886863660995
 30
0.0
 10
5.149003365108971
 20
4.544617386456025
 30
0.0
 10
5.163838029407603
 20
4.585710504354493
 30
0.0
 10
5.237058759085883
 20
4.627435110422027
 30
0.0
 10
5.276818646416199
 20
4.644872209584263
 30
0.0
 10
5.348752753240543
 20
4.670819741386762
 30
0.0
 10
5.435705045745057
 20
4.695594135610747
 30
0.0
 10
5.460988839484666
 20
4.702322754406566
 30
0.0
 10
5.509425552926034
 20
4.714493964232929
 30
0.0
 10
5.562096390605887
 20
4.726531109368579
 30
0.0
 10
5.581079370192233
 20
4.730741934285561
 30
0.0
 10
5.618789337660063
 20
4.738847188621321
 30
0.0
 10
5.655460053808162
 20
4.746285255878547
 30
0.0
 10
5.673965346633551
 20
4.749941109403437
 30
0.0
 10
5.731018616648698
 20
4.760919473717365
 30
0.0
 10
5.790012096899462
 20
4.771412317614874
 30
0.0
 10
5.830274053661923
 20
4.778221190623241
 30
0.0
 10
5.892751051464735
 20
4.788279767062363
 30
0.0
 10
5.957784935702481
 20
4.798009751124538
 30
0.0
 10
5.980168207814301
 20
4.801276631471296
 30
0.0
 10
6.035611440061477
 20
4.809169106910585
 30
0.0
 10
6.087836852250486
 20
4.816175125281516
 30
0.0
 10
6.118160809590452
 20
4.820131841564716
 30
0.0
 10
6.164575625425066
 20
4.825967262966855
 30
0.0
 10
6.212168256909004
 20
4.831669720434318
 30
0.0
 10
6.224188013227037
 20
4.833092702515274
 30
0.0
 10
6.261080210631455
 20
4.837406457571717
 30
0.0
 10
6.299829181388901
 20
4.841771503939696
 30
0.0
 10
6.326270405987028
 20
4.84467090729771
 30
0.0
 10
6.367507980406966
 20
4.849075326871171
 30
0.0
 10
6.407503951090181
 20
4.853181176370866
 30
0.0
 10
6.422192048685667
 20
4.854667355874823
 30
0.0
 10
6.437020042463116
 20
4.856146176480589
 30
0.0
 10
6.451923033105718
 20
4.857610833384964
 30
0.0
  0
ARC
  5
9CC
330
18
100
AcDbEntity
  8
1
100
AcDbCircle
 10
8.133894000000001
 20
-12.90169299999996
 30
0.0
 40
17.838975
100
AcDbArc
 50
91.85874399999995
 51
95.410303
  0
ARC
  5
9CD
330
18
100
AcDbEntity
  8
1
100
AcDbCircle
 10
12.792016
 20
-73.63077799999995
 30
0.0
 40
78.73786199999997
100
AcDbArc
 50
95.20551600000002
 51
99.34985599999997
  0
LINE
  5
9CE
330
18
100
AcDbEntity
  8
1
 48
0.039792
100
AcDbLine
 10
9.529999999999999
 20
1.247520000000065
 30
0.0
 11
9.529999
 21
2.839205000000049
 31
0.0
  0
LINE
  5
9CF
330
18
100
AcDbEntity
  8
1
 48
0.00284
100
AcDbLine
 10
7.555271000000001
 20
1.785376000000042
 30
0.0
 11
7.657583000000002
 21
1.834710000000026
 31
0.0
  0
SPLINE
  5
9D0
330
18
100
AcDbEntity
  8
1
100
AcDbSpline
210
0.0
220
0.0
230
1.0
 70
     8
 71
     5
 72
    63
 73
    57
 74
     0
 42
0.000000001
 43
0.0000000001
 40
0.0
 40
0.0
 40
0.0
 40
0.0
 40
0.0
 40
0.0
 40
0.3275514273385836
 40
0.3275514273385836
 40
0.3275514273385836
 40
0.656633250029759
 40
0.656633250029759
 40
0.656633250029759
 40
0.8257407355579841
 40
0.8257407355579841
 40
0.8257407355579841
 40
0.9948482210862096
 40
0.9948482210862096
 40
0.9948482210862096
 40
1.333008785882064
 40
1.333008785882064
 40
1.333008785882064
 40
2.477434598287633
 40
2.477434598287633
 40
2.477434598287633
 40
4.956709125826167
 40
4.956709125826167
 40
4.956709125826167
 40
5.223826361846983
 40
5.223826361846983
 40
5.223826361846983
 40
5.488352237421443
 40
5.488352237421443
 40
5.488352237421443
 40
5.752878112995905
 40
5.752878112995905
 40
5.752878112995905
 40
6.547046427105184
 40
6.547046427105184
 40
6.547046427105184
 40
6.828843454746931
 40
6.828843454746931
 40
6.828843454746931
 40
7.09404229203877
 40
7.09404229203877
 40
7.09404229203877
 40
7.359241129330609
 40
7.359241129330609
 40
7.359241129330609
 40
7.923671139352149
 40
7.923671139352149
 40
7.923671139352149
 40
9.008456663673912
 40
9.008456663673912
 40
9.008456663673912
 40
9.596497240375953
 40
9.596497240375953
 40
9.596497240375953
 40
10.68325648746337
 40
10.68325648746337
 40
10.68325648746337
 40
10.68325648746337
 40
10.68325648746337
 40
10.68325648746337
 10
5.737219307940622
 20
-0.836527555282714
 30
0.0
 10
5.705670093330955
 20
-0.8261245107185573
 30
0.0
 10
5.675275349882182
 20
-0.815153381263144
 30
0.0
 10
5.644656094294721
 20
-0.8031149194312661
 30
0.0
 10
5.587619102855626
 20
-0.7786868605700761
 30
0.0
 10
5.534874821766532
 20
-0.7521001276852532
 30
0.0
 10
5.512202331257731
 20
-0.7397914523857027
 30
0.0
 10
5.475150853908855
 20
-0.7179365311396852
 30
0.0
 10
5.441329467819802
 20
-0.6955205872823741
 30
0.0
 10
5.430407662321286
 20
-0.6879963718548652
 30
0.0
 10
5.409338939240001
 20
-0.6728598682731218
 30
0.0
 10
5.389216388062822
 20
-0.6571339770140982
 30
0.0
 10
5.379154884933925
 20
-0.6489594622321988
 30
0.0
 10
5.34982912808207
 20
-0.6241196498162367
 30
0.0
 10
5.32325908697242
 20
-0.5984816290107347
 30
0.0
 10
5.30674813014437
 20
-0.5810541103793982
 30
0.0
 10
5.239757600918816
 20
-0.503599343780877
 30
0.0
 10
5.195381056186191
 20
-0.4212958500330048
 30
0.0
 10
5.173480433427338
 20
-0.3556600635894256
 30
0.0
 10
5.140055453891161
 20
-0.1476480749455504
 30
0.0
 10
5.205270794038908
 20
0.0627265210310384
 30
0.0
 10
5.283181861258092
 20
0.2040038853421038
 30
0.0
 10
5.395843794538574
 20
0.3544674873755298
 30
0.0
 10
5.532551646335083
 20
0.49977436353322
 30
0.0
 10
5.543870179603246
 20
0.5115914470786721
 30
0.0
 10
5.572219237612464
 20
0.5405847088225642
 30
0.0
 10
5.60211885502366
 20
0.5700629907180428
 30
0.0
 10
5.617082478673101
 20
0.5845604527630144
 30
0.0
 10
5.646052064594438
 20
0.6121003776219709
 30
0.0
 10
5.675536775200701
 20
0.6392097719242999
 30
0.0
 10
5.690546146874375
 20
0.6528062861244166
 30
0.0
 10
5.750959149859571
 20
0.7066871623105158
 30
0.0
 10
5.813587339865442
 20
0.7593417594515019
 30
0.0
 10
5.861787667383767
 20
0.7982325486232185
 30
0.0
 10
5.929817751417433
 20
0.8511233945717433
 30
0.0
 10
6.000322504755391
 20
0.903399164377447
 30
0.0
 10
6.013422362870778
 20
0.9130067145936207
 30
0.0
 10
6.048213712596329
 20
0.9383046030869197
 30
0.0
 10
6.082173476841056
 20
0.9624598919095319
 30
0.0
 10
6.098640109074187
 20
0.9740458287256499
 30
0.0
 10
6.132456687894003
 20
0.997592847302883
 30
0.0
 10
6.168333222335622
 20
1.022098192241511
 30
0.0
 10
6.186886896705657
 20
1.034665463639669
 30
0.0
 10
6.244768550698817
 20
1.073468924390055
 30
0.0
 10
6.307321689472337
 20
1.114106646844163
 30
0.0
 10
6.343162320594357
 20
1.136985221147085
 30
0.0
 10
6.463556825275482
 20
1.212414635543833
 30
0.0
 10
6.587903244085119
 20
1.286318278083797
 30
0.0
 10
6.67443810455623
 20
1.33606930871133
 30
0.0
 10
6.808792712455798
 20
1.411053883558679
 30
0.0
 10
6.943297894883662
 20
1.482906451949759
 30
0.0
 10
6.973491012813552
 20
1.498812732129974
 30
0.0
 10
7.107107197138701
 20
1.568466165686629
 30
0.0
 10
7.25497361399512
 20
1.642361196612398
 30
0.0
 10
7.371274331547427
 20
1.699014172143563
 30
0.0
 10
7.462938553581762
 20
1.742500573014353
 30
0.0
 10
7.555271279560017
 20
1.785376322754926
 30
0.0
  0
ARC
  5
9D1
330
18
100
AcDbEntity
  8
1
100
AcDbCircle
 10
-13.574568
 20
76.84246600000007
 30
0.0
 40
80.043549
100
AcDbArc
 50
283.9612690000004
 51
285.2895870000005
  0
LINE
  5
9D2
330
18
100
AcDbEntity
  8
1
 48
0.0007
100
AcDbLine
 10
0.0
 20
-0.2378829999999539
 30
0.0
 11
0.0
 21
-0.2098729999999591
 31
0.0
  0
SPLINE
  5
9D3
330
18
100
AcDbEntity
  8
1
100
AcDbSpline
210
0.0
220
0.0
230
1.0
 70
     8
 71
     5
 72
    12
 73
     6
 74
     0
 42
0.000000001
 43
0.0000000001
 40
0.0
 40
0.0
 40
0.0
 40
0.0
 40
0.0
 40
0.0
 40
11.06866284941631
 40
11.06866284941631
 40
11.06866284941631
 40
11.06866284941631
 40
11.06866284941631
 40
11.06866284941631
 10
7.555271279560004
 20
1.785376322754926
 30
0.0
 10
6.041942437879884
 20
1.398764397115201
 30
0.0
 10
4.530383118652153
 20
0.9977828267534503
 30
0.0
 10
3.019996426342799
 20
0.5876275673661553
 30
0.0
 10
1.510124504750455
 20
0.1739203004940464
 30
0.0
 10
0.0000021703546551
 20
-0.2378822988569595
 30
0.0
  0
ARC
  5
9D4
330
18
100
AcDbEntity
  8
1
100
AcDbCircle
 10
9.936963000000002
 20
4.829820000000039
 30
0.0
 40
0.434929
100
AcDbArc
 50
179.8197029999989
 51
200.6426109999996
  0
LINE
  5
9D5
330
18
100
AcDbEntity
  8
1
 48
0.002995
100
AcDbLine
 10
9.502000000000002
 20
4.950995000000033
 30
0.0
 11
9.502000000000002
 21
4.831187000000056
 31
0.0
  0
ARC
  5
9D6
330
18
100
AcDbEntity
  8
1
100
AcDbCircle
 10
9.622234000000002
 20
4.953444000000047
 30
0.0
 40
0.120146
100
AcDbArc
 50
140.202444000001
 51
181.167172000001
  0
LINE
  5
9D7
330
18
100
AcDbEntity
  8
1
 48
0.004949
100
AcDbLine
 10
9.529999
 20
5.030285000000048
 30
0.0
 11
9.529999
 21
5.228234000000043
 31
0.0
  0
ARC
  5
9D8
330
18
100
AcDbEntity
  8
1
100
AcDbCircle
 10
6.869103999999999
 20
16.06009400000005
 30
0.0
 40
11.154213
100
AcDbArc
 50
274.0534589999999
 51
283.8016740000005
  0
LINE
  5
9D9
330
18
100
AcDbEntity
  8
1
 48
0.001824
100
AcDbLine
 10
7.555271000000001
 20
4.928084000000068
 30
0.0
 11
7.628146
 21
4.931559000000047
 31
0.0
  0
LINE
  5
9DA
330
18
100
AcDbEntity
  8
1
 48
0.000738
100
AcDbLine
 10
7.628146
 20
4.931559000000047
 30
0.0
 11
7.657583000000002
 21
4.93352500000003
 31
0.0
  0
LINE
  5
9DB
330
18
100
AcDbEntity
  8
1
 48
0.004743
100
AcDbLine
 10
9.529987999999999
 20
4.486801000000068
 30
0.0
 11
9.529977999999999
 21
4.676516000000049
 31
0.0
  0
LINE
  5
9DC
330
18
100
AcDbEntity
  8
1
 48
0.000266
100
AcDbLine
 10
0.0
 20
4.061572000000069
 30
0.0
 11
0.0
 21
4.072204000000056
 31
0.0
  0
LINE
  5
9DD
330
18
100
AcDbEntity
  8
1
 48
0.000788
100
AcDbLine
 10
7.657583000000002
 20
4.93352500000003
 30
0.0
 11
7.626108999999997
 21
4.931627000000045
 31
0.0
  0
ARC
  5
9DE
330
18
100
AcDbEntity
  8
1
100
AcDbCircle
 10
12.630897
 20
-73.30879999999995
 30
0.0
 40
78.40457499999998
100
AcDbArc
 50
94.84463599999994
 51
99.2706280000004
  0
ARC
  5
9DF
330
18
100
AcDbEntity
  8
1
100
AcDbCircle
 10
12.717508
 20
38.32588400000009
 30
0.0
 40
39.779662
100
AcDbArc
 50
259.8937590000003
 51
262.7214300000001
  0
LINE
  5
9E0
330
18
100
AcDbEntity
  8
1
 48
0.012945
100
AcDbLine
 10
8.195121
 20
-1.112540999999964
 30
0.0
 11
7.677742000000002
 21
-1.133209999999959
 31
0.0
  0
ARC
  5
9E1
330
18
100
AcDbEntity
  8
1
100
AcDbCircle
 10
-2.734799999999998
 20
33.59228300000007
 30
0.0
 40
36.385247
100
AcDbArc
 50
287.4812759999991
 51
289.0914979999996
  0
LINE
  5
9E2
330
18
100
AcDbEntity
  8
1
 48
0.066658
100
AcDbLine
 10
0.0
 20
-2.904169999999962
 30
0.0
 11
0.0
 21
-0.2378669999999374
 31
0.0
  0
ARC
  5
9E3
330
18
100
AcDbEntity
  8
1
100
AcDbCircle
 10
1.177543
 20
-2.594735999999953
 30
0.0
 40
1.217497999999997
100
AcDbArc
 50
194.7237109999994
 51
201.1781479999995
  0
ARC
  5
9E4
330
18
100
AcDbEntity
  8
1
100
AcDbCircle
 10
-3.179513
 20
-4.276469999999958
 30
0.0
 40
3.453014
100
AcDbArc
 50
12.31273099999928
 51
21.07996100000161
  0
SPLINE
  5
9E5
330
18
100
AcDbEntity
  8
1
100
AcDbSpline
210
0.0
220
0.0
230
1.0
 70
     8
 71
     5
 72
    12
 73
     6
 74
     0
 42
0.000000001
 43
0.0000000001
 40
0.0
 40
0.0
 40
0.0
 40
0.0
 40
0.0
 40
0.0
 40
11.10295397867913
 40
11.10295397867913
 40
11.10295397867913
 40
11.10295397867913
 40
11.10295397867913
 40
11.10295397867913
 10
0.1942536079392987
 20
-3.540080997051063
 30
0.0
 10
1.697322564784184
 20
-3.101967926107078
 30
0.0
 10
3.196522293963031
 20
-2.636011589178053
 30
0.0
 10
4.692664736609536
 20
-2.147804053289178
 30
0.0
 10
6.186027660430838
 20
-1.64478371799953
 30
0.0
 10
7.677976128846838
 20
-1.133111973575636
 30
0.0
  0
LINE
  5
9E6
330
18
100
AcDbEntity
  8
1
 48
0.001217
100
AcDbLine
 10
0.0724720000000012
 20
5.510727000000031
 30
0.0
 11
0.0422950000000029
 21
5.472550000000066
 31
0.0
  0
ARC
  5
9E7
330
18
100
AcDbEntity
  8
1
100
AcDbCircle
 10
0.4258349999999993
 20
5.158224000000075
 30
0.0
 40
0.495881
100
AcDbArc
 50
140.6641050000011
 51
149.1770920000008
  0
LINE
  5
9E8
330
18
100
AcDbEntity
  8
1
 48
0.033502
100
AcDbLine
 10
0.0
 20
5.412299000000075
 30
0.0
 11
0.0
 21
4.072204000000056
 31
0.0
  0
LINE
  5
9E9
330
18
100
AcDbEntity
  8
1
 48
0.025208
100
AcDbLine
 10
9.529994999999999
 20
5.228218000000082
 30
0.0
 11
9.529923999999999
 21
6.236535000000056
 31
0.0
  0
ARC
  5
9EA
102
{ACAD_REACTORS
330
B67
102
}
330
18
100
AcDbEntity
  8
1
100
AcDbCircle
 10
-18.140875
 20
-51.00146999999992
 30
0.0
 40
63.57555600000001
100
AcDbArc
 50
64.19929699999916
 51
65.26737400000083
  0
ARC
  5
9EB
330
18
100
AcDbEntity
  8
1
100
AcDbCircle
 10
9.662775999999999
 20
-46.77049099999993
 30
0.0
 40
53.52708
100
AcDbArc
 50
91.29372804467129
 51
99.09833499999987
  0
ARC
  5
9EC
330
18
100
AcDbEntity
  8
1
100
AcDbCircle
 10
26.99311400000001
 20
-45.96948799999995
 30
0.0
 40
58.094098
100
AcDbArc
 50
116.3603639999994
 51
117.6064959999989
  0
ARC
  5
9ED
330
18
100
AcDbEntity
  8
1
100
AcDbCircle
 10
-16.72118699999999
 20
-4.127626999999961
 30
0.0
 40
25.097993
100
AcDbArc
 50
2.317473000000168
 51
6.899731999999611
  0
LINE
  5
9EE
330
18
100
AcDbEntity
  8
1
 48
0.000198
100
AcDbLine
 10
8.356204000000001
 20
-3.112758999999925
 30
0.0
 11
8.362287000000002
 21
-3.117835999999951
 31
0.0
  0
ARC
  5
9EF
330
18
100
AcDbEntity
  8
1
100
AcDbCircle
 10
28.237996
 20
-38.59052799999995
 30
0.0
 40
40.661465
100
AcDbArc
 50
117.3929400000009
 51
119.2624930000014
  0
LINE
  5
9F0
330
18
100
AcDbEntity
  8
1
 48
0.039593
100
AcDbLine
 10
9.530001000000002
 20
-0.9042939999999362
 30
0.0
 11
9.529999999999999
 21
-2.488021999999944
 31
0.0
  0
ARC
  5
9F1
330
18
100
AcDbEntity
  8
1
100
AcDbCircle
 10
9.272455
 20
-3.836365999999941
 30
0.0
 40
9.083389
100
AcDbArc
 50
178.1289570000011
 51
184.983107000001
  0
ARC
  5
9F2
330
18
100
AcDbEntity
  8
1
100
AcDbCircle
 10
-11.432936
 20
-24.83403799999996
 30
0.0
 40
23.32927
100
AcDbArc
 50
57.48657499999881
 51
60.02453700000039
  0
SPLINE
  5
9F3
330
18
100
AcDbEntity
  8
1
100
AcDbSpline
210
0.0
220
0.0
230
1.0
 70
     8
 71
     5
 72
    12
 73
     6
 74
     0
 42
0.000000001
 43
0.0000000001
 40
0.0
 40
0.0
 40
0.0
 40
0.0
 40
0.0
 40
0.0
 40
10.76684518419852
 40
10.76684518419852
 40
10.76684518419852
 40
10.76684518419852
 40
10.76684518419852
 40
10.76684518419852
 10
1.106531401611277
 20
-5.161461418509361
 30
0.0
 10
2.564645562416477
 20
-4.819156137291655
 30
0.0
 10
4.018474630631089
 20
-4.438046919435691
 30
0.0
 10
5.46889292598701
 20
-4.022493920355714
 30
0.0
 10
6.914257130119628
 20
-3.579320799985281
 30
0.0
 10
8.356203159860566
 20
-3.113646763646212
 30
0.0
  0
SPLINE
  5
9F4
330
18
100
AcDbEntity
  8
1
100
AcDbSpline
210
0.0
220
0.0
230
1.0
 70
     8
 71
     5
 72
    12
 73
     6
 74
     0
 42
0.000000001
 43
0.0000000001
 40
0.0
 40
0.0
 40
0.0
 40
0.0
 40
0.0
 40
0.0
 40
1.819612408587135
 40
1.819612408587135
 40
1.819612408587135
 40
1.819612408587135
 40
1.819612408587135
 40
1.819612408587135
 10
0.0724045246545906
 20
5.510523757974738
 30
0.0
 10
0.0959730123247944
 20
5.645319074202232
 30
0.0
 10
0.1270272471180647
 20
5.783305908774192
 30
0.0
 10
0.1628047748456538
 20
5.933238159756682
 30
0.0
 10
0.1948250852276843
 20
6.073360754081077
 30
0.0
 10
0.2229898978107272
 20
6.213831582300882
 30
0.0
  0
ARC
  5
9F5
330
18
100
AcDbEntity
  8
1
100
AcDbCircle
 10
0.7341820000000041
 20
5.879314000000077
 30
0.0
 40
0.5073910000000002
100
AcDbArc
 50
23.79807599999969
 51
42.79556500000035
  0
ARC
  5
9F6
330
18
100
AcDbEntity
  8
1
100
AcDbCircle
 10
0.5598750000000017
 20
15.32391800000005
 30
0.0
 40
9.116284999999999
100
AcDbArc
 50
267.882191
 51
273.4378069999999
  0
ARC
  5
9F7
330
18
100
AcDbEntity
  8
1
100
AcDbCircle
 10
8.300000576186945
 20
5.790115122342282
 30
0.0
 40
0.9652333136734963
100
AcDbArc
 50
80.570292343314
 51
86.29969830338469
  0
LINE
  5
9F8
330
18
100
AcDbEntity
  8
1
 48
0.000152
100
AcDbLine
 10
8.356204000000001
 20
6.75329700000003
 30
0.0
 11
8.362287999999999
 21
6.753250000000034
 31
0.0
  0
ARC
  5
9F9
330
18
100
AcDbEntity
  8
1
100
AcDbCircle
 10
8.923854000000002
 20
-49.06382499999995
 30
0.0
 40
55.837776
100
AcDbArc
 50
96.52732600000005
 51
98.04787999999993
  0
ARC
  5
9FA
330
18
100
AcDbEntity
  8
1
100
AcDbCircle
 10
8.544791
 20
-45.43868099999997
 30
0.0
 40
52.19280900000001
100
AcDbArc
 50
90.20702800000007
 51
96.56628599999963
  0
ARC
  5
9FB
330
18
100
AcDbEntity
  8
1
100
AcDbCircle
 10
10.109608
 20
-2.702424999999948
 30
0.0
 40
1.796009999999996
100
AcDbArc
 50
193.373326999999
 51
203.1403980000009
  0
ARC
  5
9FC
330
18
100
AcDbEntity
  8
1
100
AcDbCircle
 10
16.831649
 20
-15.35024099999992
 30
0.0
 40
14.584976
100
AcDbArc
 50
120.0424099999992
 51
125.0374600000009
  0
LINE
  5
9FD
330
18
100
AcDbEntity
  8
1
 48
0.005926
100
AcDbLine
 10
9.529999999999999
 20
-2.72506299999992
 30
0.0
 11
9.529999999999999
 21
-2.488021999999944
 31
0.0
  0
ARC
  5
9FE
330
18
100
AcDbEntity
  8
1
100
AcDbCircle
 10
0.09131
 20
-5.726002999999932
 30
0.0
 40
1.161703
100
AcDbArc
 50
17.63055600000151
 51
29.08905400000033
  0
SPLINE
  5
9FF
330
18
100
AcDbEntity
  8
1
100
AcDbSpline
210
0.0
220
0.0
230
1.0
 70
     8
 71
     5
 72
    12
 73
     6
 74
     0
 42
0.000000001
 43
0.0000000001
 40
0.0
 40
0.0
 40
0.0
 40
0.0
 40
0.0
 40
0.0
 40
10.68356643010968
 40
10.68356643010968
 40
10.68356643010968
 40
10.68356643010968
 40
10.68356643010968
 40
10.68356643010968
 10
1.198429372646635
 20
-5.374169345058021
 30
0.0
 10
2.658737879583402
 20
-5.052238574632781
 30
0.0
 10
4.11476590349897
 20
-4.689682287220421
 30
0.0
 10
5.567463961660255
 20
-4.290852818449081
 30
0.0
 10
7.014657519668232
 20
-3.861833757605038
 30
0.0
 10
8.458156618642098
 20
-3.408216200002356
 30
0.0
  0
SPLINE
  5
A00
330
18
100
AcDbEntity
  8
1
100
AcDbSpline
210
0.0
220
0.0
230
1.0
 70
     8
 71
     5
 72
    12
 73
     6
 74
     0
 42
0.000000001
 43
0.0000000001
 40
0.0
 40
0.0
 40
0.0
 40
0.0
 40
0.0
 40
0.0
 40
1.74623420058748
 40
1.74623420058748
 40
1.74623420058748
 40
1.74623420058748
 40
1.74623420058748
 40
1.74623420058748
 10
0.0724045246546119
 20
-5.126113104709816
 30
0.0
 10
0.0957510162947415
 20
-5.026885686916101
 30
0.0
 10
0.1265771619477434
 20
-4.929942752587237
 30
0.0
 10
0.1629819870570728
 20
-4.82365526541912
 30
0.0
 10
0.1949174814273178
 20
-4.725428668090668
 30
0.0
 10
0.2229898978051814
 20
-4.625408116212611
 30
0.0
  0
LINE
  5
A01
330
18
100
AcDbEntity
  8
1
 48
0.028821
100
AcDbLine
 10
0.0725440000000006
 20
-5.126142999999955
 30
0.0
 11
1.198388000000001
 21
-5.374166999999943
 31
0.0
  0
ARC
  5
A02
330
18
100
AcDbEntity
  8
1
100
AcDbCircle
 10
0.535487
 20
6.364401000000042
 30
0.0
 40
0.346737
100
AcDbArc
 50
172.6787579999998
 51
205.7261509999995
  0
ARC
  5
A03
330
18
100
AcDbEntity
  8
1
100
AcDbCircle
 10
2.494033
 20
-46.67219299999993
 30
0.0
 40
53.130739
100
AcDbArc
 50
89.47942900000009
 51
92.48358700000007
  0
LINE
  5
A04
330
18
100
AcDbEntity
  8
1
 48
0.001088
100
AcDbLine
 10
0.0724720000000012
 20
-5.126047999999966
 30
0.0
 11
0.0422950000000029
 21
-5.09466499999996
 31
0.0
  0
ARC
  5
A05
330
18
100
AcDbEntity
  8
1
100
AcDbCircle
 10
0.2902270000000016
 20
-4.842163999999965
 30
0.0
 40
0.353872
100
AcDbArc
 50
214.8999870000007
 51
225.5231430000013
  0
ARC
  5
A06
330
18
100
AcDbEntity
  8
1
100
AcDbCircle
 10
0.3613509999999991
 20
5.926128000000061
 30
0.0
 40
0.41867
100
AcDbArc
 50
139.6466140000007
 51
149.665747
  0
ARC
  5
A07
330
18
100
AcDbEntity
  8
1
100
AcDbCircle
 10
-1.030407
 20
7.114284000000052
 30
0.0
 40
1.411220999999999
100
AcDbArc
 50
319.4724819999999
 51
329.9976369999993
  0
SPLINE
  5
A08
330
18
100
AcDbEntity
  8
1
100
AcDbSpline
210
0.0
220
0.0
230
1.0
 70
     8
 71
     5
 72
    42
 73
    36
 74
     0
 42
0.000000001
 43
0.0000000001
 40
0.0
 40
0.0
 40
0.0
 40
0.0
 40
0.0
 40
0.0
 40
0.1699857076657501
 40
0.1699857076657501
 40
0.1699857076657501
 40
0.3399714153315003
 40
0.3399714153315003
 40
0.3399714153315003
 40
0.6875931969507507
 40
0.6875931969507507
 40
0.6875931969507507
 40
0.8479753200595807
 40
0.8479753200595807
 40
0.8479753200595807
 40
1.008357443168411
 40
1.008357443168411
 40
1.008357443168411
 40
1.329087145252399
 40
1.329087145252399
 40
1.329087145252399
 40
2.552816736291644
 40
2.552816736291644
 40
2.552816736291644
 40
4.978896818056686
 40
4.978896818056686
 40
4.978896818056686
 40
5.300483553989795
 40
5.300483553989795
 40
5.300483553989795
 40
5.454921706440471
 40
5.454921706440471
 40
5.454921706440471
 40
6.185823281920638
 40
6.185823281920638
 40
6.185823281920638
 40
6.185823281920638
 40
6.185823281920638
 40
6.185823281920638
 10
5.737219260534999
 20
-5.609777607210558
 30
0.0
 10
5.720925577258659
 20
-5.603453421099914
 30
0.0
 10
5.704935007047237
 20
-5.597052693219778
 30
0.0
 10
5.688718623492434
 20
-5.590335673354559
 30
0.0
 10
5.656399035641261
 20
-5.57654495757862
 30
0.0
 10
5.625314987319382
 20
-5.562470606676072
 30
0.0
 10
5.610479228158793
 20
-5.555529939546146
 30
0.0
 10
5.566780476166811
 20
-5.534412384164738
 30
0.0
 10
5.525683778457651
 20
-5.512567327279953
 30
0.0
 10
5.502357769696047
 20
-5.499409463782
 30
0.0
 10
5.464979875548792
 20
-5.476795559687785
 30
0.0
 10
5.431588712394504
 20
-5.454605298142098
 30
0.0
 10
5.421497761596143
 20
-5.447682854588322
 30
0.0
 10
5.401833573621448
 20
-5.433733689324355
 30
0.0
 10
5.38280806243867
 20
-5.419310682133413
 30
0.0
 10
5.373298691983221
 20
-5.411875605657768
 30
0.0
 10
5.34577506096155
 20
-5.389579325322016
 30
0.0
 10
5.320717619559636
 20
-5.366956164691316
 30
0.0
 10
5.305095147035028
 20
-5.351738862817057
 30
0.0
 10
5.235195528209366
 20
-5.278097314820286
 30
0.0
 10
5.189963847262434
 20
-5.202302911423601
 30
0.0
 10
5.168523134811568
 20
-5.141624153518421
 30
0.0
 10
5.142940545889653
 20
-4.962158155260794
 30
0.0
 10
5.216822494045164
 20
-4.78559670506695
 30
0.0
 10
5.297195502676004
 20
-4.671314039150161
 30
0.0
 10
5.413776023455223
 20
-4.545680213785998
 30
0.0
 10
5.554751666479416
 20
-4.422699629909573
 30
0.0
 10
5.569039219255324
 20
-4.410514595642268
 30
0.0
 10
5.59604483331458
 20
-4.387898457394043
 30
0.0
 10
5.622880047326438
 20
-4.366074687303636
 30
0.0
 10
5.631513823553117
 20
-4.35912280269747
 30
0.0
 10
5.680595289083115
 20
-4.320002781212906
 30
0.0
 10
5.731788675345083
 20
-4.281179593362591
 30
0.0
 10
5.774732026326302
 20
-4.249773304682321
 30
0.0
 10
5.818929616510184
 20
-4.218551545769966
 30
0.0
 10
5.864489710797343
 20
-4.187358794473365
 30
0.0
  0
ARC
  5
A09
330
18
100
AcDbEntity
  8
1
100
AcDbCircle
 10
56.424512
 20
-115.8762569999999
 30
0.0
 40
121.358526
100
AcDbArc
 50
113.748971
 51
114.6873040000002
  0
LINE
  5
A0A
330
18
100
AcDbEntity
  8
1
 48
0.004265
100
AcDbLine
 10
9.529999
 20
-2.854683999999963
 30
0.0
 11
9.529999
 21
-2.684096999999951
 31
0.0
  0
ARC
  5
A0B
330
18
100
AcDbEntity
  8
1
100
AcDbCircle
 10
33.47568
 20
96.86008200000003
 30
0.0
 40
106.157896
100
AcDbArc
 50
254.8531180000004
 51
255.9737240000006
  0
LINE
  5
A0C
330
18
100
AcDbEntity
  8
1
 48
0.010557
100
AcDbLine
 10
8.168528000000002
 20
-6.116048999999917
 30
0.0
 11
7.746583000000001
 21
-6.132726999999931
 31
0.0
  0
ARC
  5
A0D
330
18
100
AcDbEntity
  8
1
100
AcDbCircle
 10
-22.802196
 20
56.82513800000004
 30
0.0
 40
70.14814799999999
100
AcDbArc
 50
296.199868
 51
297.3252240000007
  0
LINE
  5
A0E
330
18
100
AcDbEntity
  8
1
 48
0.027422
100
AcDbLine
 10
0.0
 20
-6.141599999999924
 30
0.0
 11
0.0
 21
-5.044718999999926
 31
0.0
  0
LINE
  5
A0F
330
18
100
AcDbEntity
  8
1
 48
0.00053
100
AcDbLine
 10
0.0422950000000029
 20
-6.207235999999965
 30
0.0
 11
0.0297359999999998
 21
-6.190166999999918
 31
0.0
  0
LINE
  5
A10
330
18
100
AcDbEntity
  8
1
 48
0.001424
100
AcDbLine
 10
0.0297359999999998
 20
-6.190166999999918
 30
0.0
 11
0.0
 21
-6.141603999999915
 31
0.0
  0
ARC
  5
A11
330
18
100
AcDbEntity
  8
1
100
AcDbCircle
 10
-1.136198999999997
 20
-7.122935999999922
 30
0.0
 40
1.492375999999999
100
AcDbArc
 50
26.33957900000114
 51
37.84750900000047
  0
ARC
  5
A12
330
18
100
AcDbEntity
  8
1
100
AcDbCircle
 10
1.643543
 20
46.39415500000007
 30
0.0
 40
52.87463299999998
100
AcDbArc
 50
268.4368379999999
 51
271.996875
  0
ARC
  5
A13
330
18
100
AcDbEntity
  8
1
100
AcDbCircle
 10
1.537460000000002
 20
48.72103100000003
 30
0.0
 40
55.20389999999999
100
AcDbArc
 50
272.0227590000001
 51
276.4583159999997
  0
ARC
  5
A14
330
18
100
AcDbEntity
  8
1
100
AcDbCircle
 10
6.400649000000001
 20
-6.980503999999937
 30
0.0
 40
1.968313999999999
100
AcDbArc
 50
6.627263000001352
 51
26.05764600000133
  0
LINE
  5
A15
330
18
100
AcDbEntity
  8
1
 48
0.000152
100
AcDbLine
 10
8.356201000000002
 20
-6.753296999999918
 30
0.0
 11
8.362283000000001
 21
-6.753250999999917
 31
0.0
  0
ARC
  5
A16
330
18
100
AcDbEntity
  8
1
100
AcDbCircle
 10
-19.77052399999999
 20
54.1297300000001
 30
0.0
 40
67.068567
100
AcDbArc
 50
294.8006319999991
 51
295.9046579999994
  0
LINE
  5
A17
330
18
100
AcDbEntity
  8
1
 48
0.017981
100
AcDbLine
 10
9.529999999999999
 20
-5.480596999999931
 30
0.0
 11
9.529999999999999
 21
-6.199827999999968
 31
0.0
  0
ARC
  5
A18
330
18
100
AcDbEntity
  8
1
100
AcDbCircle
 10
8.538442999999999
 20
45.29875300000003
 30
0.0
 40
52.052795
100
AcDbArc
 50
263.9284109999999
 51
269.7994039999999
  0
ARC
  5
A19
330
18
100
AcDbEntity
  8
1
100
AcDbCircle
 10
-18.140875
 20
51.00147000000004
 30
0.0
 40
63.57555600000001
100
AcDbArc
 50
294.7326259999992
 51
295.8007030000008
  0
LINE
  5
A1A
330
18
100
AcDbEntity
  8
1
 48
0.000917
100
AcDbLine
 10
9.529999999999999
 20
-6.199826999999968
 30
0.0
 11
9.529999999999999
 21
-6.236504999999965
 31
0.0
  0
ARC
  5
A1B
330
18
100
AcDbEntity
  8
1
100
AcDbCircle
 10
8.305538000000002
 20
-5.851761999999951
 30
0.0
 40
0.9033599999999999
100
AcDbArc
 50
273.6020759999999
 51
279.7225399999998
  0
LINE
  5
A1C
330
18
100
AcDbEntity
  8
1
 48
0.002188
100
AcDbLine
 10
9.530075999999999
 20
-4.472303999999951
 30
0.0
 11
9.530105000000002
 21
-4.38479799999993
 31
0.0
  0
LINE
  5
A1D
330
18
100
AcDbEntity
  8
1
 48
0.008469
100
AcDbLine
 10
9.529999999999999
 20
-4.46036399999997
 30
0.0
 11
9.529999999999999
 21
-4.121617999999955
 31
0.0
  0
LINE
  5
A1E
330
18
100
AcDbEntity
  8
1
 48
0.000815
100
AcDbLine
 10
9.529999999999999
 20
-4.105785999999966
 30
0.0
 11
9.529999999999999
 21
-4.073173999999935
 31
0.0
  0
LINE
  5
A1F
330
18
100
AcDbEntity
  8
1
 48
0.000396
100
AcDbLine
 10
9.529999999999999
 20
-4.105785999999966
 30
0.0
 11
9.529999999999999
 21
-4.121617999999955
 31
0.0
  0
LINE
  5
A20
330
18
100
AcDbEntity
  8
1
 48
0.005034
100
AcDbLine
 10
9.529999999999999
 20
-4.475134999999966
 30
0.0
 11
9.529999999999999
 21
-4.676512999999943
 31
0.0
  0
LINE
  5
A21
330
18
100
AcDbEntity
  8
1
 48
0.000816
100
AcDbLine
 10
9.529999999999999
 20
-4.421199999999941
 30
0.0
 11
9.529999999999999
 21
-4.388576999999941
 31
0.0
  0
LINE
  5
A22
330
18
100
AcDbEntity
  8
1
 48
0.001348
100
AcDbLine
 10
9.529999999999999
 20
-4.421199999999941
 30
0.0
 11
9.529999999999999
 21
-4.475134999999966
 31
0.0
  0
LINE
  5
A23
330
18
100
AcDbEntity
  8
SK1
 48
0.06384
100
AcDbLine
 10
-2.699999999999998
 20
1.46211800000003
 30
0.0
 11
-2.699999999999998
 21
4.015722000000038
 31
0.0
  0
LINE
  5
A24
330
18
100
AcDbEntity
  8
SK1
 48
0.065853
100
AcDbLine
 10
-0.2842989999999972
 20
1.508214000000065
 30
0.0
 11
-0.2842989999999972
 21
4.142324000000028
 31
0.0
  0
LINE
  5
A25
330
18
100
AcDbEntity
  8
SK1
 48
0.136946
100
AcDbLine
 10
-2.699999999999998
 20
-4.015721999999922
 30
0.0
 11
-2.699999999999998
 21
1.46211800000003
 31
0.0
  0
LINE
  5
A26
330
18
100
AcDbEntity
  8
SK1
 48
0.141263
100
AcDbLine
 10
-0.2842989999999972
 20
-4.142323999999915
 30
0.0
 11
-0.2842989999999972
 21
1.508214000000065
 31
0.0
  0
LINE
  5
A27
330
18
100
AcDbEntity
  8
1
 48
0.053511
100
AcDbLine
 10
0.0
 20
-5.044623999999941
 30
0.0
 11
0.0
 21
-2.904169999999962
 31
0.0
  0
LINE
  5
A28
330
18
100
AcDbEntity
  8
1
 48
0.040434
100
AcDbLine
 10
0.0
 20
0.6189870000000611
 30
0.0
 11
0.0
 21
2.236357000000054
 31
0.0
  0
LINE
  5
A29
330
18
100
AcDbEntity
  8
1
 48
0.015664
100
AcDbLine
 10
0.0
 20
2.236357000000054
 30
0.0
 11
0.0
 21
2.862936000000047
 31
0.0
  0
LINE
  5
A2A
330
18
100
AcDbEntity
  8
1
 48
0.018132
100
AcDbLine
 10
0.0
 20
5.412299000000075
 30
0.0
 11
0.0
 21
6.137573000000029
 31
0.0
  0
LINE
  5
A2B
330
18
100
AcDbEntity
  8
1
 48
0.018117
100
AcDbLine
 10
0.0422950000000029
 20
5.472550000000066
 30
0.0
 11
0.0422950000000029
 21
6.197219000000075
 31
0.0
  0
LINE
  5
A2C
330
18
100
AcDbEntity
  8
1
 48
0.013306
100
AcDbLine
 10
0.0422950000000029
 20
2.260069000000041
 30
0.0
 11
0.0422950000000029
 21
2.792308000000048
 31
0.0
  0
LINE
  5
A2D
330
18
100
AcDbEntity
  8
1
 48
0.040713
100
AcDbLine
 10
0.0422950000000029
 20
0.6315680000000726
 30
0.0
 11
0.0422950000000029
 21
2.260069000000041
 31
0.0
  0
LINE
  5
A2E
330
18
100
AcDbEntity
  8
1
 48
0.051502
100
AcDbLine
 10
0.0422950000000029
 20
-5.09466499999996
 30
0.0
 11
0.0422950000000029
 21
-3.034571999999968
 31
0.0
  0
LINE
  5
A2F
330
18
100
AcDbEntity
  8
1
 48
0.006736
100
AcDbLine
 10
9.529999999999999
 20
5.030286000000043
 30
0.0
 11
9.529999999999999
 21
4.76084000000003
 31
0.0
  0
LINE
  5
A30
330
18
100
AcDbEntity
  8
1
 48
0.000356
100
AcDbLine
 10
9.529999999999999
 20
4.746604000000044
 30
0.0
 11
9.529999999999999
 21
4.76084000000003
 31
0.0
  0
LINE
  5
A31
330
18
100
AcDbEntity
  8
1
 48
0.003484
100
AcDbLine
 10
9.529999999999999
 20
4.746604000000044
 30
0.0
 11
9.529999999999999
 21
4.607235000000058
 31
0.0
  0
LINE
  5
A32
330
18
100
AcDbEntity
  8
1
 48
0.001528
100
AcDbLine
 10
9.529999999999999
 20
4.546132000000056
 30
0.0
 11
9.529999999999999
 21
4.607235000000058
 31
0.0
  0
LINE
  5
A33
330
18
100
AcDbEntity
  8
1
 48
0.002357
100
AcDbLine
 10
9.529999999999999
 20
4.546133000000051
 30
0.0
 11
9.529999999999999
 21
4.451862000000061
 31
0.0
  0
LINE
  5
A34
330
18
100
AcDbEntity
  8
1
 48
0.000157
100
AcDbLine
 10
9.529999999999999
 20
4.454088000000068
 30
0.0
 11
9.529999999999999
 21
4.460364000000081
 31
0.0
  0
LINE
  5
A35
330
18
100
AcDbEntity
  8
1
 48
0.002457
100
AcDbLine
 10
9.529999999999999
 20
-2.684098999999943
 30
0.0
 11
9.529999999999999
 21
-2.585824999999942
 31
0.0
  0
ELLIPSE
  5
A36
330
18
100
AcDbEntity
  8
1
100
AcDbEllipse
 10
9.665000000000002
 20
4.68788800000004
 30
0.0
 11
-0.1630000025033951
 21
0.0
 31
0.0
210
0.0
220
0.0
230
1.0
 40
0.7986360000000003
 41
5.688314416596772
 42
5.920755663028222
  0
LINE
  5
A37
330
18
100
AcDbEntity
  8
1
 48
0.02018
100
AcDbLine
 10
5.648283999999997
 20
4.781979000000035
 30
0.0
 11
6.451923
 21
4.857611000000076
 31
0.0
  0
LINE
  5
A38
102
{ACAD_REACTORS
330
B1C
102
}
330
18
100
AcDbEntity
  8
SK1
 48
0.007765
100
AcDbLine
 10
-2.999999999999998
 20
3.935338000000058
 30
0.0
 11
-2.699999999999998
 21
4.015722000000038
 31
0.0
  0
LINE
  5
A39
330
18
100
AcDbEntity
  8
SK1
 48
0.060475
100
AcDbLine
 10
-2.699999999999998
 20
4.015722000000038
 30
0.0
 11
-0.2842989999999972
 21
4.142324000000028
 31
0.0
  0
LINE
  5
A3A
102
{ACAD_REACTORS
330
B1C
102
}
330
18
100
AcDbEntity
  8
SK1
 48
0.007765
100
AcDbLine
 10
-2.999999999999998
 20
-3.935337999999943
 30
0.0
 11
-2.699999999999998
 21
-4.015721999999922
 31
0.0
  0
ARC
  5
A3B
330
18
100
AcDbEntity
  8
SK1
100
AcDbCircle
 10
-0.2999999999999971
 20
4.441913000000056
 30
0.0
 40
0.3
100
AcDbArc
 50
273.0
 51
0.0
  0
LINE
  5
A3C
330
18
100
AcDbEntity
  8
SK1
 48
0.060475
100
AcDbLine
 10
-2.699999999999998
 20
-4.015721999999922
 30
0.0
 11
-0.2842989999999972
 21
-4.142323999999915
 31
0.0
  0
ARC
  5
A3D
330
18
100
AcDbEntity
  8
SK1
100
AcDbCircle
 10
-0.2999999999999971
 20
-4.441912999999941
 30
0.0
 40
0.3
100
AcDbArc
 50
0.0
 51
86.9999999999999
  0
LINE
  5
A3E
330
18
100
AcDbEntity
  8
1
 48
0.001411
100
AcDbLine
 10
0.0
 20
-6.142175999999947
 30
0.0
 11
0.0297359999999998
 21
-6.190166999999918
 31
0.0
  0
LINE
  5
A47
330
18
100
AcDbEntity
  8
SK4
100
AcDbLine
 10
0.0
 20
0.0
 30
0.0
 11
-4.847032684653783
 21
0.0000000000000568
 31
0.0
  0
INSERT
  5
A5B
330
18
100
AcDbEntity
  8
SK2
100
AcDbBlockReference
  2
CERO_POINT
 10
-0.000000000003638
 20
0.0000000000000568
 30
0.0
  0
DIMENSION
  5
A78
330
18
100
AcDbEntity
  8
2
100
AcDbDimension
  2
*D3
 10
25.72787090856795
 20
-6.746493999902048
 30
0.0
 11
23.23972965768952
 21
-18.74816300903767
 31
0.0
 70
    32
  1
%%c<>
 71
     5
 42
13.49999999999994
  3
DIAMETER
100
AcDbAlignedDimension
 13
8.457979406281031
 23
6.753506000097901
 33
0.0
 14
8.457979406281031
 24
-6.746493999902043
 34
0.0
 50
90.0
100
AcDbRotatedDimension
1001
ACAD_DSTYLE_DIMINSPECT
1070
   396
1000
100%
1070
   395
1000

1070
   394
1070
    33
1070
   393
1070
     0
  0
DIMENSION
  5
B03
102
{ACAD_XDICTIONARY
360
B11
102
}
102
{ACAD_REACTORS
330
B1C
102
}
330
18
100
AcDbEntity
  8
SK2
100
AcDbDimension
  2
*D4
 10
-10.4798031186439
 20
-3.935337999999942
 30
0.0
 11
-10.4798031186439
 21
0.0000000000000575
 31
0.0
 70
   160
  1
BN6
 71
     5
 42
7.870676000000002
  3
STANDARD
100
AcDbAlignedDimension
 13
-2.999999999999998
 23
3.935338000000058
 33
0.0
 14
-2.999999999999998
 24
-3.935337999999943
 34
0.0
 50
90.0
100
AcDbRotatedDimension
1001
ACAD_DSTYLE_DIMINSPECT
1070
   396
1000
100%
1070
   395
1000

1070
   394
1070
    33
1070
   393
1070
     0
  0
DIMENSION
  5
B4E
102
{ACAD_XDICTIONARY
360
B5C
102
}
102
{ACAD_REACTORS
330
B67
102
}
330
18
100
AcDbEntity
  8
2
100
AcDbDimension
  2
*D5
 10
0.3298864233388852
 20
24.06545417683457
 30
0.0
 11
18.42754981054936
 21
24.06545417683457
 31
0.0
 70
   160
 71
     5
 42
9.199999999999999
  3
STANDARD
100
AcDbAlignedDimension
 13
9.529886423338883
 23
6.236456962476609
 33
0.0
 14
0.3298864233388841
 24
6.363832584480632
 34
0.0
100
AcDbRotatedDimension
  0
LWPOLYLINE
  5
BAF
102
{ACAD_REACTORS
330
C34
102
}
330
18
100
AcDbEntity
  8
CUT
100
AcDbPolyline
 90
        7
 70
     1
 43
0.0
 10
0.3298864233388841
 20
0.0000000000000568
 10
0.3298864233388841
 20
6.363832584480632
 10
1.198412517189257
 20
6.753510000009157
 10
8.457979406281031
 20
6.753506000097901
 10
8.993183816115447
 20
6.493850536905878
 42
0.0016239460300027
 10
9.529923914880175
 20
6.23774384101125
 10
9.530363141643935
 20
0.0000000000000568
  0
LWPOLYLINE
  5
BFC
330
18
100
AcDbEntity
  8
NOCUT
100
AcDbPolyline
 90
        7
 70
     1
 43
0.0
 10
0.0422903187011663
 20
6.207296623927447
 42
0.038875663546033
 10
-0.0000000572689913
 20
6.142175724085916
 10
0.0
 20
5.412299000000132
 10
0.0
 20
0.0000000000000568
 10
0.3298864233388841
 20
0.0000000000000568
 10
0.3298864233388841
 20
6.363832584480632
 10
0.072436250952979
 20
6.248356308701088
  0
DIMENSION
  5
C1B
102
{ACAD_XDICTIONARY
360
C29
102
}
102
{ACAD_REACTORS
330
C34
102
}
330
18
100
AcDbEntity
  8
2
100
AcDbDimension
  2
*D6
 10
8.457979406281031
 20
14.83405652544439
 30
0.0
 11
20.76644650766777
 21
14.83405652544439
 31
0.0
 70
   160
 71
     5
 42
1.071907017057849
  3
STANDARD
100
AcDbAlignedDimension
 13
9.529886423338883
 23
6.236456962476609
 33
0.0
 14
8.457979406281031
 24
6.753506000097901
 34
0.0
100
AcDbRotatedDimension
1001
ACAD_DSTYLE_DIMINSPECT
1070
   396
1000
100%
1070
   395
1000

1070
   394
1070
    33
1070
   393
1070
     0
  0
LINE
  5
D33
330
18
100
AcDbEntity
  8
INFTOTAL
100
AcDbLine
 10
12.38896214264272
 20
37.08122562680954
 30
0.0
 11
-43.25279621703671
 21
37.08122562680954
 31
0.0
  0
LINE
  5
D34
330
18
100
AcDbEntity
  8
INFTOTAL
100
AcDbLine
 10
-43.25279621703671
 20
37.08122562680954
 30
0.0
 11
-43.25279621703671
 21
-11.1906451593411
 31
0.0
  0
LINE
  5
D35
330
18
100
AcDbEntity
  8
INFTOTAL
100
AcDbLine
 10
49.40316287169148
 20
-10.94184015079327
 30
0.0
 11
49.40316287169148
 21
-58.71169660710439
 31
0.0
  0
LINE
  5
D36
330
18
100
AcDbEntity
  8
INFTOTAL
100
AcDbLine
 10
49.40316287169148
 20
-58.71169660710439
 30
0.0
 11
-7.813360891637927
 21
-58.71169660710439
 31
0.0
  0
DIMENSION
  5
E48
330
18
100
AcDbEntity
  8
SK2
100
AcDbDimension
  2
*D7
 10
9.529886423338876
 20
5.60315746010182
 30
0.0
 11
-4.384750743723103
 21
12.15724246955517
 31
0.0
 70
   162
 71
     5
 42
0.4363323129985851
  3
STANDARD
100
AcDb2LineAngularDimension
 13
9.529886423338883
 23
6.237761580930352
 33
0.0
 14
10.89079935223955
 24
5.603157460101816
 34
0.0
 15
10.89079935223955
 25
5.603157460101816
 35
0.0
 16
-5.55592507841554
 26
8.012247858467718
 36
0.0
1001
ACAD_DSTYLE_DIMINSPECT
1070
   396
1000
100%
1070
   395
1000

1070
   394
1070
    33
1070
   393
1070
     0
1001
ACAD
1000
DSTYLE
1002
{
1070
   179
1070
     0
1002
}
  0
DIMENSION
  5
EC0
330
18
100
AcDbEntity
  8
2
100
AcDbDimension
  2
*D8
 10
5.201408712441986
 20
0.0000000000000568
 30
0.0
 11
17.65842356866557
 21
2.506657264215393
 31
0.0
 70
   162
 71
     5
 42
0.3490658503988675
  3
STANDARD
100
AcDb2LineAngularDimension
 13
5.221491909464617
 23
0.8632023081474411
 33
0.0
 14
2.849863059408575
 24
0.0000000000000568
 34
0.0
 15
2.849863059408575
 25
0.0000000000000568
 35
0.0
 16
17.46423239073873
 26
3.463669159149949
 36
0.0
1001
ACAD_DSTYLE_DIMINSPECT
1070
   396
1000
100%
1070
   395
1000

1070
   394
1070
    33
1070
   393
1070
     0
1001
ACAD
1000
DSTYLE
1002
{
1070
   179
1070
     0
1002
}
  0
TEXT
  5
100E
330
18
100
AcDbEntity
  8
SK6
100
AcDbText
 10
-18.82685141120548
 20
-49.84562354945772
 30
0.0
 40
3.5
  1
XLB13501R71
100
AcDbText
1001
ACAD
1000
MTEXTBEGIN
1070
    73
1070
     1
1070
    44
1040
1.0
1070
    74
1070
     0
1000
MTEXTEND
  0
ENDSEC
  0
SECTION
  2
OBJECTS
  0
DICTIONARY
  5
C
330
0
100
AcDbDictionary
281
     1
  3
ACAD_2007HEADERVARS_RT
350
1062
  3
ACAD_CIP_PREVIOUS_PRODUCT_INFO
350
741
  3
ACAD_COLOR
350
387
  3
ACAD_DETAILVIEWSTYLE
350
1007
  3
ACAD_GROUP
350
D
  3
ACAD_LAYOUT
350
301
  3
ACAD_MATERIAL
350
386
  3
ACAD_MLEADERSTYLE
350
43C
  3
ACAD_MLINESTYLE
350
E
  3
ACAD_PLOTSETTINGS
350
302
  3
ACAD_PLOTSTYLENAME
350
2FF
  3
ACAD_SCALELIST
350
41A
  3
ACAD_SECTIONVIEWSTYLE
350
1005
  3
ACAD_TABLESTYLE
350
388
  3
ACAD_VISUALSTYLE
350
3F2
  3
ACDB_RECOMPOSE_DATA
350
1060
  3
AcDbVariableDictionary
350
357
  3
AcmDictionary
350
76D
  3
AEC_PROPERTY_SET_DEFS
350
5CF
  3
AMG
350
743
  3
AMGSNAPSETTINGS
350
7F6
  3
ASE_INDEX_DICTIONARY
350
C86
  3
DWGPROPS
350
1061
  0
DICTIONARY
  5
451
330
2
100
AcDbDictionary
280
     1
281
     1
  3
ACAD_LAYERFILTERS
360
6C6
  3
ACAD_LAYERSTATES
360
FE4
  3
ACLYDICTIONARY
360
6C5
  0
DICTIONARY
  5
D72
330
F
100
AcDbDictionary
280
     1
281
     1
  3
ADSK_XREC_LAYER_RECONCILED
360
D73
  0
DICTIONARY
  5
D74
330
23
100
AcDbDictionary
280
     1
281
     1
  3
ADSK_XREC_LAYER_RECONCILED
360
D75
  0
DICTIONARY
  5
D76
330
24
100
AcDbDictionary
280
     1
281
     1
  3
ADSK_XREC_LAYER_RECONCILED
360
D77
  0
DICTIONARY
  5
D78
330
25
100
AcDbDictionary
280
     1
281
     1
  3
ADSK_XREC_LAYER_RECONCILED
360
D79
  0
DICTIONARY
  5
D7A
330
27
100
AcDbDictionary
280
     1
281
     1
  3
ADSK_XREC_LAYER_RECONCILED
360
D7B
  0
DICTIONARY
  5
D7C
330
2A
100
AcDbDictionary
280
     1
281
     1
  3
ADSK_XREC_LAYER_RECONCILED
360
D7D
  0
DICTIONARY
  5
D7E
330
2B
100
AcDbDictionary
280
     1
281
     1
  3
ADSK_XREC_LAYER_RECONCILED
360
D7F
  0
DICTIONARY
  5
D80
330
2E
100
AcDbDictionary
280
     1
281
     1
  3
ADSK_XREC_LAYER_RECONCILED
360
D81
  0
DICTIONARY
  5
D82
330
375
100
AcDbDictionary
280
     1
281
     1
  3
ADSK_XREC_LAYER_RECONCILED
360
D83
  0
DICTIONARY
  5
D84
330
376
100
AcDbDictionary
280
     1
281
     1
  3
ADSK_XREC_LAYER_RECONCILED
360
D85
  0
DICTIONARY
  5
D86
330
49B
100
AcDbDictionary
280
     1
281
     1
  3
ADSK_XREC_LAYER_RECONCILED
360
D87
  0
DICTIONARY
  5
A3F
330
18
100
AcDbDictionary
280
     1
281
     1
  3
ACAD_SORTENTS
360
A40
  0
DICTIONARY
  5
6D1
330
6D0
100
AcDbDictionary
280
     1
281
     1
  3
ACAD_SORTENTS
360
6D2
  0
DICTIONARY
  5
FFE
330
EB7
100
AcDbDictionary
280
     1
281
     1
  3
ACAD_MTEXT_RT
360
10A2
  0
DICTIONARY
  5
1000
330
F52
100
AcDbDictionary
280
     1
281
     1
  3
ACAD_MTEXT_RT
360
10A3
  0
DICTIONARY
  5
B11
330
B03
100
AcDbDictionary
280
     1
281
     1
  3
ACAD_DIMASSOC
360
B1C
  0
DICTIONARY
  5
B5C
330
B4E
100
AcDbDictionary
280
     1
281
     1
  3
ACAD_DIMASSOC
360
B67
  0
DICTIONARY
  5
C29
330
C1B
100
AcDbDictionary
280
     1
281
     1
  3
ACAD_DIMASSOC
360
C34
  0
DICTIONARY
  5
1062
102
{ACAD_REACTORS
330
C
102
}
330
C
100
AcDbDictionary
281
     1
  3
DIMARCSYM
350
1063
  3
DIMLTEX1
350
1065
  3
DIMLTEX2
350
1066
  3
DIMLTYPE
350
1064
  0
XRECORD
  5
741
102
{ACAD_REACTORS
330
C
102
}
330
C
100
AcDbXrecord
280
     1
300
ACDLT
300
2015
300
ACDLT_F_S
  0
DICTIONARY
  5
387
102
{ACAD_REACTORS
330
C
102
}
330
C
100
AcDbDictionary
281
     1
  0
DICTIONARY
  5
1007
102
{ACAD_REACTORS
330
C
102
}
330
C
100
AcDbDictionary
281
     1
  3
Metric50
350
1008
  0
DICTIONARY
  5
D
102
{ACAD_REACTORS
330
C
102
}
330
C
100
AcDbDictionary
281
     1
  0
DICTIONARY
  5
301
102
{ACAD_REACTORS
330
C
102
}
330
C
100
AcDbDictionary
281
     1
  3
Layout1
350
33B
  3
Model
350
303
  0
DICTIONARY
  5
386
102
{ACAD_REACTORS
330
C
102
}
330
C
100
AcDbDictionary
281
     1
  3
ByBlock
350
3F0
  3
ByLayer
350
3EF
  3
Global
350
3F1
  0
DICTIONARY
  5
43C
102
{ACAD_REACTORS
330
C
102
}
330
C
100
AcDbDictionary
281
     1
  3
Standard
350
43D
  0
DICTIONARY
  5
E
102
{ACAD_REACTORS
330
C
102
}
330
C
100
AcDbDictionary
281
     1
  3
STANDARD
350
1B
  0
DICTIONARY
  5
302
102
{ACAD_REACTORS
330
C
102
}
330
C
100
AcDbDictionary
281
     1
  0
ACDBDICTIONARYWDFLT
  5
2FF
102
{ACAD_REACTORS
330
C
102
}
330
C
100
AcDbDictionary
281
     1
  3
Normal
350
300
100
AcDbDictionaryWithDefault
340
300
  0
DICTIONARY
  5
41A
102
{ACAD_REACTORS
330
C
102
}
330
C
100
AcDbDictionary
281
     1
  3
A0
350
41B
  3
A1
350
41C
  3
A2
350
41D
  3
A3
350
41E
  3
A4
350
41F
  3
A5
350
420
  3
A6
350
421
  3
A7
350
422
  3
A8
350
423
  3
A9
350
424
  3
B0
350
425
  3
B1
350
426
  3
B2
350
427
  3
B3
350
428
  3
B4
350
429
  3
B5
350
42A
  3
B6
350
42B
  3
B7
350
42C
  3
B8
350
42D
  3
B9
350
42E
  3
C0
350
42F
  3
C1
350
430
  3
C2
350
431
  3
C3
350
432
  3
C4
350
433
  3
C5
350
434
  3
C6
350
435
  3
C7
350
436
  3
C8
350
437
  3
C9
350
438
  3
D0
350
439
  3
D1
350
43A
  3
D2
350
43B
  0
DICTIONARY
  5
1005
102
{ACAD_REACTORS
330
C
102
}
330
C
100
AcDbDictionary
281
     1
  3
Metric50
350
1006
  0
DICTIONARY
  5
388
102
{ACAD_REACTORS
330
C
102
}
330
C
100
AcDbDictionary
281
     1
  3
Standard
350
389
  0
DICTIONARY
  5
3F2
102
{ACAD_REACTORS
330
C
102
}
330
C
100
AcDbDictionary
281
     1
  3
2dWireframe
350
3F8
  3
3D Hidden
350
3FA
  3
3dWireframe
350
3F9
  3
Basic
350
3F7
  3
Brighten
350
3FE
  3
ColorChange
350
402
  3
Conceptual
350
3FB
  3
Dim
350
3FD
  3
EdgeColorOff
350
73A
  3
Facepattern
350
401
  3
Flat
350
3F3
  3
FlatWithEdges
350
3F4
  3
Gouraud
350
3F5
  3
GouraudWithEdges
350
3F6
  3
Hidden
350
732
  3
JitterOff
350
738
  3
Linepattern
350
400
  3
OverhangOff
350
739
  3
Realistic
350
3FC
  3
Shaded
350
737
  3
Shaded with edges
350
736
  3
Shades of Gray
350
733
  3
Sketchy
350
734
  3
Thicken
350
3FF
  3
Wireframe
350
731
  3
X-Ray
350
735
  0
XRECORD
  5
1060
102
{ACAD_REACTORS
330
C
102
}
330
C
100
AcDbXrecord
280
     1
 90
        1
330
389
  0
DICTIONARY
  5
357
102
{ACAD_REACTORS
330
C
102
}
330
C
100
AcDbDictionary
281
     1
  3
CANNOSCALE
350
449
  3
CMLEADERSTYLE
350
447
  3
CTABLESTYLE
350
38E
  3
CVIEWDETAILSTYLE
350
1010
  3
CVIEWSECTIONSTYLE
350
1011
  3
DIMASSOC
350
359
  3
HIDETEXT
350
358
  3
INDEXCTL
350
F91
  3
LAYEREVAL
350
7AE
  3
LAYERNOTIFY
350
7AF
  3
LIGHTINGUNITS
350
44A
  3
MSLTSCALE
350
448
  3
SOLIDHIST
350
F93
  3
SORTENTS
350
F90
  3
XCLIPFRAME
350
105E
  0
DICTIONARY
  5
76D
102
{ACAD_REACTORS
330
C
102
}
330
C
100
AcDbDictionary
281
     1
  3
AcmStdDictionary
350
76F
  3
AMDTSECTSYM_ARROWCOLOR
350
D71
  0
DICTIONARY
  5
5CF
102
{ACAD_REACTORS
330
C
102
}
330
C
100
AcDbDictionary
281
     1
  0
DICTIONARY
  5
743
102
{ACAD_REACTORS
330
C
102
}
330
C
100
AcDbDictionary
281
     1
  0
DICTIONARY
  5
7F6
102
{ACAD_REACTORS
330
C
102
}
330
C
100
AcDbDictionary
281
     1
  0
DICTIONARY
  5
C86
102
{ACAD_REACTORS
330
C
102
}
330
C
100
AcDbDictionary
281
     1
  3
ASEBlockHierarchyIndexRecord
350
C87
1001
DCO15
1040
1760246296.846
  0
XRECORD
  5
1061
102
{ACAD_REACTORS
330
C
102
}
330
C
100
AcDbXrecord
280
     1
  1
DWGPROPS COOKIE
  2

  3

  4

  6

  7

  8
kamerka
  9

300
=
301
=
302
=
303
=
304
=
305
=
306
=
307
=
308
=
309
=
 40
0.0126547569444445
 41
2456169.530488056
 42
2457338.536741574
  1

 90
        0
  0
DICTIONARY
  5
6C6
102
{ACAD_REACTORS
330
451
102
}
330
451
100
AcDbDictionary
281
     1
  0
DICTIONARY
  5
FE4
102
{ACAD_REACTORS
330
451
102
}
330
451
100
AcDbDictionary
281
     1
  0
DICTIONARY
  5
6C5
102
{ACAD_REACTORS
330
451
102
}
330
451
100
AcDbDictionary
281
     1
1001
ACAD
1000
<All
  0
XRECORD
  5
D73
102
{ACAD_REACTORS
330
D72
102
}
330
D72
100
AcDbXrecord
280
     1
290
     1
  0
XRECORD
  5
D75
102
{ACAD_REACTORS
330
D74
102
}
330
D74
100
AcDbXrecord
280
     1
290
     1
  0
XRECORD
  5
D77
102
{ACAD_REACTORS
330
D76
102
}
330
D76
100
AcDbXrecord
280
     1
290
     1
  0
XRECORD
  5
D79
102
{ACAD_REACTORS
330
D78
102
}
330
D78
100
AcDbXrecord
280
     1
290
     1
  0
XRECORD
  5
D7B
102
{ACAD_REACTORS
330
D7A
102
}
330
D7A
100
AcDbXrecord
280
     1
290
     1
  0
XRECORD
  5
D7D
102
{ACAD_REACTORS
330
D7C
102
}
330
D7C
100
AcDbXrecord
280
     1
290
     1
  0
XRECORD
  5
D7F
102
{ACAD_REACTORS
330
D7E
102
}
330
D7E
100
AcDbXrecord
280
     1
290
     1
  0
XRECORD
  5
D81
102
{ACAD_REACTORS
330
D80
102
}
330
D80
100
AcDbXrecord
280
     1
290
     1
  0
XRECORD
  5
D83
102
{ACAD_REACTORS
330
D82
102
}
330
D82
100
AcDbXrecord
280
     1
290
     1
  0
XRECORD
  5
D85
102
{ACAD_REACTORS
330
D84
102
}
330
D84
100
AcDbXrecord
280
     1
290
     1
  0
XRECORD
  5
D87
102
{ACAD_REACTORS
330
D86
102
}
330
D86
100
AcDbXrecord
280
     1
290
     1
  0
SORTENTSTABLE
  5
A40
102
{ACAD_REACTORS
330
A3F
102
}
330
A3F
100
AcDbSortentsTable
330
18
331
A0C
  5
A0D
331
100E
  5
100E
331
A08
  5
A09
331
99C
  5
99D
331
A47
  5
A74
331
D36
  5
D36
331
998
  5
999
331
9D7
  5
9D8
331
A04
  5
A05
331
A00
  5
A01
331
994
  5
995
331
9D3
  5
9D4
331
990
  5
991
331
C1B
  5
C1B
331
95C
  5
95D
331
958
  5
959
331
9FC
  5
9FD
331
9CF
  5
9D0
331
9CB
  5
9CC
331
9F8
  5
9F9
331
98C
  5
98D
331
A37
  5
A38
331
A33
  5
A34
331
988
  5
989
331
9C7
  5
9C8
331
9F4
  5
9F5
331
9F0
  5
9F1
331
984
  5
985
331
9C3
  5
9C4
331
980
  5
981
331
B03
  5
B03
331
A2F
  5
A30
331
A2B
  5
A2C
331
9BF
  5
9C0
331
9BB
  5
9BC
331
97C
  5
97D
331
A27
  5
A28
331
A23
  5
A24
331
9B7
  5
9B8
331
9EC
  5
9ED
331
978
  5
979
331
9E8
  5
9E9
331
974
  5
975
331
9B3
  5
9B4
331
970
  5
971
331
A3E
  5
A47
331
A3A
  5
A3B
331
A1F
  5
A20
331
9E4
  5
9E5
331
A1B
  5
A1C
331
9AF
  5
9B0
331
9E0
  5
9E1
331
A17
  5
A18
331
96C
  5
96D
331
9AB
  5
9AC
331
A13
  5
A14
331
9A7
  5
9A8
331
9DC
  5
9DD
331
968
  5
969
331
964
  5
965
331
9A3
  5
9A4
331
9D8
  5
9D9
331
960
  5
961
331
A0F
  5
A10
331
A0B
  5
A0C
331
99F
  5
9A0
331
A07
  5
A08
331
99B
  5
99C
331
D35
  5
D35
331
997
  5
998
331
9D6
  5
9D7
331
A03
  5
A04
331
993
  5
994
331
9D2
  5
9D3
331
95F
  5
960
331
95B
  5
95C
331
B4E
  5
B4E
331
9FF
  5
A00
331
9FB
  5
9FC
331
98F
  5
990
331
9CE
  5
9CF
331
9CA
  5
9CB
331
9F7
  5
9F8
331
98B
  5
98C
331
A36
  5
A37
331
A32
  5
A33
331
987
  5
988
331
9C6
  5
9C7
331
9F3
  5
9F4
331
983
  5
984
331
9C2
  5
9C3
331
957
  5
958
331
947
  5
947
331
A2E
  5
A2F
331
A2A
  5
A2B
331
97F
  5
980
331
9BE
  5
9BF
331
9BA
  5
9BB
331
9EF
  5
9F0
331
97B
  5
97C
331
A26
  5
A27
331
A22
  5
A23
331
977
  5
978
331
9B6
  5
9B7
331
9EB
  5
9EC
331
973
  5
974
331
9B2
  5
9B3
331
A3D
  5
A3E
331
A39
  5
A3A
331
9E7
  5
9E8
331
A1E
  5
A1F
331
9E3
  5
9E4
331
A1A
  5
A1B
331
96F
  5
970
331
9AE
  5
9AF
331
9AA
  5
9AB
331
9DF
  5
9E0
331
96B
  5
96C
331
A16
  5
A17
331
A12
  5
A13
331
9A6
  5
9A7
331
9DB
  5
9DC
331
967
  5
968
331
963
  5
964
331
9A2
  5
9A3
331
A0E
  5
A0F
331
A0A
  5
A0B
331
99E
  5
99F
331
A06
  5
A07
331
99A
  5
99B
331
A02
  5
A03
331
D34
  5
D34
331
996
  5
997
331
9D5
  5
9D6
331
992
  5
993
331
9D1
  5
9D2
331
95E
  5
95F
331
95A
  5
95B
331
9FE
  5
9FF
331
9FA
  5
9FB
331
98E
  5
98F
331
9CD
  5
9CE
331
A35
  5
A36
331
9C9
  5
9CA
331
9F6
  5
9F7
331
98A
  5
98B
331
A31
  5
A32
331
BFC
  5
BFB
331
986
  5
987
331
9C5
  5
9C6
331
9F2
  5
9F3
331
982
  5
983
331
9C1
  5
9C2
331
956
  5
957
331
A2D
  5
A2E
331
A29
  5
A2A
331
97E
  5
97F
331
9BD
  5
9BE
331
9B9
  5
9BA
331
9EE
  5
9EF
331
97A
  5
97B
331
A25
  5
A26
331
A21
  5
A22
331
976
  5
977
331
9B5
  5
9B6
331
9EA
  5
9EB
331
972
  5
973
331
9B1
  5
9B2
331
A3C
  5
A3D
331
A38
  5
A39
331
A78
  5
A78
331
9E6
  5
9E7
331
A1D
  5
A1E
331
9E2
  5
9E3
331
A19
  5
A1A
331
96E
  5
96F
331
9AD
  5
9AE
331
9A9
  5
9AA
331
9DE
  5
9DF
331
96A
  5
96B
331
A15
  5
A16
331
A11
  5
A12
331
966
  5
967
331
9A5
  5
9A6
331
9DA
  5
9DB
331
962
  5
963
331
9A1
  5
9A2
331
A5B
  5
A75
331
EC0
  5
EC0
331
E48
  5
E48
331
A0D
  5
A0E
331
A09
  5
A0A
331
99D
  5
99E
331
999
  5
99A
331
A05
  5
A06
331
A01
  5
A02
331
D33
  5
D33
331
995
  5
996
331
9D4
  5
9D5
331
991
  5
992
331
9D0
  5
9D1
331
95D
  5
95E
331
959
  5
95A
331
9FD
  5
9FE
331
9CC
  5
9CD
331
9F9
  5
9FA
331
98D
  5
98E
331
A34
  5
A35
331
9C8
  5
9C9
331
9F5
  5
9F6
331
989
  5
98A
331
9F1
  5
9F2
331
A30
  5
A31
331
985
  5
986
331
9C4
  5
9C5
331
981
  5
982
331
9C0
  5
9C1
331
955
  5
956
331
A2C
  5
A2D
331
BAF
  5
BAA
331
A28
  5
A29
331
97D
  5
97E
331
9BC
  5
9BD
331
A24
  5
A25
331
9B8
  5
9B9
331
9ED
  5
9EE
331
979
  5
97A
331
A20
  5
A21
331
975
  5
976
331
9B4
  5
9B5
331
9E9
  5
9EA
331
971
  5
972
331
9B0
  5
9B1
331
A3B
  5
A3C
331
9E5
  5
9E6
331
A1C
  5
A1D
331
9E1
  5
9E2
331
A18
  5
A19
331
96D
  5
96E
331
9AC
  5
9AD
331
9A8
  5
9A9
331
9DD
  5
9DE
331
969
  5
96A
331
A14
  5
A15
331
A10
  5
A11
331
965
  5
966
331
9A4
  5
9A5
331
9D9
  5
9DA
331
961
  5
962
331
9A0
  5
9A1
  0
SORTENTSTABLE
  5
6D2
102
{ACAD_REACTORS
330
6D1
102
}
330
6D1
100
AcDbSortentsTable
330
6D0
  0
XRECORD
  5
10A2
102
{ACAD_REACTORS
330
FFE
102
}
330
FFE
100
AcDbXrecord
280
     1
 40
2571.0
  1
25°
  0
XRECORD
  5
10A3
102
{ACAD_REACTORS
330
1000
102
}
330
1000
100
AcDbXrecord
280
     1
 40
2561.0
  1
20°
  0
DIMASSOC
  5
B1C
102
{ACAD_REACTORS
330
B11
102
}
330
B11
100
AcDbDimAssoc
330
B03
 90
        3
 70
     0
 71
     0
  1
AcDbOsnapPointRef
 72
    13
331
A38
 73
     2
 91
        0
 40
0.0
 10
0.0
 20
0.0
 30
2.000000000000000E+50
 75
     0
  1
AcDbOsnapPointRef
 72
    13
331
A3A
 73
     2
 91
        0
 40
0.0
 10
0.0
 20
0.0
 30
2.000000000000000E+50
 75
     0
  0
DIMASSOC
  5
B67
102
{ACAD_REACTORS
330
B5C
102
}
330
B5C
100
AcDbDimAssoc
330
B4E
 90
        1
 70
     0
 71
     0
  1
AcDbOsnapPointRef
 72
    13
331
9EA
 73
     2
 91
        0
 40
1.120489110115709
 10
0.0
 20
0.0
 30
2.000000000000000E+50
 75
     0
  0
DIMASSOC
  5
C34
102
{ACAD_REACTORS
330
C29
102
}
330
C29
100
AcDbDimAssoc
330
C1B
 90
        2
 70
     0
 71
     0
  1
AcDbOsnapPointRef
 72
     1
331
BAF
 73
     2
 91
        3
 40
1.0
 10
0.0
 20
0.0
 30
2.000000000000000E+50
 75
     0
  0
XRECORD
  5
1063
102
{ACAD_REACTORS
330
1062
102
}
330
1062
100
AcDbXrecord
280
     1
 70
     1
  0
XRECORD
  5
1065
102
{ACAD_REACTORS
330
1062
102
}
330
1062
100
AcDbXrecord
280
     1
340
12
  0
XRECORD
  5
1066
102
{ACAD_REACTORS
330
1062
102
}
330
1062
100
AcDbXrecord
280
     1
340
12
  0
XRECORD
  5
1064
102
{ACAD_REACTORS
330
1062
102
}
330
1062
100
AcDbXrecord
280
     1
340
12
  0
ACDBDETAILVIEWSTYLE
  5
1008
102
{ACAD_XDICTIONARY
360
10A6
102
}
102
{ACAD_REACTORS
330
1007
102
}
330
1007
100
AcDbModelDocViewStyle
 70
     0
  3
Metric50
290
     0
100
AcDbDetailViewStyle
 70
     0
 71
     0
 90
        3
 71
     1
340
10
 40
5.0
340
0
 40
5.0
300

 40
0.0
280
     1
 71
     2
340
14
 90
       25
 71
     3
340
10
 40
5.0
 90
        0
 40
15.0
 90
        1
300
%<\AcVar ViewDetailId>% (%<\AcVar ViewScale \f "%sn">%)
 71
     4
340
14
 90
       25
340
14
 90
       25
280
     0
  0
LAYOUT
  5
33B
102
{ACAD_XDICTIONARY
360
1069
102
}
102
{ACAD_REACTORS
330
301
102
}
330
301
100
AcDbPlotSettings
  1

  2
Lexmark Optra PS2
  4

  6

 40
0.0
 41
0.0
 42
0.0
 43
0.0
 44
0.0
 45
0.0
 46
0.0
 47
0.0
 48
0.0
 49
0.0
140
0.0
141
0.0
142
1.0
143
1.0
 70
   688
 72
     0
 73
     0
 74
     5
  7
monochrome.ctb
 75
    16
147
1.0
148
0.0
149
0.0
100
AcDbLayout
  1
Layout1
 70
     1
 71
     1
 10
0.0
 20
0.0
 11
12.0
 21
9.0
 12
0.0
 22
0.0
 32
0.0
 14
0.0
 24
0.0
 34
0.0
 15
0.0
 25
0.0
 35
0.0
146
0.0
 13
0.0
 23
0.0
 33
0.0
 16
1.0
 26
0.0
 36
0.0
 17
0.0
 27
1.0
 37
0.0
 76
     0
330
338
  0
LAYOUT
  5
303
102
{ACAD_XDICTIONARY
360
1067
102
}
102
{ACAD_REACTORS
330
301
102
}
330
301
100
AcDbPlotSettings
  1

  2
Default Windows System Printer.pc3
  4
A4
  6

 40
6.805083274841307
 41
5.535083293914794
 42
6.974411010742187
 43
7.14373779296875
 44
209.9733276367186
 45
296.9259948730469
 46
67.83299579489725
 47
0.0
 48
0.0
 49
0.0
140
0.0
141
0.0
142
1.0
143
0.3604333568168785
 70
  3764
 72
     1
 73
     1
 74
     1
  7
monochrome.ctb
 75
     0
147
2.774437995504559
148
-82.35087775247029
149
-53.69369632994493
100
AcDbLayout
  1
Model
 70
     1
 71
     0
 10
0.0
 20
0.0
 11
12.0
 21
9.0
 12
0.0
 22
0.0
 32
0.0
 14
0.0
 24
0.0
 34
0.0
 15
0.0
 25
0.0
 35
0.0
146
0.0
 13
0.0
 23
0.0
 33
0.0
 16
1.0
 26
0.0
 36
0.0
 17
0.0
 27
1.0
 37
0.0
 76
     0
330
18
331
3ED
1001
ACAD_PSEXT
1000
Default Windows System Printer.pc3
1000
Lexmark Optra Rx
1000
Lexmark Rx
1000
Erstellt von Lexmark Benutzerdefinierte Installation,Nov 13,2005,10:03
1070
     0
  0
MATERIAL
  5
3F0
102
{ACAD_XDICTIONARY
360
FA0
102
}
102
{ACAD_REACTORS
330
386
102
}
330
386
100
AcDbMaterial
  1
ByBlock
 73
     1
 78
     1
172
     1
176
     1
270
     1
274
     1
  0
MATERIAL
  5
3EF
102
{ACAD_XDICTIONARY
360
F9E
102
}
102
{ACAD_REACTORS
330
386
102
}
330
386
100
AcDbMaterial
  1
ByLayer
 73
     1
 78
     1
172
     1
176
     1
270
     1
274
     1
  0
MATERIAL
  5
3F1
102
{ACAD_XDICTIONARY
360
FA2
102
}
102
{ACAD_REACTORS
330
386
102
}
330
386
100
AcDbMaterial
  1
Global
 73
     1
 78
     1
172
     1
176
     1
270
     1
274
     1
  0
MLEADERSTYLE
  5
43D
102
{ACAD_XDICTIONARY
360
108C
102
}
102
{ACAD_REACTORS
330
43C
102
}
330
43C
100
AcDbMLeaderStyle
170
     2
171
     1
172
     0
 90
        2
 40
0.0
 41
0.0
173
     1
 91
-1056964608
340
12
 92
       -2
290
     1
 42
2.0
291
     1
 43
0.36
  3
Standard
 44
4.0
300

342
10
174
     1
178
     6
175
     1
176
     0
 93
-1056964608
 45
4.0
292
     0
297
     0
 46
4.0
 94
-1056964608
 47
1.0
 49
1.0
140
1.0
293
     1
141
0.0
294
     1
177
     0
142
1.0
295
     0
296
     0
143
0.125
1001
ACAD_MLEADERVER
1070
     2
  0
MLINESTYLE
  5
1B
102
{ACAD_REACTORS
330
E
102
}
330
E
100
AcDbMlineStyle
  2
STANDARD
 70
     0
  3

 62
     0
 51
90.0
 52
90.0
 71
     2
 49
0.5
 62
   256
  6
BYLAYER
 49
-0.5
 62
   256
  6
BYLAYER
  0
ACDBPLACEHOLDER
  5
300
102
{ACAD_REACTORS
330
2FF
102
}
330
2FF
  0
SCALE
  5
41B
102
{ACAD_REACTORS
330
41A
102
}
330
41A
100
AcDbScale
 70
     0
300
1:1
140
1.0
141
1.0
290
     1
  0
SCALE
  5
41C
102
{ACAD_REACTORS
330
41A
102
}
330
41A
100
AcDbScale
 70
     0
300
1:2
140
1.0
141
2.0
290
     0
  0
SCALE
  5
41D
102
{ACAD_REACTORS
330
41A
102
}
330
41A
100
AcDbScale
 70
     0
300
1:4
140
1.0
141
4.0
290
     0
  0
SCALE
  5
41E
102
{ACAD_REACTORS
330
41A
102
}
330
41A
100
AcDbScale
 70
     0
300
1:5
140
1.0
141
5.0
290
     0
  0
SCALE
  5
41F
102
{ACAD_REACTORS
330
41A
102
}
330
41A
100
AcDbScale
 70
     0
300
1:8
140
1.0
141
8.0
290
     0
  0
SCALE
  5
420
102
{ACAD_REACTORS
330
41A
102
}
330
41A
100
AcDbScale
 70
     0
300
1:10
140
1.0
141
10.0
290
     0
  0
SCALE
  5
421
102
{ACAD_REACTORS
330
41A
102
}
330
41A
100
AcDbScale
 70
     0
300
1:16
140
1.0
141
16.0
290
     0
  0
SCALE
  5
422
102
{ACAD_REACTORS
330
41A
102
}
330
41A
100
AcDbScale
 70
     0
300
1:20
140
1.0
141
20.0
290
     0
  0
SCALE
  5
423
102
{ACAD_REACTORS
330
41A
102
}
330
41A
100
AcDbScale
 70
     0
300
1:30
140
1.0
141
30.0
290
     0
  0
SCALE
  5
424
102
{ACAD_REACTORS
330
41A
102
}
330
41A
100
AcDbScale
 70
     0
300
1:40
140
1.0
141
40.0
290
     0
  0
SCALE
  5
425
102
{ACAD_REACTORS
330
41A
102
}
330
41A
100
AcDbScale
 70
     0
300
1:50
140
1.0
141
50.0
290
     0
  0
SCALE
  5
426
102
{ACAD_REACTORS
330
41A
102
}
330
41A
100
AcDbScale
 70
     0
300
1:100
140
1.0
141
100.0
290
     0
  0
SCALE
  5
427
102
{ACAD_REACTORS
330
41A
102
}
330
41A
100
AcDbScale
 70
     0
300
2:1
140
2.0
141
1.0
290
     0
  0
SCALE
  5
428
102
{ACAD_REACTORS
330
41A
102
}
330
41A
100
AcDbScale
 70
     0
300
4:1
140
4.0
141
1.0
290
     0
  0
SCALE
  5
429
102
{ACAD_REACTORS
330
41A
102
}
330
41A
100
AcDbScale
 70
     0
300
8:1
140
8.0
141
1.0
290
     0
  0
SCALE
  5
42A
102
{ACAD_REACTORS
330
41A
102
}
330
41A
100
AcDbScale
 70
     0
300
10:1
140
10.0
141
1.0
290
     0
  0
SCALE
  5
42B
102
{ACAD_REACTORS
330
41A
102
}
330
41A
100
AcDbScale
 70
     0
300
100:1
140
100.0
141
1.0
290
     0
  0
SCALE
  5
42C
102
{ACAD_REACTORS
330
41A
102
}
330
41A
100
AcDbScale
 70
     0
300
1/128" = 1'-0"
140
0.0078125
141
12.0
290
     0
  0
SCALE
  5
42D
102
{ACAD_REACTORS
330
41A
102
}
330
41A
100
AcDbScale
 70
     0
300
1/64" = 1'-0"
140
0.015625
141
12.0
290
     0
  0
SCALE
  5
42E
102
{ACAD_REACTORS
330
41A
102
}
330
41A
100
AcDbScale
 70
     0
300
1/32" = 1'-0"
140
0.03125
141
12.0
290
     0
  0
SCALE
  5
42F
102
{ACAD_REACTORS
330
41A
102
}
330
41A
100
AcDbScale
 70
     0
300
1/16" = 1'-0"
140
0.0625
141
12.0
290
     0
  0
SCALE
  5
430
102
{ACAD_REACTORS
330
41A
102
}
330
41A
100
AcDbScale
 70
     0
300
3/32" = 1'-0"
140
0.09375
141
12.0
290
     0
  0
SCALE
  5
431
102
{ACAD_REACTORS
330
41A
102
}
330
41A
100
AcDbScale
 70
     0
300
1/8" = 1'-0"
140
0.125
141
12.0
290
     0
  0
SCALE
  5
432
102
{ACAD_REACTORS
330
41A
102
}
330
41A
100
AcDbScale
 70
     0
300
3/16" = 1'-0"
140
0.1875
141
12.0
290
     0
  0
SCALE
  5
433
102
{ACAD_REACTORS
330
41A
102
}
330
41A
100
AcDbScale
 70
     0
300
1/4" = 1'-0"
140
0.25
141
12.0
290
     0
  0
SCALE
  5
434
102
{ACAD_REACTORS
330
41A
102
}
330
41A
100
AcDbScale
 70
     0
300
3/8" = 1'-0"
140
0.375
141
12.0
290
     0
  0
SCALE
  5
435
102
{ACAD_REACTORS
330
41A
102
}
330
41A
100
AcDbScale
 70
     0
300
1/2" = 1'-0"
140
0.5
141
12.0
290
     0
  0
SCALE
  5
436
102
{ACAD_REACTORS
330
41A
102
}
330
41A
100
AcDbScale
 70
     0
300
3/4" = 1'-0"
140
0.75
141
12.0
290
     0
  0
SCALE
  5
437
102
{ACAD_REACTORS
330
41A
102
}
330
41A
100
AcDbScale
 70
     0
300
1" = 1'-0"
140
1.0
141
12.0
290
     0
  0
SCALE
  5
438
102
{ACAD_REACTORS
330
41A
102
}
330
41A
100
AcDbScale
 70
     0
300
1-1/2" = 1'-0"
140
1.5
141
12.0
290
     0
  0
SCALE
  5
439
102
{ACAD_REACTORS
330
41A
102
}
330
41A
100
AcDbScale
 70
     0
300
3" = 1'-0"
140
3.0
141
12.0
290
     0
  0
SCALE
  5
43A
102
{ACAD_REACTORS
330
41A
102
}
330
41A
100
AcDbScale
 70
     0
300
6" = 1'-0"
140
6.0
141
12.0
290
     0
  0
SCALE
  5
43B
102
{ACAD_REACTORS
330
41A
102
}
330
41A
100
AcDbScale
 70
     0
300
1'-0" = 1'-0"
140
12.0
141
12.0
290
     0
  0
ACDBSECTIONVIEWSTYLE
  5
1006
102
{ACAD_XDICTIONARY
360
10A4
102
}
102
{ACAD_REACTORS
330
1005
102
}
330
1005
100
AcDbModelDocViewStyle
 70
     0
  3
Metric50
290
     0
100
AcDbSectionViewStyle
 70
     0
 71
     0
 90
      102
 71
     1
340
10
 40
5.0
340
0
340
0
 40
5.0
300
I, O, Q, S, X, Z
 40
10.0
 90
        0
 40
2.5
 90
        0
 71
     2
340
14
 90
       25
340
14
 90
       50
 40
5.0
 40
2.5
 40
5.0
 71
     3
340
10
 40
5.0
 90
        0
 40
15.0
 90
        1
300
%<\AcVar ViewSectionStartId>%-%<\AcVar ViewSectionEndId>% (%<\AcVar ViewScale \f "%sn">%)
 71
     4
300
ANSI31
 40
1.0
 90
        0
290
     0
290
     0
 90
        6
 40
0.0
 40
1.570796326794896
 40
0.2617993877991494
 40
1.308996938995747
 40
-0.2617993877991494
 40
1.832595714594045
  0
TABLESTYLE
  5
389
102
{ACAD_XDICTIONARY
360
444
102
}
102
{ACAD_REACTORS
330
388
102
}
330
388
100
AcDbTableStyle
  3
Standard
 70
     0
 71
     0
 40
1.5
 41
1.5
280
     0
281
     0
  7
STANDARD
140
4.5
170
     2
 62
     0
 63
     7
283
     0
274
    -2
284
     1
 64
     0
275
    -2
285
     1
 65
     0
276
    -2
286
     1
 66
     0
277
    -2
287
     1
 67
     0
278
    -2
288
     1
 68
     0
279
    -2
289
     1
 69
     0
  7
STANDARD
140
6.0
170
     5
 62
     0
 63
     7
283
     0
274
    -2
284
     1
 64
     0
275
    -2
285
     1
 65
     0
276
    -2
286
     1
 66
     0
277
    -2
287
     1
 67
     0
278
    -2
288
     1
 68
     0
279
    -2
289
     1
 69
     0
  7
STANDARD
140
4.5
170
     5
 62
     0
 63
     7
283
     0
274
    -2
284
     1
 64
     0
275
    -2
285
     1
 65
     0
276
    -2
286
     1
 66
     0
277
    -2
287
     1
 67
     0
278
    -2
288
     1
 68
     0
279
    -2
289
     1
 69
     0
  0
VISUALSTYLE
  5
3F8
102
{ACAD_XDICTIONARY
360
1076
102
}
102
{ACAD_REACTORS
330
3F2
102
}
330
3F2
100
AcDbVisualStyle
  2

 70
     4
 71
     0
 72
     2
 73
     0
 90
        0
 40
-0.6
 41
-30.0
 62
     5
 63
     7
 74
     1
 91
        4
 64
     7
 65
   257
 75
     1
175
     1
 42
1.0
 92
        0
 66
   257
 43
1.0
 76
     1
 77
     6
 78
     2
 67
     7
 79
     5
170
     0
171
     0
290
     0
174
     0
 93
        1
 44
0.0
173
     0
291
     0
 45
0.0
1001
ACAD
1000
AcDbSavedByObjectVersion
1070
     0
  0
VISUALSTYLE
  5
3FA
102
{ACAD_XDICTIONARY
360
107A
102
}
102
{ACAD_REACTORS
330
3F2
102
}
330
3F2
100
AcDbVisualStyle
  2

 70
     6
 71
     1
 72
     2
 73
     2
 90
        0
 40
-0.6
 41
-30.0
 62
     5
 63
     7
 74
     2
 91
        2
 64
     7
 65
   257
 75
     2
175
     1
 42
40.0
 92
        0
 66
   257
 43
1.0
 76
     1
 77
     6
 78
     2
 67
     7
 79
     3
170
     0
171
     0
290
     0
174
     0
 93
        1
 44
0.0
173
     0
291
     0
 45
0.0
1001
ACAD
1000
AcDbSavedByObjectVersion
1070
     0
  0
VISUALSTYLE
  5
3F9
102
{ACAD_XDICTIONARY
360
1078
102
}
102
{ACAD_REACTORS
330
3F2
102
}
330
3F2
100
AcDbVisualStyle
  2

 70
     5
 71
     0
 72
     2
 73
     0
 90
        0
 40
-0.6
 41
-30.0
 62
     5
 63
     7
 74
     1
 91
        4
 64
     7
 65
   257
 75
     1
175
     1
 42
1.0
 92
        0
 66
   257
 43
1.0
 76
     1
 77
     6
 78
     2
 67
     7
 79
     5
170
     0
171
     0
290
     0
174
     0
 93
        1
 44
0.0
173
     0
291
     0
 45
0.0
1001
ACAD
1000
AcDbSavedByObjectVersion
1070
     0
  0
VISUALSTYLE
  5
3F7
102
{ACAD_XDICTIONARY
360
1074
102
}
102
{ACAD_REACTORS
330
3F2
102
}
330
3F2
100
AcDbVisualStyle
  2

 70
     7
 71
     1
 72
     0
 73
     1
 90
        0
 40
-0.6
 41
-30.0
 62
     5
 63
     7
 74
     0
 91
        4
 64
     7
 65
   257
 75
     1
175
     1
 42
1.0
 92
        8
 66
     7
 43
1.0
 76
     1
 77
     6
 78
     2
 67
     7
 79
     5
170
     0
171
     0
290
     0
174
     0
 93
        1
 44
0.0
173
     0
291
     1
 45
0.0
1001
ACAD
1000
AcDbSavedByObjectVersion
1070
     0
  0
VISUALSTYLE
  5
3FE
102
{ACAD_XDICTIONARY
360
1082
102
}
102
{ACAD_REACTORS
330
3F2
102
}
330
3F2
100
AcDbVisualStyle
  2

 70
    12
 71
     2
 72
     2
 73
     0
 90
        0
 40
-0.6
 41
-30.0
 62
     5
 63
     7
 74
     1
 91
        4
 64
     7
 65
   257
 75
     1
175
     1
 42
1.0
 92
        8
 66
     7
 43
1.0
 76
     1
 77
     6
 78
     2
 67
     7
 79
     5
170
     0
171
     0
290
     0
174
     0
 93
        1
 44
50.0
173
     0
291
     1
 45
0.0
1001
ACAD
1000
AcDbSavedByObjectVersion
1070
     0
  0
VISUALSTYLE
  5
402
102
{ACAD_XDICTIONARY
360
108A
102
}
102
{ACAD_REACTORS
330
3F2
102
}
330
3F2
100
AcDbVisualStyle
  2

 70
    16
 71
     2
 72
     2
 73
     3
 90
        0
 40
-0.6
 41
-30.0
 62
     5
 63
     8
 74
     1
 91
        4
 64
     7
 65
   257
 75
     1
175
     1
 42
1.0
 92
        8
 66
     8
 43
1.0
 76
     1
 77
     6
 78
     2
 67
     7
 79
     5
170
     0
171
     0
290
     0
174
     0
 93
        1
 44
0.0
173
     0
291
     1
 45
0.0
1001
ACAD
1000
AcDbSavedByObjectVersion
1070
     0
  0
VISUALSTYLE
  5
3FB
102
{ACAD_XDICTIONARY
360
107C
102
}
102
{ACAD_REACTORS
330
3F2
102
}
330
3F2
100
AcDbVisualStyle
  2

 70
     9
 71
     3
 72
     2
 73
     0
 90
        0
 40
-0.6
 41
-30.0
 62
     5
 63
     7
 74
     2
 91
        2
 64
     7
 65
   257
 75
     1
175
     1
 42
40.0
 92
        8
 66
     7
 43
1.0
 76
     1
 77
     6
 78
     2
 67
     7
 79
     3
170
     0
171
     0
290
     0
174
     0
 93
        1
 44
0.0
173
     0
291
     0
 45
0.0
1001
ACAD
1000
AcDbSavedByObjectVersion
1070
     0
  0
VISUALSTYLE
  5
3FD
102
{ACAD_XDICTIONARY
360
1080
102
}
102
{ACAD_REACTORS
330
3F2
102
}
330
3F2
100
AcDbVisualStyle
  2

 70
    11
 71
     2
 72
     2
 73
     0
 90
        0
 40
-0.6
 41
-30.0
 62
     5
 63
     7
 74
     1
 91
        4
 64
     7
 65
   257
 75
     1
175
     1
 42
1.0
 92
        8
 66
     7
 43
1.0
 76
     1
 77
     6
 78
     2
 67
     7
 79
     5
170
     0
171
     0
290
     0
174
     0
 93
        1
 44
-50.0
173
     0
291
     1
 45
0.0
1001
ACAD
1000
AcDbSavedByObjectVersion
1070
     0
  0
VISUALSTYLE
  5
73A
102
{ACAD_XDICTIONARY
360
10A0
102
}
102
{ACAD_REACTORS
330
3F2
102
}
330
3F2
100
AcDbVisualStyle
  2

 70
    22
 71
     2
 72
     2
 73
     0
 90
        0
 40
-0.6
 41
-30.0
 62
     5
 63
     7
 74
     1
 91
        4
 64
     7
 65
   257
 75
     1
175
     1
 42
1.0
 92
        8
 66
     7
 43
1.0
 76
     1
 77
     6
 78
     2
 67
     7
 79
     5
170
     0
171
     0
290
     0
174
     0
 93
        1
 44
0.0
173
     0
291
     1
 45
0.0
1001
ACAD
1000
AcDbSavedByObjectVersion
1070
     0
  0
VISUALSTYLE
  5
401
102
{ACAD_XDICTIONARY
360
1088
102
}
102
{ACAD_REACTORS
330
3F2
102
}
330
3F2
100
AcDbVisualStyle
  2

 70
    15
 71
     2
 72
     2
 73
     0
 90
        0
 40
-0.6
 41
-30.0
 62
     5
 63
     7
 74
     1
 91
        4
 64
     7
 65
   257
 75
     1
175
     1
 42
1.0
 92
        8
 66
     7
 43
1.0
 76
     1
 77
     6
 78
     2
 67
     7
 79
     5
170
     0
171
     0
290
     0
174
     0
 93
        1
 44
0.0
173
     0
291
     1
 45
0.0
1001
ACAD
1000
AcDbSavedByObjectVersion
1070
     0
  0
VISUALSTYLE
  5
3F3
102
{ACAD_XDICTIONARY
360
106C
102
}
102
{ACAD_REACTORS
330
3F2
102
}
330
3F2
100
AcDbVisualStyle
  2

 70
     0
 71
     2
 72
     1
 73
     1
 90
        2
 40
-0.6
 41
30.0
 62
     5
 63
     7
 74
     0
 91
        4
 64
     7
 65
   257
 75
     1
175
     1
 42
1.0
 92
        8
 66
     7
 43
1.0
 76
     1
 77
     6
 78
     2
 67
     7
 79
     5
170
     0
171
     0
290
     0
174
     0
 93
       13
 44
0.0
173
     0
291
     1
 45
0.0
1001
ACAD
1000
AcDbSavedByObjectVersion
1070
     0
  0
VISUALSTYLE
  5
3F4
102
{ACAD_XDICTIONARY
360
106E
102
}
102
{ACAD_REACTORS
330
3F2
102
}
330
3F2
100
AcDbVisualStyle
  2

 70
     1
 71
     2
 72
     1
 73
     1
 90
        2
 40
-0.6
 41
30.0
 62
     5
 63
     7
 74
     1
 91
        4
 64
     7
 65
   257
 75
     1
175
     1
 42
1.0
 92
        0
 66
   257
 43
1.0
 76
     1
 77
     6
 78
     2
 67
     7
 79
     5
170
     0
171
     0
290
     0
174
     0
 93
       13
 44
0.0
173
     0
291
     1
 45
0.0
1001
ACAD
1000
AcDbSavedByObjectVersion
1070
     0
  0
VISUALSTYLE
  5
3F5
102
{ACAD_XDICTIONARY
360
1070
102
}
102
{ACAD_REACTORS
330
3F2
102
}
330
3F2
100
AcDbVisualStyle
  2

 70
     2
 71
     2
 72
     2
 73
     1
 90
        2
 40
-0.6
 41
30.0
 62
     5
 63
     7
 74
     0
 91
        4
 64
     7
 65
   257
 75
     1
175
     1
 42
1.0
 92
        0
 66
     7
 43
1.0
 76
     1
 77
     6
 78
     2
 67
     7
 79
     5
170
     0
171
     0
290
     0
174
     0
 93
       13
 44
0.0
173
     0
291
     1
 45
0.0
1001
ACAD
1000
AcDbSavedByObjectVersion
1070
     0
  0
VISUALSTYLE
  5
3F6
102
{ACAD_XDICTIONARY
360
1072
102
}
102
{ACAD_REACTORS
330
3F2
102
}
330
3F2
100
AcDbVisualStyle
  2

 70
     3
 71
     2
 72
     2
 73
     1
 90
        2
 40
-0.6
 41
30.0
 62
     5
 63
     7
 74
     1
 91
        4
 64
     7
 65
   257
 75
     1
175
     1
 42
1.0
 92
        0
 66
   257
 43
1.0
 76
     1
 77
     6
 78
     2
 67
     7
 79
     5
170
     0
171
     0
290
     0
174
     0
 93
       13
 44
0.0
173
     0
291
     1
 45
0.0
1001
ACAD
1000
AcDbSavedByObjectVersion
1070
     0
  0
VISUALSTYLE
  5
732
102
{ACAD_XDICTIONARY
360
1090
102
}
102
{ACAD_REACTORS
330
3F2
102
}
330
3F2
100
AcDbVisualStyle
  2

 70
     6
 71
     1
 72
     2
 73
     2
 90
        0
 40
-0.6
 41
-30.0
 62
     5
 63
     7
 74
     2
 91
        2
 64
     7
 65
   257
 75
     2
175
     1
 42
40.0
 92
        0
 66
   257
 43
1.0
 76
     1
 77
     6
 78
     2
 67
     7
 79
     3
170
     0
171
     0
290
     0
174
     0
 93
        1
 44
0.0
173
     0
291
     0
 45
0.0
1001
ACAD
1000
AcDbSavedByObjectVersion
1070
     0
  0
VISUALSTYLE
  5
738
102
{ACAD_XDICTIONARY
360
109C
102
}
102
{ACAD_REACTORS
330
3F2
102
}
330
3F2
100
AcDbVisualStyle
  2

 70
    20
 71
     2
 72
     2
 73
     0
 90
        0
 40
-0.6
 41
-30.0
 62
     5
 63
     7
 74
     1
 91
        4
 64
     7
 65
   257
 75
     1
175
     1
 42
1.0
 92
       10
 66
     7
 43
1.0
 76
     1
 77
     6
 78
     2
 67
     7
 79
     5
170
     0
171
     0
290
     0
174
     0
 93
        1
 44
0.0
173
     0
291
     1
 45
0.0
1001
ACAD
1000
AcDbSavedByObjectVersion
1070
     0
  0
VISUALSTYLE
  5
400
102
{ACAD_XDICTIONARY
360
1086
102
}
102
{ACAD_REACTORS
330
3F2
102
}
330
3F2
100
AcDbVisualStyle
  2

 70
    14
 71
     2
 72
     2
 73
     0
 90
        0
 40
-0.6
 41
-30.0
 62
     5
 63
     7
 74
     1
 91
        4
 64
     7
 65
   257
 75
     7
175
     7
 42
1.0
 92
        8
 66
     7
 43
1.0
 76
     1
 77
     6
 78
     2
 67
     7
 79
     5
170
     0
171
     0
290
     0
174
     0
 93
        1
 44
0.0
173
     0
291
     1
 45
0.0
1001
ACAD
1000
AcDbSavedByObjectVersion
1070
     0
  0
VISUALSTYLE
  5
739
102
{ACAD_XDICTIONARY
360
109E
102
}
102
{ACAD_REACTORS
330
3F2
102
}
330
3F2
100
AcDbVisualStyle
  2

 70
    21
 71
     2
 72
     2
 73
     0
 90
        0
 40
-0.6
 41
-30.0
 62
     5
 63
     7
 74
     1
 91
        4
 64
     7
 65
   257
 75
     1
175
     1
 42
1.0
 92
        9
 66
     7
 43
1.0
 76
     1
 77
     6
 78
     2
 67
     7
 79
     5
170
     0
171
     0
290
     0
174
     0
 93
        1
 44
0.0
173
     0
291
     1
 45
0.0
1001
ACAD
1000
AcDbSavedByObjectVersion
1070
     0
  0
VISUALSTYLE
  5
3FC
102
{ACAD_XDICTIONARY
360
107E
102
}
102
{ACAD_REACTORS
330
3F2
102
}
330
3F2
100
AcDbVisualStyle
  2

 70
     8
 71
     2
 72
     2
 73
     0
 90
        0
 40
-0.6
 41
-30.0
 62
     5
 63
     7
 74
     1
 91
        0
 64
     7
 65
   257
 75
     1
175
     1
 42
1.0
 92
        8
 66
     8
 43
1.0
 76
     1
 77
     6
 78
     2
 67
     7
 79
     5
170
     0
171
     0
290
     0
174
     0
 93
       13
 44
0.0
173
     0
291
     0
 45
0.0
1001
ACAD
1000
AcDbSavedByObjectVersion
1070
     0
  0
VISUALSTYLE
  5
737
102
{ACAD_XDICTIONARY
360
109A
102
}
102
{ACAD_REACTORS
330
3F2
102
}
330
3F2
100
AcDbVisualStyle
  2

 70
    27
 71
     2
 72
     2
 73
     1
 90
        2
 40
-0.6
 41
30.0
 62
     5
 63
     7
 74
     0
 91
        4
 64
     7
 65
   257
 75
     1
175
     1
 42
1.0
 92
        8
 66
   257
 43
1.0
 76
     1
 77
     6
 78
     2
 67
     8
 79
     3
170
     0
171
     0
290
     0
174
     0
 93
        5
 44
0.0
173
     0
291
     0
 45
0.0
1001
ACAD
1000
AcDbSavedByObjectVersion
1070
     0
  0
VISUALSTYLE
  5
736
102
{ACAD_XDICTIONARY
360
1098
102
}
102
{ACAD_REACTORS
330
3F2
102
}
330
3F2
100
AcDbVisualStyle
  2

 70
    26
 71
     2
 72
     2
 73
     1
 90
        2
 40
-0.6
 41
30.0
 62
     5
 63
     7
 74
     1
 91
       10
 64
     7
 65
   257
 75
     2
175
     1
 42
1.0
 92
        8
 66
   257
 43
1.0
 76
     1
 77
     6
 78
     2
 67
     7
 79
     3
170
     0
171
     0
290
     0
174
     0
 93
        5
 44
0.0
173
     0
291
     0
 45
0.0
1001
ACAD
1000
AcDbSavedByObjectVersion
1070
     0
  0
VISUALSTYLE
  5
733
102
{ACAD_XDICTIONARY
360
1092
102
}
102
{ACAD_REACTORS
330
3F2
102
}
330
3F2
100
AcDbVisualStyle
  2

 70
    23
 71
     2
 72
     2
 73
     3
 90
        0
 40
-0.6
 41
-30.0
 62
     5
 63
     7
 74
     2
 91
        2
 64
     7
 65
     7
 75
     1
175
     1
 42
40.0
 92
        8
 66
     7
 43
1.0
 76
     1
 77
     6
 78
     2
 67
     7
 79
     3
170
     0
171
     0
290
     0
174
     0
 93
        1
 44
0.0
173
     0
291
     0
 45
0.0
1001
ACAD
1000
AcDbSavedByObjectVersion
1070
     0
  0
VISUALSTYLE
  5
734
102
{ACAD_XDICTIONARY
360
1094
102
}
102
{ACAD_REACTORS
330
3F2
102
}
330
3F2
100
AcDbVisualStyle
  2

 70
    24
 71
     1
 72
     2
 73
     2
 90
        0
 40
-0.6
 41
-30.0
 62
     5
 63
     7
 74
     2
 91
        2
 64
     7
 65
     7
 75
     1
175
     1
 42
40.0
 92
       11
 66
     7
 43
1.0
 76
     1
 77
     6
 78
     2
 67
     7
 79
     6
170
     0
171
     0
290
     0
174
     0
 93
        1
 44
0.0
173
     0
291
     0
 45
0.0
1001
ACAD
1000
AcDbSavedByObjectVersion
1070
     0
  0
VISUALSTYLE
  5
3FF
102
{ACAD_XDICTIONARY
360
1084
102
}
102
{ACAD_REACTORS
330
3F2
102
}
330
3F2
100
AcDbVisualStyle
  2

 70
    13
 71
     2
 72
     2
 73
     0
 90
        0
 40
-0.6
 41
-30.0
 62
     5
 63
     7
 74
     1
 91
        4
 64
     7
 65
   257
 75
     1
175
     1
 42
1.0
 92
       12
 66
     7
 43
1.0
 76
     1
 77
     6
 78
     2
 67
     7
 79
     5
170
     0
171
     0
290
     0
174
     0
 93
        1
 44
0.0
173
     0
291
     1
 45
0.0
1001
ACAD
1000
AcDbSavedByObjectVersion
1070
     0
  0
VISUALSTYLE
  5
731
102
{ACAD_XDICTIONARY
360
108E
102
}
102
{ACAD_REACTORS
330
3F2
102
}
330
3F2
100
AcDbVisualStyle
  2

 70
     5
 71
     0
 72
     2
 73
     0
 90
        0
 40
-0.6
 41
-30.0
 62
     5
 63
     7
 74
     1
 91
        4
 64
     7
 65
   257
 75
     1
175
     1
 42
1.0
 92
        0
 66
   257
 43
1.0
 76
     1
 77
     6
 78
     2
 67
     7
 79
     3
170
     0
171
     0
290
     0
174
     0
 93
        1
 44
0.0
173
     0
291
     0
 45
0.0
1001
ACAD
1000
AcDbSavedByObjectVersion
1070
     0
  0
VISUALSTYLE
  5
735
102
{ACAD_XDICTIONARY
360
1096
102
}
102
{ACAD_REACTORS
330
3F2
102
}
330
3F2
100
AcDbVisualStyle
  2

 70
    25
 71
     2
 72
     2
 73
     1
 90
        1
 40
0.5
 41
-30.0
 62
     5
 63
     7
 74
     1
 91
        0
 64
     7
 65
   257
 75
     1
175
     1
 42
1.0
 92
        8
 66
     7
 43
1.0
 76
     1
 77
     6
 78
     2
 67
     7
 79
     3
170
     0
171
     0
290
     0
174
     0
 93
       13
 44
0.0
173
     0
291
     0
 45
0.0
1001
ACAD
1000
AcDbSavedByObjectVersion
1070
     0
  0
DICTIONARYVAR
  5
449
102
{ACAD_REACTORS
330
357
102
}
330
357
100
DictionaryVariables
280
     0
  1
1:1
  0
DICTIONARYVAR
  5
447
102
{ACAD_REACTORS
330
357
102
}
330
357
100
DictionaryVariables
280
     0
  1
STANDARD
  0
DICTIONARYVAR
  5
38E
102
{ACAD_REACTORS
330
357
102
}
330
357
100
DictionaryVariables
280
     0
  1
STANDARD
  0
DICTIONARYVAR
  5
1010
102
{ACAD_REACTORS
330
357
102
}
330
357
100
DictionaryVariables
280
     0
  1
Metric50
  0
DICTIONARYVAR
  5
1011
102
{ACAD_REACTORS
330
357
102
}
330
357
100
DictionaryVariables
280
     0
  1
Metric50
  0
DICTIONARYVAR
  5
359
102
{ACAD_REACTORS
330
357
102
}
330
357
100
DictionaryVariables
280
     0
  1
2
  0
DICTIONARYVAR
  5
358
102
{ACAD_REACTORS
330
357
102
}
330
357
100
DictionaryVariables
280
     0
  1
1
  0
DICTIONARYVAR
  5
F91
102
{ACAD_REACTORS
330
357
102
}
330
357
100
DictionaryVariables
280
     0
  1
0
  0
DICTIONARYVAR
  5
7AE
102
{ACAD_REACTORS
330
357
102
}
330
357
100
DictionaryVariables
280
     0
  1
1
  0
DICTIONARYVAR
  5
7AF
102
{ACAD_REACTORS
330
357
102
}
330
357
100
DictionaryVariables
280
     0
  1
15
  0
DICTIONARYVAR
  5
44A
102
{ACAD_REACTORS
330
357
102
}
330
357
100
DictionaryVariables
280
     0
  1
0
  0
DICTIONARYVAR
  5
448
102
{ACAD_REACTORS
330
357
102
}
330
357
100
DictionaryVariables
280
     0
  1
0
  0
DICTIONARYVAR
  5
F93
102
{ACAD_REACTORS
330
357
102
}
330
357
100
DictionaryVariables
280
     0
  1
1
  0
DICTIONARYVAR
  5
F90
102
{ACAD_REACTORS
330
357
102
}
330
357
100
DictionaryVariables
280
     0
  1
127
  0
DICTIONARYVAR
  5
105E
102
{ACAD_REACTORS
330
357
102
}
330
357
100
DictionaryVariables
280
     0
  1
2
  0
DICTIONARY
  5
76F
102
{ACAD_REACTORS
330
76D
102
}
330
76D
100
AcDbDictionary
281
     1
  0
XRECORD
  5
D71
102
{ACAD_REACTORS
330
76D
102
}
330
76D
100
AcDbXrecord
280
     1
 90
-1023410169
  0
XRECORD
  5
C87
102
{ACAD_REACTORS
330
C86
102
}
330
C86
100
AcDbXrecord
280
     1
330
A5B
330
A6F
  0
DICTIONARY
  5
10A6
330
1008
100
AcDbDictionary
280
     1
281
     1
  3
ACAD_XREC_ROUNDTRIP
360
10A7
  0
DICTIONARY
  5
1069
330
33B
100
AcDbDictionary
280
     1
281
     1
  3
ACAD_XREC_ROUNDTRIP
360
106A
  0
DICTIONARY
  5
1067
330
303
100
AcDbDictionary
280
     1
281
     1
  3
ACAD_XREC_ROUNDTRIP
360
1068
  0
DICTIONARY
  5
FA0
330
3F0
100
AcDbDictionary
280
     1
281
     1
  3
ACAD_XREC_ROUNDTRIP
360
FA1
  0
DICTIONARY
  5
F9E
330
3EF
100
AcDbDictionary
280
     1
281
     1
  3
ACAD_XREC_ROUNDTRIP
360
F9F
  0
DICTIONARY
  5
FA2
330
3F1
100
AcDbDictionary
280
     1
281
     1
  3
ACAD_XREC_ROUNDTRIP
360
FA3
  0
DICTIONARY
  5
108C
330
43D
100
AcDbDictionary
280
     1
281
     1
  3
ACAD_XREC_ROUNDTRIP
360
108D
  0
DICTIONARY
  5
10A4
330
1006
100
AcDbDictionary
280
     1
281
     1
  3
ACAD_XREC_ROUNDTRIP
360
10A5
  0
DICTIONARY
  5
444
330
389
100
AcDbDictionary
280
     1
281
     1
  3
ACAD_ROUNDTRIP_2008_TABLESTYLE_CELLSTYLEMAP
360
105F
  3
ACAD_XREC_ROUNDTRIP
360
106B
  0
DICTIONARY
  5
1076
330
3F8
100
AcDbDictionary
280
     1
281
     1
  3
ACAD_XREC_ROUNDTRIP
360
1077
  0
DICTIONARY
  5
107A
330
3FA
100
AcDbDictionary
280
     1
281
     1
  3
ACAD_XREC_ROUNDTRIP
360
107B
  0
DICTIONARY
  5
1078
330
3F9
100
AcDbDictionary
280
     1
281
     1
  3
ACAD_XREC_ROUNDTRIP
360
1079
  0
DICTIONARY
  5
1074
330
3F7
100
AcDbDictionary
280
     1
281
     1
  3
ACAD_XREC_ROUNDTRIP
360
1075
  0
DICTIONARY
  5
1082
330
3FE
100
AcDbDictionary
280
     1
281
     1
  3
ACAD_XREC_ROUNDTRIP
360
1083
  0
DICTIONARY
  5
108A
330
402
100
AcDbDictionary
280
     1
281
     1
  3
ACAD_XREC_ROUNDTRIP
360
108B
  0
DICTIONARY
  5
107C
330
3FB
100
AcDbDictionary
280
     1
281
     1
  3
ACAD_XREC_ROUNDTRIP
360
107D
  0
DICTIONARY
  5
1080
330
3FD
100
AcDbDictionary
280
     1
281
     1
  3
ACAD_XREC_ROUNDTRIP
360
1081
  0
DICTIONARY
  5
10A0
330
73A
100
AcDbDictionary
280
     1
281
     1
  3
ACAD_XREC_ROUNDTRIP
360
10A1
  0
DICTIONARY
  5
1088
330
401
100
AcDbDictionary
280
     1
281
     1
  3
ACAD_XREC_ROUNDTRIP
360
1089
  0
DICTIONARY
  5
106C
330
3F3
100
AcDbDictionary
280
     1
281
     1
  3
ACAD_XREC_ROUNDTRIP
360
106D
  0
DICTIONARY
  5
106E
330
3F4
100
AcDbDictionary
280
     1
281
     1
  3
ACAD_XREC_ROUNDTRIP
360
106F
  0
DICTIONARY
  5
1070
330
3F5
100
AcDbDictionary
280
     1
281
     1
  3
ACAD_XREC_ROUNDTRIP
360
1071
  0
DICTIONARY
  5
1072
330
3F6
100
AcDbDictionary
280
     1
281
     1
  3
ACAD_XREC_ROUNDTRIP
360
1073
  0
DICTIONARY
  5
1090
330
732
100
AcDbDictionary
280
     1
281
     1
  3
ACAD_XREC_ROUNDTRIP
360
1091
  0
DICTIONARY
  5
109C
330
738
100
AcDbDictionary
280
     1
281
     1
  3
ACAD_XREC_ROUNDTRIP
360
109D
  0
DICTIONARY
  5
1086
330
400
100
AcDbDictionary
280
     1
281
     1
  3
ACAD_XREC_ROUNDTRIP
360
1087
  0
DICTIONARY
  5
109E
330
739
100
AcDbDictionary
280
     1
281
     1
  3
ACAD_XREC_ROUNDTRIP
360
109F
  0
DICTIONARY
  5
107E
330
3FC
100
AcDbDictionary
280
     1
281
     1
  3
ACAD_XREC_ROUNDTRIP
360
107F
  0
DICTIONARY
  5
109A
330
737
100
AcDbDictionary
280
     1
281
     1
  3
ACAD_XREC_ROUNDTRIP
360
109B
  0
DICTIONARY
  5
1098
330
736
100
AcDbDictionary
280
     1
281
     1
  3
ACAD_XREC_ROUNDTRIP
360
1099
  0
DICTIONARY
  5
1092
330
733
100
AcDbDictionary
280
     1
281
     1
  3
ACAD_XREC_ROUNDTRIP
360
1093
  0
DICTIONARY
  5
1094
330
734
100
AcDbDictionary
280
     1
281
     1
  3
ACAD_XREC_ROUNDTRIP
360
1095
  0
DICTIONARY
  5
1084
330
3FF
100
AcDbDictionary
280
     1
281
     1
  3
ACAD_XREC_ROUNDTRIP
360
1085
  0
DICTIONARY
  5
108E
330
731
100
AcDbDictionary
280
     1
281
     1
  3
ACAD_XREC_ROUNDTRIP
360
108F
  0
DICTIONARY
  5
1096
330
735
100
AcDbDictionary
280
     1
281
     1
  3
ACAD_XREC_ROUNDTRIP
360
1097
  0
XRECORD
  5
10A7
102
{ACAD_REACTORS
330
10A6
102
}
330
10A6
100
AcDbXrecord
280
     1
102
DISPLAYNAME
  1
Metric50
102
FLAGS
 90
        0
  0
XRECORD
  5
106A
102
{ACAD_REACTORS
330
1069
102
}
330
1069
100
AcDbXrecord
280
     1
102
SHADEPLOT
 70
     0
102
SHADEPLOTRESLEVEL
 70
     2
102
SHADEPLOTCUSTOMDPI
 70
   300
  0
XRECORD
  5
1068
102
{ACAD_REACTORS
330
1067
102
}
330
1067
100
AcDbXrecord
280
     1
102
SHADEPLOT
 70
     1
102
SHADEPLOTRESLEVEL
 70
     2
102
SHADEPLOTCUSTOMDPI
 70
   300
  0
XRECORD
  5
FA1
102
{ACAD_REACTORS
330
FA0
102
}
330
FA0
100
AcDbXrecord
280
     1
102
MATERIAL
148
0.0
149
0.0
149
0.0
 93
        0
 94
      127
282
     0
 72
     1
 77
     1
171
     1
175
     1
179
     1
273
     0
  0
XRECORD
  5
F9F
102
{ACAD_REACTORS
330
F9E
102
}
330
F9E
100
AcDbXrecord
280
     1
102
MATERIAL
148
0.0
149
0.0
149
0.0
 93
        0
 94
      127
282
     0
 72
     1
 77
     1
171
     1
175
     1
179
     1
273
     0
  0
XRECORD
  5
FA3
102
{ACAD_REACTORS
330
FA2
102
}
330
FA2
100
AcDbXrecord
280
     1
102
MATERIAL
148
0.0
149
0.0
149
0.0
 93
        0
 94
      127
282
     0
 72
     1
 77
     1
171
     1
175
     1
179
     1
273
     0
  0
XRECORD
  5
108D
102
{ACAD_REACTORS
330
108C
102
}
330
108C
100
AcDbXrecord
280
     1
102
ACAD_ROUNDTRIP_2012_MLEADER_STYLE
298
     1
  0
XRECORD
  5
10A5
102
{ACAD_REACTORS
330
10A4
102
}
330
10A4
100
AcDbXrecord
280
     1
102
DISPLAYNAME
  1
Metric50
102
FLAGS
 90
        0
  0
CELLSTYLEMAP
  5
105F
102
{ACAD_REACTORS
330
444
102
}
330
444
100
AcDbCellStyleMap
 90
        3
300
CELLSTYLE
  1
TABLEFORMAT_BEGIN
 90
        5
170
     1
 91
        0
 92
    32768
 62
   257
 93
        1
300
CONTENTFORMAT
  1
CONTENTFORMAT_BEGIN
 90
        0
 91
        0
 92
        4
 93
        0
300

 40
0.0
140
1.0
 94
        5
 62
     0
340
10
144
6.0
309
CONTENTFORMAT_END
171
     1
301
MARGIN
  1
CELLMARGIN_BEGIN
 40
1.5
 40
1.5
 40
1.5
 40
1.5
 40
0.18
 40
0.18
309
CELLMARGIN_END
 94
        6
 95
        1
302
GRIDFORMAT
  1
GRIDFORMAT_BEGIN
 90
        0
 91
        1
 62
     0
 92
       -2
340
0
 93
        0
 40
0.045
309
GRIDFORMAT_END
 95
        2
302
GRIDFORMAT
  1
GRIDFORMAT_BEGIN
 90
        0
 91
        1
 62
     0
 92
       -2
340
0
 93
        0
 40
0.045
309
GRIDFORMAT_END
 95
        4
302
GRIDFORMAT
  1
GRIDFORMAT_BEGIN
 90
        0
 91
        1
 62
     0
 92
       -2
340
0
 93
        0
 40
0.045
309
GRIDFORMAT_END
 95
        8
302
GRIDFORMAT
  1
GRIDFORMAT_BEGIN
 90
        0
 91
        1
 62
     0
 92
       -2
340
0
 93
        0
 40
0.045
309
GRIDFORMAT_END
 95
       16
302
GRIDFORMAT
  1
GRIDFORMAT_BEGIN
 90
        0
 91
        1
 62
     0
 92
       -2
340
0
 93
        0
 40
0.045
309
GRIDFORMAT_END
 95
       32
302
GRIDFORMAT
  1
GRIDFORMAT_BEGIN
 90
        0
 91
        1
 62
     0
 92
       -2
340
0
 93
        0
 40
0.045
309
GRIDFORMAT_END
309
TABLEFORMAT_END
  1
CELLSTYLE_BEGIN
 90
        1
 91
        1
300
_TITLE
309
CELLSTYLE_END
300
CELLSTYLE
  1
TABLEFORMAT_BEGIN
 90
        5
170
     1
 91
        0
 92
        0
 62
   257
 93
        1
300
CONTENTFORMAT
  1
CONTENTFORMAT_BEGIN
 90
        0
 91
        0
 92
        4
 93
        0
300

 40
0.0
140
1.0
 94
        5
 62
     0
340
10
144
4.5
309
CONTENTFORMAT_END
171
     1
301
MARGIN
  1
CELLMARGIN_BEGIN
 40
1.5
 40
1.5
 40
1.5
 40
1.5
 40
0.18
 40
0.18
309
CELLMARGIN_END
 94
        6
 95
        1
302
GRIDFORMAT
  1
GRIDFORMAT_BEGIN
 90
        0
 91
        1
 62
     0
 92
       -2
340
0
 93
        0
 40
0.045
309
GRIDFORMAT_END
 95
        2
302
GRIDFORMAT
  1
GRIDFORMAT_BEGIN
 90
        0
 91
        1
 62
     0
 92
       -2
340
0
 93
        0
 40
0.045
309
GRIDFORMAT_END
 95
        4
302
GRIDFORMAT
  1
GRIDFORMAT_BEGIN
 90
        0
 91
        1
 62
     0
 92
       -2
340
0
 93
        0
 40
0.045
309
GRIDFORMAT_END
 95
        8
302
GRIDFORMAT
  1
GRIDFORMAT_BEGIN
 90
        0
 91
        1
 62
     0
 92
       -2
340
0
 93
        0
 40
0.045
309
GRIDFORMAT_END
 95
       16
302
GRIDFORMAT
  1
GRIDFORMAT_BEGIN
 90
        0
 91
        1
 62
     0
 92
       -2
340
0
 93
        0
 40
0.045
309
GRIDFORMAT_END
 95
       32
302
GRIDFORMAT
  1
GRIDFORMAT_BEGIN
 90
        0
 91
        1
 62
     0
 92
       -2
340
0
 93
        0
 40
0.045
309
GRIDFORMAT_END
309
TABLEFORMAT_END
  1
CELLSTYLE_BEGIN
 90
        2
 91
        1
300
_HEADER
309
CELLSTYLE_END
300
CELLSTYLE
  1
TABLEFORMAT_BEGIN
 90
        5
170
     1
 91
        0
 92
        0
 62
   257
 93
        1
300
CONTENTFORMAT
  1
CONTENTFORMAT_BEGIN
 90
        0
 91
        0
 92
        4
 93
        0
300

 40
0.0
140
1.0
 94
        2
 62
     0
340
10
144
4.5
309
CONTENTFORMAT_END
171
     1
301
MARGIN
  1
CELLMARGIN_BEGIN
 40
1.5
 40
1.5
 40
1.5
 40
1.5
 40
0.18
 40
0.18
309
CELLMARGIN_END
 94
        6
 95
        1
302
GRIDFORMAT
  1
GRIDFORMAT_BEGIN
 90
        0
 91
        1
 62
     0
 92
       -2
340
0
 93
        0
 40
0.045
309
GRIDFORMAT_END
 95
        2
302
GRIDFORMAT
  1
GRIDFORMAT_BEGIN
 90
        0
 91
        1
 62
     0
 92
       -2
340
0
 93
        0
 40
0.045
309
GRIDFORMAT_END
 95
        4
302
GRIDFORMAT
  1
GRIDFORMAT_BEGIN
 90
        0
 91
        1
 62
     0
 92
       -2
340
0
 93
        0
 40
0.045
309
GRIDFORMAT_END
 95
        8
302
GRIDFORMAT
  1
GRIDFORMAT_BEGIN
 90
        0
 91
        1
 62
     0
 92
       -2
340
0
 93
        0
 40
0.045
309
GRIDFORMAT_END
 95
       16
302
GRIDFORMAT
  1
GRIDFORMAT_BEGIN
 90
        0
 91
        1
 62
     0
 92
       -2
340
0
 93
        0
 40
0.045
309
GRIDFORMAT_END
 95
       32
302
GRIDFORMAT
  1
GRIDFORMAT_BEGIN
 90
        0
 91
        1
 62
     0
 92
       -2
340
0
 93
        0
 40
0.045
309
GRIDFORMAT_END
309
TABLEFORMAT_END
  1
CELLSTYLE_BEGIN
 90
        3
 91
        2
300
_DATA
309
CELLSTYLE_END
  0
XRECORD
  5
106B
102
{ACAD_REACTORS
330
444
102
}
330
444
100
AcDbXrecord
280
     1
102
ACAD_ROUNDTRIP_PRE2007_TABLESTYLE
 90
        4
 91
        0
  1

 92
        4
 93
        0
  2

 94
        4
 95
        0
  3

  0
XRECORD
  5
1077
102
{ACAD_REACTORS
330
1076
102
}
330
1076
100
AcDbXrecord
280
     1
102
RTVSPost2010Prop28
280
     1
102
RTVSPost2010PropOp28
 70
     1
102
RTVSPost2010Prop29
280
     1
102
RTVSPost2010PropOp29
 70
     1
102
RTVSPost2010Prop30
280
     0
102
RTVSPost2010PropOp30
 70
     1
102
RTVSPost2010Prop31
280
     0
102
RTVSPost2010PropOp31
 70
     1
102
RTVSPost2010Prop32
280
     0
102
RTVSPost2010PropOp32
 70
     1
102
RTVSPost2010Prop33
280
     0
102
RTVSPost2010PropOp33
 70
     1
102
RTVSPost2010Prop34
280
     0
102
RTVSPost2010PropOp34
 70
     1
102
RTVSPost2010Prop35
280
     0
102
RTVSPost2010PropOp35
 70
     1
102
RTVSPost2010Prop36
280
     0
102
RTVSPost2010PropOp36
 70
     1
102
RTVSPost2010Prop37
 90
       50
102
RTVSPost2010PropOp37
 70
     1
102
RTVSPost2010Prop38
140
0.0
102
RTVSPost2010PropOp38
 70
     1
102
RTVSPost2010Prop39
140
1.0
102
RTVSPost2010PropOp39
 70
     1
102
RTVSPost2010Prop40
 90
        0
102
RTVSPost2010PropOp40
 70
     1
102
RTVSPost2010Prop41ColorIndex
 90
       18
102
RTVSPost2010Prop41ColorRGB
 90
        0
102
RTVSPost2010PropOp41
 70
     1
102
RTVSPost2010Prop42
 90
       50
102
RTVSPost2010PropOp42
 70
     1
102
RTVSPost2010Prop43
 90
        3
102
RTVSPost2010PropOp43
 70
     1
102
RTVSPost2010Prop44ColorIndex
 90
        5
102
RTVSPost2010Prop44ColorRGB
 90
      255
102
RTVSPost2010PropOp44
 70
     1
102
RTVSPost2010Prop45
280
     0
102
RTVSPost2010PropOp45
 70
     1
102
RTVSPost2010Prop46
 90
       50
102
RTVSPost2010PropOp46
 70
     1
102
RTVSPost2010Prop47
 90
       50
102
RTVSPost2010PropOp47
 70
     1
102
RTVSPost2010Prop48
 90
       50
102
RTVSPost2010PropOp48
 70
     1
102
RTVSPost2010Prop49
280
     0
102
RTVSPost2010PropOp49
 70
     1
102
RTVSPost2010Prop50
 90
       50
102
RTVSPost2010PropOp50
 70
     1
102
RTVSPost2010Prop51ColorIndex
 90
      256
102
RTVSPost2010Prop51ColorRGB
 90
-16777216
102
RTVSPost2010PropOp51
 70
     0
102
RTVSPost2010Prop52
140
1.0
102
RTVSPost2010PropOp52
 70
     0
102
RTVSPost2010Prop53
 90
        2
102
RTVSPost2010PropOp53
 70
     1
102
RTVSPost2010Prop54
  1
strokes_ogs.tif
102
RTVSPost2010PropOp54
 70
     1
102
RTVSPost2010Prop55
280
     0
102
RTVSPost2010PropOp55
 70
     1
102
RTVSPost2010Prop56
140
1.0
102
RTVSPost2010PropOp56
 70
     1
102
RTVSPost2010Prop57
140
1.0
102
RTVSPost2010PropOp57
 70
     1
102
RTVSPropertyOp0
 70
     1
102
RTVSPropertyOp1
 70
     1
102
RTVSPropertyOp2
 70
     1
102
RTVSPropertyOp3
 70
     1
102
RTVSPropertyOp4
 70
     1
102
RTVSPropertyOp5
 70
     1
102
RTVSPropertyOp6
 70
     1
102
RTVSPropertyOp7
 70
     1
102
RTVSPropertyOp8
 70
     1
102
RTVSPropertyOp9
 70
     1
102
RTVSPropertyOp10
 70
     1
102
RTVSPropertyOp11
 70
     1
102
RTVSPropertyOp12
 70
     1
102
RTVSPropertyOp13
 70
     1
102
RTVSPropertyOp14
 70
     1
102
RTVSPropertyOp15
 70
     1
102
RTVSPropertyOp16
 70
     1
102
RTVSPropertyOp17
 70
     1
102
RTVSPropertyOp18
 70
     1
102
RTVSPropertyOp19
 70
     1
102
RTVSPropertyOp20
 70
     1
102
RTVSPropertyOp21
 70
     1
102
RTVSPropertyOp22
 70
     1
102
RTVSPropertyOp23
 70
     1
102
RTVSPropertyOp24
 70
     1
102
RTVSPropertyOp25
 70
     1
102
RTVSPropertyOp26
 70
     1
102
RTVSPropertyOp27
 70
     1
102
RTVSPropertyOp28
 70
     1
102
RTVSPropertyOp29
 70
     1
102
RTVSPropertyOp30
 70
     1
102
RTVSPropertyOp31
 70
     1
102
RTVSPropertyOp32
 70
     1
102
RTVSPropertyOp33
 70
     1
102
RTVSPropertyOp34
 70
     1
102
RTVSPropertyOp35
 70
     1
102
RTVSPropertyOp36
 70
     1
102
RTVSPropertyOp37
 70
     1
102
RTVSPropertyOp38
 70
     1
102
RTVSPropertyOp39
 70
     1
102
RTVSPropertyOp40
 70
     1
102
RTVSPropertyOp41
 70
     1
102
RTVSPropertyOp42
 70
     1
102
RTVSPropertyOp43
 70
     1
102
RTVSPropertyOp44
 70
     1
102
RTVSPropertyOp45
 70
     1
102
RTVSPropertyOp46
 70
     1
102
RTVSPropertyOp47
 70
     1
102
RTVSPropertyOp48
 70
     1
102
RTVSPropertyOp49
 70
     1
102
RTVSPropertyOp50
 70
     1
102
RTVSPropertyOp51
 70
     0
102
RTVSPropertyOp52
 70
     0
102
RTVSPropertyOp53
 70
     1
102
RTVSPropertyOp54
 70
     1
102
RTVSPropertyOp55
 70
     1
102
RTVSPropertyOp56
 70
     1
102
RTVSPropertyOp57
 70
     1
102
RTVSPropertyOp58
 70
     1
102
RTVSPropertyOp59
 70
     1
102
RTVSPropertyOp60
 70
     1
102
RTVSPropertyOp61
 70
     1
102
RTVSPropertyOp62
 70
     1
  0
XRECORD
  5
107B
102
{ACAD_REACTORS
330
107A
102
}
330
107A
100
AcDbXrecord
280
     1
102
RTVSPost2010Prop28
280
     0
102
RTVSPost2010PropOp28
 70
     1
102
RTVSPost2010Prop29
280
     1
102
RTVSPost2010PropOp29
 70
     1
102
RTVSPost2010Prop30
280
     1
102
RTVSPost2010PropOp30
 70
     1
102
RTVSPost2010Prop31
280
     0
102
RTVSPost2010PropOp31
 70
     1
102
RTVSPost2010Prop32
280
     0
102
RTVSPost2010PropOp32
 70
     1
102
RTVSPost2010Prop33
280
     0
102
RTVSPost2010PropOp33
 70
     1
102
RTVSPost2010Prop34
280
     0
102
RTVSPost2010PropOp34
 70
     1
102
RTVSPost2010Prop35
280
     0
102
RTVSPost2010PropOp35
 70
     1
102
RTVSPost2010Prop36
280
     0
102
RTVSPost2010PropOp36
 70
     1
102
RTVSPost2010Prop37
 90
       50
102
RTVSPost2010PropOp37
 70
     1
102
RTVSPost2010Prop38
140
0.0
102
RTVSPost2010PropOp38
 70
     1
102
RTVSPost2010Prop39
140
1.0
102
RTVSPost2010PropOp39
 70
     1
102
RTVSPost2010Prop40
 90
        0
102
RTVSPost2010PropOp40
 70
     1
102
RTVSPost2010Prop41ColorIndex
 90
       18
102
RTVSPost2010Prop41ColorRGB
 90
        0
102
RTVSPost2010PropOp41
 70
     1
102
RTVSPost2010Prop42
 90
       50
102
RTVSPost2010PropOp42
 70
     1
102
RTVSPost2010Prop43
 90
        3
102
RTVSPost2010PropOp43
 70
     1
102
RTVSPost2010Prop44ColorIndex
 90
        5
102
RTVSPost2010Prop44ColorRGB
 90
      255
102
RTVSPost2010PropOp44
 70
     1
102
RTVSPost2010Prop45
280
     0
102
RTVSPost2010PropOp45
 70
     1
102
RTVSPost2010Prop46
 90
       50
102
RTVSPost2010PropOp46
 70
     1
102
RTVSPost2010Prop47
 90
       50
102
RTVSPost2010PropOp47
 70
     1
102
RTVSPost2010Prop48
 90
       50
102
RTVSPost2010PropOp48
 70
     1
102
RTVSPost2010Prop49
280
     0
102
RTVSPost2010PropOp49
 70
     1
102
RTVSPost2010Prop50
 90
       50
102
RTVSPost2010PropOp50
 70
     1
102
RTVSPost2010Prop51ColorIndex
 90
      256
102
RTVSPost2010Prop51ColorRGB
 90
-16777216
102
RTVSPost2010PropOp51
 70
     0
102
RTVSPost2010Prop52
140
1.0
102
RTVSPost2010PropOp52
 70
     0
102
RTVSPost2010Prop53
 90
        2
102
RTVSPost2010PropOp53
 70
     1
102
RTVSPost2010Prop54
  1
strokes_ogs.tif
102
RTVSPost2010PropOp54
 70
     1
102
RTVSPost2010Prop55
280
     0
102
RTVSPost2010PropOp55
 70
     1
102
RTVSPost2010Prop56
140
1.0
102
RTVSPost2010PropOp56
 70
     1
102
RTVSPost2010Prop57
140
1.0
102
RTVSPost2010PropOp57
 70
     1
102
RTVSPropertyOp0
 70
     1
102
RTVSPropertyOp1
 70
     1
102
RTVSPropertyOp2
 70
     1
102
RTVSPropertyOp3
 70
     1
102
RTVSPropertyOp4
 70
     1
102
RTVSPropertyOp5
 70
     1
102
RTVSPropertyOp6
 70
     1
102
RTVSPropertyOp7
 70
     1
102
RTVSPropertyOp8
 70
     1
102
RTVSPropertyOp9
 70
     1
102
RTVSPropertyOp10
 70
     1
102
RTVSPropertyOp11
 70
     1
102
RTVSPropertyOp12
 70
     1
102
RTVSPropertyOp13
 70
     1
102
RTVSPropertyOp14
 70
     1
102
RTVSPropertyOp15
 70
     1
102
RTVSPropertyOp16
 70
     1
102
RTVSPropertyOp17
 70
     1
102
RTVSPropertyOp18
 70
     1
102
RTVSPropertyOp19
 70
     1
102
RTVSPropertyOp20
 70
     1
102
RTVSPropertyOp21
 70
     1
102
RTVSPropertyOp22
 70
     1
102
RTVSPropertyOp23
 70
     1
102
RTVSPropertyOp24
 70
     1
102
RTVSPropertyOp25
 70
     1
102
RTVSPropertyOp26
 70
     1
102
RTVSPropertyOp27
 70
     1
102
RTVSPropertyOp28
 70
     1
102
RTVSPropertyOp29
 70
     1
102
RTVSPropertyOp30
 70
     1
102
RTVSPropertyOp31
 70
     1
102
RTVSPropertyOp32
 70
     1
102
RTVSPropertyOp33
 70
     1
102
RTVSPropertyOp34
 70
     1
102
RTVSPropertyOp35
 70
     1
102
RTVSPropertyOp36
 70
     1
102
RTVSPropertyOp37
 70
     1
102
RTVSPropertyOp38
 70
     1
102
RTVSPropertyOp39
 70
     1
102
RTVSPropertyOp40
 70
     1
102
RTVSPropertyOp41
 70
     1
102
RTVSPropertyOp42
 70
     1
102
RTVSPropertyOp43
 70
     1
102
RTVSPropertyOp44
 70
     1
102
RTVSPropertyOp45
 70
     1
102
RTVSPropertyOp46
 70
     1
102
RTVSPropertyOp47
 70
     1
102
RTVSPropertyOp48
 70
     1
102
RTVSPropertyOp49
 70
     1
102
RTVSPropertyOp50
 70
     1
102
RTVSPropertyOp51
 70
     0
102
RTVSPropertyOp52
 70
     0
102
RTVSPropertyOp53
 70
     1
102
RTVSPropertyOp54
 70
     1
102
RTVSPropertyOp55
 70
     1
102
RTVSPropertyOp56
 70
     1
102
RTVSPropertyOp57
 70
     1
102
RTVSPropertyOp58
 70
     1
102
RTVSPropertyOp59
 70
     1
102
RTVSPropertyOp60
 70
     1
102
RTVSPropertyOp61
 70
     1
102
RTVSPropertyOp62
 70
     1
  0
XRECORD
  5
1079
102
{ACAD_REACTORS
330
1078
102
}
330
1078
100
AcDbXrecord
280
     1
102
RTVSPost2010Prop28
280
     0
102
RTVSPost2010PropOp28
 70
     1
102
RTVSPost2010Prop29
280
     1
102
RTVSPost2010PropOp29
 70
     1
102
RTVSPost2010Prop30
280
     1
102
RTVSPost2010PropOp30
 70
     1
102
RTVSPost2010Prop31
280
     0
102
RTVSPost2010PropOp31
 70
     1
102
RTVSPost2010Prop32
280
     0
102
RTVSPost2010PropOp32
 70
     1
102
RTVSPost2010Prop33
280
     0
102
RTVSPost2010PropOp33
 70
     1
102
RTVSPost2010Prop34
280
     0
102
RTVSPost2010PropOp34
 70
     1
102
RTVSPost2010Prop35
280
     0
102
RTVSPost2010PropOp35
 70
     1
102
RTVSPost2010Prop36
280
     0
102
RTVSPost2010PropOp36
 70
     1
102
RTVSPost2010Prop37
 90
       50
102
RTVSPost2010PropOp37
 70
     1
102
RTVSPost2010Prop38
140
0.0
102
RTVSPost2010PropOp38
 70
     1
102
RTVSPost2010Prop39
140
1.0
102
RTVSPost2010PropOp39
 70
     1
102
RTVSPost2010Prop40
 90
        0
102
RTVSPost2010PropOp40
 70
     1
102
RTVSPost2010Prop41ColorIndex
 90
       18
102
RTVSPost2010Prop41ColorRGB
 90
        0
102
RTVSPost2010PropOp41
 70
     1
102
RTVSPost2010Prop42
 90
       50
102
RTVSPost2010PropOp42
 70
     1
102
RTVSPost2010Prop43
 90
        3
102
RTVSPost2010PropOp43
 70
     1
102
RTVSPost2010Prop44ColorIndex
 90
        5
102
RTVSPost2010Prop44ColorRGB
 90
      255
102
RTVSPost2010PropOp44
 70
     1
102
RTVSPost2010Prop45
280
     0
102
RTVSPost2010PropOp45
 70
     1
102
RTVSPost2010Prop46
 90
       50
102
RTVSPost2010PropOp46
 70
     1
102
RTVSPost2010Prop47
 90
       50
102
RTVSPost2010PropOp47
 70
     1
102
RTVSPost2010Prop48
 90
       50
102
RTVSPost2010PropOp48
 70
     1
102
RTVSPost2010Prop49
280
     0
102
RTVSPost2010PropOp49
 70
     1
102
RTVSPost2010Prop50
 90
       50
102
RTVSPost2010PropOp50
 70
     1
102
RTVSPost2010Prop51ColorIndex
 90
      256
102
RTVSPost2010Prop51ColorRGB
 90
-16777216
102
RTVSPost2010PropOp51
 70
     0
102
RTVSPost2010Prop52
140
1.0
102
RTVSPost2010PropOp52
 70
     0
102
RTVSPost2010Prop53
 90
        2
102
RTVSPost2010PropOp53
 70
     1
102
RTVSPost2010Prop54
  1
strokes_ogs.tif
102
RTVSPost2010PropOp54
 70
     1
102
RTVSPost2010Prop55
280
     0
102
RTVSPost2010PropOp55
 70
     1
102
RTVSPost2010Prop56
140
1.0
102
RTVSPost2010PropOp56
 70
     1
102
RTVSPost2010Prop57
140
1.0
102
RTVSPost2010PropOp57
 70
     1
102
RTVSPropertyOp0
 70
     1
102
RTVSPropertyOp1
 70
     1
102
RTVSPropertyOp2
 70
     1
102
RTVSPropertyOp3
 70
     1
102
RTVSPropertyOp4
 70
     1
102
RTVSPropertyOp5
 70
     1
102
RTVSPropertyOp6
 70
     1
102
RTVSPropertyOp7
 70
     1
102
RTVSPropertyOp8
 70
     1
102
RTVSPropertyOp9
 70
     1
102
RTVSPropertyOp10
 70
     1
102
RTVSPropertyOp11
 70
     1
102
RTVSPropertyOp12
 70
     1
102
RTVSPropertyOp13
 70
     1
102
RTVSPropertyOp14
 70
     1
102
RTVSPropertyOp15
 70
     1
102
RTVSPropertyOp16
 70
     1
102
RTVSPropertyOp17
 70
     1
102
RTVSPropertyOp18
 70
     1
102
RTVSPropertyOp19
 70
     1
102
RTVSPropertyOp20
 70
     1
102
RTVSPropertyOp21
 70
     1
102
RTVSPropertyOp22
 70
     1
102
RTVSPropertyOp23
 70
     1
102
RTVSPropertyOp24
 70
     1
102
RTVSPropertyOp25
 70
     1
102
RTVSPropertyOp26
 70
     1
102
RTVSPropertyOp27
 70
     1
102
RTVSPropertyOp28
 70
     1
102
RTVSPropertyOp29
 70
     1
102
RTVSPropertyOp30
 70
     1
102
RTVSPropertyOp31
 70
     1
102
RTVSPropertyOp32
 70
     1
102
RTVSPropertyOp33
 70
     1
102
RTVSPropertyOp34
 70
     1
102
RTVSPropertyOp35
 70
     1
102
RTVSPropertyOp36
 70
     1
102
RTVSPropertyOp37
 70
     1
102
RTVSPropertyOp38
 70
     1
102
RTVSPropertyOp39
 70
     1
102
RTVSPropertyOp40
 70
     1
102
RTVSPropertyOp41
 70
     1
102
RTVSPropertyOp42
 70
     1
102
RTVSPropertyOp43
 70
     1
102
RTVSPropertyOp44
 70
     1
102
RTVSPropertyOp45
 70
     1
102
RTVSPropertyOp46
 70
     1
102
RTVSPropertyOp47
 70
     1
102
RTVSPropertyOp48
 70
     1
102
RTVSPropertyOp49
 70
     1
102
RTVSPropertyOp50
 70
     1
102
RTVSPropertyOp51
 70
     0
102
RTVSPropertyOp52
 70
     0
102
RTVSPropertyOp53
 70
     1
102
RTVSPropertyOp54
 70
     1
102
RTVSPropertyOp55
 70
     1
102
RTVSPropertyOp56
 70
     1
102
RTVSPropertyOp57
 70
     1
102
RTVSPropertyOp58
 70
     1
102
RTVSPropertyOp59
 70
     1
102
RTVSPropertyOp60
 70
     1
102
RTVSPropertyOp61
 70
     1
102
RTVSPropertyOp62
 70
     1
  0
XRECORD
  5
1075
102
{ACAD_REACTORS
330
1074
102
}
330
1074
100
AcDbXrecord
280
     1
102
RTVSPost2010Prop28
280
     0
102
RTVSPost2010PropOp28
 70
     1
102
RTVSPost2010Prop29
280
     1
102
RTVSPost2010PropOp29
 70
     1
102
RTVSPost2010Prop30
280
     1
102
RTVSPost2010PropOp30
 70
     1
102
RTVSPost2010Prop31
280
     0
102
RTVSPost2010PropOp31
 70
     1
102
RTVSPost2010Prop32
280
     0
102
RTVSPost2010PropOp32
 70
     1
102
RTVSPost2010Prop33
280
     0
102
RTVSPost2010PropOp33
 70
     1
102
RTVSPost2010Prop34
280
     0
102
RTVSPost2010PropOp34
 70
     1
102
RTVSPost2010Prop35
280
     0
102
RTVSPost2010PropOp35
 70
     1
102
RTVSPost2010Prop36
280
     0
102
RTVSPost2010PropOp36
 70
     1
102
RTVSPost2010Prop37
 90
       50
102
RTVSPost2010PropOp37
 70
     1
102
RTVSPost2010Prop38
140
0.0
102
RTVSPost2010PropOp38
 70
     1
102
RTVSPost2010Prop39
140
1.0
102
RTVSPost2010PropOp39
 70
     1
102
RTVSPost2010Prop40
 90
        0
102
RTVSPost2010PropOp40
 70
     1
102
RTVSPost2010Prop41ColorIndex
 90
       18
102
RTVSPost2010Prop41ColorRGB
 90
        0
102
RTVSPost2010PropOp41
 70
     1
102
RTVSPost2010Prop42
 90
       50
102
RTVSPost2010PropOp42
 70
     1
102
RTVSPost2010Prop43
 90
        3
102
RTVSPost2010PropOp43
 70
     1
102
RTVSPost2010Prop44ColorIndex
 90
        5
102
RTVSPost2010Prop44ColorRGB
 90
      255
102
RTVSPost2010PropOp44
 70
     1
102
RTVSPost2010Prop45
280
     0
102
RTVSPost2010PropOp45
 70
     1
102
RTVSPost2010Prop46
 90
       50
102
RTVSPost2010PropOp46
 70
     1
102
RTVSPost2010Prop47
 90
       50
102
RTVSPost2010PropOp47
 70
     1
102
RTVSPost2010Prop48
 90
       50
102
RTVSPost2010PropOp48
 70
     1
102
RTVSPost2010Prop49
280
     0
102
RTVSPost2010PropOp49
 70
     1
102
RTVSPost2010Prop50
 90
       50
102
RTVSPost2010PropOp50
 70
     1
102
RTVSPost2010Prop51ColorIndex
 90
      256
102
RTVSPost2010Prop51ColorRGB
 90
-16777216
102
RTVSPost2010PropOp51
 70
     0
102
RTVSPost2010Prop52
140
1.0
102
RTVSPost2010PropOp52
 70
     0
102
RTVSPost2010Prop53
 90
        2
102
RTVSPost2010PropOp53
 70
     1
102
RTVSPost2010Prop54
  1
strokes_ogs.tif
102
RTVSPost2010PropOp54
 70
     1
102
RTVSPost2010Prop55
280
     0
102
RTVSPost2010PropOp55
 70
     1
102
RTVSPost2010Prop56
140
1.0
102
RTVSPost2010PropOp56
 70
     1
102
RTVSPost2010Prop57
140
1.0
102
RTVSPost2010PropOp57
 70
     1
102
RTVSPropertyOp0
 70
     1
102
RTVSPropertyOp1
 70
     1
102
RTVSPropertyOp2
 70
     1
102
RTVSPropertyOp3
 70
     1
102
RTVSPropertyOp4
 70
     1
102
RTVSPropertyOp5
 70
     1
102
RTVSPropertyOp6
 70
     1
102
RTVSPropertyOp7
 70
     1
102
RTVSPropertyOp8
 70
     1
102
RTVSPropertyOp9
 70
     1
102
RTVSPropertyOp10
 70
     1
102
RTVSPropertyOp11
 70
     1
102
RTVSPropertyOp12
 70
     1
102
RTVSPropertyOp13
 70
     1
102
RTVSPropertyOp14
 70
     1
102
RTVSPropertyOp15
 70
     1
102
RTVSPropertyOp16
 70
     1
102
RTVSPropertyOp17
 70
     1
102
RTVSPropertyOp18
 70
     1
102
RTVSPropertyOp19
 70
     1
102
RTVSPropertyOp20
 70
     1
102
RTVSPropertyOp21
 70
     1
102
RTVSPropertyOp22
 70
     1
102
RTVSPropertyOp23
 70
     1
102
RTVSPropertyOp24
 70
     1
102
RTVSPropertyOp25
 70
     1
102
RTVSPropertyOp26
 70
     1
102
RTVSPropertyOp27
 70
     1
102
RTVSPropertyOp28
 70
     1
102
RTVSPropertyOp29
 70
     1
102
RTVSPropertyOp30
 70
     1
102
RTVSPropertyOp31
 70
     1
102
RTVSPropertyOp32
 70
     1
102
RTVSPropertyOp33
 70
     1
102
RTVSPropertyOp34
 70
     1
102
RTVSPropertyOp35
 70
     1
102
RTVSPropertyOp36
 70
     1
102
RTVSPropertyOp37
 70
     1
102
RTVSPropertyOp38
 70
     1
102
RTVSPropertyOp39
 70
     1
102
RTVSPropertyOp40
 70
     1
102
RTVSPropertyOp41
 70
     1
102
RTVSPropertyOp42
 70
     1
102
RTVSPropertyOp43
 70
     1
102
RTVSPropertyOp44
 70
     1
102
RTVSPropertyOp45
 70
     1
102
RTVSPropertyOp46
 70
     1
102
RTVSPropertyOp47
 70
     1
102
RTVSPropertyOp48
 70
     1
102
RTVSPropertyOp49
 70
     1
102
RTVSPropertyOp50
 70
     1
102
RTVSPropertyOp51
 70
     0
102
RTVSPropertyOp52
 70
     0
102
RTVSPropertyOp53
 70
     1
102
RTVSPropertyOp54
 70
     1
102
RTVSPropertyOp55
 70
     1
102
RTVSPropertyOp56
 70
     1
102
RTVSPropertyOp57
 70
     1
102
RTVSPropertyOp58
 70
     1
102
RTVSPropertyOp59
 70
     1
102
RTVSPropertyOp60
 70
     1
102
RTVSPropertyOp61
 70
     1
102
RTVSPropertyOp62
 70
     1
  0
XRECORD
  5
1083
102
{ACAD_REACTORS
330
1082
102
}
330
1082
100
AcDbXrecord
280
     1
102
RTVSPost2010Prop28
280
     0
102
RTVSPost2010PropOp28
 70
     1
102
RTVSPost2010Prop29
280
     1
102
RTVSPost2010PropOp29
 70
     1
102
RTVSPost2010Prop30
280
     1
102
RTVSPost2010PropOp30
 70
     1
102
RTVSPost2010Prop31
280
     0
102
RTVSPost2010PropOp31
 70
     1
102
RTVSPost2010Prop32
280
     0
102
RTVSPost2010PropOp32
 70
     1
102
RTVSPost2010Prop33
280
     0
102
RTVSPost2010PropOp33
 70
     1
102
RTVSPost2010Prop34
280
     0
102
RTVSPost2010PropOp34
 70
     1
102
RTVSPost2010Prop35
280
     0
102
RTVSPost2010PropOp35
 70
     1
102
RTVSPost2010Prop36
280
     0
102
RTVSPost2010PropOp36
 70
     1
102
RTVSPost2010Prop37
 90
       50
102
RTVSPost2010PropOp37
 70
     1
102
RTVSPost2010Prop38
140
0.0
102
RTVSPost2010PropOp38
 70
     1
102
RTVSPost2010Prop39
140
1.0
102
RTVSPost2010PropOp39
 70
     1
102
RTVSPost2010Prop40
 90
        0
102
RTVSPost2010PropOp40
 70
     1
102
RTVSPost2010Prop41ColorIndex
 90
       18
102
RTVSPost2010Prop41ColorRGB
 90
        0
102
RTVSPost2010PropOp41
 70
     1
102
RTVSPost2010Prop42
 90
       50
102
RTVSPost2010PropOp42
 70
     1
102
RTVSPost2010Prop43
 90
        3
102
RTVSPost2010PropOp43
 70
     1
102
RTVSPost2010Prop44ColorIndex
 90
        5
102
RTVSPost2010Prop44ColorRGB
 90
      255
102
RTVSPost2010PropOp44
 70
     1
102
RTVSPost2010Prop45
280
     0
102
RTVSPost2010PropOp45
 70
     1
102
RTVSPost2010Prop46
 90
       50
102
RTVSPost2010PropOp46
 70
     1
102
RTVSPost2010Prop47
 90
       50
102
RTVSPost2010PropOp47
 70
     1
102
RTVSPost2010Prop48
 90
       50
102
RTVSPost2010PropOp48
 70
     1
102
RTVSPost2010Prop49
280
     0
102
RTVSPost2010PropOp49
 70
     1
102
RTVSPost2010Prop50
 90
       50
102
RTVSPost2010PropOp50
 70
     1
102
RTVSPost2010Prop51ColorIndex
 90
      256
102
RTVSPost2010Prop51ColorRGB
 90
-16777216
102
RTVSPost2010PropOp51
 70
     0
102
RTVSPost2010Prop52
140
1.0
102
RTVSPost2010PropOp52
 70
     0
102
RTVSPost2010Prop53
 90
        2
102
RTVSPost2010PropOp53
 70
     1
102
RTVSPost2010Prop54
  1
strokes_ogs.tif
102
RTVSPost2010PropOp54
 70
     1
102
RTVSPost2010Prop55
280
     0
102
RTVSPost2010PropOp55
 70
     1
102
RTVSPost2010Prop56
140
1.0
102
RTVSPost2010PropOp56
 70
     1
102
RTVSPost2010Prop57
140
1.0
102
RTVSPost2010PropOp57
 70
     1
102
RTVSPropertyOp0
 70
     1
102
RTVSPropertyOp1
 70
     1
102
RTVSPropertyOp2
 70
     1
102
RTVSPropertyOp3
 70
     1
102
RTVSPropertyOp4
 70
     1
102
RTVSPropertyOp5
 70
     1
102
RTVSPropertyOp6
 70
     1
102
RTVSPropertyOp7
 70
     1
102
RTVSPropertyOp8
 70
     1
102
RTVSPropertyOp9
 70
     1
102
RTVSPropertyOp10
 70
     1
102
RTVSPropertyOp11
 70
     1
102
RTVSPropertyOp12
 70
     1
102
RTVSPropertyOp13
 70
     1
102
RTVSPropertyOp14
 70
     1
102
RTVSPropertyOp15
 70
     1
102
RTVSPropertyOp16
 70
     1
102
RTVSPropertyOp17
 70
     1
102
RTVSPropertyOp18
 70
     1
102
RTVSPropertyOp19
 70
     1
102
RTVSPropertyOp20
 70
     1
102
RTVSPropertyOp21
 70
     1
102
RTVSPropertyOp22
 70
     1
102
RTVSPropertyOp23
 70
     1
102
RTVSPropertyOp24
 70
     1
102
RTVSPropertyOp25
 70
     1
102
RTVSPropertyOp26
 70
     1
102
RTVSPropertyOp27
 70
     1
102
RTVSPropertyOp28
 70
     1
102
RTVSPropertyOp29
 70
     1
102
RTVSPropertyOp30
 70
     1
102
RTVSPropertyOp31
 70
     1
102
RTVSPropertyOp32
 70
     1
102
RTVSPropertyOp33
 70
     1
102
RTVSPropertyOp34
 70
     1
102
RTVSPropertyOp35
 70
     1
102
RTVSPropertyOp36
 70
     1
102
RTVSPropertyOp37
 70
     1
102
RTVSPropertyOp38
 70
     1
102
RTVSPropertyOp39
 70
     1
102
RTVSPropertyOp40
 70
     1
102
RTVSPropertyOp41
 70
     1
102
RTVSPropertyOp42
 70
     1
102
RTVSPropertyOp43
 70
     1
102
RTVSPropertyOp44
 70
     1
102
RTVSPropertyOp45
 70
     1
102
RTVSPropertyOp46
 70
     1
102
RTVSPropertyOp47
 70
     1
102
RTVSPropertyOp48
 70
     1
102
RTVSPropertyOp49
 70
     1
102
RTVSPropertyOp50
 70
     1
102
RTVSPropertyOp51
 70
     0
102
RTVSPropertyOp52
 70
     0
102
RTVSPropertyOp53
 70
     1
102
RTVSPropertyOp54
 70
     1
102
RTVSPropertyOp55
 70
     1
102
RTVSPropertyOp56
 70
     1
102
RTVSPropertyOp57
 70
     1
102
RTVSPropertyOp58
 70
     1
102
RTVSPropertyOp59
 70
     1
102
RTVSPropertyOp60
 70
     1
102
RTVSPropertyOp61
 70
     1
102
RTVSPropertyOp62
 70
     1
  0
XRECORD
  5
108B
102
{ACAD_REACTORS
330
108A
102
}
330
108A
100
AcDbXrecord
280
     1
102
RTVSPost2010Prop28
280
     0
102
RTVSPost2010PropOp28
 70
     1
102
RTVSPost2010Prop29
280
     1
102
RTVSPost2010PropOp29
 70
     1
102
RTVSPost2010Prop30
280
     1
102
RTVSPost2010PropOp30
 70
     1
102
RTVSPost2010Prop31
280
     0
102
RTVSPost2010PropOp31
 70
     1
102
RTVSPost2010Prop32
280
     0
102
RTVSPost2010PropOp32
 70
     1
102
RTVSPost2010Prop33
280
     0
102
RTVSPost2010PropOp33
 70
     1
102
RTVSPost2010Prop34
280
     0
102
RTVSPost2010PropOp34
 70
     1
102
RTVSPost2010Prop35
280
     0
102
RTVSPost2010PropOp35
 70
     1
102
RTVSPost2010Prop36
280
     0
102
RTVSPost2010PropOp36
 70
     1
102
RTVSPost2010Prop37
 90
       50
102
RTVSPost2010PropOp37
 70
     1
102
RTVSPost2010Prop38
140
0.0
102
RTVSPost2010PropOp38
 70
     1
102
RTVSPost2010Prop39
140
1.0
102
RTVSPost2010PropOp39
 70
     1
102
RTVSPost2010Prop40
 90
        0
102
RTVSPost2010PropOp40
 70
     1
102
RTVSPost2010Prop41ColorIndex
 90
       18
102
RTVSPost2010Prop41ColorRGB
 90
        0
102
RTVSPost2010PropOp41
 70
     1
102
RTVSPost2010Prop42
 90
       50
102
RTVSPost2010PropOp42
 70
     1
102
RTVSPost2010Prop43
 90
        3
102
RTVSPost2010PropOp43
 70
     1
102
RTVSPost2010Prop44ColorIndex
 90
        5
102
RTVSPost2010Prop44ColorRGB
 90
      255
102
RTVSPost2010PropOp44
 70
     1
102
RTVSPost2010Prop45
280
     0
102
RTVSPost2010PropOp45
 70
     1
102
RTVSPost2010Prop46
 90
       50
102
RTVSPost2010PropOp46
 70
     1
102
RTVSPost2010Prop47
 90
       50
102
RTVSPost2010PropOp47
 70
     1
102
RTVSPost2010Prop48
 90
       50
102
RTVSPost2010PropOp48
 70
     1
102
RTVSPost2010Prop49
280
     0
102
RTVSPost2010PropOp49
 70
     1
102
RTVSPost2010Prop50
 90
       50
102
RTVSPost2010PropOp50
 70
     1
102
RTVSPost2010Prop51ColorIndex
 90
      256
102
RTVSPost2010Prop51ColorRGB
 90
-16777216
102
RTVSPost2010PropOp51
 70
     0
102
RTVSPost2010Prop52
140
1.0
102
RTVSPost2010PropOp52
 70
     0
102
RTVSPost2010Prop53
 90
        2
102
RTVSPost2010PropOp53
 70
     1
102
RTVSPost2010Prop54
  1
strokes_ogs.tif
102
RTVSPost2010PropOp54
 70
     1
102
RTVSPost2010Prop55
280
     0
102
RTVSPost2010PropOp55
 70
     1
102
RTVSPost2010Prop56
140
1.0
102
RTVSPost2010PropOp56
 70
     1
102
RTVSPost2010Prop57
140
1.0
102
RTVSPost2010PropOp57
 70
     1
102
RTVSPropertyOp0
 70
     1
102
RTVSPropertyOp1
 70
     1
102
RTVSPropertyOp2
 70
     1
102
RTVSPropertyOp3
 70
     1
102
RTVSPropertyOp4
 70
     1
102
RTVSPropertyOp5
 70
     1
102
RTVSPropertyOp6
 70
     1
102
RTVSPropertyOp7
 70
     1
102
RTVSPropertyOp8
 70
     1
102
RTVSPropertyOp9
 70
     1
102
RTVSPropertyOp10
 70
     1
102
RTVSPropertyOp11
 70
     1
102
RTVSPropertyOp12
 70
     1
102
RTVSPropertyOp13
 70
     1
102
RTVSPropertyOp14
 70
     1
102
RTVSPropertyOp15
 70
     1
102
RTVSPropertyOp16
 70
     1
102
RTVSPropertyOp17
 70
     1
102
RTVSPropertyOp18
 70
     1
102
RTVSPropertyOp19
 70
     1
102
RTVSPropertyOp20
 70
     1
102
RTVSPropertyOp21
 70
     1
102
RTVSPropertyOp22
 70
     1
102
RTVSPropertyOp23
 70
     1
102
RTVSPropertyOp24
 70
     1
102
RTVSPropertyOp25
 70
     1
102
RTVSPropertyOp26
 70
     1
102
RTVSPropertyOp27
 70
     1
102
RTVSPropertyOp28
 70
     1
102
RTVSPropertyOp29
 70
     1
102
RTVSPropertyOp30
 70
     1
102
RTVSPropertyOp31
 70
     1
102
RTVSPropertyOp32
 70
     1
102
RTVSPropertyOp33
 70
     1
102
RTVSPropertyOp34
 70
     1
102
RTVSPropertyOp35
 70
     1
102
RTVSPropertyOp36
 70
     1
102
RTVSPropertyOp37
 70
     1
102
RTVSPropertyOp38
 70
     1
102
RTVSPropertyOp39
 70
     1
102
RTVSPropertyOp40
 70
     1
102
RTVSPropertyOp41
 70
     1
102
RTVSPropertyOp42
 70
     1
102
RTVSPropertyOp43
 70
     1
102
RTVSPropertyOp44
 70
     1
102
RTVSPropertyOp45
 70
     1
102
RTVSPropertyOp46
 70
     1
102
RTVSPropertyOp47
 70
     1
102
RTVSPropertyOp48
 70
     1
102
RTVSPropertyOp49
 70
     1
102
RTVSPropertyOp50
 70
     1
102
RTVSPropertyOp51
 70
     0
102
RTVSPropertyOp52
 70
     0
102
RTVSPropertyOp53
 70
     1
102
RTVSPropertyOp54
 70
     1
102
RTVSPropertyOp55
 70
     1
102
RTVSPropertyOp56
 70
     1
102
RTVSPropertyOp57
 70
     1
102
RTVSPropertyOp58
 70
     1
102
RTVSPropertyOp59
 70
     1
102
RTVSPropertyOp60
 70
     1
102
RTVSPropertyOp61
 70
     1
102
RTVSPropertyOp62
 70
     1
  0
XRECORD
  5
107D
102
{ACAD_REACTORS
330
107C
102
}
330
107C
100
AcDbXrecord
280
     1
102
RTVSPost2010Prop28
280
     0
102
RTVSPost2010PropOp28
 70
     1
102
RTVSPost2010Prop29
280
     1
102
RTVSPost2010PropOp29
 70
     1
102
RTVSPost2010Prop30
280
     1
102
RTVSPost2010PropOp30
 70
     1
102
RTVSPost2010Prop31
280
     0
102
RTVSPost2010PropOp31
 70
     1
102
RTVSPost2010Prop32
280
     0
102
RTVSPost2010PropOp32
 70
     1
102
RTVSPost2010Prop33
280
     0
102
RTVSPost2010PropOp33
 70
     1
102
RTVSPost2010Prop34
280
     0
102
RTVSPost2010PropOp34
 70
     1
102
RTVSPost2010Prop35
280
     0
102
RTVSPost2010PropOp35
 70
     1
102
RTVSPost2010Prop36
280
     0
102
RTVSPost2010PropOp36
 70
     1
102
RTVSPost2010Prop37
 90
       50
102
RTVSPost2010PropOp37
 70
     1
102
RTVSPost2010Prop38
140
0.0
102
RTVSPost2010PropOp38
 70
     1
102
RTVSPost2010Prop39
140
1.0
102
RTVSPost2010PropOp39
 70
     1
102
RTVSPost2010Prop40
 90
        0
102
RTVSPost2010PropOp40
 70
     1
102
RTVSPost2010Prop41ColorIndex
 90
       18
102
RTVSPost2010Prop41ColorRGB
 90
        0
102
RTVSPost2010PropOp41
 70
     1
102
RTVSPost2010Prop42
 90
       50
102
RTVSPost2010PropOp42
 70
     1
102
RTVSPost2010Prop43
 90
        3
102
RTVSPost2010PropOp43
 70
     1
102
RTVSPost2010Prop44ColorIndex
 90
        5
102
RTVSPost2010Prop44ColorRGB
 90
      255
102
RTVSPost2010PropOp44
 70
     1
102
RTVSPost2010Prop45
280
     0
102
RTVSPost2010PropOp45
 70
     1
102
RTVSPost2010Prop46
 90
       50
102
RTVSPost2010PropOp46
 70
     1
102
RTVSPost2010Prop47
 90
       50
102
RTVSPost2010PropOp47
 70
     1
102
RTVSPost2010Prop48
 90
       50
102
RTVSPost2010PropOp48
 70
     1
102
RTVSPost2010Prop49
280
     0
102
RTVSPost2010PropOp49
 70
     1
102
RTVSPost2010Prop50
 90
       50
102
RTVSPost2010PropOp50
 70
     1
102
RTVSPost2010Prop51ColorIndex
 90
      256
102
RTVSPost2010Prop51ColorRGB
 90
-16777216
102
RTVSPost2010PropOp51
 70
     0
102
RTVSPost2010Prop52
140
1.0
102
RTVSPost2010PropOp52
 70
     0
102
RTVSPost2010Prop53
 90
        2
102
RTVSPost2010PropOp53
 70
     1
102
RTVSPost2010Prop54
  1
strokes_ogs.tif
102
RTVSPost2010PropOp54
 70
     1
102
RTVSPost2010Prop55
280
     0
102
RTVSPost2010PropOp55
 70
     1
102
RTVSPost2010Prop56
140
1.0
102
RTVSPost2010PropOp56
 70
     1
102
RTVSPost2010Prop57
140
1.0
102
RTVSPost2010PropOp57
 70
     1
102
RTVSPropertyOp0
 70
     1
102
RTVSPropertyOp1
 70
     1
102
RTVSPropertyOp2
 70
     1
102
RTVSPropertyOp3
 70
     1
102
RTVSPropertyOp4
 70
     1
102
RTVSPropertyOp5
 70
     1
102
RTVSPropertyOp6
 70
     1
102
RTVSPropertyOp7
 70
     1
102
RTVSPropertyOp8
 70
     1
102
RTVSPropertyOp9
 70
     1
102
RTVSPropertyOp10
 70
     1
102
RTVSPropertyOp11
 70
     1
102
RTVSPropertyOp12
 70
     1
102
RTVSPropertyOp13
 70
     1
102
RTVSPropertyOp14
 70
     1
102
RTVSPropertyOp15
 70
     1
102
RTVSPropertyOp16
 70
     1
102
RTVSPropertyOp17
 70
     1
102
RTVSPropertyOp18
 70
     1
102
RTVSPropertyOp19
 70
     1
102
RTVSPropertyOp20
 70
     1
102
RTVSPropertyOp21
 70
     1
102
RTVSPropertyOp22
 70
     1
102
RTVSPropertyOp23
 70
     1
102
RTVSPropertyOp24
 70
     1
102
RTVSPropertyOp25
 70
     1
102
RTVSPropertyOp26
 70
     1
102
RTVSPropertyOp27
 70
     1
102
RTVSPropertyOp28
 70
     1
102
RTVSPropertyOp29
 70
     1
102
RTVSPropertyOp30
 70
     1
102
RTVSPropertyOp31
 70
     1
102
RTVSPropertyOp32
 70
     1
102
RTVSPropertyOp33
 70
     1
102
RTVSPropertyOp34
 70
     1
102
RTVSPropertyOp35
 70
     1
102
RTVSPropertyOp36
 70
     1
102
RTVSPropertyOp37
 70
     1
102
RTVSPropertyOp38
 70
     1
102
RTVSPropertyOp39
 70
     1
102
RTVSPropertyOp40
 70
     1
102
RTVSPropertyOp41
 70
     1
102
RTVSPropertyOp42
 70
     1
102
RTVSPropertyOp43
 70
     1
102
RTVSPropertyOp44
 70
     1
102
RTVSPropertyOp45
 70
     1
102
RTVSPropertyOp46
 70
     1
102
RTVSPropertyOp47
 70
     1
102
RTVSPropertyOp48
 70
     1
102
RTVSPropertyOp49
 70
     1
102
RTVSPropertyOp50
 70
     1
102
RTVSPropertyOp51
 70
     0
102
RTVSPropertyOp52
 70
     0
102
RTVSPropertyOp53
 70
     1
102
RTVSPropertyOp54
 70
     1
102
RTVSPropertyOp55
 70
     1
102
RTVSPropertyOp56
 70
     1
102
RTVSPropertyOp57
 70
     1
102
RTVSPropertyOp58
 70
     1
102
RTVSPropertyOp59
 70
     1
102
RTVSPropertyOp60
 70
     1
102
RTVSPropertyOp61
 70
     1
102
RTVSPropertyOp62
 70
     1
  0
XRECORD
  5
1081
102
{ACAD_REACTORS
330
1080
102
}
330
1080
100
AcDbXrecord
280
     1
102
RTVSPost2010Prop28
280
     0
102
RTVSPost2010PropOp28
 70
     1
102
RTVSPost2010Prop29
280
     1
102
RTVSPost2010PropOp29
 70
     1
102
RTVSPost2010Prop30
280
     1
102
RTVSPost2010PropOp30
 70
     1
102
RTVSPost2010Prop31
280
     0
102
RTVSPost2010PropOp31
 70
     1
102
RTVSPost2010Prop32
280
     0
102
RTVSPost2010PropOp32
 70
     1
102
RTVSPost2010Prop33
280
     0
102
RTVSPost2010PropOp33
 70
     1
102
RTVSPost2010Prop34
280
     0
102
RTVSPost2010PropOp34
 70
     1
102
RTVSPost2010Prop35
280
     0
102
RTVSPost2010PropOp35
 70
     1
102
RTVSPost2010Prop36
280
     0
102
RTVSPost2010PropOp36
 70
     1
102
RTVSPost2010Prop37
 90
       50
102
RTVSPost2010PropOp37
 70
     1
102
RTVSPost2010Prop38
140
0.0
102
RTVSPost2010PropOp38
 70
     1
102
RTVSPost2010Prop39
140
1.0
102
RTVSPost2010PropOp39
 70
     1
102
RTVSPost2010Prop40
 90
        0
102
RTVSPost2010PropOp40
 70
     1
102
RTVSPost2010Prop41ColorIndex
 90
       18
102
RTVSPost2010Prop41ColorRGB
 90
        0
102
RTVSPost2010PropOp41
 70
     1
102
RTVSPost2010Prop42
 90
       50
102
RTVSPost2010PropOp42
 70
     1
102
RTVSPost2010Prop43
 90
        3
102
RTVSPost2010PropOp43
 70
     1
102
RTVSPost2010Prop44ColorIndex
 90
        5
102
RTVSPost2010Prop44ColorRGB
 90
      255
102
RTVSPost2010PropOp44
 70
     1
102
RTVSPost2010Prop45
280
     0
102
RTVSPost2010PropOp45
 70
     1
102
RTVSPost2010Prop46
 90
       50
102
RTVSPost2010PropOp46
 70
     1
102
RTVSPost2010Prop47
 90
       50
102
RTVSPost2010PropOp47
 70
     1
102
RTVSPost2010Prop48
 90
       50
102
RTVSPost2010PropOp48
 70
     1
102
RTVSPost2010Prop49
280
     0
102
RTVSPost2010PropOp49
 70
     1
102
RTVSPost2010Prop50
 90
       50
102
RTVSPost2010PropOp50
 70
     1
102
RTVSPost2010Prop51ColorIndex
 90
      256
102
RTVSPost2010Prop51ColorRGB
 90
-16777216
102
RTVSPost2010PropOp51
 70
     0
102
RTVSPost2010Prop52
140
1.0
102
RTVSPost2010PropOp52
 70
     0
102
RTVSPost2010Prop53
 90
        2
102
RTVSPost2010PropOp53
 70
     1
102
RTVSPost2010Prop54
  1
strokes_ogs.tif
102
RTVSPost2010PropOp54
 70
     1
102
RTVSPost2010Prop55
280
     0
102
RTVSPost2010PropOp55
 70
     1
102
RTVSPost2010Prop56
140
1.0
102
RTVSPost2010PropOp56
 70
     1
102
RTVSPost2010Prop57
140
1.0
102
RTVSPost2010PropOp57
 70
     1
102
RTVSPropertyOp0
 70
     1
102
RTVSPropertyOp1
 70
     1
102
RTVSPropertyOp2
 70
     1
102
RTVSPropertyOp3
 70
     1
102
RTVSPropertyOp4
 70
     1
102
RTVSPropertyOp5
 70
     1
102
RTVSPropertyOp6
 70
     1
102
RTVSPropertyOp7
 70
     1
102
RTVSPropertyOp8
 70
     1
102
RTVSPropertyOp9
 70
     1
102
RTVSPropertyOp10
 70
     1
102
RTVSPropertyOp11
 70
     1
102
RTVSPropertyOp12
 70
     1
102
RTVSPropertyOp13
 70
     1
102
RTVSPropertyOp14
 70
     1
102
RTVSPropertyOp15
 70
     1
102
RTVSPropertyOp16
 70
     1
102
RTVSPropertyOp17
 70
     1
102
RTVSPropertyOp18
 70
     1
102
RTVSPropertyOp19
 70
     1
102
RTVSPropertyOp20
 70
     1
102
RTVSPropertyOp21
 70
     1
102
RTVSPropertyOp22
 70
     1
102
RTVSPropertyOp23
 70
     1
102
RTVSPropertyOp24
 70
     1
102
RTVSPropertyOp25
 70
     1
102
RTVSPropertyOp26
 70
     1
102
RTVSPropertyOp27
 70
     1
102
RTVSPropertyOp28
 70
     1
102
RTVSPropertyOp29
 70
     1
102
RTVSPropertyOp30
 70
     1
102
RTVSPropertyOp31
 70
     1
102
RTVSPropertyOp32
 70
     1
102
RTVSPropertyOp33
 70
     1
102
RTVSPropertyOp34
 70
     1
102
RTVSPropertyOp35
 70
     1
102
RTVSPropertyOp36
 70
     1
102
RTVSPropertyOp37
 70
     1
102
RTVSPropertyOp38
 70
     1
102
RTVSPropertyOp39
 70
     1
102
RTVSPropertyOp40
 70
     1
102
RTVSPropertyOp41
 70
     1
102
RTVSPropertyOp42
 70
     1
102
RTVSPropertyOp43
 70
     1
102
RTVSPropertyOp44
 70
     1
102
RTVSPropertyOp45
 70
     1
102
RTVSPropertyOp46
 70
     1
102
RTVSPropertyOp47
 70
     1
102
RTVSPropertyOp48
 70
     1
102
RTVSPropertyOp49
 70
     1
102
RTVSPropertyOp50
 70
     1
102
RTVSPropertyOp51
 70
     0
102
RTVSPropertyOp52
 70
     0
102
RTVSPropertyOp53
 70
     1
102
RTVSPropertyOp54
 70
     1
102
RTVSPropertyOp55
 70
     1
102
RTVSPropertyOp56
 70
     1
102
RTVSPropertyOp57
 70
     1
102
RTVSPropertyOp58
 70
     1
102
RTVSPropertyOp59
 70
     1
102
RTVSPropertyOp60
 70
     1
102
RTVSPropertyOp61
 70
     1
102
RTVSPropertyOp62
 70
     1
  0
XRECORD
  5
10A1
102
{ACAD_REACTORS
330
10A0
102
}
330
10A0
100
AcDbXrecord
280
     1
102
RTVSPost2010Prop28
280
     0
102
RTVSPost2010PropOp28
 70
     1
102
RTVSPost2010Prop29
280
     1
102
RTVSPost2010PropOp29
 70
     1
102
RTVSPost2010Prop30
280
     1
102
RTVSPost2010PropOp30
 70
     1
102
RTVSPost2010Prop31
280
     0
102
RTVSPost2010PropOp31
 70
     1
102
RTVSPost2010Prop32
280
     0
102
RTVSPost2010PropOp32
 70
     1
102
RTVSPost2010Prop33
280
     0
102
RTVSPost2010PropOp33
 70
     1
102
RTVSPost2010Prop34
280
     0
102
RTVSPost2010PropOp34
 70
     1
102
RTVSPost2010Prop35
280
     0
102
RTVSPost2010PropOp35
 70
     1
102
RTVSPost2010Prop36
280
     0
102
RTVSPost2010PropOp36
 70
     1
102
RTVSPost2010Prop37
 90
       50
102
RTVSPost2010PropOp37
 70
     1
102
RTVSPost2010Prop38
140
0.0
102
RTVSPost2010PropOp38
 70
     1
102
RTVSPost2010Prop39
140
1.0
102
RTVSPost2010PropOp39
 70
     1
102
RTVSPost2010Prop40
 90
        0
102
RTVSPost2010PropOp40
 70
     1
102
RTVSPost2010Prop41ColorIndex
 90
       18
102
RTVSPost2010Prop41ColorRGB
 90
        0
102
RTVSPost2010PropOp41
 70
     1
102
RTVSPost2010Prop42
 90
       50
102
RTVSPost2010PropOp42
 70
     1
102
RTVSPost2010Prop43
 90
        3
102
RTVSPost2010PropOp43
 70
     1
102
RTVSPost2010Prop44ColorIndex
 90
        5
102
RTVSPost2010Prop44ColorRGB
 90
      255
102
RTVSPost2010PropOp44
 70
     1
102
RTVSPost2010Prop45
280
     0
102
RTVSPost2010PropOp45
 70
     1
102
RTVSPost2010Prop46
 90
       50
102
RTVSPost2010PropOp46
 70
     1
102
RTVSPost2010Prop47
 90
       50
102
RTVSPost2010PropOp47
 70
     1
102
RTVSPost2010Prop48
 90
       50
102
RTVSPost2010PropOp48
 70
     1
102
RTVSPost2010Prop49
280
     0
102
RTVSPost2010PropOp49
 70
     1
102
RTVSPost2010Prop50
 90
       50
102
RTVSPost2010PropOp50
 70
     1
102
RTVSPost2010Prop51ColorIndex
 90
      256
102
RTVSPost2010Prop51ColorRGB
 90
-16777216
102
RTVSPost2010PropOp51
 70
     0
102
RTVSPost2010Prop52
140
1.0
102
RTVSPost2010PropOp52
 70
     0
102
RTVSPost2010Prop53
 90
        2
102
RTVSPost2010PropOp53
 70
     1
102
RTVSPost2010Prop54
  1
strokes_ogs.tif
102
RTVSPost2010PropOp54
 70
     1
102
RTVSPost2010Prop55
280
     0
102
RTVSPost2010PropOp55
 70
     1
102
RTVSPost2010Prop56
140
1.0
102
RTVSPost2010PropOp56
 70
     1
102
RTVSPost2010Prop57
140
1.0
102
RTVSPost2010PropOp57
 70
     1
102
RTVSPropertyOp0
 70
     0
102
RTVSPropertyOp1
 70
     0
102
RTVSPropertyOp2
 70
     0
102
RTVSPropertyOp3
 70
     0
102
RTVSPropertyOp4
 70
     0
102
RTVSPropertyOp5
 70
     0
102
RTVSPropertyOp6
 70
     0
102
RTVSPropertyOp7
 70
     0
102
RTVSPropertyOp8
 70
     0
102
RTVSPropertyOp9
 70
     0
102
RTVSPropertyOp10
 70
     0
102
RTVSPropertyOp11
 70
     0
102
RTVSPropertyOp12
 70
     0
102
RTVSPropertyOp13
 70
     0
102
RTVSPropertyOp14
 70
     2
102
RTVSPropertyOp15
 70
     0
102
RTVSPropertyOp16
 70
     0
102
RTVSPropertyOp17
 70
     0
102
RTVSPropertyOp18
 70
     0
102
RTVSPropertyOp19
 70
     0
102
RTVSPropertyOp20
 70
     0
102
RTVSPropertyOp21
 70
     0
102
RTVSPropertyOp22
 70
     0
102
RTVSPropertyOp23
 70
     0
102
RTVSPropertyOp24
 70
     0
102
RTVSPropertyOp25
 70
     0
102
RTVSPropertyOp26
 70
     0
102
RTVSPropertyOp27
 70
     0
102
RTVSPropertyOp28
 70
     1
102
RTVSPropertyOp29
 70
     1
102
RTVSPropertyOp30
 70
     1
102
RTVSPropertyOp31
 70
     1
102
RTVSPropertyOp32
 70
     1
102
RTVSPropertyOp33
 70
     1
102
RTVSPropertyOp34
 70
     1
102
RTVSPropertyOp35
 70
     1
102
RTVSPropertyOp36
 70
     1
102
RTVSPropertyOp37
 70
     1
102
RTVSPropertyOp38
 70
     1
102
RTVSPropertyOp39
 70
     1
102
RTVSPropertyOp40
 70
     1
102
RTVSPropertyOp41
 70
     1
102
RTVSPropertyOp42
 70
     1
102
RTVSPropertyOp43
 70
     1
102
RTVSPropertyOp44
 70
     1
102
RTVSPropertyOp45
 70
     1
102
RTVSPropertyOp46
 70
     1
102
RTVSPropertyOp47
 70
     1
102
RTVSPropertyOp48
 70
     1
102
RTVSPropertyOp49
 70
     1
102
RTVSPropertyOp50
 70
     1
102
RTVSPropertyOp51
 70
     0
102
RTVSPropertyOp52
 70
     0
102
RTVSPropertyOp53
 70
     1
102
RTVSPropertyOp54
 70
     1
102
RTVSPropertyOp55
 70
     1
102
RTVSPropertyOp56
 70
     1
102
RTVSPropertyOp57
 70
     1
102
RTVSPropertyOp58
 70
     1
102
RTVSPropertyOp59
 70
     1
102
RTVSPropertyOp60
 70
     1
102
RTVSPropertyOp61
 70
     1
102
RTVSPropertyOp62
 70
     1
  0
XRECORD
  5
1089
102
{ACAD_REACTORS
330
1088
102
}
330
1088
100
AcDbXrecord
280
     1
102
RTVSPost2010Prop28
280
     0
102
RTVSPost2010PropOp28
 70
     1
102
RTVSPost2010Prop29
280
     1
102
RTVSPost2010PropOp29
 70
     1
102
RTVSPost2010Prop30
280
     1
102
RTVSPost2010PropOp30
 70
     1
102
RTVSPost2010Prop31
280
     0
102
RTVSPost2010PropOp31
 70
     1
102
RTVSPost2010Prop32
280
     0
102
RTVSPost2010PropOp32
 70
     1
102
RTVSPost2010Prop33
280
     0
102
RTVSPost2010PropOp33
 70
     1
102
RTVSPost2010Prop34
280
     0
102
RTVSPost2010PropOp34
 70
     1
102
RTVSPost2010Prop35
280
     0
102
RTVSPost2010PropOp35
 70
     1
102
RTVSPost2010Prop36
280
     0
102
RTVSPost2010PropOp36
 70
     1
102
RTVSPost2010Prop37
 90
       50
102
RTVSPost2010PropOp37
 70
     1
102
RTVSPost2010Prop38
140
0.0
102
RTVSPost2010PropOp38
 70
     1
102
RTVSPost2010Prop39
140
1.0
102
RTVSPost2010PropOp39
 70
     1
102
RTVSPost2010Prop40
 90
        0
102
RTVSPost2010PropOp40
 70
     1
102
RTVSPost2010Prop41ColorIndex
 90
       18
102
RTVSPost2010Prop41ColorRGB
 90
        0
102
RTVSPost2010PropOp41
 70
     1
102
RTVSPost2010Prop42
 90
       50
102
RTVSPost2010PropOp42
 70
     1
102
RTVSPost2010Prop43
 90
        3
102
RTVSPost2010PropOp43
 70
     1
102
RTVSPost2010Prop44ColorIndex
 90
        5
102
RTVSPost2010Prop44ColorRGB
 90
      255
102
RTVSPost2010PropOp44
 70
     1
102
RTVSPost2010Prop45
280
     0
102
RTVSPost2010PropOp45
 70
     1
102
RTVSPost2010Prop46
 90
       50
102
RTVSPost2010PropOp46
 70
     1
102
RTVSPost2010Prop47
 90
       50
102
RTVSPost2010PropOp47
 70
     1
102
RTVSPost2010Prop48
 90
       50
102
RTVSPost2010PropOp48
 70
     1
102
RTVSPost2010Prop49
280
     0
102
RTVSPost2010PropOp49
 70
     1
102
RTVSPost2010Prop50
 90
       50
102
RTVSPost2010PropOp50
 70
     1
102
RTVSPost2010Prop51ColorIndex
 90
      256
102
RTVSPost2010Prop51ColorRGB
 90
-16777216
102
RTVSPost2010PropOp51
 70
     0
102
RTVSPost2010Prop52
140
1.0
102
RTVSPost2010PropOp52
 70
     0
102
RTVSPost2010Prop53
 90
        2
102
RTVSPost2010PropOp53
 70
     1
102
RTVSPost2010Prop54
  1
strokes_ogs.tif
102
RTVSPost2010PropOp54
 70
     1
102
RTVSPost2010Prop55
280
     0
102
RTVSPost2010PropOp55
 70
     1
102
RTVSPost2010Prop56
140
1.0
102
RTVSPost2010PropOp56
 70
     1
102
RTVSPost2010Prop57
140
1.0
102
RTVSPost2010PropOp57
 70
     1
102
RTVSPropertyOp0
 70
     1
102
RTVSPropertyOp1
 70
     1
102
RTVSPropertyOp2
 70
     1
102
RTVSPropertyOp3
 70
     1
102
RTVSPropertyOp4
 70
     1
102
RTVSPropertyOp5
 70
     1
102
RTVSPropertyOp6
 70
     1
102
RTVSPropertyOp7
 70
     1
102
RTVSPropertyOp8
 70
     1
102
RTVSPropertyOp9
 70
     1
102
RTVSPropertyOp10
 70
     1
102
RTVSPropertyOp11
 70
     1
102
RTVSPropertyOp12
 70
     1
102
RTVSPropertyOp13
 70
     1
102
RTVSPropertyOp14
 70
     1
102
RTVSPropertyOp15
 70
     1
102
RTVSPropertyOp16
 70
     1
102
RTVSPropertyOp17
 70
     1
102
RTVSPropertyOp18
 70
     1
102
RTVSPropertyOp19
 70
     1
102
RTVSPropertyOp20
 70
     1
102
RTVSPropertyOp21
 70
     1
102
RTVSPropertyOp22
 70
     1
102
RTVSPropertyOp23
 70
     1
102
RTVSPropertyOp24
 70
     1
102
RTVSPropertyOp25
 70
     1
102
RTVSPropertyOp26
 70
     1
102
RTVSPropertyOp27
 70
     1
102
RTVSPropertyOp28
 70
     1
102
RTVSPropertyOp29
 70
     1
102
RTVSPropertyOp30
 70
     1
102
RTVSPropertyOp31
 70
     1
102
RTVSPropertyOp32
 70
     1
102
RTVSPropertyOp33
 70
     1
102
RTVSPropertyOp34
 70
     1
102
RTVSPropertyOp35
 70
     1
102
RTVSPropertyOp36
 70
     1
102
RTVSPropertyOp37
 70
     1
102
RTVSPropertyOp38
 70
     1
102
RTVSPropertyOp39
 70
     1
102
RTVSPropertyOp40
 70
     1
102
RTVSPropertyOp41
 70
     1
102
RTVSPropertyOp42
 70
     1
102
RTVSPropertyOp43
 70
     1
102
RTVSPropertyOp44
 70
     1
102
RTVSPropertyOp45
 70
     1
102
RTVSPropertyOp46
 70
     1
102
RTVSPropertyOp47
 70
     1
102
RTVSPropertyOp48
 70
     1
102
RTVSPropertyOp49
 70
     1
102
RTVSPropertyOp50
 70
     1
102
RTVSPropertyOp51
 70
     0
102
RTVSPropertyOp52
 70
     0
102
RTVSPropertyOp53
 70
     1
102
RTVSPropertyOp54
 70
     1
102
RTVSPropertyOp55
 70
     1
102
RTVSPropertyOp56
 70
     1
102
RTVSPropertyOp57
 70
     1
102
RTVSPropertyOp58
 70
     1
102
RTVSPropertyOp59
 70
     1
102
RTVSPropertyOp60
 70
     1
102
RTVSPropertyOp61
 70
     1
102
RTVSPropertyOp62
 70
     1
  0
XRECORD
  5
106D
102
{ACAD_REACTORS
330
106C
102
}
330
106C
100
AcDbXrecord
280
     1
102
RTVSPost2010Prop28
280
     0
102
RTVSPost2010PropOp28
 70
     1
102
RTVSPost2010Prop29
280
     1
102
RTVSPost2010PropOp29
 70
     1
102
RTVSPost2010Prop30
280
     1
102
RTVSPost2010PropOp30
 70
     1
102
RTVSPost2010Prop31
280
     0
102
RTVSPost2010PropOp31
 70
     1
102
RTVSPost2010Prop32
280
     0
102
RTVSPost2010PropOp32
 70
     1
102
RTVSPost2010Prop33
280
     0
102
RTVSPost2010PropOp33
 70
     1
102
RTVSPost2010Prop34
280
     0
102
RTVSPost2010PropOp34
 70
     1
102
RTVSPost2010Prop35
280
     0
102
RTVSPost2010PropOp35
 70
     1
102
RTVSPost2010Prop36
280
     0
102
RTVSPost2010PropOp36
 70
     1
102
RTVSPost2010Prop37
 90
       50
102
RTVSPost2010PropOp37
 70
     1
102
RTVSPost2010Prop38
140
0.0
102
RTVSPost2010PropOp38
 70
     1
102
RTVSPost2010Prop39
140
1.0
102
RTVSPost2010PropOp39
 70
     1
102
RTVSPost2010Prop40
 90
        0
102
RTVSPost2010PropOp40
 70
     1
102
RTVSPost2010Prop41ColorIndex
 90
       18
102
RTVSPost2010Prop41ColorRGB
 90
        0
102
RTVSPost2010PropOp41
 70
     1
102
RTVSPost2010Prop42
 90
       50
102
RTVSPost2010PropOp42
 70
     1
102
RTVSPost2010Prop43
 90
        3
102
RTVSPost2010PropOp43
 70
     1
102
RTVSPost2010Prop44ColorIndex
 90
        5
102
RTVSPost2010Prop44ColorRGB
 90
      255
102
RTVSPost2010PropOp44
 70
     1
102
RTVSPost2010Prop45
280
     0
102
RTVSPost2010PropOp45
 70
     1
102
RTVSPost2010Prop46
 90
       50
102
RTVSPost2010PropOp46
 70
     1
102
RTVSPost2010Prop47
 90
       50
102
RTVSPost2010PropOp47
 70
     1
102
RTVSPost2010Prop48
 90
       50
102
RTVSPost2010PropOp48
 70
     1
102
RTVSPost2010Prop49
280
     0
102
RTVSPost2010PropOp49
 70
     1
102
RTVSPost2010Prop50
 90
       50
102
RTVSPost2010PropOp50
 70
     1
102
RTVSPost2010Prop51ColorIndex
 90
      256
102
RTVSPost2010Prop51ColorRGB
 90
-16777216
102
RTVSPost2010PropOp51
 70
     0
102
RTVSPost2010Prop52
140
1.0
102
RTVSPost2010PropOp52
 70
     0
102
RTVSPost2010Prop53
 90
        2
102
RTVSPost2010PropOp53
 70
     1
102
RTVSPost2010Prop54
  1
strokes_ogs.tif
102
RTVSPost2010PropOp54
 70
     1
102
RTVSPost2010Prop55
280
     0
102
RTVSPost2010PropOp55
 70
     1
102
RTVSPost2010Prop56
140
1.0
102
RTVSPost2010PropOp56
 70
     1
102
RTVSPost2010Prop57
140
1.0
102
RTVSPost2010PropOp57
 70
     1
102
RTVSPropertyOp0
 70
     1
102
RTVSPropertyOp1
 70
     1
102
RTVSPropertyOp2
 70
     1
102
RTVSPropertyOp3
 70
     1
102
RTVSPropertyOp4
 70
     1
102
RTVSPropertyOp5
 70
     1
102
RTVSPropertyOp6
 70
     1
102
RTVSPropertyOp7
 70
     1
102
RTVSPropertyOp8
 70
     1
102
RTVSPropertyOp9
 70
     1
102
RTVSPropertyOp10
 70
     1
102
RTVSPropertyOp11
 70
     1
102
RTVSPropertyOp12
 70
     1
102
RTVSPropertyOp13
 70
     1
102
RTVSPropertyOp14
 70
     1
102
RTVSPropertyOp15
 70
     1
102
RTVSPropertyOp16
 70
     1
102
RTVSPropertyOp17
 70
     1
102
RTVSPropertyOp18
 70
     1
102
RTVSPropertyOp19
 70
     1
102
RTVSPropertyOp20
 70
     1
102
RTVSPropertyOp21
 70
     1
102
RTVSPropertyOp22
 70
     1
102
RTVSPropertyOp23
 70
     1
102
RTVSPropertyOp24
 70
     1
102
RTVSPropertyOp25
 70
     1
102
RTVSPropertyOp26
 70
     1
102
RTVSPropertyOp27
 70
     1
102
RTVSPropertyOp28
 70
     1
102
RTVSPropertyOp29
 70
     1
102
RTVSPropertyOp30
 70
     1
102
RTVSPropertyOp31
 70
     1
102
RTVSPropertyOp32
 70
     1
102
RTVSPropertyOp33
 70
     1
102
RTVSPropertyOp34
 70
     1
102
RTVSPropertyOp35
 70
     1
102
RTVSPropertyOp36
 70
     1
102
RTVSPropertyOp37
 70
     1
102
RTVSPropertyOp38
 70
     1
102
RTVSPropertyOp39
 70
     1
102
RTVSPropertyOp40
 70
     1
102
RTVSPropertyOp41
 70
     1
102
RTVSPropertyOp42
 70
     1
102
RTVSPropertyOp43
 70
     1
102
RTVSPropertyOp44
 70
     1
102
RTVSPropertyOp45
 70
     1
102
RTVSPropertyOp46
 70
     1
102
RTVSPropertyOp47
 70
     1
102
RTVSPropertyOp48
 70
     1
102
RTVSPropertyOp49
 70
     1
102
RTVSPropertyOp50
 70
     1
102
RTVSPropertyOp51
 70
     0
102
RTVSPropertyOp52
 70
     0
102
RTVSPropertyOp53
 70
     1
102
RTVSPropertyOp54
 70
     1
102
RTVSPropertyOp55
 70
     1
102
RTVSPropertyOp56
 70
     1
102
RTVSPropertyOp57
 70
     1
102
RTVSPropertyOp58
 70
     1
102
RTVSPropertyOp59
 70
     1
102
RTVSPropertyOp60
 70
     1
102
RTVSPropertyOp61
 70
     1
102
RTVSPropertyOp62
 70
     1
  0
XRECORD
  5
106F
102
{ACAD_REACTORS
330
106E
102
}
330
106E
100
AcDbXrecord
280
     1
102
RTVSPost2010Prop28
280
     0
102
RTVSPost2010PropOp28
 70
     1
102
RTVSPost2010Prop29
280
     1
102
RTVSPost2010PropOp29
 70
     1
102
RTVSPost2010Prop30
280
     1
102
RTVSPost2010PropOp30
 70
     1
102
RTVSPost2010Prop31
280
     0
102
RTVSPost2010PropOp31
 70
     1
102
RTVSPost2010Prop32
280
     0
102
RTVSPost2010PropOp32
 70
     1
102
RTVSPost2010Prop33
280
     0
102
RTVSPost2010PropOp33
 70
     1
102
RTVSPost2010Prop34
280
     0
102
RTVSPost2010PropOp34
 70
     1
102
RTVSPost2010Prop35
280
     0
102
RTVSPost2010PropOp35
 70
     1
102
RTVSPost2010Prop36
280
     0
102
RTVSPost2010PropOp36
 70
     1
102
RTVSPost2010Prop37
 90
       50
102
RTVSPost2010PropOp37
 70
     1
102
RTVSPost2010Prop38
140
0.0
102
RTVSPost2010PropOp38
 70
     1
102
RTVSPost2010Prop39
140
1.0
102
RTVSPost2010PropOp39
 70
     1
102
RTVSPost2010Prop40
 90
        0
102
RTVSPost2010PropOp40
 70
     1
102
RTVSPost2010Prop41ColorIndex
 90
       18
102
RTVSPost2010Prop41ColorRGB
 90
        0
102
RTVSPost2010PropOp41
 70
     1
102
RTVSPost2010Prop42
 90
       50
102
RTVSPost2010PropOp42
 70
     1
102
RTVSPost2010Prop43
 90
        3
102
RTVSPost2010PropOp43
 70
     1
102
RTVSPost2010Prop44ColorIndex
 90
        5
102
RTVSPost2010Prop44ColorRGB
 90
      255
102
RTVSPost2010PropOp44
 70
     1
102
RTVSPost2010Prop45
280
     0
102
RTVSPost2010PropOp45
 70
     1
102
RTVSPost2010Prop46
 90
       50
102
RTVSPost2010PropOp46
 70
     1
102
RTVSPost2010Prop47
 90
       50
102
RTVSPost2010PropOp47
 70
     1
102
RTVSPost2010Prop48
 90
       50
102
RTVSPost2010PropOp48
 70
     1
102
RTVSPost2010Prop49
280
     0
102
RTVSPost2010PropOp49
 70
     1
102
RTVSPost2010Prop50
 90
       50
102
RTVSPost2010PropOp50
 70
     1
102
RTVSPost2010Prop51ColorIndex
 90
      256
102
RTVSPost2010Prop51ColorRGB
 90
-16777216
102
RTVSPost2010PropOp51
 70
     0
102
RTVSPost2010Prop52
140
1.0
102
RTVSPost2010PropOp52
 70
     0
102
RTVSPost2010Prop53
 90
        2
102
RTVSPost2010PropOp53
 70
     1
102
RTVSPost2010Prop54
  1
strokes_ogs.tif
102
RTVSPost2010PropOp54
 70
     1
102
RTVSPost2010Prop55
280
     0
102
RTVSPost2010PropOp55
 70
     1
102
RTVSPost2010Prop56
140
1.0
102
RTVSPost2010PropOp56
 70
     1
102
RTVSPost2010Prop57
140
1.0
102
RTVSPost2010PropOp57
 70
     1
102
RTVSPropertyOp0
 70
     1
102
RTVSPropertyOp1
 70
     1
102
RTVSPropertyOp2
 70
     1
102
RTVSPropertyOp3
 70
     1
102
RTVSPropertyOp4
 70
     1
102
RTVSPropertyOp5
 70
     1
102
RTVSPropertyOp6
 70
     1
102
RTVSPropertyOp7
 70
     1
102
RTVSPropertyOp8
 70
     1
102
RTVSPropertyOp9
 70
     1
102
RTVSPropertyOp10
 70
     1
102
RTVSPropertyOp11
 70
     1
102
RTVSPropertyOp12
 70
     1
102
RTVSPropertyOp13
 70
     1
102
RTVSPropertyOp14
 70
     1
102
RTVSPropertyOp15
 70
     1
102
RTVSPropertyOp16
 70
     1
102
RTVSPropertyOp17
 70
     1
102
RTVSPropertyOp18
 70
     1
102
RTVSPropertyOp19
 70
     1
102
RTVSPropertyOp20
 70
     1
102
RTVSPropertyOp21
 70
     1
102
RTVSPropertyOp22
 70
     1
102
RTVSPropertyOp23
 70
     1
102
RTVSPropertyOp24
 70
     1
102
RTVSPropertyOp25
 70
     1
102
RTVSPropertyOp26
 70
     1
102
RTVSPropertyOp27
 70
     1
102
RTVSPropertyOp28
 70
     1
102
RTVSPropertyOp29
 70
     1
102
RTVSPropertyOp30
 70
     1
102
RTVSPropertyOp31
 70
     1
102
RTVSPropertyOp32
 70
     1
102
RTVSPropertyOp33
 70
     1
102
RTVSPropertyOp34
 70
     1
102
RTVSPropertyOp35
 70
     1
102
RTVSPropertyOp36
 70
     1
102
RTVSPropertyOp37
 70
     1
102
RTVSPropertyOp38
 70
     1
102
RTVSPropertyOp39
 70
     1
102
RTVSPropertyOp40
 70
     1
102
RTVSPropertyOp41
 70
     1
102
RTVSPropertyOp42
 70
     1
102
RTVSPropertyOp43
 70
     1
102
RTVSPropertyOp44
 70
     1
102
RTVSPropertyOp45
 70
     1
102
RTVSPropertyOp46
 70
     1
102
RTVSPropertyOp47
 70
     1
102
RTVSPropertyOp48
 70
     1
102
RTVSPropertyOp49
 70
     1
102
RTVSPropertyOp50
 70
     1
102
RTVSPropertyOp51
 70
     0
102
RTVSPropertyOp52
 70
     0
102
RTVSPropertyOp53
 70
     1
102
RTVSPropertyOp54
 70
     1
102
RTVSPropertyOp55
 70
     1
102
RTVSPropertyOp56
 70
     1
102
RTVSPropertyOp57
 70
     1
102
RTVSPropertyOp58
 70
     1
102
RTVSPropertyOp59
 70
     1
102
RTVSPropertyOp60
 70
     1
102
RTVSPropertyOp61
 70
     1
102
RTVSPropertyOp62
 70
     1
  0
XRECORD
  5
1071
102
{ACAD_REACTORS
330
1070
102
}
330
1070
100
AcDbXrecord
280
     1
102
RTVSPost2010Prop28
280
     0
102
RTVSPost2010PropOp28
 70
     1
102
RTVSPost2010Prop29
280
     1
102
RTVSPost2010PropOp29
 70
     1
102
RTVSPost2010Prop30
280
     1
102
RTVSPost2010PropOp30
 70
     1
102
RTVSPost2010Prop31
280
     0
102
RTVSPost2010PropOp31
 70
     1
102
RTVSPost2010Prop32
280
     0
102
RTVSPost2010PropOp32
 70
     1
102
RTVSPost2010Prop33
280
     0
102
RTVSPost2010PropOp33
 70
     1
102
RTVSPost2010Prop34
280
     0
102
RTVSPost2010PropOp34
 70
     1
102
RTVSPost2010Prop35
280
     0
102
RTVSPost2010PropOp35
 70
     1
102
RTVSPost2010Prop36
280
     0
102
RTVSPost2010PropOp36
 70
     1
102
RTVSPost2010Prop37
 90
       50
102
RTVSPost2010PropOp37
 70
     1
102
RTVSPost2010Prop38
140
0.0
102
RTVSPost2010PropOp38
 70
     1
102
RTVSPost2010Prop39
140
1.0
102
RTVSPost2010PropOp39
 70
     1
102
RTVSPost2010Prop40
 90
        0
102
RTVSPost2010PropOp40
 70
     1
102
RTVSPost2010Prop41ColorIndex
 90
       18
102
RTVSPost2010Prop41ColorRGB
 90
        0
102
RTVSPost2010PropOp41
 70
     1
102
RTVSPost2010Prop42
 90
       50
102
RTVSPost2010PropOp42
 70
     1
102
RTVSPost2010Prop43
 90
        3
102
RTVSPost2010PropOp43
 70
     1
102
RTVSPost2010Prop44ColorIndex
 90
        5
102
RTVSPost2010Prop44ColorRGB
 90
      255
102
RTVSPost2010PropOp44
 70
     1
102
RTVSPost2010Prop45
280
     0
102
RTVSPost2010PropOp45
 70
     1
102
RTVSPost2010Prop46
 90
       50
102
RTVSPost2010PropOp46
 70
     1
102
RTVSPost2010Prop47
 90
       50
102
RTVSPost2010PropOp47
 70
     1
102
RTVSPost2010Prop48
 90
       50
102
RTVSPost2010PropOp48
 70
     1
102
RTVSPost2010Prop49
280
     0
102
RTVSPost2010PropOp49
 70
     1
102
RTVSPost2010Prop50
 90
       50
102
RTVSPost2010PropOp50
 70
     1
102
RTVSPost2010Prop51ColorIndex
 90
      256
102
RTVSPost2010Prop51ColorRGB
 90
-16777216
102
RTVSPost2010PropOp51
 70
     0
102
RTVSPost2010Prop52
140
1.0
102
RTVSPost2010PropOp52
 70
     0
102
RTVSPost2010Prop53
 90
        2
102
RTVSPost2010PropOp53
 70
     1
102
RTVSPost2010Prop54
  1
strokes_ogs.tif
102
RTVSPost2010PropOp54
 70
     1
102
RTVSPost2010Prop55
280
     0
102
RTVSPost2010PropOp55
 70
     1
102
RTVSPost2010Prop56
140
1.0
102
RTVSPost2010PropOp56
 70
     1
102
RTVSPost2010Prop57
140
1.0
102
RTVSPost2010PropOp57
 70
     1
102
RTVSPropertyOp0
 70
     1
102
RTVSPropertyOp1
 70
     1
102
RTVSPropertyOp2
 70
     1
102
RTVSPropertyOp3
 70
     1
102
RTVSPropertyOp4
 70
     1
102
RTVSPropertyOp5
 70
     1
102
RTVSPropertyOp6
 70
     1
102
RTVSPropertyOp7
 70
     1
102
RTVSPropertyOp8
 70
     1
102
RTVSPropertyOp9
 70
     1
102
RTVSPropertyOp10
 70
     1
102
RTVSPropertyOp11
 70
     1
102
RTVSPropertyOp12
 70
     1
102
RTVSPropertyOp13
 70
     1
102
RTVSPropertyOp14
 70
     1
102
RTVSPropertyOp15
 70
     1
102
RTVSPropertyOp16
 70
     1
102
RTVSPropertyOp17
 70
     1
102
RTVSPropertyOp18
 70
     1
102
RTVSPropertyOp19
 70
     1
102
RTVSPropertyOp20
 70
     1
102
RTVSPropertyOp21
 70
     1
102
RTVSPropertyOp22
 70
     1
102
RTVSPropertyOp23
 70
     1
102
RTVSPropertyOp24
 70
     1
102
RTVSPropertyOp25
 70
     1
102
RTVSPropertyOp26
 70
     1
102
RTVSPropertyOp27
 70
     1
102
RTVSPropertyOp28
 70
     1
102
RTVSPropertyOp29
 70
     1
102
RTVSPropertyOp30
 70
     1
102
RTVSPropertyOp31
 70
     1
102
RTVSPropertyOp32
 70
     1
102
RTVSPropertyOp33
 70
     1
102
RTVSPropertyOp34
 70
     1
102
RTVSPropertyOp35
 70
     1
102
RTVSPropertyOp36
 70
     1
102
RTVSPropertyOp37
 70
     1
102
RTVSPropertyOp38
 70
     1
102
RTVSPropertyOp39
 70
     1
102
RTVSPropertyOp40
 70
     1
102
RTVSPropertyOp41
 70
     1
102
RTVSPropertyOp42
 70
     1
102
RTVSPropertyOp43
 70
     1
102
RTVSPropertyOp44
 70
     1
102
RTVSPropertyOp45
 70
     1
102
RTVSPropertyOp46
 70
     1
102
RTVSPropertyOp47
 70
     1
102
RTVSPropertyOp48
 70
     1
102
RTVSPropertyOp49
 70
     1
102
RTVSPropertyOp50
 70
     1
102
RTVSPropertyOp51
 70
     0
102
RTVSPropertyOp52
 70
     0
102
RTVSPropertyOp53
 70
     1
102
RTVSPropertyOp54
 70
     1
102
RTVSPropertyOp55
 70
     1
102
RTVSPropertyOp56
 70
     1
102
RTVSPropertyOp57
 70
     1
102
RTVSPropertyOp58
 70
     1
102
RTVSPropertyOp59
 70
     1
102
RTVSPropertyOp60
 70
     1
102
RTVSPropertyOp61
 70
     1
102
RTVSPropertyOp62
 70
     1
  0
XRECORD
  5
1073
102
{ACAD_REACTORS
330
1072
102
}
330
1072
100
AcDbXrecord
280
     1
102
RTVSPost2010Prop28
280
     0
102
RTVSPost2010PropOp28
 70
     1
102
RTVSPost2010Prop29
280
     1
102
RTVSPost2010PropOp29
 70
     1
102
RTVSPost2010Prop30
280
     1
102
RTVSPost2010PropOp30
 70
     1
102
RTVSPost2010Prop31
280
     0
102
RTVSPost2010PropOp31
 70
     1
102
RTVSPost2010Prop32
280
     0
102
RTVSPost2010PropOp32
 70
     1
102
RTVSPost2010Prop33
280
     0
102
RTVSPost2010PropOp33
 70
     1
102
RTVSPost2010Prop34
280
     0
102
RTVSPost2010PropOp34
 70
     1
102
RTVSPost2010Prop35
280
     0
102
RTVSPost2010PropOp35
 70
     1
102
RTVSPost2010Prop36
280
     0
102
RTVSPost2010PropOp36
 70
     1
102
RTVSPost2010Prop37
 90
       50
102
RTVSPost2010PropOp37
 70
     1
102
RTVSPost2010Prop38
140
0.0
102
RTVSPost2010PropOp38
 70
     1
102
RTVSPost2010Prop39
140
1.0
102
RTVSPost2010PropOp39
 70
     1
102
RTVSPost2010Prop40
 90
        0
102
RTVSPost2010PropOp40
 70
     1
102
RTVSPost2010Prop41ColorIndex
 90
       18
102
RTVSPost2010Prop41ColorRGB
 90
        0
102
RTVSPost2010PropOp41
 70
     1
102
RTVSPost2010Prop42
 90
       50
102
RTVSPost2010PropOp42
 70
     1
102
RTVSPost2010Prop43
 90
        3
102
RTVSPost2010PropOp43
 70
     1
102
RTVSPost2010Prop44ColorIndex
 90
        5
102
RTVSPost2010Prop44ColorRGB
 90
      255
102
RTVSPost2010PropOp44
 70
     1
102
RTVSPost2010Prop45
280
     0
102
RTVSPost2010PropOp45
 70
     1
102
RTVSPost2010Prop46
 90
       50
102
RTVSPost2010PropOp46
 70
     1
102
RTVSPost2010Prop47
 90
       50
102
RTVSPost2010PropOp47
 70
     1
102
RTVSPost2010Prop48
 90
       50
102
RTVSPost2010PropOp48
 70
     1
102
RTVSPost2010Prop49
280
     0
102
RTVSPost2010PropOp49
 70
     1
102
RTVSPost2010Prop50
 90
       50
102
RTVSPost2010PropOp50
 70
     1
102
RTVSPost2010Prop51ColorIndex
 90
      256
102
RTVSPost2010Prop51ColorRGB
 90
-16777216
102
RTVSPost2010PropOp51
 70
     0
102
RTVSPost2010Prop52
140
1.0
102
RTVSPost2010PropOp52
 70
     0
102
RTVSPost2010Prop53
 90
        2
102
RTVSPost2010PropOp53
 70
     1
102
RTVSPost2010Prop54
  1
strokes_ogs.tif
102
RTVSPost2010PropOp54
 70
     1
102
RTVSPost2010Prop55
280
     0
102
RTVSPost2010PropOp55
 70
     1
102
RTVSPost2010Prop56
140
1.0
102
RTVSPost2010PropOp56
 70
     1
102
RTVSPost2010Prop57
140
1.0
102
RTVSPost2010PropOp57
 70
     1
102
RTVSPropertyOp0
 70
     1
102
RTVSPropertyOp1
 70
     1
102
RTVSPropertyOp2
 70
     1
102
RTVSPropertyOp3
 70
     1
102
RTVSPropertyOp4
 70
     1
102
RTVSPropertyOp5
 70
     1
102
RTVSPropertyOp6
 70
     1
102
RTVSPropertyOp7
 70
     1
102
RTVSPropertyOp8
 70
     1
102
RTVSPropertyOp9
 70
     1
102
RTVSPropertyOp10
 70
     1
102
RTVSPropertyOp11
 70
     1
102
RTVSPropertyOp12
 70
     1
102
RTVSPropertyOp13
 70
     1
102
RTVSPropertyOp14
 70
     1
102
RTVSPropertyOp15
 70
     1
102
RTVSPropertyOp16
 70
     1
102
RTVSPropertyOp17
 70
     1
102
RTVSPropertyOp18
 70
     1
102
RTVSPropertyOp19
 70
     1
102
RTVSPropertyOp20
 70
     1
102
RTVSPropertyOp21
 70
     1
102
RTVSPropertyOp22
 70
     1
102
RTVSPropertyOp23
 70
     1
102
RTVSPropertyOp24
 70
     1
102
RTVSPropertyOp25
 70
     1
102
RTVSPropertyOp26
 70
     1
102
RTVSPropertyOp27
 70
     1
102
RTVSPropertyOp28
 70
     1
102
RTVSPropertyOp29
 70
     1
102
RTVSPropertyOp30
 70
     1
102
RTVSPropertyOp31
 70
     1
102
RTVSPropertyOp32
 70
     1
102
RTVSPropertyOp33
 70
     1
102
RTVSPropertyOp34
 70
     1
102
RTVSPropertyOp35
 70
     1
102
RTVSPropertyOp36
 70
     1
102
RTVSPropertyOp37
 70
     1
102
RTVSPropertyOp38
 70
     1
102
RTVSPropertyOp39
 70
     1
102
RTVSPropertyOp40
 70
     1
102
RTVSPropertyOp41
 70
     1
102
RTVSPropertyOp42
 70
     1
102
RTVSPropertyOp43
 70
     1
102
RTVSPropertyOp44
 70
     1
102
RTVSPropertyOp45
 70
     1
102
RTVSPropertyOp46
 70
     1
102
RTVSPropertyOp47
 70
     1
102
RTVSPropertyOp48
 70
     1
102
RTVSPropertyOp49
 70
     1
102
RTVSPropertyOp50
 70
     1
102
RTVSPropertyOp51
 70
     0
102
RTVSPropertyOp52
 70
     0
102
RTVSPropertyOp53
 70
     1
102
RTVSPropertyOp54
 70
     1
102
RTVSPropertyOp55
 70
     1
102
RTVSPropertyOp56
 70
     1
102
RTVSPropertyOp57
 70
     1
102
RTVSPropertyOp58
 70
     1
102
RTVSPropertyOp59
 70
     1
102
RTVSPropertyOp60
 70
     1
102
RTVSPropertyOp61
 70
     1
102
RTVSPropertyOp62
 70
     1
  0
XRECORD
  5
1091
102
{ACAD_REACTORS
330
1090
102
}
330
1090
100
AcDbXrecord
280
     1
102
RTVSPost2010Prop28
280
     0
102
RTVSPost2010PropOp28
 70
     1
102
RTVSPost2010Prop29
280
     1
102
RTVSPost2010PropOp29
 70
     1
102
RTVSPost2010Prop30
280
     1
102
RTVSPost2010PropOp30
 70
     1
102
RTVSPost2010Prop31
280
     0
102
RTVSPost2010PropOp31
 70
     1
102
RTVSPost2010Prop32
280
     0
102
RTVSPost2010PropOp32
 70
     1
102
RTVSPost2010Prop33
280
     0
102
RTVSPost2010PropOp33
 70
     1
102
RTVSPost2010Prop34
280
     0
102
RTVSPost2010PropOp34
 70
     1
102
RTVSPost2010Prop35
280
     0
102
RTVSPost2010PropOp35
 70
     1
102
RTVSPost2010Prop36
280
     0
102
RTVSPost2010PropOp36
 70
     1
102
RTVSPost2010Prop37
 90
       50
102
RTVSPost2010PropOp37
 70
     1
102
RTVSPost2010Prop38
140
0.0
102
RTVSPost2010PropOp38
 70
     1
102
RTVSPost2010Prop39
140
1.0
102
RTVSPost2010PropOp39
 70
     1
102
RTVSPost2010Prop40
 90
        0
102
RTVSPost2010PropOp40
 70
     1
102
RTVSPost2010Prop41ColorIndex
 90
       18
102
RTVSPost2010Prop41ColorRGB
 90
        0
102
RTVSPost2010PropOp41
 70
     1
102
RTVSPost2010Prop42
 90
       50
102
RTVSPost2010PropOp42
 70
     1
102
RTVSPost2010Prop43
 90
        3
102
RTVSPost2010PropOp43
 70
     1
102
RTVSPost2010Prop44ColorIndex
 90
        5
102
RTVSPost2010Prop44ColorRGB
 90
      255
102
RTVSPost2010PropOp44
 70
     1
102
RTVSPost2010Prop45
280
     0
102
RTVSPost2010PropOp45
 70
     1
102
RTVSPost2010Prop46
 90
       50
102
RTVSPost2010PropOp46
 70
     1
102
RTVSPost2010Prop47
 90
       50
102
RTVSPost2010PropOp47
 70
     1
102
RTVSPost2010Prop48
 90
       50
102
RTVSPost2010PropOp48
 70
     1
102
RTVSPost2010Prop49
280
     0
102
RTVSPost2010PropOp49
 70
     1
102
RTVSPost2010Prop50
 90
       50
102
RTVSPost2010PropOp50
 70
     1
102
RTVSPost2010Prop51ColorIndex
 90
      256
102
RTVSPost2010Prop51ColorRGB
 90
-16777216
102
RTVSPost2010PropOp51
 70
     0
102
RTVSPost2010Prop52
140
1.0
102
RTVSPost2010PropOp52
 70
     0
102
RTVSPost2010Prop53
 90
        2
102
RTVSPost2010PropOp53
 70
     1
102
RTVSPost2010Prop54
  1
strokes_ogs.tif
102
RTVSPost2010PropOp54
 70
     1
102
RTVSPost2010Prop55
280
     0
102
RTVSPost2010PropOp55
 70
     1
102
RTVSPost2010Prop56
140
1.0
102
RTVSPost2010PropOp56
 70
     1
102
RTVSPost2010Prop57
140
1.0
102
RTVSPost2010PropOp57
 70
     1
102
RTVSPropertyOp0
 70
     1
102
RTVSPropertyOp1
 70
     1
102
RTVSPropertyOp2
 70
     1
102
RTVSPropertyOp3
 70
     1
102
RTVSPropertyOp4
 70
     1
102
RTVSPropertyOp5
 70
     1
102
RTVSPropertyOp6
 70
     1
102
RTVSPropertyOp7
 70
     1
102
RTVSPropertyOp8
 70
     1
102
RTVSPropertyOp9
 70
     1
102
RTVSPropertyOp10
 70
     1
102
RTVSPropertyOp11
 70
     1
102
RTVSPropertyOp12
 70
     1
102
RTVSPropertyOp13
 70
     1
102
RTVSPropertyOp14
 70
     1
102
RTVSPropertyOp15
 70
     1
102
RTVSPropertyOp16
 70
     1
102
RTVSPropertyOp17
 70
     1
102
RTVSPropertyOp18
 70
     1
102
RTVSPropertyOp19
 70
     1
102
RTVSPropertyOp20
 70
     1
102
RTVSPropertyOp21
 70
     1
102
RTVSPropertyOp22
 70
     1
102
RTVSPropertyOp23
 70
     1
102
RTVSPropertyOp24
 70
     1
102
RTVSPropertyOp25
 70
     1
102
RTVSPropertyOp26
 70
     1
102
RTVSPropertyOp27
 70
     1
102
RTVSPropertyOp28
 70
     1
102
RTVSPropertyOp29
 70
     1
102
RTVSPropertyOp30
 70
     1
102
RTVSPropertyOp31
 70
     1
102
RTVSPropertyOp32
 70
     1
102
RTVSPropertyOp33
 70
     1
102
RTVSPropertyOp34
 70
     1
102
RTVSPropertyOp35
 70
     1
102
RTVSPropertyOp36
 70
     1
102
RTVSPropertyOp37
 70
     1
102
RTVSPropertyOp38
 70
     1
102
RTVSPropertyOp39
 70
     1
102
RTVSPropertyOp40
 70
     1
102
RTVSPropertyOp41
 70
     1
102
RTVSPropertyOp42
 70
     1
102
RTVSPropertyOp43
 70
     1
102
RTVSPropertyOp44
 70
     1
102
RTVSPropertyOp45
 70
     1
102
RTVSPropertyOp46
 70
     1
102
RTVSPropertyOp47
 70
     1
102
RTVSPropertyOp48
 70
     1
102
RTVSPropertyOp49
 70
     1
102
RTVSPropertyOp50
 70
     1
102
RTVSPropertyOp51
 70
     0
102
RTVSPropertyOp52
 70
     0
102
RTVSPropertyOp53
 70
     1
102
RTVSPropertyOp54
 70
     1
102
RTVSPropertyOp55
 70
     1
102
RTVSPropertyOp56
 70
     1
102
RTVSPropertyOp57
 70
     1
102
RTVSPropertyOp58
 70
     1
102
RTVSPropertyOp59
 70
     1
102
RTVSPropertyOp60
 70
     1
102
RTVSPropertyOp61
 70
     1
102
RTVSPropertyOp62
 70
     1
  0
XRECORD
  5
109D
102
{ACAD_REACTORS
330
109C
102
}
330
109C
100
AcDbXrecord
280
     1
102
RTVSPost2010Prop28
280
     0
102
RTVSPost2010PropOp28
 70
     1
102
RTVSPost2010Prop29
280
     1
102
RTVSPost2010PropOp29
 70
     1
102
RTVSPost2010Prop30
280
     1
102
RTVSPost2010PropOp30
 70
     1
102
RTVSPost2010Prop31
280
     0
102
RTVSPost2010PropOp31
 70
     1
102
RTVSPost2010Prop32
280
     0
102
RTVSPost2010PropOp32
 70
     1
102
RTVSPost2010Prop33
280
     0
102
RTVSPost2010PropOp33
 70
     1
102
RTVSPost2010Prop34
280
     0
102
RTVSPost2010PropOp34
 70
     1
102
RTVSPost2010Prop35
280
     0
102
RTVSPost2010PropOp35
 70
     1
102
RTVSPost2010Prop36
280
     0
102
RTVSPost2010PropOp36
 70
     1
102
RTVSPost2010Prop37
 90
       50
102
RTVSPost2010PropOp37
 70
     1
102
RTVSPost2010Prop38
140
0.0
102
RTVSPost2010PropOp38
 70
     1
102
RTVSPost2010Prop39
140
1.0
102
RTVSPost2010PropOp39
 70
     1
102
RTVSPost2010Prop40
 90
        0
102
RTVSPost2010PropOp40
 70
     1
102
RTVSPost2010Prop41ColorIndex
 90
       18
102
RTVSPost2010Prop41ColorRGB
 90
        0
102
RTVSPost2010PropOp41
 70
     1
102
RTVSPost2010Prop42
 90
       50
102
RTVSPost2010PropOp42
 70
     1
102
RTVSPost2010Prop43
 90
        3
102
RTVSPost2010PropOp43
 70
     1
102
RTVSPost2010Prop44ColorIndex
 90
        5
102
RTVSPost2010Prop44ColorRGB
 90
      255
102
RTVSPost2010PropOp44
 70
     1
102
RTVSPost2010Prop45
280
     0
102
RTVSPost2010PropOp45
 70
     1
102
RTVSPost2010Prop46
 90
       50
102
RTVSPost2010PropOp46
 70
     1
102
RTVSPost2010Prop47
 90
       50
102
RTVSPost2010PropOp47
 70
     1
102
RTVSPost2010Prop48
 90
       50
102
RTVSPost2010PropOp48
 70
     1
102
RTVSPost2010Prop49
280
     0
102
RTVSPost2010PropOp49
 70
     1
102
RTVSPost2010Prop50
 90
       50
102
RTVSPost2010PropOp50
 70
     1
102
RTVSPost2010Prop51ColorIndex
 90
      256
102
RTVSPost2010Prop51ColorRGB
 90
-16777216
102
RTVSPost2010PropOp51
 70
     0
102
RTVSPost2010Prop52
140
1.0
102
RTVSPost2010PropOp52
 70
     0
102
RTVSPost2010Prop53
 90
        2
102
RTVSPost2010PropOp53
 70
     1
102
RTVSPost2010Prop54
  1
strokes_ogs.tif
102
RTVSPost2010PropOp54
 70
     1
102
RTVSPost2010Prop55
280
     0
102
RTVSPost2010PropOp55
 70
     1
102
RTVSPost2010Prop56
140
1.0
102
RTVSPost2010PropOp56
 70
     1
102
RTVSPost2010Prop57
140
1.0
102
RTVSPost2010PropOp57
 70
     1
102
RTVSPropertyOp0
 70
     0
102
RTVSPropertyOp1
 70
     0
102
RTVSPropertyOp2
 70
     0
102
RTVSPropertyOp3
 70
     0
102
RTVSPropertyOp4
 70
     0
102
RTVSPropertyOp5
 70
     0
102
RTVSPropertyOp6
 70
     0
102
RTVSPropertyOp7
 70
     0
102
RTVSPropertyOp8
 70
     0
102
RTVSPropertyOp9
 70
     0
102
RTVSPropertyOp10
 70
     0
102
RTVSPropertyOp11
 70
     0
102
RTVSPropertyOp12
 70
     0
102
RTVSPropertyOp13
 70
     0
102
RTVSPropertyOp14
 70
     2
102
RTVSPropertyOp15
 70
     0
102
RTVSPropertyOp16
 70
     0
102
RTVSPropertyOp17
 70
     0
102
RTVSPropertyOp18
 70
     0
102
RTVSPropertyOp19
 70
     0
102
RTVSPropertyOp20
 70
     0
102
RTVSPropertyOp21
 70
     0
102
RTVSPropertyOp22
 70
     0
102
RTVSPropertyOp23
 70
     0
102
RTVSPropertyOp24
 70
     0
102
RTVSPropertyOp25
 70
     0
102
RTVSPropertyOp26
 70
     0
102
RTVSPropertyOp27
 70
     0
102
RTVSPropertyOp28
 70
     1
102
RTVSPropertyOp29
 70
     1
102
RTVSPropertyOp30
 70
     1
102
RTVSPropertyOp31
 70
     1
102
RTVSPropertyOp32
 70
     1
102
RTVSPropertyOp33
 70
     1
102
RTVSPropertyOp34
 70
     1
102
RTVSPropertyOp35
 70
     1
102
RTVSPropertyOp36
 70
     1
102
RTVSPropertyOp37
 70
     1
102
RTVSPropertyOp38
 70
     1
102
RTVSPropertyOp39
 70
     1
102
RTVSPropertyOp40
 70
     1
102
RTVSPropertyOp41
 70
     1
102
RTVSPropertyOp42
 70
     1
102
RTVSPropertyOp43
 70
     1
102
RTVSPropertyOp44
 70
     1
102
RTVSPropertyOp45
 70
     1
102
RTVSPropertyOp46
 70
     1
102
RTVSPropertyOp47
 70
     1
102
RTVSPropertyOp48
 70
     1
102
RTVSPropertyOp49
 70
     1
102
RTVSPropertyOp50
 70
     1
102
RTVSPropertyOp51
 70
     0
102
RTVSPropertyOp52
 70
     0
102
RTVSPropertyOp53
 70
     1
102
RTVSPropertyOp54
 70
     1
102
RTVSPropertyOp55
 70
     1
102
RTVSPropertyOp56
 70
     1
102
RTVSPropertyOp57
 70
     1
102
RTVSPropertyOp58
 70
     1
102
RTVSPropertyOp59
 70
     1
102
RTVSPropertyOp60
 70
     1
102
RTVSPropertyOp61
 70
     1
102
RTVSPropertyOp62
 70
     1
  0
XRECORD
  5
1087
102
{ACAD_REACTORS
330
1086
102
}
330
1086
100
AcDbXrecord
280
     1
102
RTVSPost2010Prop28
280
     0
102
RTVSPost2010PropOp28
 70
     1
102
RTVSPost2010Prop29
280
     1
102
RTVSPost2010PropOp29
 70
     1
102
RTVSPost2010Prop30
280
     1
102
RTVSPost2010PropOp30
 70
     1
102
RTVSPost2010Prop31
280
     0
102
RTVSPost2010PropOp31
 70
     1
102
RTVSPost2010Prop32
280
     0
102
RTVSPost2010PropOp32
 70
     1
102
RTVSPost2010Prop33
280
     0
102
RTVSPost2010PropOp33
 70
     1
102
RTVSPost2010Prop34
280
     0
102
RTVSPost2010PropOp34
 70
     1
102
RTVSPost2010Prop35
280
     0
102
RTVSPost2010PropOp35
 70
     1
102
RTVSPost2010Prop36
280
     0
102
RTVSPost2010PropOp36
 70
     1
102
RTVSPost2010Prop37
 90
       50
102
RTVSPost2010PropOp37
 70
     1
102
RTVSPost2010Prop38
140
0.0
102
RTVSPost2010PropOp38
 70
     1
102
RTVSPost2010Prop39
140
1.0
102
RTVSPost2010PropOp39
 70
     1
102
RTVSPost2010Prop40
 90
        0
102
RTVSPost2010PropOp40
 70
     1
102
RTVSPost2010Prop41ColorIndex
 90
       18
102
RTVSPost2010Prop41ColorRGB
 90
        0
102
RTVSPost2010PropOp41
 70
     1
102
RTVSPost2010Prop42
 90
       50
102
RTVSPost2010PropOp42
 70
     1
102
RTVSPost2010Prop43
 90
        3
102
RTVSPost2010PropOp43
 70
     1
102
RTVSPost2010Prop44ColorIndex
 90
        5
102
RTVSPost2010Prop44ColorRGB
 90
      255
102
RTVSPost2010PropOp44
 70
     1
102
RTVSPost2010Prop45
280
     0
102
RTVSPost2010PropOp45
 70
     1
102
RTVSPost2010Prop46
 90
       50
102
RTVSPost2010PropOp46
 70
     1
102
RTVSPost2010Prop47
 90
       50
102
RTVSPost2010PropOp47
 70
     1
102
RTVSPost2010Prop48
 90
       50
102
RTVSPost2010PropOp48
 70
     1
102
RTVSPost2010Prop49
280
     0
102
RTVSPost2010PropOp49
 70
     1
102
RTVSPost2010Prop50
 90
       50
102
RTVSPost2010PropOp50
 70
     1
102
RTVSPost2010Prop51ColorIndex
 90
      256
102
RTVSPost2010Prop51ColorRGB
 90
-16777216
102
RTVSPost2010PropOp51
 70
     0
102
RTVSPost2010Prop52
140
1.0
102
RTVSPost2010PropOp52
 70
     0
102
RTVSPost2010Prop53
 90
        2
102
RTVSPost2010PropOp53
 70
     1
102
RTVSPost2010Prop54
  1
strokes_ogs.tif
102
RTVSPost2010PropOp54
 70
     1
102
RTVSPost2010Prop55
280
     0
102
RTVSPost2010PropOp55
 70
     1
102
RTVSPost2010Prop56
140
1.0
102
RTVSPost2010PropOp56
 70
     1
102
RTVSPost2010Prop57
140
1.0
102
RTVSPost2010PropOp57
 70
     1
102
RTVSPropertyOp0
 70
     1
102
RTVSPropertyOp1
 70
     1
102
RTVSPropertyOp2
 70
     1
102
RTVSPropertyOp3
 70
     1
102
RTVSPropertyOp4
 70
     1
102
RTVSPropertyOp5
 70
     1
102
RTVSPropertyOp6
 70
     1
102
RTVSPropertyOp7
 70
     1
102
RTVSPropertyOp8
 70
     1
102
RTVSPropertyOp9
 70
     1
102
RTVSPropertyOp10
 70
     1
102
RTVSPropertyOp11
 70
     1
102
RTVSPropertyOp12
 70
     1
102
RTVSPropertyOp13
 70
     1
102
RTVSPropertyOp14
 70
     1
102
RTVSPropertyOp15
 70
     1
102
RTVSPropertyOp16
 70
     1
102
RTVSPropertyOp17
 70
     1
102
RTVSPropertyOp18
 70
     1
102
RTVSPropertyOp19
 70
     1
102
RTVSPropertyOp20
 70
     1
102
RTVSPropertyOp21
 70
     1
102
RTVSPropertyOp22
 70
     1
102
RTVSPropertyOp23
 70
     1
102
RTVSPropertyOp24
 70
     1
102
RTVSPropertyOp25
 70
     1
102
RTVSPropertyOp26
 70
     1
102
RTVSPropertyOp27
 70
     1
102
RTVSPropertyOp28
 70
     1
102
RTVSPropertyOp29
 70
     1
102
RTVSPropertyOp30
 70
     1
102
RTVSPropertyOp31
 70
     1
102
RTVSPropertyOp32
 70
     1
102
RTVSPropertyOp33
 70
     1
102
RTVSPropertyOp34
 70
     1
102
RTVSPropertyOp35
 70
     1
102
RTVSPropertyOp36
 70
     1
102
RTVSPropertyOp37
 70
     1
102
RTVSPropertyOp38
 70
     1
102
RTVSPropertyOp39
 70
     1
102
RTVSPropertyOp40
 70
     1
102
RTVSPropertyOp41
 70
     1
102
RTVSPropertyOp42
 70
     1
102
RTVSPropertyOp43
 70
     1
102
RTVSPropertyOp44
 70
     1
102
RTVSPropertyOp45
 70
     1
102
RTVSPropertyOp46
 70
     1
102
RTVSPropertyOp47
 70
     1
102
RTVSPropertyOp48
 70
     1
102
RTVSPropertyOp49
 70
     1
102
RTVSPropertyOp50
 70
     1
102
RTVSPropertyOp51
 70
     0
102
RTVSPropertyOp52
 70
     0
102
RTVSPropertyOp53
 70
     1
102
RTVSPropertyOp54
 70
     1
102
RTVSPropertyOp55
 70
     1
102
RTVSPropertyOp56
 70
     1
102
RTVSPropertyOp57
 70
     1
102
RTVSPropertyOp58
 70
     1
102
RTVSPropertyOp59
 70
     1
102
RTVSPropertyOp60
 70
     1
102
RTVSPropertyOp61
 70
     1
102
RTVSPropertyOp62
 70
     1
  0
XRECORD
  5
109F
102
{ACAD_REACTORS
330
109E
102
}
330
109E
100
AcDbXrecord
280
     1
102
RTVSPost2010Prop28
280
     0
102
RTVSPost2010PropOp28
 70
     1
102
RTVSPost2010Prop29
280
     1
102
RTVSPost2010PropOp29
 70
     1
102
RTVSPost2010Prop30
280
     1
102
RTVSPost2010PropOp30
 70
     1
102
RTVSPost2010Prop31
280
     0
102
RTVSPost2010PropOp31
 70
     1
102
RTVSPost2010Prop32
280
     0
102
RTVSPost2010PropOp32
 70
     1
102
RTVSPost2010Prop33
280
     0
102
RTVSPost2010PropOp33
 70
     1
102
RTVSPost2010Prop34
280
     0
102
RTVSPost2010PropOp34
 70
     1
102
RTVSPost2010Prop35
280
     0
102
RTVSPost2010PropOp35
 70
     1
102
RTVSPost2010Prop36
280
     0
102
RTVSPost2010PropOp36
 70
     1
102
RTVSPost2010Prop37
 90
       50
102
RTVSPost2010PropOp37
 70
     1
102
RTVSPost2010Prop38
140
0.0
102
RTVSPost2010PropOp38
 70
     1
102
RTVSPost2010Prop39
140
1.0
102
RTVSPost2010PropOp39
 70
     1
102
RTVSPost2010Prop40
 90
        0
102
RTVSPost2010PropOp40
 70
     1
102
RTVSPost2010Prop41ColorIndex
 90
       18
102
RTVSPost2010Prop41ColorRGB
 90
        0
102
RTVSPost2010PropOp41
 70
     1
102
RTVSPost2010Prop42
 90
       50
102
RTVSPost2010PropOp42
 70
     1
102
RTVSPost2010Prop43
 90
        3
102
RTVSPost2010PropOp43
 70
     1
102
RTVSPost2010Prop44ColorIndex
 90
        5
102
RTVSPost2010Prop44ColorRGB
 90
      255
102
RTVSPost2010PropOp44
 70
     1
102
RTVSPost2010Prop45
280
     0
102
RTVSPost2010PropOp45
 70
     1
102
RTVSPost2010Prop46
 90
       50
102
RTVSPost2010PropOp46
 70
     1
102
RTVSPost2010Prop47
 90
       50
102
RTVSPost2010PropOp47
 70
     1
102
RTVSPost2010Prop48
 90
       50
102
RTVSPost2010PropOp48
 70
     1
102
RTVSPost2010Prop49
280
     0
102
RTVSPost2010PropOp49
 70
     1
102
RTVSPost2010Prop50
 90
       50
102
RTVSPost2010PropOp50
 70
     1
102
RTVSPost2010Prop51ColorIndex
 90
      256
102
RTVSPost2010Prop51ColorRGB
 90
-16777216
102
RTVSPost2010PropOp51
 70
     0
102
RTVSPost2010Prop52
140
1.0
102
RTVSPost2010PropOp52
 70
     0
102
RTVSPost2010Prop53
 90
        2
102
RTVSPost2010PropOp53
 70
     1
102
RTVSPost2010Prop54
  1
strokes_ogs.tif
102
RTVSPost2010PropOp54
 70
     1
102
RTVSPost2010Prop55
280
     0
102
RTVSPost2010PropOp55
 70
     1
102
RTVSPost2010Prop56
140
1.0
102
RTVSPost2010PropOp56
 70
     1
102
RTVSPost2010Prop57
140
1.0
102
RTVSPost2010PropOp57
 70
     1
102
RTVSPropertyOp0
 70
     0
102
RTVSPropertyOp1
 70
     0
102
RTVSPropertyOp2
 70
     0
102
RTVSPropertyOp3
 70
     0
102
RTVSPropertyOp4
 70
     0
102
RTVSPropertyOp5
 70
     0
102
RTVSPropertyOp6
 70
     0
102
RTVSPropertyOp7
 70
     0
102
RTVSPropertyOp8
 70
     0
102
RTVSPropertyOp9
 70
     0
102
RTVSPropertyOp10
 70
     0
102
RTVSPropertyOp11
 70
     0
102
RTVSPropertyOp12
 70
     0
102
RTVSPropertyOp13
 70
     0
102
RTVSPropertyOp14
 70
     2
102
RTVSPropertyOp15
 70
     0
102
RTVSPropertyOp16
 70
     0
102
RTVSPropertyOp17
 70
     0
102
RTVSPropertyOp18
 70
     0
102
RTVSPropertyOp19
 70
     0
102
RTVSPropertyOp20
 70
     0
102
RTVSPropertyOp21
 70
     0
102
RTVSPropertyOp22
 70
     0
102
RTVSPropertyOp23
 70
     0
102
RTVSPropertyOp24
 70
     0
102
RTVSPropertyOp25
 70
     0
102
RTVSPropertyOp26
 70
     0
102
RTVSPropertyOp27
 70
     0
102
RTVSPropertyOp28
 70
     1
102
RTVSPropertyOp29
 70
     1
102
RTVSPropertyOp30
 70
     1
102
RTVSPropertyOp31
 70
     1
102
RTVSPropertyOp32
 70
     1
102
RTVSPropertyOp33
 70
     1
102
RTVSPropertyOp34
 70
     1
102
RTVSPropertyOp35
 70
     1
102
RTVSPropertyOp36
 70
     1
102
RTVSPropertyOp37
 70
     1
102
RTVSPropertyOp38
 70
     1
102
RTVSPropertyOp39
 70
     1
102
RTVSPropertyOp40
 70
     1
102
RTVSPropertyOp41
 70
     1
102
RTVSPropertyOp42
 70
     1
102
RTVSPropertyOp43
 70
     1
102
RTVSPropertyOp44
 70
     1
102
RTVSPropertyOp45
 70
     1
102
RTVSPropertyOp46
 70
     1
102
RTVSPropertyOp47
 70
     1
102
RTVSPropertyOp48
 70
     1
102
RTVSPropertyOp49
 70
     1
102
RTVSPropertyOp50
 70
     1
102
RTVSPropertyOp51
 70
     0
102
RTVSPropertyOp52
 70
     0
102
RTVSPropertyOp53
 70
     1
102
RTVSPropertyOp54
 70
     1
102
RTVSPropertyOp55
 70
     1
102
RTVSPropertyOp56
 70
     1
102
RTVSPropertyOp57
 70
     1
102
RTVSPropertyOp58
 70
     1
102
RTVSPropertyOp59
 70
     1
102
RTVSPropertyOp60
 70
     1
102
RTVSPropertyOp61
 70
     1
102
RTVSPropertyOp62
 70
     1
  0
XRECORD
  5
107F
102
{ACAD_REACTORS
330
107E
102
}
330
107E
100
AcDbXrecord
280
     1
102
RTVSPost2010Prop28
280
     0
102
RTVSPost2010PropOp28
 70
     1
102
RTVSPost2010Prop29
280
     1
102
RTVSPost2010PropOp29
 70
     1
102
RTVSPost2010Prop30
280
     1
102
RTVSPost2010PropOp30
 70
     1
102
RTVSPost2010Prop31
280
     0
102
RTVSPost2010PropOp31
 70
     1
102
RTVSPost2010Prop32
280
     0
102
RTVSPost2010PropOp32
 70
     1
102
RTVSPost2010Prop33
280
     0
102
RTVSPost2010PropOp33
 70
     1
102
RTVSPost2010Prop34
280
     0
102
RTVSPost2010PropOp34
 70
     1
102
RTVSPost2010Prop35
280
     0
102
RTVSPost2010PropOp35
 70
     1
102
RTVSPost2010Prop36
280
     0
102
RTVSPost2010PropOp36
 70
     1
102
RTVSPost2010Prop37
 90
       50
102
RTVSPost2010PropOp37
 70
     1
102
RTVSPost2010Prop38
140
0.0
102
RTVSPost2010PropOp38
 70
     1
102
RTVSPost2010Prop39
140
1.0
102
RTVSPost2010PropOp39
 70
     1
102
RTVSPost2010Prop40
 90
        0
102
RTVSPost2010PropOp40
 70
     1
102
RTVSPost2010Prop41ColorIndex
 90
       18
102
RTVSPost2010Prop41ColorRGB
 90
        0
102
RTVSPost2010PropOp41
 70
     1
102
RTVSPost2010Prop42
 90
       50
102
RTVSPost2010PropOp42
 70
     1
102
RTVSPost2010Prop43
 90
        3
102
RTVSPost2010PropOp43
 70
     1
102
RTVSPost2010Prop44ColorIndex
 90
        5
102
RTVSPost2010Prop44ColorRGB
 90
      255
102
RTVSPost2010PropOp44
 70
     1
102
RTVSPost2010Prop45
280
     0
102
RTVSPost2010PropOp45
 70
     1
102
RTVSPost2010Prop46
 90
       50
102
RTVSPost2010PropOp46
 70
     1
102
RTVSPost2010Prop47
 90
       50
102
RTVSPost2010PropOp47
 70
     1
102
RTVSPost2010Prop48
 90
       50
102
RTVSPost2010PropOp48
 70
     1
102
RTVSPost2010Prop49
280
     0
102
RTVSPost2010PropOp49
 70
     1
102
RTVSPost2010Prop50
 90
       50
102
RTVSPost2010PropOp50
 70
     1
102
RTVSPost2010Prop51ColorIndex
 90
      256
102
RTVSPost2010Prop51ColorRGB
 90
-16777216
102
RTVSPost2010PropOp51
 70
     0
102
RTVSPost2010Prop52
140
1.0
102
RTVSPost2010PropOp52
 70
     0
102
RTVSPost2010Prop53
 90
        2
102
RTVSPost2010PropOp53
 70
     1
102
RTVSPost2010Prop54
  1
strokes_ogs.tif
102
RTVSPost2010PropOp54
 70
     1
102
RTVSPost2010Prop55
280
     0
102
RTVSPost2010PropOp55
 70
     1
102
RTVSPost2010Prop56
140
1.0
102
RTVSPost2010PropOp56
 70
     1
102
RTVSPost2010Prop57
140
1.0
102
RTVSPost2010PropOp57
 70
     1
102
RTVSPropertyOp0
 70
     1
102
RTVSPropertyOp1
 70
     1
102
RTVSPropertyOp2
 70
     1
102
RTVSPropertyOp3
 70
     1
102
RTVSPropertyOp4
 70
     1
102
RTVSPropertyOp5
 70
     1
102
RTVSPropertyOp6
 70
     1
102
RTVSPropertyOp7
 70
     1
102
RTVSPropertyOp8
 70
     1
102
RTVSPropertyOp9
 70
     1
102
RTVSPropertyOp10
 70
     1
102
RTVSPropertyOp11
 70
     1
102
RTVSPropertyOp12
 70
     1
102
RTVSPropertyOp13
 70
     1
102
RTVSPropertyOp14
 70
     1
102
RTVSPropertyOp15
 70
     1
102
RTVSPropertyOp16
 70
     1
102
RTVSPropertyOp17
 70
     1
102
RTVSPropertyOp18
 70
     1
102
RTVSPropertyOp19
 70
     1
102
RTVSPropertyOp20
 70
     1
102
RTVSPropertyOp21
 70
     1
102
RTVSPropertyOp22
 70
     1
102
RTVSPropertyOp23
 70
     1
102
RTVSPropertyOp24
 70
     1
102
RTVSPropertyOp25
 70
     1
102
RTVSPropertyOp26
 70
     1
102
RTVSPropertyOp27
 70
     1
102
RTVSPropertyOp28
 70
     1
102
RTVSPropertyOp29
 70
     1
102
RTVSPropertyOp30
 70
     1
102
RTVSPropertyOp31
 70
     1
102
RTVSPropertyOp32
 70
     1
102
RTVSPropertyOp33
 70
     1
102
RTVSPropertyOp34
 70
     1
102
RTVSPropertyOp35
 70
     1
102
RTVSPropertyOp36
 70
     1
102
RTVSPropertyOp37
 70
     1
102
RTVSPropertyOp38
 70
     1
102
RTVSPropertyOp39
 70
     1
102
RTVSPropertyOp40
 70
     1
102
RTVSPropertyOp41
 70
     1
102
RTVSPropertyOp42
 70
     1
102
RTVSPropertyOp43
 70
     1
102
RTVSPropertyOp44
 70
     1
102
RTVSPropertyOp45
 70
     1
102
RTVSPropertyOp46
 70
     1
102
RTVSPropertyOp47
 70
     1
102
RTVSPropertyOp48
 70
     1
102
RTVSPropertyOp49
 70
     1
102
RTVSPropertyOp50
 70
     1
102
RTVSPropertyOp51
 70
     0
102
RTVSPropertyOp52
 70
     0
102
RTVSPropertyOp53
 70
     1
102
RTVSPropertyOp54
 70
     1
102
RTVSPropertyOp55
 70
     1
102
RTVSPropertyOp56
 70
     1
102
RTVSPropertyOp57
 70
     1
102
RTVSPropertyOp58
 70
     1
102
RTVSPropertyOp59
 70
     1
102
RTVSPropertyOp60
 70
     1
102
RTVSPropertyOp61
 70
     1
102
RTVSPropertyOp62
 70
     1
  0
XRECORD
  5
109B
102
{ACAD_REACTORS
330
109A
102
}
330
109A
100
AcDbXrecord
280
     1
102
RTVSPost2010Prop28
280
     0
102
RTVSPost2010PropOp28
 70
     1
102
RTVSPost2010Prop29
280
     1
102
RTVSPost2010PropOp29
 70
     1
102
RTVSPost2010Prop30
280
     1
102
RTVSPost2010PropOp30
 70
     1
102
RTVSPost2010Prop31
280
     0
102
RTVSPost2010PropOp31
 70
     1
102
RTVSPost2010Prop32
280
     0
102
RTVSPost2010PropOp32
 70
     1
102
RTVSPost2010Prop33
280
     0
102
RTVSPost2010PropOp33
 70
     1
102
RTVSPost2010Prop34
280
     0
102
RTVSPost2010PropOp34
 70
     1
102
RTVSPost2010Prop35
280
     0
102
RTVSPost2010PropOp35
 70
     1
102
RTVSPost2010Prop36
280
     0
102
RTVSPost2010PropOp36
 70
     1
102
RTVSPost2010Prop37
 90
       50
102
RTVSPost2010PropOp37
 70
     1
102
RTVSPost2010Prop38
140
0.0
102
RTVSPost2010PropOp38
 70
     1
102
RTVSPost2010Prop39
140
1.0
102
RTVSPost2010PropOp39
 70
     1
102
RTVSPost2010Prop40
 90
        0
102
RTVSPost2010PropOp40
 70
     1
102
RTVSPost2010Prop41ColorIndex
 90
       18
102
RTVSPost2010Prop41ColorRGB
 90
        0
102
RTVSPost2010PropOp41
 70
     1
102
RTVSPost2010Prop42
 90
       50
102
RTVSPost2010PropOp42
 70
     1
102
RTVSPost2010Prop43
 90
        3
102
RTVSPost2010PropOp43
 70
     1
102
RTVSPost2010Prop44ColorIndex
 90
        5
102
RTVSPost2010Prop44ColorRGB
 90
      255
102
RTVSPost2010PropOp44
 70
     1
102
RTVSPost2010Prop45
280
     0
102
RTVSPost2010PropOp45
 70
     1
102
RTVSPost2010Prop46
 90
       50
102
RTVSPost2010PropOp46
 70
     1
102
RTVSPost2010Prop47
 90
       50
102
RTVSPost2010PropOp47
 70
     1
102
RTVSPost2010Prop48
 90
       50
102
RTVSPost2010PropOp48
 70
     1
102
RTVSPost2010Prop49
280
     0
102
RTVSPost2010PropOp49
 70
     1
102
RTVSPost2010Prop50
 90
       50
102
RTVSPost2010PropOp50
 70
     1
102
RTVSPost2010Prop51ColorIndex
 90
      256
102
RTVSPost2010Prop51ColorRGB
 90
-16777216
102
RTVSPost2010PropOp51
 70
     0
102
RTVSPost2010Prop52
140
1.0
102
RTVSPost2010PropOp52
 70
     0
102
RTVSPost2010Prop53
 90
        2
102
RTVSPost2010PropOp53
 70
     1
102
RTVSPost2010Prop54
  1
strokes_ogs.tif
102
RTVSPost2010PropOp54
 70
     1
102
RTVSPost2010Prop55
280
     0
102
RTVSPost2010PropOp55
 70
     1
102
RTVSPost2010Prop56
140
1.0
102
RTVSPost2010PropOp56
 70
     1
102
RTVSPost2010Prop57
140
1.0
102
RTVSPost2010PropOp57
 70
     1
102
RTVSPropertyOp0
 70
     1
102
RTVSPropertyOp1
 70
     1
102
RTVSPropertyOp2
 70
     1
102
RTVSPropertyOp3
 70
     1
102
RTVSPropertyOp4
 70
     1
102
RTVSPropertyOp5
 70
     1
102
RTVSPropertyOp6
 70
     1
102
RTVSPropertyOp7
 70
     1
102
RTVSPropertyOp8
 70
     1
102
RTVSPropertyOp9
 70
     1
102
RTVSPropertyOp10
 70
     1
102
RTVSPropertyOp11
 70
     1
102
RTVSPropertyOp12
 70
     1
102
RTVSPropertyOp13
 70
     1
102
RTVSPropertyOp14
 70
     1
102
RTVSPropertyOp15
 70
     1
102
RTVSPropertyOp16
 70
     1
102
RTVSPropertyOp17
 70
     1
102
RTVSPropertyOp18
 70
     1
102
RTVSPropertyOp19
 70
     1
102
RTVSPropertyOp20
 70
     1
102
RTVSPropertyOp21
 70
     1
102
RTVSPropertyOp22
 70
     1
102
RTVSPropertyOp23
 70
     1
102
RTVSPropertyOp24
 70
     1
102
RTVSPropertyOp25
 70
     1
102
RTVSPropertyOp26
 70
     1
102
RTVSPropertyOp27
 70
     1
102
RTVSPropertyOp28
 70
     1
102
RTVSPropertyOp29
 70
     1
102
RTVSPropertyOp30
 70
     1
102
RTVSPropertyOp31
 70
     1
102
RTVSPropertyOp32
 70
     1
102
RTVSPropertyOp33
 70
     1
102
RTVSPropertyOp34
 70
     1
102
RTVSPropertyOp35
 70
     1
102
RTVSPropertyOp36
 70
     1
102
RTVSPropertyOp37
 70
     1
102
RTVSPropertyOp38
 70
     1
102
RTVSPropertyOp39
 70
     1
102
RTVSPropertyOp40
 70
     1
102
RTVSPropertyOp41
 70
     1
102
RTVSPropertyOp42
 70
     1
102
RTVSPropertyOp43
 70
     1
102
RTVSPropertyOp44
 70
     1
102
RTVSPropertyOp45
 70
     1
102
RTVSPropertyOp46
 70
     1
102
RTVSPropertyOp47
 70
     1
102
RTVSPropertyOp48
 70
     1
102
RTVSPropertyOp49
 70
     1
102
RTVSPropertyOp50
 70
     1
102
RTVSPropertyOp51
 70
     0
102
RTVSPropertyOp52
 70
     0
102
RTVSPropertyOp53
 70
     1
102
RTVSPropertyOp54
 70
     1
102
RTVSPropertyOp55
 70
     1
102
RTVSPropertyOp56
 70
     1
102
RTVSPropertyOp57
 70
     1
102
RTVSPropertyOp58
 70
     1
102
RTVSPropertyOp59
 70
     1
102
RTVSPropertyOp60
 70
     1
102
RTVSPropertyOp61
 70
     1
102
RTVSPropertyOp62
 70
     1
  0
XRECORD
  5
1099
102
{ACAD_REACTORS
330
1098
102
}
330
1098
100
AcDbXrecord
280
     1
102
RTVSPost2010Prop28
280
     0
102
RTVSPost2010PropOp28
 70
     1
102
RTVSPost2010Prop29
280
     1
102
RTVSPost2010PropOp29
 70
     1
102
RTVSPost2010Prop30
280
     1
102
RTVSPost2010PropOp30
 70
     1
102
RTVSPost2010Prop31
280
     0
102
RTVSPost2010PropOp31
 70
     1
102
RTVSPost2010Prop32
280
     0
102
RTVSPost2010PropOp32
 70
     1
102
RTVSPost2010Prop33
280
     0
102
RTVSPost2010PropOp33
 70
     1
102
RTVSPost2010Prop34
280
     0
102
RTVSPost2010PropOp34
 70
     1
102
RTVSPost2010Prop35
280
     0
102
RTVSPost2010PropOp35
 70
     1
102
RTVSPost2010Prop36
280
     0
102
RTVSPost2010PropOp36
 70
     1
102
RTVSPost2010Prop37
 90
       50
102
RTVSPost2010PropOp37
 70
     1
102
RTVSPost2010Prop38
140
0.0
102
RTVSPost2010PropOp38
 70
     1
102
RTVSPost2010Prop39
140
1.0
102
RTVSPost2010PropOp39
 70
     1
102
RTVSPost2010Prop40
 90
        0
102
RTVSPost2010PropOp40
 70
     1
102
RTVSPost2010Prop41ColorIndex
 90
       18
102
RTVSPost2010Prop41ColorRGB
 90
        0
102
RTVSPost2010PropOp41
 70
     1
102
RTVSPost2010Prop42
 90
       50
102
RTVSPost2010PropOp42
 70
     1
102
RTVSPost2010Prop43
 90
        3
102
RTVSPost2010PropOp43
 70
     1
102
RTVSPost2010Prop44ColorIndex
 90
        5
102
RTVSPost2010Prop44ColorRGB
 90
      255
102
RTVSPost2010PropOp44
 70
     1
102
RTVSPost2010Prop45
280
     0
102
RTVSPost2010PropOp45
 70
     1
102
RTVSPost2010Prop46
 90
       50
102
RTVSPost2010PropOp46
 70
     1
102
RTVSPost2010Prop47
 90
       50
102
RTVSPost2010PropOp47
 70
     1
102
RTVSPost2010Prop48
 90
       50
102
RTVSPost2010PropOp48
 70
     1
102
RTVSPost2010Prop49
280
     0
102
RTVSPost2010PropOp49
 70
     1
102
RTVSPost2010Prop50
 90
       50
102
RTVSPost2010PropOp50
 70
     1
102
RTVSPost2010Prop51ColorIndex
 90
      256
102
RTVSPost2010Prop51ColorRGB
 90
-16777216
102
RTVSPost2010PropOp51
 70
     0
102
RTVSPost2010Prop52
140
1.0
102
RTVSPost2010PropOp52
 70
     0
102
RTVSPost2010Prop53
 90
        2
102
RTVSPost2010PropOp53
 70
     1
102
RTVSPost2010Prop54
  1
strokes_ogs.tif
102
RTVSPost2010PropOp54
 70
     1
102
RTVSPost2010Prop55
280
     0
102
RTVSPost2010PropOp55
 70
     1
102
RTVSPost2010Prop56
140
1.0
102
RTVSPost2010PropOp56
 70
     1
102
RTVSPost2010Prop57
140
1.0
102
RTVSPost2010PropOp57
 70
     1
102
RTVSPropertyOp0
 70
     1
102
RTVSPropertyOp1
 70
     1
102
RTVSPropertyOp2
 70
     1
102
RTVSPropertyOp3
 70
     1
102
RTVSPropertyOp4
 70
     1
102
RTVSPropertyOp5
 70
     1
102
RTVSPropertyOp6
 70
     1
102
RTVSPropertyOp7
 70
     1
102
RTVSPropertyOp8
 70
     1
102
RTVSPropertyOp9
 70
     1
102
RTVSPropertyOp10
 70
     1
102
RTVSPropertyOp11
 70
     1
102
RTVSPropertyOp12
 70
     1
102
RTVSPropertyOp13
 70
     1
102
RTVSPropertyOp14
 70
     1
102
RTVSPropertyOp15
 70
     1
102
RTVSPropertyOp16
 70
     1
102
RTVSPropertyOp17
 70
     1
102
RTVSPropertyOp18
 70
     1
102
RTVSPropertyOp19
 70
     1
102
RTVSPropertyOp20
 70
     1
102
RTVSPropertyOp21
 70
     1
102
RTVSPropertyOp22
 70
     1
102
RTVSPropertyOp23
 70
     1
102
RTVSPropertyOp24
 70
     1
102
RTVSPropertyOp25
 70
     1
102
RTVSPropertyOp26
 70
     1
102
RTVSPropertyOp27
 70
     1
102
RTVSPropertyOp28
 70
     1
102
RTVSPropertyOp29
 70
     1
102
RTVSPropertyOp30
 70
     1
102
RTVSPropertyOp31
 70
     1
102
RTVSPropertyOp32
 70
     1
102
RTVSPropertyOp33
 70
     1
102
RTVSPropertyOp34
 70
     1
102
RTVSPropertyOp35
 70
     1
102
RTVSPropertyOp36
 70
     1
102
RTVSPropertyOp37
 70
     1
102
RTVSPropertyOp38
 70
     1
102
RTVSPropertyOp39
 70
     1
102
RTVSPropertyOp40
 70
     1
102
RTVSPropertyOp41
 70
     1
102
RTVSPropertyOp42
 70
     1
102
RTVSPropertyOp43
 70
     1
102
RTVSPropertyOp44
 70
     1
102
RTVSPropertyOp45
 70
     1
102
RTVSPropertyOp46
 70
     1
102
RTVSPropertyOp47
 70
     1
102
RTVSPropertyOp48
 70
     1
102
RTVSPropertyOp49
 70
     1
102
RTVSPropertyOp50
 70
     1
102
RTVSPropertyOp51
 70
     0
102
RTVSPropertyOp52
 70
     0
102
RTVSPropertyOp53
 70
     1
102
RTVSPropertyOp54
 70
     1
102
RTVSPropertyOp55
 70
     1
102
RTVSPropertyOp56
 70
     1
102
RTVSPropertyOp57
 70
     1
102
RTVSPropertyOp58
 70
     1
102
RTVSPropertyOp59
 70
     1
102
RTVSPropertyOp60
 70
     1
102
RTVSPropertyOp61
 70
     1
102
RTVSPropertyOp62
 70
     1
  0
XRECORD
  5
1093
102
{ACAD_REACTORS
330
1092
102
}
330
1092
100
AcDbXrecord
280
     1
102
RTVSPost2010Prop28
280
     0
102
RTVSPost2010PropOp28
 70
     1
102
RTVSPost2010Prop29
280
     1
102
RTVSPost2010PropOp29
 70
     1
102
RTVSPost2010Prop30
280
     1
102
RTVSPost2010PropOp30
 70
     1
102
RTVSPost2010Prop31
280
     0
102
RTVSPost2010PropOp31
 70
     1
102
RTVSPost2010Prop32
280
     0
102
RTVSPost2010PropOp32
 70
     1
102
RTVSPost2010Prop33
280
     0
102
RTVSPost2010PropOp33
 70
     1
102
RTVSPost2010Prop34
280
     0
102
RTVSPost2010PropOp34
 70
     1
102
RTVSPost2010Prop35
280
     0
102
RTVSPost2010PropOp35
 70
     1
102
RTVSPost2010Prop36
280
     0
102
RTVSPost2010PropOp36
 70
     1
102
RTVSPost2010Prop37
 90
       50
102
RTVSPost2010PropOp37
 70
     1
102
RTVSPost2010Prop38
140
0.0
102
RTVSPost2010PropOp38
 70
     1
102
RTVSPost2010Prop39
140
1.0
102
RTVSPost2010PropOp39
 70
     1
102
RTVSPost2010Prop40
 90
        0
102
RTVSPost2010PropOp40
 70
     1
102
RTVSPost2010Prop41ColorIndex
 90
       18
102
RTVSPost2010Prop41ColorRGB
 90
        0
102
RTVSPost2010PropOp41
 70
     1
102
RTVSPost2010Prop42
 90
       50
102
RTVSPost2010PropOp42
 70
     1
102
RTVSPost2010Prop43
 90
        3
102
RTVSPost2010PropOp43
 70
     1
102
RTVSPost2010Prop44ColorIndex
 90
        5
102
RTVSPost2010Prop44ColorRGB
 90
      255
102
RTVSPost2010PropOp44
 70
     1
102
RTVSPost2010Prop45
280
     0
102
RTVSPost2010PropOp45
 70
     1
102
RTVSPost2010Prop46
 90
       50
102
RTVSPost2010PropOp46
 70
     1
102
RTVSPost2010Prop47
 90
       50
102
RTVSPost2010PropOp47
 70
     1
102
RTVSPost2010Prop48
 90
       50
102
RTVSPost2010PropOp48
 70
     1
102
RTVSPost2010Prop49
280
     0
102
RTVSPost2010PropOp49
 70
     1
102
RTVSPost2010Prop50
 90
       50
102
RTVSPost2010PropOp50
 70
     1
102
RTVSPost2010Prop51ColorIndex
 90
      256
102
RTVSPost2010Prop51ColorRGB
 90
-16777216
102
RTVSPost2010PropOp51
 70
     0
102
RTVSPost2010Prop52
140
1.0
102
RTVSPost2010PropOp52
 70
     0
102
RTVSPost2010Prop53
 90
        2
102
RTVSPost2010PropOp53
 70
     1
102
RTVSPost2010Prop54
  1
strokes_ogs.tif
102
RTVSPost2010PropOp54
 70
     1
102
RTVSPost2010Prop55
280
     0
102
RTVSPost2010PropOp55
 70
     1
102
RTVSPost2010Prop56
140
1.0
102
RTVSPost2010PropOp56
 70
     1
102
RTVSPost2010Prop57
140
1.0
102
RTVSPost2010PropOp57
 70
     1
102
RTVSPropertyOp0
 70
     1
102
RTVSPropertyOp1
 70
     1
102
RTVSPropertyOp2
 70
     1
102
RTVSPropertyOp3
 70
     1
102
RTVSPropertyOp4
 70
     1
102
RTVSPropertyOp5
 70
     1
102
RTVSPropertyOp6
 70
     1
102
RTVSPropertyOp7
 70
     1
102
RTVSPropertyOp8
 70
     1
102
RTVSPropertyOp9
 70
     1
102
RTVSPropertyOp10
 70
     1
102
RTVSPropertyOp11
 70
     1
102
RTVSPropertyOp12
 70
     1
102
RTVSPropertyOp13
 70
     1
102
RTVSPropertyOp14
 70
     1
102
RTVSPropertyOp15
 70
     1
102
RTVSPropertyOp16
 70
     1
102
RTVSPropertyOp17
 70
     1
102
RTVSPropertyOp18
 70
     1
102
RTVSPropertyOp19
 70
     1
102
RTVSPropertyOp20
 70
     1
102
RTVSPropertyOp21
 70
     1
102
RTVSPropertyOp22
 70
     1
102
RTVSPropertyOp23
 70
     1
102
RTVSPropertyOp24
 70
     1
102
RTVSPropertyOp25
 70
     1
102
RTVSPropertyOp26
 70
     1
102
RTVSPropertyOp27
 70
     1
102
RTVSPropertyOp28
 70
     1
102
RTVSPropertyOp29
 70
     1
102
RTVSPropertyOp30
 70
     1
102
RTVSPropertyOp31
 70
     1
102
RTVSPropertyOp32
 70
     1
102
RTVSPropertyOp33
 70
     1
102
RTVSPropertyOp34
 70
     1
102
RTVSPropertyOp35
 70
     1
102
RTVSPropertyOp36
 70
     1
102
RTVSPropertyOp37
 70
     1
102
RTVSPropertyOp38
 70
     1
102
RTVSPropertyOp39
 70
     1
102
RTVSPropertyOp40
 70
     1
102
RTVSPropertyOp41
 70
     1
102
RTVSPropertyOp42
 70
     1
102
RTVSPropertyOp43
 70
     1
102
RTVSPropertyOp44
 70
     1
102
RTVSPropertyOp45
 70
     1
102
RTVSPropertyOp46
 70
     1
102
RTVSPropertyOp47
 70
     1
102
RTVSPropertyOp48
 70
     1
102
RTVSPropertyOp49
 70
     1
102
RTVSPropertyOp50
 70
     1
102
RTVSPropertyOp51
 70
     0
102
RTVSPropertyOp52
 70
     0
102
RTVSPropertyOp53
 70
     1
102
RTVSPropertyOp54
 70
     1
102
RTVSPropertyOp55
 70
     1
102
RTVSPropertyOp56
 70
     1
102
RTVSPropertyOp57
 70
     1
102
RTVSPropertyOp58
 70
     1
102
RTVSPropertyOp59
 70
     1
102
RTVSPropertyOp60
 70
     1
102
RTVSPropertyOp61
 70
     1
102
RTVSPropertyOp62
 70
     1
  0
XRECORD
  5
1095
102
{ACAD_REACTORS
330
1094
102
}
330
1094
100
AcDbXrecord
280
     1
102
RTVSPost2010Prop28
280
     0
102
RTVSPost2010PropOp28
 70
     1
102
RTVSPost2010Prop29
280
     1
102
RTVSPost2010PropOp29
 70
     1
102
RTVSPost2010Prop30
280
     1
102
RTVSPost2010PropOp30
 70
     1
102
RTVSPost2010Prop31
280
     0
102
RTVSPost2010PropOp31
 70
     1
102
RTVSPost2010Prop32
280
     0
102
RTVSPost2010PropOp32
 70
     1
102
RTVSPost2010Prop33
280
     0
102
RTVSPost2010PropOp33
 70
     1
102
RTVSPost2010Prop34
280
     0
102
RTVSPost2010PropOp34
 70
     1
102
RTVSPost2010Prop35
280
     0
102
RTVSPost2010PropOp35
 70
     1
102
RTVSPost2010Prop36
280
     0
102
RTVSPost2010PropOp36
 70
     1
102
RTVSPost2010Prop37
 90
       50
102
RTVSPost2010PropOp37
 70
     1
102
RTVSPost2010Prop38
140
0.0
102
RTVSPost2010PropOp38
 70
     1
102
RTVSPost2010Prop39
140
1.0
102
RTVSPost2010PropOp39
 70
     1
102
RTVSPost2010Prop40
 90
        0
102
RTVSPost2010PropOp40
 70
     1
102
RTVSPost2010Prop41ColorIndex
 90
       18
102
RTVSPost2010Prop41ColorRGB
 90
        0
102
RTVSPost2010PropOp41
 70
     1
102
RTVSPost2010Prop42
 90
       50
102
RTVSPost2010PropOp42
 70
     1
102
RTVSPost2010Prop43
 90
        3
102
RTVSPost2010PropOp43
 70
     1
102
RTVSPost2010Prop44ColorIndex
 90
        5
102
RTVSPost2010Prop44ColorRGB
 90
      255
102
RTVSPost2010PropOp44
 70
     1
102
RTVSPost2010Prop45
280
     0
102
RTVSPost2010PropOp45
 70
     1
102
RTVSPost2010Prop46
 90
       50
102
RTVSPost2010PropOp46
 70
     1
102
RTVSPost2010Prop47
 90
       50
102
RTVSPost2010PropOp47
 70
     1
102
RTVSPost2010Prop48
 90
       50
102
RTVSPost2010PropOp48
 70
     1
102
RTVSPost2010Prop49
280
     0
102
RTVSPost2010PropOp49
 70
     1
102
RTVSPost2010Prop50
 90
       50
102
RTVSPost2010PropOp50
 70
     1
102
RTVSPost2010Prop51ColorIndex
 90
      256
102
RTVSPost2010Prop51ColorRGB
 90
-16777216
102
RTVSPost2010PropOp51
 70
     0
102
RTVSPost2010Prop52
140
1.0
102
RTVSPost2010PropOp52
 70
     0
102
RTVSPost2010Prop53
 90
        2
102
RTVSPost2010PropOp53
 70
     1
102
RTVSPost2010Prop54
  1
strokes_ogs.tif
102
RTVSPost2010PropOp54
 70
     1
102
RTVSPost2010Prop55
280
     0
102
RTVSPost2010PropOp55
 70
     1
102
RTVSPost2010Prop56
140
1.0
102
RTVSPost2010PropOp56
 70
     1
102
RTVSPost2010Prop57
140
1.0
102
RTVSPost2010PropOp57
 70
     1
102
RTVSPropertyOp0
 70
     1
102
RTVSPropertyOp1
 70
     1
102
RTVSPropertyOp2
 70
     1
102
RTVSPropertyOp3
 70
     1
102
RTVSPropertyOp4
 70
     1
102
RTVSPropertyOp5
 70
     1
102
RTVSPropertyOp6
 70
     1
102
RTVSPropertyOp7
 70
     1
102
RTVSPropertyOp8
 70
     1
102
RTVSPropertyOp9
 70
     1
102
RTVSPropertyOp10
 70
     1
102
RTVSPropertyOp11
 70
     1
102
RTVSPropertyOp12
 70
     1
102
RTVSPropertyOp13
 70
     1
102
RTVSPropertyOp14
 70
     1
102
RTVSPropertyOp15
 70
     1
102
RTVSPropertyOp16
 70
     1
102
RTVSPropertyOp17
 70
     1
102
RTVSPropertyOp18
 70
     1
102
RTVSPropertyOp19
 70
     1
102
RTVSPropertyOp20
 70
     1
102
RTVSPropertyOp21
 70
     1
102
RTVSPropertyOp22
 70
     1
102
RTVSPropertyOp23
 70
     1
102
RTVSPropertyOp24
 70
     1
102
RTVSPropertyOp25
 70
     1
102
RTVSPropertyOp26
 70
     1
102
RTVSPropertyOp27
 70
     1
102
RTVSPropertyOp28
 70
     1
102
RTVSPropertyOp29
 70
     1
102
RTVSPropertyOp30
 70
     1
102
RTVSPropertyOp31
 70
     1
102
RTVSPropertyOp32
 70
     1
102
RTVSPropertyOp33
 70
     1
102
RTVSPropertyOp34
 70
     1
102
RTVSPropertyOp35
 70
     1
102
RTVSPropertyOp36
 70
     1
102
RTVSPropertyOp37
 70
     1
102
RTVSPropertyOp38
 70
     1
102
RTVSPropertyOp39
 70
     1
102
RTVSPropertyOp40
 70
     1
102
RTVSPropertyOp41
 70
     1
102
RTVSPropertyOp42
 70
     1
102
RTVSPropertyOp43
 70
     1
102
RTVSPropertyOp44
 70
     1
102
RTVSPropertyOp45
 70
     1
102
RTVSPropertyOp46
 70
     1
102
RTVSPropertyOp47
 70
     1
102
RTVSPropertyOp48
 70
     1
102
RTVSPropertyOp49
 70
     1
102
RTVSPropertyOp50
 70
     1
102
RTVSPropertyOp51
 70
     0
102
RTVSPropertyOp52
 70
     0
102
RTVSPropertyOp53
 70
     1
102
RTVSPropertyOp54
 70
     1
102
RTVSPropertyOp55
 70
     1
102
RTVSPropertyOp56
 70
     1
102
RTVSPropertyOp57
 70
     1
102
RTVSPropertyOp58
 70
     1
102
RTVSPropertyOp59
 70
     1
102
RTVSPropertyOp60
 70
     1
102
RTVSPropertyOp61
 70
     1
102
RTVSPropertyOp62
 70
     1
  0
XRECORD
  5
1085
102
{ACAD_REACTORS
330
1084
102
}
330
1084
100
AcDbXrecord
280
     1
102
RTVSPost2010Prop28
280
     0
102
RTVSPost2010PropOp28
 70
     1
102
RTVSPost2010Prop29
280
     1
102
RTVSPost2010PropOp29
 70
     1
102
RTVSPost2010Prop30
280
     1
102
RTVSPost2010PropOp30
 70
     1
102
RTVSPost2010Prop31
280
     0
102
RTVSPost2010PropOp31
 70
     1
102
RTVSPost2010Prop32
280
     0
102
RTVSPost2010PropOp32
 70
     1
102
RTVSPost2010Prop33
280
     0
102
RTVSPost2010PropOp33
 70
     1
102
RTVSPost2010Prop34
280
     0
102
RTVSPost2010PropOp34
 70
     1
102
RTVSPost2010Prop35
280
     0
102
RTVSPost2010PropOp35
 70
     1
102
RTVSPost2010Prop36
280
     0
102
RTVSPost2010PropOp36
 70
     1
102
RTVSPost2010Prop37
 90
       50
102
RTVSPost2010PropOp37
 70
     1
102
RTVSPost2010Prop38
140
0.0
102
RTVSPost2010PropOp38
 70
     1
102
RTVSPost2010Prop39
140
1.0
102
RTVSPost2010PropOp39
 70
     1
102
RTVSPost2010Prop40
 90
        0
102
RTVSPost2010PropOp40
 70
     1
102
RTVSPost2010Prop41ColorIndex
 90
       18
102
RTVSPost2010Prop41ColorRGB
 90
        0
102
RTVSPost2010PropOp41
 70
     1
102
RTVSPost2010Prop42
 90
       50
102
RTVSPost2010PropOp42
 70
     1
102
RTVSPost2010Prop43
 90
        3
102
RTVSPost2010PropOp43
 70
     1
102
RTVSPost2010Prop44ColorIndex
 90
        5
102
RTVSPost2010Prop44ColorRGB
 90
      255
102
RTVSPost2010PropOp44
 70
     1
102
RTVSPost2010Prop45
280
     0
102
RTVSPost2010PropOp45
 70
     1
102
RTVSPost2010Prop46
 90
       50
102
RTVSPost2010PropOp46
 70
     1
102
RTVSPost2010Prop47
 90
       50
102
RTVSPost2010PropOp47
 70
     1
102
RTVSPost2010Prop48
 90
       50
102
RTVSPost2010PropOp48
 70
     1
102
RTVSPost2010Prop49
280
     0
102
RTVSPost2010PropOp49
 70
     1
102
RTVSPost2010Prop50
 90
       50
102
RTVSPost2010PropOp50
 70
     1
102
RTVSPost2010Prop51ColorIndex
 90
      256
102
RTVSPost2010Prop51ColorRGB
 90
-16777216
102
RTVSPost2010PropOp51
 70
     0
102
RTVSPost2010Prop52
140
1.0
102
RTVSPost2010PropOp52
 70
     0
102
RTVSPost2010Prop53
 90
        2
102
RTVSPost2010PropOp53
 70
     1
102
RTVSPost2010Prop54
  1
strokes_ogs.tif
102
RTVSPost2010PropOp54
 70
     1
102
RTVSPost2010Prop55
280
     0
102
RTVSPost2010PropOp55
 70
     1
102
RTVSPost2010Prop56
140
1.0
102
RTVSPost2010PropOp56
 70
     1
102
RTVSPost2010Prop57
140
1.0
102
RTVSPost2010PropOp57
 70
     1
102
RTVSPropertyOp0
 70
     1
102
RTVSPropertyOp1
 70
     1
102
RTVSPropertyOp2
 70
     1
102
RTVSPropertyOp3
 70
     1
102
RTVSPropertyOp4
 70
     1
102
RTVSPropertyOp5
 70
     1
102
RTVSPropertyOp6
 70
     1
102
RTVSPropertyOp7
 70
     1
102
RTVSPropertyOp8
 70
     1
102
RTVSPropertyOp9
 70
     1
102
RTVSPropertyOp10
 70
     1
102
RTVSPropertyOp11
 70
     1
102
RTVSPropertyOp12
 70
     1
102
RTVSPropertyOp13
 70
     1
102
RTVSPropertyOp14
 70
     1
102
RTVSPropertyOp15
 70
     1
102
RTVSPropertyOp16
 70
     1
102
RTVSPropertyOp17
 70
     1
102
RTVSPropertyOp18
 70
     1
102
RTVSPropertyOp19
 70
     1
102
RTVSPropertyOp20
 70
     1
102
RTVSPropertyOp21
 70
     1
102
RTVSPropertyOp22
 70
     1
102
RTVSPropertyOp23
 70
     1
102
RTVSPropertyOp24
 70
     1
102
RTVSPropertyOp25
 70
     1
102
RTVSPropertyOp26
 70
     1
102
RTVSPropertyOp27
 70
     1
102
RTVSPropertyOp28
 70
     1
102
RTVSPropertyOp29
 70
     1
102
RTVSPropertyOp30
 70
     1
102
RTVSPropertyOp31
 70
     1
102
RTVSPropertyOp32
 70
     1
102
RTVSPropertyOp33
 70
     1
102
RTVSPropertyOp34
 70
     1
102
RTVSPropertyOp35
 70
     1
102
RTVSPropertyOp36
 70
     1
102
RTVSPropertyOp37
 70
     1
102
RTVSPropertyOp38
 70
     1
102
RTVSPropertyOp39
 70
     1
102
RTVSPropertyOp40
 70
     1
102
RTVSPropertyOp41
 70
     1
102
RTVSPropertyOp42
 70
     1
102
RTVSPropertyOp43
 70
     1
102
RTVSPropertyOp44
 70
     1
102
RTVSPropertyOp45
 70
     1
102
RTVSPropertyOp46
 70
     1
102
RTVSPropertyOp47
 70
     1
102
RTVSPropertyOp48
 70
     1
102
RTVSPropertyOp49
 70
     1
102
RTVSPropertyOp50
 70
     1
102
RTVSPropertyOp51
 70
     0
102
RTVSPropertyOp52
 70
     0
102
RTVSPropertyOp53
 70
     1
102
RTVSPropertyOp54
 70
     1
102
RTVSPropertyOp55
 70
     1
102
RTVSPropertyOp56
 70
     1
102
RTVSPropertyOp57
 70
     1
102
RTVSPropertyOp58
 70
     1
102
RTVSPropertyOp59
 70
     1
102
RTVSPropertyOp60
 70
     1
102
RTVSPropertyOp61
 70
     1
102
RTVSPropertyOp62
 70
     1
  0
XRECORD
  5
108F
102
{ACAD_REACTORS
330
108E
102
}
330
108E
100
AcDbXrecord
280
     1
102
RTVSPost2010Prop28
280
     0
102
RTVSPost2010PropOp28
 70
     1
102
RTVSPost2010Prop29
280
     1
102
RTVSPost2010PropOp29
 70
     1
102
RTVSPost2010Prop30
280
     1
102
RTVSPost2010PropOp30
 70
     1
102
RTVSPost2010Prop31
280
     0
102
RTVSPost2010PropOp31
 70
     1
102
RTVSPost2010Prop32
280
     0
102
RTVSPost2010PropOp32
 70
     1
102
RTVSPost2010Prop33
280
     0
102
RTVSPost2010PropOp33
 70
     1
102
RTVSPost2010Prop34
280
     0
102
RTVSPost2010PropOp34
 70
     1
102
RTVSPost2010Prop35
280
     0
102
RTVSPost2010PropOp35
 70
     1
102
RTVSPost2010Prop36
280
     0
102
RTVSPost2010PropOp36
 70
     1
102
RTVSPost2010Prop37
 90
       50
102
RTVSPost2010PropOp37
 70
     1
102
RTVSPost2010Prop38
140
0.0
102
RTVSPost2010PropOp38
 70
     1
102
RTVSPost2010Prop39
140
1.0
102
RTVSPost2010PropOp39
 70
     1
102
RTVSPost2010Prop40
 90
        0
102
RTVSPost2010PropOp40
 70
     1
102
RTVSPost2010Prop41ColorIndex
 90
       18
102
RTVSPost2010Prop41ColorRGB
 90
        0
102
RTVSPost2010PropOp41
 70
     1
102
RTVSPost2010Prop42
 90
       50
102
RTVSPost2010PropOp42
 70
     1
102
RTVSPost2010Prop43
 90
        3
102
RTVSPost2010PropOp43
 70
     1
102
RTVSPost2010Prop44ColorIndex
 90
        5
102
RTVSPost2010Prop44ColorRGB
 90
      255
102
RTVSPost2010PropOp44
 70
     1
102
RTVSPost2010Prop45
280
     0
102
RTVSPost2010PropOp45
 70
     1
102
RTVSPost2010Prop46
 90
       50
102
RTVSPost2010PropOp46
 70
     1
102
RTVSPost2010Prop47
 90
       50
102
RTVSPost2010PropOp47
 70
     1
102
RTVSPost2010Prop48
 90
       50
102
RTVSPost2010PropOp48
 70
     1
102
RTVSPost2010Prop49
280
     0
102
RTVSPost2010PropOp49
 70
     1
102
RTVSPost2010Prop50
 90
       50
102
RTVSPost2010PropOp50
 70
     1
102
RTVSPost2010Prop51ColorIndex
 90
      256
102
RTVSPost2010Prop51ColorRGB
 90
-16777216
102
RTVSPost2010PropOp51
 70
     0
102
RTVSPost2010Prop52
140
1.0
102
RTVSPost2010PropOp52
 70
     0
102
RTVSPost2010Prop53
 90
        2
102
RTVSPost2010PropOp53
 70
     1
102
RTVSPost2010Prop54
  1
strokes_ogs.tif
102
RTVSPost2010PropOp54
 70
     1
102
RTVSPost2010Prop55
280
     0
102
RTVSPost2010PropOp55
 70
     1
102
RTVSPost2010Prop56
140
1.0
102
RTVSPost2010PropOp56
 70
     1
102
RTVSPost2010Prop57
140
1.0
102
RTVSPost2010PropOp57
 70
     1
102
RTVSPropertyOp0
 70
     1
102
RTVSPropertyOp1
 70
     1
102
RTVSPropertyOp2
 70
     1
102
RTVSPropertyOp3
 70
     1
102
RTVSPropertyOp4
 70
     1
102
RTVSPropertyOp5
 70
     1
102
RTVSPropertyOp6
 70
     1
102
RTVSPropertyOp7
 70
     1
102
RTVSPropertyOp8
 70
     1
102
RTVSPropertyOp9
 70
     1
102
RTVSPropertyOp10
 70
     1
102
RTVSPropertyOp11
 70
     1
102
RTVSPropertyOp12
 70
     1
102
RTVSPropertyOp13
 70
     1
102
RTVSPropertyOp14
 70
     1
102
RTVSPropertyOp15
 70
     1
102
RTVSPropertyOp16
 70
     1
102
RTVSPropertyOp17
 70
     1
102
RTVSPropertyOp18
 70
     1
102
RTVSPropertyOp19
 70
     1
102
RTVSPropertyOp20
 70
     1
102
RTVSPropertyOp21
 70
     1
102
RTVSPropertyOp22
 70
     1
102
RTVSPropertyOp23
 70
     1
102
RTVSPropertyOp24
 70
     1
102
RTVSPropertyOp25
 70
     1
102
RTVSPropertyOp26
 70
     1
102
RTVSPropertyOp27
 70
     1
102
RTVSPropertyOp28
 70
     1
102
RTVSPropertyOp29
 70
     1
102
RTVSPropertyOp30
 70
     1
102
RTVSPropertyOp31
 70
     1
102
RTVSPropertyOp32
 70
     1
102
RTVSPropertyOp33
 70
     1
102
RTVSPropertyOp34
 70
     1
102
RTVSPropertyOp35
 70
     1
102
RTVSPropertyOp36
 70
     1
102
RTVSPropertyOp37
 70
     1
102
RTVSPropertyOp38
 70
     1
102
RTVSPropertyOp39
 70
     1
102
RTVSPropertyOp40
 70
     1
102
RTVSPropertyOp41
 70
     1
102
RTVSPropertyOp42
 70
     1
102
RTVSPropertyOp43
 70
     1
102
RTVSPropertyOp44
 70
     1
102
RTVSPropertyOp45
 70
     1
102
RTVSPropertyOp46
 70
     1
102
RTVSPropertyOp47
 70
     1
102
RTVSPropertyOp48
 70
     1
102
RTVSPropertyOp49
 70
     1
102
RTVSPropertyOp50
 70
     1
102
RTVSPropertyOp51
 70
     0
102
RTVSPropertyOp52
 70
     0
102
RTVSPropertyOp53
 70
     1
102
RTVSPropertyOp54
 70
     1
102
RTVSPropertyOp55
 70
     1
102
RTVSPropertyOp56
 70
     1
102
RTVSPropertyOp57
 70
     1
102
RTVSPropertyOp58
 70
     1
102
RTVSPropertyOp59
 70
     1
102
RTVSPropertyOp60
 70
     1
102
RTVSPropertyOp61
 70
     1
102
RTVSPropertyOp62
 70
     1
  0
XRECORD
  5
1097
102
{ACAD_REACTORS
330
1096
102
}
330
1096
100
AcDbXrecord
280
     1
102
RTVSPost2010Prop28
280
     0
102
RTVSPost2010PropOp28
 70
     1
102
RTVSPost2010Prop29
280
     1
102
RTVSPost2010PropOp29
 70
     1
102
RTVSPost2010Prop30
280
     1
102
RTVSPost2010PropOp30
 70
     1
102
RTVSPost2010Prop31
280
     0
102
RTVSPost2010PropOp31
 70
     1
102
RTVSPost2010Prop32
280
     0
102
RTVSPost2010PropOp32
 70
     1
102
RTVSPost2010Prop33
280
     0
102
RTVSPost2010PropOp33
 70
     1
102
RTVSPost2010Prop34
280
     0
102
RTVSPost2010PropOp34
 70
     1
102
RTVSPost2010Prop35
280
     0
102
RTVSPost2010PropOp35
 70
     1
102
RTVSPost2010Prop36
280
     0
102
RTVSPost2010PropOp36
 70
     1
102
RTVSPost2010Prop37
 90
       50
102
RTVSPost2010PropOp37
 70
     1
102
RTVSPost2010Prop38
140
0.0
102
RTVSPost2010PropOp38
 70
     1
102
RTVSPost2010Prop39
140
1.0
102
RTVSPost2010PropOp39
 70
     1
102
RTVSPost2010Prop40
 90
        0
102
RTVSPost2010PropOp40
 70
     1
102
RTVSPost2010Prop41ColorIndex
 90
       18
102
RTVSPost2010Prop41ColorRGB
 90
        0
102
RTVSPost2010PropOp41
 70
     1
102
RTVSPost2010Prop42
 90
       50
102
RTVSPost2010PropOp42
 70
     1
102
RTVSPost2010Prop43
 90
        3
102
RTVSPost2010PropOp43
 70
     1
102
RTVSPost2010Prop44ColorIndex
 90
        5
102
RTVSPost2010Prop44ColorRGB
 90
      255
102
RTVSPost2010PropOp44
 70
     1
102
RTVSPost2010Prop45
280
     0
102
RTVSPost2010PropOp45
 70
     1
102
RTVSPost2010Prop46
 90
       50
102
RTVSPost2010PropOp46
 70
     1
102
RTVSPost2010Prop47
 90
       50
102
RTVSPost2010PropOp47
 70
     1
102
RTVSPost2010Prop48
 90
       50
102
RTVSPost2010PropOp48
 70
     1
102
RTVSPost2010Prop49
280
     0
102
RTVSPost2010PropOp49
 70
     1
102
RTVSPost2010Prop50
 90
       50
102
RTVSPost2010PropOp50
 70
     1
102
RTVSPost2010Prop51ColorIndex
 90
      256
102
RTVSPost2010Prop51ColorRGB
 90
-16777216
102
RTVSPost2010PropOp51
 70
     0
102
RTVSPost2010Prop52
140
1.0
102
RTVSPost2010PropOp52
 70
     0
102
RTVSPost2010Prop53
 90
        2
102
RTVSPost2010PropOp53
 70
     1
102
RTVSPost2010Prop54
  1
strokes_ogs.tif
102
RTVSPost2010PropOp54
 70
     1
102
RTVSPost2010Prop55
280
     0
102
RTVSPost2010PropOp55
 70
     1
102
RTVSPost2010Prop56
140
1.0
102
RTVSPost2010PropOp56
 70
     1
102
RTVSPost2010Prop57
140
1.0
102
RTVSPost2010PropOp57
 70
     1
102
RTVSPropertyOp0
 70
     1
102
RTVSPropertyOp1
 70
     1
102
RTVSPropertyOp2
 70
     1
102
RTVSPropertyOp3
 70
     1
102
RTVSPropertyOp4
 70
     1
102
RTVSPropertyOp5
 70
     1
102
RTVSPropertyOp6
 70
     1
102
RTVSPropertyOp7
 70
     1
102
RTVSPropertyOp8
 70
     1
102
RTVSPropertyOp9
 70
     1
102
RTVSPropertyOp10
 70
     1
102
RTVSPropertyOp11
 70
     1
102
RTVSPropertyOp12
 70
     1
102
RTVSPropertyOp13
 70
     1
102
RTVSPropertyOp14
 70
     1
102
RTVSPropertyOp15
 70
     1
102
RTVSPropertyOp16
 70
     1
102
RTVSPropertyOp17
 70
     1
102
RTVSPropertyOp18
 70
     1
102
RTVSPropertyOp19
 70
     1
102
RTVSPropertyOp20
 70
     1
102
RTVSPropertyOp21
 70
     1
102
RTVSPropertyOp22
 70
     1
102
RTVSPropertyOp23
 70
     1
102
RTVSPropertyOp24
 70
     1
102
RTVSPropertyOp25
 70
     1
102
RTVSPropertyOp26
 70
     1
102
RTVSPropertyOp27
 70
     1
102
RTVSPropertyOp28
 70
     1
102
RTVSPropertyOp29
 70
     1
102
RTVSPropertyOp30
 70
     1
102
RTVSPropertyOp31
 70
     1
102
RTVSPropertyOp32
 70
     1
102
RTVSPropertyOp33
 70
     1
102
RTVSPropertyOp34
 70
     1
102
RTVSPropertyOp35
 70
     1
102
RTVSPropertyOp36
 70
     1
102
RTVSPropertyOp37
 70
     1
102
RTVSPropertyOp38
 70
     1
102
RTVSPropertyOp39
 70
     1
102
RTVSPropertyOp40
 70
     1
102
RTVSPropertyOp41
 70
     1
102
RTVSPropertyOp42
 70
     1
102
RTVSPropertyOp43
 70
     1
102
RTVSPropertyOp44
 70
     1
102
RTVSPropertyOp45
 70
     1
102
RTVSPropertyOp46
 70
     1
102
RTVSPropertyOp47
 70
     1
102
RTVSPropertyOp48
 70
     1
102
RTVSPropertyOp49
 70
     1
102
RTVSPropertyOp50
 70
     1
102
RTVSPropertyOp51
 70
     0
102
RTVSPropertyOp52
 70
     0
102
RTVSPropertyOp53
 70
     1
102
RTVSPropertyOp54
 70
     1
102
RTVSPropertyOp55
 70
     1
102
RTVSPropertyOp56
 70
     1
102
RTVSPropertyOp57
 70
     1
102
RTVSPropertyOp58
 70
     1
102
RTVSPropertyOp59
 70
     1
102
RTVSPropertyOp60
 70
     1
102
RTVSPropertyOp61
 70
     1
102
RTVSPropertyOp62
 70
     1
  0
ENDSEC
  0
EOF
