  0
SECTION
  2
HEADER
  9
$ACADVER
  1
AC1015
  9
$ACADMAINTVER
 70
    20
  9
$DWGCODEPAGE
  3
ANSI_1252
  9
$INSBASE
 10
0.0
 20
0.0
 30
0.0
  9
$EXTMIN
 10
-40.09641524673392
 20
-41.39878911554581
 30
0.0
  9
$EXTMAX
 10
45.91871474454324
 20
30.27907970647692
 30
0.0
  9
$LIMMIN
 10
-170.0
 20
-170.0
  9
$LIMMAX
 10
519.0
 20
260.0
  9
$ORTHOMODE
 70
     1
  9
$REGENMODE
 70
     1
  9
$FILLMODE
 70
     1
  9
$QTEXTMODE
 70
     0
  9
$MIRRTEXT
 70
     0
  9
$LTSCALE
 40
1.0
  9
$ATTMODE
 70
     1
  9
$TEXTSIZE
 40
5.0
  9
$TRACEWID
 40
1.0
  9
$TEXTSTYLE
  7
STANDARD
  9
$CLAYER
  8
0
  9
$CELTYPE
  6
BYLAYER
  9
$CECOLOR
 62
   256
  9
$CELTSCALE
 40
1.0
  9
$DISPSILH
 70
     0
  9
$DIMSCALE
 40
1.0
  9
$DIMASZ
 40
2.5
  9
$DIMEXO
 40
0.0
  9
$DIMDLI
 40
3.75
  9
$DIMRND
 40
0.0
  9
$DIMDLE
 40
0.0
  9
$DIMEXE
 40
1.25
  9
$DIMTP
 40
0.0
  9
$DIMTM
 40
0.0
  9
$DIMTXT
 40
3.5
  9
$DIMCEN
 40
0.0
  9
$DIMTSZ
 40
0.0
  9
$DIMTOL
 70
     0
  9
$DIMLIM
 70
     0
  9
$DIMTIH
 70
     0
  9
$DIMTOH
 70
     0
  9
$DIMSE1
 70
     0
  9
$DIMSE2
 70
     0
  9
$DIMTAD
 70
     1
  9
$DIMZIN
 70
     1
  9
$DIMBLK
  1

  9
$DIMASO
 70
     1
  9
$DIMSHO
 70
     1
  9
$DIMPOST
  1

  9
$DIMAPOST
  1

  9
$DIMALT
 70
     0
  9
$DIMALTD
 70
     3
  9
$DIMALTF
 40
0.039370078
  9
$DIMLFAC
 40
1.0
  9
$DIMTOFL
 70
     0
  9
$DIMTVP
 40
0.0
  9
$DIMTIX
 70
     0
  9
$DIMSOXD
 70
     0
  9
$DIMSAH
 70
     0
  9
$DIMBLK1
  1

  9
$DIMBLK2
  1

  9
$DIMSTYLE
  2
STANDARD
  9
$DIMCLRD
 70
     0
  9
$DIMCLRE
 70
     0
  9
$DIMCLRT
 70
     0
  9
$DIMTFAC
 40
1.0
  9
$DIMGAP
 40
0.625
  9
$DIMJUST
 70
     0
  9
$DIMSD1
 70
     0
  9
$DIMSD2
 70
     0
  9
$DIMTOLJ
 70
     0
  9
$DIMTZIN
 70
     8
  9
$DIMALTZ
 70
     0
  9
$DIMALTTZ
 70
     0
  9
$DIMUPT
 70
     0
  9
$DIMDEC
 70
     2
  9
$DIMTDEC
 70
     2
  9
$DIMALTU
 70
     2
  9
$DIMALTTD
 70
     3
  9
$DIMTXSTY
  7
STANDARD
  9
$DIMAUNIT
 70
     0
  9
$DIMADEC
 70
     2
  9
$DIMALTRND
 40
0.0
  9
$DIMAZIN
 70
     0
  9
$DIMDSEP
 70
    46
  9
$DIMATFIT
 70
     3
  9
$DIMFRAC
 70
     0
  9
$DIMLDRBLK
  1

  9
$DIMLUNIT
 70
     2
  9
$DIMLWD
 70
    -2
  9
$DIMLWE
 70
    -2
  9
$DIMTMOVE
 70
     0
  9
$LUNITS
 70
     2
  9
$LUPREC
 70
     4
  9
$SKETCHINC
 40
1.0
  9
$FILLETRAD
 40
0.0
  9
$AUNITS
 70
     0
  9
$AUPREC
 70
     0
  9
$MENU
  1
c:\tdm21\cad\caduti13\tdm13
  9
$ELEVATION
 40
0.0
  9
$PELEVATION
 40
0.0
  9
$THICKNESS
 40
0.0
  9
$LIMCHECK
 70
     0
  9
$CHAMFERA
 40
0.0
  9
$CHAMFERB
 40
0.0
  9
$CHAMFERC
 40
0.0
  9
$CHAMFERD
 40
0.0
  9
$SKPOLY
 70
     0
  9
$TDCREATE
 40
2456176.581965255
  9
$TDUCREATE
 40
2456176.540298588
  9
$TDUPDATE
 40
2457338.536819271
  9
$TDUUPDATE
 40
2457338.495152604
  9
$TDINDWG
 40
0.0015898032
  9
$TDUSRTIMER
 40
0.0015896065
  9
$USRTIMER
 70
     1
  9
$ANGBASE
 50
0.0
  9
$ANGDIR
 70
     0
  9
$PDMODE
 70
     1
  9
$PDSIZE
 40
0.0
  9
$PLINEWID
 40
0.0
  9
$SPLFRAME
 70
     0
  9
$SPLINETYPE
 70
     6
  9
$SPLINESEGS
 70
     8
  9
$HANDSEED
  5
D90
  9
$SURFTAB1
 70
     6
  9
$SURFTAB2
 70
     6
  9
$SURFTYPE
 70
     6
  9
$SURFU
 70
     6
  9
$SURFV
 70
     6
  9
$UCSBASE
  2

  9
$UCSNAME
  2

  9
$UCSORG
 10
0.0
 20
0.0
 30
0.0
  9
$UCSXDIR
 10
1.0
 20
0.0
 30
0.0
  9
$UCSYDIR
 10
0.0
 20
1.0
 30
0.0
  9
$UCSORTHOREF
  2

  9
$UCSORTHOVIEW
 70
     0
  9
$UCSORGTOP
 10
0.0
 20
0.0
 30
0.0
  9
$UCSORGBOTTOM
 10
0.0
 20
0.0
 30
0.0
  9
$UCSORGLEFT
 10
0.0
 20
0.0
 30
0.0
  9
$UCSORGRIGHT
 10
0.0
 20
0.0
 30
0.0
  9
$UCSORGFRONT
 10
0.0
 20
0.0
 30
0.0
  9
$UCSORGBACK
 10
0.0
 20
0.0
 30
0.0
  9
$PUCSBASE
  2

  9
$PUCSNAME
  2

  9
$PUCSORG
 10
0.0
 20
0.0
 30
0.0
  9
$PUCSXDIR
 10
1.0
 20
0.0
 30
0.0
  9
$PUCSYDIR
 10
0.0
 20
1.0
 30
0.0
  9
$PUCSORTHOREF
  2

  9
$PUCSORTHOVIEW
 70
     0
  9
$PUCSORGTOP
 10
0.0
 20
0.0
 30
0.0
  9
$PUCSORGBOTTOM
 10
0.0
 20
0.0
 30
0.0
  9
$PUCSORGLEFT
 10
0.0
 20
0.0
 30
0.0
  9
$PUCSORGRIGHT
 10
0.0
 20
0.0
 30
0.0
  9
$PUCSORGFRONT
 10
0.0
 20
0.0
 30
0.0
  9
$PUCSORGBACK
 10
0.0
 20
0.0
 30
0.0
  9
$USERI1
 70
     0
  9
$USERI2
 70
     0
  9
$USERI3
 70
     0
  9
$USERI4
 70
     0
  9
$USERI5
 70
     0
  9
$USERR1
 40
0.0
  9
$USERR2
 40
0.0
  9
$USERR3
 40
0.0
  9
$USERR4
 40
0.0
  9
$USERR5
 40
0.0
  9
$WORLDVIEW
 70
     1
  9
$SHADEDGE
 70
     3
  9
$SHADEDIF
 70
    70
  9
$TILEMODE
 70
     1
  9
$MAXACTVP
 70
    64
  9
$PINSBASE
 10
0.0
 20
0.0
 30
0.0
  9
$PLIMCHECK
 70
     0
  9
$PEXTMIN
 10
0.0
 20
0.0
 30
0.0
  9
$PEXTMAX
 10
0.0
 20
0.0
 30
0.0
  9
$PLIMMIN
 10
0.0
 20
0.0
  9
$PLIMMAX
 10
12.0
 20
9.0
  9
$UNITMODE
 70
     0
  9
$VISRETAIN
 70
     0
  9
$PLINEGEN
 70
     0
  9
$PSLTSCALE
 70
     1
  9
$TREEDEPTH
 70
  3020
  9
$CMLSTYLE
  2
STANDARD
  9
$CMLJUST
 70
     0
  9
$CMLSCALE
 40
20.0
  9
$PROXYGRAPHICS
 70
     1
  9
$MEASUREMENT
 70
     1
  9
$CELWEIGHT
370
    -1
  9
$ENDCAPS
280
     0
  9
$JOINSTYLE
280
     0
  9
$LWDISPLAY
290
     0
  9
$INSUNITS
 70
     4
  9
$HYPERLINKBASE
  1

  9
$STYLESHEET
  1
MONOCHROME.CTB
  9
$XEDIT
290
     1
  9
$CEPSNTYPE
380
     0
  9
$PSTYLEMODE
290
     1
  9
$FINGERPRINTGUID
  2
{E73ECD70-839B-4A95-AFD7-90701281C4FF}
  9
$VERSIONGUID
  2
{1BEBD185-6A5B-4551-A231-890DA8E0F2BD}
  9
$EXTNAMES
290
     1
  9
$PSVPSCALE
 40
0.0
  9
$OLESTARTUP
290
     0
  0
ENDSEC
  0
SECTION
  2
CLASSES
  0
CLASS
  1
ACDBDICTIONARYWDFLT
  2
AcDbDictionaryWithDefault
  3
ObjectDBX Classes
 90
        0
280
     0
281
     0
  0
CLASS
  1
DICTIONARYVAR
  2
AcDbDictionaryVar
  3
ObjectDBX Classes
 90
        0
280
     0
281
     0
  0
CLASS
  1
TABLESTYLE
  2
AcDbTableStyle
  3
ObjectDBX Classes
 90
     4095
280
     0
281
     0
  0
CLASS
  1
MATERIAL
  2
AcDbMaterial
  3
ObjectDBX Classes
 90
     1153
280
     0
281
     0
  0
CLASS
  1
VISUALSTYLE
  2
AcDbVisualStyle
  3
ObjectDBX Classes
 90
     4095
280
     0
281
     0
  0
CLASS
  1
SCALE
  2
AcDbScale
  3
ObjectDBX Classes
 90
     1153
280
     0
281
     0
  0
CLASS
  1
MLEADERSTYLE
  2
AcDbMLeaderStyle
  3
ACDB_MLEADERSTYLE_CLASS
 90
     4095
280
     0
281
     0
  0
CLASS
  1
CELLSTYLEMAP
  2
AcDbCellStyleMap
  3
ObjectDBX Classes
 90
     1152
280
     0
281
     0
  0
CLASS
  1
DIMASSOC
  2
AcDbDimAssoc
  3
"AcDbDimAssoc|Product Desc:     AcDim ARX App For Dimension|Company:          Autodesk, Inc.|WEB Address:      www.autodesk.com"
 90
        0
280
     0
281
     0
  0
CLASS
  1
SORTENTSTABLE
  2
AcDbSortentsTable
  3
ObjectDBX Classes
 90
        0
280
     0
281
     0
  0
CLASS
  1
ACME_DOCUMENT
  2
AcMeDbDoc
  3
AcMeServices
 90
    33792
280
     0
281
     0
  0
CLASS
  1
AMGSETTINGSOBJ
  2
AmgSettingsObj
  3
"AcadM|Product Description: AutoCAD Mechanical|Company: Autodesk, Inc."
 90
    33792
280
     0
281
     0
  0
CLASS
  1
ACMESCOPE
  2
AcMeScope
  3
AcMeServices
 90
    33792
280
     0
281
     0
  0
CLASS
  1
ACMECOMMANDHISTORY
  2
AcMeCommandHistory
  3
AcMeServices
 90
    33792
280
     0
281
     0
  0
CLASS
  1
ACIMSYSVARMAN
  2
AcImSysVarManager
  3
AcMeServices
 90
    33792
280
     0
281
     0
  0
CLASS
  1
ACIMINTSYSVAR
  2
AcImIntSysVar
  3
AcMeServices
 90
    33792
280
     0
281
     0
  0
CLASS
  1
ACMESTATEMGR
  2
AcMeStateMgr
  3
AcMeServices
 90
    33792
280
     0
281
     0
  0
CLASS
  1
ACDBENTITYCACHE
  2
AcMeEntityCache
  3
AcMeServices
 90
    33792
280
     0
281
     0
  0
CLASS
  1
ACGREFMASTER
  2
AcGrefMaster
  3
AcAttribServices
 90
    33792
280
     0
281
     0
  0
CLASS
  1
ACME_DATABASE
  2
AcMeDbDatabase
  3
AcMeServices
 90
    33792
280
     0
281
     0
  0
CLASS
  1
ACRFINSADJUSTERMGR
  2
AcRfInsAdjusterMgr
  3
AcMeServices
 90
    33792
280
     0
281
     0
  0
CLASS
  1
ACGREFACADMASTER
  2
AcGrefacadMaster
  3
AcGrefServices
 90
    33792
280
     0
281
     0
  0
CLASS
  1
AMDTMENUSTATEMGR
  2
AmdtMenuStateMgr
  3
McadcomServices
 90
    33792
280
     0
281
     0
  0
CLASS
  1
AMDTMCOMMENUSTATE
  2
AmdtMcomMenuState
  3
McadcomServices
 90
    33792
280
     0
281
     0
  0
CLASS
  1
AMIMASTER
  2
AmiMaster
  3
AmiServices
 90
    33792
280
     0
281
     0
  0
CLASS
  1
MAPIAMMOUDLE
  2
MApiAmModule
  3
MApiAmServices
 90
    33792
280
     0
281
     0
  0
CLASS
  1
ACIMSTRSYSVAR
  2
AcImStrSysVar
  3
AcMeServices
 90
    33792
280
     0
281
     0
  0
CLASS
  1
AMDTAMMENUSTATE
  2
AmdtAmMenuState
  3
DesignerAssemblies
 90
    33792
280
     0
281
     0
  0
CLASS
  1
ACAMPROJECT
  2
AcAmProject
  3
DesignerAssemblies
 90
    33792
280
     0
281
     0
  0
CLASS
  1
ACAMGRCOMPDEF
  2
AcAmGrCompDef
  3
DesignerAssemblies
 90
    33792
280
     0
281
     0
  0
CLASS
  1
ACAMCOMPDEF
  2
AcAmCompDef
  3
DesignerAssemblies
 90
    33792
280
     0
281
     0
  0
CLASS
  1
ACAMCOMPDEFMGR
  2
AcAmCompDefMgr
  3
DesignerAssemblies
 90
    33792
280
     0
281
     0
  0
CLASS
  1
AMCONTEXTMGR
  2
AcAmContextMgr
  3
DesignerAssemblies
 90
    33792
280
     0
281
     0
  0
CLASS
  1
ACAMCONTEXTMODELER
  2
AcAmContextModeler
  3
DesignerAssemblies
 90
    33792
280
     0
281
     0
  0
CLASS
  1
ACMDATADICTIONARY
  2
AcmDataDictionary
  3
"AcmSymBB|Product Description: AutoCAD Mechanical|Company: Autodesk, Inc."
 90
    33792
280
     0
281
     0
  0
CLASS
  1
ACMSTANDARDISO
  2
AcmStandardISO
  3
"Amdt_StdImp|Product Description: AutoCAD Mechanical|Company: Autodesk, Inc."
 90
    33792
280
     0
281
     0
  0
CLASS
  1
AMDTEDGESTANDARDISO13715
  2
AmdtEdgeStdISO13715
  3
"Amdt_StdImp|Product Description: AutoCAD Mechanical|Company: Autodesk, Inc."
 90
    33792
280
     0
281
     0
  0
CLASS
  1
ACMSURFSTANDARDISO2002
  2
AcmSurfTextStdISO2002
  3
"Amdt_StdImp|Product Description: AutoCAD Mechanical|Company: Autodesk, Inc."
 90
    33792
280
     0
281
     0
  0
CLASS
  1
ACMFCFSTANDARDISO2004
  2
AcmFCFStdISO2004
  3
"Amdt_StdImp|Product Description: AutoCAD Mechanical|Company: Autodesk, Inc."
 90
    33792
280
     0
281
     0
  0
CLASS
  1
ACMWELDSTANDARDISO
  2
AcmWeldingStdISO
  3
"Amdt_StdImp|Product Description: AutoCAD Mechanical|Company: Autodesk, Inc."
 90
    33792
280
     0
281
     0
  0
CLASS
  1
ACMIDSTANDARDISO2004
  2
AcmIdStdISO2004
  3
"Amdt_StdImp|Product Description: AutoCAD Mechanical|Company: Autodesk, Inc."
 90
    33792
280
     0
281
     0
  0
CLASS
  1
ACMDATUMSTANDARDISO
  2
AcmDatumStdISO
  3
"Amdt_StdImp|Product Description: AutoCAD Mechanical|Company: Autodesk, Inc."
 90
    33792
280
     0
281
     0
  0
CLASS
  1
ACMBOMSTANDARDISO
  2
AcmBOMStdISO
  3
"Amdt_StdImp|Product Description: AutoCAD Mechanical|Company: Autodesk, Inc."
 90
    33792
280
     0
281
     0
  0
CLASS
  1
ACMDETAILSTANDARDISO
  2
AmdtDetailSymStdISO
  3
"Amdt_StdImp|Product Description: AutoCAD Mechanical|Company: Autodesk, Inc."
 90
    33792
280
     0
281
     0
  0
CLASS
  1
ACMSECTIONSTANDARDISO2001
  2
AmdtSectionSymStdISO2001
  3
"Amdt_StdImp|Product Description: AutoCAD Mechanical|Company: Autodesk, Inc."
 90
    33792
280
     0
281
     0
  0
CLASS
  1
ACMCENTERLINESTANDARDISO
  2
AmdtCenterLineStdISO
  3
"Amdt_StdImp|Product Description: AutoCAD Mechanical|Company: Autodesk, Inc."
 90
    33792
280
     0
281
     0
  0
CLASS
  1
ACMTHREADLINESTANDARDISO
  2
AmdtThreadLineStdISO
  3
"Amdt_StdImp|Product Description: AutoCAD Mechanical|Company: Autodesk, Inc."
 90
    33792
280
     0
281
     0
  0
CLASS
  1
ACMNOTESTANDARDISO
  2
AmdtNoteStdISO
  3
"Amdt_StdImp|Product Description: AutoCAD Mechanical|Company: Autodesk, Inc."
 90
    33792
280
     0
281
     0
  0
CLASS
  1
ACMTAPERSTANDARDISO
  2
AcmTaperStdISO
  3
"Amdt_StdImp|Product Description: AutoCAD Mechanical|Company: Autodesk, Inc."
 90
    33792
280
     0
281
     0
  0
CLASS
  1
ACMANOOTATIONVIEWSTANDARDISO
  2
AmdtAnViewStdISO
  3
"Amdt_StdImp|Product Description: AutoCAD Mechanical|Company: Autodesk, Inc."
 90
    33792
280
     0
281
     0
  0
CLASS
  1
ACAMGLAYSTD
  2
AcAmgLayStd
  3
"AmgLay|Product Description: AutoCAD Mechanical|Company: Autodesk, Inc."
 90
    33792
280
     0
281
     0
  0
CLASS
  1
ACAMGDIMSTD
  2
AcAmgDimStd
  3
"AmgDim|Product Description: AutoCAD Mechanical|Company: Autodesk, Inc."
 90
    33792
280
     0
281
     0
  0
CLASS
  1
AMGOBJPROPCFG
  2
AmgObjPropCfg
  3
"AmgLay|Product Description: AutoCAD Mechanical|Company: Autodesk, Inc."
 90
    33793
280
     0
281
     0
  0
CLASS
  1
ACAMGHOLECHARTSTDISO
  2
AcAmgHoleChartStdISO
  3
AmgDim|Product Description: AutoCAD Mechanical|Company: Autodesk, Inc.
 90
    33792
280
     0
281
     0
  0
CLASS
  1
ACAMGTITLESTD
  2
AcAmgTitleStd
  3
"AmgTitle|Product Description: AutoCAD Mechanical|Company: Autodesk, Inc."
 90
    36863
280
     0
281
     0
  0
CLASS
  1
AMDTNOTETEMPLATEDB
  2
AmdtNoteTemplateDB
  3
AcmSymBB|Product Description: AutoCAD Mechanical|Company: Autodesk, Inc.
 90
    33792
280
     0
281
     0
  0
CLASS
  1
ACAMGRCOMPDEFSET
  2
AcAmGrCompDefSet
  3
DesignerAssemblies
 90
    33792
280
     0
281
     0
  0
CLASS
  1
AMDTBROWSERDBTAB
  2
AmdtBrowserDbTab
  3
McadcomServices
 90
    33792
280
     0
281
     0
  0
CLASS
  1
CBROWSERAPPOBJECT
  2
CBrowserAppObject
  3
McadcomServices
 90
    33792
280
     0
281
     0
  0
CLASS
  1
DM_PLACEHOLDER
  2
AcDmSelsetPlaceholder
  3
McadcomServices
 90
    33792
280
     0
281
     0
  0
CLASS
  1
CAMSSTRUCTBTNSTATE
  2
StructBtnState
  3
DesignerAssemblies
 90
    33792
280
     0
281
     0
  0
CLASS
  1
ACAMGFILTERDAT
  2
AcAmgFilterDat
  3
"AcadM|Product Description: AutoCAD Mechanical|Company: Autodesk, Inc."
 90
    33792
280
     0
281
     0
  0
CLASS
  1
AEC_REFEDIT_STATUS_TRACKER
  2
AecDbRefEditStatusTracker
  3
AecArchBase70|Product Desc: Autodesk Architectural Desktop 2007 |Company: Autodesk,Inc. |WEB Address: www.autodesk.com
 90
    32897
280
     0
281
     0
  0
CLASS
  1
NPOCOLLECTION
  2
AcDbImpNonPersistentObjectsCollection
  3
ObjectDBX Classes
 90
    33921
280
     0
281
     0
  0
CLASS
  1
ACDBSECTIONVIEWSTYLE
  2
AcDbSectionViewStyle
  3
ObjectDBX Classes
 90
     1025
280
     0
281
     0
  0
CLASS
  1
ACDBDETAILVIEWSTYLE
  2
AcDbDetailViewStyle
  3
ObjectDBX Classes
 90
     1025
280
     0
281
     0
  0
CLASS
  1
ACDBPLACEHOLDER
  2
AcDbPlaceHolder
  3
ObjectDBX Classes
 90
        0
280
     0
281
     0
  0
CLASS
  1
LAYOUT
  2
AcDbLayout
  3
ObjectDBX Classes
 90
        0
280
     0
281
     0
  0
ENDSEC
  0
SECTION
  2
TABLES
  0
TABLE
  2
VPORT
  5
8
330
0
100
AcDbSymbolTable
 70
     1
  0
VPORT
  5
3ED
330
8
100
AcDbSymbolTableRecord
100
AcDbViewportTableRecord
  2
*Active
 70
     0
 10
0.0
 20
0.0
 11
1.0
 21
1.0
 12
2.896569702770349
 22
-5.554656040103452
 13
0.0
 23
0.0
 14
5.0
 24
5.0
 15
5.0
 25
5.0
 16
0.0
 26
0.0
 36
1.0
 17
0.0
 27
0.0
 37
0.0
 40
72.34087345316703
 41
2.336194563662374
 42
50.0
 43
0.0
 44
0.0
 50
0.0
 51
0.0
 71
     0
 72
  2000
 73
     1
 74
     3
 75
     0
 76
     0
 77
     0
 78
     0
281
     0
 65
     1
110
0.0
120
0.0
130
0.0
111
1.0
121
0.0
131
0.0
112
0.0
122
1.0
132
0.0
 79
     0
146
0.0
1001
ACAD_NAV_VCDISPLAY
1070
     3
  0
ENDTAB
  0
TABLE
  2
LTYPE
  5
5
330
0
100
AcDbSymbolTable
 70
    12
  0
LTYPE
  5
12
330
5
100
AcDbSymbolTableRecord
100
AcDbLinetypeTableRecord
  2
BYBLOCK
 70
     0
  3

 72
    65
 73
     0
 40
0.0
  0
LTYPE
  5
13
330
5
100
AcDbSymbolTableRecord
100
AcDbLinetypeTableRecord
  2
BYLAYER
 70
     0
  3

 72
    65
 73
     0
 40
0.0
  0
LTYPE
  5
14
330
5
100
AcDbSymbolTableRecord
100
AcDbLinetypeTableRecord
  2
CONTINUOUS
 70
     0
  3
Solid line
 72
    65
 73
     0
 40
0.0
  0
LTYPE
  5
6A7
330
5
100
AcDbSymbolTableRecord
100
AcDbLinetypeTableRecord
  2
CENTER2
 70
     0
  3
Center (.5x) ___ _ ___ _ ___ _ ___ _ ___ _ ___
 72
    65
 73
     4
 40
28.575
 49
19.05
 74
     0
 49
-3.174999999999998
 74
     0
 49
3.174999999999998
 74
     0
 49
-3.174999999999998
 74
     0
  0
LTYPE
  5
783
330
5
100
AcDbSymbolTableRecord
100
AcDbLinetypeTableRecord
  2
AM_ISO02W050
 70
     0
  3
__ __ __ __ __ __ __ __ __ __ __ __ __ __ __
 72
    65
 73
     2
 40
7.5
 49
6.0
 74
     0
 49
-1.5
 74
     0
  0
LTYPE
  5
784
330
5
100
AcDbSymbolTableRecord
100
AcDbLinetypeTableRecord
  2
AM_ISO08W050
 70
     0
  3
____ . ____ . ____ . ____ . ____ . ____ . ____
 72
    65
 73
     4
 40
18.0
 49
12.0
 74
     0
 49
-1.5
 74
     0
 49
3.0
 74
     0
 49
-1.5
 74
     0
  0
LTYPE
  5
785
330
5
100
AcDbSymbolTableRecord
100
AcDbLinetypeTableRecord
  2
AM_ISO09W050
 70
     0
  3
_____ . . _____ . . _____ . . ____ .. ____
 72
    65
 73
     6
 40
22.5
 49
12.0
 74
     0
 49
-1.5
 74
     0
 49
3.0
 74
     0
 49
-1.5
 74
     0
 49
3.0
 74
     0
 49
-1.5
 74
     0
  0
LTYPE
  5
786
330
5
100
AcDbSymbolTableRecord
100
AcDbLinetypeTableRecord
  2
Amconstr
 70
     0
  3
_______________________
 72
    65
 73
     2
 40
9999.0
 49
9999.0
 74
     0
 49
0.0
 74
     0
  0
LTYPE
  5
787
330
5
100
AcDbSymbolTableRecord
100
AcDbLinetypeTableRecord
  2
AM_ISO08W050x2
 70
     0
  3
__ . __ . __ . __ . __ . __
 72
    65
 73
     4
 40
9.0
 49
6.0
 74
     0
 49
-0.75
 74
     0
 49
1.5
 74
     0
 49
-0.75
 74
     0
  0
LTYPE
  5
788
330
5
100
AcDbSymbolTableRecord
100
AcDbLinetypeTableRecord
  2
AM_ISO02W050x2
 70
     0
  3
 _ _ _ _ _ _ _ _ _ _ _ _
 72
    65
 73
     2
 40
3.75
 49
3.0
 74
     0
 49
-0.75
 74
     0
  0
LTYPE
  5
78B
330
5
100
AcDbSymbolTableRecord
100
AcDbLinetypeTableRecord
  2
Amzigzag
 70
     0
  3
/\/-/\/-/\/-/\/-/\/-/\/
 72
    65
 73
     2
 40
11.0001
 49
0.0001
 74
     4
 75
   136
340
78A
 46
0.04
 50
0.0
 44
0.0
 45
0.0
 49
-11.0
 74
     0
  0
LTYPE
  5
79A
330
5
100
AcDbSymbolTableRecord
100
AcDbLinetypeTableRecord
  2
ACISOWELD
 70
     0
  3
_ _ _ _ _
 72
    65
 73
     2
 40
2.0
 49
2.0
 74
     0
 49
-1.0
 74
     0
  0
LTYPE
  5
79B
330
5
100
AcDbSymbolTableRecord
100
AcDbLinetypeTableRecord
  2
ACISOTGL
 70
     0
  3
_ _ _ _ _
 72
    65
 73
     2
 40
3.0
 49
2.0
 74
     0
 49
-1.0
 74
     0
  0
LTYPE
  5
79C
330
5
100
AcDbSymbolTableRecord
100
AcDbLinetypeTableRecord
  2
ACISOTGB
 70
     0
  3
__ . . __ . .
 72
    65
 73
     6
 40
9.0
 49
4.0
 74
     0
 49
-1.0
 74
     0
 49
1.0
 74
     0
 49
-1.0
 74
     0
 49
1.0
 74
     0
 49
-1.0
 74
     0
  0
ENDTAB
  0
TABLE
  2
LAYER
  5
2
102
{ACAD_XDICTIONARY
360
451
102
}
330
0
100
AcDbSymbolTable
 70
    12
  0
LAYER
  5
F
102
{ACAD_XDICTIONARY
360
C4E
102
}
330
2
100
AcDbSymbolTableRecord
100
AcDbLayerTableRecord
  2
0
 70
     0
 62
     7
  6
CONTINUOUS
370
    -3
390
300
  0
LAYER
  5
23
102
{ACAD_XDICTIONARY
360
C50
102
}
330
2
100
AcDbSymbolTableRecord
100
AcDbLayerTableRecord
  2
1
 70
     0
 62
     4
  6
CONTINUOUS
370
    50
390
300
  0
LAYER
  5
24
102
{ACAD_XDICTIONARY
360
C52
102
}
330
2
100
AcDbSymbolTableRecord
100
AcDbLayerTableRecord
  2
SK1
 70
     0
 62
     4
  6
CONTINUOUS
370
    50
390
300
  0
LAYER
  5
25
102
{ACAD_XDICTIONARY
360
C54
102
}
330
2
100
AcDbSymbolTableRecord
100
AcDbLayerTableRecord
  2
2
 70
     0
 62
     7
  6
CONTINUOUS
370
    25
390
300
  0
LAYER
  5
27
102
{ACAD_XDICTIONARY
360
C56
102
}
330
2
100
AcDbSymbolTableRecord
100
AcDbLayerTableRecord
  2
SK2
 70
     0
 62
     7
  6
CONTINUOUS
370
    25
390
300
  0
LAYER
  5
2A
102
{ACAD_XDICTIONARY
360
C58
102
}
330
2
100
AcDbSymbolTableRecord
100
AcDbLayerTableRecord
  2
4
 70
     0
 62
     2
  6
CENTER2
370
    25
390
300
  0
LAYER
  5
2B
102
{ACAD_XDICTIONARY
360
C5A
102
}
330
2
100
AcDbSymbolTableRecord
100
AcDbLayerTableRecord
  2
SK4
 70
     0
 62
     2
  6
CENTER2
370
    25
390
300
  0
LAYER
  5
2E
102
{ACAD_XDICTIONARY
360
C5C
102
}
330
2
100
AcDbSymbolTableRecord
100
AcDbLayerTableRecord
  2
SK6
 70
     0
 62
     5
  6
CONTINUOUS
370
    -3
390
300
  0
LAYER
  5
2F
330
2
100
AcDbSymbolTableRecord
100
AcDbLayerTableRecord
  2
DEFPOINTS
 70
     0
 62
     7
  6
CONTINUOUS
290
     0
370
    25
390
300
  0
LAYER
  5
375
102
{ACAD_XDICTIONARY
360
C5E
102
}
330
2
100
AcDbSymbolTableRecord
100
AcDbLayerTableRecord
  2
CUT
 70
     0
 62
     1
  6
CONTINUOUS
370
    25
390
300
  0
LAYER
  5
376
102
{ACAD_XDICTIONARY
360
C60
102
}
330
2
100
AcDbSymbolTableRecord
100
AcDbLayerTableRecord
  2
NOCUT
 70
     0
 62
     7
  6
CONTINUOUS
370
    -3
390
300
  0
LAYER
  5
49B
102
{ACAD_XDICTIONARY
360
C62
102
}
330
2
100
AcDbSymbolTableRecord
100
AcDbLayerTableRecord
  2
INFTOTAL
 70
     0
 62
     9
  6
CONTINUOUS
370
    18
390
300
1001
AcAecLayerStandard
1000

1000

  0
ENDTAB
  0
TABLE
  2
STYLE
  5
3
330
0
100
AcDbSymbolTable
 70
     3
  0
STYLE
  5
10
330
3
100
AcDbSymbolTableRecord
100
AcDbTextStyleTableRecord
  2
STANDARD
 70
     0
 40
0.0
 41
1.0
 50
0.0
 71
     0
 42
5.0
  3
monos.ttf
  4

1001
ACAD
1000
Monospac821 BT
1071
       49
  0
STYLE
  5
78A
330
3
100
AcDbSymbolTableRecord
100
AcDbTextStyleTableRecord
  2

 70
     1
 40
0.0
 41
1.0
 50
0.0
 71
     0
 42
3.5
  3
genltshp.shx
  4

  0
STYLE
  5
799
330
3
100
AcDbSymbolTableRecord
100
AcDbTextStyleTableRecord
  2
ACISOGDT
 70
     0
 40
0.0
 41
1.0
 50
0.0
 71
     0
 42
3.5
  3
amgdt.shx
  4

  0
ENDTAB
  0
TABLE
  2
VIEW
  5
6
330
0
100
AcDbSymbolTable
 70
     0
  0
ENDTAB
  0
TABLE
  2
UCS
  5
7
330
0
100
AcDbSymbolTable
 70
     0
  0
ENDTAB
  0
TABLE
  2
APPID
  5
9
330
0
100
AcDbSymbolTable
 70
    25
  0
APPID
  5
11
330
9
100
AcDbSymbolTableRecord
100
AcDbRegAppTableRecord
  2
ACAD
 70
     0
  0
APPID
  5
3A6
330
9
100
AcDbSymbolTableRecord
100
AcDbRegAppTableRecord
  2
ACAD_PSEXT
 70
     0
  0
APPID
  5
3A8
330
9
100
AcDbSymbolTableRecord
100
AcDbRegAppTableRecord
  2
ACAD_EXEMPT_FROM_CAD_STANDARDS
 70
     0
  0
APPID
  5
43E
330
9
100
AcDbSymbolTableRecord
100
AcDbRegAppTableRecord
  2
ACAD_MLEADERVER
 70
     0
  0
APPID
  5
460
330
9
100
AcDbSymbolTableRecord
100
AcDbRegAppTableRecord
  2
ACAD_DSTYLE_DIMJAG
 70
     0
  0
APPID
  5
461
330
9
100
AcDbSymbolTableRecord
100
AcDbRegAppTableRecord
  2
ACAD_DSTYLE_DIMBREAK
 70
     0
  0
APPID
  5
462
330
9
100
AcDbSymbolTableRecord
100
AcDbRegAppTableRecord
  2
ACAD_DSTYLE_DIMTALN
 70
     0
  0
APPID
  5
47A
330
9
100
AcDbSymbolTableRecord
100
AcDbRegAppTableRecord
  2
AcAecLayerStandard
 70
     0
  0
APPID
  5
4AB
330
9
100
AcDbSymbolTableRecord
100
AcDbRegAppTableRecord
  2
DCO15
 70
     0
  0
APPID
  5
4B9
330
9
100
AcDbSymbolTableRecord
100
AcDbRegAppTableRecord
  2
AcadAnnoPO
 70
     0
  0
APPID
  5
55F
330
9
100
AcDbSymbolTableRecord
100
AcDbRegAppTableRecord
  2
ACAD_DSTYLE_DIMRADIAL_EXTENSION
 70
     0
  0
APPID
  5
701
330
9
100
AcDbSymbolTableRecord
100
AcDbRegAppTableRecord
  2
AcadAnnotative
 70
     0
  0
APPID
  5
702
330
9
100
AcDbSymbolTableRecord
100
AcDbRegAppTableRecord
  2
AcDbDynamicBlockGUID
 70
     0
  0
APPID
  5
703
330
9
100
AcDbSymbolTableRecord
100
AcDbRegAppTableRecord
  2
AcDbBlockRepETag
 70
     0
  0
APPID
  5
748
330
9
100
AcDbSymbolTableRecord
100
AcDbRegAppTableRecord
  2
MCAD_NO_VIS
 70
     0
  0
APPID
  5
749
330
9
100
AcDbSymbolTableRecord
100
AcDbRegAppTableRecord
  2
ACAD_TEMP_GRAPHIC
 70
     0
  0
APPID
  5
754
330
9
100
AcDbSymbolTableRecord
100
AcDbRegAppTableRecord
  2
ACATTRIBSERVICES
 70
     0
  0
APPID
  5
76C
330
9
100
AcDbSymbolTableRecord
100
AcDbRegAppTableRecord
  2
DESIGNERASSEMBLIES
 70
     0
  0
APPID
  5
7A8
330
9
100
AcDbSymbolTableRecord
100
AcDbRegAppTableRecord
  2
ACAD_NAV_VCDISPLAY
 70
     0
  0
APPID
  5
896
330
9
100
AcDbSymbolTableRecord
100
AcDbRegAppTableRecord
  2
ACAD_DSTYLE_DIMINSPECT
 70
     0
  0
APPID
  5
CAA
330
9
100
AcDbSymbolTableRecord
100
AcDbRegAppTableRecord
  2
ACAD_DSTYLE_DIMARC_LENGTH_SYMBOL
 70
     0
  0
APPID
  5
CAB
330
9
100
AcDbSymbolTableRecord
100
AcDbRegAppTableRecord
  2
ACAD_DSTYLE_DIM_LINETYPE
 70
     0
  0
APPID
  5
CAC
330
9
100
AcDbSymbolTableRecord
100
AcDbRegAppTableRecord
  2
ACAD_DSTYLE_DIM_EXT1_LINETYPE
 70
     0
  0
APPID
  5
CAD
330
9
100
AcDbSymbolTableRecord
100
AcDbRegAppTableRecord
  2
ACAD_DSTYLE_DIM_EXT2_LINETYPE
 70
     0
  0
APPID
  5
CBF
330
9
100
AcDbSymbolTableRecord
100
AcDbRegAppTableRecord
  2
ACAD_DSTYLE_DIMJOGGED_JOGANGLE_SYMBOL
 70
     0
  0
ENDTAB
  0
TABLE
  2
DIMSTYLE
  5
A
330
0
100
AcDbSymbolTable
 70
     3
100
AcDbDimStyleTable
 71
     3
340
3F
340
781
340
467
  0
DIMSTYLE
105
3F
102
{ACAD_REACTORS
330
B2B
330
B2F
330
B32
330
B3B
330
B3C
102
}
330
A
100
AcDbSymbolTableRecord
100
AcDbDimStyleTableRecord
  2
STANDARD
 70
     0
 41
2.5
 42
0.0
 43
3.75
 44
1.25
 73
     0
 74
     0
 77
     1
 78
     1
140
3.5
141
0.0
143
0.039370078
147
0.625
171
     3
179
     2
271
     2
272
     2
274
     3
283
     0
284
     8
340
10
1001
ACAD_DSTYLE_DIMJAG
1070
   388
1040
1.5
1001
ACAD_DSTYLE_DIMTALN
1070
   392
1070
     0
  0
DIMSTYLE
105
467
102
{ACAD_REACTORS
330
B2E
102
}
330
A
100
AcDbSymbolTableRecord
100
AcDbDimStyleTableRecord
  2
DIAMETER
 70
     0
 41
2.5
 42
0.0
 43
3.75
 44
1.25
 73
     0
 74
     0
 76
     1
 77
     1
 78
     1
140
3.5
141
0.0
143
0.039370078
147
0.625
171
     3
173
     1
179
     2
271
     2
272
     2
274
     3
283
     0
284
     8
340
10
344
464
1001
ACAD_DSTYLE_DIMBREAK
1070
   391
1040
3.75
1001
ACAD_DSTYLE_DIMJAG
1070
   388
1040
1.5
1001
ACAD_DSTYLE_DIMTALN
1070
   392
1070
     0
  0
DIMSTYLE
105
781
330
A
100
AcDbSymbolTableRecord
100
AcDbDimStyleTableRecord
  2
AM_ISO
 70
     0
  4
"
 41
3.5
 42
1.0
 43
10.0
 44
1.0
 47
0.1
 48
0.1
 73
     0
 74
     0
 77
     1
 78
     8
 79
     2
140
3.5
141
0.0
143
0.0393701
146
0.71
147
1.5
172
     1
176
   256
177
   256
178
     2
271
     2
272
     3
274
     4
283
     0
284
     8
340
10
371
    -1
372
    -1
1001
ACAD_DSTYLE_DIMJAG
1070
   388
1040
1.5
1001
ACAD_DSTYLE_DIMBREAK
1070
   391
1040
3.75
1001
ACAD_DSTYLE_DIMARC_LENGTH_SYMBOL
1070
   379
1070
     1
1001
ACAD_DSTYLE_DIM_LINETYPE
1070
   380
1005
12
1001
ACAD_DSTYLE_DIM_EXT1_LINETYPE
1070
   381
1005
12
1001
ACAD_DSTYLE_DIM_EXT2_LINETYPE
1070
   382
1005
12
  0
ENDTAB
  0
TABLE
  2
BLOCK_RECORD
  5
1
330
0
100
AcDbSymbolTable
 70
     9
  0
BLOCK_RECORD
  5
18
102
{ACAD_XDICTIONARY
360
CF5
102
}
330
1
100
AcDbSymbolTableRecord
100
AcDbBlockTableRecord
  2
*MODEL_SPACE
340
303
  0
BLOCK_RECORD
  5
338
330
1
100
AcDbSymbolTableRecord
100
AcDbBlockTableRecord
  2
*Paper_Space
340
33B
  0
BLOCK_RECORD
  5
464
330
1
100
AcDbSymbolTableRecord
100
AcDbBlockTableRecord
  2
_None
340
0
  0
BLOCK_RECORD
  5
51F
330
1
100
AcDbSymbolTableRecord
100
AcDbBlockTableRecord
  2
CERO_POINT
340
0
310
2800000020000000200000000100080000000000000400000000000000000000000000000000000000000000000080000080000000808000800000008000800080800000C0C0C000C0DCC000F0CAA6000020400000206000002080000020A0000020C0000020E00000400000004020000040400000406000004080000040A0
310
000040C0000040E00000600000006020000060400000606000006080000060A0000060C0000060E00000800000008020000080400000806000008080000080A0000080C0000080E00000A0000000A0200000A0400000A0600000A0800000A0A00000A0C00000A0E00000C0000000C0200000C0400000C0600000C0800000C0
310
A00000C0C00000C0E00000E0000000E0200000E0400000E0600000E0800000E0A00000E0C00000E0E00040000000400020004000400040006000400080004000A0004000C0004000E00040200000402020004020400040206000402080004020A0004020C0004020E000404000004040200040404000404060004040800040
310
40A0004040C0004040E00040600000406020004060400040606000406080004060A0004060C0004060E00040800000408020004080400040806000408080004080A0004080C0004080E00040A0000040A0200040A0400040A0600040A0800040A0A00040A0C00040A0E00040C0000040C0200040C0400040C0600040C08000
310
40C0A00040C0C00040C0E00040E0000040E0200040E0400040E0600040E0800040E0A00040E0C00040E0E00080000000800020008000400080006000800080008000A0008000C0008000E00080200000802020008020400080206000802080008020A0008020C0008020E00080400000804020008040400080406000804080
310
008040A0008040C0008040E00080600000806020008060400080606000806080008060A0008060C0008060E00080800000808020008080400080806000808080008080A0008080C0008080E00080A0000080A0200080A0400080A0600080A0800080A0A00080A0C00080A0E00080C0000080C0200080C0400080C0600080C0
310
800080C0A00080C0C00080C0E00080E0000080E0200080E0400080E0600080E0800080E0A00080E0C00080E0E000C0000000C0002000C0004000C0006000C0008000C000A000C000C000C000E000C0200000C0202000C0204000C0206000C0208000C020A000C020C000C020E000C0400000C0402000C0404000C0406000C0
310
408000C040A000C040C000C040E000C0600000C0602000C0604000C0606000C0608000C060A000C060C000C060E000C0800000C0802000C0804000C0806000C0808000C080A000C080C000C080E000C0A00000C0A02000C0A04000C0A06000C0A08000C0A0A000C0A0C000C0A0E000C0C00000C0C02000C0C04000C0C06000
310
C0C08000C0C0A000F0FBFF00A4A0A000808080000000FF0000FF000000FFFF00FF000000FF00FF00FFFF0000FFFFFF00000000000000000000000000000000000000000000000000000000000000000000000000000000000000000000000000FF0000000000000000000000000000000000000000000000000000000000FF
310
FFFFFFFF000000000000000000000000000000000000000000FFFFFFFFFFFF0000FF0000FFFF00FF00000000000000000000000000000000FF00000000000000FFFFFF0000FFFFFFFF000000000000000000000000000000FF0000000000000000FF00FF0000FF00FFFF00000000000000000000000000FF00000000000000
310
0000FFFF00FF0000FF0000FFFF00000000000000000000FF000000000000000000FFFF00FF00FF0000FF0000FF000000000000000000FF0000000000000000000000FF0000FF00FF0000FF0000FF0000000000000000FF00000000000000000000FFFFFF0000FFFFFF0000FF00FFFF000000000000FF000000000000000000
310
000000FF00FF000000FFFF0000FF00FF0000000000FF00000000000000000000000000FFFF00FFFF0000FFFF0000FFFF0000000000FF000000000000000000000000FFFF00FF0000FF0000FFFF0000FF0000000000FF00000000000000000000000000FF0000FF0000FF0000FFFF0000FF00000000FF000000000000000000
310
000000FFFFFF0000FF0000FF0000FFFF00FF00000000FF00FF00000000FF0000FF00FF00FFFFFF0000FF0000FF0000FFFF00FF0000FFFFFFFFFFFFFFFFFFFFFFFFFFFFFFFFFFFFFFFFFFFFFFFFFFFFFFFFFFFF000000FF00FF00FF00FF0000FF0000FFFFFF00000000000000000000000000FF000000FF0000FF00FF00FF00
310
00FF0000FFFF000000000000000000000000FF00000000FFFF0000FF00FF00FF00FF000000FF000000000000000000000000FF00000000FF00FF0000FF00FF00FF00FF0000FF0000000000000000000000FF000000000000FF00FF0000FFFF0000FF00FF00FF0000000000000000000000FF000000000000FFFF00FF00FF00
310
FF0000FF00FFFF00000000000000000000FF0000000000000000FF0000FF00FF00FF0000FF00FF00000000000000000000FF000000000000000000FF0000FF00FF00FF0000FFFF000000000000000000FF0000000000000000000000FF0000FF00FF00FF0000FF000000000000000000FF000000000000000000000000FF00
310
00FF00FF00FF00FF00000000000000FFFF00000000000000000000000000FFFF0000FF00FF00FFFF0000000000FFFF00000000000000000000000000000000FFFFFFFFFF00FF00FF000000FFFF0000000000000000000000000000000000000000000000FFFFFFFFFFFFFF0000000000000000000000000000000000000000
310
0000000000000000FF0000000000000000000000000000000000000000000000000000000000000000000000000000000000000000000000
102
{BLKREFS
331
B29
102
}
1001
ACAD
1000
DesignCenter Data
1002
{
1070
     1
1070
     4
1002
}
  0
BLOCK_RECORD
  5
6D0
102
{ACAD_XDICTIONARY
360
6D1
102
}
330
1
100
AcDbSymbolTableRecord
100
AcDbBlockTableRecord
  2
ISCAR_LOGO
340
0
310
2800000020000000200000000100080000000000000400000000000000000000000000000000000000000000000080000080000000808000800000008000800080800000C0C0C000C0DCC000F0CAA6000020400000206000002080000020A0000020C0000020E00000400000004020000040400000406000004080000040A0
310
000040C0000040E00000600000006020000060400000606000006080000060A0000060C0000060E00000800000008020000080400000806000008080000080A0000080C0000080E00000A0000000A0200000A0400000A0600000A0800000A0A00000A0C00000A0E00000C0000000C0200000C0400000C0600000C0800000C0
310
A00000C0C00000C0E00000E0000000E0200000E0400000E0600000E0800000E0A00000E0C00000E0E00040000000400020004000400040006000400080004000A0004000C0004000E00040200000402020004020400040206000402080004020A0004020C0004020E000404000004040200040404000404060004040800040
310
40A0004040C0004040E00040600000406020004060400040606000406080004060A0004060C0004060E00040800000408020004080400040806000408080004080A0004080C0004080E00040A0000040A0200040A0400040A0600040A0800040A0A00040A0C00040A0E00040C0000040C0200040C0400040C0600040C08000
310
40C0A00040C0C00040C0E00040E0000040E0200040E0400040E0600040E0800040E0A00040E0C00040E0E00080000000800020008000400080006000800080008000A0008000C0008000E00080200000802020008020400080206000802080008020A0008020C0008020E00080400000804020008040400080406000804080
310
008040A0008040C0008040E00080600000806020008060400080606000806080008060A0008060C0008060E00080800000808020008080400080806000808080008080A0008080C0008080E00080A0000080A0200080A0400080A0600080A0800080A0A00080A0C00080A0E00080C0000080C0200080C0400080C0600080C0
310
800080C0A00080C0C00080C0E00080E0000080E0200080E0400080E0600080E0800080E0A00080E0C00080E0E000C0000000C0002000C0004000C0006000C0008000C000A000C000C000C000E000C0200000C0202000C0204000C0206000C0208000C020A000C020C000C020E000C0400000C0402000C0404000C0406000C0
310
408000C040A000C040C000C040E000C0600000C0602000C0604000C0606000C0608000C060A000C060C000C060E000C0800000C0802000C0804000C0806000C0808000C080A000C080C000C080E000C0A00000C0A02000C0A04000C0A06000C0A08000C0A0A000C0A0C000C0A0E000C0C00000C0C02000C0C04000C0C06000
310
C0C08000C0C0A000F0FBFF00A4A0A000808080000000FF0000FF000000FFFF00FF000000FF00FF00FFFF0000FFFFFF0000000000000000000000000000000000000000000000000000000000000000000000000000000000000000000000000000000000000000000000000000000000000000000000000000000000000000
310
0000000000000000000000000000000000000000000000000000000000FC0000FC00000000000000000000000000000000000000000000000000000000FC000000FC000000000000000000000000000000000000000000000000000000FCFC0000FC000000000000000000000000000000000000000000000000000000FC00
310
000000FC0000000000000000000000000000000000000000000000000000FCFCFCFCFCFC000000000000000000000000000000000000000000000000000000000000000000000000000000000000000000000000000000000000000000FCFC00FCFCFC00FC000000000000000000000000000000000000000000000000FCFC
310
FCFCFCFCFCFC000000000000000000000000000000000000000000000000FC00FCFCFC00FCFC000000000000000000000000000000000000000000000000FC0000FCFC0000FC000000000000000000000000000000000000000000000000000000000000000000000000000000000000000000000000000000000000000000
310
000000000000000000000000000000000000000000FCFCFCFCFCFCFCFC0000000000FCFCFCFCFCFCFCFCFCFCFCFCFC000000000000FC0000FCFC000000FC000000FC000000FC0000FCFC00FCFC00FC000000000000FC0000FCFC000000FC0000FC00000000FC0000FCFC00FCFC00FC000000000000FC0000FCFCFCFCFCFCFC
310
FCFCFCFCFCFCFC0000FCFC00FCFCFCFC000000000000FC0000FCFCFCFCFCFCFCFCFCFCFCFCFCFC0000FCFC00FCFCFCFCFCFCFCFC0000FC0000FC00FC000000FC00FCFC000000FCFCFCFCFCFC0000FC00000000FC0000FCFCFCFC0000FCFCFCFC000000FCFCFCFC0000FCFC00000000FCFCFCFCFC0000000000FC0000000000
310
000000000000000000000000000000000000000000000000FCFCFC00000000000000000000000000000000000000000000000000000000FC0000FC00000000000000000000000000000000000000000000000000000000FC0000FC00000000000000000000000000000000000000000000000000000000FC00FC0000000000
310
000000000000000000000000000000000000000000000000FCFC000000000000000000000000000000000000000000000000000000000000FC00000000000000000000000000000000000000000000000000000000000000000000000000000000000000000000000000000000000000000000000000000000000000000000
310
0000000000000000000000000000000000000000000000000000000000000000000000000000000000000000000000000000000000000000
1001
AcDbDynamicBlockGUID
1000
{7F157122-0310-41DF-BAC8-CAC40B0A72D2}
1001
AcDbBlockRepETag
1070
     1
1071
       42
  0
BLOCK_RECORD
  5
B3E
330
1
100
AcDbSymbolTableRecord
100
AcDbBlockTableRecord
  2
*D3
340
0
  0
BLOCK_RECORD
  5
B48
330
1
100
AcDbSymbolTableRecord
100
AcDbBlockTableRecord
  2
*D4
340
0
  0
BLOCK_RECORD
  5
B55
330
1
100
AcDbSymbolTableRecord
100
AcDbBlockTableRecord
  2
*D5
340
0
  0
BLOCK_RECORD
  5
B63
330
1
100
AcDbSymbolTableRecord
100
AcDbBlockTableRecord
  2
*D6
340
0
  0
BLOCK_RECORD
  5
B71
330
1
100
AcDbSymbolTableRecord
100
AcDbBlockTableRecord
  2
*D7
340
0
  0
BLOCK_RECORD
  5
B85
330
1
100
AcDbSymbolTableRecord
100
AcDbBlockTableRecord
  2
*D8
340
0
  0
ENDTAB
  0
ENDSEC
  0
SECTION
  2
BLOCKS
  0
BLOCK
  5
32
330
18
100
AcDbEntity
  8
0
100
AcDbBlockBegin
  2
*MODEL_SPACE
 70
     0
 10
0.0
 20
0.0
 30
0.0
  3
*MODEL_SPACE
  1

  0
ENDBLK
  5
33
330
18
100
AcDbEntity
  8
0
100
AcDbBlockEnd
  0
BLOCK
  5
339
330
338
100
AcDbEntity
 67
     1
  8
0
100
AcDbBlockBegin
  2
*Paper_Space
 70
     0
 10
0.0
 20
0.0
 30
0.0
  3
*Paper_Space
  1

  0
ENDBLK
  5
33A
330
338
100
AcDbEntity
 67
     1
  8
0
100
AcDbBlockEnd
  0
BLOCK
  5
465
330
464
100
AcDbEntity
  8
0
100
AcDbBlockBegin
  2
_None
 70
     0
 10
0.0
 20
0.0
 30
0.0
  3
_None
  1

  0
ENDBLK
  5
466
330
464
100
AcDbEntity
  8
0
100
AcDbBlockEnd
  0
BLOCK
  5
520
330
51F
100
AcDbEntity
  8
0
100
AcDbBlockBegin
  2
CERO_POINT
 70
     0
 10
0.0
 20
0.0
 30
0.0
  3
CERO_POINT
  1

  0
CIRCLE
  5
521
102
{ACAD_REACTORS
330
526
102
}
330
51F
100
AcDbEntity
  8
SK2
100
AcDbCircle
 10
0.0
 20
0.0
 30
0.0
 40
2.5
  0
LINE
  5
522
330
51F
100
AcDbEntity
  8
SK2
100
AcDbLine
 10
0.0900000000037835
 20
0.0
 30
0.0
 11
-0.0899999999965076
 21
0.0
 31
0.0
  0
LINE
  5
523
330
51F
100
AcDbEntity
  8
SK2
100
AcDbLine
 10
0.0
 20
0.0899999999999182
 30
0.0
 11
0.0
 21
-0.0899999999999182
 31
0.0
  0
LINE
  5
524
102
{ACAD_REACTORS
330
526
102
}
330
51F
100
AcDbEntity
  8
SK2
100
AcDbLine
 10
0.0
 20
-2.5
 30
0.0
 11
0.0
 21
2.5
 31
0.0
  0
LINE
  5
525
102
{ACAD_REACTORS
330
526
102
}
330
51F
100
AcDbEntity
  8
SK2
100
AcDbLine
 10
2.5
 20
0.0
 30
0.0
 11
-2.5
 21
0.0
 31
0.0
  0
HATCH
  5
526
330
51F
100
AcDbEntity
  8
SK2
100
AcDbHatch
 10
0.0
 20
0.0
 30
0.0
210
0.0
220
0.0
230
1.0
  2
ANSI31
 70
     0
 71
     1
 91
        2
 92
        7
 72
     1
 73
     1
 93
        3
 10
0.0
 20
-2.5
 42
0.4142135623730951
 10
2.5
 20
0.0
 42
0.0
 10
0.0
 20
0.0
 42
0.0
 97
        3
330
521
330
525
330
524
 92
        7
 72
     1
 73
     1
 93
        3
 10
0.0
 20
0.0
 42
0.0
 10
0.0
 20
2.5
 42
0.4142135623730951
 10
-2.5
 20
0.0
 42
0.0
 97
        3
330
525
330
524
330
521
 75
     0
 76
     1
 52
180.0
 41
0.1
 77
     0
 78
     1
 53
225.0
 43
5.170976743218488
 44
0.0
 45
0.2245064030267288
 46
-0.2245064030267289
 79
     0
 47
0.0243816376539857
 98
        2
 10
0.8789156907296272
 20
-1.044463114528752
 10
-0.8545028512526187
 20
0.7841600866017872
  0
ENDBLK
  5
527
330
51F
100
AcDbEntity
  8
0
100
AcDbBlockEnd
  0
BLOCK
  5
6D3
330
6D0
100
AcDbEntity
  8
0
100
AcDbBlockBegin
  2
ISCAR_LOGO
 70
     2
 10
0.0
 20
0.0
 30
0.0
  3
ISCAR_LOGO
  1

  0
LINE
  5
6D4
330
6D0
100
AcDbEntity
  8
SK6
100
AcDbLine
 10
0.0
 20
6.250000000000794
 30
0.0
 11
1.750000000007275
 21
4.499999999999204
 31
0.0
  0
LINE
  5
6D5
330
6D0
100
AcDbEntity
  8
SK6
100
AcDbLine
 10
1.750000000007275
 20
4.499999999999204
 30
0.0
 11
1.750000000007275
 21
6.750000000000341
 31
0.0
  0
LINE
  5
6D6
330
6D0
100
AcDbEntity
  8
SK6
100
AcDbLine
 10
4.000000000007275
 20
4.0
 30
0.0
 11
6.250000000007275
 21
4.0
 31
0.0
  0
LINE
  5
6D7
330
6D0
100
AcDbEntity
  8
SK6
100
AcDbLine
 10
8.500000000003637
 20
4.0
 30
0.0
 11
10.74999999999636
 21
4.0
 31
0.0
  0
LINE
  5
6D8
330
6D0
100
AcDbEntity
  8
SK6
100
AcDbLine
 10
17.49999999997453
 20
4.0
 30
0.0
 11
19.74999999996362
 21
4.0
 31
0.0
  0
LINE
  5
6D9
330
6D0
100
AcDbEntity
  8
SK6
100
AcDbLine
 10
0.0
 20
4.0
 30
0.0
 11
1.750000000007275
 21
4.0
 31
0.0
  0
LINE
  5
6DA
330
6D0
100
AcDbEntity
  8
SK6
100
AcDbLine
 10
15.75000000000727
 20
1.750000000000681
 30
0.0
 11
17.49999999997453
 21
1.750000000000681
 31
0.0
  0
LINE
  5
6DB
330
6D0
100
AcDbEntity
  8
SK6
100
AcDbLine
 10
15.75000000000727
 20
2.250000000000113
 30
0.0
 11
19.74999999996362
 21
2.250000000000113
 31
0.0
  0
LINE
  5
6DC
330
6D0
100
AcDbEntity
  8
SK6
100
AcDbLine
 10
15.75000000000727
 20
0.0
 30
0.0
 11
17.49999999997453
 21
0.0
 31
0.0
  0
LINE
  5
6DD
330
6D0
100
AcDbEntity
  8
SK6
100
AcDbLine
 10
15.24999999997453
 20
0.0
 30
0.0
 11
15.24999999997453
 21
2.250000000000113
 31
0.0
  0
LINE
  5
6DE
330
6D0
100
AcDbEntity
  8
SK6
100
AcDbLine
 10
11.25000000000727
 20
0.0
 30
0.0
 11
11.25000000000727
 21
2.250000000000113
 31
0.0
  0
LINE
  5
6DF
330
6D0
100
AcDbEntity
  8
SK6
100
AcDbLine
 10
2.249999999996358
 20
1.750000000000681
 30
0.0
 11
6.250000000007275
 21
1.750000000000681
 31
0.0
  0
ARC
  5
6E0
330
6D0
100
AcDbEntity
  8
SK6
100
AcDbCircle
 10
4.499999999974534
 20
1.750000000000681
 30
0.0
 40
1.749999999999998
100
AcDbArc
 50
270.0
 51
0.0
  0
LINE
  5
6E1
330
6D0
100
AcDbEntity
  8
SK6
100
AcDbLine
 10
2.249999999996358
 20
0.0
 30
0.0
 11
4.499999999974534
 21
0.0
 31
0.0
  0
LINE
  5
6E2
330
6D0
100
AcDbEntity
  8
SK6
100
AcDbLine
 10
2.249999999996358
 20
0.0
 30
0.0
 11
2.249999999996358
 21
1.750000000000681
 31
0.0
  0
LINE
  5
6E3
330
6D0
100
AcDbEntity
  8
SK6
100
AcDbLine
 10
8.500000000003637
 20
0.0
 30
0.0
 11
10.74999999999636
 21
0.0
 31
0.0
  0
LINE
  5
6E4
330
6D0
100
AcDbEntity
  8
SK6
100
AcDbLine
 10
6.750000000003637
 20
1.750000000000681
 30
0.0
 11
10.74999999999636
 21
1.750000000000681
 31
0.0
  0
ARC
  5
6E5
330
6D0
100
AcDbEntity
  8
SK6
100
AcDbCircle
 10
8.500000000003637
 20
1.750000000000681
 30
0.0
 40
1.749999999999998
100
AcDbArc
 50
180.0
 51
270.0
  0
LINE
  5
6E6
330
6D0
100
AcDbEntity
  8
SK6
100
AcDbLine
 10
10.74999999999636
 20
0.0
 30
0.0
 11
10.74999999999636
 21
1.750000000000681
 31
0.0
  0
LINE
  5
6E7
330
6D0
100
AcDbEntity
  8
SK6
100
AcDbLine
 10
15.75000000000727
 20
0.0
 30
0.0
 11
15.75000000000727
 21
1.750000000000681
 31
0.0
  0
LINE
  5
6E8
330
6D0
100
AcDbEntity
  8
SK6
100
AcDbLine
 10
11.25000000000727
 20
0.0
 30
0.0
 11
12.99999999999272
 21
0.0
 31
0.0
  0
LINE
  5
6E9
330
6D0
100
AcDbEntity
  8
SK6
100
AcDbLine
 10
13.4999999999527
 20
0.0
 30
0.0
 11
15.24999999997453
 21
0.0
 31
0.0
  0
LINE
  5
6EA
330
6D0
100
AcDbEntity
  8
SK6
100
AcDbLine
 10
2.249999999996358
 20
2.250000000000113
 30
0.0
 11
6.250000000007275
 21
2.250000000000113
 31
0.0
  0
LINE
  5
6EB
330
6D0
100
AcDbEntity
  8
SK6
100
AcDbLine
 10
6.750000000003637
 20
2.250000000000113
 30
0.0
 11
10.74999999999636
 21
2.250000000000113
 31
0.0
  0
LINE
  5
6EC
330
6D0
100
AcDbEntity
  8
SK6
100
AcDbLine
 10
17.49999999997453
 20
0.0
 30
0.0
 11
17.49999999997453
 21
1.750000000000681
 31
0.0
  0
LINE
  5
6ED
330
6D0
100
AcDbEntity
  8
SK6
100
AcDbLine
 10
0.0
 20
0.0
 30
0.0
 11
1.750000000007275
 21
0.0
 31
0.0
  0
ARC
  5
6EE
330
6D0
100
AcDbEntity
  8
SK6
100
AcDbCircle
 10
17.49999999997453
 20
2.250000000000113
 30
0.0
 40
1.749999999999998
100
AcDbArc
 50
90.0
 51
180.0
  0
LINE
  5
6EF
330
6D0
100
AcDbEntity
  8
SK6
100
AcDbLine
 10
0.0
 20
0.0
 30
0.0
 11
0.0
 21
4.0
 31
0.0
  0
LINE
  5
6F0
330
6D0
100
AcDbEntity
  8
SK6
100
AcDbLine
 10
1.750000000007275
 20
0.0
 30
0.0
 11
1.750000000007275
 21
4.0
 31
0.0
  0
LINE
  5
6F1
330
6D0
100
AcDbEntity
  8
SK6
100
AcDbLine
 10
12.99999999999272
 20
0.0
 30
0.0
 11
12.99999999999272
 21
4.0
 31
0.0
  0
LINE
  5
6F2
330
6D0
100
AcDbEntity
  8
SK6
100
AcDbLine
 10
13.4999999999527
 20
0.0
 30
0.0
 11
13.4999999999527
 21
4.0
 31
0.0
  0
ARC
  5
6F3
330
6D0
100
AcDbEntity
  8
SK6
100
AcDbCircle
 10
4.000000000007275
 20
2.250000000000113
 30
0.0
 40
1.749999999999998
100
AcDbArc
 50
90.0
 51
180.0
  0
ARC
  5
6F4
330
6D0
100
AcDbEntity
  8
SK6
100
AcDbCircle
 10
12.99999999999272
 20
2.250000000000113
 30
0.0
 40
1.749999999999998
100
AcDbArc
 50
90.0
 51
180.0
  0
LINE
  5
6F5
330
6D0
100
AcDbEntity
  8
SK6
100
AcDbLine
 10
6.250000000007275
 20
2.250000000000113
 30
0.0
 11
6.250000000007275
 21
4.0
 31
0.0
  0
ARC
  5
6F6
330
6D0
100
AcDbEntity
  8
SK6
100
AcDbCircle
 10
8.500000000003637
 20
2.250000000000113
 30
0.0
 40
1.749999999999998
100
AcDbArc
 50
90.0
 51
180.0
  0
LINE
  5
6F7
330
6D0
100
AcDbEntity
  8
SK6
100
AcDbLine
 10
10.74999999999636
 20
2.250000000000113
 30
0.0
 11
10.74999999999636
 21
4.0
 31
0.0
  0
ARC
  5
6F8
330
6D0
100
AcDbEntity
  8
SK6
100
AcDbCircle
 10
13.4999999999527
 20
2.250000000000113
 30
0.0
 40
1.749999999999998
100
AcDbArc
 50
0.0
 51
90.0
  0
LINE
  5
6F9
330
6D0
100
AcDbEntity
  8
SK6
100
AcDbLine
 10
19.74999999996362
 20
2.250000000000113
 30
0.0
 11
19.74999999996362
 21
4.0
 31
0.0
  0
LINE
  5
6FA
330
6D0
100
AcDbEntity
  8
SK6
100
AcDbLine
 10
0.0
 20
8.499999999999545
 30
0.0
 11
1.750000000007275
 21
6.750000000000341
 31
0.0
  0
LINE
  5
6FB
330
6D0
100
AcDbEntity
  8
SK6
100
AcDbLine
 10
0.0
 20
6.250000000000794
 30
0.0
 11
0.0
 21
8.499999999999545
 31
0.0
  0
ATTDEF
  5
6FC
330
6D0
100
AcDbEntity
  8
SK6
100
AcDbText
 10
3.07280028710756
 20
-6.38769206708217
 30
0.0
 40
3.5
  1
----
 72
     1
 11
9.138155171155347
 21
-6.38769206708217
 31
0.0
100
AcDbAttributeDefinition
  3
NAME OF TOOL?
  2
MM
 70
     0
  0
ATTDEF
  5
6FD
330
6D0
100
AcDbEntity
  8
SK6
100
AcDbText
 10
9.138155171155347
 20
-12.42271564516345
 30
0.0
 40
3.5
  1

 72
     1
 11
9.138155171155347
 21
-12.42271564516345
 31
0.0
100
AcDbAttributeDefinition
  3

  2
F7
 70
     0
  0
ENDBLK
  5
6FE
330
6D0
100
AcDbEntity
  8
0
100
AcDbBlockEnd
  0
BLOCK
  5
B3F
330
B3E
100
AcDbEntity
  8
0
100
AcDbBlockBegin
  2
*D3
 70
     1
 10
0.0
 20
0.0
 30
0.0
  3
*D3
  1

  0
LINE
  5
BC5
330
B3E
100
AcDbEntity
  8
2
 62
     0
370
    -2
100
AcDbLine
 10
8.398731966360784
 20
6.749500259781199
 30
0.0
 11
30.71906251216474
 21
6.749500259781192
 31
0.0
  0
LINE
  5
BC6
330
B3E
100
AcDbEntity
  8
2
 62
     0
370
    -2
100
AcDbLine
 10
29.46906251216474
 20
4.249500259781195
 30
0.0
 11
29.46906251216474
 21
-6.750499740218804
 31
0.0
  0
SOLID
  5
BC7
330
B3E
100
AcDbEntity
  8
2
 62
     0
100
AcDbTrace
 10
29.05239584549807
 20
4.249500259781195
 30
0.0
 11
29.88572917883141
 21
4.249500259781195
 31
0.0
 12
29.46906251216474
 22
6.749500259781195
 32
0.0
 13
29.46906251216474
 23
6.749500259781195
 33
0.0
  0
MTEXT
  5
BC8
330
B3E
100
AcDbEntity
  8
2
 62
     0
100
AcDbMText
 10
26.98092126128631
 20
-4.864589782587471
 30
0.0
 40
3.5
 41
0.0
 71
     5
 72
     1
  1
%%c13.50
 11
0.0000000000000001
 21
1.0
 31
0.0
 73
     1
 44
1.0
1001
ACAD
1000
MTEXTBEGIN
1070
    73
1070
     1
1070
    44
1040
1.0
1070
    74
1070
     0
1000
MTEXTEND
  0
POINT
  5
BC9
330
B3E
100
AcDbEntity
  8
DEFPOINTS
 62
     0
100
AcDbPoint
 10
8.398731966360784
 20
6.749500259781199
 30
0.0
  0
POINT
  5
BCA
330
B3E
100
AcDbEntity
  8
DEFPOINTS
 62
     0
100
AcDbPoint
 10
8.388731966360793
 20
-6.750499740218797
 30
0.0
  0
POINT
  5
BCB
330
B3E
100
AcDbEntity
  8
DEFPOINTS
 62
     0
100
AcDbPoint
 10
29.46906251216474
 20
-6.750499740218804
 30
0.0
  0
ENDBLK
  5
B40
330
B3E
100
AcDbEntity
  8
0
100
AcDbBlockEnd
  0
BLOCK
  5
B49
330
B48
100
AcDbEntity
  8
0
100
AcDbBlockBegin
  2
*D4
 70
     1
 10
0.0
 20
0.0
 30
0.0
  3
*D4
  1

  0
LINE
  5
BD5
330
B48
100
AcDbEntity
  8
2
 62
     0
370
    -2
100
AcDbLine
 10
9.47000004951731
 20
6.249439455072147
 30
0.0
 11
9.47000004951731
 21
13.07233319611373
 31
0.0
  0
LINE
  5
BD6
330
B48
100
AcDbEntity
  8
2
 62
     0
370
    -2
100
AcDbLine
 10
8.398731966360784
 20
6.749500259781199
 30
0.0
 11
8.398731966360784
 21
13.07233319611373
 31
0.0
  0
LINE
  5
BD7
330
B48
100
AcDbEntity
  8
2
 62
     0
370
    -2
100
AcDbLine
 10
5.898731966360784
 20
11.82233319611373
 30
0.0
 11
3.398731966360783
 21
11.82233319611373
 31
0.0
  0
LINE
  5
BD8
330
B48
100
AcDbEntity
  8
2
 62
     0
370
    -2
100
AcDbLine
 10
11.97000004951731
 20
11.82233319611373
 30
0.0
 11
27.17866923633743
 21
11.82233319611373
 31
0.0
  0
SOLID
  5
BD9
330
B48
100
AcDbEntity
  8
2
 62
     0
100
AcDbTrace
 10
5.898731966360784
 20
12.2389998627804
 30
0.0
 11
5.898731966360784
 21
11.40566652944706
 31
0.0
 12
8.398731966360784
 22
11.82233319611373
 32
0.0
 13
8.398731966360784
 23
11.82233319611373
 33
0.0
  0
SOLID
  5
BDA
330
B48
100
AcDbEntity
  8
2
 62
     0
100
AcDbTrace
 10
11.97000004951731
 20
12.2389998627804
 30
0.0
 11
11.97000004951731
 21
11.40566652944706
 31
0.0
 12
9.47000004951731
 22
11.82233319611373
 32
0.0
 13
9.47000004951731
 23
11.82233319611373
 33
0.0
  0
MTEXT
  5
BDB
330
B48
100
AcDbEntity
  8
2
 62
     0
100
AcDbMText
 10
20.94210915200854
 20
14.25882300637374
 30
0.0
 40
3.5
 41
0.0
 71
     5
 72
     1
  1
1.07
 73
     1
 44
1.0
1001
ACAD
1000
MTEXTBEGIN
1070
    73
1070
     1
1070
    44
1040
1.0
1070
    74
1070
     0
1000
MTEXTEND
  0
POINT
  5
BDC
330
B48
100
AcDbEntity
  8
DEFPOINTS
 62
     0
100
AcDbPoint
 10
9.47000004951731
 20
6.249439455072147
 30
0.0
  0
POINT
  5
BDD
330
B48
100
AcDbEntity
  8
DEFPOINTS
 62
     0
100
AcDbPoint
 10
8.398731966360784
 20
6.749500259781199
 30
0.0
  0
POINT
  5
BDE
330
B48
100
AcDbEntity
  8
DEFPOINTS
 62
     0
100
AcDbPoint
 10
8.398731966360784
 20
11.82233319611373
 30
0.0
  0
ENDBLK
  5
B4A
330
B48
100
AcDbEntity
  8
0
100
AcDbBlockEnd
  0
BLOCK
  5
B56
330
B55
100
AcDbEntity
  8
0
100
AcDbBlockBegin
  2
*D5
 70
     1
 10
0.0
 20
0.0
 30
0.0
  3
*D5
  1

  0
LINE
  5
BDF
330
B55
100
AcDbEntity
  8
SK2
 62
     0
370
    -2
100
AcDbLine
 10
9.47000004951731
 20
6.236076352276656
 30
0.0
 11
-7.311096471558226
 21
14.0612301722927
 31
0.0
  0
LINE
  5
BE0
330
B55
100
AcDbEntity
  8
SK2
 62
     0
370
    -2
100
AcDbLine
 10
9.467997276813989
 20
6.03388388242786
 30
0.0
 11
-9.090716299207935
 21
6.033883882427886
 31
0.0
  0
ARC
  5
BE1
330
B55
100
AcDbEntity
  8
SK2
 62
     0
370
    -2
100
AcDbCircle
 10
9.903603200382963
 20
6.033883882427857
 30
0.0
 40
17.74431949959089
100
AcDbArc
 50
163.0791030229703
 51
171.9208969770287
  0
SOLID
  5
BE2
330
B55
100
AcDbEntity
  8
SK2
 62
     0
100
AcDbTrace
 10
-7.461615090180842
 20
11.34743979860471
 30
0.0
 11
-6.68342543442457
 21
11.04933695709128
 31
0.0
 12
-6.178211737762422
 22
13.5329573451168
 32
0.0
 13
-6.178211737762422
 23
13.5329573451168
 33
0.0
  0
SOLID
  5
BE3
330
B55
100
AcDbEntity
  8
SK2
 62
     0
100
AcDbTrace
 10
-7.248972075399257
 20
8.498320914429346
 30
0.0
 11
-8.080235124902905
 21
8.557025147448298
 31
0.0
 12
-7.840716299207932
 22
6.033883882427883
 32
0.0
 13
-7.840716299207932
 23
6.033883882427883
 33
0.0
  0
MTEXT
  5
BE4
102
{ACAD_XDICTIONARY
360
CDA
102
}
330
B55
100
AcDbEntity
  8
SK2
 62
     0
100
AcDbMText
 10
-8.580731220325329
 20
14.13292366650003
 30
0.0
 40
3.5
 41
0.0
 71
     5
 72
     1
  1
25\U+00B0
 11
0.4013238349226543
 21
0.9159362311443816
 31
0.0
 73
     1
 44
1.0
1001
ACAD
1000
MTEXTBEGIN
1070
    73
1070
     1
1070
    44
1040
1.0
1070
    74
1070
     0
1000
MTEXTEND
  0
POINT
  5
BE5
330
B55
100
AcDbEntity
  8
DEFPOINTS
 62
     0
100
AcDbPoint
 10
-7.653365360796042
 20
8.605601099645506
 30
0.0
  0
POINT
  5
BE6
330
B55
100
AcDbEntity
  8
DEFPOINTS
 62
     0
100
AcDbPoint
 10
9.903603200382963
 20
6.033883882427857
 30
0.0
  0
POINT
  5
BE7
330
B55
100
AcDbEntity
  8
DEFPOINTS
 62
     0
100
AcDbPoint
 10
9.47000004951731
 20
6.236076352276656
 30
0.0
  0
POINT
  5
BE8
330
B55
100
AcDbEntity
  8
DEFPOINTS
 62
     0
100
AcDbPoint
 10
9.903603200382963
 20
6.033883882427857
 30
0.0
  0
POINT
  5
BE9
330
B55
100
AcDbEntity
  8
DEFPOINTS
 62
     0
100
AcDbPoint
 10
9.467997276813989
 20
6.03388388242786
 30
0.0
  0
ENDBLK
  5
B57
330
B55
100
AcDbEntity
  8
0
100
AcDbBlockEnd
  0
BLOCK
  5
B64
330
B63
100
AcDbEntity
  8
0
100
AcDbBlockBegin
  2
*D6
 70
     1
 10
0.0
 20
0.0
 30
0.0
  3
*D6
  1

  0
LINE
  5
BEA
330
B63
100
AcDbEntity
  8
2
 62
     0
370
    -2
100
AcDbLine
 10
4.487499929883383
 20
0.0000002595940032
 30
0.0
 11
20.62581084322981
 21
0.0000002595940014
 31
0.0
  0
LINE
  5
BEB
330
B63
100
AcDbEntity
  8
2
 62
     0
370
    -2
100
AcDbLine
 10
4.487499929883383
 20
0.5763692285304956
 30
0.0
 11
19.55705120980629
 21
6.061237338170347
 31
0.0
  0
ARC
  5
BEC
330
B63
100
AcDbEntity
  8
2
 62
     0
370
    -2
100
AcDbCircle
 10
2.903939202455958
 20
0.0000002595940031
 30
0.0
 40
16.47187164077385
100
AcDbArc
 50
8.704371386195875
 51
11.29562861380331
  0
SOLID
  5
BED
330
B63
100
AcDbEntity
  8
2
 62
     0
100
AcDbTrace
 10
19.60155866183803
 20
2.524410890514562
 30
0.0
 11
18.77062830485794
 21
2.461171770553951
 31
0.0
 12
19.37581084322981
 22
0.0000002595940014
 32
0.0
 13
19.37581084322981
 23
0.0000002595940014
 33
0.0
  0
SOLID
  5
BEE
330
B63
100
AcDbEntity
  8
2
 62
     0
100
AcDbTrace
 10
18.65552010121491
 20
3.113982833163564
 30
0.0
 11
19.45796827892881
 21
3.338752418579549
 31
0.0
 12
18.3824354338239
 22
5.633712159013277
 32
0.0
 13
18.3824354338239
 23
5.633712159013277
 33
0.0
  0
MTEXT
  5
BEF
102
{ACAD_XDICTIONARY
360
CDC
102
}
330
B63
100
AcDbEntity
  8
2
 62
     0
100
AcDbMText
 10
21.36846277670156
 20
4.072775964082521
 30
0.0
 40
3.5
 41
0.0
 71
     5
 72
     1
  1
20\U+00B0
 11
0.2153954860147774
 21
-0.9765268990685601
 31
0.0
 73
     1
 44
1.0
1001
ACAD
1000
MTEXTBEGIN
1070
    73
1070
     1
1070
    44
1040
1.0
1070
    74
1070
     0
1000
MTEXTEND
  0
POINT
  5
BF0
330
B63
100
AcDbEntity
  8
DEFPOINTS
 62
     0
100
AcDbPoint
 10
19.26443393987427
 20
1.912267839468099
 30
0.0
  0
POINT
  5
BF1
330
B63
100
AcDbEntity
  8
DEFPOINTS
 62
     0
100
AcDbPoint
 10
2.903939202455958
 20
0.0000002595940031
 30
0.0
  0
POINT
  5
BF2
330
B63
100
AcDbEntity
  8
DEFPOINTS
 62
     0
100
AcDbPoint
 10
2.903939202455958
 20
0.0000002595940031
 30
0.0
  0
POINT
  5
BF3
330
B63
100
AcDbEntity
  8
DEFPOINTS
 62
     0
100
AcDbPoint
 10
4.487499929883383
 20
0.5763692285304956
 30
0.0
  0
POINT
  5
BF4
330
B63
100
AcDbEntity
  8
DEFPOINTS
 62
     0
100
AcDbPoint
 10
4.487499929883383
 20
0.0000002595940032
 30
0.0
  0
ENDBLK
  5
B65
330
B63
100
AcDbEntity
  8
0
100
AcDbBlockEnd
  0
BLOCK
  5
B72
330
B71
100
AcDbEntity
  8
0
100
AcDbBlockBegin
  2
*D7
 70
     1
 10
0.0
 20
0.0
 30
0.0
  3
*D7
  1

  0
LINE
  5
CE9
330
B71
100
AcDbEntity
  8
2
 62
     0
370
    -2
100
AcDbLine
 10
9.470000049517295
 20
6.249439455072153
 30
0.0
 11
9.470000049517301
 21
22.46409280392038
 31
0.0
  0
LINE
  5
CEA
330
B71
100
AcDbEntity
  8
2
 62
     0
370
    -2
100
AcDbLine
 10
0.2699731356651434
 20
6.567107708898053
 30
0.0
 11
0.2699731356651443
 21
22.46409280392038
 31
0.0
  0
LINE
  5
CEB
330
B71
100
AcDbEntity
  8
2
 62
     0
370
    -2
100
AcDbLine
 10
2.769973135665144
 20
21.21409280392038
 30
0.0
 11
6.970000049517299
 21
21.21409280392038
 31
0.0
  0
LINE
  5
CEC
330
B71
100
AcDbEntity
  8
2
 62
     0
370
    -2
100
AcDbLine
 10
9.470000049517301
 20
21.21409280392038
 30
0.0
 11
24.76532682393755
 21
21.21409280392038
 31
0.0
  0
SOLID
  5
CED
330
B71
100
AcDbEntity
  8
2
 62
     0
100
AcDbTrace
 10
2.769973135665144
 20
21.63075947058705
 30
0.0
 11
2.769973135665144
 21
20.79742613725371
 31
0.0
 12
0.2699731356651442
 22
21.21409280392038
 32
0.0
 13
0.2699731356651442
 23
21.21409280392038
 33
0.0
  0
SOLID
  5
CEE
330
B71
100
AcDbEntity
  8
2
 62
     0
100
AcDbTrace
 10
6.970000049517299
 20
21.63075947058705
 30
0.0
 11
6.970000049517299
 21
20.79742613725371
 31
0.0
 12
9.470000049517301
 22
21.21409280392038
 32
0.0
 13
9.470000049517301
 23
21.21409280392038
 33
0.0
  0
MTEXT
  5
CEF
330
B71
100
AcDbEntity
  8
2
 62
     0
100
AcDbMText
 10
18.36766343672742
 20
23.65058261418039
 30
0.0
 40
3.5
 41
0.0
 71
     5
 72
     1
  1
9.20
 73
     1
 44
1.0
1001
ACAD
1000
MTEXTBEGIN
1070
    73
1070
     1
1070
    44
1040
1.0
1070
    74
1070
     0
1000
MTEXTEND
  0
POINT
  5
CF0
330
B71
100
AcDbEntity
  8
DEFPOINTS
 62
     0
100
AcDbPoint
 10
9.470000049517295
 20
6.249439455072153
 30
0.0
  0
POINT
  5
CF1
330
B71
100
AcDbEntity
  8
DEFPOINTS
 62
     0
100
AcDbPoint
 10
0.2699731356651434
 20
6.567107708898053
 30
0.0
  0
POINT
  5
CF2
330
B71
100
AcDbEntity
  8
DEFPOINTS
 62
     0
100
AcDbPoint
 10
0.2699731356651442
 20
21.21409280392038
 30
0.0
  0
ENDBLK
  5
B73
330
B71
100
AcDbEntity
  8
0
100
AcDbBlockEnd
  0
BLOCK
  5
B86
330
B85
100
AcDbEntity
  8
0
100
AcDbBlockBegin
  2
*D8
 70
     1
 10
0.0
 20
0.0
 30
0.0
  3
*D8
  1

  0
LINE
  5
BCC
330
B85
100
AcDbEntity
  8
SK2
 62
     0
370
    -2
100
AcDbLine
 10
-2.499999950482687
 20
3.755595259593973
 30
0.0
 11
-10.92407241719477
 21
3.755595259593976
 31
0.0
  0
LINE
  5
BCD
330
B85
100
AcDbEntity
  8
SK2
 62
     0
370
    -2
100
AcDbLine
 10
-2.499999950482687
 20
-3.755594740405966
 30
0.0
 11
-10.92407241719477
 21
-3.755594740405963
 31
0.0
  0
LINE
  5
BCE
330
B85
100
AcDbEntity
  8
SK2
 62
     0
370
    -2
100
AcDbLine
 10
-9.674072417194773
 20
1.255595259593974
 30
0.0
 11
-9.674072417194773
 21
-1.255594740405965
 31
0.0
  0
SOLID
  5
BCF
330
B85
100
AcDbEntity
  8
SK2
 62
     0
100
AcDbTrace
 10
-10.09073908386143
 20
1.255595259593974
 30
0.0
 11
-9.257405750528103
 21
1.255595259593974
 31
0.0
 12
-9.674072417194773
 22
3.755595259593976
 32
0.0
 13
-9.674072417194773
 23
3.755595259593976
 33
0.0
  0
SOLID
  5
BD0
330
B85
100
AcDbEntity
  8
SK2
 62
     0
100
AcDbTrace
 10
-10.09073908386143
 20
-1.255594740405965
 30
0.0
 11
-9.257405750528103
 21
-1.255594740405965
 31
0.0
 12
-9.674072417194773
 22
-3.755594740405963
 32
0.0
 13
-9.674072417194773
 23
-3.755594740405963
 33
0.0
  0
MTEXT
  5
BD1
330
B85
100
AcDbEntity
  8
SK2
 62
     0
100
AcDbMText
 10
-12.09949406160798
 20
0.0000002595940041
 30
0.0
 40
3.5
 41
0.0
 71
     5
 72
     1
  1
BN5
 11
0.0000000000000001
 21
1.0
 31
0.0
 73
     1
 44
1.0
1001
ACAD
1000
MTEXTBEGIN
1070
    73
1070
     1
1070
    44
1040
1.0
1070
    74
1070
     0
1000
MTEXTEND
  0
POINT
  5
BD2
330
B85
100
AcDbEntity
  8
DEFPOINTS
 62
     0
100
AcDbPoint
 10
-2.499999950482687
 20
3.755595259593973
 30
0.0
  0
POINT
  5
BD3
330
B85
100
AcDbEntity
  8
DEFPOINTS
 62
     0
100
AcDbPoint
 10
-2.499999950482687
 20
-3.755594740405966
 30
0.0
  0
POINT
  5
BD4
330
B85
100
AcDbEntity
  8
DEFPOINTS
 62
     0
100
AcDbPoint
 10
-9.674072417194773
 20
-3.755594740405963
 30
0.0
  0
ENDBLK
  5
B87
330
B85
100
AcDbEntity
  8
0
100
AcDbBlockEnd
  0
ENDSEC
  0
SECTION
  2
ENTITIES
  0
LINE
  5
9EE
330
18
100
AcDbEntity
  8
4
 48
0.084
100
AcDbLine
 10
10.98871560931776
 20
0.0000002595940032
 30
0.0
 11
0.0000000000036522
 21
0.0
 31
0.0
  0
LINE
  5
9EF
330
18
100
AcDbEntity
  8
SK1
 48
0.131407
100
AcDbLine
 10
-2.499999950482687
 20
3.755595259593973
 30
0.0
 11
-2.499999950482687
 21
-1.500671740406004
 31
0.0
  0
LINE
  5
9F0
330
18
100
AcDbEntity
  8
SK1
 48
0.056373
100
AcDbLine
 10
-2.499999950482687
 20
-1.500671740406004
 30
0.0
 11
-2.499999950482687
 21
-3.755594740405966
 31
0.0
  0
LINE
  5
9F1
330
18
100
AcDbEntity
  8
1
 48
0.004128
100
AcDbLine
 10
9.47000004951731
 20
-3.667850740405981
 30
0.0
 11
9.47000004951731
 21
-3.502717740406012
 31
0.0
  0
LINE
  5
9F2
330
18
100
AcDbEntity
  8
1
 48
0.003415
100
AcDbLine
 10
9.459129049517317
 20
-3.517716740406001
 30
0.0
 11
9.460937049517312
 21
-3.654322740405973
 31
0.0
  0
LINE
  5
9F3
330
18
100
AcDbEntity
  8
1
 48
0.016486
100
AcDbLine
 10
8.500000049517312
 20
0.5686212595940106
 30
0.0
 11
8.500000049517312
 21
1.228056259593984
 31
0.0
  0
ARC
  5
9F4
330
18
100
AcDbEntity
  8
1
100
AcDbCircle
 10
8.296344049517315
 20
0.5652602595940266
 30
0.0
 40
0.203295
100
AcDbArc
 50
273.5004980000005
 51
0.9452850000000147
  0
LINE
  5
9F5
330
18
100
AcDbEntity
  8
1
 48
0.008292
100
AcDbLine
 10
8.308724049517309
 20
0.3628842595940114
 30
0.0
 11
7.977350049517312
 21
0.3484512595940146
 31
0.0
  0
ARC
  5
9F6
330
18
100
AcDbEntity
  8
1
100
AcDbCircle
 10
7.991572049517301
 20
0.059369259594007
 30
0.0
 40
0.289524
100
AcDbArc
 50
92.81641100000028
 51
151.0099100000016
  0
ARC
  5
9F7
330
18
100
AcDbEntity
  8
1
100
AcDbCircle
 10
7.982440049517307
 20
0.877680259594001
 30
0.0
 40
0.283075
100
AcDbArc
 50
91.02665999999963
 51
179.0606280000002
  0
LINE
  5
9F8
330
18
100
AcDbEntity
  8
1
 48
0.008292
100
AcDbLine
 10
8.308724049517309
 20
1.175900259594016
 30
0.0
 11
7.977350049517312
 21
1.161665259594029
 31
0.0
  0
ARC
  5
9F9
330
18
100
AcDbEntity
  8
1
100
AcDbCircle
 10
8.300286049517309
 20
1.382026259593999
 30
0.0
 40
0.206291
100
AcDbArc
 50
272.3441929999996
 51
305.9880589999988
  0
LINE
  5
9FA
330
18
100
AcDbEntity
  8
1
 48
0.000226
100
AcDbLine
 10
8.500000049517312
 20
0.5686212595940106
 30
0.0
 11
8.500000049517312
 21
0.5595882595940225
 31
0.0
  0
LINE
  5
9FB
330
18
100
AcDbEntity
  8
1
 48
0.000031
100
AcDbLine
 10
8.308724049517309
 20
0.3628842595940114
 30
0.0
 11
8.308724049517309
 21
0.3616272595940018
 31
0.0
  0
ELLIPSE
  5
9FC
330
18
100
AcDbEntity
  8
1
100
AcDbEllipse
 10
8.300000049517306
 20
0.5595882595940225
 30
0.0
 11
0.2000000029802322
 21
0.0
 31
0.0
210
0.0
220
0.0
230
1.0
 40
0.9907479999999999
 41
4.756022211684544
 42
6.28318530717958
  0
ARC
  5
9FD
330
18
100
AcDbEntity
  8
1
100
AcDbCircle
 10
15.34398204951731
 20
-1.028131740406023
 30
0.0
 40
6.728858999999999
100
AcDbArc
 50
168.3792339999987
 51
170.9461000000008
  0
LINE
  5
9FE
330
18
100
AcDbEntity
  8
1
 48
0.003611
100
AcDbLine
 10
8.753088049517302
 20
0.3272742595939917
 30
0.0
 11
8.608690049517306
 21
0.3243782595940274
 31
0.0
  0
SPLINE
  5
9FF
330
18
100
AcDbEntity
  8
1
100
AcDbSpline
210
0.0
220
0.0
230
1.0
 70
     8
 71
     4
 72
    10
 73
     5
 74
     0
 42
0.000000001
 43
0.0000000001
 40
0.3650214779053007
 40
0.3650214779053007
 40
0.3650214779053007
 40
0.3650214779053007
 40
0.3650214779053007
 40
0.9401359327295304
 40
0.9401359327295304
 40
0.9401359327295304
 40
0.9401359327295304
 40
0.9401359327295304
 10
8.608689638497267
 20
0.3243779511886942
 30
0.0
 10
8.479523815233804
 20
0.3217873226255392
 30
0.0
 10
8.361399997292393
 20
0.3288972540783561
 30
0.0
 10
8.30872357771851
 20
0.3443648866029321
 30
0.0
 10
8.308723935081941
 20
0.3616277285077558
 30
0.0
  0
LINE
  5
A00
330
18
100
AcDbEntity
  8
1
 48
0.007082
100
AcDbLine
 10
7.977350049517312
 20
0.3484512595940146
 30
0.0
 11
7.977350049517312
 21
0.0651652595939822
 31
0.0
  0
LINE
  5
A01
330
18
100
AcDbEntity
  8
1
 48
0.017792
100
AcDbLine
 10
7.977350049517312
 20
-5.242506740405985
 30
0.0
 11
8.6890240495173
 21
-5.245320740405986
 31
0.0
  0
LINE
  5
A02
330
18
100
AcDbEntity
  8
1
 48
0.035603
100
AcDbLine
 10
8.6890240495173
 20
-5.245320740405986
 30
0.0
 11
8.730908049517307
 21
-3.821816740406006
 31
0.0
  0
LINE
  5
A03
330
18
100
AcDbEntity
  8
1
 48
0.030208
100
AcDbLine
 10
7.977350049517312
 20
-4.034206740405974
 30
0.0
 11
7.977350049517312
 21
-5.242506740405985
 31
0.0
  0
ARC
  5
A04
330
18
100
AcDbEntity
  8
1
100
AcDbCircle
 10
7.98971104951731
 20
-4.952504740405967
 30
0.0
 40
0.290095
100
AcDbArc
 50
181.0320410000008
 51
234.3380350000021
  0
LINE
  5
A05
330
18
100
AcDbEntity
  8
1
 48
0.000194
100
AcDbLine
 10
7.826547049517317
 20
-5.192866740405972
 30
0.0
 11
7.820267049517312
 21
-5.188280740406011
 31
0.0
  0
ARC
  5
A06
330
18
100
AcDbEntity
  8
1
100
AcDbCircle
 10
7.978012049517317
 20
-4.987041740405969
 30
0.0
 40
0.255498
100
AcDbArc
 50
233.6509989999988
 51
269.8516020000002
  0
LINE
  5
A07
330
18
100
AcDbEntity
  8
1
 48
0.004256
100
AcDbLine
 10
7.700000049517312
 20
-4.557207740405996
 30
0.0
 11
7.700000049517312
 21
-4.727438740405998
 31
0.0
  0
LINE
  5
A08
330
18
100
AcDbEntity
  8
1
 48
0.000537
100
AcDbLine
 10
7.700000049517312
 20
-4.727310740405981
 30
0.0
 11
7.700000049517312
 21
-4.748785740405992
 31
0.0
  0
LINE
  5
A09
330
18
100
AcDbEntity
  8
1
 48
0.005227
100
AcDbLine
 10
7.700000049517312
 20
-4.748663740406017
 30
0.0
 11
7.700000049517312
 21
-4.957723740405981
 31
0.0
  0
LINE
  5
A0A
330
18
100
AcDbEntity
  8
1
 48
0.007585
100
AcDbLine
 10
7.700000049517312
 20
-4.25380674040599
 30
0.0
 11
7.700000049517312
 21
-4.557207740405996
 31
0.0
  0
SPLINE
  5
A0B
330
18
100
AcDbEntity
  8
1
100
AcDbSpline
210
0.0
220
0.0
230
1.0
 70
     8
 71
     5
 72
    18
 73
    12
 74
     0
 42
0.000000001
 43
0.0000000001
 40
0.0
 40
0.0
 40
0.0
 40
0.0
 40
0.0
 40
0.0
 40
0.2796636230367461
 40
0.2796636230367461
 40
0.2796636230367461
 40
0.5826484458876493
 40
0.5826484458876493
 40
0.5826484458876493
 40
0.7444059768170744
 40
0.7444059768170744
 40
0.7444059768170744
 40
0.7444059768170744
 40
0.7444059768170744
 40
0.7444059768170744
 10
7.700000049517312
 20
-4.253806447651128
 30
0.0
 10
7.700000049517128
 20
-4.234114374833666
 30
0.0
 10
7.705660061688206
 20
-4.213799708294914
 30
0.0
 10
7.717280889984079
 20
-4.192910772039226
 30
0.0
 10
7.750191426776822
 20
-4.152196665146846
 30
0.0
 10
7.798681065989128
 20
-4.115458179073582
 30
0.0
 10
7.827434776554426
 20
-4.097483207002366
 30
0.0
 10
7.874127493051105
 20
-4.072749176342198
 30
0.0
 10
7.923922750646866
 20
-4.052250393000289
 30
0.0
 10
7.941684594025317
 20
-4.045601198163296
 30
0.0
 10
7.959477561366937
 20
-4.039589467934376
 30
0.0
 10
7.977350427183168
 20
-4.034207792137237
 30
0.0
  0
ARC
  5
A0C
330
18
100
AcDbEntity
  8
1
100
AcDbCircle
 10
14.3442980495173
 20
-25.19439274040599
 30
0.0
 40
22.097326
100
AcDbArc
 50
103.6822789999997
 51
106.7461630000013
  0
LINE
  5
A0D
330
18
100
AcDbEntity
  8
1
 48
0.017812
100
AcDbLine
 10
7.977350049517312
 20
0.0651572595940024
 30
0.0
 11
8.6890240495173
 21
0.0315842595940126
 31
0.0
  0
ARC
  5
A0E
330
18
100
AcDbEntity
  8
1
100
AcDbCircle
 10
7.961911049517311
 20
0.3366352595940043
 30
0.0
 40
0.2621630000000001
100
AcDbArc
 50
180.6232870000008
 51
237.3834300000002
  0
LINE
  5
A0F
330
18
100
AcDbEntity
  8
1
 48
0.000187
100
AcDbLine
 10
7.826547049517317
 20
0.1116242595940093
 30
0.0
 11
7.820267049517312
 21
0.115668259594031
 31
0.0
  0
ARC
  5
A10
330
18
100
AcDbEntity
  8
1
100
AcDbCircle
 10
7.991342049517312
 20
0.3790672595940236
 30
0.0
 40
0.314184
100
AcDbArc
 50
238.3591980000018
 51
267.4479530000006
  0
LINE
  5
A11
330
18
100
AcDbEntity
  8
1
 48
0.005113
100
AcDbLine
 10
7.700000049517312
 20
0.782738259593998
 30
0.0
 11
7.700000049517312
 21
0.5782062595940261
 31
0.0
  0
LINE
  5
A12
330
18
100
AcDbEntity
  8
1
 48
0.000647
100
AcDbLine
 10
7.700000049517312
 20
0.5783802595939847
 30
0.0
 11
7.700000049517312
 21
0.552484259593996
 31
0.0
  0
LINE
  5
A13
330
18
100
AcDbEntity
  8
1
 48
0.005471
100
AcDbLine
 10
7.700000049517312
 20
0.5526242595939836
 30
0.0
 11
7.700000049517312
 21
0.3337862595939782
 31
0.0
  0
LINE
  5
A14
330
18
100
AcDbEntity
  8
1
 48
0.011641
100
AcDbLine
 10
7.700000049517312
 20
1.248370259594024
 30
0.0
 11
7.700000049517312
 21
0.782738259593998
 31
0.0
  0
ARC
  5
A15
330
18
100
AcDbEntity
  8
1
100
AcDbCircle
 10
7.976162049517312
 20
1.252635259594001
 30
0.0
 40
0.27572
100
AcDbArc
 50
89.75281600000014
 51
180.8849580000016
  0
LINE
  5
A16
330
18
100
AcDbEntity
  8
1
 48
0.009163
100
AcDbLine
 10
7.977350049517312
 20
1.161665259594029
 30
0.0
 11
7.977350049517312
 21
1.528195259593985
 31
0.0
  0
LINE
  5
A17
330
18
100
AcDbEntity
  8
1
 48
0.000031
100
AcDbLine
 10
8.308724049517309
 20
1.175900259594016
 30
0.0
 11
8.308724049517309
 21
1.177157259594024
 31
0.0
  0
SPLINE
  5
A18
330
18
100
AcDbEntity
  8
1
100
AcDbSpline
210
0.0
220
0.0
230
1.0
 70
     8
 71
     4
 72
    10
 73
     5
 74
     0
 42
0.000000001
 43
0.0000000001
 40
1.023579058737136
 40
1.023579058737136
 40
1.023579058737136
 40
1.023579058737136
 40
1.023579058737136
 40
1.598693513561198
 40
1.598693513561198
 40
1.598693513561198
 40
1.598693513561198
 40
1.598693513561198
 10
8.608689638497267
 20
1.240358672363014
 30
0.0
 10
8.479523815233848
 20
1.231774652793262
 30
0.0
 10
8.361399997293304
 20
1.214445360922184
 30
0.0
 10
8.308723577718339
 20
1.194420482226405
 30
0.0
 10
8.308723935081941
 20
1.177157671237863
 30
0.0
  0
LINE
  5
A19
330
18
100
AcDbEntity
  8
1
 48
0.00844
100
AcDbLine
 10
8.945548049517311
 20
1.262745259593998
 30
0.0
 11
8.608690049517306
 21
1.240358259594017
 31
0.0
  0
ARC
  5
A1A
330
18
100
AcDbEntity
  8
1
100
AcDbCircle
 10
8.754737049517316
 20
4.206626259594028
 30
0.0
 40
2.950041
100
AcDbArc
 50
273.7085080000006
 51
276.8917939999993
  0
LINE
  5
A1B
330
18
100
AcDbEntity
  8
1
 48
0.00022
100
AcDbLine
 10
9.117448049517305
 20
1.278991259594022
 30
0.0
 11
9.108724049517306
 21
1.277917259594004
 31
0.0
  0
LINE
  5
A1C
330
18
100
AcDbEntity
  8
1
 48
0.006263
100
AcDbLine
 10
9.117448049517305
 20
1.278991259594022
 30
0.0
 11
9.117448049517305
 21
1.529495259593999
 31
0.0
  0
ARC
  5
A1D
330
18
100
AcDbEntity
  8
1
100
AcDbCircle
 10
8.414930049517307
 20
117.099528259594
 30
0.0
 40
115.572166
100
AcDbArc
 50
269.7830659999996
 51
270.3482799999997
  0
ELLIPSE
  5
A1E
330
18
100
AcDbEntity
  8
1
100
AcDbEllipse
 10
8.300000049517306
 20
1.375118259593989
 30
0.0
 11
0.2000000029802322
 21
0.0
 31
0.0
210
0.0
220
0.0
230
1.0
 40
0.9907479999999999
 41
4.756022252180893
 42
5.33326728266249
  0
LINE
  5
A1F
330
18
100
AcDbEntity
  8
1
 48
0.001497
100
AcDbLine
 10
7.700000049517312
 20
5.502176259594023
 30
0.0
 11
7.700000049517312
 21
5.442288259594022
 31
0.0
  0
SPLINE
  5
A20
330
18
100
AcDbEntity
  8
1
100
AcDbSpline
210
0.0
220
0.0
230
1.0
 70
     8
 71
     5
 72
    18
 73
    12
 74
     0
 42
0.000000001
 43
0.0000000001
 40
0.0
 40
0.0
 40
0.0
 40
0.0
 40
0.0
 40
0.0
 40
0.2709580432290951
 40
0.2709580432290951
 40
0.2709580432290951
 40
0.6374421286130323
 40
0.6374421286130323
 40
0.6374421286130323
 40
0.7192963248751314
 40
0.7192963248751314
 40
0.7192963248751314
 40
0.7192963248751314
 40
0.7192963248751314
 40
0.7192963248751314
 10
7.700000049531865
 20
5.502176652623914
 30
0.0
 10
7.700000049531696
 20
5.518594348625526
 30
0.0
 10
7.705508342120137
 20
5.534198032996072
 30
0.0
 10
7.717165029040427
 20
5.548676309855125
 30
0.0
 10
7.754805003822838
 20
5.575401053218968
 30
0.0
 10
7.813092304311211
 20
5.586772853268996
 30
0.0
 10
7.851797196979916
 20
5.587478799450933
 30
0.0
 10
7.900532837965897
 20
5.582015232090441
 30
0.0
 10
7.950180452511617
 20
5.570109748373681
 30
0.0
 10
7.959255750711761
 20
5.567730566195393
 30
0.0
 10
7.968309448347056
 20
5.565160567186183
 30
0.0
 10
7.97735042719772
 20
5.562403309552053
 30
0.0
  0
LINE
  5
A21
330
18
100
AcDbEntity
  8
1
 48
0.003702
100
AcDbLine
 10
7.977350049517312
 20
5.414337259593992
 30
0.0
 11
7.977350049517312
 21
5.562403259594018
 31
0.0
  0
LINE
  5
A22
330
18
100
AcDbEntity
  8
1
 48
0.003567
100
AcDbLine
 10
9.117448049517305
 20
5.110955259593993
 30
0.0
 11
9.117448049517305
 21
5.25363025959399
 31
0.0
  0
ARC
  5
A23
330
18
100
AcDbEntity
  8
1
100
AcDbCircle
 10
13.46574804951731
 20
23.56963125959402
 30
0.0
 40
18.825063
100
AcDbArc
 50
253.0493779999992
 51
255.7323439999994
  0
LINE
  5
A24
330
18
100
AcDbEntity
  8
1
 48
0.002124
100
AcDbLine
 10
9.034822049517302
 20
5.273443259593988
 30
0.0
 11
9.117448049517305
 21
5.25363025959399
 31
0.0
  0
LINE
  5
A25
330
18
100
AcDbEntity
  8
1
 48
0.002793
100
AcDbLine
 10
9.47000004951731
 20
3.064498259594017
 30
0.0
 11
9.47000004951731
 21
2.952778259594026
 31
0.0
  0
LINE
  5
A26
330
18
100
AcDbEntity
  8
1
 48
0.001803
100
AcDbLine
 10
9.47000004951731
 20
2.921343259593982
 30
0.0
 11
9.47000004951731
 21
2.849213259594023
 31
0.0
  0
SPLINE
  5
A27
330
18
100
AcDbEntity
  8
1
100
AcDbSpline
210
0.0
220
0.0
230
1.0
 70
     8
 71
     5
 72
    15
 73
     9
 74
     0
 42
0.000000001
 43
0.0000000001
 40
0.0
 40
0.0
 40
0.0
 40
0.0
 40
0.0
 40
0.0
 40
0.4849057045833658
 40
0.4849057045833658
 40
0.4849057045833658
 40
0.6002210107830292
 40
0.6002210107830292
 40
0.6002210107830292
 40
0.6002210107830292
 40
0.6002210107830292
 40
0.6002210107830292
 10
8.634695396557603
 20
0.4930841082287998
 30
0.0
 10
8.598414608449132
 20
0.4926017175015434
 30
0.0
 10
8.563704517062447
 20
0.4970153821542456
 30
0.0
 10
8.534709728295837
 20
0.5065618716562881
 30
0.0
 10
8.510537802982652
 20
0.5241772336155464
 30
0.0
 10
8.501690200531257
 20
0.5461647476390681
 30
0.0
 10
8.500559425561801
 20
0.5505407242825982
 30
0.0
 10
8.500000049517312
 20
0.5550183690646123
 30
0.0
 10
8.500000049517312
 20
0.559588702046881
 30
0.0
  0
LINE
  5
A28
330
18
100
AcDbEntity
  8
1
 48
0.018691
100
AcDbLine
 10
8.634695049517302
 20
0.4930842595940135
 30
0.0
 11
8.634695049517302
 21
1.240709259593984
 31
0.0
  0
ELLIPSE
  5
A29
330
18
100
AcDbEntity
  8
1
100
AcDbEllipse
 10
8.599965049517306
 20
0.5223392595939913
 30
0.0
 11
0.0040105152875185
 21
-0.1999597847461701
 31
0.0
210
0.0
220
0.0
230
1.0
 40
0.172626
 41
0.1380913888355423
 42
1.420504410423294
  0
ELLIPSE
  5
A2A
330
18
100
AcDbEntity
  8
1
100
AcDbEllipse
 10
8.744364049517315
 20
0.5252352595940124
 30
0.0
 11
0.0040105595253408
 21
-0.19995978474617
 31
0.0
210
0.0
220
0.0
230
1.0
 40
0.172624
 41
0.1380913507089123
 42
1.420753350681656
  0
LINE
  5
A2B
330
18
100
AcDbEntity
  8
1
 48
0.003611
100
AcDbLine
 10
8.779094049517311
 20
0.4960292595940248
 30
0.0
 11
8.634695049517302
 21
0.4930842595940135
 31
0.0
  0
ARC
  5
A2C
330
18
100
AcDbEntity
  8
1
100
AcDbCircle
 10
8.691582049517307
 20
0.3583592595940104
 30
0.0
 40
0.385217
100
AcDbArc
 50
291.7340019999995
 51
326.4822909999984
  0
ARC
  5
A2D
330
18
100
AcDbEntity
  8
1
100
AcDbCircle
 10
8.631648049517307
 20
0.3651782595940176
 30
0.0
 40
0.4396430000000002
100
AcDbArc
 50
330.0564730000005
 51
339.7556329999992
  0
LINE
  5
A2E
330
18
100
AcDbEntity
  8
1
 48
0.007832
100
AcDbLine
 10
9.044132049517317
 20
0.213048259594018
 30
0.0
 11
9.081837049517318
 21
0.5240522595939865
 31
0.0
  0
ARC
  5
A2F
330
18
100
AcDbEntity
  8
1
100
AcDbCircle
 10
8.741008049517303
 20
0.7202272595940258
 30
0.0
 40
0.393186
100
AcDbArc
 50
271.7607439999996
 51
330.0760480000016
  0
LINE
  5
A30
330
18
100
AcDbEntity
  8
1
 48
0.001461
100
AcDbLine
 10
9.403687049517301
 20
-3.578560740405976
 30
0.0
 11
9.439179049517306
 21
-3.624963740405973
 31
0.0
  0
LINE
  5
A31
330
18
100
AcDbEntity
  8
1
 48
0.000103
100
AcDbLine
 10
9.439179049517306
 20
-3.624963740405973
 30
0.0
 11
9.441682049517311
 21
-3.628245740405986
 31
0.0
  0
LINE
  5
A32
330
18
100
AcDbEntity
  8
1
 48
0.001205
100
AcDbLine
 10
9.47000004951731
 20
-3.66726974040597
 30
0.0
 11
9.441682049517311
 21
-3.628245740405986
 31
0.0
  0
ARC
  5
A33
330
18
100
AcDbEntity
  8
1
100
AcDbCircle
 10
8.678704049517307
 20
-5.614841740406005
 30
0.0
 40
0.370367
100
AcDbArc
 50
25.92463199999857
 51
88.40018800000004
  0
ARC
  5
A34
330
18
100
AcDbEntity
  8
1
100
AcDbCircle
 10
8.96418004951731
 20
-5.581908740405991
 30
0.0
 40
0.138115
100
AcDbArc
 50
54.61990100000063
 51
69.47909799999962
  0
LINE
  5
A35
330
18
100
AcDbEntity
  8
1
 48
0.043377
100
AcDbLine
 10
9.044132049517317
 20
-5.469321740405971
 30
0.0
 11
9.075014049517305
 21
-3.734508740405998
 31
0.0
  0
SPLINE
  5
A36
330
18
100
AcDbEntity
  8
1
100
AcDbSpline
210
0.0
220
0.0
230
1.0
 70
     8
 71
     5
 72
    15
 73
     9
 74
     0
 42
0.000000001
 43
0.0000000001
 40
0.0
 40
0.0
 40
0.0
 40
0.0
 40
0.0
 40
0.0
 40
0.5408500769104513
 40
0.5408500769104513
 40
0.5408500769104513
 40
0.7877449254420297
 40
0.7877449254420297
 40
0.7877449254420297
 40
0.7877449254420297
 40
0.7877449254420297
 40
0.7877449254420297
 10
9.470000298613911
 20
-3.501734366479069
 30
0.0
 10
9.444471496520053
 20
-3.542047990051513
 30
0.0
 10
9.406823031224702
 20
-3.582404098092411
 30
0.0
 10
9.360254552829232
 20
-3.619386113857613
 30
0.0
 10
9.284088076270052
 20
-3.665756003206467
 30
0.0
 10
9.199605050891943
 20
-3.699909224644443
 30
0.0
 10
9.172637816535301
 20
-3.709294363046693
 30
0.0
 10
9.145140159624533
 20
-3.717393991976337
 30
0.0
 10
9.117447804462202
 20
-3.724134842780586
 30
0.0
  0
ARC
  5
A37
330
18
100
AcDbEntity
  8
1
100
AcDbCircle
 10
8.678499049517311
 20
-0.3745227404060074
 30
0.0
 40
0.405612
100
AcDbArc
 50
34.40237300000022
 51
88.51538100000006
  0
ARC
  5
A38
330
18
100
AcDbEntity
  8
1
100
AcDbCircle
 10
8.631648049517307
 20
-0.3651777404060112
 30
0.0
 40
0.4396430000000002
100
AcDbArc
 50
20.24436700000089
 51
29.94353199999989
  0
LINE
  5
A39
330
18
100
AcDbEntity
  8
1
 48
0.00012
100
AcDbLine
 10
8.608690049517306
 20
1.240358259594017
 30
0.0
 11
8.613228049517301
 21
1.238760259594014
 31
0.0
  0
LINE
  5
A3A
330
18
100
AcDbEntity
  8
1
 48
0.00012
100
AcDbLine
 10
8.945548049517311
 20
1.262745259593998
 30
0.0
 11
8.95008604951731
 21
1.261146259593999
 31
0.0
  0
LINE
  5
A3B
330
18
100
AcDbEntity
  8
1
 48
0.000393
100
AcDbLine
 10
9.108724049517306
 20
1.277917259594004
 30
0.0
 11
9.124444049517306
 21
1.277377259594004
 31
0.0
  0
LINE
  5
A3C
330
18
100
AcDbEntity
  8
1
 48
0.000393
100
AcDbLine
 10
9.117448049517305
 20
1.278991259594022
 30
0.0
 11
9.133154049517317
 21
1.278450259594023
 31
0.0
  0
ARC
  5
A3D
330
18
100
AcDbEntity
  8
1
100
AcDbCircle
 10
9.082035049517317
 20
1.700306259594014
 30
0.0
 40
0.4227660000000001
100
AcDbArc
 50
274.8045809999997
 51
328.6369539999999
  0
ARC
  5
A3E
330
18
100
AcDbEntity
  8
1
100
AcDbCircle
 10
9.057648049517311
 20
1.703693259593987
 30
0.0
 40
0.445371
100
AcDbArc
 50
329.897805
 51
337.7989210000009
  0
LINE
  5
A3F
330
18
100
AcDbEntity
  8
1
 48
0.005682
100
AcDbLine
 10
9.47000004951731
 20
1.762706259593983
 30
0.0
 11
9.47000004951731
 21
1.535408259594021
 31
0.0
  0
ARC
  5
A40
330
18
100
AcDbEntity
  8
1
100
AcDbCircle
 10
9.119199049517304
 20
1.910823259593995
 30
0.0
 40
0.381003
100
AcDbArc
 50
269.7369129999999
 51
337.1093440000007
  0
ARC
  5
A41
330
18
100
AcDbEntity
  8
1
100
AcDbCircle
 10
8.732884049517307
 20
5.096998259593988
 30
0.0
 40
0.349647
100
AcDbArc
 50
27.10016500000187
 51
36.87113499999837
  0
LINE
  5
A42
330
18
100
AcDbEntity
  8
1
 48
0.021178
100
AcDbLine
 10
9.47000004951731
 20
5.264447259594021
 30
0.0
 11
9.47000004951731
 21
4.417324259594009
 31
0.0
  0
SPLINE
  5
A43
330
18
100
AcDbEntity
  8
1
100
AcDbSpline
210
0.0
220
0.0
230
1.0
 70
     8
 71
     5
 72
    15
 73
     9
 74
     0
 42
0.000000001
 43
0.0000000001
 40
0.0
 40
0.0
 40
0.0
 40
0.0
 40
0.0
 40
0.0
 40
0.3601862890140987
 40
0.3601862890140987
 40
0.3601862890140987
 40
0.7589402557875751
 40
0.7589402557875751
 40
0.7589402557875751
 40
0.7589402557875751
 40
0.7589402557875751
 40
0.7589402557875751
 10
9.470000049517324
 20
5.264441076251785
 30
0.0
 10
9.452062708852423
 20
5.249771795340619
 30
0.0
 10
9.427929654035123
 20
5.239076836777768
 30
0.0
 10
9.398620160477918
 20
5.232274430250241
 30
0.0
 10
9.329833224823243
 20
5.224739431357306
 30
0.0
 10
9.249771258566751
 20
5.229655721661572
 30
0.0
 10
9.206904220667908
 20
5.234970732027591
 30
0.0
 10
9.162193517462595
 20
5.243008644158916
 30
0.0
 10
9.117447804476752
 20
5.253630165749711
 30
0.0
  0
LINE
  5
A44
330
18
100
AcDbEntity
  8
1
 48
0.001354
100
AcDbLine
 10
8.943542049517317
 20
0.5895612595940066
 30
0.0
 11
8.971554049517306
 21
0.6358912595940183
 31
0.0
  0
ARC
  5
A45
330
18
100
AcDbEntity
  8
1
100
AcDbCircle
 10
8.776540049517306
 20
0.6922042595940071
 30
0.0
 40
0.196106
100
AcDbArc
 50
270.745877
 51
328.4241869999996
  0
LINE
  5
A46
330
18
100
AcDbEntity
  8
1
 48
0.015669
100
AcDbLine
 10
8.971554049517306
 20
0.6358912595940183
 30
0.0
 11
8.971554049517306
 21
1.262638259593984
 31
0.0
  0
LINE
  5
A47
330
18
100
AcDbEntity
  8
1
 48
0.009401
100
AcDbLine
 10
9.200000049517312
 20
0.9163022595939763
 30
0.0
 11
9.200000049517312
 21
1.292347259594009
 31
0.0
  0
ARC
  5
A48
330
18
100
AcDbEntity
  8
1
100
AcDbCircle
 10
-0.3418769504826997
 20
8.459122259593982
 30
0.0
 40
12.163147
100
AcDbArc
 50
319.9699220000005
 51
321.6737799999979
  0
LINE
  5
A49
330
18
100
AcDbEntity
  8
1
 48
0.007562
100
AcDbLine
 10
9.47000004951731
 20
1.232933259594004
 30
0.0
 11
9.47000004951731
 21
1.535408259594021
 31
0.0
  0
SPLINE
  5
A4A
330
18
100
AcDbEntity
  8
1
100
AcDbSpline
210
0.0
220
0.0
230
1.0
 70
     8
 71
     5
 72
    42
 73
    36
 74
     0
 42
0.000000001
 43
0.0000000001
 40
0.0
 40
0.0
 40
0.0
 40
0.0
 40
0.0
 40
0.0
 40
0.8737113967235647
 40
0.8737113967235647
 40
0.8737113967235647
 40
1.35189306881625
 40
1.35189306881625
 40
1.35189306881625
 40
1.471494258745051
 40
1.471494258745051
 40
1.471494258745051
 40
1.524739887650639
 40
1.524739887650639
 40
1.524739887650639
 40
1.542838379148895
 40
1.542838379148895
 40
1.542838379148895
 40
1.551899187201471
 40
1.551899187201471
 40
1.551899187201471
 40
1.560959995254043
 40
1.560959995254043
 40
1.560959995254043
 40
1.584361695598139
 40
1.584361695598139
 40
1.584361695598139
 40
1.607763395942229
 40
1.607763395942229
 40
1.607763395942229
 40
1.748090129873268
 40
1.748090129873268
 40
1.748090129873268
 40
1.773115279390695
 40
1.773115279390695
 40
1.773115279390695
 40
1.773115279390695
 40
1.773115279390695
 40
1.773115279390695
 10
9.200000049517312
 20
0.9161169666753039
 30
0.0
 10
9.200007064832064
 20
0.9102959497952268
 30
0.0
 10
9.200278994529867
 20
0.9045411370831287
 30
0.0
 10
9.200910820854376
 20
0.898311611013014
 30
0.0
 10
9.202698925836486
 20
0.8892529670442286
 30
0.0
 10
9.206068781428726
 20
0.8816923681421258
 30
0.0
 10
9.207568184026442
 20
0.8791962118408489
 30
0.0
 10
9.209756019628683
 20
0.8757433036065549
 30
0.0
 10
9.214250160444819
 20
0.8728670426385747
 30
0.0
 10
9.215157920156713
 20
0.8722973507220784
 30
0.0
 10
9.217046912435877
 20
0.8716083490741084
 30
0.0
 10
9.219525708392325
 20
0.8710780028688985
 30
0.0
 10
9.220341071736996
 20
0.8709304925634453
 30
0.0
 10
9.221601784565747
 20
0.8707714620979345
 30
0.0
 10
9.22370823510441
 20
0.8708450228045306
 30
0.0
 10
9.224018216303463
 20
0.8707978439347812
 30
0.0
 10
9.225536781012335
 20
0.8710308066539479
 30
0.0
 10
9.227055345721193
 20
0.8712637693730583
 30
0.0
 10
9.22811720461132
 20
0.8714983792813766
 30
0.0
 10
9.229447237111672
 20
0.8718883090987786
 30
0.0
 10
9.230777269612046
 20
0.8722782389161807
 30
0.0
 10
9.231171871392646
 20
0.8724372602466701
 30
0.0
 10
9.232646482771952
 20
0.8729847066616683
 30
0.0
 10
9.234044272033472
 20
0.8735248600306134
 30
0.0
 10
9.234563857187296
 20
0.8738078716748987
 30
0.0
 10
9.235890109760957
 20
0.8744344845938485
 30
0.0
 10
9.237022550243819
 20
0.8750185261854426
 30
0.0
 10
9.237554943177867
 20
0.8753030264367112
 30
0.0
 10
9.241099683546082
 20
0.8772533751901503
 30
0.0
 10
9.243616326190775
 20
0.8789744381368791
 30
0.0
 10
9.245680416617844
 20
0.8804215591790125
 30
0.0
 10
9.247861767395178
 20
0.8820731026450514
 30
0.0
 10
9.24987087550005
 20
0.8836848232643886
 30
0.0
 10
9.250171219602409
 20
0.8839278861420892
 30
0.0
 10
9.250468060880391
 20
0.8841701379346885
 30
0.0
 10
9.250761652454144
 20
0.884411647035904
 30
0.0
  0
SPLINE
  5
A4B
330
18
100
AcDbEntity
  8
1
100
AcDbSpline
210
0.0
220
0.0
230
1.0
 70
     8
 71
     5
 72
    21
 73
    15
 74
     0
 42
0.000000001
 43
0.0000000001
 40
0.0
 40
0.0
 40
0.0
 40
0.0
 40
0.0
 40
0.0
 40
0.9916222703377668
 40
0.9916222703377668
 40
0.9916222703377668
 40
1.98301885477719
 40
1.98301885477719
 40
1.98301885477719
 40
5.95856162763212
 40
5.95856162763212
 40
5.95856162763212
 40
9.923923452028603
 40
9.923923452028603
 40
9.923923452028603
 40
9.923923452028603
 40
9.923923452028603
 40
9.923923452028603
 10
9.250762154836579
 20
0.8844030435187162
 30
0.0
 10
9.256647019890293
 20
0.8892458133752255
 30
0.0
 10
9.261753786935187
 20
0.8941274390552962
 30
0.0
 10
9.266213999075231
 20
0.8986291023035731
 30
0.0
 10
9.274709697697405
 20
0.9076266494585636
 30
0.0
 10
9.283133625099537
 20
0.9173804663289502
 30
0.0
 10
9.287599474321057
 20
0.9227521501643991
 30
0.0
 10
9.308902333644622
 20
0.9492755948322724
 30
0.0
 10
9.327381979805052
 20
0.9758894857923223
 30
0.0
 10
9.340744626471051
 20
0.9958535414825178
 30
0.0
 10
9.368804626107561
 20
1.040059236591446
 30
0.0
 10
9.395226742842666
 20
1.084983233510512
 30
0.0
 10
9.408130108820627
 20
1.107571524193929
 30
0.0
 10
9.420787926861079
 20
1.130300495995185
 30
0.0
 10
9.433240511284436
 20
1.153160082012277
 30
0.0
  0
LINE
  5
A4C
330
18
100
AcDbEntity
  8
1
 48
0.000311
100
AcDbLine
 10
9.433240049517305
 20
1.153160259594017
 30
0.0
 11
9.439179049517306
 21
1.164107259594004
 31
0.0
  0
LINE
  5
A4D
330
18
100
AcDbEntity
  8
1
 48
0.000133
100
AcDbLine
 10
9.439179049517306
 20
1.164108259594001
 30
0.0
 11
9.441682049517311
 21
1.168807259594017
 31
0.0
  0
ARC
  5
A4E
330
18
100
AcDbEntity
  8
1
100
AcDbCircle
 10
8.98496504951731
 20
1.408825259593981
 30
0.0
 40
0.515944
100
AcDbArc
 50
332.2766740000009
 51
340.0671310000007
  0
ELLIPSE
  5
A4F
330
18
100
AcDbEntity
  8
1
100
AcDbEllipse
 10
8.908812049517306
 20
0.6239772595940281
 30
0.0
 11
0.1734797209501268
 21
-0.0995229408144951
 31
0.0
210
0.0
220
0.0
230
0.9999999999999998
 40
0.064676
 41
4.950891030918501
 42
6.238985173330999
  0
LINE
  5
A50
330
18
100
AcDbEntity
  8
1
 48
0.002831
100
AcDbLine
 10
9.274745049517306
 20
0.8648832595940232
 30
0.0
 11
9.329646049517306
 21
0.9639462595940242
 31
0.0
  0
LINE
  5
A51
330
18
100
AcDbEntity
  8
1
 48
0.008368
100
AcDbLine
 10
9.274748049517311
 20
0.8648882595940108
 30
0.0
 11
9.110131049517306
 21
0.5734392595940108
 31
0.0
  0
LINE
  5
A52
330
18
100
AcDbEntity
  8
1
 48
0.001423
100
AcDbLine
 10
9.081837049517318
 20
0.5240522595939865
 30
0.0
 11
9.110131049517306
 21
0.5734392595940108
 31
0.0
  0
LINE
  5
A53
330
18
100
AcDbEntity
  8
1
 48
0.016833
100
AcDbLine
 10
9.27688804951731
 20
0.8448512595940087
 30
0.0
 11
9.044132049517317
 21
0.213048259594018
 31
0.0
  0
LINE
  5
A54
330
18
100
AcDbEntity
  8
1
 48
0.001484
100
AcDbLine
 10
9.395630049517306
 20
-3.585703740406017
 30
0.0
 11
9.439173049517306
 21
-3.626054740406004
 31
0.0
  0
LINE
  5
A55
330
18
100
AcDbEntity
  8
1
 48
0.000027
100
AcDbLine
 10
9.439173049517306
 20
-3.626053740406006
 30
0.0
 11
9.439179049517306
 21
-3.624962740405976
 31
0.0
  0
LINE
  5
A56
330
18
100
AcDbEntity
  8
1
 48
0.000083
100
AcDbLine
 10
9.441682049517311
 20
-3.628245740405986
 30
0.0
 11
9.43917204951731
 21
-3.626053740406006
 31
0.0
  0
LINE
  5
A57
330
18
100
AcDbEntity
  8
1
 48
0.000031
100
AcDbLine
 10
9.470002049517304
 20
-5.781689740406021
 30
0.0
 11
9.469001049517302
 21
-5.780961740405984
 31
0.0
  0
LINE
  5
A58
330
18
100
AcDbEntity
  8
1
 48
0.05286
100
AcDbLine
 10
9.47000004951731
 20
-5.781688740406025
 30
0.0
 11
9.47000004951731
 21
-3.66726974040597
 31
0.0
  0
ARC
  5
A59
330
18
100
AcDbEntity
  8
1
100
AcDbCircle
 10
-134.2395469504827
 20
-6.665681740405999
 30
0.0
 40
143.711049
100
AcDbArc
 50
0.3527290000012263
 51
1.21195299999893
  0
LINE
  5
A5A
330
18
100
AcDbEntity
  8
1
 48
0.013173
100
AcDbLine
 10
9.469001049517302
 20
-5.780961740405984
 30
0.0
 11
9.044132049517317
 21
-5.469321740405971
 31
0.0
  0
LINE
  5
A5B
330
18
100
AcDbEntity
  8
1
 48
0.000311
100
AcDbLine
 10
9.433240049517305
 20
-1.15315974040601
 30
0.0
 11
9.439179049517306
 21
-1.164106740405998
 31
0.0
  0
LINE
  5
A5C
330
18
100
AcDbEntity
  8
1
 48
0.000133
100
AcDbLine
 10
9.439179049517306
 20
-1.164107740405995
 30
0.0
 11
9.441682049517311
 21
-1.16880674040601
 31
0.0
  0
ARC
  5
A5D
330
18
100
AcDbEntity
  8
1
100
AcDbCircle
 10
8.98496504951731
 20
-1.408824740405975
 30
0.0
 40
0.515944
100
AcDbArc
 50
19.93286899999931
 51
27.72332599999909
  0
ARC
  5
A5E
330
18
100
AcDbEntity
  8
1
100
AcDbCircle
 10
8.249240049517311
 20
-1.442395740405969
 30
0.0
 40
1.22221
100
AcDbArc
 50
3.785932000001308
 51
13.16158499999878
  0
LINE
  5
A5F
330
18
100
AcDbEntity
  8
1
 48
0.005705
100
AcDbLine
 10
9.329646049517306
 20
-0.9639457404060179
 30
0.0
 11
9.439173049517306
 21
-1.164141740406023
 31
0.0
  0
LINE
  5
A60
330
18
100
AcDbEntity
  8
1
 48
0.013785
100
AcDbLine
 10
9.469001049517302
 20
-1.361680740405972
 30
0.0
 11
9.27688804951731
 21
-0.8448507404060022
 31
0.0
  0
LINE
  5
A61
330
18
100
AcDbEntity
  8
1
 48
0.016833
100
AcDbLine
 10
9.27688804951731
 20
-0.8448507404060022
 30
0.0
 11
9.044132049517317
 21
-0.2130477404060116
 31
0.0
  0
LINE
  5
A62
330
18
100
AcDbEntity
  8
1
 48
0.001326
100
AcDbLine
 10
9.413250049517316
 20
1.436361259593979
 30
0.0
 11
9.442957049517318
 21
1.480323259593999
 31
0.0
  0
LINE
  5
A63
330
18
100
AcDbEntity
  8
1
 48
0.023466
100
AcDbLine
 10
9.469001049517302
 20
4.419281259594012
 30
0.0
 11
9.044132049517317
 21
5.256274259594021
 31
0.0
  0
ELLIPSE
  5
A64
330
18
100
AcDbEntity
  8
1
100
AcDbEllipse
 10
8.93682504951731
 20
0.6729562595940024
 30
0.0
 11
0.1737409830093384
 21
-0.0990659520030022
 31
0.0
210
0.0
220
0.0
230
1.0
 40
0.077287
 41
4.957480097308198
 42
6.243934670902636
  0
ARC
  5
A65
330
18
100
AcDbEntity
  8
1
100
AcDbCircle
 10
9.214206049517301
 20
0.8117562595940055
 30
0.0
 40
0.080909
100
AcDbArc
 50
41.27049199999804
 51
63.29101100000023
  0
LINE
  5
A66
330
18
100
AcDbEntity
  8
1
 48
0.000132
100
AcDbLine
 10
9.441682049517311
 20
-1.168805740406014
 30
0.0
 11
9.43917204951731
 21
-1.164141740406023
 31
0.0
  0
LINE
  5
A67
330
18
100
AcDbEntity
  8
1
 48
0.000072
100
AcDbLine
 10
9.470001049517305
 20
-1.364367740406009
 30
0.0
 11
9.469001049517302
 21
-1.361680740405972
 31
0.0
  0
LINE
  5
A68
330
18
100
AcDbEntity
  8
1
 48
0.003286
100
AcDbLine
 10
9.47000004951731
 20
-1.364365740406014
 30
0.0
 11
9.47000004951731
 21
-1.232930740406004
 31
0.0
  0
LINE
  5
A69
330
18
100
AcDbEntity
  8
1
 48
0.000055
100
AcDbLine
 10
9.47000004951731
 20
4.417324259594009
 30
0.0
 11
9.469001049517302
 21
4.419281259594012
 31
0.0
  0
LINE
  5
A6A
330
18
100
AcDbEntity
  8
1
 48
0.267205
100
AcDbLine
 10
0.1344590495173037
 20
-5.309862740406003
 30
0.0
 11
0.1344590495173037
 21
5.378332259594
 31
0.0
  0
LINE
  5
A6B
330
18
100
AcDbEntity
  8
1
 48
0.025837
100
AcDbLine
 10
0.0000000495173111
 20
-4.145049740406022
 30
0.0
 11
0.0000000495173111
 21
-5.17852674040597
 31
0.0
  0
LINE
  5
A6C
330
18
100
AcDbEntity
  8
1
 48
0.051205
100
AcDbLine
 10
0.0000000495173111
 20
-2.095932740405999
 30
0.0
 11
0.0000000495173111
 21
-4.144152740406013
 31
0.0
  0
LINE
  5
A6D
330
18
100
AcDbEntity
  8
1
 48
0.132756
100
AcDbLine
 10
-0.0000001239097429
 20
5.245301744784625
 30
0.0
 11
0.0000000495173111
 21
-2.095932740405999
 31
0.0
  0
LINE
  5
A6E
330
18
100
AcDbEntity
  8
1
 48
0.000029
100
AcDbLine
 10
0.0000000495173111
 20
3.215461259594006
 30
0.0
 11
0.0000000495173111
 21
3.214304259594028
 31
0.0
  0
LINE
  5
A6F
330
18
100
AcDbEntity
  8
1
 48
0.001712
100
AcDbLine
 10
0.1344590495173037
 20
-5.378331740405997
 30
0.0
 11
0.1344590495173037
 21
-5.309862740406003
 31
0.0
  0
LINE
  5
A70
330
18
100
AcDbEntity
  8
1
 48
0.010044
100
AcDbLine
 10
0.3000000495173083
 20
0.3228972595940149
 30
0.0
 11
0.3000000495173083
 21
0.7246412595940229
 31
0.0
  0
LINE
  5
A71
330
18
100
AcDbEntity
  8
1
 48
0.008795
100
AcDbLine
 10
0.3000000495173083
 20
0.3233572595939904
 30
0.0
 11
0.3000000495173083
 21
-0.0284587404059948
 31
0.0
  0
LINE
  5
A72
330
18
100
AcDbEntity
  8
1
 48
0.068348
100
AcDbLine
 10
0.3000000495173083
 20
-2.762353740406013
 30
0.0
 11
0.3000000495173083
 21
-0.0284177404059847
 31
0.0
  0
LINE
  5
A73
330
18
100
AcDbEntity
  8
1
 48
0.066079
100
AcDbLine
 10
0.3000000495173083
 20
-5.405513740405978
 30
0.0
 11
0.3000000495173083
 21
-2.762356740406004
 31
0.0
  0
LINE
  5
A74
330
18
100
AcDbEntity
  8
1
 48
0.003199
100
AcDbLine
 10
0.3000000495173083
 20
-5.533482740405986
 30
0.0
 11
0.3000000495173083
 21
-5.405513740405978
 31
0.0
  0
LINE
  5
A75
330
18
100
AcDbEntity
  8
1
 48
0.024404
100
AcDbLine
 10
0.3000000495173083
 20
-6.509950740405995
 30
0.0
 11
0.3000000495173083
 21
-5.533794740405994
 31
0.0
  0
LINE
  5
A76
330
18
100
AcDbEntity
  8
1
 48
0.009496
100
AcDbLine
 10
0.3000000495173083
 20
6.130155259594005
 30
0.0
 11
0.3000000495173083
 21
6.50998325959398
 31
0.0
  0
LINE
  5
A77
330
18
100
AcDbEntity
  8
1
 48
0.006844
100
AcDbLine
 10
0.3000000495173083
 20
5.856380259594002
 30
0.0
 11
0.3000000495173083
 21
6.130156259594002
 31
0.0
  0
LINE
  5
A78
330
18
100
AcDbEntity
  8
1
 48
0.018978
100
AcDbLine
 10
0.3000000495173083
 20
5.856264259594012
 30
0.0
 11
0.3000000495173083
 21
5.097150259594001
 31
0.0
  0
LINE
  5
A79
330
18
100
AcDbEntity
  8
1
 48
0.033743
100
AcDbLine
 10
0.3000000495173083
 20
3.747598259593984
 30
0.0
 11
0.3000000495173083
 21
5.097328259594005
 31
0.0
  0
LINE
  5
A7A
330
18
100
AcDbEntity
  8
1
 48
0.075575
100
AcDbLine
 10
0.3000000495173083
 20
0.7246412595940229
 30
0.0
 11
0.3000000495173083
 21
3.747626259594028
 31
0.0
  0
LINE
  5
A7B
330
18
100
AcDbEntity
  8
1
 48
0.001669
100
AcDbLine
 10
0.0000000495173111
 20
-5.17852674040597
 30
0.0
 11
0.0000000495173111
 21
-5.245301740405976
 31
0.0
  0
LINE
  5
A7C
330
18
100
AcDbEntity
  8
SK1
 48
0.137732
100
AcDbLine
 10
-0.2842989504826931
 20
3.936377259593995
 30
0.0
 11
-0.2842989504826931
 21
-1.572908740405978
 31
0.0
  0
LINE
  5
A7D
330
18
100
AcDbEntity
  8
SK1
 48
0.059087
100
AcDbLine
 10
-0.2842989504826931
 20
-1.572908740405978
 30
0.0
 11
-0.2842989504826931
 21
-3.936376740405988
 31
0.0
  0
LINE
  5
A7E
330
18
100
AcDbEntity
  8
SK1
 48
0.134219
100
AcDbLine
 10
-2.199999950482689
 20
3.835979259594012
 30
0.0
 11
-2.199999950482689
 21
-1.532791740405968
 31
0.0
  0
LINE
  5
A7F
330
18
100
AcDbEntity
  8
SK1
 48
0.05758
100
AcDbLine
 10
-2.199999950482689
 20
-1.532791740405968
 30
0.0
 11
-2.199999950482689
 21
-3.835978740406004
 31
0.0
  0
LINE
  5
A80
330
18
100
AcDbEntity
  8
1
 48
0.000052
100
AcDbLine
 10
9.47000004951731
 20
-5.896688740405977
 30
0.0
 11
9.47000004951731
 21
-5.898785740405966
 31
0.0
  0
ARC
  5
A81
330
18
100
AcDbEntity
  8
1
100
AcDbCircle
 10
-1.354404950482688
 20
-47.14185874040601
 30
0.0
 40
53.67731899999999
100
AcDbArc
 50
85.94339199999998
 51
88.23378899999992
  0
LINE
  5
A82
330
18
100
AcDbEntity
  8
1
 48
0.010687
100
AcDbLine
 10
9.47000004951731
 20
-5.781691740406017
 30
0.0
 11
9.47000004951731
 21
-6.209191740405967
 31
0.0
  0
LINE
  5
A83
330
18
100
AcDbEntity
  8
1
 48
0.000778
100
AcDbLine
 10
9.47000004951731
 20
-6.209190740405973
 30
0.0
 11
9.47000004951731
 21
-6.240313740406008
 31
0.0
  0
LINE
  5
A84
330
18
100
AcDbEntity
  8
1
 48
0.001843
100
AcDbLine
 10
9.47000004951731
 20
-4.250277740405977
 30
0.0
 11
9.47000004951731
 21
-4.324009740405982
 31
0.0
  0
LINE
  5
A85
330
18
100
AcDbEntity
  8
1
 48
0.002097
100
AcDbLine
 10
9.47000004951731
 20
-4.324009740405982
 30
0.0
 11
9.47000004951731
 21
-4.40787274040599
 31
0.0
  0
LINE
  5
A86
330
18
100
AcDbEntity
  8
1
 48
0.00247
100
AcDbLine
 10
9.47000004951731
 20
-4.844552740406014
 30
0.0
 11
9.47000004951731
 21
-4.745767740405995
 31
0.0
  0
LINE
  5
A87
330
18
100
AcDbEntity
  8
1
 48
0.00364
100
AcDbLine
 10
9.47000004951731
 20
-4.553490740406004
 30
0.0
 11
9.47000004951731
 21
-4.40787274040599
 31
0.0
  0
LINE
  5
A88
330
18
100
AcDbEntity
  8
1
 48
0.001116
100
AcDbLine
 10
9.47000004951731
 20
-4.844552740406014
 30
0.0
 11
9.47000004951731
 21
-4.889181740406002
 31
0.0
  0
LINE
  5
A89
330
18
100
AcDbEntity
  8
1
 48
0.004462
100
AcDbLine
 10
9.47000004951731
 20
-5.067656740405993
 30
0.0
 11
9.47000004951731
 21
-4.889181740406002
 31
0.0
  0
LINE
  5
A8A
330
18
100
AcDbEntity
  8
1
 48
0.000432
100
AcDbLine
 10
9.47000004951731
 20
-4.571225740406021
 30
0.0
 11
9.47000004951731
 21
-4.553931740405971
 31
0.0
  0
LINE
  5
A8B
330
18
100
AcDbEntity
  8
1
 48
0.004351
100
AcDbLine
 10
9.47000004951731
 20
-4.571225740406021
 30
0.0
 11
9.47000004951731
 21
-4.745264740406011
 31
0.0
  0
LINE
  5
A8C
330
18
100
AcDbEntity
  8
1
 48
0.000969
100
AcDbLine
 10
9.47000004951731
 20
-3.966975740405985
 30
0.0
 11
9.47000004951731
 21
-3.928206740405982
 31
0.0
  0
LINE
  5
A8D
330
18
100
AcDbEntity
  8
1
 48
0.002866
100
AcDbLine
 10
9.47000004951731
 20
-3.966975740405985
 30
0.0
 11
9.47000004951731
 21
-4.081604740406021
 31
0.0
  0
LINE
  5
A8E
330
18
100
AcDbEntity
  8
1
 48
0.029849
100
AcDbLine
 10
9.47000004951731
 20
-6.240313740406008
 30
0.0
 11
8.38857104951731
 21
-6.746350740406001
 31
0.0
  0
LINE
  5
A8F
330
18
100
AcDbEntity
  8
1
 48
0.001378
100
AcDbLine
 10
8.333534049517311
 20
-6.749413740405994
 30
0.0
 11
8.38857104951731
 21
-6.746350740406001
 31
0.0
  0
ARC
  5
A90
330
18
100
AcDbEntity
  8
1
100
AcDbCircle
 10
8.463563049517302
 20
45.31687625959392
 30
0.0
 40
52.06669699999999
100
AcDbArc
 50
263.376783
 51
269.8569109999998
  0
LINE
  5
A91
330
18
100
AcDbEntity
  8
1
 48
0.004048
100
AcDbLine
 10
0.3000000495173083
 20
6.130155259594005
 30
0.0
 11
0.4618350495173189
 21
6.135925259593987
 31
0.0
  0
ARC
  5
A92
330
18
100
AcDbEntity
  8
1
100
AcDbCircle
 10
8.908936049517306
 20
-49.48294274040597
 30
0.0
 40
56.256637
100
AcDbArc
 50
96.58440199999944
 51
98.63578799999952
  0
ARC
  5
A93
330
18
100
AcDbEntity
  8
1
100
AcDbCircle
 10
8.463279049517312
 20
-45.31917274040597
 30
0.0
 40
52.068973
100
AcDbArc
 50
90.14276999999941
 51
96.62261500000028
  0
ARC
  5
A94
330
18
100
AcDbEntity
  8
1
100
AcDbCircle
 10
-41.73732095048269
 20
169.435162259594
 30
0.0
 40
182.102335
100
AcDbArc
 50
285.7725559999994
 51
286.1819790000014
  0
SPLINE
  5
A95
330
18
100
AcDbEntity
  8
1
100
AcDbSpline
210
0.0
220
0.0
230
1.0
 70
     8
 71
     5
 72
    21
 73
    15
 74
     0
 42
0.000000001
 43
0.0000000001
 40
0.0
 40
0.0
 40
0.0
 40
0.0
 40
0.0
 40
0.0
 40
2.657745263682812
 40
2.657745263682812
 40
2.657745263682812
 40
3.534023730450131
 40
3.534023730450131
 40
3.534023730450131
 40
4.285365885855195
 40
4.285365885855195
 40
4.285365885855195
 40
4.426978356004445
 40
4.426978356004445
 40
4.426978356004445
 40
4.426978356004445
 40
4.426978356004445
 40
4.426978356004445
 10
8.348093710291806
 20
-6.739348280231865
 30
0.0
 10
8.308940533811622
 20
-6.618238339359662
 30
0.0
 10
8.265616708850997
 20
-6.498212826273231
 30
0.0
 10
8.216402943697518
 20
-6.380083917464162
 30
0.0
 10
8.139906836009869
 20
-6.225827035709585
 30
0.0
 10
8.038145201674621
 20
-6.07970814359379
 30
0.0
 10
8.011181901178105
 20
-6.044044350425565
 30
0.0
 10
7.957299256190692
 20
-5.97909840061004
 30
0.0
 10
7.895058975283816
 20
-5.916852808806709
 30
0.0
 10
7.864290680524277
 20
-5.888709954218027
 30
0.0
 10
7.825236828601188
 20
-5.856355938987801
 30
0.0
 10
7.782516684692196
 20
-5.825292122691281
 30
0.0
 10
7.775646555261503
 20
-5.820398375612169
 30
0.0
 10
7.768679234528079
 20
-5.815538061650784
 30
0.0
 10
7.761611964722233
 20
-5.810711307754615
 30
0.0
  0
LINE
  5
A96
330
18
100
AcDbEntity
  8
1
 48
0.031022
100
AcDbLine
 10
9.47000004951731
 20
-6.209191740405967
 30
0.0
 11
8.348094049517312
 21
-6.739348740405999
 31
0.0
  0
LINE
  5
A97
330
18
100
AcDbEntity
  8
1
 48
0.000443
100
AcDbLine
 10
8.348094049517312
 20
-6.739348740405999
 30
0.0
 11
8.333534049517311
 21
-6.749413740405994
 31
0.0
  0
LINE
  5
A98
330
18
100
AcDbEntity
  8
1
 48
0.010392
100
AcDbLine
 10
7.761612049517307
 20
-5.810710740406022
 30
0.0
 11
7.346619049517316
 21
-5.834798740405973
 31
0.0
  0
ARC
  5
A99
330
18
100
AcDbEntity
  8
1
100
AcDbCircle
 10
-1.35499795048268
 20
47.15479625959409
 30
0.0
 40
53.69026899999999
100
AcDbArc
 50
271.7664180000001
 51
274.115092
  0
ARC
  5
A9A
330
18
100
AcDbEntity
  8
1
100
AcDbCircle
 10
-1.611767950482686
 20
50.14666325959405
 30
0.0
 40
56.69309399999999
100
AcDbArc
 50
274.1569429999996
 51
279.0915470000005
  0
LINE
  5
A9B
330
18
100
AcDbEntity
  8
1
 48
0.008681
100
AcDbLine
 10
0.2999500495173066
 20
5.856349259594026
 30
0.0
 11
0.5968340495173125
 21
6.036435259593986
 31
0.0
  0
ARC
  5
A9C
330
18
100
AcDbEntity
  8
1
100
AcDbCircle
 10
-0.5750049504826933
 20
4.58727125959399
 30
0.0
 40
1.863684
100
AcDbArc
 50
51.03991700000162
 51
56.19725499999865
  0
ARC
  5
A9D
330
18
100
AcDbEntity
  8
1
100
AcDbCircle
 10
8.833126049517304
 20
-24.399000740406
 30
0.0
 40
31.148525
100
AcDbArc
 50
90.81775900000016
 51
92.39967200000052
  0
LINE
  5
A9E
330
18
100
AcDbEntity
  8
1
 48
0.001378
100
AcDbLine
 10
8.333534049517311
 20
6.749414259594002
 30
0.0
 11
8.38857104951731
 21
6.746351259594007
 31
0.0
  0
ARC
  5
A9F
330
18
100
AcDbEntity
  8
1
100
AcDbCircle
 10
9.374356049517317
 20
-47.18450974040599
 30
0.0
 40
53.93904499999999
100
AcDbArc
 50
91.96066999999946
 51
99.36526200000031
  0
LINE
  5
AA0
330
18
100
AcDbEntity
  8
1
 48
0.029849
100
AcDbLine
 10
9.47000004951731
 20
6.240314259594015
 30
0.0
 11
8.38857104951731
 21
6.746351259594007
 31
0.0
  0
ARC
  5
AA1
330
18
100
AcDbEntity
  8
1
100
AcDbCircle
 10
67.07728504951733
 20
-137.232294740406
 30
0.0
 40
144.724085
100
AcDbArc
 50
114.1674520000021
 51
114.6199489999985
  0
LINE
  5
AA2
330
18
100
AcDbEntity
  8
1
 48
0.014654
100
AcDbLine
 10
7.346619049517316
 20
-5.834798740405973
 30
0.0
 11
6.785616049517315
 21
-5.664915740405999
 31
0.0
  0
LINE
  5
AA3
330
18
100
AcDbEntity
  8
1
 48
0.000247
100
AcDbLine
 10
6.785616049517315
 20
-5.664915740405999
 30
0.0
 11
6.776217049517311
 21
-5.661892740406017
 31
0.0
  0
SPLINE
  5
AA4
330
18
100
AcDbEntity
  8
1
100
AcDbSpline
210
0.0
220
0.0
230
1.0
 70
     8
 71
     5
 72
    18
 73
    12
 74
     0
 42
0.000000001
 43
0.0000000001
 40
0.0
 40
0.0
 40
0.0
 40
0.0
 40
0.0
 40
0.0
 40
0.3937998017137457
 40
0.3937998017137457
 40
0.3937998017137457
 40
0.8002007744976284
 40
0.8002007744976284
 40
0.8002007744976284
 40
1.005098950274185
 40
1.005098950274185
 40
1.005098950274185
 40
1.005098950274185
 40
1.005098950274185
 40
1.005098950274185
 10
6.317110463875406
 20
-5.377039492090431
 30
0.0
 10
6.33942896646961
 20
-5.409019732733156
 30
0.0
 10
6.366518542543117
 20
-5.439396916174358
 30
0.0
 10
6.397469104485351
 20
-5.46728195339898
 30
0.0
 10
6.465635065429906
 20
-5.519434354009261
 30
0.0
 10
6.54220853101445
 20
-5.563437238528193
 30
0.0
 10
6.581630874323507
 20
-5.58345736749345
 30
0.0
 10
6.643739211878056
 20
-5.611886277061159
 30
0.0
 10
6.707673706535826
 20
-5.637183358617502
 30
0.0
 10
6.732753574368032
 20
-5.646608474425645
 30
0.0
 10
6.754440384750338
 20
-5.654401504739666
 30
0.0
 10
6.776217062920792
 20
-5.661893244970712
 30
0.0
  0
ARC
  5
AA5
330
18
100
AcDbEntity
  8
1
100
AcDbCircle
 10
6.348880049517305
 20
-5.354364740405966
 30
0.0
 40
0.039021
100
AcDbArc
 50
186.7859770000006
 51
215.517020000002
  0
SPLINE
  5
AA6
330
18
100
AcDbEntity
  8
1
100
AcDbSpline
210
0.0
220
0.0
230
1.0
 70
     8
 71
     5
 72
    39
 73
    33
 74
     0
 42
0.000000001
 43
0.0000000001
 40
0.0
 40
0.0
 40
0.0
 40
0.0
 40
0.0
 40
0.0
 40
0.0727734220521431
 40
0.0727734220521431
 40
0.0727734220521431
 40
0.5821871692596874
 40
0.5821871692596874
 40
0.5821871692596874
 40
1.397986387590967
 40
1.397986387590967
 40
1.397986387590967
 40
2.95652400314127
 40
2.95652400314127
 40
2.95652400314127
 40
3.735220522530299
 40
3.735220522530299
 40
3.735220522530299
 40
4.499188478687912
 40
4.499188478687912
 40
4.499188478687912
 40
6.013783766090512
 40
6.013783766090512
 40
6.013783766090512
 40
6.756129380014777
 40
6.756129380014777
 40
6.756129380014777
 40
7.292669909385137
 40
7.292669909385137
 40
7.292669909385137
 40
7.627574732437166
 40
7.627574732437166
 40
7.627574732437166
 40
7.627574732437166
 40
7.627574732437166
 40
7.627574732437166
 10
9.46999982287282
 20
-3.20593185352817
 30
0.0
 10
9.46242964983655
 20
-3.209186971642111
 30
0.0
 10
9.454718829458766
 20
-3.212509701244924
 30
0.0
 10
9.447274162041663
 20
-3.215708742695537
 30
0.0
 10
9.386699507012462
 20
-3.241791308184815
 30
0.0
 10
9.3261980022681
 20
-3.26793381578733
 30
0.0
 10
9.273195397259117
 20
-3.29091076277393
 30
0.0
 10
9.135271689826154
 20
-3.350911390029863
 30
0.0
 10
8.997689663773385
 20
-3.411347004169213
 30
0.0
 10
8.935136574091515
 20
-3.438986985028236
 30
0.0
 10
8.69113685864653
 20
-3.547500202445746
 30
0.0
 10
8.44898900793683
 20
-3.657723429669998
 30
0.0
 10
8.301610376134533
 20
-3.726004811950358
 30
0.0
 10
8.066060364531651
 20
-3.837517421445568
 30
0.0
 10
7.834124730240217
 20
-3.952100447379223
 30
0.0
 10
7.763493091338503
 20
-3.987529338808087
 30
0.0
 10
7.612328615986681
 20
-4.064639054197185
 30
0.0
 10
7.461746756704497
 20
-4.144588541492224
 30
0.0
 10
7.387364605387531
 20
-4.184973356989985
 30
0.0
 10
7.17112725899615
 20
-4.305357769014108
 30
0.0
 10
6.961388521702332
 20
-4.432807845829983
 30
0.0
 10
6.827724130832862
 20
-4.520693316460494
 30
0.0
 10
6.636538190284468
 20
-4.658435516474355
 30
0.0
 10
6.470618190791569
 20
-4.813439858134699
 30
0.0
 10
6.419243650674173
 20
-4.866982687560494
 30
0.0
 10
6.339033802196411
 20
-4.963964679528882
 30
0.0
 10
6.283491789852463
 20
-5.070404398940468
 30
0.0
 10
6.265499202774094
 20
-5.117448775917693
 30
0.0
 10
6.250557585684244
 20
-5.196235394616905
 30
0.0
 10
6.264808449067842
 20
-5.274614102030284
 30
0.0
 10
6.27530534789669
 20
-5.304579078104834
 30
0.0
 10
6.29081619967728
 20
-5.332782183152914
 30
0.0
 10
6.31013988444691
 20
-5.358974975848751
 30
0.0
  0
LINE
  5
AA7
330
18
100
AcDbEntity
  8
1
 48
0.002087
100
AcDbLine
 10
9.47000004951731
 20
-3.205931740406013
 30
0.0
 11
9.47000004951731
 21
-3.122457740405991
 31
0.0
  0
LINE
  5
AA8
330
18
100
AcDbEntity
  8
1
 48
0.018957
100
AcDbLine
 10
8.737309049517307
 20
-3.317881740405993
 30
0.0
 11
9.469963049517318
 21
-3.12246874040602
 31
0.0
  0
ARC
  5
AA9
330
18
100
AcDbEntity
  8
1
100
AcDbCircle
 10
10.42814204951732
 20
-57.27581374040603
 30
0.0
 40
63.189239
100
AcDbArc
 50
92.98153399999955
 51
99.22320600000015
  0
LINE
  5
AAA
330
18
100
AcDbEntity
  8
1
 48
0.000476
100
AcDbLine
 10
7.141442049517307
 20
5.827271259593999
 30
0.0
 11
7.160474049517302
 21
5.828230259594022
 31
0.0
  0
LINE
  5
AAB
330
18
100
AcDbEntity
  8
1
 48
0.001116
100
AcDbLine
 10
9.47000004951731
 20
5.953703259594021
 30
0.0
 11
9.47000004951731
 21
5.909044259593994
 31
0.0
  0
LINE
  5
AAC
330
18
100
AcDbEntity
  8
1
 48
0.001327
100
AcDbLine
 10
9.47000004951731
 20
6.006763259593981
 30
0.0
 11
9.47000004951731
 21
5.953703259594021
 31
0.0
  0
LINE
  5
AAD
330
18
100
AcDbEntity
  8
1
 48
0.016418
100
AcDbLine
 10
9.469999049517312
 20
6.006761259593986
 30
0.0
 11
8.814816049517318
 21
5.961662259593992
 31
0.0
  0
ARC
  5
AAE
330
18
100
AcDbEntity
  8
1
100
AcDbCircle
 10
8.023712049517312
 20
17.12207725959399
 30
0.0
 40
11.188114
100
AcDbArc
 50
270.8776320000005
 51
274.0546200000005
  0
SPLINE
  5
AAF
330
18
100
AcDbEntity
  8
1
100
AcDbSpline
210
0.0
220
0.0
230
1.0
 70
     8
 71
     5
 72
    42
 73
    36
 74
     0
 42
0.000000001
 43
0.0000000001
 40
0.0
 40
0.0
 40
0.0
 40
0.0
 40
0.0
 40
0.0
 40
0.218772993232164
 40
0.218772993232164
 40
0.218772993232164
 40
0.2872883599219281
 40
0.2872883599219281
 40
0.2872883599219281
 40
0.3369955133899236
 40
0.3369955133899236
 40
0.3369955133899236
 40
0.3523763032402625
 40
0.3523763032402625
 40
0.3523763032402625
 40
0.3677570930906038
 40
0.3677570930906038
 40
0.3677570930906038
 40
0.4749482693239047
 40
0.4749482693239047
 40
0.4749482693239047
 40
0.5831479866617857
 40
0.5831479866617857
 40
0.5831479866617857
 40
0.6909336286630886
 40
0.6909336286630886
 40
0.6909336286630886
 40
0.7976819460368258
 40
0.7976819460368258
 40
0.7976819460368258
 40
1.01050787956407
 40
1.01050787956407
 40
1.01050787956407
 40
1.058783535111438
 40
1.058783535111438
 40
1.058783535111438
 40
1.058783535111438
 40
1.058783535111438
 40
1.058783535111438
 10
7.808417516783592
 20
6.130636944312017
 30
0.0
 10
7.811370125836987
 20
6.104495059851727
 30
0.0
 10
7.810684316034667
 20
6.078975671648491
 30
0.0
 10
7.806659646984442
 20
6.054283935182866
 30
0.0
 10
7.797929430399745
 20
6.02533459169814
 30
0.0
 10
7.792491387963565
 20
5.997759944916026
 30
0.0
 10
7.791539642376079
 20
5.991194366294677
 30
0.0
 10
7.790895031391227
 20
5.979991464625641
 30
0.0
 10
7.79348462012217
 20
5.969379036269685
 30
0.0
 10
7.795447565309713
 20
5.964993732436652
 30
0.0
 10
7.799051312679196
 20
5.959722882689106
 30
0.0
 10
7.804205887198191
 20
5.955409521624061
 30
0.0
 10
7.805369115875436
 20
5.95438197025811
 30
0.0
 10
7.807968502963317
 20
5.952489803361515
 30
0.0
 10
7.810800911694214
 20
5.950801065235792
 30
0.0
 10
7.812229878400727
 20
5.949990273100352
 30
0.0
 10
7.823917391839714
 20
5.943875238163057
 30
0.0
 10
7.837466674133422
 20
5.940185573263816
 30
0.0
 10
7.849047172377792
 20
5.937868943943382
 30
0.0
 10
7.873057434230047
 20
5.934237511055981
 30
0.0
 10
7.896898102469632
 20
5.932258827833892
 30
0.0
 10
7.908944555244602
 20
5.931507827470111
 30
0.0
 10
7.933451214826263
 20
5.930359627485072
 30
0.0
 10
7.957698529933097
 20
5.929832546785632
 30
0.0
 10
7.969612854447375
 20
5.929695279908742
 30
0.0
 10
7.993389212912557
 20
5.929584642489143
 30
0.0
 10
8.017097691704236
 20
5.929774555747542
 30
0.0
 10
8.028889830780329
 20
5.929934495698661
 30
0.0
 10
8.063961720346242
 20
5.930561153430685
 30
0.0
 10
8.098504190546947
 20
5.931577114021933
 30
0.0
 10
8.122458755507222
 20
5.932417375230612
 30
0.0
 10
8.151271488175678
 20
5.933565394224272
 30
0.0
 10
8.179471736002097
 20
5.934822449853982
 30
0.0
 10
8.184668539315891
 20
5.93505850362959
 30
0.0
 10
8.189861056326988
 20
5.935298508283096
 30
0.0
 10
8.195075842856011
 20
5.935543567634566
 30
0.0
  0
LINE
  5
AB0
330
18
100
AcDbEntity
  8
1
 48
0.000142
100
AcDbLine
 10
7.813413049517307
 20
6.133298259594027
 30
0.0
 11
7.808417049517302
 21
6.130637259593981
 31
0.0
  0
SPLINE
  5
AB1
330
18
100
AcDbEntity
  8
1
100
AcDbSpline
210
0.0
220
0.0
230
1.0
 70
     8
 71
     5
 72
    30
 73
    24
 74
     0
 42
0.000000001
 43
0.0000000001
 40
0.0
 40
0.0
 40
0.0
 40
0.0
 40
0.0
 40
0.0
 40
0.3403376656420076
 40
0.3403376656420076
 40
0.3403376656420076
 40
0.5103014238721457
 40
0.5103014238721457
 40
0.5103014238721457
 40
1.021089391138453
 40
1.021089391138453
 40
1.021089391138453
 40
1.137433168383024
 40
1.137433168383024
 40
1.137433168383024
 40
1.294846487246237
 40
1.294846487246237
 40
1.294846487246237
 40
1.649978591730375
 40
1.649978591730375
 40
1.649978591730375
 40
1.71791398657603
 40
1.71791398657603
 40
1.71791398657603
 40
1.71791398657603
 40
1.71791398657603
 40
1.71791398657603
 10
7.528939531669422
 20
6.722209352145682
 30
0.0
 10
7.563494775694022
 20
6.710387393381436
 30
0.0
 10
7.597547992729275
 20
6.698053943270677
 30
0.0
 10
7.631690655568871
 20
6.684850363588222
 30
0.0
 10
7.682055347936199
 20
6.66411290844428
 30
0.0
 10
7.731386895585231
 20
6.641219421685092
 30
0.0
 10
7.747672075563087
 20
6.633356411807312
 30
0.0
 10
7.812481664648557
 20
6.600639816303612
 30
0.0
 10
7.875326108804697
 20
6.562371746210089
 30
0.0
 10
7.919980861237718
 20
6.529861667444093
 30
0.0
 10
7.973552912236682
 20
6.481257841882437
 30
0.0
 10
8.003416121608765
 20
6.417929192387987
 30
0.0
 10
8.008006790948613
 20
6.405611778816418
 30
0.0
 10
8.015664874265894
 20
6.375316544628558
 30
0.0
 10
8.015128018785432
 20
6.342926915264057
 30
0.0
 10
8.011439227158106
 20
6.324158030729678
 30
0.0
 10
7.990489013952283
 20
6.266882753861464
 30
0.0
 10
7.948408438134037
 20
6.221524110832376
 30
0.0
 10
7.915185648127462
 20
6.194775882948306
 30
0.0
 10
7.875200750726278
 20
6.167802404172446
 30
0.0
 10
7.833597452683036
 20
6.14418101113199
 30
0.0
 10
7.826882498795327
 20
6.140470084404057
 30
0.0
 10
7.820147414647762
 20
6.136841361787842
 30
0.0
 10
7.81341300000784
 20
6.133298460765786
 30
0.0
  0
ARC
  5
AB2
330
18
100
AcDbEntity
  8
1
100
AcDbCircle
 10
4.71590204951731
 20
68.00935925959397
 30
0.0
 40
61.95354399999999
100
AcDbArc
 50
272.8658299999994
 51
274.4010039999994
  0
LINE
  5
AB3
330
18
100
AcDbEntity
  8
1
 48
0.000046
100
AcDbLine
 10
9.47000004951731
 20
6.240313259594016
 30
0.0
 11
9.47000004951731
 21
6.238490259594016
 31
0.0
  0
LINE
  5
AB4
330
18
100
AcDbEntity
  8
1
 48
0.00006
100
AcDbLine
 10
9.47000004951731
 20
6.238490259594016
 30
0.0
 11
9.47000004951731
 21
6.236077259594027
 31
0.0
  0
LINE
  5
AB5
330
18
100
AcDbEntity
  8
1
 48
0.005429
100
AcDbLine
 10
9.47000004951731
 20
6.236077259594027
 30
0.0
 11
9.47000004951731
 21
6.018920259593982
 31
0.0
  0
LINE
  5
AB6
330
18
100
AcDbEntity
  8
1
 48
0.000285
100
AcDbLine
 10
9.47000004951731
 20
6.007507259593977
 30
0.0
 11
9.47000004951731
 21
6.018920259593982
 31
0.0
  0
ARC
  5
AB7
330
18
100
AcDbEntity
  8
1
100
AcDbCircle
 10
67.07636504951732
 20
-137.230714740406
 30
0.0
 40
144.72902
100
AcDbArc
 50
114.1688629999983
 51
114.6227640000012
  0
ARC
  5
AB8
330
18
100
AcDbEntity
  8
1
100
AcDbCircle
 10
66.89030004951732
 20
-136.8466927404059
 30
0.0
 40
144.752827
100
AcDbArc
 50
114.1361530000009
 51
114.7373649999991
  0
ARC
  5
AB9
330
18
100
AcDbEntity
  8
1
100
AcDbCircle
 10
66.87990304951731
 20
-136.838745740406
 30
0.0
 40
144.760811
100
AcDbArc
 50
114.1302299999997
 51
114.7344629999999
  0
LINE
  5
ABA
330
18
100
AcDbEntity
  8
1
 48
0.007395
100
AcDbLine
 10
9.47000004951731
 20
-3.205932740406011
 30
0.0
 11
9.47000004951731
 21
-3.501741740405975
 31
0.0
  0
LINE
  5
ABB
330
18
100
AcDbEntity
  8
1
 48
0.030232
100
AcDbLine
 10
9.47000004951731
 20
-1.364365740406014
 30
0.0
 11
9.47000004951731
 21
-2.573632740405969
 31
0.0
  0
LINE
  5
ABC
330
18
100
AcDbEntity
  8
1
 48
0.006325
100
AcDbLine
 10
9.47000004951731
 20
-2.573632740405969
 30
0.0
 11
9.47000004951731
 21
-2.82661874040599
 31
0.0
  0
LINE
  5
ABD
330
18
100
AcDbEntity
  8
1
 48
0.000762
100
AcDbLine
 10
9.47000004951731
 20
-2.826511740405976
 30
0.0
 11
9.47000004951731
 21
-2.857011740405993
 31
0.0
  0
LINE
  5
ABE
330
18
100
AcDbEntity
  8
1
 48
0.001378
100
AcDbLine
 10
9.47000004951731
 20
-2.912126740405993
 30
0.0
 11
9.47000004951731
 21
-2.857010740405995
 31
0.0
  0
LINE
  5
ABF
330
18
100
AcDbEntity
  8
1
 48
0.00113
100
AcDbLine
 10
9.47000004951731
 20
-2.957337740405987
 30
0.0
 11
9.47000004951731
 21
-2.912126740405993
 31
0.0
  0
LINE
  5
AC0
330
18
100
AcDbEntity
  8
1
 48
0.004128
100
AcDbLine
 10
9.47000004951731
 20
-2.957337740405987
 30
0.0
 11
9.47000004951731
 21
-3.122457740405991
 31
0.0
  0
LINE
  5
AC1
330
18
100
AcDbEntity
  8
1
 48
0.00911
100
AcDbLine
 10
9.469999049517312
 20
-2.957334740405995
 30
0.0
 11
9.120614049517314
 21
-3.060877740405998
 31
0.0
  0
SPLINE
  5
AC2
330
18
100
AcDbEntity
  8
1
100
AcDbSpline
210
0.0
220
0.0
230
1.0
 70
     8
 71
     5
 72
    15
 73
     9
 74
     0
 42
0.000000001
 43
0.0000000001
 40
0.0
 40
0.0
 40
0.0
 40
0.0
 40
0.0
 40
0.0
 40
6.187405449675511
 40
6.187405449675511
 40
6.187405449675511
 40
12.42667434962192
 40
12.42667434962192
 40
12.42667434962192
 40
12.42667434962192
 40
12.42667434962192
 40
12.42667434962192
 10
0.5968328902055049
 20
-5.633155913338271
 30
0.0
 10
1.270944874386572
 20
-5.497975214459471
 30
0.0
 10
1.944688575063054
 20
-5.353572810433091
 30
0.0
 10
2.645195995739126
 20
-5.194547377826721
 30
0.0
 10
4.059962082065098
 20
-4.853608564290141
 30
0.0
 10
5.472212521916373
 20
-4.478077552392504
 30
0.0
 10
6.178147833094342
 20
-4.281757047747703
 30
0.0
 10
6.853914557796954
 20
-4.087092735349131
 30
0.0
 10
7.528948860698107
 20
-3.886195639447919
 30
0.0
  0
LINE
  5
AC3
330
18
100
AcDbEntity
  8
1
 48
0.007829
100
AcDbLine
 10
0.2999500495173066
 20
-5.533465740405971
 30
0.0
 11
0.5968330495173149
 21
-5.633154740405982
 31
0.0
  0
SPLINE
  5
AC4
330
18
100
AcDbEntity
  8
1
100
AcDbSpline
210
0.0
220
0.0
230
1.0
 70
     8
 71
     5
 72
    27
 73
    21
 74
     0
 42
0.000000001
 43
0.0000000001
 40
0.0
 40
0.0
 40
0.0
 40
0.0
 40
0.0
 40
0.0
 40
11.19313388173424
 40
11.19313388173424
 40
11.19313388173424
 40
11.51256992504653
 40
11.51256992504653
 40
11.51256992504653
 40
11.67157987783367
 40
11.67157987783367
 40
11.67157987783367
 40
12.62563888875211
 40
12.62563888875211
 40
12.62563888875211
 40
12.70514420550379
 40
12.70514420550379
 40
12.70514420550379
 40
12.78464952225546
 40
12.78464952225546
 40
12.78464952225546
 40
12.78464952225546
 40
12.78464952225546
 40
12.78464952225546
 10
0.3000000495164983
 20
3.747598221869393
 30
0.0
 10
1.527560264477341
 20
4.102214248102825
 30
0.0
 10
2.757774692170243
 20
4.436466142405834
 30
0.0
 10
3.99891910108694
 20
4.750635939063386
 30
0.0
 10
5.267507219508257
 20
5.043196484392351
 30
0.0
 10
6.538514094856893
 20
5.304911763675875
 30
0.0
 10
6.574101299692856
 20
5.312076885019735
 30
0.0
 10
6.626164128938142
 20
5.323055801926328
 30
0.0
 10
6.679437129237227
 20
5.333706090742964
 30
0.0
 10
6.696994045549117
 20
5.337274066171686
 30
0.0
 10
6.819902900343294
 20
5.362204844332608
 30
0.0
 10
6.942829349749271
 20
5.386845671424849
 30
0.0
 10
7.048207488364752
 20
5.407752229136008
 30
0.0
 10
7.162379043215537
 20
5.430167488813481
 30
0.0
 10
7.276563052197332
 20
5.45232841020737
 30
0.0
 10
7.285343539076918
 20
5.45403216155887
 30
0.0
 10
7.302916730783548
 20
5.45743439582537
 30
0.0
 10
7.320478071645666
 20
5.460832869590434
 30
0.0
 10
7.328914670731164
 20
5.462594165882933
 30
0.0
 10
7.337697893052419
 20
5.464289770028358
 30
0.0
 10
7.346481834276247
 20
5.46598374531544
 30
0.0
  0
LINE
  5
AC5
330
18
100
AcDbEntity
  8
1
 48
0.014025
100
AcDbLine
 10
7.346619049517316
 20
5.465940259593992
 30
0.0
 11
6.785616049517315
 21
5.462302259594025
 31
0.0
  0
LINE
  5
AC6
330
18
100
AcDbEntity
  8
1
 48
0.000235
100
AcDbLine
 10
6.785616049517315
 20
5.462302259594025
 30
0.0
 11
6.776217049517311
 21
5.462335259593999
 31
0.0
  0
ARC
  5
AC7
330
18
100
AcDbEntity
  8
1
100
AcDbCircle
 10
6.509222049517305
 20
6.070696259594
 30
0.0
 40
0.5899200000000003
100
AcDbArc
 50
250.9904380000005
 51
261.8184010000002
  0
ARC
  5
AC8
330
18
100
AcDbEntity
  8
1
100
AcDbCircle
 10
6.766489049517316
 20
7.954522259594
 30
0.0
 40
2.491774
100
AcDbArc
 50
262.1275130000014
 51
270.2236409999995
  0
LINE
  5
AC9
330
18
100
AcDbEntity
  8
1
 48
0.000219
100
AcDbLine
 10
6.317111049517307
 20
5.513066259593983
 30
0.0
 11
6.310140049517301
 21
5.518344259594016
 31
0.0
  0
ARC
  5
ACA
330
18
100
AcDbEntity
  8
1
100
AcDbCircle
 10
9.304087049517306
 20
-17.89171474040597
 30
0.0
 40
23.801714
100
AcDbArc
 50
89.60061399999981
 51
93.1562
  0
SPLINE
  5
ACB
330
18
100
AcDbEntity
  8
1
100
AcDbSpline
210
0.0
220
0.0
230
1.0
 70
     8
 71
     5
 72
    33
 73
    27
 74
     0
 42
0.000000001
 43
0.0000000001
 40
0.0
 40
0.0
 40
0.0
 40
0.0
 40
0.0
 40
0.0
 40
1.369580134317095
 40
1.369580134317095
 40
1.369580134317095
 40
1.826948002096368
 40
1.826948002096368
 40
1.826948002096368
 40
2.281893318869056
 40
2.281893318869056
 40
2.281893318869056
 40
2.731185849635354
 40
2.731185849635354
 40
2.731185849635354
 40
3.173808404861917
 40
3.173808404861917
 40
3.173808404861917
 40
3.884637584646397
 40
3.884637584646397
 40
3.884637584646397
 40
4.301225392282883
 40
4.301225392282883
 40
4.301225392282883
 40
4.399807683061426
 40
4.399807683061426
 40
4.399807683061426
 40
4.399807683061426
 40
4.399807683061426
 40
4.399807683061426
 10
7.993620628573935
 20
5.873651149749036
 30
0.0
 10
7.852807436348456
 20
5.865455738345588
 30
0.0
 10
7.713203020776162
 20
5.855954524521392
 30
0.0
 10
7.565756232918076
 20
5.844236176439777
 30
0.0
 10
7.383834662853827
 20
5.827503422003758
 30
0.0
 10
7.205968280121252
 20
5.807439783625339
 30
0.0
 10
7.161736086662356
 20
5.802205141166439
 30
0.0
 10
7.073716232375928
 20
5.791235456539082
 30
0.0
 10
6.986603510788937
 20
5.779208178871612
 30
0.0
 10
6.943534972666995
 20
5.772955890796252
 30
0.0
 10
6.859568215565942
 20
5.760082393778587
 30
0.0
 10
6.77814531359496
 20
5.746085898254477
 30
0.0
 10
6.738080356010542
 20
5.738790161889252
 30
0.0
 10
6.660305474095579
 20
5.723736641790536
 30
0.0
 10
6.585681154671831
 20
5.707200403250112
 30
0.0
 10
6.549443728808441
 20
5.698584709257485
 30
0.0
 10
6.457726526325686
 20
5.674938350552679
 30
0.0
 10
6.376741771775299
 20
5.648322259702923
 30
0.0
 10
6.331102835175542
 20
5.630169312181863
 30
0.0
 10
6.27235841635111
 20
5.599000399142767
 30
0.0
 10
6.253797754682834
 20
5.565319716479165
 30
0.0
 10
6.253961843127411
 20
5.552520632626624
 30
0.0
 10
6.267020700989942
 20
5.537594430466299
 30
0.0
 10
6.292824415612455
 20
5.524986713356838
 30
0.0
 10
6.298212316932832
 20
5.522666592829749
 30
0.0
 10
6.303995079051176
 20
5.520452953635866
 30
0.0
 10
6.310139852549268
 20
5.51834388878558
 30
0.0
  0
LINE
  5
ACC
330
18
100
AcDbEntity
  8
1
 48
0.01613
100
AcDbLine
 10
9.47000004951731
 20
5.909657259593982
 30
0.0
 11
9.47000004951731
 21
5.264447259594021
 31
0.0
  0
LINE
  5
ACD
330
18
100
AcDbEntity
  8
1
 48
0.01642
100
AcDbLine
 10
9.47000004951731
 20
6.007506259593981
 30
0.0
 11
8.814816049517318
 21
5.961662259593992
 31
0.0
  0
ARC
  5
ACE
330
18
100
AcDbEntity
  8
1
100
AcDbCircle
 10
4.778206049517308
 20
67.96516525959401
 30
0.0
 40
62.12366
100
AcDbArc
 50
273.1529190000002
 51
274.3312880000001
  0
ARC
  5
ACF
330
18
100
AcDbEntity
  8
1
100
AcDbCircle
 10
4.715898049517306
 20
68.00964025959405
 30
0.0
 40
61.95623199999999
100
AcDbArc
 50
272.8610839999998
 51
274.4008170000003
  0
ARC
  5
AD0
330
18
100
AcDbEntity
  8
1
100
AcDbCircle
 10
-2.31915795048269
 20
58.81920125959408
 30
0.0
 40
60.04391999999999
100
AcDbArc
 50
279.6651579999988
 51
280.8783629999994
  0
SPLINE
  5
AD1
330
18
100
AcDbEntity
  8
1
100
AcDbSpline
210
0.0
220
0.0
230
1.0
 70
     8
 71
     5
 72
    21
 73
    15
 74
     0
 42
0.000000001
 43
0.0000000001
 40
0.0
 40
0.0
 40
0.0
 40
0.0
 40
0.0
 40
0.0
 40
2.657744106296326
 40
2.657744106296326
 40
2.657744106296326
 40
3.534021806937424
 40
3.534021806937424
 40
3.534021806937424
 40
4.285364514877542
 40
4.285364514877542
 40
4.285364514877542
 40
4.426976565975858
 40
4.426976565975858
 40
4.426976565975858
 40
4.426976565975858
 40
4.426976565975858
 40
4.426976565975858
 10
8.348094569876067
 20
-3.367958056055272
 30
0.0
 10
8.308941017736131
 20
-3.000762948020678
 30
0.0
 10
8.265615905114525
 20
-2.634013627939509
 30
0.0
 10
8.216402896274956
 20
-2.268925708148515
 30
0.0
 10
8.139906704111169
 20
-1.784492103925456
 30
0.0
 10
8.03814516854311
 20
-1.307194371423292
 30
0.0
 10
8.011181890704461
 20
-1.189362011173215
 30
0.0
 10
7.957299238640858
 20
-0.9717763370167633
 30
0.0
 10
7.895058961324221
 20
-0.7565748650769139
 30
0.0
 10
7.864290648262411
 20
-0.6576245211593914
 30
0.0
 10
7.825236782663252
 20
-0.5415533096079344
 30
0.0
 10
7.782516624801857
 20
-0.426826748251415
 30
0.0
 10
7.775646514844352
 20
-0.4086649005794243
 30
0.0
 10
7.7686792142579
 20
-0.390536522403579
 30
0.0
 10
7.761611965328837
 20
-0.3724402390642467
 30
0.0
  0
LINE
  5
AD2
330
18
100
AcDbEntity
  8
1
 48
0.034366
100
AcDbLine
 10
9.47000004951731
 20
-2.573632740405969
 30
0.0
 11
8.348095049517311
 21
-3.367957740405981
 31
0.0
  0
LINE
  5
AD3
330
18
100
AcDbEntity
  8
1
 48
0.03255
100
AcDbLine
 10
9.47000004951731
 20
-2.82661874040599
 30
0.0
 11
8.38857104951731
 21
-3.551710740406008
 31
0.0
  0
LINE
  5
AD4
330
18
100
AcDbEntity
  8
1
 48
0.000976
100
AcDbLine
 10
8.348095049517311
 20
-3.367957740405981
 30
0.0
 11
8.333535049517307
 21
-3.404160740405981
 31
0.0
  0
ARC
  5
AD5
330
18
100
AcDbEntity
  8
1
100
AcDbCircle
 10
10.50588204951731
 20
-2.67784374040599
 30
0.0
 40
2.290556
100
AcDbArc
 50
198.487197999999
 51
202.4271500000013
  0
ARC
  5
AD6
330
18
100
AcDbEntity
  8
1
100
AcDbCircle
 10
-16.62493695048269
 20
59.46055425959406
 30
0.0
 40
67.79543499999999
100
AcDbArc
 50
290.8716670000012
 51
291.6512230000001
  0
LINE
  5
AD7
330
18
100
AcDbEntity
  8
1
 48
0.002628
100
AcDbLine
 10
9.469988049517311
 20
-2.856993740405981
 30
0.0
 11
9.371178049517311
 21
-2.892813740405982
 31
0.0
  0
LINE
  5
AD8
330
18
100
AcDbEntity
  8
1
 48
0.007411
100
AcDbLine
 10
9.47000004951731
 20
-2.912126740405993
 30
0.0
 11
9.191416049517314
 21
-3.013418740405995
 31
0.0
  0
SPLINE
  5
AD9
330
18
100
AcDbEntity
  8
1
100
AcDbSpline
210
0.0
220
0.0
230
1.0
 70
     8
 71
     5
 72
    21
 73
    15
 74
     0
 42
0.000000001
 43
0.0000000001
 40
0.0
 40
0.0
 40
0.0
 40
0.0
 40
0.0
 40
0.0
 40
4.485240540130503
 40
4.485240540130503
 40
4.485240540130503
 40
8.918457453504528
 40
8.918457453504528
 40
8.918457453504528
 40
10.42532396565198
 40
10.42532396565198
 40
10.42532396565198
 40
14.98869753478147
 40
14.98869753478147
 40
14.98869753478147
 40
14.98869753478147
 40
14.98869753478147
 40
14.98869753478147
 10
0.4618351994755159
 20
-5.503045698133405
 30
0.0
 10
0.9502967668122863
 20
-5.400111356101831
 30
0.0
 10
1.438514390340188
 20
-5.292387711401203
 30
0.0
 10
1.892536300352585
 20
-5.187505078110574
 30
0.0
 10
2.771838931052982
 20
-4.978098578126946
 30
0.0
 10
3.646244994158377
 20
-4.756144678743852
 30
0.0
 10
4.087718435750716
 20
-4.641101709074121
 30
0.0
 10
4.725949579784
 20
-4.469274344723885
 30
0.0
 10
5.371020577275273
 20
-4.288890572003879
 30
0.0
 10
5.539802065091663
 20
-4.24124706081443
 30
0.0
 10
6.19741517231658
 20
-4.05392380602893
 30
0.0
 10
6.854322672293262
 20
-3.860187466813385
 30
0.0
 10
7.347766971979352
 20
-3.711148723904216
 30
0.0
 10
7.840814519541325
 20
-3.559032776084507
 30
0.0
 10
8.333535150472116
 20
-3.404160851539529
 30
0.0
  0
LINE
  5
ADA
330
18
100
AcDbEntity
  8
1
 48
0.004687
100
AcDbLine
 10
0.4618350495173189
 20
-5.50304574040598
 30
0.0
 11
0.5968330495173149
 21
-5.633155740405983
 31
0.0
  0
LINE
  5
ADB
330
18
100
AcDbEntity
  8
1
 48
0.004724
100
AcDbLine
 10
0.3000000495173083
 20
-5.405513740405978
 30
0.0
 11
0.4618350495173189
 21
-5.503044740405981
 31
0.0
  0
LINE
  5
ADC
330
18
100
AcDbEntity
  8
1
 48
0.004651
100
AcDbLine
 10
0.3000000495173083
 20
0.7246412595940229
 30
0.0
 11
0.4618350495173189
 21
0.6328792595940059
 31
0.0
  0
SPLINE
  5
ADD
330
18
100
AcDbEntity
  8
1
100
AcDbSpline
210
0.0
220
0.0
230
1.0
 70
     8
 71
     5
 72
    15
 73
     9
 74
     0
 42
0.000000001
 43
0.0000000001
 40
0.0
 40
0.0
 40
0.0
 40
0.0
 40
0.0
 40
0.0
 40
8.857566013810256
 40
8.857566013810256
 40
8.857566013810256
 40
14.73193317765997
 40
14.73193317765997
 40
14.73193317765997
 40
14.73193317765997
 40
14.73193317765997
 40
14.73193317765997
 10
0.461834860695902
 20
0.6328791105646589
 30
0.0
 10
1.407392945794566
 20
0.9755054768848479
 30
0.0
 10
2.354546510397951
 20
1.317093907728747
 30
0.0
 10
3.260923460991348
 20
1.639667112937274
 30
0.0
 10
4.841306803549628
 20
2.192960535637553
 30
0.0
 10
6.426716426433627
 20
2.727585696351923
 30
0.0
 10
7.066084944681107
 20
2.939409760778572
 30
0.0
 10
7.699418216614432
 20
3.144774920130998
 30
0.0
 10
8.33353555014311
 20
3.345253634697598
 30
0.0
  0
LINE
  5
ADE
330
18
100
AcDbEntity
  8
1
 48
0.000748
100
AcDbLine
 10
8.333535049517307
 20
3.345253259594016
 30
0.0
 11
8.348095049517311
 21
3.371390259594022
 31
0.0
  0
SPLINE
  5
ADF
330
18
100
AcDbEntity
  8
1
100
AcDbSpline
210
0.0
220
0.0
230
1.0
 70
     8
 71
     5
 72
    21
 73
    15
 74
     0
 42
0.000000001
 43
0.0000000001
 40
0.0
 40
0.0
 40
0.0
 40
0.0
 40
0.0
 40
0.0
 40
2.657743690836821
 40
2.657743690836821
 40
2.657743690836821
 40
3.534020437405946
 40
3.534020437405946
 40
3.534020437405946
 40
4.285364694476927
 40
4.285364694476927
 40
4.285364694476927
 40
4.426975936382198
 40
4.426975936382198
 40
4.426975936382198
 40
4.426975936382198
 40
4.426975936382198
 40
4.426975936382198
 10
8.348094881431876
 20
3.371390054111145
 30
0.0
 10
8.308941194069927
 20
3.617475364031633
 30
0.0
 10
8.265615616071386
 20
3.864199617264602
 30
0.0
 10
8.216402877247915
 20
4.111158397533927
 30
0.0
 10
8.139906672003817
 20
4.441335116911318
 30
0.0
 10
8.038145197426118
 20
4.772513891566403
 30
0.0
 10
8.011181949954377
 20
4.854682399957822
 30
0.0
 10
7.957299278880169
 20
5.007322192429967
 30
0.0
 10
7.895058989594033
 20
5.160278137900603
 30
0.0
 10
7.864290623904267
 20
5.231085751417706
 30
0.0
 10
7.825236701936232
 20
5.314803013327946
 30
0.0
 10
7.78251648217126
 20
5.39846582465384
 30
0.0
 10
7.775646407958133
 20
5.411733864053701
 30
0.0
 10
7.768679144497043
 20
5.425001866860952
 30
0.0
 10
7.761611934233513
 20
5.438271334646683
 30
0.0
  0
LINE
  5
AE0
330
18
100
AcDbEntity
  8
1
 48
0.010398
100
AcDbLine
 10
7.761612049517307
 20
5.438269259593994
 30
0.0
 11
7.346619049517316
 21
5.465940259593992
 31
0.0
  0
ARC
  5
AE1
330
18
100
AcDbEntity
  8
1
100
AcDbCircle
 10
17.7888170495173
 20
94.83010225959395
 30
0.0
 40
89.95245399999998
100
AcDbArc
 50
263.5998080000002
 51
264.4010320000002
  0
LINE
  5
AE2
330
18
100
AcDbEntity
  8
1
 48
0.006845
100
AcDbLine
 10
6.587378049517312
 20
5.469219259594011
 30
0.0
 11
6.317110049517307
 21
5.513065259593986
 31
0.0
  0
LINE
  5
AE3
330
18
100
AcDbEntity
  8
1
 48
0.008086
100
AcDbLine
 10
6.629313049517307
 20
5.466772259593994
 30
0.0
 11
6.310030049517306
 21
5.518434259594013
 31
0.0
  0
LINE
  5
AE4
330
18
100
AcDbEntity
  8
1
 48
0.027183
100
AcDbLine
 10
6.785616049517315
 20
-0.2026137404059796
 30
0.0
 11
7.826547049517317
 21
0.1116242595940093
 31
0.0
  0
LINE
  5
AE5
330
18
100
AcDbEntity
  8
1
 48
0.014628
100
AcDbLine
 10
7.346619049517316
 20
-0.3688587404059831
 30
0.0
 11
6.785616049517315
 21
-0.2026137404059796
 31
0.0
  0
LINE
  5
AE6
330
18
100
AcDbEntity
  8
1
 48
0.010375
100
AcDbLine
 10
7.761612049517307
 20
-0.372441740405975
 30
0.0
 11
7.346619049517316
 21
-0.3688587404059831
 31
0.0
  0
SPLINE
  5
AE7
330
18
100
AcDbEntity
  8
1
100
AcDbSpline
210
0.0
220
0.0
230
1.0
 70
     8
 71
     5
 72
    30
 73
    24
 74
     0
 42
0.000000001
 43
0.0000000001
 40
0.0
 40
0.0
 40
0.0
 40
0.0
 40
0.0
 40
0.0
 40
9.031338072933481
 40
9.031338072933481
 40
9.031338072933481
 40
11.29262983422716
 40
11.29262983422716
 40
11.29262983422716
 40
11.6157029281039
 40
11.6157029281039
 40
11.6157029281039
 40
11.69649535419696
 40
11.69649535419696
 40
11.69649535419696
 40
12.82758870447201
 40
12.82758870447201
 40
12.82758870447201
 40
12.90838158926608
 40
12.90838158926608
 40
12.90838158926608
 40
12.91033975030519
 40
12.91033975030519
 40
12.91033975030519
 40
12.91033975030519
 40
12.91033975030519
 40
12.91033975030519
 10
0.3000000495164983
 20
-2.762353350470903
 30
0.0
 10
1.28769793580416
 20
-2.44663779540832
 30
0.0
 10
2.27503377001166
 20
-2.121759961881934
 30
0.0
 10
3.261066693109298
 20
-1.789260392415485
 30
0.0
 10
4.492923072433768
 20
-1.365983653211172
 30
0.0
 10
5.724770451562745
 20
-0.9371208099660179
 30
0.0
 10
5.971264010418677
 20
-0.8508907995329764
 30
0.0
 10
6.253095392816147
 20
-0.7522679378402586
 30
0.0
 10
6.534976827168847
 20
-0.6535215550229623
 30
0.0
 10
6.57034651282056
 20
-0.6412918351696817
 30
0.0
 10
6.614232937597805
 20
-0.6257082002530865
 30
0.0
 10
6.658326763801807
 20
-0.6103056760917413
 30
0.0
 10
6.667305925644853
 20
-0.6073655037500885
 30
0.0
 10
6.79948968185458
 20
-0.5610270448828488
 30
0.0
 10
6.931669220258682
 20
-0.5146527597456158
 30
0.0
 10
7.055032434765037
 20
-0.4713422606513973
 30
0.0
 10
7.187201935561857
 20
-0.4249119176829482
 30
0.0
 10
7.319364798678051
 20
-0.3784573296529174
 30
0.0
 10
7.327820413204975
 20
-0.3750544466242331
 30
0.0
 10
7.336817927996563
 20
-0.3718590143752181
 30
0.0
 10
7.345841616325443
 20
-0.3686861049122285
 30
0.0
 10
7.346055157877612
 20
-0.3686110333605371
 30
0.0
 10
7.34626870362473
 20
-0.3685359653871387
 30
0.0
 10
7.346482249766182
 20
-0.3684608977086441
 30
0.0
  0
LINE
  5
AE8
330
18
100
AcDbEntity
  8
1
 48
0.00769
100
AcDbLine
 10
0.3000000495173083
 20
0.3227422595940084
 30
0.0
 11
0.5969120495173144
 21
0.403061259593983
 31
0.0
  0
ARC
  5
AE9
330
18
100
AcDbEntity
  8
1
100
AcDbCircle
 10
-3.873180950482691
 20
-2.07072974040602
 30
0.0
 40
5.108991
100
AcDbArc
 50
28.96312199999941
 51
31.9504570000002
  0
ARC
  5
AEA
330
18
100
AcDbEntity
  8
1
100
AcDbCircle
 10
43.14526304951732
 20
-81.32611674040601
 30
0.0
 40
91.38810799999999
100
AcDbArc
 50
112.3534830000006
 51
112.937455999999
  0
ARC
  5
AEB
330
18
100
AcDbEntity
  8
1
100
AcDbCircle
 10
10.97182104951731
 20
4.224128259594007
 30
0.0
 40
2.780825
100
AcDbArc
 50
198.424134
 51
201.7284779999987
  0
ARC
  5
AEC
330
18
100
AcDbEntity
  8
1
100
AcDbCircle
 10
137.6533750495173
 20
-375.571743740406
 30
0.0
 40
400.176657
100
AcDbArc
 50
109.5079110000017
 51
110.0286340000015
  0
ARC
  5
AED
330
18
100
AcDbEntity
  8
1
100
AcDbCircle
 10
64.23986304951731
 20
-168.2675287404059
 30
0.0
 40
180.256852
100
AcDbArc
 50
108.3373689999995
 51
109.5165910000017
  0
LINE
  5
AEE
330
18
100
AcDbEntity
  8
1
 48
0.027585
100
AcDbLine
 10
9.47000004951731
 20
3.413695259594021
 30
0.0
 11
8.388572049517307
 21
3.194641259593993
 31
0.0
  0
LINE
  5
AEF
330
18
100
AcDbEntity
  8
1
 48
0.005547
100
AcDbLine
 10
9.47000004951731
 20
3.413695259594021
 30
0.0
 11
9.47000004951731
 21
3.635560259594001
 31
0.0
  0
LINE
  5
AF0
330
18
100
AcDbEntity
  8
1
 48
0.028815
100
AcDbLine
 10
9.47000004951731
 20
3.635559259594001
 30
0.0
 11
8.348095049517311
 21
3.371390259594022
 31
0.0
  0
LINE
  5
AF1
330
18
100
AcDbEntity
  8
1
 48
0.019544
100
AcDbLine
 10
9.47000004951731
 20
3.635559259594001
 30
0.0
 11
9.47000004951731
 21
4.417324259594009
 31
0.0
  0
LINE
  5
AF2
330
18
100
AcDbEntity
  8
1
 48
0.027268
100
AcDbLine
 10
7.820355049517316
 20
0.1156952595940197
 30
0.0
 11
6.776176049517302
 21
-0.1994877404059707
 31
0.0
  0
LINE
  5
AF3
330
18
100
AcDbEntity
  8
1
 48
0.000247
100
AcDbLine
 10
6.785616049517315
 20
-0.2026137404059796
 30
0.0
 11
6.776217049517311
 21
-0.1995577404060214
 31
0.0
  0
SPLINE
  5
AF4
330
18
100
AcDbEntity
  8
1
100
AcDbSpline
210
0.0
220
0.0
230
1.0
 70
     8
 71
     5
 72
    18
 73
    12
 74
     0
 42
0.000000001
 43
0.0000000001
 40
0.0
 40
0.0
 40
0.0
 40
0.0
 40
0.0
 40
0.0
 40
0.4079275861139326
 40
0.4079275861139326
 40
0.4079275861139326
 40
0.8181119718762602
 40
0.8181119718762602
 40
0.8181119718762602
 40
1.022438564844372
 40
1.022438564844372
 40
1.022438564844372
 40
1.022438564844372
 40
1.022438564844372
 40
1.022438564844372
 10
6.31711046389276
 20
0.1360253370239093
 30
0.0
 10
6.339176081449791
 20
0.0961188043653465
 30
0.0
 10
6.366058063432986
 20
0.0583321833906325
 30
0.0
 10
6.397148070000637
 20
0.0236792840356657
 30
0.0
 10
6.465164953908552
 20
-0.0395015692300831
 30
0.0
 10
6.542383806154432
 20
-0.0914704338830461
 30
0.0
 10
6.582511043454117
 20
-0.1148158304542335
 30
0.0
 10
6.644542567354902
 20
-0.1465962716214904
 30
0.0
 10
6.708610380680992
 20
-0.1739507746467552
 30
0.0
 10
6.732939964408856
 20
-0.1836884737992932
 30
0.0
 10
6.754527263089157
 20
-0.1918316739997863
 30
0.0
 10
6.776217062920792
 20
-0.1995579727241647
 30
0.0
  0
ARC
  5
AF5
330
18
100
AcDbEntity
  8
1
100
AcDbCircle
 10
6.368167049517307
 20
0.1639292595939992
 30
0.0
 40
0.058195
100
AcDbArc
 50
184.4944259999997
 51
208.6580440000001
  0
SPLINE
  5
AF6
330
18
100
AcDbEntity
  8
1
100
AcDbSpline
210
0.0
220
0.0
230
1.0
 70
     8
 71
     5
 72
    45
 73
    39
 74
     0
 42
0.000000001
 43
0.0000000001
 40
0.0
 40
0.0
 40
0.0
 40
0.0
 40
0.0
 40
0.0
 40
0.0562620681257863
 40
0.0562620681257863
 40
0.0562620681257863
 40
1.125244449882208
 40
1.125244449882208
 40
1.125244449882208
 40
1.917747626239956
 40
1.917747626239956
 40
1.917747626239956
 40
2.695899481215283
 40
2.695899481215283
 40
2.695899481215283
 40
4.237500139441752
 40
4.237500139441752
 40
4.237500139441752
 40
5.007998236677835
 40
5.007998236677835
 40
5.007998236677835
 40
5.394305788690652
 40
5.394305788690652
 40
5.394305788690652
 40
5.780613340703467
 40
5.780613340703467
 40
5.780613340703467
 40
6.549861426308455
 40
6.549861426308455
 40
6.549861426308455
 40
7.062717987065777
 40
7.062717987065777
 40
7.062717987065777
 40
7.405054956042115
 40
7.405054956042115
 40
7.405054956042115
 40
7.721252571284273
 40
7.721252571284273
 40
7.721252571284273
 40
7.721252571284273
 40
7.721252571284273
 40
7.721252571284273
 10
9.469999834175483
 20
2.703724223382834
 30
0.0
 10
9.464143450137866
 20
2.701240862931398
 30
0.0
 10
9.4582125321361
 20
2.698603669447038
 30
0.0
 10
9.452420290253472
 20
2.696240073734315
 30
0.0
 10
9.335272820342213
 20
2.646270275288713
 30
0.0
 10
9.218566518147042
 20
2.595541858062173
 30
0.0
 10
9.107231096910522
 20
2.546227723122509
 30
0.0
 10
8.914775169892164
 20
2.45930382932272
 30
0.0
 10
8.72448292957965
 20
2.370134710285753
 30
0.0
 10
8.653559609478277
 20
2.336383576154728
 30
0.0
 10
8.495061097929266
 20
2.259751698123009
 30
0.0
 10
8.337725493230253
 20
2.180911897415001
 30
0.0
 10
8.263798095283204
 20
2.143200334243545
 30
0.0
 10
8.031577513593871
 20
2.022424171847998
 30
0.0
 10
7.802428270471677
 20
1.895613391264815
 30
0.0
 10
7.651446665900406
 20
1.808022441389594
 30
0.0
 10
7.429316781603702
 20
1.671994728504273
 30
0.0
 10
7.214732180163863
 20
1.526580774354783
 30
0.0
 10
7.144145135949527
 20
1.476965629048548
 30
0.0
 10
7.038713094637074
 20
1.399622745680855
 30
0.0
 10
6.936347573705062
 20
1.31895441197173
 30
0.0
 10
6.902612739673442
 20
1.291683990193745
 30
0.0
 10
6.836170014604035
 20
1.236468329425292
 30
0.0
 10
6.771445652112548
 20
1.179389863482014
 30
0.0
 10
6.739522777619297
 20
1.15032111491257
 30
0.0
 10
6.645800941630355
 20
1.062015209073648
 30
0.0
 10
6.557444993020496
 20
0.9686014753589232
 30
0.0
 10
6.500802151478481
 20
0.902948068043088
 30
0.0
 10
6.413856523678417
 20
0.7898212684142436
 30
0.0
 10
6.342792574204096
 20
0.6669330349650977
 30
0.0
 10
6.317355543814286
 20
0.6157768244239607
 30
0.0
 10
6.282017704886142
 20
0.5279134193210098
 30
0.0
 10
6.262440016815091
 20
0.4359774139900311
 30
0.0
 10
6.257603732621902
 20
0.3987310804814683
 30
0.0
 10
6.255232767142357
 20
0.3260709949020679
 30
0.0
 10
6.268174524235021
 20
0.2549370255934491
 30
0.0
 10
6.278416979662694
 20
0.2209971665903936
 30
0.0
 10
6.292642916170207
 20
0.1890908383383589
 30
0.0
 10
6.310139884444552
 20
0.1593686480980523
 30
0.0
  0
LINE
  5
AF7
330
18
100
AcDbEntity
  8
1
 48
0.001815
100
AcDbLine
 10
9.47000004951731
 20
2.703723259594028
 30
0.0
 11
9.47000004951731
 21
2.776327259593982
 31
0.0
  0
SPLINE
  5
AF8
330
18
100
AcDbEntity
  8
1
100
AcDbSpline
210
0.0
220
0.0
230
1.0
 70
     8
 71
     5
 72
    12
 73
     6
 74
     0
 42
0.000000001
 43
0.0000000001
 40
0.0
 40
0.0
 40
0.0
 40
0.0
 40
0.0
 40
0.0
 40
13.63146291945546
 40
13.63146291945546
 40
13.63146291945546
 40
13.63146291945546
 40
13.63146291945546
 40
13.63146291945546
 10
0.3000000495173083
 20
-0.0284591339498661
 30
0.0
 10
2.133473789755853
 20
0.5551382826633358
 30
0.0
 10
3.966898299177927
 20
1.139061998219403
 30
0.0
 10
5.78870505478217
 20
1.7078419487417
 30
0.0
 10
7.627119356633597
 20
2.258715396903709
 30
0.0
 10
9.469963186916302
 20
2.776317097754769
 30
0.0
  0
LINE
  5
AF9
330
18
100
AcDbEntity
  8
1
 48
0.006828
100
AcDbLine
 10
9.469972049517306
 20
3.049467259593996
 30
0.0
 11
9.47000004951731
 21
2.776328259593979
 31
0.0
  0
LINE
  5
AFA
330
18
100
AcDbEntity
  8
1
 48
0.017438
100
AcDbLine
 10
9.469971049517312
 20
3.049470259593986
 30
0.0
 11
8.814779049517312
 21
2.810210259593985
 31
0.0
  0
ARC
  5
AFB
330
18
100
AcDbEntity
  8
1
100
AcDbCircle
 10
6.136899049517307
 20
9.981947259593994
 30
0.0
 40
7.654838999999999
100
AcDbArc
 50
285.5981549999989
 51
290.4753010000018
  0
SPLINE
  5
AFC
330
18
100
AcDbEntity
  8
1
100
AcDbSpline
210
0.0
220
0.0
230
1.0
 70
     8
 71
     5
 72
    30
 73
    24
 74
     0
 42
0.000000001
 43
0.0000000001
 40
0.0
 40
0.0
 40
0.0
 40
0.0
 40
0.0
 40
0.0
 40
1.143055590065665
 40
1.143055590065665
 40
1.143055590065665
 40
1.427948974566884
 40
1.427948974566884
 40
1.427948974566884
 40
1.923893267960074
 40
1.923893267960074
 40
1.923893267960074
 40
2.327856194283965
 40
2.327856194283965
 40
2.327856194283965
 40
2.639511746050121
 40
2.639511746050121
 40
2.639511746050121
 40
2.797369516380918
 40
2.797369516380918
 40
2.797369516380918
 40
2.95522728671172
 40
2.95522728671172
 40
2.95522728671172
 40
2.95522728671172
 40
2.95522728671172
 40
2.95522728671172
 10
7.808517998270062
 20
2.692997274019318
 30
0.0
 10
7.810786654938012
 20
2.680146310118459
 30
0.0
 10
7.810860013873195
 20
2.666118111885563
 30
0.0
 10
7.808749807796186
 20
2.650001958637913
 30
0.0
 10
7.803168437320407
 20
2.62691372984892
 30
0.0
 10
7.796964828447482
 20
2.601586585733115
 30
0.0
 10
7.795731205700079
 20
2.596404290346014
 30
0.0
 10
7.792626302512544
 20
2.582366062752269
 30
0.0
 10
7.790817368182969
 20
2.568432573461107
 30
0.0
 10
7.790559998497257
 20
2.55948673945977
 30
0.0
 10
7.793701933286797
 20
2.542460334672171
 30
0.0
 10
7.811732942932547
 20
2.529814360090028
 30
0.0
 10
7.824692582792636
 20
2.525223777345273
 30
0.0
 10
7.862954524892487
 20
2.523386011119896
 30
0.0
 10
7.923383683833606
 20
2.533088775587373
 30
0.0
 10
7.953426597849315
 20
2.539468646709734
 30
0.0
 10
8.001447240836512
 20
2.551185759532583
 30
0.0
 10
8.052533738088257
 20
2.565493754111002
 30
0.0
 10
8.069523327570507
 20
2.570383021131476
 30
0.0
 10
8.104741456106509
 20
2.580847804253608
 30
0.0
 10
8.141125332234706
 20
2.592151300246481
 30
0.0
 10
8.159472855014954
 20
2.597942028368775
 30
0.0
 10
8.177085459308557
 20
2.603610213774059
 30
0.0
 10
8.195074766930858
 20
2.609473654780115
 30
0.0
  0
LINE
  5
AFD
330
18
100
AcDbEntity
  8
1
 48
0.000148
100
AcDbLine
 10
7.813515049517306
 20
2.69618325959402
 30
0.0
 11
7.808518049517302
 21
2.692997259593993
 31
0.0
  0
SPLINE
  5
AFE
330
18
100
AcDbEntity
  8
1
100
AcDbSpline
210
0.0
220
0.0
230
1.0
 70
     8
 71
     5
 72
    42
 73
    36
 74
     0
 42
0.000000001
 43
0.0000000001
 40
0.0
 40
0.0
 40
0.0
 40
0.0
 40
0.0
 40
0.0
 40
0.0707795355231944
 40
0.0707795355231944
 40
0.0707795355231944
 40
0.5662113050009669
 40
0.5662113050009669
 40
0.5662113050009669
 40
0.8465343611362021
 40
0.8465343611362021
 40
0.8465343611362021
 40
1.126857417271436
 40
1.126857417271436
 40
1.126857417271436
 40
1.266453544967605
 40
1.266453544967605
 40
1.266453544967605
 40
1.685212657460569
 40
1.685212657460569
 40
1.685212657460569
 40
3.757924306207352
 40
3.757924306207352
 40
3.757924306207352
 40
4.852707727472266
 40
4.852707727472266
 40
4.852707727472266
 40
5.137916177198136
 40
5.137916177198136
 40
5.137916177198136
 40
5.414433041732904
 40
5.414433041732904
 40
5.414433041732904
 40
5.531305996427549
 40
5.531305996427549
 40
5.531305996427549
 40
5.531305996427549
 40
5.531305996427549
 40
5.531305996427549
 10
7.529021518073871
 20
2.835769025884983
 30
0.0
 10
7.532726183738787
 20
2.836715354095018
 30
0.0
 10
7.536531407444682
 20
2.837689055269606
 30
0.0
 10
7.540120255204994
 20
2.838595592809156
 30
0.0
 10
7.569467447006187
 20
2.846016532014971
 30
0.0
 10
7.5978081314815
 20
2.852967041019723
 30
0.0
 10
7.621873255168182
 20
2.858694939964436
 30
0.0
 10
7.658352243726625
 20
2.867101518211711
 30
0.0
 10
7.692852552241245
 20
2.874597254584897
 30
0.0
 10
7.704563809086009
 20
2.877091690224741
 30
0.0
 10
7.729554242266217
 20
2.882238401133576
 30
0.0
 10
7.756844273685543
 20
2.887484463324256
 30
0.0
 10
7.77079347045219
 20
2.890067963796582
 30
0.0
 10
7.790136131632451
 20
2.893506004013545
 30
0.0
 10
7.806707126532955
 20
2.896245134433796
 30
0.0
 10
7.811873859437339
 20
2.897073257530108
 30
0.0
 10
7.831547924755867
 20
2.900131450090498
 30
0.0
 10
7.850077904434442
 20
2.902683145517642
 30
0.0
 10
7.863326290346607
 20
2.904309521277411
 30
0.0
 10
7.938181572602727
 20
2.912249723471859
 30
0.0
 10
7.989239360246513
 20
2.909827498738933
 30
0.0
 10
8.014550436759916
 20
2.900208118134685
 30
0.0
 10
8.024495618539376
 20
2.874392916506906
 30
0.0
 10
7.992746446917592
 20
2.831804434726393
 30
0.0
 10
7.976312096824767
 20
2.814896543378154
 30
0.0
 10
7.9492876889209
 20
2.791150857584397
 30
0.0
 10
7.913469868164212
 20
2.76403267276646
 30
0.0
 10
7.907049492615115
 20
2.759272275801436
 30
0.0
 10
7.889238846323124
 20
2.746498446544989
 30
0.0
 10
7.868110589091173
 20
2.731963072417328
 30
0.0
 10
7.857213808916384
 20
2.724587350087516
 30
0.0
 10
7.841935243356161
 20
2.714429767363582
 30
0.0
 10
7.826914191838511
 20
2.704713661785035
 30
0.0
 10
7.82247215285541
 20
2.701864653635141
 30
0.0
 10
7.818025786212714
 20
2.699035686027627
 30
0.0
 10
7.813514651648275
 20
2.696183205589022
 30
0.0
  0
ARC
  5
AFF
330
18
100
AcDbEntity
  8
1
100
AcDbCircle
 10
-64.5654559504827
 20
172.3174342595941
 30
0.0
 40
184.417971
100
AcDbArc
 50
293.1083950000017
 51
293.6691479999995
  0
LINE
  5
B00
330
18
100
AcDbEntity
  8
1
 48
0.000026
100
AcDbLine
 10
9.47000004951731
 20
3.412905259594026
 30
0.0
 11
9.47000004951731
 21
3.411847259594026
 31
0.0
  0
LINE
  5
B01
330
18
100
AcDbEntity
  8
1
 48
0.006248
100
AcDbLine
 10
9.47000004951731
 20
3.411847259594026
 30
0.0
 11
9.47000004951731
 21
3.161908259593984
 31
0.0
  0
LINE
  5
B02
330
18
100
AcDbEntity
  8
1
 48
0.001663
100
AcDbLine
 10
9.47000004951731
 20
3.095380259593977
 30
0.0
 11
9.47000004951731
 21
3.161908259593984
 31
0.0
  0
LINE
  5
B03
330
18
100
AcDbEntity
  8
1
 48
0.001149
100
AcDbLine
 10
9.47000004951731
 20
3.04942425959399
 30
0.0
 11
9.47000004951731
 21
3.095379259593982
 31
0.0
  0
LINE
  5
B04
330
18
100
AcDbEntity
  8
1
 48
0.023525
100
AcDbLine
 10
9.47000004951731
 20
2.703724259594025
 30
0.0
 11
9.47000004951731
 21
1.762706259593983
 31
0.0
  0
ARC
  5
B05
330
18
100
AcDbEntity
  8
1
100
AcDbCircle
 10
-38.82295195048269
 20
152.4801252595939
 30
0.0
 40
158.891001
100
AcDbArc
 50
286.5047310000017
 51
287.0255170000003
  0
ARC
  5
B06
330
18
100
AcDbEntity
  8
1
100
AcDbCircle
 10
-38.78595895048269
 20
152.374114259594
 30
0.0
 40
158.754177
100
AcDbArc
 50
286.5027729999997
 51
287.0266729999991
  0
LINE
  5
B07
330
18
100
AcDbEntity
  8
1
 48
0.017864
100
AcDbLine
 10
9.470005049517311
 20
3.095371259594001
 30
0.0
 11
8.81481804951731
 21
2.810166259593982
 31
0.0
  0
ARC
  5
B08
330
18
100
AcDbEntity
  8
1
100
AcDbCircle
 10
-64.73525195048267
 20
172.659522259594
 30
0.0
 40
185.029321
100
AcDbArc
 50
293.2133149999991
 51
293.6435750000019
  0
ARC
  5
B09
330
18
100
AcDbEntity
  8
1
100
AcDbCircle
 10
-64.5677419504827
 20
172.3218342595939
 30
0.0
 40
184.4238879999999
100
AcDbArc
 50
293.1066949999992
 51
293.6691179999986
  0
ARC
  5
B0A
330
18
100
AcDbEntity
  8
1
100
AcDbCircle
 10
8.660717049517316
 20
0.0702812595940259
 30
0.0
 40
1.169094999999997
100
AcDbArc
 50
92.32731600000059
 51
102.9129579999994
  0
LINE
  5
B0B
330
18
100
AcDbEntity
  8
1
 48
0.00844
100
AcDbLine
 10
8.95008604951731
 20
1.261146259593999
 30
0.0
 11
8.613228049517301
 21
1.238760259594014
 31
0.0
  0
ARC
  5
B0C
330
18
100
AcDbEntity
  8
1
100
AcDbCircle
 10
8.746124049517304
 20
4.402753259594021
 30
0.0
 40
3.148204999999998
100
AcDbArc
 50
273.714593
 51
276.9019529999994
  0
LINE
  5
B0D
330
18
100
AcDbEntity
  8
1
 48
0.000219
100
AcDbLine
 10
9.133154049517317
 20
1.278450259594023
 30
0.0
 11
9.124444049517306
 21
1.277377259594004
 31
0.0
  0
ARC
  5
B0E
330
18
100
AcDbEntity
  8
1
100
AcDbCircle
 10
10.08971304951731
 20
0.5597612595939836
 30
0.0
 40
0.8611869999999999
100
AcDbArc
 50
152.5472619999997
 51
160.6721470000015
  0
ARC
  5
B0F
330
18
100
AcDbEntity
  8
1
100
AcDbCircle
 10
10.08971304951731
 20
-0.5597607404059774
 30
0.0
 40
0.8611869999999999
100
AcDbArc
 50
199.3278529999985
 51
207.4527380000003
  0
ARC
  5
B10
330
18
100
AcDbEntity
  8
1
100
AcDbCircle
 10
9.080382049517311
 20
1.699383259594014
 30
0.0
 40
0.424256
100
AcDbArc
 50
277.145829
 51
321.6851860000008
  0
LINE
  5
B11
330
18
100
AcDbEntity
  8
1
 48
0.005393
100
AcDbLine
 10
9.329648049517302
 20
0.9639442595940296
 30
0.0
 11
9.433240049517305
 21
1.153160259594017
 31
0.0
  0
LINE
  5
B12
330
18
100
AcDbEntity
  8
1
 48
0.005393
100
AcDbLine
 10
9.329648049517302
 20
-0.9639437404060231
 30
0.0
 11
9.433240049517305
 21
-1.15315974040601
 31
0.0
  0
ARC
  5
B13
330
18
100
AcDbEntity
  8
1
100
AcDbCircle
 10
-0.1999999504826917
 20
5.750000259594003
 30
0.0
 40
0.5
100
AcDbArc
 50
311.983634000002
 51
359.9999949999995
  0
ARC
  5
B14
330
18
100
AcDbEntity
  8
1
100
AcDbCircle
 10
1.472296049517311
 20
3.891659259594006
 30
0.0
 40
2.000000999999999
100
AcDbArc
 50
131.983624000002
 51
137.4042860000001
  0
ARC
  5
B15
330
18
100
AcDbEntity
  8
1
100
AcDbCircle
 10
-0.1999999504826917
 20
-5.749999740405995
 30
0.0
 40
0.5
100
AcDbArc
 50
0.0000050000005032
 51
48.01636599999802
  0
ARC
  5
B16
330
18
100
AcDbEntity
  8
1
100
AcDbCircle
 10
1.472296049517311
 20
-3.891658740406001
 30
0.0
 40
2.000000999999999
100
AcDbArc
 50
222.5957139999999
 51
228.016375999998
  0
ARC
  5
B17
330
18
100
AcDbEntity
  8
SK1
100
AcDbCircle
 10
-0.2999999504826861
 20
4.235966259594022
 30
0.0
 40
0.3
100
AcDbArc
 50
273.0000030000005
 51
359.9999980000005
  0
ARC
  5
B18
330
18
100
AcDbEntity
  8
SK1
100
AcDbCircle
 10
-0.2999999504826861
 20
-4.235965740406014
 30
0.0
 40
0.3
100
AcDbArc
 50
0.0000019999995499
 51
86.99999699999956
  0
LINE
  5
B19
330
18
100
AcDbEntity
  8
SK1
 48
0.047958
100
AcDbLine
 10
-2.199999950482689
 20
3.835979259594012
 30
0.0
 11
-0.2842989504826931
 21
3.936377259593995
 31
0.0
  0
LINE
  5
B1A
330
18
100
AcDbEntity
  8
SK1
 48
0.047958
100
AcDbLine
 10
-2.199999950482689
 20
-3.835978740406004
 30
0.0
 11
-0.2842989504826931
 21
-3.936376740405988
 31
0.0
  0
LINE
  5
B1B
102
{ACAD_REACTORS
330
B31
102
}
330
18
100
AcDbEntity
  8
SK1
 48
0.007765
100
AcDbLine
 10
-2.499999950482687
 20
3.755595259593973
 30
0.0
 11
-2.199999950482689
 21
3.835979259594012
 31
0.0
  0
LINE
  5
B1C
102
{ACAD_REACTORS
330
B31
102
}
330
18
100
AcDbEntity
  8
SK1
 48
0.007765
100
AcDbLine
 10
-2.499999950482687
 20
-3.755594740405966
 30
0.0
 11
-2.199999950482689
 21
-3.835978740406004
 31
0.0
  0
LINE
  5
B1D
330
18
100
AcDbEntity
  8
1
 48
0.000855
100
AcDbLine
 10
2.458539049517312
 20
6.402648259594003
 30
0.0
 11
2.424460049517306
 21
6.399600259594022
 31
0.0
  0
LINE
  5
B1E
330
18
100
AcDbEntity
  8
1
 48
0.000393
100
AcDbLine
 10
2.458539049517312
 20
-6.402647740405996
 30
0.0
 11
2.442922049517306
 21
-6.401008740405982
 31
0.0
  0
LINE
  5
B1F
330
18
100
AcDbEntity
  8
1
 48
0.020822
100
AcDbLine
 10
7.992133049517303
 20
5.873685259594027
 30
0.0
 11
7.160506049517307
 21
5.828348259594007
 31
0.0
  0
LINE
  5
B20
330
18
100
AcDbEntity
  8
1
 48
0.03255
100
AcDbLine
 10
9.47000004951731
 20
-2.82661874040599
 30
0.0
 11
8.38857104951731
 21
-3.551710740406008
 31
0.0
  0
ARC
  5
B21
330
18
100
AcDbEntity
  8
1
100
AcDbCircle
 10
-16.62493095048269
 20
59.46049925959409
 30
0.0
 40
67.795381
100
AcDbArc
 50
290.8716799999995
 51
291.6512360000009
  0
SPLINE
  5
B22
330
18
100
AcDbEntity
  8
1
100
AcDbSpline
210
0.0
220
0.0
230
1.0
 70
     8
 71
     5
 72
    15
 73
     9
 74
     0
 42
0.000000001
 43
0.0000000001
 40
0.0
 40
0.0
 40
0.0
 40
0.0
 40
0.0
 40
0.0
 40
6.187405449675511
 40
6.187405449675511
 40
6.187405449675511
 40
12.42667434962192
 40
12.42667434962192
 40
12.42667434962192
 40
12.42667434962192
 40
12.42667434962192
 40
12.42667434962192
 10
0.5968328902055049
 20
-5.633155913338271
 30
0.0
 10
1.270944874386572
 20
-5.497975214459471
 30
0.0
 10
1.944688575063054
 20
-5.353572810433091
 30
0.0
 10
2.645195995739126
 20
-5.194547377826721
 30
0.0
 10
4.059962082065098
 20
-4.853608564290141
 30
0.0
 10
5.472212521916373
 20
-4.478077552392504
 30
0.0
 10
6.178147833094342
 20
-4.281757047747703
 30
0.0
 10
6.853914557796954
 20
-4.087092735349131
 30
0.0
 10
7.528948860698107
 20
-3.886195639447919
 30
0.0
  0
LINE
  5
B23
330
18
100
AcDbEntity
  8
1
 48
0.007829
100
AcDbLine
 10
0.2999500495173066
 20
-5.533465740405971
 30
0.0
 11
0.5968330495173149
 21
-5.633154740405982
 31
0.0
  0
ARC
  5
B24
330
18
100
AcDbEntity
  8
1
100
AcDbCircle
 10
22.98581604951731
 20
-36.893354740406
 30
0.0
 40
33.492191
100
AcDbArc
 50
113.8004239999986
 51
115.8387150000008
  0
LINE
  5
B25
330
18
100
AcDbEntity
  8
1
 48
0.021491
100
AcDbLine
 10
8.38857104951731
 20
-6.749499740406007
 30
0.0
 11
7.528949049517307
 21
-6.749498740406011
 31
0.0
  0
LINE
  5
B26
330
18
100
AcDbEntity
  8
1
 48
0.173303
100
AcDbLine
 10
0.5968330495173149
 20
-6.749499740406007
 30
0.0
 11
7.528949049517307
 21
-6.749499740406007
 31
0.0
  0
LINE
  5
B27
330
18
100
AcDbEntity
  8
1
 48
0.008499
100
AcDbLine
 10
0.2999500495173066
 20
-6.583834740406016
 30
0.0
 11
0.5968330495173149
 21
-6.749498740406011
 31
0.0
  0
LINE
  5
B28
330
18
100
AcDbEntity
  8
SK4
100
AcDbLine
 10
0.000000000003638
 20
0.0000003723309874
 30
0.0
 11
-4.772200378639793
 21
0.0000002595940032
 31
0.0
  0
INSERT
  5
B29
330
18
100
AcDbEntity
  8
SK2
100
AcDbBlockReference
  2
CERO_POINT
 10
0.0
 20
0.0000003723309874
 30
0.0
  0
LWPOLYLINE
  5
B2A
102
{ACAD_REACTORS
330
B2D
102
}
330
18
100
AcDbEntity
  8
CUT
100
AcDbPolyline
 90
        7
 70
     1
 43
0.0
 10
7.528949049517307
 20
6.749500259594015
 10
8.398731966360784
 20
6.749500259781199
 42
0.0125397872937841
 10
9.47000004951731
 20
6.249439455072147
 10
9.47000004951731
 20
0.0000002595940032
 10
0.2699731356651682
 20
0.0000002595940032
 10
0.2699731356651682
 20
6.567107708898048
 10
0.5968330495173149
 20
6.749500259594015
  0
DIMENSION
  5
B2B
102
{ACAD_XDICTIONARY
360
B2C
102
}
102
{ACAD_REACTORS
330
B2D
102
}
330
18
100
AcDbEntity
  8
2
100
AcDbDimension
  2
*D7
 10
0.2699731356651442
 20
21.21409280392038
 30
0.0
 11
18.36766343672742
 21
21.21409280392038
 31
0.0
 70
   160
 71
     5
 42
9.200026913852154
  3
STANDARD
100
AcDbAlignedDimension
 13
9.470000049517295
 23
6.249439455072153
 33
0.0
 14
0.2699731356651434
 24
6.567107708898053
 34
0.0
100
AcDbRotatedDimension
  0
DIMENSION
  5
B2E
330
18
100
AcDbEntity
  8
2
100
AcDbDimension
  2
*D3
 10
29.46906251216474
 20
-6.750499740218804
 30
0.0
 11
29.46906251216474
 21
-4.864589782587471
 31
0.0
 70
   160
  1
%%c<>
 71
     5
 42
13.5
  3
DIAMETER
100
AcDbAlignedDimension
 13
8.398731966360784
 23
6.749500259781199
 33
0.0
 14
8.388731966360793
 24
-6.750499740218797
 34
0.0
 50
90.0
100
AcDbRotatedDimension
1001
ACAD_DSTYLE_DIMINSPECT
1070
   396
1000
100%
1070
   395
1000

1070
   394
1070
    33
1070
   393
1070
     0
  0
DIMENSION
  5
B2F
102
{ACAD_XDICTIONARY
360
B30
102
}
102
{ACAD_REACTORS
330
B31
102
}
330
18
100
AcDbEntity
  8
SK2
100
AcDbDimension
  2
*D8
 10
-9.674072417194773
 20
-3.755594740405963
 30
0.0
 11
-9.674072417194773
 21
0.0000002595940038
 31
0.0
 70
   160
  1
BN5
 71
     5
 42
7.511189999999943
  3
STANDARD
100
AcDbAlignedDimension
 13
-2.499999950482687
 23
3.755595259593973
 33
0.0
 14
-2.499999950482687
 24
-3.755594740405966
 34
0.0
 50
90.0
100
AcDbRotatedDimension
1001
ACAD_DSTYLE_DIMINSPECT
1070
   396
1000
100%
1070
   395
1000

1070
   394
1070
    33
1070
   393
1070
     0
  0
DIMENSION
  5
B32
330
18
100
AcDbEntity
  8
2
100
AcDbDimension
  2
*D4
 10
8.398731966360784
 20
11.82233319611373
 30
0.0
 11
20.94210915200854
 21
11.82233319611373
 31
0.0
 70
   160
 71
     5
 42
1.071268083156525
  3
STANDARD
100
AcDbAlignedDimension
 13
9.47000004951731
 23
6.249439455072147
 33
0.0
 14
8.398731966360784
 24
6.749500259781199
 34
0.0
100
AcDbRotatedDimension
1001
ACAD_DSTYLE_DIMINSPECT
1070
   396
1000
100%
1070
   395
1000

1070
   394
1070
    33
1070
   393
1070
     0
  0
LINE
  5
B33
330
18
100
AcDbEntity
  8
INFTOTAL
100
AcDbLine
 10
5.29096379599825
 20
30.27907970647692
 30
0.0
 11
-40.09641524673392
 21
30.27907970647692
 31
0.0
  0
LINE
  5
B34
330
18
100
AcDbEntity
  8
INFTOTAL
100
AcDbLine
 10
-40.09641524673392
 20
30.27907970647692
 30
0.0
 11
-40.09641524673392
 21
-3.570595259050378
 31
0.0
  0
LINE
  5
B35
330
18
100
AcDbEntity
  8
INFTOTAL
100
AcDbLine
 10
45.91871474454324
 20
-17.56333044462167
 30
0.0
 11
45.91871474454324
 21
-41.39878911554581
 31
0.0
  0
LINE
  5
B36
330
18
100
AcDbEntity
  8
INFTOTAL
100
AcDbLine
 10
45.91871474454324
 20
-41.39878911554581
 30
0.0
 11
9.128512231489523
 21
-41.39878911554581
 31
0.0
  0
DIMENSION
  5
B3B
330
18
100
AcDbEntity
  8
SK2
100
AcDbDimension
  2
*D5
 10
9.467997276813989
 20
6.033883882427857
 30
0.0
 11
-6.349061926294082
 21
13.15510223209651
 31
0.0
 70
   162
 71
     5
 42
0.4363323129985965
  3
STANDARD
100
AcDb2LineAngularDimension
 13
9.47000004951731
 23
6.236076352276652
 33
0.0
 14
9.90360320038296
 24
6.033883882427857
 34
0.0
 15
9.90360320038296
 25
6.033883882427857
 35
0.0
 16
-7.653365360796042
 26
8.605601099645506
 36
0.0
1001
ACAD_DSTYLE_DIMINSPECT
1070
   396
1000
100%
1070
   395
1000

1070
   394
1070
    33
1070
   393
1070
     0
1001
ACAD
1000
DSTYLE
1002
{
1070
   179
1070
     0
1002
}
  0
DIMENSION
  5
B3C
330
18
100
AcDbEntity
  8
2
100
AcDbDimension
  2
*D6
 10
4.487499929883383
 20
0.0000002595940032
 30
0.0
 11
18.9891649376762
 21
3.547967057231516
 31
0.0
 70
   162
 71
     5
 42
0.3490658503988522
  3
STANDARD
100
AcDb2LineAngularDimension
 13
2.903939202455958
 23
0.0000002595940032
 33
0.0
 14
4.487499929883383
 24
0.5763692285304956
 34
0.0
 15
2.903939202455958
 25
0.0000002595940032
 35
0.0
 16
19.26443393987427
 26
1.912267839468099
 36
0.0
1001
ACAD_DSTYLE_DIMINSPECT
1070
   396
1000
100%
1070
   395
1000

1070
   394
1070
    33
1070
   393
1070
     0
1001
ACAD
1000
DSTYLE
1002
{
1070
   179
1070
     0
1002
}
  0
LWPOLYLINE
  5
B3D
330
18
100
AcDbEntity
  8
NOCUT
100
AcDbPolyline
 90
        6
 70
     1
 43
0.0
 10
0.2699731356651682
 20
5.579338903989821
 10
0.2699731356651682
 20
0.0000002595940032
 10
0.0000000495173111
 20
0.0000002595940032
 10
0.0000000495173254
 20
4.235966259594022
 10
0.0000000495173111
 20
5.245301933413426
 42
-0.0236566737825821
 10
0.1344601577226427
 20
5.378333155831398
 42
0.1230447237316963
  0
TEXT
  5
CF4
330
18
100
AcDbEntity
  8
SK6
100
AcDbText
 10
-16.56476943481628
 20
-32.35187931450202
 30
0.0
 40
3.5
  1
XLB13500R71
100
AcDbText
1001
ACAD
1000
MTEXTBEGIN
1070
    73
1070
     1
1070
    44
1040
1.0
1070
    74
1070
     0
1000
MTEXTEND
  0
ENDSEC
  0
SECTION
  2
OBJECTS
  0
DICTIONARY
  5
C
330
0
100
AcDbDictionary
281
     1
  3
ACAD_2007HEADERVARS_RT
350
D4A
  3
ACAD_CIP_PREVIOUS_PRODUCT_INFO
350
741
  3
ACAD_COLOR
350
387
  3
ACAD_DETAILVIEWSTYLE
350
CE3
  3
ACAD_GROUP
350
D
  3
ACAD_LAYOUT
350
301
  3
ACAD_MATERIAL
350
386
  3
ACAD_MLEADERSTYLE
350
43C
  3
ACAD_MLINESTYLE
350
E
  3
ACAD_PLOTSETTINGS
350
302
  3
ACAD_PLOTSTYLENAME
350
2FF
  3
ACAD_SCALELIST
350
41A
  3
ACAD_SECTIONVIEWSTYLE
350
CE1
  3
ACAD_TABLESTYLE
350
388
  3
ACAD_VISUALSTYLE
350
3F2
  3
ACDB_RECOMPOSE_DATA
350
D48
  3
AcDbVariableDictionary
350
357
  3
AcmDictionary
350
76D
  3
AEC_PROPERTY_SET_DEFS
350
5CF
  3
AMG
350
743
  3
AMGSNAPSETTINGS
350
7F6
  3
ASE_INDEX_DICTIONARY
350
69C
  3
DWGPROPS
350
D49
  0
DICTIONARY
  5
451
330
2
100
AcDbDictionary
280
     1
281
     1
  3
ACAD_LAYERFILTERS
360
6C6
  3
ACAD_LAYERSTATES
360
CC0
  3
ACLYDICTIONARY
360
6C5
  0
DICTIONARY
  5
C4E
330
F
100
AcDbDictionary
280
     1
281
     1
  3
ADSK_XREC_LAYER_RECONCILED
360
C4F
  0
DICTIONARY
  5
C50
330
23
100
AcDbDictionary
280
     1
281
     1
  3
ADSK_XREC_LAYER_RECONCILED
360
C51
  0
DICTIONARY
  5
C52
330
24
100
AcDbDictionary
280
     1
281
     1
  3
ADSK_XREC_LAYER_RECONCILED
360
C53
  0
DICTIONARY
  5
C54
330
25
100
AcDbDictionary
280
     1
281
     1
  3
ADSK_XREC_LAYER_RECONCILED
360
C55
  0
DICTIONARY
  5
C56
330
27
100
AcDbDictionary
280
     1
281
     1
  3
ADSK_XREC_LAYER_RECONCILED
360
C57
  0
DICTIONARY
  5
C58
330
2A
100
AcDbDictionary
280
     1
281
     1
  3
ADSK_XREC_LAYER_RECONCILED
360
C59
  0
DICTIONARY
  5
C5A
330
2B
100
AcDbDictionary
280
     1
281
     1
  3
ADSK_XREC_LAYER_RECONCILED
360
C5B
  0
DICTIONARY
  5
C5C
330
2E
100
AcDbDictionary
280
     1
281
     1
  3
ADSK_XREC_LAYER_RECONCILED
360
C5D
  0
DICTIONARY
  5
C5E
330
375
100
AcDbDictionary
280
     1
281
     1
  3
ADSK_XREC_LAYER_RECONCILED
360
C5F
  0
DICTIONARY
  5
C60
330
376
100
AcDbDictionary
280
     1
281
     1
  3
ADSK_XREC_LAYER_RECONCILED
360
C61
  0
DICTIONARY
  5
C62
330
49B
100
AcDbDictionary
280
     1
281
     1
  3
ADSK_XREC_LAYER_RECONCILED
360
C63
  0
DICTIONARY
  5
CF5
330
18
100
AcDbDictionary
280
     1
281
     1
  3
ACAD_SORTENTS
360
CF6
  0
DICTIONARY
  5
6D1
330
6D0
100
AcDbDictionary
280
     1
281
     1
  3
ACAD_SORTENTS
360
6D2
  0
DICTIONARY
  5
CDA
330
BE4
100
AcDbDictionary
280
     1
281
     1
  3
ACAD_MTEXT_RT
360
D8A
  0
DICTIONARY
  5
CDC
330
BEF
100
AcDbDictionary
280
     1
281
     1
  3
ACAD_MTEXT_RT
360
D8B
  0
DICTIONARY
  5
B2C
330
B2B
100
AcDbDictionary
280
     1
281
     1
  3
ACAD_DIMASSOC
360
B2D
  0
DICTIONARY
  5
B30
330
B2F
100
AcDbDictionary
280
     1
281
     1
  3
ACAD_DIMASSOC
360
B31
  0
DICTIONARY
  5
D4A
102
{ACAD_REACTORS
330
C
102
}
330
C
100
AcDbDictionary
281
     1
  3
DIMARCSYM
350
D4B
  3
DIMLTEX1
350
D4D
  3
DIMLTEX2
350
D4E
  3
DIMLTYPE
350
D4C
  0
XRECORD
  5
741
102
{ACAD_REACTORS
330
C
102
}
330
C
100
AcDbXrecord
280
     1
300
ACDLT
300
2015
300
ACDLT_F_S
  0
DICTIONARY
  5
387
102
{ACAD_REACTORS
330
C
102
}
330
C
100
AcDbDictionary
281
     1
  0
DICTIONARY
  5
CE3
102
{ACAD_REACTORS
330
C
102
}
330
C
100
AcDbDictionary
281
     1
  3
Metric50
350
CE4
  0
DICTIONARY
  5
D
102
{ACAD_REACTORS
330
C
102
}
330
C
100
AcDbDictionary
281
     1
  0
DICTIONARY
  5
301
102
{ACAD_REACTORS
330
C
102
}
330
C
100
AcDbDictionary
281
     1
  3
Layout1
350
33B
  3
Model
350
303
  0
DICTIONARY
  5
386
102
{ACAD_REACTORS
330
C
102
}
330
C
100
AcDbDictionary
281
     1
  3
ByBlock
350
3F0
  3
ByLayer
350
3EF
  3
Global
350
3F1
  0
DICTIONARY
  5
43C
102
{ACAD_REACTORS
330
C
102
}
330
C
100
AcDbDictionary
281
     1
  3
Standard
350
43D
  0
DICTIONARY
  5
E
102
{ACAD_REACTORS
330
C
102
}
330
C
100
AcDbDictionary
281
     1
  3
STANDARD
350
1B
  0
DICTIONARY
  5
302
102
{ACAD_REACTORS
330
C
102
}
330
C
100
AcDbDictionary
281
     1
  0
ACDBDICTIONARYWDFLT
  5
2FF
102
{ACAD_REACTORS
330
C
102
}
330
C
100
AcDbDictionary
281
     1
  3
Normal
350
300
100
AcDbDictionaryWithDefault
340
300
  0
DICTIONARY
  5
41A
102
{ACAD_REACTORS
330
C
102
}
330
C
100
AcDbDictionary
281
     1
  3
A0
350
41B
  3
A1
350
41C
  3
A2
350
41D
  3
A3
350
41E
  3
A4
350
41F
  3
A5
350
420
  3
A6
350
421
  3
A7
350
422
  3
A8
350
423
  3
A9
350
424
  3
B0
350
425
  3
B1
350
426
  3
B2
350
427
  3
B3
350
428
  3
B4
350
429
  3
B5
350
42A
  3
B6
350
42B
  3
B7
350
42C
  3
B8
350
42D
  3
B9
350
42E
  3
C0
350
42F
  3
C1
350
430
  3
C2
350
431
  3
C3
350
432
  3
C4
350
433
  3
C5
350
434
  3
C6
350
435
  3
C7
350
436
  3
C8
350
437
  3
C9
350
438
  3
D0
350
439
  3
D1
350
43A
  3
D2
350
43B
  0
DICTIONARY
  5
CE1
102
{ACAD_REACTORS
330
C
102
}
330
C
100
AcDbDictionary
281
     1
  3
Metric50
350
CE2
  0
DICTIONARY
  5
388
102
{ACAD_REACTORS
330
C
102
}
330
C
100
AcDbDictionary
281
     1
  3
Standard
350
389
  0
DICTIONARY
  5
3F2
102
{ACAD_REACTORS
330
C
102
}
330
C
100
AcDbDictionary
281
     1
  3
2dWireframe
350
3F8
  3
3D Hidden
350
3FA
  3
3dWireframe
350
3F9
  3
Basic
350
3F7
  3
Brighten
350
3FE
  3
ColorChange
350
402
  3
Conceptual
350
3FB
  3
Dim
350
3FD
  3
EdgeColorOff
350
73A
  3
Facepattern
350
401
  3
Flat
350
3F3
  3
FlatWithEdges
350
3F4
  3
Gouraud
350
3F5
  3
GouraudWithEdges
350
3F6
  3
Hidden
350
732
  3
JitterOff
350
738
  3
Linepattern
350
400
  3
OverhangOff
350
739
  3
Realistic
350
3FC
  3
Shaded
350
737
  3
Shaded with edges
350
736
  3
Shades of Gray
350
733
  3
Sketchy
350
734
  3
Thicken
350
3FF
  3
Wireframe
350
731
  3
X-Ray
350
735
  0
XRECORD
  5
D48
102
{ACAD_REACTORS
330
C
102
}
330
C
100
AcDbXrecord
280
     1
 90
        1
330
389
  0
DICTIONARY
  5
357
102
{ACAD_REACTORS
330
C
102
}
330
C
100
AcDbDictionary
281
     1
  3
CANNOSCALE
350
449
  3
CMLEADERSTYLE
350
447
  3
CTABLESTYLE
350
38E
  3
CVIEWDETAILSTYLE
350
CF8
  3
CVIEWSECTIONSTYLE
350
CF9
  3
DIMASSOC
350
359
  3
HIDETEXT
350
358
  3
INDEXCTL
350
C65
  3
LAYEREVAL
350
7AE
  3
LAYERNOTIFY
350
7AF
  3
LIGHTINGUNITS
350
44A
  3
MSLTSCALE
350
448
  3
SOLIDHIST
350
C67
  3
SORTENTS
350
C64
  3
XCLIPFRAME
350
D46
  0
DICTIONARY
  5
76D
102
{ACAD_REACTORS
330
C
102
}
330
C
100
AcDbDictionary
281
     1
  3
AcmStdDictionary
350
76F
  0
DICTIONARY
  5
5CF
102
{ACAD_REACTORS
330
C
102
}
330
C
100
AcDbDictionary
281
     1
  0
DICTIONARY
  5
743
102
{ACAD_REACTORS
330
C
102
}
330
C
100
AcDbDictionary
281
     1
  0
DICTIONARY
  5
7F6
102
{ACAD_REACTORS
330
C
102
}
330
C
100
AcDbDictionary
281
     1
  0
DICTIONARY
  5
69C
102
{ACAD_REACTORS
330
C
102
}
330
C
100
AcDbDictionary
281
     1
  3
ASEBlockHierarchyIndexRecord
350
69D
1001
DCO15
1040
1680501600.633
  0
XRECORD
  5
D49
102
{ACAD_REACTORS
330
C
102
}
330
C
100
AcDbXrecord
280
     1
  1
DWGPROPS COOKIE
  2

  3

  4

  6

  7

  8
kamerka
  9

300
=
301
=
302
=
303
=
304
=
305
=
306
=
307
=
308
=
309
=
 40
0.0015884953703704
 41
2456176.581965255
 42
2457338.536819271
  1

 90
        0
  0
DICTIONARY
  5
6C6
102
{ACAD_REACTORS
330
451
102
}
330
451
100
AcDbDictionary
281
     1
  0
DICTIONARY
  5
CC0
102
{ACAD_REACTORS
330
451
102
}
330
451
100
AcDbDictionary
281
     1
  0
DICTIONARY
  5
6C5
102
{ACAD_REACTORS
330
451
102
}
330
451
100
AcDbDictionary
281
     1
1001
ACAD
1000
<All
  0
XRECORD
  5
C4F
102
{ACAD_REACTORS
330
C4E
102
}
330
C4E
100
AcDbXrecord
280
     1
290
     1
  0
XRECORD
  5
C51
102
{ACAD_REACTORS
330
C50
102
}
330
C50
100
AcDbXrecord
280
     1
290
     1
  0
XRECORD
  5
C53
102
{ACAD_REACTORS
330
C52
102
}
330
C52
100
AcDbXrecord
280
     1
290
     1
  0
XRECORD
  5
C55
102
{ACAD_REACTORS
330
C54
102
}
330
C54
100
AcDbXrecord
280
     1
290
     1
  0
XRECORD
  5
C57
102
{ACAD_REACTORS
330
C56
102
}
330
C56
100
AcDbXrecord
280
     1
290
     1
  0
XRECORD
  5
C59
102
{ACAD_REACTORS
330
C58
102
}
330
C58
100
AcDbXrecord
280
     1
290
     1
  0
XRECORD
  5
C5B
102
{ACAD_REACTORS
330
C5A
102
}
330
C5A
100
AcDbXrecord
280
     1
290
     1
  0
XRECORD
  5
C5D
102
{ACAD_REACTORS
330
C5C
102
}
330
C5C
100
AcDbXrecord
280
     1
290
     1
  0
XRECORD
  5
C5F
102
{ACAD_REACTORS
330
C5E
102
}
330
C5E
100
AcDbXrecord
280
     1
290
     1
  0
XRECORD
  5
C61
102
{ACAD_REACTORS
330
C60
102
}
330
C60
100
AcDbXrecord
280
     1
290
     1
  0
XRECORD
  5
C63
102
{ACAD_REACTORS
330
C62
102
}
330
C62
100
AcDbXrecord
280
     1
290
     1
  0
SORTENTSTABLE
  5
CF6
102
{ACAD_REACTORS
330
CF5
102
}
330
CF5
100
AcDbSortentsTable
330
18
331
A9F
  5
A9F
331
A9B
  5
A9B
331
B15
  5
B15
331
AD6
  5
AD6
331
B11
  5
B11
331
A97
  5
A97
331
A93
  5
A93
331
AD2
  5
AD2
331
B0D
  5
B0D
331
B09
  5
B09
331
A26
  5
A26
331
A22
  5
A22
331
A1E
  5
A1E
331
A5D
  5
A5D
331
A1A
  5
A1A
331
A59
  5
A59
331
B3B
  5
B3B
331
B33
  5
B33
331
A8F
  5
A8F
331
ACE
  5
ACE
331
A8B
  5
A8B
331
ACA
  5
ACA
331
B05
  5
B05
331
AC6
  5
AC6
331
B01
  5
B01
331
A87
  5
A87
331
AC2
  5
AC2
331
AFD
  5
AFD
331
A83
  5
A83
331
AF9
  5
AF9
331
A55
  5
A55
331
A16
  5
A16
331
A12
  5
A12
331
A51
  5
A51
331
A0E
  5
A0E
331
A4D
  5
A4D
331
A0A
  5
A0A
331
A49
  5
A49
331
B2F
  5
B2F
331
B2B
  5
B2B
331
A7F
  5
A7F
331
ABE
  5
ABE
331
A7B
  5
A7B
331
ABA
  5
ABA
331
AF5
  5
AF5
331
AF1
  5
AF1
331
A77
  5
A77
331
AB6
  5
AB6
331
AB2
  5
AB2
331
AED
  5
AED
331
A73
  5
A73
331
AE9
  5
AE9
331
A45
  5
A45
331
A06
  5
A06
331
A02
  5
A02
331
A41
  5
A41
331
9FE
  5
9FE
331
A3D
  5
A3D
331
9FA
  5
9FA
331
A39
  5
A39
331
A6F
  5
A6F
331
AAE
  5
AAE
331
B24
  5
B24
331
A6B
  5
A6B
331
AAA
  5
AAA
331
AE5
  5
AE5
331
AE1
  5
AE1
331
B20
  5
B20
331
A67
  5
A67
331
AA6
  5
AA6
331
AA2
  5
AA2
331
ADD
  5
ADD
331
B1C
  5
B1C
331
A63
  5
A63
331
AD9
  5
AD9
331
B18
  5
B18
331
A35
  5
A35
331
9F6
  5
9F6
331
A31
  5
A31
331
9F2
  5
9F2
331
9EE
  5
9EE
331
A2D
  5
A2D
331
A29
  5
A29
331
A9E
  5
A9E
331
B14
  5
B14
331
A9A
  5
A9A
331
AD5
  5
AD5
331
B10
  5
B10
331
A96
  5
A96
331
A92
  5
A92
331
AD1
  5
AD1
331
B0C
  5
B0C
331
B08
  5
B08
331
A25
  5
A25
331
A21
  5
A21
331
A1D
  5
A1D
331
A5C
  5
A5C
331
A19
  5
A19
331
A58
  5
A58
331
B36
  5
B36
331
B32
  5
B32
331
A8E
  5
A8E
331
ACD
  5
ACD
331
A8A
  5
A8A
331
AC9
  5
AC9
331
B04
  5
B04
331
AC5
  5
AC5
331
B00
  5
B00
331
A86
  5
A86
331
A82
  5
A82
331
AC1
  5
AC1
331
AFC
  5
AFC
331
AF8
  5
AF8
331
A54
  5
A54
331
A15
  5
A15
331
A11
  5
A11
331
A50
  5
A50
331
A0D
  5
A0D
331
A4C
  5
A4C
331
A09
  5
A09
331
A48
  5
A48
331
B2E
  5
B2E
331
B2A
  5
B2A
331
A7E
  5
A7E
331
ABD
  5
ABD
331
A7A
  5
A7A
331
AB9
  5
AB9
331
AF4
  5
AF4
331
AB5
  5
AB5
331
AF0
  5
AF0
331
A76
  5
A76
331
AB1
  5
AB1
331
AEC
  5
AEC
331
A72
  5
A72
331
AE8
  5
AE8
331
A44
  5
A44
331
A05
  5
A05
331
A01
  5
A01
331
A40
  5
A40
331
9FD
  5
9FD
331
A3C
  5
A3C
331
9F9
  5
9F9
331
A38
  5
A38
331
A6E
  5
A6E
331
AAD
  5
AAD
331
B27
  5
B27
331
B23
  5
B23
331
A6A
  5
A6A
331
AA9
  5
AA9
331
AE4
  5
AE4
331
AE0
  5
AE0
331
B1F
  5
B1F
331
A66
  5
A66
331
AA5
  5
AA5
331
AA1
  5
AA1
331
ADC
  5
ADC
331
B1B
  5
B1B
331
A62
  5
A62
331
AD8
  5
AD8
331
A34
  5
A34
331
9F5
  5
9F5
331
9F1
  5
9F1
331
A30
  5
A30
331
A2C
  5
A2C
331
A28
  5
A28
331
A9D
  5
A9D
331
B17
  5
B17
331
B13
  5
B13
331
A99
  5
A99
331
AD4
  5
AD4
331
B0F
  5
B0F
331
A95
  5
A95
331
A91
  5
A91
331
AD0
  5
AD0
331
B0B
  5
B0B
331
A24
  5
A24
331
A20
  5
A20
331
A5F
  5
A5F
331
A1C
  5
A1C
331
A5B
  5
A5B
331
A18
  5
A18
331
B3D
  5
B3D
331
B35
  5
B35
331
A8D
  5
A8D
331
ACC
  5
ACC
331
B07
  5
B07
331
B03
  5
B03
331
A89
  5
A89
331
AC8
  5
AC8
331
AC4
  5
AC4
331
AFF
  5
AFF
331
A85
  5
A85
331
A81
  5
A81
331
AC0
  5
AC0
331
AFB
  5
AFB
331
A57
  5
A57
331
A53
  5
A53
331
A14
  5
A14
331
A10
  5
A10
331
A4F
  5
A4F
331
A0C
  5
A0C
331
A4B
  5
A4B
331
A08
  5
A08
331
B29
  5
B29
331
A7D
  5
A7D
331
ABC
  5
ABC
331
AF7
  5
AF7
331
A79
  5
A79
331
AB8
  5
AB8
331
AF3
  5
AF3
331
AB4
  5
AB4
331
AEF
  5
AEF
331
A75
  5
A75
331
A71
  5
A71
331
AB0
  5
AB0
331
AEB
  5
AEB
331
A47
  5
A47
331
A43
  5
A43
331
A04
  5
A04
331
A00
  5
A00
331
A3F
  5
A3F
331
9FC
  5
9FC
331
A3B
  5
A3B
331
9F8
  5
9F8
331
A6D
  5
A6D
331
AAC
  5
AAC
331
AE7
  5
AE7
331
B26
  5
B26
331
B22
  5
B22
331
A69
  5
A69
331
AA8
  5
AA8
331
AE3
  5
AE3
331
AA4
  5
AA4
331
ADF
  5
ADF
331
B1E
  5
B1E
331
A65
  5
A65
331
AA0
  5
AA0
331
ADB
  5
ADB
331
B1A
  5
B1A
331
A61
  5
A61
331
A37
  5
A37
331
A33
  5
A33
331
9F4
  5
9F4
331
9F0
  5
9F0
331
A2F
  5
A2F
331
A2B
  5
A2B
331
CF4
  5
CF4
331
A9C
  5
A9C
331
B16
  5
B16
331
AD7
  5
AD7
331
B12
  5
B12
331
A98
  5
A98
331
AD3
  5
AD3
331
B0E
  5
B0E
331
A94
  5
A94
331
A90
  5
A90
331
B0A
  5
B0A
331
A27
  5
A27
331
A23
  5
A23
331
A1F
  5
A1F
331
A5E
  5
A5E
331
A1B
  5
A1B
331
A5A
  5
A5A
331
B3C
  5
B3C
331
B34
  5
B34
331
ACF
  5
ACF
331
A8C
  5
A8C
331
ACB
  5
ACB
331
B06
  5
B06
331
B02
  5
B02
331
A88
  5
A88
331
AC7
  5
AC7
331
AC3
  5
AC3
331
AFE
  5
AFE
331
A84
  5
A84
331
A80
  5
A80
331
AFA
  5
AFA
331
A56
  5
A56
331
A17
  5
A17
331
A13
  5
A13
331
A52
  5
A52
331
A0F
  5
A0F
331
A4E
  5
A4E
331
A0B
  5
A0B
331
A4A
  5
A4A
331
B28
  5
B28
331
ABF
  5
ABF
331
A7C
  5
A7C
331
ABB
  5
ABB
331
AF6
  5
AF6
331
AF2
  5
AF2
331
A78
  5
A78
331
AB7
  5
AB7
331
AB3
  5
AB3
331
AEE
  5
AEE
331
A74
  5
A74
331
A70
  5
A70
331
AEA
  5
AEA
331
A46
  5
A46
331
A07
  5
A07
331
A42
  5
A42
331
A03
  5
A03
331
9FF
  5
9FF
331
A3E
  5
A3E
331
9FB
  5
9FB
331
A3A
  5
A3A
331
AAF
  5
AAF
331
B25
  5
B25
331
A6C
  5
A6C
331
AAB
  5
AAB
331
AE6
  5
AE6
331
B21
  5
B21
331
A68
  5
A68
331
AA7
  5
AA7
331
AE2
  5
AE2
331
AA3
  5
AA3
331
ADE
  5
ADE
331
B1D
  5
B1D
331
A64
  5
A64
331
A60
  5
A60
331
ADA
  5
ADA
331
B19
  5
B19
331
9F7
  5
9F7
331
A36
  5
A36
331
A32
  5
A32
331
9F3
  5
9F3
331
9EF
  5
9EF
331
A2E
  5
A2E
331
A2A
  5
A2A
  0
SORTENTSTABLE
  5
6D2
102
{ACAD_REACTORS
330
6D1
102
}
330
6D1
100
AcDbSortentsTable
330
6D0
  0
XRECORD
  5
D8A
102
{ACAD_REACTORS
330
CDA
102
}
330
CDA
100
AcDbXrecord
280
     1
 40
2571.0
  1
25°
  0
XRECORD
  5
D8B
102
{ACAD_REACTORS
330
CDC
102
}
330
CDC
100
AcDbXrecord
280
     1
 40
2561.0
  1
20°
  0
DIMASSOC
  5
B2D
102
{ACAD_REACTORS
330
B2C
102
}
330
B2C
100
AcDbDimAssoc
330
B2B
 90
        3
 70
     0
 71
     0
  1
AcDbOsnapPointRef
 72
     1
331
B2A
 73
     2
 91
        2
 40
4.296994096491372
 10
0.0
 20
0.0
 30
2.000000000000000E+50
 75
     0
  1
AcDbOsnapPointRef
 72
     1
331
B2A
 73
     2
 91
        5
 40
1.0
 10
0.0
 20
0.0
 30
2.000000000000000E+50
 75
     0
  0
DIMASSOC
  5
B31
102
{ACAD_REACTORS
330
B30
102
}
330
B30
100
AcDbDimAssoc
330
B2F
 90
        3
 70
     0
 71
     0
  1
AcDbOsnapPointRef
 72
    13
331
B1B
 73
     2
 91
        0
 40
0.0
 10
0.0
 20
0.0
 30
2.000000000000000E+50
 75
     0
  1
AcDbOsnapPointRef
 72
    13
331
B1C
 73
     2
 91
        0
 40
0.0
 10
0.0
 20
0.0
 30
2.000000000000000E+50
 75
     0
  0
XRECORD
  5
D4B
102
{ACAD_REACTORS
330
D4A
102
}
330
D4A
100
AcDbXrecord
280
     1
 70
     1
  0
XRECORD
  5
D4D
102
{ACAD_REACTORS
330
D4A
102
}
330
D4A
100
AcDbXrecord
280
     1
340
12
  0
XRECORD
  5
D4E
102
{ACAD_REACTORS
330
D4A
102
}
330
D4A
100
AcDbXrecord
280
     1
340
12
  0
XRECORD
  5
D4C
102
{ACAD_REACTORS
330
D4A
102
}
330
D4A
100
AcDbXrecord
280
     1
340
12
  0
ACDBDETAILVIEWSTYLE
  5
CE4
102
{ACAD_XDICTIONARY
360
D8E
102
}
102
{ACAD_REACTORS
330
CE3
102
}
330
CE3
100
AcDbModelDocViewStyle
 70
     0
  3
Metric50
290
     0
100
AcDbDetailViewStyle
 70
     0
 71
     0
 90
        3
 71
     1
340
10
 40
5.0
340
0
 40
5.0
300

 40
0.0
280
     1
 71
     2
340
14
 90
       25
 71
     3
340
10
 40
5.0
 90
        0
 40
15.0
 90
        1
300
%<\AcVar ViewDetailId>% (%<\AcVar ViewScale \f "%sn">%)
 71
     4
340
14
 90
       25
340
14
 90
       25
280
     0
  0
LAYOUT
  5
33B
102
{ACAD_XDICTIONARY
360
D51
102
}
102
{ACAD_REACTORS
330
301
102
}
330
301
100
AcDbPlotSettings
  1

  2
Lexmark Optra PS2
  4

  6

 40
0.0
 41
0.0
 42
0.0
 43
0.0
 44
0.0
 45
0.0
 46
0.0
 47
0.0
 48
0.0
 49
0.0
140
0.0
141
0.0
142
1.0
143
1.0
 70
   688
 72
     0
 73
     0
 74
     5
  7
monochrome.ctb
 75
    16
147
1.0
148
0.0
149
0.0
100
AcDbLayout
  1
Layout1
 70
     1
 71
     1
 10
0.0
 20
0.0
 11
12.0
 21
9.0
 12
0.0
 22
0.0
 32
0.0
 14
0.0
 24
0.0
 34
0.0
 15
0.0
 25
0.0
 35
0.0
146
0.0
 13
0.0
 23
0.0
 33
0.0
 16
1.0
 26
0.0
 36
0.0
 17
0.0
 27
1.0
 37
0.0
 76
     0
330
338
  0
LAYOUT
  5
303
102
{ACAD_XDICTIONARY
360
D4F
102
}
102
{ACAD_REACTORS
330
301
102
}
330
301
100
AcDbPlotSettings
  1

  2
Default Windows System Printer.pc3
  4
A4
  6

 40
6.805083274841307
 41
5.535083293914794
 42
6.974411010742187
 43
7.14373779296875
 44
209.9733276367186
 45
296.9259948730469
 46
67.83299579489725
 47
0.0
 48
0.0
 49
0.0
140
0.0
141
0.0
142
1.0
143
0.3604333568168785
 70
  3764
 72
     1
 73
     1
 74
     1
  7
monochrome.ctb
 75
     0
147
2.774437995504559
148
-82.35087775247029
149
-53.69369632994493
100
AcDbLayout
  1
Model
 70
     1
 71
     0
 10
0.0
 20
0.0
 11
12.0
 21
9.0
 12
0.0
 22
0.0
 32
0.0
 14
0.0
 24
0.0
 34
0.0
 15
0.0
 25
0.0
 35
0.0
146
0.0
 13
0.0
 23
0.0
 33
0.0
 16
1.0
 26
0.0
 36
0.0
 17
0.0
 27
1.0
 37
0.0
 76
     0
330
18
331
3ED
1001
ACAD_PSEXT
1000
Default Windows System Printer.pc3
1000
Lexmark Optra Rx
1000
Lexmark Rx
1000
Erstellt von Lexmark Benutzerdefinierte Installation,Nov 13,2005,10:03
1070
     0
  0
MATERIAL
  5
3F0
102
{ACAD_XDICTIONARY
360
C72
102
}
102
{ACAD_REACTORS
330
386
102
}
330
386
100
AcDbMaterial
  1
ByBlock
 73
     1
 78
     1
172
     1
176
     1
270
     1
274
     1
  0
MATERIAL
  5
3EF
102
{ACAD_XDICTIONARY
360
C70
102
}
102
{ACAD_REACTORS
330
386
102
}
330
386
100
AcDbMaterial
  1
ByLayer
 73
     1
 78
     1
172
     1
176
     1
270
     1
274
     1
  0
MATERIAL
  5
3F1
102
{ACAD_XDICTIONARY
360
C74
102
}
102
{ACAD_REACTORS
330
386
102
}
330
386
100
AcDbMaterial
  1
Global
 73
     1
 78
     1
172
     1
176
     1
270
     1
274
     1
  0
MLEADERSTYLE
  5
43D
102
{ACAD_XDICTIONARY
360
D74
102
}
102
{ACAD_REACTORS
330
43C
102
}
330
43C
100
AcDbMLeaderStyle
170
     2
171
     1
172
     0
 90
        2
 40
0.0
 41
0.0
173
     1
 91
-1056964608
340
12
 92
       -2
290
     1
 42
2.0
291
     1
 43
0.36
  3
Standard
 44
4.0
300

342
10
174
     1
178
     6
175
     1
176
     0
 93
-1056964608
 45
4.0
292
     0
297
     0
 46
4.0
 94
-1056964608
 47
1.0
 49
1.0
140
1.0
293
     1
141
0.0
294
     1
177
     0
142
1.0
295
     0
296
     0
143
0.125
1001
ACAD_MLEADERVER
1070
     2
  0
MLINESTYLE
  5
1B
102
{ACAD_REACTORS
330
E
102
}
330
E
100
AcDbMlineStyle
  2
STANDARD
 70
     0
  3

 62
     0
 51
90.0
 52
90.0
 71
     2
 49
0.5
 62
   256
  6
BYLAYER
 49
-0.5
 62
   256
  6
BYLAYER
  0
ACDBPLACEHOLDER
  5
300
102
{ACAD_REACTORS
330
2FF
102
}
330
2FF
  0
SCALE
  5
41B
102
{ACAD_REACTORS
330
41A
102
}
330
41A
100
AcDbScale
 70
     0
300
1:1
140
1.0
141
1.0
290
     1
  0
SCALE
  5
41C
102
{ACAD_REACTORS
330
41A
102
}
330
41A
100
AcDbScale
 70
     0
300
1:2
140
1.0
141
2.0
290
     0
  0
SCALE
  5
41D
102
{ACAD_REACTORS
330
41A
102
}
330
41A
100
AcDbScale
 70
     0
300
1:4
140
1.0
141
4.0
290
     0
  0
SCALE
  5
41E
102
{ACAD_REACTORS
330
41A
102
}
330
41A
100
AcDbScale
 70
     0
300
1:5
140
1.0
141
5.0
290
     0
  0
SCALE
  5
41F
102
{ACAD_REACTORS
330
41A
102
}
330
41A
100
AcDbScale
 70
     0
300
1:8
140
1.0
141
8.0
290
     0
  0
SCALE
  5
420
102
{ACAD_REACTORS
330
41A
102
}
330
41A
100
AcDbScale
 70
     0
300
1:10
140
1.0
141
10.0
290
     0
  0
SCALE
  5
421
102
{ACAD_REACTORS
330
41A
102
}
330
41A
100
AcDbScale
 70
     0
300
1:16
140
1.0
141
16.0
290
     0
  0
SCALE
  5
422
102
{ACAD_REACTORS
330
41A
102
}
330
41A
100
AcDbScale
 70
     0
300
1:20
140
1.0
141
20.0
290
     0
  0
SCALE
  5
423
102
{ACAD_REACTORS
330
41A
102
}
330
41A
100
AcDbScale
 70
     0
300
1:30
140
1.0
141
30.0
290
     0
  0
SCALE
  5
424
102
{ACAD_REACTORS
330
41A
102
}
330
41A
100
AcDbScale
 70
     0
300
1:40
140
1.0
141
40.0
290
     0
  0
SCALE
  5
425
102
{ACAD_REACTORS
330
41A
102
}
330
41A
100
AcDbScale
 70
     0
300
1:50
140
1.0
141
50.0
290
     0
  0
SCALE
  5
426
102
{ACAD_REACTORS
330
41A
102
}
330
41A
100
AcDbScale
 70
     0
300
1:100
140
1.0
141
100.0
290
     0
  0
SCALE
  5
427
102
{ACAD_REACTORS
330
41A
102
}
330
41A
100
AcDbScale
 70
     0
300
2:1
140
2.0
141
1.0
290
     0
  0
SCALE
  5
428
102
{ACAD_REACTORS
330
41A
102
}
330
41A
100
AcDbScale
 70
     0
300
4:1
140
4.0
141
1.0
290
     0
  0
SCALE
  5
429
102
{ACAD_REACTORS
330
41A
102
}
330
41A
100
AcDbScale
 70
     0
300
8:1
140
8.0
141
1.0
290
     0
  0
SCALE
  5
42A
102
{ACAD_REACTORS
330
41A
102
}
330
41A
100
AcDbScale
 70
     0
300
10:1
140
10.0
141
1.0
290
     0
  0
SCALE
  5
42B
102
{ACAD_REACTORS
330
41A
102
}
330
41A
100
AcDbScale
 70
     0
300
100:1
140
100.0
141
1.0
290
     0
  0
SCALE
  5
42C
102
{ACAD_REACTORS
330
41A
102
}
330
41A
100
AcDbScale
 70
     0
300
1/128" = 1'-0"
140
0.0078125
141
12.0
290
     0
  0
SCALE
  5
42D
102
{ACAD_REACTORS
330
41A
102
}
330
41A
100
AcDbScale
 70
     0
300
1/64" = 1'-0"
140
0.015625
141
12.0
290
     0
  0
SCALE
  5
42E
102
{ACAD_REACTORS
330
41A
102
}
330
41A
100
AcDbScale
 70
     0
300
1/32" = 1'-0"
140
0.03125
141
12.0
290
     0
  0
SCALE
  5
42F
102
{ACAD_REACTORS
330
41A
102
}
330
41A
100
AcDbScale
 70
     0
300
1/16" = 1'-0"
140
0.0625
141
12.0
290
     0
  0
SCALE
  5
430
102
{ACAD_REACTORS
330
41A
102
}
330
41A
100
AcDbScale
 70
     0
300
3/32" = 1'-0"
140
0.09375
141
12.0
290
     0
  0
SCALE
  5
431
102
{ACAD_REACTORS
330
41A
102
}
330
41A
100
AcDbScale
 70
     0
300
1/8" = 1'-0"
140
0.125
141
12.0
290
     0
  0
SCALE
  5
432
102
{ACAD_REACTORS
330
41A
102
}
330
41A
100
AcDbScale
 70
     0
300
3/16" = 1'-0"
140
0.1875
141
12.0
290
     0
  0
SCALE
  5
433
102
{ACAD_REACTORS
330
41A
102
}
330
41A
100
AcDbScale
 70
     0
300
1/4" = 1'-0"
140
0.25
141
12.0
290
     0
  0
SCALE
  5
434
102
{ACAD_REACTORS
330
41A
102
}
330
41A
100
AcDbScale
 70
     0
300
3/8" = 1'-0"
140
0.375
141
12.0
290
     0
  0
SCALE
  5
435
102
{ACAD_REACTORS
330
41A
102
}
330
41A
100
AcDbScale
 70
     0
300
1/2" = 1'-0"
140
0.5
141
12.0
290
     0
  0
SCALE
  5
436
102
{ACAD_REACTORS
330
41A
102
}
330
41A
100
AcDbScale
 70
     0
300
3/4" = 1'-0"
140
0.75
141
12.0
290
     0
  0
SCALE
  5
437
102
{ACAD_REACTORS
330
41A
102
}
330
41A
100
AcDbScale
 70
     0
300
1" = 1'-0"
140
1.0
141
12.0
290
     0
  0
SCALE
  5
438
102
{ACAD_REACTORS
330
41A
102
}
330
41A
100
AcDbScale
 70
     0
300
1-1/2" = 1'-0"
140
1.5
141
12.0
290
     0
  0
SCALE
  5
439
102
{ACAD_REACTORS
330
41A
102
}
330
41A
100
AcDbScale
 70
     0
300
3" = 1'-0"
140
3.0
141
12.0
290
     0
  0
SCALE
  5
43A
102
{ACAD_REACTORS
330
41A
102
}
330
41A
100
AcDbScale
 70
     0
300
6" = 1'-0"
140
6.0
141
12.0
290
     0
  0
SCALE
  5
43B
102
{ACAD_REACTORS
330
41A
102
}
330
41A
100
AcDbScale
 70
     0
300
1'-0" = 1'-0"
140
12.0
141
12.0
290
     0
  0
ACDBSECTIONVIEWSTYLE
  5
CE2
102
{ACAD_XDICTIONARY
360
D8C
102
}
102
{ACAD_REACTORS
330
CE1
102
}
330
CE1
100
AcDbModelDocViewStyle
 70
     0
  3
Metric50
290
     0
100
AcDbSectionViewStyle
 70
     0
 71
     0
 90
      102
 71
     1
340
10
 40
5.0
340
0
340
0
 40
5.0
300
I, O, Q, S, X, Z
 40
10.0
 90
        0
 40
2.5
 90
        0
 71
     2
340
14
 90
       25
340
14
 90
       50
 40
5.0
 40
2.5
 40
5.0
 71
     3
340
10
 40
5.0
 90
        0
 40
15.0
 90
        1
300
%<\AcVar ViewSectionStartId>%-%<\AcVar ViewSectionEndId>% (%<\AcVar ViewScale \f "%sn">%)
 71
     4
300
ANSI31
 40
1.0
 90
        0
290
     0
290
     0
 90
        6
 40
0.0
 40
1.570796326794896
 40
0.2617993877991494
 40
1.308996938995747
 40
-0.2617993877991494
 40
1.832595714594045
  0
TABLESTYLE
  5
389
102
{ACAD_XDICTIONARY
360
444
102
}
102
{ACAD_REACTORS
330
388
102
}
330
388
100
AcDbTableStyle
  3
Standard
 70
     0
 71
     0
 40
1.5
 41
1.5
280
     0
281
     0
  7
STANDARD
140
4.5
170
     2
 62
     0
 63
     7
283
     0
274
    -2
284
     1
 64
     0
275
    -2
285
     1
 65
     0
276
    -2
286
     1
 66
     0
277
    -2
287
     1
 67
     0
278
    -2
288
     1
 68
     0
279
    -2
289
     1
 69
     0
  7
STANDARD
140
6.0
170
     5
 62
     0
 63
     7
283
     0
274
    -2
284
     1
 64
     0
275
    -2
285
     1
 65
     0
276
    -2
286
     1
 66
     0
277
    -2
287
     1
 67
     0
278
    -2
288
     1
 68
     0
279
    -2
289
     1
 69
     0
  7
STANDARD
140
4.5
170
     5
 62
     0
 63
     7
283
     0
274
    -2
284
     1
 64
     0
275
    -2
285
     1
 65
     0
276
    -2
286
     1
 66
     0
277
    -2
287
     1
 67
     0
278
    -2
288
     1
 68
     0
279
    -2
289
     1
 69
     0
  0
VISUALSTYLE
  5
3F8
102
{ACAD_XDICTIONARY
360
D5E
102
}
102
{ACAD_REACTORS
330
3F2
102
}
330
3F2
100
AcDbVisualStyle
  2

 70
     4
 71
     0
 72
     2
 73
     0
 90
        0
 40
-0.6
 41
-30.0
 62
     5
 63
     7
 74
     1
 91
        4
 64
     7
 65
   257
 75
     1
175
     1
 42
1.0
 92
        0
 66
   257
 43
1.0
 76
     1
 77
     6
 78
     2
 67
     7
 79
     5
170
     0
171
     0
290
     0
174
     0
 93
        1
 44
0.0
173
     0
291
     0
 45
0.0
1001
ACAD
1000
AcDbSavedByObjectVersion
1070
     0
  0
VISUALSTYLE
  5
3FA
102
{ACAD_XDICTIONARY
360
D62
102
}
102
{ACAD_REACTORS
330
3F2
102
}
330
3F2
100
AcDbVisualStyle
  2

 70
     6
 71
     1
 72
     2
 73
     2
 90
        0
 40
-0.6
 41
-30.0
 62
     5
 63
     7
 74
     2
 91
        2
 64
     7
 65
   257
 75
     2
175
     1
 42
40.0
 92
        0
 66
   257
 43
1.0
 76
     1
 77
     6
 78
     2
 67
     7
 79
     3
170
     0
171
     0
290
     0
174
     0
 93
        1
 44
0.0
173
     0
291
     0
 45
0.0
1001
ACAD
1000
AcDbSavedByObjectVersion
1070
     0
  0
VISUALSTYLE
  5
3F9
102
{ACAD_XDICTIONARY
360
D60
102
}
102
{ACAD_REACTORS
330
3F2
102
}
330
3F2
100
AcDbVisualStyle
  2

 70
     5
 71
     0
 72
     2
 73
     0
 90
        0
 40
-0.6
 41
-30.0
 62
     5
 63
     7
 74
     1
 91
        4
 64
     7
 65
   257
 75
     1
175
     1
 42
1.0
 92
        0
 66
   257
 43
1.0
 76
     1
 77
     6
 78
     2
 67
     7
 79
     5
170
     0
171
     0
290
     0
174
     0
 93
        1
 44
0.0
173
     0
291
     0
 45
0.0
1001
ACAD
1000
AcDbSavedByObjectVersion
1070
     0
  0
VISUALSTYLE
  5
3F7
102
{ACAD_XDICTIONARY
360
D5C
102
}
102
{ACAD_REACTORS
330
3F2
102
}
330
3F2
100
AcDbVisualStyle
  2

 70
     7
 71
     1
 72
     0
 73
     1
 90
        0
 40
-0.6
 41
-30.0
 62
     5
 63
     7
 74
     0
 91
        4
 64
     7
 65
   257
 75
     1
175
     1
 42
1.0
 92
        8
 66
     7
 43
1.0
 76
     1
 77
     6
 78
     2
 67
     7
 79
     5
170
     0
171
     0
290
     0
174
     0
 93
        1
 44
0.0
173
     0
291
     1
 45
0.0
1001
ACAD
1000
AcDbSavedByObjectVersion
1070
     0
  0
VISUALSTYLE
  5
3FE
102
{ACAD_XDICTIONARY
360
D6A
102
}
102
{ACAD_REACTORS
330
3F2
102
}
330
3F2
100
AcDbVisualStyle
  2

 70
    12
 71
     2
 72
     2
 73
     0
 90
        0
 40
-0.6
 41
-30.0
 62
     5
 63
     7
 74
     1
 91
        4
 64
     7
 65
   257
 75
     1
175
     1
 42
1.0
 92
        8
 66
     7
 43
1.0
 76
     1
 77
     6
 78
     2
 67
     7
 79
     5
170
     0
171
     0
290
     0
174
     0
 93
        1
 44
50.0
173
     0
291
     1
 45
0.0
1001
ACAD
1000
AcDbSavedByObjectVersion
1070
     0
  0
VISUALSTYLE
  5
402
102
{ACAD_XDICTIONARY
360
D72
102
}
102
{ACAD_REACTORS
330
3F2
102
}
330
3F2
100
AcDbVisualStyle
  2

 70
    16
 71
     2
 72
     2
 73
     3
 90
        0
 40
-0.6
 41
-30.0
 62
     5
 63
     8
 74
     1
 91
        4
 64
     7
 65
   257
 75
     1
175
     1
 42
1.0
 92
        8
 66
     8
 43
1.0
 76
     1
 77
     6
 78
     2
 67
     7
 79
     5
170
     0
171
     0
290
     0
174
     0
 93
        1
 44
0.0
173
     0
291
     1
 45
0.0
1001
ACAD
1000
AcDbSavedByObjectVersion
1070
     0
  0
VISUALSTYLE
  5
3FB
102
{ACAD_XDICTIONARY
360
D64
102
}
102
{ACAD_REACTORS
330
3F2
102
}
330
3F2
100
AcDbVisualStyle
  2

 70
     9
 71
     3
 72
     2
 73
     0
 90
        0
 40
-0.6
 41
-30.0
 62
     5
 63
     7
 74
     2
 91
        2
 64
     7
 65
   257
 75
     1
175
     1
 42
40.0
 92
        8
 66
     7
 43
1.0
 76
     1
 77
     6
 78
     2
 67
     7
 79
     3
170
     0
171
     0
290
     0
174
     0
 93
        1
 44
0.0
173
     0
291
     0
 45
0.0
1001
ACAD
1000
AcDbSavedByObjectVersion
1070
     0
  0
VISUALSTYLE
  5
3FD
102
{ACAD_XDICTIONARY
360
D68
102
}
102
{ACAD_REACTORS
330
3F2
102
}
330
3F2
100
AcDbVisualStyle
  2

 70
    11
 71
     2
 72
     2
 73
     0
 90
        0
 40
-0.6
 41
-30.0
 62
     5
 63
     7
 74
     1
 91
        4
 64
     7
 65
   257
 75
     1
175
     1
 42
1.0
 92
        8
 66
     7
 43
1.0
 76
     1
 77
     6
 78
     2
 67
     7
 79
     5
170
     0
171
     0
290
     0
174
     0
 93
        1
 44
-50.0
173
     0
291
     1
 45
0.0
1001
ACAD
1000
AcDbSavedByObjectVersion
1070
     0
  0
VISUALSTYLE
  5
73A
102
{ACAD_XDICTIONARY
360
D88
102
}
102
{ACAD_REACTORS
330
3F2
102
}
330
3F2
100
AcDbVisualStyle
  2

 70
    22
 71
     2
 72
     2
 73
     0
 90
        0
 40
-0.6
 41
-30.0
 62
     5
 63
     7
 74
     1
 91
        4
 64
     7
 65
   257
 75
     1
175
     1
 42
1.0
 92
        8
 66
     7
 43
1.0
 76
     1
 77
     6
 78
     2
 67
     7
 79
     5
170
     0
171
     0
290
     0
174
     0
 93
        1
 44
0.0
173
     0
291
     1
 45
0.0
1001
ACAD
1000
AcDbSavedByObjectVersion
1070
     0
  0
VISUALSTYLE
  5
401
102
{ACAD_XDICTIONARY
360
D70
102
}
102
{ACAD_REACTORS
330
3F2
102
}
330
3F2
100
AcDbVisualStyle
  2

 70
    15
 71
     2
 72
     2
 73
     0
 90
        0
 40
-0.6
 41
-30.0
 62
     5
 63
     7
 74
     1
 91
        4
 64
     7
 65
   257
 75
     1
175
     1
 42
1.0
 92
        8
 66
     7
 43
1.0
 76
     1
 77
     6
 78
     2
 67
     7
 79
     5
170
     0
171
     0
290
     0
174
     0
 93
        1
 44
0.0
173
     0
291
     1
 45
0.0
1001
ACAD
1000
AcDbSavedByObjectVersion
1070
     0
  0
VISUALSTYLE
  5
3F3
102
{ACAD_XDICTIONARY
360
D54
102
}
102
{ACAD_REACTORS
330
3F2
102
}
330
3F2
100
AcDbVisualStyle
  2

 70
     0
 71
     2
 72
     1
 73
     1
 90
        2
 40
-0.6
 41
30.0
 62
     5
 63
     7
 74
     0
 91
        4
 64
     7
 65
   257
 75
     1
175
     1
 42
1.0
 92
        8
 66
     7
 43
1.0
 76
     1
 77
     6
 78
     2
 67
     7
 79
     5
170
     0
171
     0
290
     0
174
     0
 93
       13
 44
0.0
173
     0
291
     1
 45
0.0
1001
ACAD
1000
AcDbSavedByObjectVersion
1070
     0
  0
VISUALSTYLE
  5
3F4
102
{ACAD_XDICTIONARY
360
D56
102
}
102
{ACAD_REACTORS
330
3F2
102
}
330
3F2
100
AcDbVisualStyle
  2

 70
     1
 71
     2
 72
     1
 73
     1
 90
        2
 40
-0.6
 41
30.0
 62
     5
 63
     7
 74
     1
 91
        4
 64
     7
 65
   257
 75
     1
175
     1
 42
1.0
 92
        0
 66
   257
 43
1.0
 76
     1
 77
     6
 78
     2
 67
     7
 79
     5
170
     0
171
     0
290
     0
174
     0
 93
       13
 44
0.0
173
     0
291
     1
 45
0.0
1001
ACAD
1000
AcDbSavedByObjectVersion
1070
     0
  0
VISUALSTYLE
  5
3F5
102
{ACAD_XDICTIONARY
360
D58
102
}
102
{ACAD_REACTORS
330
3F2
102
}
330
3F2
100
AcDbVisualStyle
  2

 70
     2
 71
     2
 72
     2
 73
     1
 90
        2
 40
-0.6
 41
30.0
 62
     5
 63
     7
 74
     0
 91
        4
 64
     7
 65
   257
 75
     1
175
     1
 42
1.0
 92
        0
 66
     7
 43
1.0
 76
     1
 77
     6
 78
     2
 67
     7
 79
     5
170
     0
171
     0
290
     0
174
     0
 93
       13
 44
0.0
173
     0
291
     1
 45
0.0
1001
ACAD
1000
AcDbSavedByObjectVersion
1070
     0
  0
VISUALSTYLE
  5
3F6
102
{ACAD_XDICTIONARY
360
D5A
102
}
102
{ACAD_REACTORS
330
3F2
102
}
330
3F2
100
AcDbVisualStyle
  2

 70
     3
 71
     2
 72
     2
 73
     1
 90
        2
 40
-0.6
 41
30.0
 62
     5
 63
     7
 74
     1
 91
        4
 64
     7
 65
   257
 75
     1
175
     1
 42
1.0
 92
        0
 66
   257
 43
1.0
 76
     1
 77
     6
 78
     2
 67
     7
 79
     5
170
     0
171
     0
290
     0
174
     0
 93
       13
 44
0.0
173
     0
291
     1
 45
0.0
1001
ACAD
1000
AcDbSavedByObjectVersion
1070
     0
  0
VISUALSTYLE
  5
732
102
{ACAD_XDICTIONARY
360
D78
102
}
102
{ACAD_REACTORS
330
3F2
102
}
330
3F2
100
AcDbVisualStyle
  2

 70
     6
 71
     1
 72
     2
 73
     2
 90
        0
 40
-0.6
 41
-30.0
 62
     5
 63
     7
 74
     2
 91
        2
 64
     7
 65
   257
 75
     2
175
     1
 42
40.0
 92
        0
 66
   257
 43
1.0
 76
     1
 77
     6
 78
     2
 67
     7
 79
     3
170
     0
171
     0
290
     0
174
     0
 93
        1
 44
0.0
173
     0
291
     0
 45
0.0
1001
ACAD
1000
AcDbSavedByObjectVersion
1070
     0
  0
VISUALSTYLE
  5
738
102
{ACAD_XDICTIONARY
360
D84
102
}
102
{ACAD_REACTORS
330
3F2
102
}
330
3F2
100
AcDbVisualStyle
  2

 70
    20
 71
     2
 72
     2
 73
     0
 90
        0
 40
-0.6
 41
-30.0
 62
     5
 63
     7
 74
     1
 91
        4
 64
     7
 65
   257
 75
     1
175
     1
 42
1.0
 92
       10
 66
     7
 43
1.0
 76
     1
 77
     6
 78
     2
 67
     7
 79
     5
170
     0
171
     0
290
     0
174
     0
 93
        1
 44
0.0
173
     0
291
     1
 45
0.0
1001
ACAD
1000
AcDbSavedByObjectVersion
1070
     0
  0
VISUALSTYLE
  5
400
102
{ACAD_XDICTIONARY
360
D6E
102
}
102
{ACAD_REACTORS
330
3F2
102
}
330
3F2
100
AcDbVisualStyle
  2

 70
    14
 71
     2
 72
     2
 73
     0
 90
        0
 40
-0.6
 41
-30.0
 62
     5
 63
     7
 74
     1
 91
        4
 64
     7
 65
   257
 75
     7
175
     7
 42
1.0
 92
        8
 66
     7
 43
1.0
 76
     1
 77
     6
 78
     2
 67
     7
 79
     5
170
     0
171
     0
290
     0
174
     0
 93
        1
 44
0.0
173
     0
291
     1
 45
0.0
1001
ACAD
1000
AcDbSavedByObjectVersion
1070
     0
  0
VISUALSTYLE
  5
739
102
{ACAD_XDICTIONARY
360
D86
102
}
102
{ACAD_REACTORS
330
3F2
102
}
330
3F2
100
AcDbVisualStyle
  2

 70
    21
 71
     2
 72
     2
 73
     0
 90
        0
 40
-0.6
 41
-30.0
 62
     5
 63
     7
 74
     1
 91
        4
 64
     7
 65
   257
 75
     1
175
     1
 42
1.0
 92
        9
 66
     7
 43
1.0
 76
     1
 77
     6
 78
     2
 67
     7
 79
     5
170
     0
171
     0
290
     0
174
     0
 93
        1
 44
0.0
173
     0
291
     1
 45
0.0
1001
ACAD
1000
AcDbSavedByObjectVersion
1070
     0
  0
VISUALSTYLE
  5
3FC
102
{ACAD_XDICTIONARY
360
D66
102
}
102
{ACAD_REACTORS
330
3F2
102
}
330
3F2
100
AcDbVisualStyle
  2

 70
     8
 71
     2
 72
     2
 73
     0
 90
        0
 40
-0.6
 41
-30.0
 62
     5
 63
     7
 74
     1
 91
        0
 64
     7
 65
   257
 75
     1
175
     1
 42
1.0
 92
        8
 66
     8
 43
1.0
 76
     1
 77
     6
 78
     2
 67
     7
 79
     5
170
     0
171
     0
290
     0
174
     0
 93
       13
 44
0.0
173
     0
291
     0
 45
0.0
1001
ACAD
1000
AcDbSavedByObjectVersion
1070
     0
  0
VISUALSTYLE
  5
737
102
{ACAD_XDICTIONARY
360
D82
102
}
102
{ACAD_REACTORS
330
3F2
102
}
330
3F2
100
AcDbVisualStyle
  2

 70
    27
 71
     2
 72
     2
 73
     1
 90
        2
 40
-0.6
 41
30.0
 62
     5
 63
     7
 74
     0
 91
        4
 64
     7
 65
   257
 75
     1
175
     1
 42
1.0
 92
        8
 66
   257
 43
1.0
 76
     1
 77
     6
 78
     2
 67
     8
 79
     3
170
     0
171
     0
290
     0
174
     0
 93
        5
 44
0.0
173
     0
291
     0
 45
0.0
1001
ACAD
1000
AcDbSavedByObjectVersion
1070
     0
  0
VISUALSTYLE
  5
736
102
{ACAD_XDICTIONARY
360
D80
102
}
102
{ACAD_REACTORS
330
3F2
102
}
330
3F2
100
AcDbVisualStyle
  2

 70
    26
 71
     2
 72
     2
 73
     1
 90
        2
 40
-0.6
 41
30.0
 62
     5
 63
     7
 74
     1
 91
       10
 64
     7
 65
   257
 75
     2
175
     1
 42
1.0
 92
        8
 66
   257
 43
1.0
 76
     1
 77
     6
 78
     2
 67
     7
 79
     3
170
     0
171
     0
290
     0
174
     0
 93
        5
 44
0.0
173
     0
291
     0
 45
0.0
1001
ACAD
1000
AcDbSavedByObjectVersion
1070
     0
  0
VISUALSTYLE
  5
733
102
{ACAD_XDICTIONARY
360
D7A
102
}
102
{ACAD_REACTORS
330
3F2
102
}
330
3F2
100
AcDbVisualStyle
  2

 70
    23
 71
     2
 72
     2
 73
     3
 90
        0
 40
-0.6
 41
-30.0
 62
     5
 63
     7
 74
     2
 91
        2
 64
     7
 65
     7
 75
     1
175
     1
 42
40.0
 92
        8
 66
     7
 43
1.0
 76
     1
 77
     6
 78
     2
 67
     7
 79
     3
170
     0
171
     0
290
     0
174
     0
 93
        1
 44
0.0
173
     0
291
     0
 45
0.0
1001
ACAD
1000
AcDbSavedByObjectVersion
1070
     0
  0
VISUALSTYLE
  5
734
102
{ACAD_XDICTIONARY
360
D7C
102
}
102
{ACAD_REACTORS
330
3F2
102
}
330
3F2
100
AcDbVisualStyle
  2

 70
    24
 71
     1
 72
     2
 73
     2
 90
        0
 40
-0.6
 41
-30.0
 62
     5
 63
     7
 74
     2
 91
        2
 64
     7
 65
     7
 75
     1
175
     1
 42
40.0
 92
       11
 66
     7
 43
1.0
 76
     1
 77
     6
 78
     2
 67
     7
 79
     6
170
     0
171
     0
290
     0
174
     0
 93
        1
 44
0.0
173
     0
291
     0
 45
0.0
1001
ACAD
1000
AcDbSavedByObjectVersion
1070
     0
  0
VISUALSTYLE
  5
3FF
102
{ACAD_XDICTIONARY
360
D6C
102
}
102
{ACAD_REACTORS
330
3F2
102
}
330
3F2
100
AcDbVisualStyle
  2

 70
    13
 71
     2
 72
     2
 73
     0
 90
        0
 40
-0.6
 41
-30.0
 62
     5
 63
     7
 74
     1
 91
        4
 64
     7
 65
   257
 75
     1
175
     1
 42
1.0
 92
       12
 66
     7
 43
1.0
 76
     1
 77
     6
 78
     2
 67
     7
 79
     5
170
     0
171
     0
290
     0
174
     0
 93
        1
 44
0.0
173
     0
291
     1
 45
0.0
1001
ACAD
1000
AcDbSavedByObjectVersion
1070
     0
  0
VISUALSTYLE
  5
731
102
{ACAD_XDICTIONARY
360
D76
102
}
102
{ACAD_REACTORS
330
3F2
102
}
330
3F2
100
AcDbVisualStyle
  2

 70
     5
 71
     0
 72
     2
 73
     0
 90
        0
 40
-0.6
 41
-30.0
 62
     5
 63
     7
 74
     1
 91
        4
 64
     7
 65
   257
 75
     1
175
     1
 42
1.0
 92
        0
 66
   257
 43
1.0
 76
     1
 77
     6
 78
     2
 67
     7
 79
     3
170
     0
171
     0
290
     0
174
     0
 93
        1
 44
0.0
173
     0
291
     0
 45
0.0
1001
ACAD
1000
AcDbSavedByObjectVersion
1070
     0
  0
VISUALSTYLE
  5
735
102
{ACAD_XDICTIONARY
360
D7E
102
}
102
{ACAD_REACTORS
330
3F2
102
}
330
3F2
100
AcDbVisualStyle
  2

 70
    25
 71
     2
 72
     2
 73
     1
 90
        1
 40
0.5
 41
-30.0
 62
     5
 63
     7
 74
     1
 91
        0
 64
     7
 65
   257
 75
     1
175
     1
 42
1.0
 92
        8
 66
     7
 43
1.0
 76
     1
 77
     6
 78
     2
 67
     7
 79
     3
170
     0
171
     0
290
     0
174
     0
 93
       13
 44
0.0
173
     0
291
     0
 45
0.0
1001
ACAD
1000
AcDbSavedByObjectVersion
1070
     0
  0
DICTIONARYVAR
  5
449
102
{ACAD_REACTORS
330
357
102
}
330
357
100
DictionaryVariables
280
     0
  1
1:1
  0
DICTIONARYVAR
  5
447
102
{ACAD_REACTORS
330
357
102
}
330
357
100
DictionaryVariables
280
     0
  1
STANDARD
  0
DICTIONARYVAR
  5
38E
102
{ACAD_REACTORS
330
357
102
}
330
357
100
DictionaryVariables
280
     0
  1
STANDARD
  0
DICTIONARYVAR
  5
CF8
102
{ACAD_REACTORS
330
357
102
}
330
357
100
DictionaryVariables
280
     0
  1
Metric50
  0
DICTIONARYVAR
  5
CF9
102
{ACAD_REACTORS
330
357
102
}
330
357
100
DictionaryVariables
280
     0
  1
Metric50
  0
DICTIONARYVAR
  5
359
102
{ACAD_REACTORS
330
357
102
}
330
357
100
DictionaryVariables
280
     0
  1
2
  0
DICTIONARYVAR
  5
358
102
{ACAD_REACTORS
330
357
102
}
330
357
100
DictionaryVariables
280
     0
  1
1
  0
DICTIONARYVAR
  5
C65
102
{ACAD_REACTORS
330
357
102
}
330
357
100
DictionaryVariables
280
     0
  1
0
  0
DICTIONARYVAR
  5
7AE
102
{ACAD_REACTORS
330
357
102
}
330
357
100
DictionaryVariables
280
     0
  1
1
  0
DICTIONARYVAR
  5
7AF
102
{ACAD_REACTORS
330
357
102
}
330
357
100
DictionaryVariables
280
     0
  1
15
  0
DICTIONARYVAR
  5
44A
102
{ACAD_REACTORS
330
357
102
}
330
357
100
DictionaryVariables
280
     0
  1
0
  0
DICTIONARYVAR
  5
448
102
{ACAD_REACTORS
330
357
102
}
330
357
100
DictionaryVariables
280
     0
  1
0
  0
DICTIONARYVAR
  5
C67
102
{ACAD_REACTORS
330
357
102
}
330
357
100
DictionaryVariables
280
     0
  1
1
  0
DICTIONARYVAR
  5
C64
102
{ACAD_REACTORS
330
357
102
}
330
357
100
DictionaryVariables
280
     0
  1
127
  0
DICTIONARYVAR
  5
D46
102
{ACAD_REACTORS
330
357
102
}
330
357
100
DictionaryVariables
280
     0
  1
2
  0
DICTIONARY
  5
76F
102
{ACAD_REACTORS
330
76D
102
}
330
76D
100
AcDbDictionary
281
     1
  0
XRECORD
  5
69D
102
{ACAD_REACTORS
330
69C
102
}
330
69C
100
AcDbXrecord
280
     1
  0
DICTIONARY
  5
D8E
330
CE4
100
AcDbDictionary
280
     1
281
     1
  3
ACAD_XREC_ROUNDTRIP
360
D8F
  0
DICTIONARY
  5
D51
330
33B
100
AcDbDictionary
280
     1
281
     1
  3
ACAD_XREC_ROUNDTRIP
360
D52
  0
DICTIONARY
  5
D4F
330
303
100
AcDbDictionary
280
     1
281
     1
  3
ACAD_XREC_ROUNDTRIP
360
D50
  0
DICTIONARY
  5
C72
330
3F0
100
AcDbDictionary
280
     1
281
     1
  3
ACAD_XREC_ROUNDTRIP
360
C73
  0
DICTIONARY
  5
C70
330
3EF
100
AcDbDictionary
280
     1
281
     1
  3
ACAD_XREC_ROUNDTRIP
360
C71
  0
DICTIONARY
  5
C74
330
3F1
100
AcDbDictionary
280
     1
281
     1
  3
ACAD_XREC_ROUNDTRIP
360
C75
  0
DICTIONARY
  5
D74
330
43D
100
AcDbDictionary
280
     1
281
     1
  3
ACAD_XREC_ROUNDTRIP
360
D75
  0
DICTIONARY
  5
D8C
330
CE2
100
AcDbDictionary
280
     1
281
     1
  3
ACAD_XREC_ROUNDTRIP
360
D8D
  0
DICTIONARY
  5
444
330
389
100
AcDbDictionary
280
     1
281
     1
  3
ACAD_ROUNDTRIP_2008_TABLESTYLE_CELLSTYLEMAP
360
D47
  3
ACAD_XREC_ROUNDTRIP
360
D53
  0
DICTIONARY
  5
D5E
330
3F8
100
AcDbDictionary
280
     1
281
     1
  3
ACAD_XREC_ROUNDTRIP
360
D5F
  0
DICTIONARY
  5
D62
330
3FA
100
AcDbDictionary
280
     1
281
     1
  3
ACAD_XREC_ROUNDTRIP
360
D63
  0
DICTIONARY
  5
D60
330
3F9
100
AcDbDictionary
280
     1
281
     1
  3
ACAD_XREC_ROUNDTRIP
360
D61
  0
DICTIONARY
  5
D5C
330
3F7
100
AcDbDictionary
280
     1
281
     1
  3
ACAD_XREC_ROUNDTRIP
360
D5D
  0
DICTIONARY
  5
D6A
330
3FE
100
AcDbDictionary
280
     1
281
     1
  3
ACAD_XREC_ROUNDTRIP
360
D6B
  0
DICTIONARY
  5
D72
330
402
100
AcDbDictionary
280
     1
281
     1
  3
ACAD_XREC_ROUNDTRIP
360
D73
  0
DICTIONARY
  5
D64
330
3FB
100
AcDbDictionary
280
     1
281
     1
  3
ACAD_XREC_ROUNDTRIP
360
D65
  0
DICTIONARY
  5
D68
330
3FD
100
AcDbDictionary
280
     1
281
     1
  3
ACAD_XREC_ROUNDTRIP
360
D69
  0
DICTIONARY
  5
D88
330
73A
100
AcDbDictionary
280
     1
281
     1
  3
ACAD_XREC_ROUNDTRIP
360
D89
  0
DICTIONARY
  5
D70
330
401
100
AcDbDictionary
280
     1
281
     1
  3
ACAD_XREC_ROUNDTRIP
360
D71
  0
DICTIONARY
  5
D54
330
3F3
100
AcDbDictionary
280
     1
281
     1
  3
ACAD_XREC_ROUNDTRIP
360
D55
  0
DICTIONARY
  5
D56
330
3F4
100
AcDbDictionary
280
     1
281
     1
  3
ACAD_XREC_ROUNDTRIP
360
D57
  0
DICTIONARY
  5
D58
330
3F5
100
AcDbDictionary
280
     1
281
     1
  3
ACAD_XREC_ROUNDTRIP
360
D59
  0
DICTIONARY
  5
D5A
330
3F6
100
AcDbDictionary
280
     1
281
     1
  3
ACAD_XREC_ROUNDTRIP
360
D5B
  0
DICTIONARY
  5
D78
330
732
100
AcDbDictionary
280
     1
281
     1
  3
ACAD_XREC_ROUNDTRIP
360
D79
  0
DICTIONARY
  5
D84
330
738
100
AcDbDictionary
280
     1
281
     1
  3
ACAD_XREC_ROUNDTRIP
360
D85
  0
DICTIONARY
  5
D6E
330
400
100
AcDbDictionary
280
     1
281
     1
  3
ACAD_XREC_ROUNDTRIP
360
D6F
  0
DICTIONARY
  5
D86
330
739
100
AcDbDictionary
280
     1
281
     1
  3
ACAD_XREC_ROUNDTRIP
360
D87
  0
DICTIONARY
  5
D66
330
3FC
100
AcDbDictionary
280
     1
281
     1
  3
ACAD_XREC_ROUNDTRIP
360
D67
  0
DICTIONARY
  5
D82
330
737
100
AcDbDictionary
280
     1
281
     1
  3
ACAD_XREC_ROUNDTRIP
360
D83
  0
DICTIONARY
  5
D80
330
736
100
AcDbDictionary
280
     1
281
     1
  3
ACAD_XREC_ROUNDTRIP
360
D81
  0
DICTIONARY
  5
D7A
330
733
100
AcDbDictionary
280
     1
281
     1
  3
ACAD_XREC_ROUNDTRIP
360
D7B
  0
DICTIONARY
  5
D7C
330
734
100
AcDbDictionary
280
     1
281
     1
  3
ACAD_XREC_ROUNDTRIP
360
D7D
  0
DICTIONARY
  5
D6C
330
3FF
100
AcDbDictionary
280
     1
281
     1
  3
ACAD_XREC_ROUNDTRIP
360
D6D
  0
DICTIONARY
  5
D76
330
731
100
AcDbDictionary
280
     1
281
     1
  3
ACAD_XREC_ROUNDTRIP
360
D77
  0
DICTIONARY
  5
D7E
330
735
100
AcDbDictionary
280
     1
281
     1
  3
ACAD_XREC_ROUNDTRIP
360
D7F
  0
XRECORD
  5
D8F
102
{ACAD_REACTORS
330
D8E
102
}
330
D8E
100
AcDbXrecord
280
     1
102
DISPLAYNAME
  1
Metric50
102
FLAGS
 90
        0
  0
XRECORD
  5
D52
102
{ACAD_REACTORS
330
D51
102
}
330
D51
100
AcDbXrecord
280
     1
102
SHADEPLOT
 70
     0
102
SHADEPLOTRESLEVEL
 70
     2
102
SHADEPLOTCUSTOMDPI
 70
   300
  0
XRECORD
  5
D50
102
{ACAD_REACTORS
330
D4F
102
}
330
D4F
100
AcDbXrecord
280
     1
102
SHADEPLOT
 70
     1
102
SHADEPLOTRESLEVEL
 70
     2
102
SHADEPLOTCUSTOMDPI
 70
   300
  0
XRECORD
  5
C73
102
{ACAD_REACTORS
330
C72
102
}
330
C72
100
AcDbXrecord
280
     1
102
MATERIAL
148
0.0
149
0.0
149
0.0
 93
        0
 94
      127
282
     0
 72
     1
 77
     1
171
     1
175
     1
179
     1
273
     0
  0
XRECORD
  5
C71
102
{ACAD_REACTORS
330
C70
102
}
330
C70
100
AcDbXrecord
280
     1
102
MATERIAL
148
0.0
149
0.0
149
0.0
 93
        0
 94
      127
282
     0
 72
     1
 77
     1
171
     1
175
     1
179
     1
273
     0
  0
XRECORD
  5
C75
102
{ACAD_REACTORS
330
C74
102
}
330
C74
100
AcDbXrecord
280
     1
102
MATERIAL
148
0.0
149
0.0
149
0.0
 93
        0
 94
      127
282
     0
 72
     1
 77
     1
171
     1
175
     1
179
     1
273
     0
  0
XRECORD
  5
D75
102
{ACAD_REACTORS
330
D74
102
}
330
D74
100
AcDbXrecord
280
     1
102
ACAD_ROUNDTRIP_2012_MLEADER_STYLE
298
     1
  0
XRECORD
  5
D8D
102
{ACAD_REACTORS
330
D8C
102
}
330
D8C
100
AcDbXrecord
280
     1
102
DISPLAYNAME
  1
Metric50
102
FLAGS
 90
        0
  0
CELLSTYLEMAP
  5
D47
102
{ACAD_REACTORS
330
444
102
}
330
444
100
AcDbCellStyleMap
 90
        3
300
CELLSTYLE
  1
TABLEFORMAT_BEGIN
 90
        5
170
     1
 91
        0
 92
    32768
 62
   257
 93
        1
300
CONTENTFORMAT
  1
CONTENTFORMAT_BEGIN
 90
        0
 91
        0
 92
        4
 93
        0
300

 40
0.0
140
1.0
 94
        5
 62
     0
340
10
144
6.0
309
CONTENTFORMAT_END
171
     1
301
MARGIN
  1
CELLMARGIN_BEGIN
 40
1.5
 40
1.5
 40
1.5
 40
1.5
 40
0.18
 40
0.18
309
CELLMARGIN_END
 94
        6
 95
        1
302
GRIDFORMAT
  1
GRIDFORMAT_BEGIN
 90
        0
 91
        1
 62
     0
 92
       -2
340
0
 93
        0
 40
0.045
309
GRIDFORMAT_END
 95
        2
302
GRIDFORMAT
  1
GRIDFORMAT_BEGIN
 90
        0
 91
        1
 62
     0
 92
       -2
340
0
 93
        0
 40
0.045
309
GRIDFORMAT_END
 95
        4
302
GRIDFORMAT
  1
GRIDFORMAT_BEGIN
 90
        0
 91
        1
 62
     0
 92
       -2
340
0
 93
        0
 40
0.045
309
GRIDFORMAT_END
 95
        8
302
GRIDFORMAT
  1
GRIDFORMAT_BEGIN
 90
        0
 91
        1
 62
     0
 92
       -2
340
0
 93
        0
 40
0.045
309
GRIDFORMAT_END
 95
       16
302
GRIDFORMAT
  1
GRIDFORMAT_BEGIN
 90
        0
 91
        1
 62
     0
 92
       -2
340
0
 93
        0
 40
0.045
309
GRIDFORMAT_END
 95
       32
302
GRIDFORMAT
  1
GRIDFORMAT_BEGIN
 90
        0
 91
        1
 62
     0
 92
       -2
340
0
 93
        0
 40
0.045
309
GRIDFORMAT_END
309
TABLEFORMAT_END
  1
CELLSTYLE_BEGIN
 90
        1
 91
        1
300
_TITLE
309
CELLSTYLE_END
300
CELLSTYLE
  1
TABLEFORMAT_BEGIN
 90
        5
170
     1
 91
        0
 92
        0
 62
   257
 93
        1
300
CONTENTFORMAT
  1
CONTENTFORMAT_BEGIN
 90
        0
 91
        0
 92
        4
 93
        0
300

 40
0.0
140
1.0
 94
        5
 62
     0
340
10
144
4.5
309
CONTENTFORMAT_END
171
     1
301
MARGIN
  1
CELLMARGIN_BEGIN
 40
1.5
 40
1.5
 40
1.5
 40
1.5
 40
0.18
 40
0.18
309
CELLMARGIN_END
 94
        6
 95
        1
302
GRIDFORMAT
  1
GRIDFORMAT_BEGIN
 90
        0
 91
        1
 62
     0
 92
       -2
340
0
 93
        0
 40
0.045
309
GRIDFORMAT_END
 95
        2
302
GRIDFORMAT
  1
GRIDFORMAT_BEGIN
 90
        0
 91
        1
 62
     0
 92
       -2
340
0
 93
        0
 40
0.045
309
GRIDFORMAT_END
 95
        4
302
GRIDFORMAT
  1
GRIDFORMAT_BEGIN
 90
        0
 91
        1
 62
     0
 92
       -2
340
0
 93
        0
 40
0.045
309
GRIDFORMAT_END
 95
        8
302
GRIDFORMAT
  1
GRIDFORMAT_BEGIN
 90
        0
 91
        1
 62
     0
 92
       -2
340
0
 93
        0
 40
0.045
309
GRIDFORMAT_END
 95
       16
302
GRIDFORMAT
  1
GRIDFORMAT_BEGIN
 90
        0
 91
        1
 62
     0
 92
       -2
340
0
 93
        0
 40
0.045
309
GRIDFORMAT_END
 95
       32
302
GRIDFORMAT
  1
GRIDFORMAT_BEGIN
 90
        0
 91
        1
 62
     0
 92
       -2
340
0
 93
        0
 40
0.045
309
GRIDFORMAT_END
309
TABLEFORMAT_END
  1
CELLSTYLE_BEGIN
 90
        2
 91
        1
300
_HEADER
309
CELLSTYLE_END
300
CELLSTYLE
  1
TABLEFORMAT_BEGIN
 90
        5
170
     1
 91
        0
 92
        0
 62
   257
 93
        1
300
CONTENTFORMAT
  1
CONTENTFORMAT_BEGIN
 90
        0
 91
        0
 92
        4
 93
        0
300

 40
0.0
140
1.0
 94
        2
 62
     0
340
10
144
4.5
309
CONTENTFORMAT_END
171
     1
301
MARGIN
  1
CELLMARGIN_BEGIN
 40
1.5
 40
1.5
 40
1.5
 40
1.5
 40
0.18
 40
0.18
309
CELLMARGIN_END
 94
        6
 95
        1
302
GRIDFORMAT
  1
GRIDFORMAT_BEGIN
 90
        0
 91
        1
 62
     0
 92
       -2
340
0
 93
        0
 40
0.045
309
GRIDFORMAT_END
 95
        2
302
GRIDFORMAT
  1
GRIDFORMAT_BEGIN
 90
        0
 91
        1
 62
     0
 92
       -2
340
0
 93
        0
 40
0.045
309
GRIDFORMAT_END
 95
        4
302
GRIDFORMAT
  1
GRIDFORMAT_BEGIN
 90
        0
 91
        1
 62
     0
 92
       -2
340
0
 93
        0
 40
0.045
309
GRIDFORMAT_END
 95
        8
302
GRIDFORMAT
  1
GRIDFORMAT_BEGIN
 90
        0
 91
        1
 62
     0
 92
       -2
340
0
 93
        0
 40
0.045
309
GRIDFORMAT_END
 95
       16
302
GRIDFORMAT
  1
GRIDFORMAT_BEGIN
 90
        0
 91
        1
 62
     0
 92
       -2
340
0
 93
        0
 40
0.045
309
GRIDFORMAT_END
 95
       32
302
GRIDFORMAT
  1
GRIDFORMAT_BEGIN
 90
        0
 91
        1
 62
     0
 92
       -2
340
0
 93
        0
 40
0.045
309
GRIDFORMAT_END
309
TABLEFORMAT_END
  1
CELLSTYLE_BEGIN
 90
        3
 91
        2
300
_DATA
309
CELLSTYLE_END
  0
XRECORD
  5
D53
102
{ACAD_REACTORS
330
444
102
}
330
444
100
AcDbXrecord
280
     1
102
ACAD_ROUNDTRIP_PRE2007_TABLESTYLE
 90
        4
 91
        0
  1

 92
        4
 93
        0
  2

 94
        4
 95
        0
  3

  0
XRECORD
  5
D5F
102
{ACAD_REACTORS
330
D5E
102
}
330
D5E
100
AcDbXrecord
280
     1
102
RTVSPost2010Prop28
280
     1
102
RTVSPost2010PropOp28
 70
     1
102
RTVSPost2010Prop29
280
     1
102
RTVSPost2010PropOp29
 70
     1
102
RTVSPost2010Prop30
280
     0
102
RTVSPost2010PropOp30
 70
     1
102
RTVSPost2010Prop31
280
     0
102
RTVSPost2010PropOp31
 70
     1
102
RTVSPost2010Prop32
280
     0
102
RTVSPost2010PropOp32
 70
     1
102
RTVSPost2010Prop33
280
     0
102
RTVSPost2010PropOp33
 70
     1
102
RTVSPost2010Prop34
280
     0
102
RTVSPost2010PropOp34
 70
     1
102
RTVSPost2010Prop35
280
     0
102
RTVSPost2010PropOp35
 70
     1
102
RTVSPost2010Prop36
280
     0
102
RTVSPost2010PropOp36
 70
     1
102
RTVSPost2010Prop37
 90
       50
102
RTVSPost2010PropOp37
 70
     1
102
RTVSPost2010Prop38
140
0.0
102
RTVSPost2010PropOp38
 70
     1
102
RTVSPost2010Prop39
140
1.0
102
RTVSPost2010PropOp39
 70
     1
102
RTVSPost2010Prop40
 90
        0
102
RTVSPost2010PropOp40
 70
     1
102
RTVSPost2010Prop41ColorIndex
 90
       18
102
RTVSPost2010Prop41ColorRGB
 90
        0
102
RTVSPost2010PropOp41
 70
     1
102
RTVSPost2010Prop42
 90
       50
102
RTVSPost2010PropOp42
 70
     1
102
RTVSPost2010Prop43
 90
        3
102
RTVSPost2010PropOp43
 70
     1
102
RTVSPost2010Prop44ColorIndex
 90
        5
102
RTVSPost2010Prop44ColorRGB
 90
      255
102
RTVSPost2010PropOp44
 70
     1
102
RTVSPost2010Prop45
280
     0
102
RTVSPost2010PropOp45
 70
     1
102
RTVSPost2010Prop46
 90
       50
102
RTVSPost2010PropOp46
 70
     1
102
RTVSPost2010Prop47
 90
       50
102
RTVSPost2010PropOp47
 70
     1
102
RTVSPost2010Prop48
 90
       50
102
RTVSPost2010PropOp48
 70
     1
102
RTVSPost2010Prop49
280
     0
102
RTVSPost2010PropOp49
 70
     1
102
RTVSPost2010Prop50
 90
       50
102
RTVSPost2010PropOp50
 70
     1
102
RTVSPost2010Prop51ColorIndex
 90
      256
102
RTVSPost2010Prop51ColorRGB
 90
-16777216
102
RTVSPost2010PropOp51
 70
     0
102
RTVSPost2010Prop52
140
1.0
102
RTVSPost2010PropOp52
 70
     0
102
RTVSPost2010Prop53
 90
        2
102
RTVSPost2010PropOp53
 70
     1
102
RTVSPost2010Prop54
  1
strokes_ogs.tif
102
RTVSPost2010PropOp54
 70
     1
102
RTVSPost2010Prop55
280
     0
102
RTVSPost2010PropOp55
 70
     1
102
RTVSPost2010Prop56
140
1.0
102
RTVSPost2010PropOp56
 70
     1
102
RTVSPost2010Prop57
140
1.0
102
RTVSPost2010PropOp57
 70
     1
102
RTVSPropertyOp0
 70
     1
102
RTVSPropertyOp1
 70
     1
102
RTVSPropertyOp2
 70
     1
102
RTVSPropertyOp3
 70
     1
102
RTVSPropertyOp4
 70
     1
102
RTVSPropertyOp5
 70
     1
102
RTVSPropertyOp6
 70
     1
102
RTVSPropertyOp7
 70
     1
102
RTVSPropertyOp8
 70
     1
102
RTVSPropertyOp9
 70
     1
102
RTVSPropertyOp10
 70
     1
102
RTVSPropertyOp11
 70
     1
102
RTVSPropertyOp12
 70
     1
102
RTVSPropertyOp13
 70
     1
102
RTVSPropertyOp14
 70
     1
102
RTVSPropertyOp15
 70
     1
102
RTVSPropertyOp16
 70
     1
102
RTVSPropertyOp17
 70
     1
102
RTVSPropertyOp18
 70
     1
102
RTVSPropertyOp19
 70
     1
102
RTVSPropertyOp20
 70
     1
102
RTVSPropertyOp21
 70
     1
102
RTVSPropertyOp22
 70
     1
102
RTVSPropertyOp23
 70
     1
102
RTVSPropertyOp24
 70
     1
102
RTVSPropertyOp25
 70
     1
102
RTVSPropertyOp26
 70
     1
102
RTVSPropertyOp27
 70
     1
102
RTVSPropertyOp28
 70
     1
102
RTVSPropertyOp29
 70
     1
102
RTVSPropertyOp30
 70
     1
102
RTVSPropertyOp31
 70
     1
102
RTVSPropertyOp32
 70
     1
102
RTVSPropertyOp33
 70
     1
102
RTVSPropertyOp34
 70
     1
102
RTVSPropertyOp35
 70
     1
102
RTVSPropertyOp36
 70
     1
102
RTVSPropertyOp37
 70
     1
102
RTVSPropertyOp38
 70
     1
102
RTVSPropertyOp39
 70
     1
102
RTVSPropertyOp40
 70
     1
102
RTVSPropertyOp41
 70
     1
102
RTVSPropertyOp42
 70
     1
102
RTVSPropertyOp43
 70
     1
102
RTVSPropertyOp44
 70
     1
102
RTVSPropertyOp45
 70
     1
102
RTVSPropertyOp46
 70
     1
102
RTVSPropertyOp47
 70
     1
102
RTVSPropertyOp48
 70
     1
102
RTVSPropertyOp49
 70
     1
102
RTVSPropertyOp50
 70
     1
102
RTVSPropertyOp51
 70
     0
102
RTVSPropertyOp52
 70
     0
102
RTVSPropertyOp53
 70
     1
102
RTVSPropertyOp54
 70
     1
102
RTVSPropertyOp55
 70
     1
102
RTVSPropertyOp56
 70
     1
102
RTVSPropertyOp57
 70
     1
102
RTVSPropertyOp58
 70
     1
102
RTVSPropertyOp59
 70
     1
102
RTVSPropertyOp60
 70
     1
102
RTVSPropertyOp61
 70
     1
102
RTVSPropertyOp62
 70
     1
  0
XRECORD
  5
D63
102
{ACAD_REACTORS
330
D62
102
}
330
D62
100
AcDbXrecord
280
     1
102
RTVSPost2010Prop28
280
     0
102
RTVSPost2010PropOp28
 70
     1
102
RTVSPost2010Prop29
280
     1
102
RTVSPost2010PropOp29
 70
     1
102
RTVSPost2010Prop30
280
     1
102
RTVSPost2010PropOp30
 70
     1
102
RTVSPost2010Prop31
280
     0
102
RTVSPost2010PropOp31
 70
     1
102
RTVSPost2010Prop32
280
     0
102
RTVSPost2010PropOp32
 70
     1
102
RTVSPost2010Prop33
280
     0
102
RTVSPost2010PropOp33
 70
     1
102
RTVSPost2010Prop34
280
     0
102
RTVSPost2010PropOp34
 70
     1
102
RTVSPost2010Prop35
280
     0
102
RTVSPost2010PropOp35
 70
     1
102
RTVSPost2010Prop36
280
     0
102
RTVSPost2010PropOp36
 70
     1
102
RTVSPost2010Prop37
 90
       50
102
RTVSPost2010PropOp37
 70
     1
102
RTVSPost2010Prop38
140
0.0
102
RTVSPost2010PropOp38
 70
     1
102
RTVSPost2010Prop39
140
1.0
102
RTVSPost2010PropOp39
 70
     1
102
RTVSPost2010Prop40
 90
        0
102
RTVSPost2010PropOp40
 70
     1
102
RTVSPost2010Prop41ColorIndex
 90
       18
102
RTVSPost2010Prop41ColorRGB
 90
        0
102
RTVSPost2010PropOp41
 70
     1
102
RTVSPost2010Prop42
 90
       50
102
RTVSPost2010PropOp42
 70
     1
102
RTVSPost2010Prop43
 90
        3
102
RTVSPost2010PropOp43
 70
     1
102
RTVSPost2010Prop44ColorIndex
 90
        5
102
RTVSPost2010Prop44ColorRGB
 90
      255
102
RTVSPost2010PropOp44
 70
     1
102
RTVSPost2010Prop45
280
     0
102
RTVSPost2010PropOp45
 70
     1
102
RTVSPost2010Prop46
 90
       50
102
RTVSPost2010PropOp46
 70
     1
102
RTVSPost2010Prop47
 90
       50
102
RTVSPost2010PropOp47
 70
     1
102
RTVSPost2010Prop48
 90
       50
102
RTVSPost2010PropOp48
 70
     1
102
RTVSPost2010Prop49
280
     0
102
RTVSPost2010PropOp49
 70
     1
102
RTVSPost2010Prop50
 90
       50
102
RTVSPost2010PropOp50
 70
     1
102
RTVSPost2010Prop51ColorIndex
 90
      256
102
RTVSPost2010Prop51ColorRGB
 90
-16777216
102
RTVSPost2010PropOp51
 70
     0
102
RTVSPost2010Prop52
140
1.0
102
RTVSPost2010PropOp52
 70
     0
102
RTVSPost2010Prop53
 90
        2
102
RTVSPost2010PropOp53
 70
     1
102
RTVSPost2010Prop54
  1
strokes_ogs.tif
102
RTVSPost2010PropOp54
 70
     1
102
RTVSPost2010Prop55
280
     0
102
RTVSPost2010PropOp55
 70
     1
102
RTVSPost2010Prop56
140
1.0
102
RTVSPost2010PropOp56
 70
     1
102
RTVSPost2010Prop57
140
1.0
102
RTVSPost2010PropOp57
 70
     1
102
RTVSPropertyOp0
 70
     1
102
RTVSPropertyOp1
 70
     1
102
RTVSPropertyOp2
 70
     1
102
RTVSPropertyOp3
 70
     1
102
RTVSPropertyOp4
 70
     1
102
RTVSPropertyOp5
 70
     1
102
RTVSPropertyOp6
 70
     1
102
RTVSPropertyOp7
 70
     1
102
RTVSPropertyOp8
 70
     1
102
RTVSPropertyOp9
 70
     1
102
RTVSPropertyOp10
 70
     1
102
RTVSPropertyOp11
 70
     1
102
RTVSPropertyOp12
 70
     1
102
RTVSPropertyOp13
 70
     1
102
RTVSPropertyOp14
 70
     1
102
RTVSPropertyOp15
 70
     1
102
RTVSPropertyOp16
 70
     1
102
RTVSPropertyOp17
 70
     1
102
RTVSPropertyOp18
 70
     1
102
RTVSPropertyOp19
 70
     1
102
RTVSPropertyOp20
 70
     1
102
RTVSPropertyOp21
 70
     1
102
RTVSPropertyOp22
 70
     1
102
RTVSPropertyOp23
 70
     1
102
RTVSPropertyOp24
 70
     1
102
RTVSPropertyOp25
 70
     1
102
RTVSPropertyOp26
 70
     1
102
RTVSPropertyOp27
 70
     1
102
RTVSPropertyOp28
 70
     1
102
RTVSPropertyOp29
 70
     1
102
RTVSPropertyOp30
 70
     1
102
RTVSPropertyOp31
 70
     1
102
RTVSPropertyOp32
 70
     1
102
RTVSPropertyOp33
 70
     1
102
RTVSPropertyOp34
 70
     1
102
RTVSPropertyOp35
 70
     1
102
RTVSPropertyOp36
 70
     1
102
RTVSPropertyOp37
 70
     1
102
RTVSPropertyOp38
 70
     1
102
RTVSPropertyOp39
 70
     1
102
RTVSPropertyOp40
 70
     1
102
RTVSPropertyOp41
 70
     1
102
RTVSPropertyOp42
 70
     1
102
RTVSPropertyOp43
 70
     1
102
RTVSPropertyOp44
 70
     1
102
RTVSPropertyOp45
 70
     1
102
RTVSPropertyOp46
 70
     1
102
RTVSPropertyOp47
 70
     1
102
RTVSPropertyOp48
 70
     1
102
RTVSPropertyOp49
 70
     1
102
RTVSPropertyOp50
 70
     1
102
RTVSPropertyOp51
 70
     0
102
RTVSPropertyOp52
 70
     0
102
RTVSPropertyOp53
 70
     1
102
RTVSPropertyOp54
 70
     1
102
RTVSPropertyOp55
 70
     1
102
RTVSPropertyOp56
 70
     1
102
RTVSPropertyOp57
 70
     1
102
RTVSPropertyOp58
 70
     1
102
RTVSPropertyOp59
 70
     1
102
RTVSPropertyOp60
 70
     1
102
RTVSPropertyOp61
 70
     1
102
RTVSPropertyOp62
 70
     1
  0
XRECORD
  5
D61
102
{ACAD_REACTORS
330
D60
102
}
330
D60
100
AcDbXrecord
280
     1
102
RTVSPost2010Prop28
280
     0
102
RTVSPost2010PropOp28
 70
     1
102
RTVSPost2010Prop29
280
     1
102
RTVSPost2010PropOp29
 70
     1
102
RTVSPost2010Prop30
280
     1
102
RTVSPost2010PropOp30
 70
     1
102
RTVSPost2010Prop31
280
     0
102
RTVSPost2010PropOp31
 70
     1
102
RTVSPost2010Prop32
280
     0
102
RTVSPost2010PropOp32
 70
     1
102
RTVSPost2010Prop33
280
     0
102
RTVSPost2010PropOp33
 70
     1
102
RTVSPost2010Prop34
280
     0
102
RTVSPost2010PropOp34
 70
     1
102
RTVSPost2010Prop35
280
     0
102
RTVSPost2010PropOp35
 70
     1
102
RTVSPost2010Prop36
280
     0
102
RTVSPost2010PropOp36
 70
     1
102
RTVSPost2010Prop37
 90
       50
102
RTVSPost2010PropOp37
 70
     1
102
RTVSPost2010Prop38
140
0.0
102
RTVSPost2010PropOp38
 70
     1
102
RTVSPost2010Prop39
140
1.0
102
RTVSPost2010PropOp39
 70
     1
102
RTVSPost2010Prop40
 90
        0
102
RTVSPost2010PropOp40
 70
     1
102
RTVSPost2010Prop41ColorIndex
 90
       18
102
RTVSPost2010Prop41ColorRGB
 90
        0
102
RTVSPost2010PropOp41
 70
     1
102
RTVSPost2010Prop42
 90
       50
102
RTVSPost2010PropOp42
 70
     1
102
RTVSPost2010Prop43
 90
        3
102
RTVSPost2010PropOp43
 70
     1
102
RTVSPost2010Prop44ColorIndex
 90
        5
102
RTVSPost2010Prop44ColorRGB
 90
      255
102
RTVSPost2010PropOp44
 70
     1
102
RTVSPost2010Prop45
280
     0
102
RTVSPost2010PropOp45
 70
     1
102
RTVSPost2010Prop46
 90
       50
102
RTVSPost2010PropOp46
 70
     1
102
RTVSPost2010Prop47
 90
       50
102
RTVSPost2010PropOp47
 70
     1
102
RTVSPost2010Prop48
 90
       50
102
RTVSPost2010PropOp48
 70
     1
102
RTVSPost2010Prop49
280
     0
102
RTVSPost2010PropOp49
 70
     1
102
RTVSPost2010Prop50
 90
       50
102
RTVSPost2010PropOp50
 70
     1
102
RTVSPost2010Prop51ColorIndex
 90
      256
102
RTVSPost2010Prop51ColorRGB
 90
-16777216
102
RTVSPost2010PropOp51
 70
     0
102
RTVSPost2010Prop52
140
1.0
102
RTVSPost2010PropOp52
 70
     0
102
RTVSPost2010Prop53
 90
        2
102
RTVSPost2010PropOp53
 70
     1
102
RTVSPost2010Prop54
  1
strokes_ogs.tif
102
RTVSPost2010PropOp54
 70
     1
102
RTVSPost2010Prop55
280
     0
102
RTVSPost2010PropOp55
 70
     1
102
RTVSPost2010Prop56
140
1.0
102
RTVSPost2010PropOp56
 70
     1
102
RTVSPost2010Prop57
140
1.0
102
RTVSPost2010PropOp57
 70
     1
102
RTVSPropertyOp0
 70
     1
102
RTVSPropertyOp1
 70
     1
102
RTVSPropertyOp2
 70
     1
102
RTVSPropertyOp3
 70
     1
102
RTVSPropertyOp4
 70
     1
102
RTVSPropertyOp5
 70
     1
102
RTVSPropertyOp6
 70
     1
102
RTVSPropertyOp7
 70
     1
102
RTVSPropertyOp8
 70
     1
102
RTVSPropertyOp9
 70
     1
102
RTVSPropertyOp10
 70
     1
102
RTVSPropertyOp11
 70
     1
102
RTVSPropertyOp12
 70
     1
102
RTVSPropertyOp13
 70
     1
102
RTVSPropertyOp14
 70
     1
102
RTVSPropertyOp15
 70
     1
102
RTVSPropertyOp16
 70
     1
102
RTVSPropertyOp17
 70
     1
102
RTVSPropertyOp18
 70
     1
102
RTVSPropertyOp19
 70
     1
102
RTVSPropertyOp20
 70
     1
102
RTVSPropertyOp21
 70
     1
102
RTVSPropertyOp22
 70
     1
102
RTVSPropertyOp23
 70
     1
102
RTVSPropertyOp24
 70
     1
102
RTVSPropertyOp25
 70
     1
102
RTVSPropertyOp26
 70
     1
102
RTVSPropertyOp27
 70
     1
102
RTVSPropertyOp28
 70
     1
102
RTVSPropertyOp29
 70
     1
102
RTVSPropertyOp30
 70
     1
102
RTVSPropertyOp31
 70
     1
102
RTVSPropertyOp32
 70
     1
102
RTVSPropertyOp33
 70
     1
102
RTVSPropertyOp34
 70
     1
102
RTVSPropertyOp35
 70
     1
102
RTVSPropertyOp36
 70
     1
102
RTVSPropertyOp37
 70
     1
102
RTVSPropertyOp38
 70
     1
102
RTVSPropertyOp39
 70
     1
102
RTVSPropertyOp40
 70
     1
102
RTVSPropertyOp41
 70
     1
102
RTVSPropertyOp42
 70
     1
102
RTVSPropertyOp43
 70
     1
102
RTVSPropertyOp44
 70
     1
102
RTVSPropertyOp45
 70
     1
102
RTVSPropertyOp46
 70
     1
102
RTVSPropertyOp47
 70
     1
102
RTVSPropertyOp48
 70
     1
102
RTVSPropertyOp49
 70
     1
102
RTVSPropertyOp50
 70
     1
102
RTVSPropertyOp51
 70
     0
102
RTVSPropertyOp52
 70
     0
102
RTVSPropertyOp53
 70
     1
102
RTVSPropertyOp54
 70
     1
102
RTVSPropertyOp55
 70
     1
102
RTVSPropertyOp56
 70
     1
102
RTVSPropertyOp57
 70
     1
102
RTVSPropertyOp58
 70
     1
102
RTVSPropertyOp59
 70
     1
102
RTVSPropertyOp60
 70
     1
102
RTVSPropertyOp61
 70
     1
102
RTVSPropertyOp62
 70
     1
  0
XRECORD
  5
D5D
102
{ACAD_REACTORS
330
D5C
102
}
330
D5C
100
AcDbXrecord
280
     1
102
RTVSPost2010Prop28
280
     0
102
RTVSPost2010PropOp28
 70
     1
102
RTVSPost2010Prop29
280
     1
102
RTVSPost2010PropOp29
 70
     1
102
RTVSPost2010Prop30
280
     1
102
RTVSPost2010PropOp30
 70
     1
102
RTVSPost2010Prop31
280
     0
102
RTVSPost2010PropOp31
 70
     1
102
RTVSPost2010Prop32
280
     0
102
RTVSPost2010PropOp32
 70
     1
102
RTVSPost2010Prop33
280
     0
102
RTVSPost2010PropOp33
 70
     1
102
RTVSPost2010Prop34
280
     0
102
RTVSPost2010PropOp34
 70
     1
102
RTVSPost2010Prop35
280
     0
102
RTVSPost2010PropOp35
 70
     1
102
RTVSPost2010Prop36
280
     0
102
RTVSPost2010PropOp36
 70
     1
102
RTVSPost2010Prop37
 90
       50
102
RTVSPost2010PropOp37
 70
     1
102
RTVSPost2010Prop38
140
0.0
102
RTVSPost2010PropOp38
 70
     1
102
RTVSPost2010Prop39
140
1.0
102
RTVSPost2010PropOp39
 70
     1
102
RTVSPost2010Prop40
 90
        0
102
RTVSPost2010PropOp40
 70
     1
102
RTVSPost2010Prop41ColorIndex
 90
       18
102
RTVSPost2010Prop41ColorRGB
 90
        0
102
RTVSPost2010PropOp41
 70
     1
102
RTVSPost2010Prop42
 90
       50
102
RTVSPost2010PropOp42
 70
     1
102
RTVSPost2010Prop43
 90
        3
102
RTVSPost2010PropOp43
 70
     1
102
RTVSPost2010Prop44ColorIndex
 90
        5
102
RTVSPost2010Prop44ColorRGB
 90
      255
102
RTVSPost2010PropOp44
 70
     1
102
RTVSPost2010Prop45
280
     0
102
RTVSPost2010PropOp45
 70
     1
102
RTVSPost2010Prop46
 90
       50
102
RTVSPost2010PropOp46
 70
     1
102
RTVSPost2010Prop47
 90
       50
102
RTVSPost2010PropOp47
 70
     1
102
RTVSPost2010Prop48
 90
       50
102
RTVSPost2010PropOp48
 70
     1
102
RTVSPost2010Prop49
280
     0
102
RTVSPost2010PropOp49
 70
     1
102
RTVSPost2010Prop50
 90
       50
102
RTVSPost2010PropOp50
 70
     1
102
RTVSPost2010Prop51ColorIndex
 90
      256
102
RTVSPost2010Prop51ColorRGB
 90
-16777216
102
RTVSPost2010PropOp51
 70
     0
102
RTVSPost2010Prop52
140
1.0
102
RTVSPost2010PropOp52
 70
     0
102
RTVSPost2010Prop53
 90
        2
102
RTVSPost2010PropOp53
 70
     1
102
RTVSPost2010Prop54
  1
strokes_ogs.tif
102
RTVSPost2010PropOp54
 70
     1
102
RTVSPost2010Prop55
280
     0
102
RTVSPost2010PropOp55
 70
     1
102
RTVSPost2010Prop56
140
1.0
102
RTVSPost2010PropOp56
 70
     1
102
RTVSPost2010Prop57
140
1.0
102
RTVSPost2010PropOp57
 70
     1
102
RTVSPropertyOp0
 70
     1
102
RTVSPropertyOp1
 70
     1
102
RTVSPropertyOp2
 70
     1
102
RTVSPropertyOp3
 70
     1
102
RTVSPropertyOp4
 70
     1
102
RTVSPropertyOp5
 70
     1
102
RTVSPropertyOp6
 70
     1
102
RTVSPropertyOp7
 70
     1
102
RTVSPropertyOp8
 70
     1
102
RTVSPropertyOp9
 70
     1
102
RTVSPropertyOp10
 70
     1
102
RTVSPropertyOp11
 70
     1
102
RTVSPropertyOp12
 70
     1
102
RTVSPropertyOp13
 70
     1
102
RTVSPropertyOp14
 70
     1
102
RTVSPropertyOp15
 70
     1
102
RTVSPropertyOp16
 70
     1
102
RTVSPropertyOp17
 70
     1
102
RTVSPropertyOp18
 70
     1
102
RTVSPropertyOp19
 70
     1
102
RTVSPropertyOp20
 70
     1
102
RTVSPropertyOp21
 70
     1
102
RTVSPropertyOp22
 70
     1
102
RTVSPropertyOp23
 70
     1
102
RTVSPropertyOp24
 70
     1
102
RTVSPropertyOp25
 70
     1
102
RTVSPropertyOp26
 70
     1
102
RTVSPropertyOp27
 70
     1
102
RTVSPropertyOp28
 70
     1
102
RTVSPropertyOp29
 70
     1
102
RTVSPropertyOp30
 70
     1
102
RTVSPropertyOp31
 70
     1
102
RTVSPropertyOp32
 70
     1
102
RTVSPropertyOp33
 70
     1
102
RTVSPropertyOp34
 70
     1
102
RTVSPropertyOp35
 70
     1
102
RTVSPropertyOp36
 70
     1
102
RTVSPropertyOp37
 70
     1
102
RTVSPropertyOp38
 70
     1
102
RTVSPropertyOp39
 70
     1
102
RTVSPropertyOp40
 70
     1
102
RTVSPropertyOp41
 70
     1
102
RTVSPropertyOp42
 70
     1
102
RTVSPropertyOp43
 70
     1
102
RTVSPropertyOp44
 70
     1
102
RTVSPropertyOp45
 70
     1
102
RTVSPropertyOp46
 70
     1
102
RTVSPropertyOp47
 70
     1
102
RTVSPropertyOp48
 70
     1
102
RTVSPropertyOp49
 70
     1
102
RTVSPropertyOp50
 70
     1
102
RTVSPropertyOp51
 70
     0
102
RTVSPropertyOp52
 70
     0
102
RTVSPropertyOp53
 70
     1
102
RTVSPropertyOp54
 70
     1
102
RTVSPropertyOp55
 70
     1
102
RTVSPropertyOp56
 70
     1
102
RTVSPropertyOp57
 70
     1
102
RTVSPropertyOp58
 70
     1
102
RTVSPropertyOp59
 70
     1
102
RTVSPropertyOp60
 70
     1
102
RTVSPropertyOp61
 70
     1
102
RTVSPropertyOp62
 70
     1
  0
XRECORD
  5
D6B
102
{ACAD_REACTORS
330
D6A
102
}
330
D6A
100
AcDbXrecord
280
     1
102
RTVSPost2010Prop28
280
     0
102
RTVSPost2010PropOp28
 70
     1
102
RTVSPost2010Prop29
280
     1
102
RTVSPost2010PropOp29
 70
     1
102
RTVSPost2010Prop30
280
     1
102
RTVSPost2010PropOp30
 70
     1
102
RTVSPost2010Prop31
280
     0
102
RTVSPost2010PropOp31
 70
     1
102
RTVSPost2010Prop32
280
     0
102
RTVSPost2010PropOp32
 70
     1
102
RTVSPost2010Prop33
280
     0
102
RTVSPost2010PropOp33
 70
     1
102
RTVSPost2010Prop34
280
     0
102
RTVSPost2010PropOp34
 70
     1
102
RTVSPost2010Prop35
280
     0
102
RTVSPost2010PropOp35
 70
     1
102
RTVSPost2010Prop36
280
     0
102
RTVSPost2010PropOp36
 70
     1
102
RTVSPost2010Prop37
 90
       50
102
RTVSPost2010PropOp37
 70
     1
102
RTVSPost2010Prop38
140
0.0
102
RTVSPost2010PropOp38
 70
     1
102
RTVSPost2010Prop39
140
1.0
102
RTVSPost2010PropOp39
 70
     1
102
RTVSPost2010Prop40
 90
        0
102
RTVSPost2010PropOp40
 70
     1
102
RTVSPost2010Prop41ColorIndex
 90
       18
102
RTVSPost2010Prop41ColorRGB
 90
        0
102
RTVSPost2010PropOp41
 70
     1
102
RTVSPost2010Prop42
 90
       50
102
RTVSPost2010PropOp42
 70
     1
102
RTVSPost2010Prop43
 90
        3
102
RTVSPost2010PropOp43
 70
     1
102
RTVSPost2010Prop44ColorIndex
 90
        5
102
RTVSPost2010Prop44ColorRGB
 90
      255
102
RTVSPost2010PropOp44
 70
     1
102
RTVSPost2010Prop45
280
     0
102
RTVSPost2010PropOp45
 70
     1
102
RTVSPost2010Prop46
 90
       50
102
RTVSPost2010PropOp46
 70
     1
102
RTVSPost2010Prop47
 90
       50
102
RTVSPost2010PropOp47
 70
     1
102
RTVSPost2010Prop48
 90
       50
102
RTVSPost2010PropOp48
 70
     1
102
RTVSPost2010Prop49
280
     0
102
RTVSPost2010PropOp49
 70
     1
102
RTVSPost2010Prop50
 90
       50
102
RTVSPost2010PropOp50
 70
     1
102
RTVSPost2010Prop51ColorIndex
 90
      256
102
RTVSPost2010Prop51ColorRGB
 90
-16777216
102
RTVSPost2010PropOp51
 70
     0
102
RTVSPost2010Prop52
140
1.0
102
RTVSPost2010PropOp52
 70
     0
102
RTVSPost2010Prop53
 90
        2
102
RTVSPost2010PropOp53
 70
     1
102
RTVSPost2010Prop54
  1
strokes_ogs.tif
102
RTVSPost2010PropOp54
 70
     1
102
RTVSPost2010Prop55
280
     0
102
RTVSPost2010PropOp55
 70
     1
102
RTVSPost2010Prop56
140
1.0
102
RTVSPost2010PropOp56
 70
     1
102
RTVSPost2010Prop57
140
1.0
102
RTVSPost2010PropOp57
 70
     1
102
RTVSPropertyOp0
 70
     1
102
RTVSPropertyOp1
 70
     1
102
RTVSPropertyOp2
 70
     1
102
RTVSPropertyOp3
 70
     1
102
RTVSPropertyOp4
 70
     1
102
RTVSPropertyOp5
 70
     1
102
RTVSPropertyOp6
 70
     1
102
RTVSPropertyOp7
 70
     1
102
RTVSPropertyOp8
 70
     1
102
RTVSPropertyOp9
 70
     1
102
RTVSPropertyOp10
 70
     1
102
RTVSPropertyOp11
 70
     1
102
RTVSPropertyOp12
 70
     1
102
RTVSPropertyOp13
 70
     1
102
RTVSPropertyOp14
 70
     1
102
RTVSPropertyOp15
 70
     1
102
RTVSPropertyOp16
 70
     1
102
RTVSPropertyOp17
 70
     1
102
RTVSPropertyOp18
 70
     1
102
RTVSPropertyOp19
 70
     1
102
RTVSPropertyOp20
 70
     1
102
RTVSPropertyOp21
 70
     1
102
RTVSPropertyOp22
 70
     1
102
RTVSPropertyOp23
 70
     1
102
RTVSPropertyOp24
 70
     1
102
RTVSPropertyOp25
 70
     1
102
RTVSPropertyOp26
 70
     1
102
RTVSPropertyOp27
 70
     1
102
RTVSPropertyOp28
 70
     1
102
RTVSPropertyOp29
 70
     1
102
RTVSPropertyOp30
 70
     1
102
RTVSPropertyOp31
 70
     1
102
RTVSPropertyOp32
 70
     1
102
RTVSPropertyOp33
 70
     1
102
RTVSPropertyOp34
 70
     1
102
RTVSPropertyOp35
 70
     1
102
RTVSPropertyOp36
 70
     1
102
RTVSPropertyOp37
 70
     1
102
RTVSPropertyOp38
 70
     1
102
RTVSPropertyOp39
 70
     1
102
RTVSPropertyOp40
 70
     1
102
RTVSPropertyOp41
 70
     1
102
RTVSPropertyOp42
 70
     1
102
RTVSPropertyOp43
 70
     1
102
RTVSPropertyOp44
 70
     1
102
RTVSPropertyOp45
 70
     1
102
RTVSPropertyOp46
 70
     1
102
RTVSPropertyOp47
 70
     1
102
RTVSPropertyOp48
 70
     1
102
RTVSPropertyOp49
 70
     1
102
RTVSPropertyOp50
 70
     1
102
RTVSPropertyOp51
 70
     0
102
RTVSPropertyOp52
 70
     0
102
RTVSPropertyOp53
 70
     1
102
RTVSPropertyOp54
 70
     1
102
RTVSPropertyOp55
 70
     1
102
RTVSPropertyOp56
 70
     1
102
RTVSPropertyOp57
 70
     1
102
RTVSPropertyOp58
 70
     1
102
RTVSPropertyOp59
 70
     1
102
RTVSPropertyOp60
 70
     1
102
RTVSPropertyOp61
 70
     1
102
RTVSPropertyOp62
 70
     1
  0
XRECORD
  5
D73
102
{ACAD_REACTORS
330
D72
102
}
330
D72
100
AcDbXrecord
280
     1
102
RTVSPost2010Prop28
280
     0
102
RTVSPost2010PropOp28
 70
     1
102
RTVSPost2010Prop29
280
     1
102
RTVSPost2010PropOp29
 70
     1
102
RTVSPost2010Prop30
280
     1
102
RTVSPost2010PropOp30
 70
     1
102
RTVSPost2010Prop31
280
     0
102
RTVSPost2010PropOp31
 70
     1
102
RTVSPost2010Prop32
280
     0
102
RTVSPost2010PropOp32
 70
     1
102
RTVSPost2010Prop33
280
     0
102
RTVSPost2010PropOp33
 70
     1
102
RTVSPost2010Prop34
280
     0
102
RTVSPost2010PropOp34
 70
     1
102
RTVSPost2010Prop35
280
     0
102
RTVSPost2010PropOp35
 70
     1
102
RTVSPost2010Prop36
280
     0
102
RTVSPost2010PropOp36
 70
     1
102
RTVSPost2010Prop37
 90
       50
102
RTVSPost2010PropOp37
 70
     1
102
RTVSPost2010Prop38
140
0.0
102
RTVSPost2010PropOp38
 70
     1
102
RTVSPost2010Prop39
140
1.0
102
RTVSPost2010PropOp39
 70
     1
102
RTVSPost2010Prop40
 90
        0
102
RTVSPost2010PropOp40
 70
     1
102
RTVSPost2010Prop41ColorIndex
 90
       18
102
RTVSPost2010Prop41ColorRGB
 90
        0
102
RTVSPost2010PropOp41
 70
     1
102
RTVSPost2010Prop42
 90
       50
102
RTVSPost2010PropOp42
 70
     1
102
RTVSPost2010Prop43
 90
        3
102
RTVSPost2010PropOp43
 70
     1
102
RTVSPost2010Prop44ColorIndex
 90
        5
102
RTVSPost2010Prop44ColorRGB
 90
      255
102
RTVSPost2010PropOp44
 70
     1
102
RTVSPost2010Prop45
280
     0
102
RTVSPost2010PropOp45
 70
     1
102
RTVSPost2010Prop46
 90
       50
102
RTVSPost2010PropOp46
 70
     1
102
RTVSPost2010Prop47
 90
       50
102
RTVSPost2010PropOp47
 70
     1
102
RTVSPost2010Prop48
 90
       50
102
RTVSPost2010PropOp48
 70
     1
102
RTVSPost2010Prop49
280
     0
102
RTVSPost2010PropOp49
 70
     1
102
RTVSPost2010Prop50
 90
       50
102
RTVSPost2010PropOp50
 70
     1
102
RTVSPost2010Prop51ColorIndex
 90
      256
102
RTVSPost2010Prop51ColorRGB
 90
-16777216
102
RTVSPost2010PropOp51
 70
     0
102
RTVSPost2010Prop52
140
1.0
102
RTVSPost2010PropOp52
 70
     0
102
RTVSPost2010Prop53
 90
        2
102
RTVSPost2010PropOp53
 70
     1
102
RTVSPost2010Prop54
  1
strokes_ogs.tif
102
RTVSPost2010PropOp54
 70
     1
102
RTVSPost2010Prop55
280
     0
102
RTVSPost2010PropOp55
 70
     1
102
RTVSPost2010Prop56
140
1.0
102
RTVSPost2010PropOp56
 70
     1
102
RTVSPost2010Prop57
140
1.0
102
RTVSPost2010PropOp57
 70
     1
102
RTVSPropertyOp0
 70
     1
102
RTVSPropertyOp1
 70
     1
102
RTVSPropertyOp2
 70
     1
102
RTVSPropertyOp3
 70
     1
102
RTVSPropertyOp4
 70
     1
102
RTVSPropertyOp5
 70
     1
102
RTVSPropertyOp6
 70
     1
102
RTVSPropertyOp7
 70
     1
102
RTVSPropertyOp8
 70
     1
102
RTVSPropertyOp9
 70
     1
102
RTVSPropertyOp10
 70
     1
102
RTVSPropertyOp11
 70
     1
102
RTVSPropertyOp12
 70
     1
102
RTVSPropertyOp13
 70
     1
102
RTVSPropertyOp14
 70
     1
102
RTVSPropertyOp15
 70
     1
102
RTVSPropertyOp16
 70
     1
102
RTVSPropertyOp17
 70
     1
102
RTVSPropertyOp18
 70
     1
102
RTVSPropertyOp19
 70
     1
102
RTVSPropertyOp20
 70
     1
102
RTVSPropertyOp21
 70
     1
102
RTVSPropertyOp22
 70
     1
102
RTVSPropertyOp23
 70
     1
102
RTVSPropertyOp24
 70
     1
102
RTVSPropertyOp25
 70
     1
102
RTVSPropertyOp26
 70
     1
102
RTVSPropertyOp27
 70
     1
102
RTVSPropertyOp28
 70
     1
102
RTVSPropertyOp29
 70
     1
102
RTVSPropertyOp30
 70
     1
102
RTVSPropertyOp31
 70
     1
102
RTVSPropertyOp32
 70
     1
102
RTVSPropertyOp33
 70
     1
102
RTVSPropertyOp34
 70
     1
102
RTVSPropertyOp35
 70
     1
102
RTVSPropertyOp36
 70
     1
102
RTVSPropertyOp37
 70
     1
102
RTVSPropertyOp38
 70
     1
102
RTVSPropertyOp39
 70
     1
102
RTVSPropertyOp40
 70
     1
102
RTVSPropertyOp41
 70
     1
102
RTVSPropertyOp42
 70
     1
102
RTVSPropertyOp43
 70
     1
102
RTVSPropertyOp44
 70
     1
102
RTVSPropertyOp45
 70
     1
102
RTVSPropertyOp46
 70
     1
102
RTVSPropertyOp47
 70
     1
102
RTVSPropertyOp48
 70
     1
102
RTVSPropertyOp49
 70
     1
102
RTVSPropertyOp50
 70
     1
102
RTVSPropertyOp51
 70
     0
102
RTVSPropertyOp52
 70
     0
102
RTVSPropertyOp53
 70
     1
102
RTVSPropertyOp54
 70
     1
102
RTVSPropertyOp55
 70
     1
102
RTVSPropertyOp56
 70
     1
102
RTVSPropertyOp57
 70
     1
102
RTVSPropertyOp58
 70
     1
102
RTVSPropertyOp59
 70
     1
102
RTVSPropertyOp60
 70
     1
102
RTVSPropertyOp61
 70
     1
102
RTVSPropertyOp62
 70
     1
  0
XRECORD
  5
D65
102
{ACAD_REACTORS
330
D64
102
}
330
D64
100
AcDbXrecord
280
     1
102
RTVSPost2010Prop28
280
     0
102
RTVSPost2010PropOp28
 70
     1
102
RTVSPost2010Prop29
280
     1
102
RTVSPost2010PropOp29
 70
     1
102
RTVSPost2010Prop30
280
     1
102
RTVSPost2010PropOp30
 70
     1
102
RTVSPost2010Prop31
280
     0
102
RTVSPost2010PropOp31
 70
     1
102
RTVSPost2010Prop32
280
     0
102
RTVSPost2010PropOp32
 70
     1
102
RTVSPost2010Prop33
280
     0
102
RTVSPost2010PropOp33
 70
     1
102
RTVSPost2010Prop34
280
     0
102
RTVSPost2010PropOp34
 70
     1
102
RTVSPost2010Prop35
280
     0
102
RTVSPost2010PropOp35
 70
     1
102
RTVSPost2010Prop36
280
     0
102
RTVSPost2010PropOp36
 70
     1
102
RTVSPost2010Prop37
 90
       50
102
RTVSPost2010PropOp37
 70
     1
102
RTVSPost2010Prop38
140
0.0
102
RTVSPost2010PropOp38
 70
     1
102
RTVSPost2010Prop39
140
1.0
102
RTVSPost2010PropOp39
 70
     1
102
RTVSPost2010Prop40
 90
        0
102
RTVSPost2010PropOp40
 70
     1
102
RTVSPost2010Prop41ColorIndex
 90
       18
102
RTVSPost2010Prop41ColorRGB
 90
        0
102
RTVSPost2010PropOp41
 70
     1
102
RTVSPost2010Prop42
 90
       50
102
RTVSPost2010PropOp42
 70
     1
102
RTVSPost2010Prop43
 90
        3
102
RTVSPost2010PropOp43
 70
     1
102
RTVSPost2010Prop44ColorIndex
 90
        5
102
RTVSPost2010Prop44ColorRGB
 90
      255
102
RTVSPost2010PropOp44
 70
     1
102
RTVSPost2010Prop45
280
     0
102
RTVSPost2010PropOp45
 70
     1
102
RTVSPost2010Prop46
 90
       50
102
RTVSPost2010PropOp46
 70
     1
102
RTVSPost2010Prop47
 90
       50
102
RTVSPost2010PropOp47
 70
     1
102
RTVSPost2010Prop48
 90
       50
102
RTVSPost2010PropOp48
 70
     1
102
RTVSPost2010Prop49
280
     0
102
RTVSPost2010PropOp49
 70
     1
102
RTVSPost2010Prop50
 90
       50
102
RTVSPost2010PropOp50
 70
     1
102
RTVSPost2010Prop51ColorIndex
 90
      256
102
RTVSPost2010Prop51ColorRGB
 90
-16777216
102
RTVSPost2010PropOp51
 70
     0
102
RTVSPost2010Prop52
140
1.0
102
RTVSPost2010PropOp52
 70
     0
102
RTVSPost2010Prop53
 90
        2
102
RTVSPost2010PropOp53
 70
     1
102
RTVSPost2010Prop54
  1
strokes_ogs.tif
102
RTVSPost2010PropOp54
 70
     1
102
RTVSPost2010Prop55
280
     0
102
RTVSPost2010PropOp55
 70
     1
102
RTVSPost2010Prop56
140
1.0
102
RTVSPost2010PropOp56
 70
     1
102
RTVSPost2010Prop57
140
1.0
102
RTVSPost2010PropOp57
 70
     1
102
RTVSPropertyOp0
 70
     1
102
RTVSPropertyOp1
 70
     1
102
RTVSPropertyOp2
 70
     1
102
RTVSPropertyOp3
 70
     1
102
RTVSPropertyOp4
 70
     1
102
RTVSPropertyOp5
 70
     1
102
RTVSPropertyOp6
 70
     1
102
RTVSPropertyOp7
 70
     1
102
RTVSPropertyOp8
 70
     1
102
RTVSPropertyOp9
 70
     1
102
RTVSPropertyOp10
 70
     1
102
RTVSPropertyOp11
 70
     1
102
RTVSPropertyOp12
 70
     1
102
RTVSPropertyOp13
 70
     1
102
RTVSPropertyOp14
 70
     1
102
RTVSPropertyOp15
 70
     1
102
RTVSPropertyOp16
 70
     1
102
RTVSPropertyOp17
 70
     1
102
RTVSPropertyOp18
 70
     1
102
RTVSPropertyOp19
 70
     1
102
RTVSPropertyOp20
 70
     1
102
RTVSPropertyOp21
 70
     1
102
RTVSPropertyOp22
 70
     1
102
RTVSPropertyOp23
 70
     1
102
RTVSPropertyOp24
 70
     1
102
RTVSPropertyOp25
 70
     1
102
RTVSPropertyOp26
 70
     1
102
RTVSPropertyOp27
 70
     1
102
RTVSPropertyOp28
 70
     1
102
RTVSPropertyOp29
 70
     1
102
RTVSPropertyOp30
 70
     1
102
RTVSPropertyOp31
 70
     1
102
RTVSPropertyOp32
 70
     1
102
RTVSPropertyOp33
 70
     1
102
RTVSPropertyOp34
 70
     1
102
RTVSPropertyOp35
 70
     1
102
RTVSPropertyOp36
 70
     1
102
RTVSPropertyOp37
 70
     1
102
RTVSPropertyOp38
 70
     1
102
RTVSPropertyOp39
 70
     1
102
RTVSPropertyOp40
 70
     1
102
RTVSPropertyOp41
 70
     1
102
RTVSPropertyOp42
 70
     1
102
RTVSPropertyOp43
 70
     1
102
RTVSPropertyOp44
 70
     1
102
RTVSPropertyOp45
 70
     1
102
RTVSPropertyOp46
 70
     1
102
RTVSPropertyOp47
 70
     1
102
RTVSPropertyOp48
 70
     1
102
RTVSPropertyOp49
 70
     1
102
RTVSPropertyOp50
 70
     1
102
RTVSPropertyOp51
 70
     0
102
RTVSPropertyOp52
 70
     0
102
RTVSPropertyOp53
 70
     1
102
RTVSPropertyOp54
 70
     1
102
RTVSPropertyOp55
 70
     1
102
RTVSPropertyOp56
 70
     1
102
RTVSPropertyOp57
 70
     1
102
RTVSPropertyOp58
 70
     1
102
RTVSPropertyOp59
 70
     1
102
RTVSPropertyOp60
 70
     1
102
RTVSPropertyOp61
 70
     1
102
RTVSPropertyOp62
 70
     1
  0
XRECORD
  5
D69
102
{ACAD_REACTORS
330
D68
102
}
330
D68
100
AcDbXrecord
280
     1
102
RTVSPost2010Prop28
280
     0
102
RTVSPost2010PropOp28
 70
     1
102
RTVSPost2010Prop29
280
     1
102
RTVSPost2010PropOp29
 70
     1
102
RTVSPost2010Prop30
280
     1
102
RTVSPost2010PropOp30
 70
     1
102
RTVSPost2010Prop31
280
     0
102
RTVSPost2010PropOp31
 70
     1
102
RTVSPost2010Prop32
280
     0
102
RTVSPost2010PropOp32
 70
     1
102
RTVSPost2010Prop33
280
     0
102
RTVSPost2010PropOp33
 70
     1
102
RTVSPost2010Prop34
280
     0
102
RTVSPost2010PropOp34
 70
     1
102
RTVSPost2010Prop35
280
     0
102
RTVSPost2010PropOp35
 70
     1
102
RTVSPost2010Prop36
280
     0
102
RTVSPost2010PropOp36
 70
     1
102
RTVSPost2010Prop37
 90
       50
102
RTVSPost2010PropOp37
 70
     1
102
RTVSPost2010Prop38
140
0.0
102
RTVSPost2010PropOp38
 70
     1
102
RTVSPost2010Prop39
140
1.0
102
RTVSPost2010PropOp39
 70
     1
102
RTVSPost2010Prop40
 90
        0
102
RTVSPost2010PropOp40
 70
     1
102
RTVSPost2010Prop41ColorIndex
 90
       18
102
RTVSPost2010Prop41ColorRGB
 90
        0
102
RTVSPost2010PropOp41
 70
     1
102
RTVSPost2010Prop42
 90
       50
102
RTVSPost2010PropOp42
 70
     1
102
RTVSPost2010Prop43
 90
        3
102
RTVSPost2010PropOp43
 70
     1
102
RTVSPost2010Prop44ColorIndex
 90
        5
102
RTVSPost2010Prop44ColorRGB
 90
      255
102
RTVSPost2010PropOp44
 70
     1
102
RTVSPost2010Prop45
280
     0
102
RTVSPost2010PropOp45
 70
     1
102
RTVSPost2010Prop46
 90
       50
102
RTVSPost2010PropOp46
 70
     1
102
RTVSPost2010Prop47
 90
       50
102
RTVSPost2010PropOp47
 70
     1
102
RTVSPost2010Prop48
 90
       50
102
RTVSPost2010PropOp48
 70
     1
102
RTVSPost2010Prop49
280
     0
102
RTVSPost2010PropOp49
 70
     1
102
RTVSPost2010Prop50
 90
       50
102
RTVSPost2010PropOp50
 70
     1
102
RTVSPost2010Prop51ColorIndex
 90
      256
102
RTVSPost2010Prop51ColorRGB
 90
-16777216
102
RTVSPost2010PropOp51
 70
     0
102
RTVSPost2010Prop52
140
1.0
102
RTVSPost2010PropOp52
 70
     0
102
RTVSPost2010Prop53
 90
        2
102
RTVSPost2010PropOp53
 70
     1
102
RTVSPost2010Prop54
  1
strokes_ogs.tif
102
RTVSPost2010PropOp54
 70
     1
102
RTVSPost2010Prop55
280
     0
102
RTVSPost2010PropOp55
 70
     1
102
RTVSPost2010Prop56
140
1.0
102
RTVSPost2010PropOp56
 70
     1
102
RTVSPost2010Prop57
140
1.0
102
RTVSPost2010PropOp57
 70
     1
102
RTVSPropertyOp0
 70
     1
102
RTVSPropertyOp1
 70
     1
102
RTVSPropertyOp2
 70
     1
102
RTVSPropertyOp3
 70
     1
102
RTVSPropertyOp4
 70
     1
102
RTVSPropertyOp5
 70
     1
102
RTVSPropertyOp6
 70
     1
102
RTVSPropertyOp7
 70
     1
102
RTVSPropertyOp8
 70
     1
102
RTVSPropertyOp9
 70
     1
102
RTVSPropertyOp10
 70
     1
102
RTVSPropertyOp11
 70
     1
102
RTVSPropertyOp12
 70
     1
102
RTVSPropertyOp13
 70
     1
102
RTVSPropertyOp14
 70
     1
102
RTVSPropertyOp15
 70
     1
102
RTVSPropertyOp16
 70
     1
102
RTVSPropertyOp17
 70
     1
102
RTVSPropertyOp18
 70
     1
102
RTVSPropertyOp19
 70
     1
102
RTVSPropertyOp20
 70
     1
102
RTVSPropertyOp21
 70
     1
102
RTVSPropertyOp22
 70
     1
102
RTVSPropertyOp23
 70
     1
102
RTVSPropertyOp24
 70
     1
102
RTVSPropertyOp25
 70
     1
102
RTVSPropertyOp26
 70
     1
102
RTVSPropertyOp27
 70
     1
102
RTVSPropertyOp28
 70
     1
102
RTVSPropertyOp29
 70
     1
102
RTVSPropertyOp30
 70
     1
102
RTVSPropertyOp31
 70
     1
102
RTVSPropertyOp32
 70
     1
102
RTVSPropertyOp33
 70
     1
102
RTVSPropertyOp34
 70
     1
102
RTVSPropertyOp35
 70
     1
102
RTVSPropertyOp36
 70
     1
102
RTVSPropertyOp37
 70
     1
102
RTVSPropertyOp38
 70
     1
102
RTVSPropertyOp39
 70
     1
102
RTVSPropertyOp40
 70
     1
102
RTVSPropertyOp41
 70
     1
102
RTVSPropertyOp42
 70
     1
102
RTVSPropertyOp43
 70
     1
102
RTVSPropertyOp44
 70
     1
102
RTVSPropertyOp45
 70
     1
102
RTVSPropertyOp46
 70
     1
102
RTVSPropertyOp47
 70
     1
102
RTVSPropertyOp48
 70
     1
102
RTVSPropertyOp49
 70
     1
102
RTVSPropertyOp50
 70
     1
102
RTVSPropertyOp51
 70
     0
102
RTVSPropertyOp52
 70
     0
102
RTVSPropertyOp53
 70
     1
102
RTVSPropertyOp54
 70
     1
102
RTVSPropertyOp55
 70
     1
102
RTVSPropertyOp56
 70
     1
102
RTVSPropertyOp57
 70
     1
102
RTVSPropertyOp58
 70
     1
102
RTVSPropertyOp59
 70
     1
102
RTVSPropertyOp60
 70
     1
102
RTVSPropertyOp61
 70
     1
102
RTVSPropertyOp62
 70
     1
  0
XRECORD
  5
D89
102
{ACAD_REACTORS
330
D88
102
}
330
D88
100
AcDbXrecord
280
     1
102
RTVSPost2010Prop28
280
     0
102
RTVSPost2010PropOp28
 70
     1
102
RTVSPost2010Prop29
280
     1
102
RTVSPost2010PropOp29
 70
     1
102
RTVSPost2010Prop30
280
     1
102
RTVSPost2010PropOp30
 70
     1
102
RTVSPost2010Prop31
280
     0
102
RTVSPost2010PropOp31
 70
     1
102
RTVSPost2010Prop32
280
     0
102
RTVSPost2010PropOp32
 70
     1
102
RTVSPost2010Prop33
280
     0
102
RTVSPost2010PropOp33
 70
     1
102
RTVSPost2010Prop34
280
     0
102
RTVSPost2010PropOp34
 70
     1
102
RTVSPost2010Prop35
280
     0
102
RTVSPost2010PropOp35
 70
     1
102
RTVSPost2010Prop36
280
     0
102
RTVSPost2010PropOp36
 70
     1
102
RTVSPost2010Prop37
 90
       50
102
RTVSPost2010PropOp37
 70
     1
102
RTVSPost2010Prop38
140
0.0
102
RTVSPost2010PropOp38
 70
     1
102
RTVSPost2010Prop39
140
1.0
102
RTVSPost2010PropOp39
 70
     1
102
RTVSPost2010Prop40
 90
        0
102
RTVSPost2010PropOp40
 70
     1
102
RTVSPost2010Prop41ColorIndex
 90
       18
102
RTVSPost2010Prop41ColorRGB
 90
        0
102
RTVSPost2010PropOp41
 70
     1
102
RTVSPost2010Prop42
 90
       50
102
RTVSPost2010PropOp42
 70
     1
102
RTVSPost2010Prop43
 90
        3
102
RTVSPost2010PropOp43
 70
     1
102
RTVSPost2010Prop44ColorIndex
 90
        5
102
RTVSPost2010Prop44ColorRGB
 90
      255
102
RTVSPost2010PropOp44
 70
     1
102
RTVSPost2010Prop45
280
     0
102
RTVSPost2010PropOp45
 70
     1
102
RTVSPost2010Prop46
 90
       50
102
RTVSPost2010PropOp46
 70
     1
102
RTVSPost2010Prop47
 90
       50
102
RTVSPost2010PropOp47
 70
     1
102
RTVSPost2010Prop48
 90
       50
102
RTVSPost2010PropOp48
 70
     1
102
RTVSPost2010Prop49
280
     0
102
RTVSPost2010PropOp49
 70
     1
102
RTVSPost2010Prop50
 90
       50
102
RTVSPost2010PropOp50
 70
     1
102
RTVSPost2010Prop51ColorIndex
 90
      256
102
RTVSPost2010Prop51ColorRGB
 90
-16777216
102
RTVSPost2010PropOp51
 70
     0
102
RTVSPost2010Prop52
140
1.0
102
RTVSPost2010PropOp52
 70
     0
102
RTVSPost2010Prop53
 90
        2
102
RTVSPost2010PropOp53
 70
     1
102
RTVSPost2010Prop54
  1
strokes_ogs.tif
102
RTVSPost2010PropOp54
 70
     1
102
RTVSPost2010Prop55
280
     0
102
RTVSPost2010PropOp55
 70
     1
102
RTVSPost2010Prop56
140
1.0
102
RTVSPost2010PropOp56
 70
     1
102
RTVSPost2010Prop57
140
1.0
102
RTVSPost2010PropOp57
 70
     1
102
RTVSPropertyOp0
 70
     0
102
RTVSPropertyOp1
 70
     0
102
RTVSPropertyOp2
 70
     0
102
RTVSPropertyOp3
 70
     0
102
RTVSPropertyOp4
 70
     0
102
RTVSPropertyOp5
 70
     0
102
RTVSPropertyOp6
 70
     0
102
RTVSPropertyOp7
 70
     0
102
RTVSPropertyOp8
 70
     0
102
RTVSPropertyOp9
 70
     0
102
RTVSPropertyOp10
 70
     0
102
RTVSPropertyOp11
 70
     0
102
RTVSPropertyOp12
 70
     0
102
RTVSPropertyOp13
 70
     0
102
RTVSPropertyOp14
 70
     2
102
RTVSPropertyOp15
 70
     0
102
RTVSPropertyOp16
 70
     0
102
RTVSPropertyOp17
 70
     0
102
RTVSPropertyOp18
 70
     0
102
RTVSPropertyOp19
 70
     0
102
RTVSPropertyOp20
 70
     0
102
RTVSPropertyOp21
 70
     0
102
RTVSPropertyOp22
 70
     0
102
RTVSPropertyOp23
 70
     0
102
RTVSPropertyOp24
 70
     0
102
RTVSPropertyOp25
 70
     0
102
RTVSPropertyOp26
 70
     0
102
RTVSPropertyOp27
 70
     0
102
RTVSPropertyOp28
 70
     1
102
RTVSPropertyOp29
 70
     1
102
RTVSPropertyOp30
 70
     1
102
RTVSPropertyOp31
 70
     1
102
RTVSPropertyOp32
 70
     1
102
RTVSPropertyOp33
 70
     1
102
RTVSPropertyOp34
 70
     1
102
RTVSPropertyOp35
 70
     1
102
RTVSPropertyOp36
 70
     1
102
RTVSPropertyOp37
 70
     1
102
RTVSPropertyOp38
 70
     1
102
RTVSPropertyOp39
 70
     1
102
RTVSPropertyOp40
 70
     1
102
RTVSPropertyOp41
 70
     1
102
RTVSPropertyOp42
 70
     1
102
RTVSPropertyOp43
 70
     1
102
RTVSPropertyOp44
 70
     1
102
RTVSPropertyOp45
 70
     1
102
RTVSPropertyOp46
 70
     1
102
RTVSPropertyOp47
 70
     1
102
RTVSPropertyOp48
 70
     1
102
RTVSPropertyOp49
 70
     1
102
RTVSPropertyOp50
 70
     1
102
RTVSPropertyOp51
 70
     0
102
RTVSPropertyOp52
 70
     0
102
RTVSPropertyOp53
 70
     1
102
RTVSPropertyOp54
 70
     1
102
RTVSPropertyOp55
 70
     1
102
RTVSPropertyOp56
 70
     1
102
RTVSPropertyOp57
 70
     1
102
RTVSPropertyOp58
 70
     1
102
RTVSPropertyOp59
 70
     1
102
RTVSPropertyOp60
 70
     1
102
RTVSPropertyOp61
 70
     1
102
RTVSPropertyOp62
 70
     1
  0
XRECORD
  5
D71
102
{ACAD_REACTORS
330
D70
102
}
330
D70
100
AcDbXrecord
280
     1
102
RTVSPost2010Prop28
280
     0
102
RTVSPost2010PropOp28
 70
     1
102
RTVSPost2010Prop29
280
     1
102
RTVSPost2010PropOp29
 70
     1
102
RTVSPost2010Prop30
280
     1
102
RTVSPost2010PropOp30
 70
     1
102
RTVSPost2010Prop31
280
     0
102
RTVSPost2010PropOp31
 70
     1
102
RTVSPost2010Prop32
280
     0
102
RTVSPost2010PropOp32
 70
     1
102
RTVSPost2010Prop33
280
     0
102
RTVSPost2010PropOp33
 70
     1
102
RTVSPost2010Prop34
280
     0
102
RTVSPost2010PropOp34
 70
     1
102
RTVSPost2010Prop35
280
     0
102
RTVSPost2010PropOp35
 70
     1
102
RTVSPost2010Prop36
280
     0
102
RTVSPost2010PropOp36
 70
     1
102
RTVSPost2010Prop37
 90
       50
102
RTVSPost2010PropOp37
 70
     1
102
RTVSPost2010Prop38
140
0.0
102
RTVSPost2010PropOp38
 70
     1
102
RTVSPost2010Prop39
140
1.0
102
RTVSPost2010PropOp39
 70
     1
102
RTVSPost2010Prop40
 90
        0
102
RTVSPost2010PropOp40
 70
     1
102
RTVSPost2010Prop41ColorIndex
 90
       18
102
RTVSPost2010Prop41ColorRGB
 90
        0
102
RTVSPost2010PropOp41
 70
     1
102
RTVSPost2010Prop42
 90
       50
102
RTVSPost2010PropOp42
 70
     1
102
RTVSPost2010Prop43
 90
        3
102
RTVSPost2010PropOp43
 70
     1
102
RTVSPost2010Prop44ColorIndex
 90
        5
102
RTVSPost2010Prop44ColorRGB
 90
      255
102
RTVSPost2010PropOp44
 70
     1
102
RTVSPost2010Prop45
280
     0
102
RTVSPost2010PropOp45
 70
     1
102
RTVSPost2010Prop46
 90
       50
102
RTVSPost2010PropOp46
 70
     1
102
RTVSPost2010Prop47
 90
       50
102
RTVSPost2010PropOp47
 70
     1
102
RTVSPost2010Prop48
 90
       50
102
RTVSPost2010PropOp48
 70
     1
102
RTVSPost2010Prop49
280
     0
102
RTVSPost2010PropOp49
 70
     1
102
RTVSPost2010Prop50
 90
       50
102
RTVSPost2010PropOp50
 70
     1
102
RTVSPost2010Prop51ColorIndex
 90
      256
102
RTVSPost2010Prop51ColorRGB
 90
-16777216
102
RTVSPost2010PropOp51
 70
     0
102
RTVSPost2010Prop52
140
1.0
102
RTVSPost2010PropOp52
 70
     0
102
RTVSPost2010Prop53
 90
        2
102
RTVSPost2010PropOp53
 70
     1
102
RTVSPost2010Prop54
  1
strokes_ogs.tif
102
RTVSPost2010PropOp54
 70
     1
102
RTVSPost2010Prop55
280
     0
102
RTVSPost2010PropOp55
 70
     1
102
RTVSPost2010Prop56
140
1.0
102
RTVSPost2010PropOp56
 70
     1
102
RTVSPost2010Prop57
140
1.0
102
RTVSPost2010PropOp57
 70
     1
102
RTVSPropertyOp0
 70
     1
102
RTVSPropertyOp1
 70
     1
102
RTVSPropertyOp2
 70
     1
102
RTVSPropertyOp3
 70
     1
102
RTVSPropertyOp4
 70
     1
102
RTVSPropertyOp5
 70
     1
102
RTVSPropertyOp6
 70
     1
102
RTVSPropertyOp7
 70
     1
102
RTVSPropertyOp8
 70
     1
102
RTVSPropertyOp9
 70
     1
102
RTVSPropertyOp10
 70
     1
102
RTVSPropertyOp11
 70
     1
102
RTVSPropertyOp12
 70
     1
102
RTVSPropertyOp13
 70
     1
102
RTVSPropertyOp14
 70
     1
102
RTVSPropertyOp15
 70
     1
102
RTVSPropertyOp16
 70
     1
102
RTVSPropertyOp17
 70
     1
102
RTVSPropertyOp18
 70
     1
102
RTVSPropertyOp19
 70
     1
102
RTVSPropertyOp20
 70
     1
102
RTVSPropertyOp21
 70
     1
102
RTVSPropertyOp22
 70
     1
102
RTVSPropertyOp23
 70
     1
102
RTVSPropertyOp24
 70
     1
102
RTVSPropertyOp25
 70
     1
102
RTVSPropertyOp26
 70
     1
102
RTVSPropertyOp27
 70
     1
102
RTVSPropertyOp28
 70
     1
102
RTVSPropertyOp29
 70
     1
102
RTVSPropertyOp30
 70
     1
102
RTVSPropertyOp31
 70
     1
102
RTVSPropertyOp32
 70
     1
102
RTVSPropertyOp33
 70
     1
102
RTVSPropertyOp34
 70
     1
102
RTVSPropertyOp35
 70
     1
102
RTVSPropertyOp36
 70
     1
102
RTVSPropertyOp37
 70
     1
102
RTVSPropertyOp38
 70
     1
102
RTVSPropertyOp39
 70
     1
102
RTVSPropertyOp40
 70
     1
102
RTVSPropertyOp41
 70
     1
102
RTVSPropertyOp42
 70
     1
102
RTVSPropertyOp43
 70
     1
102
RTVSPropertyOp44
 70
     1
102
RTVSPropertyOp45
 70
     1
102
RTVSPropertyOp46
 70
     1
102
RTVSPropertyOp47
 70
     1
102
RTVSPropertyOp48
 70
     1
102
RTVSPropertyOp49
 70
     1
102
RTVSPropertyOp50
 70
     1
102
RTVSPropertyOp51
 70
     0
102
RTVSPropertyOp52
 70
     0
102
RTVSPropertyOp53
 70
     1
102
RTVSPropertyOp54
 70
     1
102
RTVSPropertyOp55
 70
     1
102
RTVSPropertyOp56
 70
     1
102
RTVSPropertyOp57
 70
     1
102
RTVSPropertyOp58
 70
     1
102
RTVSPropertyOp59
 70
     1
102
RTVSPropertyOp60
 70
     1
102
RTVSPropertyOp61
 70
     1
102
RTVSPropertyOp62
 70
     1
  0
XRECORD
  5
D55
102
{ACAD_REACTORS
330
D54
102
}
330
D54
100
AcDbXrecord
280
     1
102
RTVSPost2010Prop28
280
     0
102
RTVSPost2010PropOp28
 70
     1
102
RTVSPost2010Prop29
280
     1
102
RTVSPost2010PropOp29
 70
     1
102
RTVSPost2010Prop30
280
     1
102
RTVSPost2010PropOp30
 70
     1
102
RTVSPost2010Prop31
280
     0
102
RTVSPost2010PropOp31
 70
     1
102
RTVSPost2010Prop32
280
     0
102
RTVSPost2010PropOp32
 70
     1
102
RTVSPost2010Prop33
280
     0
102
RTVSPost2010PropOp33
 70
     1
102
RTVSPost2010Prop34
280
     0
102
RTVSPost2010PropOp34
 70
     1
102
RTVSPost2010Prop35
280
     0
102
RTVSPost2010PropOp35
 70
     1
102
RTVSPost2010Prop36
280
     0
102
RTVSPost2010PropOp36
 70
     1
102
RTVSPost2010Prop37
 90
       50
102
RTVSPost2010PropOp37
 70
     1
102
RTVSPost2010Prop38
140
0.0
102
RTVSPost2010PropOp38
 70
     1
102
RTVSPost2010Prop39
140
1.0
102
RTVSPost2010PropOp39
 70
     1
102
RTVSPost2010Prop40
 90
        0
102
RTVSPost2010PropOp40
 70
     1
102
RTVSPost2010Prop41ColorIndex
 90
       18
102
RTVSPost2010Prop41ColorRGB
 90
        0
102
RTVSPost2010PropOp41
 70
     1
102
RTVSPost2010Prop42
 90
       50
102
RTVSPost2010PropOp42
 70
     1
102
RTVSPost2010Prop43
 90
        3
102
RTVSPost2010PropOp43
 70
     1
102
RTVSPost2010Prop44ColorIndex
 90
        5
102
RTVSPost2010Prop44ColorRGB
 90
      255
102
RTVSPost2010PropOp44
 70
     1
102
RTVSPost2010Prop45
280
     0
102
RTVSPost2010PropOp45
 70
     1
102
RTVSPost2010Prop46
 90
       50
102
RTVSPost2010PropOp46
 70
     1
102
RTVSPost2010Prop47
 90
       50
102
RTVSPost2010PropOp47
 70
     1
102
RTVSPost2010Prop48
 90
       50
102
RTVSPost2010PropOp48
 70
     1
102
RTVSPost2010Prop49
280
     0
102
RTVSPost2010PropOp49
 70
     1
102
RTVSPost2010Prop50
 90
       50
102
RTVSPost2010PropOp50
 70
     1
102
RTVSPost2010Prop51ColorIndex
 90
      256
102
RTVSPost2010Prop51ColorRGB
 90
-16777216
102
RTVSPost2010PropOp51
 70
     0
102
RTVSPost2010Prop52
140
1.0
102
RTVSPost2010PropOp52
 70
     0
102
RTVSPost2010Prop53
 90
        2
102
RTVSPost2010PropOp53
 70
     1
102
RTVSPost2010Prop54
  1
strokes_ogs.tif
102
RTVSPost2010PropOp54
 70
     1
102
RTVSPost2010Prop55
280
     0
102
RTVSPost2010PropOp55
 70
     1
102
RTVSPost2010Prop56
140
1.0
102
RTVSPost2010PropOp56
 70
     1
102
RTVSPost2010Prop57
140
1.0
102
RTVSPost2010PropOp57
 70
     1
102
RTVSPropertyOp0
 70
     1
102
RTVSPropertyOp1
 70
     1
102
RTVSPropertyOp2
 70
     1
102
RTVSPropertyOp3
 70
     1
102
RTVSPropertyOp4
 70
     1
102
RTVSPropertyOp5
 70
     1
102
RTVSPropertyOp6
 70
     1
102
RTVSPropertyOp7
 70
     1
102
RTVSPropertyOp8
 70
     1
102
RTVSPropertyOp9
 70
     1
102
RTVSPropertyOp10
 70
     1
102
RTVSPropertyOp11
 70
     1
102
RTVSPropertyOp12
 70
     1
102
RTVSPropertyOp13
 70
     1
102
RTVSPropertyOp14
 70
     1
102
RTVSPropertyOp15
 70
     1
102
RTVSPropertyOp16
 70
     1
102
RTVSPropertyOp17
 70
     1
102
RTVSPropertyOp18
 70
     1
102
RTVSPropertyOp19
 70
     1
102
RTVSPropertyOp20
 70
     1
102
RTVSPropertyOp21
 70
     1
102
RTVSPropertyOp22
 70
     1
102
RTVSPropertyOp23
 70
     1
102
RTVSPropertyOp24
 70
     1
102
RTVSPropertyOp25
 70
     1
102
RTVSPropertyOp26
 70
     1
102
RTVSPropertyOp27
 70
     1
102
RTVSPropertyOp28
 70
     1
102
RTVSPropertyOp29
 70
     1
102
RTVSPropertyOp30
 70
     1
102
RTVSPropertyOp31
 70
     1
102
RTVSPropertyOp32
 70
     1
102
RTVSPropertyOp33
 70
     1
102
RTVSPropertyOp34
 70
     1
102
RTVSPropertyOp35
 70
     1
102
RTVSPropertyOp36
 70
     1
102
RTVSPropertyOp37
 70
     1
102
RTVSPropertyOp38
 70
     1
102
RTVSPropertyOp39
 70
     1
102
RTVSPropertyOp40
 70
     1
102
RTVSPropertyOp41
 70
     1
102
RTVSPropertyOp42
 70
     1
102
RTVSPropertyOp43
 70
     1
102
RTVSPropertyOp44
 70
     1
102
RTVSPropertyOp45
 70
     1
102
RTVSPropertyOp46
 70
     1
102
RTVSPropertyOp47
 70
     1
102
RTVSPropertyOp48
 70
     1
102
RTVSPropertyOp49
 70
     1
102
RTVSPropertyOp50
 70
     1
102
RTVSPropertyOp51
 70
     0
102
RTVSPropertyOp52
 70
     0
102
RTVSPropertyOp53
 70
     1
102
RTVSPropertyOp54
 70
     1
102
RTVSPropertyOp55
 70
     1
102
RTVSPropertyOp56
 70
     1
102
RTVSPropertyOp57
 70
     1
102
RTVSPropertyOp58
 70
     1
102
RTVSPropertyOp59
 70
     1
102
RTVSPropertyOp60
 70
     1
102
RTVSPropertyOp61
 70
     1
102
RTVSPropertyOp62
 70
     1
  0
XRECORD
  5
D57
102
{ACAD_REACTORS
330
D56
102
}
330
D56
100
AcDbXrecord
280
     1
102
RTVSPost2010Prop28
280
     0
102
RTVSPost2010PropOp28
 70
     1
102
RTVSPost2010Prop29
280
     1
102
RTVSPost2010PropOp29
 70
     1
102
RTVSPost2010Prop30
280
     1
102
RTVSPost2010PropOp30
 70
     1
102
RTVSPost2010Prop31
280
     0
102
RTVSPost2010PropOp31
 70
     1
102
RTVSPost2010Prop32
280
     0
102
RTVSPost2010PropOp32
 70
     1
102
RTVSPost2010Prop33
280
     0
102
RTVSPost2010PropOp33
 70
     1
102
RTVSPost2010Prop34
280
     0
102
RTVSPost2010PropOp34
 70
     1
102
RTVSPost2010Prop35
280
     0
102
RTVSPost2010PropOp35
 70
     1
102
RTVSPost2010Prop36
280
     0
102
RTVSPost2010PropOp36
 70
     1
102
RTVSPost2010Prop37
 90
       50
102
RTVSPost2010PropOp37
 70
     1
102
RTVSPost2010Prop38
140
0.0
102
RTVSPost2010PropOp38
 70
     1
102
RTVSPost2010Prop39
140
1.0
102
RTVSPost2010PropOp39
 70
     1
102
RTVSPost2010Prop40
 90
        0
102
RTVSPost2010PropOp40
 70
     1
102
RTVSPost2010Prop41ColorIndex
 90
       18
102
RTVSPost2010Prop41ColorRGB
 90
        0
102
RTVSPost2010PropOp41
 70
     1
102
RTVSPost2010Prop42
 90
       50
102
RTVSPost2010PropOp42
 70
     1
102
RTVSPost2010Prop43
 90
        3
102
RTVSPost2010PropOp43
 70
     1
102
RTVSPost2010Prop44ColorIndex
 90
        5
102
RTVSPost2010Prop44ColorRGB
 90
      255
102
RTVSPost2010PropOp44
 70
     1
102
RTVSPost2010Prop45
280
     0
102
RTVSPost2010PropOp45
 70
     1
102
RTVSPost2010Prop46
 90
       50
102
RTVSPost2010PropOp46
 70
     1
102
RTVSPost2010Prop47
 90
       50
102
RTVSPost2010PropOp47
 70
     1
102
RTVSPost2010Prop48
 90
       50
102
RTVSPost2010PropOp48
 70
     1
102
RTVSPost2010Prop49
280
     0
102
RTVSPost2010PropOp49
 70
     1
102
RTVSPost2010Prop50
 90
       50
102
RTVSPost2010PropOp50
 70
     1
102
RTVSPost2010Prop51ColorIndex
 90
      256
102
RTVSPost2010Prop51ColorRGB
 90
-16777216
102
RTVSPost2010PropOp51
 70
     0
102
RTVSPost2010Prop52
140
1.0
102
RTVSPost2010PropOp52
 70
     0
102
RTVSPost2010Prop53
 90
        2
102
RTVSPost2010PropOp53
 70
     1
102
RTVSPost2010Prop54
  1
strokes_ogs.tif
102
RTVSPost2010PropOp54
 70
     1
102
RTVSPost2010Prop55
280
     0
102
RTVSPost2010PropOp55
 70
     1
102
RTVSPost2010Prop56
140
1.0
102
RTVSPost2010PropOp56
 70
     1
102
RTVSPost2010Prop57
140
1.0
102
RTVSPost2010PropOp57
 70
     1
102
RTVSPropertyOp0
 70
     1
102
RTVSPropertyOp1
 70
     1
102
RTVSPropertyOp2
 70
     1
102
RTVSPropertyOp3
 70
     1
102
RTVSPropertyOp4
 70
     1
102
RTVSPropertyOp5
 70
     1
102
RTVSPropertyOp6
 70
     1
102
RTVSPropertyOp7
 70
     1
102
RTVSPropertyOp8
 70
     1
102
RTVSPropertyOp9
 70
     1
102
RTVSPropertyOp10
 70
     1
102
RTVSPropertyOp11
 70
     1
102
RTVSPropertyOp12
 70
     1
102
RTVSPropertyOp13
 70
     1
102
RTVSPropertyOp14
 70
     1
102
RTVSPropertyOp15
 70
     1
102
RTVSPropertyOp16
 70
     1
102
RTVSPropertyOp17
 70
     1
102
RTVSPropertyOp18
 70
     1
102
RTVSPropertyOp19
 70
     1
102
RTVSPropertyOp20
 70
     1
102
RTVSPropertyOp21
 70
     1
102
RTVSPropertyOp22
 70
     1
102
RTVSPropertyOp23
 70
     1
102
RTVSPropertyOp24
 70
     1
102
RTVSPropertyOp25
 70
     1
102
RTVSPropertyOp26
 70
     1
102
RTVSPropertyOp27
 70
     1
102
RTVSPropertyOp28
 70
     1
102
RTVSPropertyOp29
 70
     1
102
RTVSPropertyOp30
 70
     1
102
RTVSPropertyOp31
 70
     1
102
RTVSPropertyOp32
 70
     1
102
RTVSPropertyOp33
 70
     1
102
RTVSPropertyOp34
 70
     1
102
RTVSPropertyOp35
 70
     1
102
RTVSPropertyOp36
 70
     1
102
RTVSPropertyOp37
 70
     1
102
RTVSPropertyOp38
 70
     1
102
RTVSPropertyOp39
 70
     1
102
RTVSPropertyOp40
 70
     1
102
RTVSPropertyOp41
 70
     1
102
RTVSPropertyOp42
 70
     1
102
RTVSPropertyOp43
 70
     1
102
RTVSPropertyOp44
 70
     1
102
RTVSPropertyOp45
 70
     1
102
RTVSPropertyOp46
 70
     1
102
RTVSPropertyOp47
 70
     1
102
RTVSPropertyOp48
 70
     1
102
RTVSPropertyOp49
 70
     1
102
RTVSPropertyOp50
 70
     1
102
RTVSPropertyOp51
 70
     0
102
RTVSPropertyOp52
 70
     0
102
RTVSPropertyOp53
 70
     1
102
RTVSPropertyOp54
 70
     1
102
RTVSPropertyOp55
 70
     1
102
RTVSPropertyOp56
 70
     1
102
RTVSPropertyOp57
 70
     1
102
RTVSPropertyOp58
 70
     1
102
RTVSPropertyOp59
 70
     1
102
RTVSPropertyOp60
 70
     1
102
RTVSPropertyOp61
 70
     1
102
RTVSPropertyOp62
 70
     1
  0
XRECORD
  5
D59
102
{ACAD_REACTORS
330
D58
102
}
330
D58
100
AcDbXrecord
280
     1
102
RTVSPost2010Prop28
280
     0
102
RTVSPost2010PropOp28
 70
     1
102
RTVSPost2010Prop29
280
     1
102
RTVSPost2010PropOp29
 70
     1
102
RTVSPost2010Prop30
280
     1
102
RTVSPost2010PropOp30
 70
     1
102
RTVSPost2010Prop31
280
     0
102
RTVSPost2010PropOp31
 70
     1
102
RTVSPost2010Prop32
280
     0
102
RTVSPost2010PropOp32
 70
     1
102
RTVSPost2010Prop33
280
     0
102
RTVSPost2010PropOp33
 70
     1
102
RTVSPost2010Prop34
280
     0
102
RTVSPost2010PropOp34
 70
     1
102
RTVSPost2010Prop35
280
     0
102
RTVSPost2010PropOp35
 70
     1
102
RTVSPost2010Prop36
280
     0
102
RTVSPost2010PropOp36
 70
     1
102
RTVSPost2010Prop37
 90
       50
102
RTVSPost2010PropOp37
 70
     1
102
RTVSPost2010Prop38
140
0.0
102
RTVSPost2010PropOp38
 70
     1
102
RTVSPost2010Prop39
140
1.0
102
RTVSPost2010PropOp39
 70
     1
102
RTVSPost2010Prop40
 90
        0
102
RTVSPost2010PropOp40
 70
     1
102
RTVSPost2010Prop41ColorIndex
 90
       18
102
RTVSPost2010Prop41ColorRGB
 90
        0
102
RTVSPost2010PropOp41
 70
     1
102
RTVSPost2010Prop42
 90
       50
102
RTVSPost2010PropOp42
 70
     1
102
RTVSPost2010Prop43
 90
        3
102
RTVSPost2010PropOp43
 70
     1
102
RTVSPost2010Prop44ColorIndex
 90
        5
102
RTVSPost2010Prop44ColorRGB
 90
      255
102
RTVSPost2010PropOp44
 70
     1
102
RTVSPost2010Prop45
280
     0
102
RTVSPost2010PropOp45
 70
     1
102
RTVSPost2010Prop46
 90
       50
102
RTVSPost2010PropOp46
 70
     1
102
RTVSPost2010Prop47
 90
       50
102
RTVSPost2010PropOp47
 70
     1
102
RTVSPost2010Prop48
 90
       50
102
RTVSPost2010PropOp48
 70
     1
102
RTVSPost2010Prop49
280
     0
102
RTVSPost2010PropOp49
 70
     1
102
RTVSPost2010Prop50
 90
       50
102
RTVSPost2010PropOp50
 70
     1
102
RTVSPost2010Prop51ColorIndex
 90
      256
102
RTVSPost2010Prop51ColorRGB
 90
-16777216
102
RTVSPost2010PropOp51
 70
     0
102
RTVSPost2010Prop52
140
1.0
102
RTVSPost2010PropOp52
 70
     0
102
RTVSPost2010Prop53
 90
        2
102
RTVSPost2010PropOp53
 70
     1
102
RTVSPost2010Prop54
  1
strokes_ogs.tif
102
RTVSPost2010PropOp54
 70
     1
102
RTVSPost2010Prop55
280
     0
102
RTVSPost2010PropOp55
 70
     1
102
RTVSPost2010Prop56
140
1.0
102
RTVSPost2010PropOp56
 70
     1
102
RTVSPost2010Prop57
140
1.0
102
RTVSPost2010PropOp57
 70
     1
102
RTVSPropertyOp0
 70
     1
102
RTVSPropertyOp1
 70
     1
102
RTVSPropertyOp2
 70
     1
102
RTVSPropertyOp3
 70
     1
102
RTVSPropertyOp4
 70
     1
102
RTVSPropertyOp5
 70
     1
102
RTVSPropertyOp6
 70
     1
102
RTVSPropertyOp7
 70
     1
102
RTVSPropertyOp8
 70
     1
102
RTVSPropertyOp9
 70
     1
102
RTVSPropertyOp10
 70
     1
102
RTVSPropertyOp11
 70
     1
102
RTVSPropertyOp12
 70
     1
102
RTVSPropertyOp13
 70
     1
102
RTVSPropertyOp14
 70
     1
102
RTVSPropertyOp15
 70
     1
102
RTVSPropertyOp16
 70
     1
102
RTVSPropertyOp17
 70
     1
102
RTVSPropertyOp18
 70
     1
102
RTVSPropertyOp19
 70
     1
102
RTVSPropertyOp20
 70
     1
102
RTVSPropertyOp21
 70
     1
102
RTVSPropertyOp22
 70
     1
102
RTVSPropertyOp23
 70
     1
102
RTVSPropertyOp24
 70
     1
102
RTVSPropertyOp25
 70
     1
102
RTVSPropertyOp26
 70
     1
102
RTVSPropertyOp27
 70
     1
102
RTVSPropertyOp28
 70
     1
102
RTVSPropertyOp29
 70
     1
102
RTVSPropertyOp30
 70
     1
102
RTVSPropertyOp31
 70
     1
102
RTVSPropertyOp32
 70
     1
102
RTVSPropertyOp33
 70
     1
102
RTVSPropertyOp34
 70
     1
102
RTVSPropertyOp35
 70
     1
102
RTVSPropertyOp36
 70
     1
102
RTVSPropertyOp37
 70
     1
102
RTVSPropertyOp38
 70
     1
102
RTVSPropertyOp39
 70
     1
102
RTVSPropertyOp40
 70
     1
102
RTVSPropertyOp41
 70
     1
102
RTVSPropertyOp42
 70
     1
102
RTVSPropertyOp43
 70
     1
102
RTVSPropertyOp44
 70
     1
102
RTVSPropertyOp45
 70
     1
102
RTVSPropertyOp46
 70
     1
102
RTVSPropertyOp47
 70
     1
102
RTVSPropertyOp48
 70
     1
102
RTVSPropertyOp49
 70
     1
102
RTVSPropertyOp50
 70
     1
102
RTVSPropertyOp51
 70
     0
102
RTVSPropertyOp52
 70
     0
102
RTVSPropertyOp53
 70
     1
102
RTVSPropertyOp54
 70
     1
102
RTVSPropertyOp55
 70
     1
102
RTVSPropertyOp56
 70
     1
102
RTVSPropertyOp57
 70
     1
102
RTVSPropertyOp58
 70
     1
102
RTVSPropertyOp59
 70
     1
102
RTVSPropertyOp60
 70
     1
102
RTVSPropertyOp61
 70
     1
102
RTVSPropertyOp62
 70
     1
  0
XRECORD
  5
D5B
102
{ACAD_REACTORS
330
D5A
102
}
330
D5A
100
AcDbXrecord
280
     1
102
RTVSPost2010Prop28
280
     0
102
RTVSPost2010PropOp28
 70
     1
102
RTVSPost2010Prop29
280
     1
102
RTVSPost2010PropOp29
 70
     1
102
RTVSPost2010Prop30
280
     1
102
RTVSPost2010PropOp30
 70
     1
102
RTVSPost2010Prop31
280
     0
102
RTVSPost2010PropOp31
 70
     1
102
RTVSPost2010Prop32
280
     0
102
RTVSPost2010PropOp32
 70
     1
102
RTVSPost2010Prop33
280
     0
102
RTVSPost2010PropOp33
 70
     1
102
RTVSPost2010Prop34
280
     0
102
RTVSPost2010PropOp34
 70
     1
102
RTVSPost2010Prop35
280
     0
102
RTVSPost2010PropOp35
 70
     1
102
RTVSPost2010Prop36
280
     0
102
RTVSPost2010PropOp36
 70
     1
102
RTVSPost2010Prop37
 90
       50
102
RTVSPost2010PropOp37
 70
     1
102
RTVSPost2010Prop38
140
0.0
102
RTVSPost2010PropOp38
 70
     1
102
RTVSPost2010Prop39
140
1.0
102
RTVSPost2010PropOp39
 70
     1
102
RTVSPost2010Prop40
 90
        0
102
RTVSPost2010PropOp40
 70
     1
102
RTVSPost2010Prop41ColorIndex
 90
       18
102
RTVSPost2010Prop41ColorRGB
 90
        0
102
RTVSPost2010PropOp41
 70
     1
102
RTVSPost2010Prop42
 90
       50
102
RTVSPost2010PropOp42
 70
     1
102
RTVSPost2010Prop43
 90
        3
102
RTVSPost2010PropOp43
 70
     1
102
RTVSPost2010Prop44ColorIndex
 90
        5
102
RTVSPost2010Prop44ColorRGB
 90
      255
102
RTVSPost2010PropOp44
 70
     1
102
RTVSPost2010Prop45
280
     0
102
RTVSPost2010PropOp45
 70
     1
102
RTVSPost2010Prop46
 90
       50
102
RTVSPost2010PropOp46
 70
     1
102
RTVSPost2010Prop47
 90
       50
102
RTVSPost2010PropOp47
 70
     1
102
RTVSPost2010Prop48
 90
       50
102
RTVSPost2010PropOp48
 70
     1
102
RTVSPost2010Prop49
280
     0
102
RTVSPost2010PropOp49
 70
     1
102
RTVSPost2010Prop50
 90
       50
102
RTVSPost2010PropOp50
 70
     1
102
RTVSPost2010Prop51ColorIndex
 90
      256
102
RTVSPost2010Prop51ColorRGB
 90
-16777216
102
RTVSPost2010PropOp51
 70
     0
102
RTVSPost2010Prop52
140
1.0
102
RTVSPost2010PropOp52
 70
     0
102
RTVSPost2010Prop53
 90
        2
102
RTVSPost2010PropOp53
 70
     1
102
RTVSPost2010Prop54
  1
strokes_ogs.tif
102
RTVSPost2010PropOp54
 70
     1
102
RTVSPost2010Prop55
280
     0
102
RTVSPost2010PropOp55
 70
     1
102
RTVSPost2010Prop56
140
1.0
102
RTVSPost2010PropOp56
 70
     1
102
RTVSPost2010Prop57
140
1.0
102
RTVSPost2010PropOp57
 70
     1
102
RTVSPropertyOp0
 70
     1
102
RTVSPropertyOp1
 70
     1
102
RTVSPropertyOp2
 70
     1
102
RTVSPropertyOp3
 70
     1
102
RTVSPropertyOp4
 70
     1
102
RTVSPropertyOp5
 70
     1
102
RTVSPropertyOp6
 70
     1
102
RTVSPropertyOp7
 70
     1
102
RTVSPropertyOp8
 70
     1
102
RTVSPropertyOp9
 70
     1
102
RTVSPropertyOp10
 70
     1
102
RTVSPropertyOp11
 70
     1
102
RTVSPropertyOp12
 70
     1
102
RTVSPropertyOp13
 70
     1
102
RTVSPropertyOp14
 70
     1
102
RTVSPropertyOp15
 70
     1
102
RTVSPropertyOp16
 70
     1
102
RTVSPropertyOp17
 70
     1
102
RTVSPropertyOp18
 70
     1
102
RTVSPropertyOp19
 70
     1
102
RTVSPropertyOp20
 70
     1
102
RTVSPropertyOp21
 70
     1
102
RTVSPropertyOp22
 70
     1
102
RTVSPropertyOp23
 70
     1
102
RTVSPropertyOp24
 70
     1
102
RTVSPropertyOp25
 70
     1
102
RTVSPropertyOp26
 70
     1
102
RTVSPropertyOp27
 70
     1
102
RTVSPropertyOp28
 70
     1
102
RTVSPropertyOp29
 70
     1
102
RTVSPropertyOp30
 70
     1
102
RTVSPropertyOp31
 70
     1
102
RTVSPropertyOp32
 70
     1
102
RTVSPropertyOp33
 70
     1
102
RTVSPropertyOp34
 70
     1
102
RTVSPropertyOp35
 70
     1
102
RTVSPropertyOp36
 70
     1
102
RTVSPropertyOp37
 70
     1
102
RTVSPropertyOp38
 70
     1
102
RTVSPropertyOp39
 70
     1
102
RTVSPropertyOp40
 70
     1
102
RTVSPropertyOp41
 70
     1
102
RTVSPropertyOp42
 70
     1
102
RTVSPropertyOp43
 70
     1
102
RTVSPropertyOp44
 70
     1
102
RTVSPropertyOp45
 70
     1
102
RTVSPropertyOp46
 70
     1
102
RTVSPropertyOp47
 70
     1
102
RTVSPropertyOp48
 70
     1
102
RTVSPropertyOp49
 70
     1
102
RTVSPropertyOp50
 70
     1
102
RTVSPropertyOp51
 70
     0
102
RTVSPropertyOp52
 70
     0
102
RTVSPropertyOp53
 70
     1
102
RTVSPropertyOp54
 70
     1
102
RTVSPropertyOp55
 70
     1
102
RTVSPropertyOp56
 70
     1
102
RTVSPropertyOp57
 70
     1
102
RTVSPropertyOp58
 70
     1
102
RTVSPropertyOp59
 70
     1
102
RTVSPropertyOp60
 70
     1
102
RTVSPropertyOp61
 70
     1
102
RTVSPropertyOp62
 70
     1
  0
XRECORD
  5
D79
102
{ACAD_REACTORS
330
D78
102
}
330
D78
100
AcDbXrecord
280
     1
102
RTVSPost2010Prop28
280
     0
102
RTVSPost2010PropOp28
 70
     1
102
RTVSPost2010Prop29
280
     1
102
RTVSPost2010PropOp29
 70
     1
102
RTVSPost2010Prop30
280
     1
102
RTVSPost2010PropOp30
 70
     1
102
RTVSPost2010Prop31
280
     0
102
RTVSPost2010PropOp31
 70
     1
102
RTVSPost2010Prop32
280
     0
102
RTVSPost2010PropOp32
 70
     1
102
RTVSPost2010Prop33
280
     0
102
RTVSPost2010PropOp33
 70
     1
102
RTVSPost2010Prop34
280
     0
102
RTVSPost2010PropOp34
 70
     1
102
RTVSPost2010Prop35
280
     0
102
RTVSPost2010PropOp35
 70
     1
102
RTVSPost2010Prop36
280
     0
102
RTVSPost2010PropOp36
 70
     1
102
RTVSPost2010Prop37
 90
       50
102
RTVSPost2010PropOp37
 70
     1
102
RTVSPost2010Prop38
140
0.0
102
RTVSPost2010PropOp38
 70
     1
102
RTVSPost2010Prop39
140
1.0
102
RTVSPost2010PropOp39
 70
     1
102
RTVSPost2010Prop40
 90
        0
102
RTVSPost2010PropOp40
 70
     1
102
RTVSPost2010Prop41ColorIndex
 90
       18
102
RTVSPost2010Prop41ColorRGB
 90
        0
102
RTVSPost2010PropOp41
 70
     1
102
RTVSPost2010Prop42
 90
       50
102
RTVSPost2010PropOp42
 70
     1
102
RTVSPost2010Prop43
 90
        3
102
RTVSPost2010PropOp43
 70
     1
102
RTVSPost2010Prop44ColorIndex
 90
        5
102
RTVSPost2010Prop44ColorRGB
 90
      255
102
RTVSPost2010PropOp44
 70
     1
102
RTVSPost2010Prop45
280
     0
102
RTVSPost2010PropOp45
 70
     1
102
RTVSPost2010Prop46
 90
       50
102
RTVSPost2010PropOp46
 70
     1
102
RTVSPost2010Prop47
 90
       50
102
RTVSPost2010PropOp47
 70
     1
102
RTVSPost2010Prop48
 90
       50
102
RTVSPost2010PropOp48
 70
     1
102
RTVSPost2010Prop49
280
     0
102
RTVSPost2010PropOp49
 70
     1
102
RTVSPost2010Prop50
 90
       50
102
RTVSPost2010PropOp50
 70
     1
102
RTVSPost2010Prop51ColorIndex
 90
      256
102
RTVSPost2010Prop51ColorRGB
 90
-16777216
102
RTVSPost2010PropOp51
 70
     0
102
RTVSPost2010Prop52
140
1.0
102
RTVSPost2010PropOp52
 70
     0
102
RTVSPost2010Prop53
 90
        2
102
RTVSPost2010PropOp53
 70
     1
102
RTVSPost2010Prop54
  1
strokes_ogs.tif
102
RTVSPost2010PropOp54
 70
     1
102
RTVSPost2010Prop55
280
     0
102
RTVSPost2010PropOp55
 70
     1
102
RTVSPost2010Prop56
140
1.0
102
RTVSPost2010PropOp56
 70
     1
102
RTVSPost2010Prop57
140
1.0
102
RTVSPost2010PropOp57
 70
     1
102
RTVSPropertyOp0
 70
     1
102
RTVSPropertyOp1
 70
     1
102
RTVSPropertyOp2
 70
     1
102
RTVSPropertyOp3
 70
     1
102
RTVSPropertyOp4
 70
     1
102
RTVSPropertyOp5
 70
     1
102
RTVSPropertyOp6
 70
     1
102
RTVSPropertyOp7
 70
     1
102
RTVSPropertyOp8
 70
     1
102
RTVSPropertyOp9
 70
     1
102
RTVSPropertyOp10
 70
     1
102
RTVSPropertyOp11
 70
     1
102
RTVSPropertyOp12
 70
     1
102
RTVSPropertyOp13
 70
     1
102
RTVSPropertyOp14
 70
     1
102
RTVSPropertyOp15
 70
     1
102
RTVSPropertyOp16
 70
     1
102
RTVSPropertyOp17
 70
     1
102
RTVSPropertyOp18
 70
     1
102
RTVSPropertyOp19
 70
     1
102
RTVSPropertyOp20
 70
     1
102
RTVSPropertyOp21
 70
     1
102
RTVSPropertyOp22
 70
     1
102
RTVSPropertyOp23
 70
     1
102
RTVSPropertyOp24
 70
     1
102
RTVSPropertyOp25
 70
     1
102
RTVSPropertyOp26
 70
     1
102
RTVSPropertyOp27
 70
     1
102
RTVSPropertyOp28
 70
     1
102
RTVSPropertyOp29
 70
     1
102
RTVSPropertyOp30
 70
     1
102
RTVSPropertyOp31
 70
     1
102
RTVSPropertyOp32
 70
     1
102
RTVSPropertyOp33
 70
     1
102
RTVSPropertyOp34
 70
     1
102
RTVSPropertyOp35
 70
     1
102
RTVSPropertyOp36
 70
     1
102
RTVSPropertyOp37
 70
     1
102
RTVSPropertyOp38
 70
     1
102
RTVSPropertyOp39
 70
     1
102
RTVSPropertyOp40
 70
     1
102
RTVSPropertyOp41
 70
     1
102
RTVSPropertyOp42
 70
     1
102
RTVSPropertyOp43
 70
     1
102
RTVSPropertyOp44
 70
     1
102
RTVSPropertyOp45
 70
     1
102
RTVSPropertyOp46
 70
     1
102
RTVSPropertyOp47
 70
     1
102
RTVSPropertyOp48
 70
     1
102
RTVSPropertyOp49
 70
     1
102
RTVSPropertyOp50
 70
     1
102
RTVSPropertyOp51
 70
     0
102
RTVSPropertyOp52
 70
     0
102
RTVSPropertyOp53
 70
     1
102
RTVSPropertyOp54
 70
     1
102
RTVSPropertyOp55
 70
     1
102
RTVSPropertyOp56
 70
     1
102
RTVSPropertyOp57
 70
     1
102
RTVSPropertyOp58
 70
     1
102
RTVSPropertyOp59
 70
     1
102
RTVSPropertyOp60
 70
     1
102
RTVSPropertyOp61
 70
     1
102
RTVSPropertyOp62
 70
     1
  0
XRECORD
  5
D85
102
{ACAD_REACTORS
330
D84
102
}
330
D84
100
AcDbXrecord
280
     1
102
RTVSPost2010Prop28
280
     0
102
RTVSPost2010PropOp28
 70
     1
102
RTVSPost2010Prop29
280
     1
102
RTVSPost2010PropOp29
 70
     1
102
RTVSPost2010Prop30
280
     1
102
RTVSPost2010PropOp30
 70
     1
102
RTVSPost2010Prop31
280
     0
102
RTVSPost2010PropOp31
 70
     1
102
RTVSPost2010Prop32
280
     0
102
RTVSPost2010PropOp32
 70
     1
102
RTVSPost2010Prop33
280
     0
102
RTVSPost2010PropOp33
 70
     1
102
RTVSPost2010Prop34
280
     0
102
RTVSPost2010PropOp34
 70
     1
102
RTVSPost2010Prop35
280
     0
102
RTVSPost2010PropOp35
 70
     1
102
RTVSPost2010Prop36
280
     0
102
RTVSPost2010PropOp36
 70
     1
102
RTVSPost2010Prop37
 90
       50
102
RTVSPost2010PropOp37
 70
     1
102
RTVSPost2010Prop38
140
0.0
102
RTVSPost2010PropOp38
 70
     1
102
RTVSPost2010Prop39
140
1.0
102
RTVSPost2010PropOp39
 70
     1
102
RTVSPost2010Prop40
 90
        0
102
RTVSPost2010PropOp40
 70
     1
102
RTVSPost2010Prop41ColorIndex
 90
       18
102
RTVSPost2010Prop41ColorRGB
 90
        0
102
RTVSPost2010PropOp41
 70
     1
102
RTVSPost2010Prop42
 90
       50
102
RTVSPost2010PropOp42
 70
     1
102
RTVSPost2010Prop43
 90
        3
102
RTVSPost2010PropOp43
 70
     1
102
RTVSPost2010Prop44ColorIndex
 90
        5
102
RTVSPost2010Prop44ColorRGB
 90
      255
102
RTVSPost2010PropOp44
 70
     1
102
RTVSPost2010Prop45
280
     0
102
RTVSPost2010PropOp45
 70
     1
102
RTVSPost2010Prop46
 90
       50
102
RTVSPost2010PropOp46
 70
     1
102
RTVSPost2010Prop47
 90
       50
102
RTVSPost2010PropOp47
 70
     1
102
RTVSPost2010Prop48
 90
       50
102
RTVSPost2010PropOp48
 70
     1
102
RTVSPost2010Prop49
280
     0
102
RTVSPost2010PropOp49
 70
     1
102
RTVSPost2010Prop50
 90
       50
102
RTVSPost2010PropOp50
 70
     1
102
RTVSPost2010Prop51ColorIndex
 90
      256
102
RTVSPost2010Prop51ColorRGB
 90
-16777216
102
RTVSPost2010PropOp51
 70
     0
102
RTVSPost2010Prop52
140
1.0
102
RTVSPost2010PropOp52
 70
     0
102
RTVSPost2010Prop53
 90
        2
102
RTVSPost2010PropOp53
 70
     1
102
RTVSPost2010Prop54
  1
strokes_ogs.tif
102
RTVSPost2010PropOp54
 70
     1
102
RTVSPost2010Prop55
280
     0
102
RTVSPost2010PropOp55
 70
     1
102
RTVSPost2010Prop56
140
1.0
102
RTVSPost2010PropOp56
 70
     1
102
RTVSPost2010Prop57
140
1.0
102
RTVSPost2010PropOp57
 70
     1
102
RTVSPropertyOp0
 70
     0
102
RTVSPropertyOp1
 70
     0
102
RTVSPropertyOp2
 70
     0
102
RTVSPropertyOp3
 70
     0
102
RTVSPropertyOp4
 70
     0
102
RTVSPropertyOp5
 70
     0
102
RTVSPropertyOp6
 70
     0
102
RTVSPropertyOp7
 70
     0
102
RTVSPropertyOp8
 70
     0
102
RTVSPropertyOp9
 70
     0
102
RTVSPropertyOp10
 70
     0
102
RTVSPropertyOp11
 70
     0
102
RTVSPropertyOp12
 70
     0
102
RTVSPropertyOp13
 70
     0
102
RTVSPropertyOp14
 70
     2
102
RTVSPropertyOp15
 70
     0
102
RTVSPropertyOp16
 70
     0
102
RTVSPropertyOp17
 70
     0
102
RTVSPropertyOp18
 70
     0
102
RTVSPropertyOp19
 70
     0
102
RTVSPropertyOp20
 70
     0
102
RTVSPropertyOp21
 70
     0
102
RTVSPropertyOp22
 70
     0
102
RTVSPropertyOp23
 70
     0
102
RTVSPropertyOp24
 70
     0
102
RTVSPropertyOp25
 70
     0
102
RTVSPropertyOp26
 70
     0
102
RTVSPropertyOp27
 70
     0
102
RTVSPropertyOp28
 70
     1
102
RTVSPropertyOp29
 70
     1
102
RTVSPropertyOp30
 70
     1
102
RTVSPropertyOp31
 70
     1
102
RTVSPropertyOp32
 70
     1
102
RTVSPropertyOp33
 70
     1
102
RTVSPropertyOp34
 70
     1
102
RTVSPropertyOp35
 70
     1
102
RTVSPropertyOp36
 70
     1
102
RTVSPropertyOp37
 70
     1
102
RTVSPropertyOp38
 70
     1
102
RTVSPropertyOp39
 70
     1
102
RTVSPropertyOp40
 70
     1
102
RTVSPropertyOp41
 70
     1
102
RTVSPropertyOp42
 70
     1
102
RTVSPropertyOp43
 70
     1
102
RTVSPropertyOp44
 70
     1
102
RTVSPropertyOp45
 70
     1
102
RTVSPropertyOp46
 70
     1
102
RTVSPropertyOp47
 70
     1
102
RTVSPropertyOp48
 70
     1
102
RTVSPropertyOp49
 70
     1
102
RTVSPropertyOp50
 70
     1
102
RTVSPropertyOp51
 70
     0
102
RTVSPropertyOp52
 70
     0
102
RTVSPropertyOp53
 70
     1
102
RTVSPropertyOp54
 70
     1
102
RTVSPropertyOp55
 70
     1
102
RTVSPropertyOp56
 70
     1
102
RTVSPropertyOp57
 70
     1
102
RTVSPropertyOp58
 70
     1
102
RTVSPropertyOp59
 70
     1
102
RTVSPropertyOp60
 70
     1
102
RTVSPropertyOp61
 70
     1
102
RTVSPropertyOp62
 70
     1
  0
XRECORD
  5
D6F
102
{ACAD_REACTORS
330
D6E
102
}
330
D6E
100
AcDbXrecord
280
     1
102
RTVSPost2010Prop28
280
     0
102
RTVSPost2010PropOp28
 70
     1
102
RTVSPost2010Prop29
280
     1
102
RTVSPost2010PropOp29
 70
     1
102
RTVSPost2010Prop30
280
     1
102
RTVSPost2010PropOp30
 70
     1
102
RTVSPost2010Prop31
280
     0
102
RTVSPost2010PropOp31
 70
     1
102
RTVSPost2010Prop32
280
     0
102
RTVSPost2010PropOp32
 70
     1
102
RTVSPost2010Prop33
280
     0
102
RTVSPost2010PropOp33
 70
     1
102
RTVSPost2010Prop34
280
     0
102
RTVSPost2010PropOp34
 70
     1
102
RTVSPost2010Prop35
280
     0
102
RTVSPost2010PropOp35
 70
     1
102
RTVSPost2010Prop36
280
     0
102
RTVSPost2010PropOp36
 70
     1
102
RTVSPost2010Prop37
 90
       50
102
RTVSPost2010PropOp37
 70
     1
102
RTVSPost2010Prop38
140
0.0
102
RTVSPost2010PropOp38
 70
     1
102
RTVSPost2010Prop39
140
1.0
102
RTVSPost2010PropOp39
 70
     1
102
RTVSPost2010Prop40
 90
        0
102
RTVSPost2010PropOp40
 70
     1
102
RTVSPost2010Prop41ColorIndex
 90
       18
102
RTVSPost2010Prop41ColorRGB
 90
        0
102
RTVSPost2010PropOp41
 70
     1
102
RTVSPost2010Prop42
 90
       50
102
RTVSPost2010PropOp42
 70
     1
102
RTVSPost2010Prop43
 90
        3
102
RTVSPost2010PropOp43
 70
     1
102
RTVSPost2010Prop44ColorIndex
 90
        5
102
RTVSPost2010Prop44ColorRGB
 90
      255
102
RTVSPost2010PropOp44
 70
     1
102
RTVSPost2010Prop45
280
     0
102
RTVSPost2010PropOp45
 70
     1
102
RTVSPost2010Prop46
 90
       50
102
RTVSPost2010PropOp46
 70
     1
102
RTVSPost2010Prop47
 90
       50
102
RTVSPost2010PropOp47
 70
     1
102
RTVSPost2010Prop48
 90
       50
102
RTVSPost2010PropOp48
 70
     1
102
RTVSPost2010Prop49
280
     0
102
RTVSPost2010PropOp49
 70
     1
102
RTVSPost2010Prop50
 90
       50
102
RTVSPost2010PropOp50
 70
     1
102
RTVSPost2010Prop51ColorIndex
 90
      256
102
RTVSPost2010Prop51ColorRGB
 90
-16777216
102
RTVSPost2010PropOp51
 70
     0
102
RTVSPost2010Prop52
140
1.0
102
RTVSPost2010PropOp52
 70
     0
102
RTVSPost2010Prop53
 90
        2
102
RTVSPost2010PropOp53
 70
     1
102
RTVSPost2010Prop54
  1
strokes_ogs.tif
102
RTVSPost2010PropOp54
 70
     1
102
RTVSPost2010Prop55
280
     0
102
RTVSPost2010PropOp55
 70
     1
102
RTVSPost2010Prop56
140
1.0
102
RTVSPost2010PropOp56
 70
     1
102
RTVSPost2010Prop57
140
1.0
102
RTVSPost2010PropOp57
 70
     1
102
RTVSPropertyOp0
 70
     1
102
RTVSPropertyOp1
 70
     1
102
RTVSPropertyOp2
 70
     1
102
RTVSPropertyOp3
 70
     1
102
RTVSPropertyOp4
 70
     1
102
RTVSPropertyOp5
 70
     1
102
RTVSPropertyOp6
 70
     1
102
RTVSPropertyOp7
 70
     1
102
RTVSPropertyOp8
 70
     1
102
RTVSPropertyOp9
 70
     1
102
RTVSPropertyOp10
 70
     1
102
RTVSPropertyOp11
 70
     1
102
RTVSPropertyOp12
 70
     1
102
RTVSPropertyOp13
 70
     1
102
RTVSPropertyOp14
 70
     1
102
RTVSPropertyOp15
 70
     1
102
RTVSPropertyOp16
 70
     1
102
RTVSPropertyOp17
 70
     1
102
RTVSPropertyOp18
 70
     1
102
RTVSPropertyOp19
 70
     1
102
RTVSPropertyOp20
 70
     1
102
RTVSPropertyOp21
 70
     1
102
RTVSPropertyOp22
 70
     1
102
RTVSPropertyOp23
 70
     1
102
RTVSPropertyOp24
 70
     1
102
RTVSPropertyOp25
 70
     1
102
RTVSPropertyOp26
 70
     1
102
RTVSPropertyOp27
 70
     1
102
RTVSPropertyOp28
 70
     1
102
RTVSPropertyOp29
 70
     1
102
RTVSPropertyOp30
 70
     1
102
RTVSPropertyOp31
 70
     1
102
RTVSPropertyOp32
 70
     1
102
RTVSPropertyOp33
 70
     1
102
RTVSPropertyOp34
 70
     1
102
RTVSPropertyOp35
 70
     1
102
RTVSPropertyOp36
 70
     1
102
RTVSPropertyOp37
 70
     1
102
RTVSPropertyOp38
 70
     1
102
RTVSPropertyOp39
 70
     1
102
RTVSPropertyOp40
 70
     1
102
RTVSPropertyOp41
 70
     1
102
RTVSPropertyOp42
 70
     1
102
RTVSPropertyOp43
 70
     1
102
RTVSPropertyOp44
 70
     1
102
RTVSPropertyOp45
 70
     1
102
RTVSPropertyOp46
 70
     1
102
RTVSPropertyOp47
 70
     1
102
RTVSPropertyOp48
 70
     1
102
RTVSPropertyOp49
 70
     1
102
RTVSPropertyOp50
 70
     1
102
RTVSPropertyOp51
 70
     0
102
RTVSPropertyOp52
 70
     0
102
RTVSPropertyOp53
 70
     1
102
RTVSPropertyOp54
 70
     1
102
RTVSPropertyOp55
 70
     1
102
RTVSPropertyOp56
 70
     1
102
RTVSPropertyOp57
 70
     1
102
RTVSPropertyOp58
 70
     1
102
RTVSPropertyOp59
 70
     1
102
RTVSPropertyOp60
 70
     1
102
RTVSPropertyOp61
 70
     1
102
RTVSPropertyOp62
 70
     1
  0
XRECORD
  5
D87
102
{ACAD_REACTORS
330
D86
102
}
330
D86
100
AcDbXrecord
280
     1
102
RTVSPost2010Prop28
280
     0
102
RTVSPost2010PropOp28
 70
     1
102
RTVSPost2010Prop29
280
     1
102
RTVSPost2010PropOp29
 70
     1
102
RTVSPost2010Prop30
280
     1
102
RTVSPost2010PropOp30
 70
     1
102
RTVSPost2010Prop31
280
     0
102
RTVSPost2010PropOp31
 70
     1
102
RTVSPost2010Prop32
280
     0
102
RTVSPost2010PropOp32
 70
     1
102
RTVSPost2010Prop33
280
     0
102
RTVSPost2010PropOp33
 70
     1
102
RTVSPost2010Prop34
280
     0
102
RTVSPost2010PropOp34
 70
     1
102
RTVSPost2010Prop35
280
     0
102
RTVSPost2010PropOp35
 70
     1
102
RTVSPost2010Prop36
280
     0
102
RTVSPost2010PropOp36
 70
     1
102
RTVSPost2010Prop37
 90
       50
102
RTVSPost2010PropOp37
 70
     1
102
RTVSPost2010Prop38
140
0.0
102
RTVSPost2010PropOp38
 70
     1
102
RTVSPost2010Prop39
140
1.0
102
RTVSPost2010PropOp39
 70
     1
102
RTVSPost2010Prop40
 90
        0
102
RTVSPost2010PropOp40
 70
     1
102
RTVSPost2010Prop41ColorIndex
 90
       18
102
RTVSPost2010Prop41ColorRGB
 90
        0
102
RTVSPost2010PropOp41
 70
     1
102
RTVSPost2010Prop42
 90
       50
102
RTVSPost2010PropOp42
 70
     1
102
RTVSPost2010Prop43
 90
        3
102
RTVSPost2010PropOp43
 70
     1
102
RTVSPost2010Prop44ColorIndex
 90
        5
102
RTVSPost2010Prop44ColorRGB
 90
      255
102
RTVSPost2010PropOp44
 70
     1
102
RTVSPost2010Prop45
280
     0
102
RTVSPost2010PropOp45
 70
     1
102
RTVSPost2010Prop46
 90
       50
102
RTVSPost2010PropOp46
 70
     1
102
RTVSPost2010Prop47
 90
       50
102
RTVSPost2010PropOp47
 70
     1
102
RTVSPost2010Prop48
 90
       50
102
RTVSPost2010PropOp48
 70
     1
102
RTVSPost2010Prop49
280
     0
102
RTVSPost2010PropOp49
 70
     1
102
RTVSPost2010Prop50
 90
       50
102
RTVSPost2010PropOp50
 70
     1
102
RTVSPost2010Prop51ColorIndex
 90
      256
102
RTVSPost2010Prop51ColorRGB
 90
-16777216
102
RTVSPost2010PropOp51
 70
     0
102
RTVSPost2010Prop52
140
1.0
102
RTVSPost2010PropOp52
 70
     0
102
RTVSPost2010Prop53
 90
        2
102
RTVSPost2010PropOp53
 70
     1
102
RTVSPost2010Prop54
  1
strokes_ogs.tif
102
RTVSPost2010PropOp54
 70
     1
102
RTVSPost2010Prop55
280
     0
102
RTVSPost2010PropOp55
 70
     1
102
RTVSPost2010Prop56
140
1.0
102
RTVSPost2010PropOp56
 70
     1
102
RTVSPost2010Prop57
140
1.0
102
RTVSPost2010PropOp57
 70
     1
102
RTVSPropertyOp0
 70
     0
102
RTVSPropertyOp1
 70
     0
102
RTVSPropertyOp2
 70
     0
102
RTVSPropertyOp3
 70
     0
102
RTVSPropertyOp4
 70
     0
102
RTVSPropertyOp5
 70
     0
102
RTVSPropertyOp6
 70
     0
102
RTVSPropertyOp7
 70
     0
102
RTVSPropertyOp8
 70
     0
102
RTVSPropertyOp9
 70
     0
102
RTVSPropertyOp10
 70
     0
102
RTVSPropertyOp11
 70
     0
102
RTVSPropertyOp12
 70
     0
102
RTVSPropertyOp13
 70
     0
102
RTVSPropertyOp14
 70
     2
102
RTVSPropertyOp15
 70
     0
102
RTVSPropertyOp16
 70
     0
102
RTVSPropertyOp17
 70
     0
102
RTVSPropertyOp18
 70
     0
102
RTVSPropertyOp19
 70
     0
102
RTVSPropertyOp20
 70
     0
102
RTVSPropertyOp21
 70
     0
102
RTVSPropertyOp22
 70
     0
102
RTVSPropertyOp23
 70
     0
102
RTVSPropertyOp24
 70
     0
102
RTVSPropertyOp25
 70
     0
102
RTVSPropertyOp26
 70
     0
102
RTVSPropertyOp27
 70
     0
102
RTVSPropertyOp28
 70
     1
102
RTVSPropertyOp29
 70
     1
102
RTVSPropertyOp30
 70
     1
102
RTVSPropertyOp31
 70
     1
102
RTVSPropertyOp32
 70
     1
102
RTVSPropertyOp33
 70
     1
102
RTVSPropertyOp34
 70
     1
102
RTVSPropertyOp35
 70
     1
102
RTVSPropertyOp36
 70
     1
102
RTVSPropertyOp37
 70
     1
102
RTVSPropertyOp38
 70
     1
102
RTVSPropertyOp39
 70
     1
102
RTVSPropertyOp40
 70
     1
102
RTVSPropertyOp41
 70
     1
102
RTVSPropertyOp42
 70
     1
102
RTVSPropertyOp43
 70
     1
102
RTVSPropertyOp44
 70
     1
102
RTVSPropertyOp45
 70
     1
102
RTVSPropertyOp46
 70
     1
102
RTVSPropertyOp47
 70
     1
102
RTVSPropertyOp48
 70
     1
102
RTVSPropertyOp49
 70
     1
102
RTVSPropertyOp50
 70
     1
102
RTVSPropertyOp51
 70
     0
102
RTVSPropertyOp52
 70
     0
102
RTVSPropertyOp53
 70
     1
102
RTVSPropertyOp54
 70
     1
102
RTVSPropertyOp55
 70
     1
102
RTVSPropertyOp56
 70
     1
102
RTVSPropertyOp57
 70
     1
102
RTVSPropertyOp58
 70
     1
102
RTVSPropertyOp59
 70
     1
102
RTVSPropertyOp60
 70
     1
102
RTVSPropertyOp61
 70
     1
102
RTVSPropertyOp62
 70
     1
  0
XRECORD
  5
D67
102
{ACAD_REACTORS
330
D66
102
}
330
D66
100
AcDbXrecord
280
     1
102
RTVSPost2010Prop28
280
     0
102
RTVSPost2010PropOp28
 70
     1
102
RTVSPost2010Prop29
280
     1
102
RTVSPost2010PropOp29
 70
     1
102
RTVSPost2010Prop30
280
     1
102
RTVSPost2010PropOp30
 70
     1
102
RTVSPost2010Prop31
280
     0
102
RTVSPost2010PropOp31
 70
     1
102
RTVSPost2010Prop32
280
     0
102
RTVSPost2010PropOp32
 70
     1
102
RTVSPost2010Prop33
280
     0
102
RTVSPost2010PropOp33
 70
     1
102
RTVSPost2010Prop34
280
     0
102
RTVSPost2010PropOp34
 70
     1
102
RTVSPost2010Prop35
280
     0
102
RTVSPost2010PropOp35
 70
     1
102
RTVSPost2010Prop36
280
     0
102
RTVSPost2010PropOp36
 70
     1
102
RTVSPost2010Prop37
 90
       50
102
RTVSPost2010PropOp37
 70
     1
102
RTVSPost2010Prop38
140
0.0
102
RTVSPost2010PropOp38
 70
     1
102
RTVSPost2010Prop39
140
1.0
102
RTVSPost2010PropOp39
 70
     1
102
RTVSPost2010Prop40
 90
        0
102
RTVSPost2010PropOp40
 70
     1
102
RTVSPost2010Prop41ColorIndex
 90
       18
102
RTVSPost2010Prop41ColorRGB
 90
        0
102
RTVSPost2010PropOp41
 70
     1
102
RTVSPost2010Prop42
 90
       50
102
RTVSPost2010PropOp42
 70
     1
102
RTVSPost2010Prop43
 90
        3
102
RTVSPost2010PropOp43
 70
     1
102
RTVSPost2010Prop44ColorIndex
 90
        5
102
RTVSPost2010Prop44ColorRGB
 90
      255
102
RTVSPost2010PropOp44
 70
     1
102
RTVSPost2010Prop45
280
     0
102
RTVSPost2010PropOp45
 70
     1
102
RTVSPost2010Prop46
 90
       50
102
RTVSPost2010PropOp46
 70
     1
102
RTVSPost2010Prop47
 90
       50
102
RTVSPost2010PropOp47
 70
     1
102
RTVSPost2010Prop48
 90
       50
102
RTVSPost2010PropOp48
 70
     1
102
RTVSPost2010Prop49
280
     0
102
RTVSPost2010PropOp49
 70
     1
102
RTVSPost2010Prop50
 90
       50
102
RTVSPost2010PropOp50
 70
     1
102
RTVSPost2010Prop51ColorIndex
 90
      256
102
RTVSPost2010Prop51ColorRGB
 90
-16777216
102
RTVSPost2010PropOp51
 70
     0
102
RTVSPost2010Prop52
140
1.0
102
RTVSPost2010PropOp52
 70
     0
102
RTVSPost2010Prop53
 90
        2
102
RTVSPost2010PropOp53
 70
     1
102
RTVSPost2010Prop54
  1
strokes_ogs.tif
102
RTVSPost2010PropOp54
 70
     1
102
RTVSPost2010Prop55
280
     0
102
RTVSPost2010PropOp55
 70
     1
102
RTVSPost2010Prop56
140
1.0
102
RTVSPost2010PropOp56
 70
     1
102
RTVSPost2010Prop57
140
1.0
102
RTVSPost2010PropOp57
 70
     1
102
RTVSPropertyOp0
 70
     1
102
RTVSPropertyOp1
 70
     1
102
RTVSPropertyOp2
 70
     1
102
RTVSPropertyOp3
 70
     1
102
RTVSPropertyOp4
 70
     1
102
RTVSPropertyOp5
 70
     1
102
RTVSPropertyOp6
 70
     1
102
RTVSPropertyOp7
 70
     1
102
RTVSPropertyOp8
 70
     1
102
RTVSPropertyOp9
 70
     1
102
RTVSPropertyOp10
 70
     1
102
RTVSPropertyOp11
 70
     1
102
RTVSPropertyOp12
 70
     1
102
RTVSPropertyOp13
 70
     1
102
RTVSPropertyOp14
 70
     1
102
RTVSPropertyOp15
 70
     1
102
RTVSPropertyOp16
 70
     1
102
RTVSPropertyOp17
 70
     1
102
RTVSPropertyOp18
 70
     1
102
RTVSPropertyOp19
 70
     1
102
RTVSPropertyOp20
 70
     1
102
RTVSPropertyOp21
 70
     1
102
RTVSPropertyOp22
 70
     1
102
RTVSPropertyOp23
 70
     1
102
RTVSPropertyOp24
 70
     1
102
RTVSPropertyOp25
 70
     1
102
RTVSPropertyOp26
 70
     1
102
RTVSPropertyOp27
 70
     1
102
RTVSPropertyOp28
 70
     1
102
RTVSPropertyOp29
 70
     1
102
RTVSPropertyOp30
 70
     1
102
RTVSPropertyOp31
 70
     1
102
RTVSPropertyOp32
 70
     1
102
RTVSPropertyOp33
 70
     1
102
RTVSPropertyOp34
 70
     1
102
RTVSPropertyOp35
 70
     1
102
RTVSPropertyOp36
 70
     1
102
RTVSPropertyOp37
 70
     1
102
RTVSPropertyOp38
 70
     1
102
RTVSPropertyOp39
 70
     1
102
RTVSPropertyOp40
 70
     1
102
RTVSPropertyOp41
 70
     1
102
RTVSPropertyOp42
 70
     1
102
RTVSPropertyOp43
 70
     1
102
RTVSPropertyOp44
 70
     1
102
RTVSPropertyOp45
 70
     1
102
RTVSPropertyOp46
 70
     1
102
RTVSPropertyOp47
 70
     1
102
RTVSPropertyOp48
 70
     1
102
RTVSPropertyOp49
 70
     1
102
RTVSPropertyOp50
 70
     1
102
RTVSPropertyOp51
 70
     0
102
RTVSPropertyOp52
 70
     0
102
RTVSPropertyOp53
 70
     1
102
RTVSPropertyOp54
 70
     1
102
RTVSPropertyOp55
 70
     1
102
RTVSPropertyOp56
 70
     1
102
RTVSPropertyOp57
 70
     1
102
RTVSPropertyOp58
 70
     1
102
RTVSPropertyOp59
 70
     1
102
RTVSPropertyOp60
 70
     1
102
RTVSPropertyOp61
 70
     1
102
RTVSPropertyOp62
 70
     1
  0
XRECORD
  5
D83
102
{ACAD_REACTORS
330
D82
102
}
330
D82
100
AcDbXrecord
280
     1
102
RTVSPost2010Prop28
280
     0
102
RTVSPost2010PropOp28
 70
     1
102
RTVSPost2010Prop29
280
     1
102
RTVSPost2010PropOp29
 70
     1
102
RTVSPost2010Prop30
280
     1
102
RTVSPost2010PropOp30
 70
     1
102
RTVSPost2010Prop31
280
     0
102
RTVSPost2010PropOp31
 70
     1
102
RTVSPost2010Prop32
280
     0
102
RTVSPost2010PropOp32
 70
     1
102
RTVSPost2010Prop33
280
     0
102
RTVSPost2010PropOp33
 70
     1
102
RTVSPost2010Prop34
280
     0
102
RTVSPost2010PropOp34
 70
     1
102
RTVSPost2010Prop35
280
     0
102
RTVSPost2010PropOp35
 70
     1
102
RTVSPost2010Prop36
280
     0
102
RTVSPost2010PropOp36
 70
     1
102
RTVSPost2010Prop37
 90
       50
102
RTVSPost2010PropOp37
 70
     1
102
RTVSPost2010Prop38
140
0.0
102
RTVSPost2010PropOp38
 70
     1
102
RTVSPost2010Prop39
140
1.0
102
RTVSPost2010PropOp39
 70
     1
102
RTVSPost2010Prop40
 90
        0
102
RTVSPost2010PropOp40
 70
     1
102
RTVSPost2010Prop41ColorIndex
 90
       18
102
RTVSPost2010Prop41ColorRGB
 90
        0
102
RTVSPost2010PropOp41
 70
     1
102
RTVSPost2010Prop42
 90
       50
102
RTVSPost2010PropOp42
 70
     1
102
RTVSPost2010Prop43
 90
        3
102
RTVSPost2010PropOp43
 70
     1
102
RTVSPost2010Prop44ColorIndex
 90
        5
102
RTVSPost2010Prop44ColorRGB
 90
      255
102
RTVSPost2010PropOp44
 70
     1
102
RTVSPost2010Prop45
280
     0
102
RTVSPost2010PropOp45
 70
     1
102
RTVSPost2010Prop46
 90
       50
102
RTVSPost2010PropOp46
 70
     1
102
RTVSPost2010Prop47
 90
       50
102
RTVSPost2010PropOp47
 70
     1
102
RTVSPost2010Prop48
 90
       50
102
RTVSPost2010PropOp48
 70
     1
102
RTVSPost2010Prop49
280
     0
102
RTVSPost2010PropOp49
 70
     1
102
RTVSPost2010Prop50
 90
       50
102
RTVSPost2010PropOp50
 70
     1
102
RTVSPost2010Prop51ColorIndex
 90
      256
102
RTVSPost2010Prop51ColorRGB
 90
-16777216
102
RTVSPost2010PropOp51
 70
     0
102
RTVSPost2010Prop52
140
1.0
102
RTVSPost2010PropOp52
 70
     0
102
RTVSPost2010Prop53
 90
        2
102
RTVSPost2010PropOp53
 70
     1
102
RTVSPost2010Prop54
  1
strokes_ogs.tif
102
RTVSPost2010PropOp54
 70
     1
102
RTVSPost2010Prop55
280
     0
102
RTVSPost2010PropOp55
 70
     1
102
RTVSPost2010Prop56
140
1.0
102
RTVSPost2010PropOp56
 70
     1
102
RTVSPost2010Prop57
140
1.0
102
RTVSPost2010PropOp57
 70
     1
102
RTVSPropertyOp0
 70
     1
102
RTVSPropertyOp1
 70
     1
102
RTVSPropertyOp2
 70
     1
102
RTVSPropertyOp3
 70
     1
102
RTVSPropertyOp4
 70
     1
102
RTVSPropertyOp5
 70
     1
102
RTVSPropertyOp6
 70
     1
102
RTVSPropertyOp7
 70
     1
102
RTVSPropertyOp8
 70
     1
102
RTVSPropertyOp9
 70
     1
102
RTVSPropertyOp10
 70
     1
102
RTVSPropertyOp11
 70
     1
102
RTVSPropertyOp12
 70
     1
102
RTVSPropertyOp13
 70
     1
102
RTVSPropertyOp14
 70
     1
102
RTVSPropertyOp15
 70
     1
102
RTVSPropertyOp16
 70
     1
102
RTVSPropertyOp17
 70
     1
102
RTVSPropertyOp18
 70
     1
102
RTVSPropertyOp19
 70
     1
102
RTVSPropertyOp20
 70
     1
102
RTVSPropertyOp21
 70
     1
102
RTVSPropertyOp22
 70
     1
102
RTVSPropertyOp23
 70
     1
102
RTVSPropertyOp24
 70
     1
102
RTVSPropertyOp25
 70
     1
102
RTVSPropertyOp26
 70
     1
102
RTVSPropertyOp27
 70
     1
102
RTVSPropertyOp28
 70
     1
102
RTVSPropertyOp29
 70
     1
102
RTVSPropertyOp30
 70
     1
102
RTVSPropertyOp31
 70
     1
102
RTVSPropertyOp32
 70
     1
102
RTVSPropertyOp33
 70
     1
102
RTVSPropertyOp34
 70
     1
102
RTVSPropertyOp35
 70
     1
102
RTVSPropertyOp36
 70
     1
102
RTVSPropertyOp37
 70
     1
102
RTVSPropertyOp38
 70
     1
102
RTVSPropertyOp39
 70
     1
102
RTVSPropertyOp40
 70
     1
102
RTVSPropertyOp41
 70
     1
102
RTVSPropertyOp42
 70
     1
102
RTVSPropertyOp43
 70
     1
102
RTVSPropertyOp44
 70
     1
102
RTVSPropertyOp45
 70
     1
102
RTVSPropertyOp46
 70
     1
102
RTVSPropertyOp47
 70
     1
102
RTVSPropertyOp48
 70
     1
102
RTVSPropertyOp49
 70
     1
102
RTVSPropertyOp50
 70
     1
102
RTVSPropertyOp51
 70
     0
102
RTVSPropertyOp52
 70
     0
102
RTVSPropertyOp53
 70
     1
102
RTVSPropertyOp54
 70
     1
102
RTVSPropertyOp55
 70
     1
102
RTVSPropertyOp56
 70
     1
102
RTVSPropertyOp57
 70
     1
102
RTVSPropertyOp58
 70
     1
102
RTVSPropertyOp59
 70
     1
102
RTVSPropertyOp60
 70
     1
102
RTVSPropertyOp61
 70
     1
102
RTVSPropertyOp62
 70
     1
  0
XRECORD
  5
D81
102
{ACAD_REACTORS
330
D80
102
}
330
D80
100
AcDbXrecord
280
     1
102
RTVSPost2010Prop28
280
     0
102
RTVSPost2010PropOp28
 70
     1
102
RTVSPost2010Prop29
280
     1
102
RTVSPost2010PropOp29
 70
     1
102
RTVSPost2010Prop30
280
     1
102
RTVSPost2010PropOp30
 70
     1
102
RTVSPost2010Prop31
280
     0
102
RTVSPost2010PropOp31
 70
     1
102
RTVSPost2010Prop32
280
     0
102
RTVSPost2010PropOp32
 70
     1
102
RTVSPost2010Prop33
280
     0
102
RTVSPost2010PropOp33
 70
     1
102
RTVSPost2010Prop34
280
     0
102
RTVSPost2010PropOp34
 70
     1
102
RTVSPost2010Prop35
280
     0
102
RTVSPost2010PropOp35
 70
     1
102
RTVSPost2010Prop36
280
     0
102
RTVSPost2010PropOp36
 70
     1
102
RTVSPost2010Prop37
 90
       50
102
RTVSPost2010PropOp37
 70
     1
102
RTVSPost2010Prop38
140
0.0
102
RTVSPost2010PropOp38
 70
     1
102
RTVSPost2010Prop39
140
1.0
102
RTVSPost2010PropOp39
 70
     1
102
RTVSPost2010Prop40
 90
        0
102
RTVSPost2010PropOp40
 70
     1
102
RTVSPost2010Prop41ColorIndex
 90
       18
102
RTVSPost2010Prop41ColorRGB
 90
        0
102
RTVSPost2010PropOp41
 70
     1
102
RTVSPost2010Prop42
 90
       50
102
RTVSPost2010PropOp42
 70
     1
102
RTVSPost2010Prop43
 90
        3
102
RTVSPost2010PropOp43
 70
     1
102
RTVSPost2010Prop44ColorIndex
 90
        5
102
RTVSPost2010Prop44ColorRGB
 90
      255
102
RTVSPost2010PropOp44
 70
     1
102
RTVSPost2010Prop45
280
     0
102
RTVSPost2010PropOp45
 70
     1
102
RTVSPost2010Prop46
 90
       50
102
RTVSPost2010PropOp46
 70
     1
102
RTVSPost2010Prop47
 90
       50
102
RTVSPost2010PropOp47
 70
     1
102
RTVSPost2010Prop48
 90
       50
102
RTVSPost2010PropOp48
 70
     1
102
RTVSPost2010Prop49
280
     0
102
RTVSPost2010PropOp49
 70
     1
102
RTVSPost2010Prop50
 90
       50
102
RTVSPost2010PropOp50
 70
     1
102
RTVSPost2010Prop51ColorIndex
 90
      256
102
RTVSPost2010Prop51ColorRGB
 90
-16777216
102
RTVSPost2010PropOp51
 70
     0
102
RTVSPost2010Prop52
140
1.0
102
RTVSPost2010PropOp52
 70
     0
102
RTVSPost2010Prop53
 90
        2
102
RTVSPost2010PropOp53
 70
     1
102
RTVSPost2010Prop54
  1
strokes_ogs.tif
102
RTVSPost2010PropOp54
 70
     1
102
RTVSPost2010Prop55
280
     0
102
RTVSPost2010PropOp55
 70
     1
102
RTVSPost2010Prop56
140
1.0
102
RTVSPost2010PropOp56
 70
     1
102
RTVSPost2010Prop57
140
1.0
102
RTVSPost2010PropOp57
 70
     1
102
RTVSPropertyOp0
 70
     1
102
RTVSPropertyOp1
 70
     1
102
RTVSPropertyOp2
 70
     1
102
RTVSPropertyOp3
 70
     1
102
RTVSPropertyOp4
 70
     1
102
RTVSPropertyOp5
 70
     1
102
RTVSPropertyOp6
 70
     1
102
RTVSPropertyOp7
 70
     1
102
RTVSPropertyOp8
 70
     1
102
RTVSPropertyOp9
 70
     1
102
RTVSPropertyOp10
 70
     1
102
RTVSPropertyOp11
 70
     1
102
RTVSPropertyOp12
 70
     1
102
RTVSPropertyOp13
 70
     1
102
RTVSPropertyOp14
 70
     1
102
RTVSPropertyOp15
 70
     1
102
RTVSPropertyOp16
 70
     1
102
RTVSPropertyOp17
 70
     1
102
RTVSPropertyOp18
 70
     1
102
RTVSPropertyOp19
 70
     1
102
RTVSPropertyOp20
 70
     1
102
RTVSPropertyOp21
 70
     1
102
RTVSPropertyOp22
 70
     1
102
RTVSPropertyOp23
 70
     1
102
RTVSPropertyOp24
 70
     1
102
RTVSPropertyOp25
 70
     1
102
RTVSPropertyOp26
 70
     1
102
RTVSPropertyOp27
 70
     1
102
RTVSPropertyOp28
 70
     1
102
RTVSPropertyOp29
 70
     1
102
RTVSPropertyOp30
 70
     1
102
RTVSPropertyOp31
 70
     1
102
RTVSPropertyOp32
 70
     1
102
RTVSPropertyOp33
 70
     1
102
RTVSPropertyOp34
 70
     1
102
RTVSPropertyOp35
 70
     1
102
RTVSPropertyOp36
 70
     1
102
RTVSPropertyOp37
 70
     1
102
RTVSPropertyOp38
 70
     1
102
RTVSPropertyOp39
 70
     1
102
RTVSPropertyOp40
 70
     1
102
RTVSPropertyOp41
 70
     1
102
RTVSPropertyOp42
 70
     1
102
RTVSPropertyOp43
 70
     1
102
RTVSPropertyOp44
 70
     1
102
RTVSPropertyOp45
 70
     1
102
RTVSPropertyOp46
 70
     1
102
RTVSPropertyOp47
 70
     1
102
RTVSPropertyOp48
 70
     1
102
RTVSPropertyOp49
 70
     1
102
RTVSPropertyOp50
 70
     1
102
RTVSPropertyOp51
 70
     0
102
RTVSPropertyOp52
 70
     0
102
RTVSPropertyOp53
 70
     1
102
RTVSPropertyOp54
 70
     1
102
RTVSPropertyOp55
 70
     1
102
RTVSPropertyOp56
 70
     1
102
RTVSPropertyOp57
 70
     1
102
RTVSPropertyOp58
 70
     1
102
RTVSPropertyOp59
 70
     1
102
RTVSPropertyOp60
 70
     1
102
RTVSPropertyOp61
 70
     1
102
RTVSPropertyOp62
 70
     1
  0
XRECORD
  5
D7B
102
{ACAD_REACTORS
330
D7A
102
}
330
D7A
100
AcDbXrecord
280
     1
102
RTVSPost2010Prop28
280
     0
102
RTVSPost2010PropOp28
 70
     1
102
RTVSPost2010Prop29
280
     1
102
RTVSPost2010PropOp29
 70
     1
102
RTVSPost2010Prop30
280
     1
102
RTVSPost2010PropOp30
 70
     1
102
RTVSPost2010Prop31
280
     0
102
RTVSPost2010PropOp31
 70
     1
102
RTVSPost2010Prop32
280
     0
102
RTVSPost2010PropOp32
 70
     1
102
RTVSPost2010Prop33
280
     0
102
RTVSPost2010PropOp33
 70
     1
102
RTVSPost2010Prop34
280
     0
102
RTVSPost2010PropOp34
 70
     1
102
RTVSPost2010Prop35
280
     0
102
RTVSPost2010PropOp35
 70
     1
102
RTVSPost2010Prop36
280
     0
102
RTVSPost2010PropOp36
 70
     1
102
RTVSPost2010Prop37
 90
       50
102
RTVSPost2010PropOp37
 70
     1
102
RTVSPost2010Prop38
140
0.0
102
RTVSPost2010PropOp38
 70
     1
102
RTVSPost2010Prop39
140
1.0
102
RTVSPost2010PropOp39
 70
     1
102
RTVSPost2010Prop40
 90
        0
102
RTVSPost2010PropOp40
 70
     1
102
RTVSPost2010Prop41ColorIndex
 90
       18
102
RTVSPost2010Prop41ColorRGB
 90
        0
102
RTVSPost2010PropOp41
 70
     1
102
RTVSPost2010Prop42
 90
       50
102
RTVSPost2010PropOp42
 70
     1
102
RTVSPost2010Prop43
 90
        3
102
RTVSPost2010PropOp43
 70
     1
102
RTVSPost2010Prop44ColorIndex
 90
        5
102
RTVSPost2010Prop44ColorRGB
 90
      255
102
RTVSPost2010PropOp44
 70
     1
102
RTVSPost2010Prop45
280
     0
102
RTVSPost2010PropOp45
 70
     1
102
RTVSPost2010Prop46
 90
       50
102
RTVSPost2010PropOp46
 70
     1
102
RTVSPost2010Prop47
 90
       50
102
RTVSPost2010PropOp47
 70
     1
102
RTVSPost2010Prop48
 90
       50
102
RTVSPost2010PropOp48
 70
     1
102
RTVSPost2010Prop49
280
     0
102
RTVSPost2010PropOp49
 70
     1
102
RTVSPost2010Prop50
 90
       50
102
RTVSPost2010PropOp50
 70
     1
102
RTVSPost2010Prop51ColorIndex
 90
      256
102
RTVSPost2010Prop51ColorRGB
 90
-16777216
102
RTVSPost2010PropOp51
 70
     0
102
RTVSPost2010Prop52
140
1.0
102
RTVSPost2010PropOp52
 70
     0
102
RTVSPost2010Prop53
 90
        2
102
RTVSPost2010PropOp53
 70
     1
102
RTVSPost2010Prop54
  1
strokes_ogs.tif
102
RTVSPost2010PropOp54
 70
     1
102
RTVSPost2010Prop55
280
     0
102
RTVSPost2010PropOp55
 70
     1
102
RTVSPost2010Prop56
140
1.0
102
RTVSPost2010PropOp56
 70
     1
102
RTVSPost2010Prop57
140
1.0
102
RTVSPost2010PropOp57
 70
     1
102
RTVSPropertyOp0
 70
     1
102
RTVSPropertyOp1
 70
     1
102
RTVSPropertyOp2
 70
     1
102
RTVSPropertyOp3
 70
     1
102
RTVSPropertyOp4
 70
     1
102
RTVSPropertyOp5
 70
     1
102
RTVSPropertyOp6
 70
     1
102
RTVSPropertyOp7
 70
     1
102
RTVSPropertyOp8
 70
     1
102
RTVSPropertyOp9
 70
     1
102
RTVSPropertyOp10
 70
     1
102
RTVSPropertyOp11
 70
     1
102
RTVSPropertyOp12
 70
     1
102
RTVSPropertyOp13
 70
     1
102
RTVSPropertyOp14
 70
     1
102
RTVSPropertyOp15
 70
     1
102
RTVSPropertyOp16
 70
     1
102
RTVSPropertyOp17
 70
     1
102
RTVSPropertyOp18
 70
     1
102
RTVSPropertyOp19
 70
     1
102
RTVSPropertyOp20
 70
     1
102
RTVSPropertyOp21
 70
     1
102
RTVSPropertyOp22
 70
     1
102
RTVSPropertyOp23
 70
     1
102
RTVSPropertyOp24
 70
     1
102
RTVSPropertyOp25
 70
     1
102
RTVSPropertyOp26
 70
     1
102
RTVSPropertyOp27
 70
     1
102
RTVSPropertyOp28
 70
     1
102
RTVSPropertyOp29
 70
     1
102
RTVSPropertyOp30
 70
     1
102
RTVSPropertyOp31
 70
     1
102
RTVSPropertyOp32
 70
     1
102
RTVSPropertyOp33
 70
     1
102
RTVSPropertyOp34
 70
     1
102
RTVSPropertyOp35
 70
     1
102
RTVSPropertyOp36
 70
     1
102
RTVSPropertyOp37
 70
     1
102
RTVSPropertyOp38
 70
     1
102
RTVSPropertyOp39
 70
     1
102
RTVSPropertyOp40
 70
     1
102
RTVSPropertyOp41
 70
     1
102
RTVSPropertyOp42
 70
     1
102
RTVSPropertyOp43
 70
     1
102
RTVSPropertyOp44
 70
     1
102
RTVSPropertyOp45
 70
     1
102
RTVSPropertyOp46
 70
     1
102
RTVSPropertyOp47
 70
     1
102
RTVSPropertyOp48
 70
     1
102
RTVSPropertyOp49
 70
     1
102
RTVSPropertyOp50
 70
     1
102
RTVSPropertyOp51
 70
     0
102
RTVSPropertyOp52
 70
     0
102
RTVSPropertyOp53
 70
     1
102
RTVSPropertyOp54
 70
     1
102
RTVSPropertyOp55
 70
     1
102
RTVSPropertyOp56
 70
     1
102
RTVSPropertyOp57
 70
     1
102
RTVSPropertyOp58
 70
     1
102
RTVSPropertyOp59
 70
     1
102
RTVSPropertyOp60
 70
     1
102
RTVSPropertyOp61
 70
     1
102
RTVSPropertyOp62
 70
     1
  0
XRECORD
  5
D7D
102
{ACAD_REACTORS
330
D7C
102
}
330
D7C
100
AcDbXrecord
280
     1
102
RTVSPost2010Prop28
280
     0
102
RTVSPost2010PropOp28
 70
     1
102
RTVSPost2010Prop29
280
     1
102
RTVSPost2010PropOp29
 70
     1
102
RTVSPost2010Prop30
280
     1
102
RTVSPost2010PropOp30
 70
     1
102
RTVSPost2010Prop31
280
     0
102
RTVSPost2010PropOp31
 70
     1
102
RTVSPost2010Prop32
280
     0
102
RTVSPost2010PropOp32
 70
     1
102
RTVSPost2010Prop33
280
     0
102
RTVSPost2010PropOp33
 70
     1
102
RTVSPost2010Prop34
280
     0
102
RTVSPost2010PropOp34
 70
     1
102
RTVSPost2010Prop35
280
     0
102
RTVSPost2010PropOp35
 70
     1
102
RTVSPost2010Prop36
280
     0
102
RTVSPost2010PropOp36
 70
     1
102
RTVSPost2010Prop37
 90
       50
102
RTVSPost2010PropOp37
 70
     1
102
RTVSPost2010Prop38
140
0.0
102
RTVSPost2010PropOp38
 70
     1
102
RTVSPost2010Prop39
140
1.0
102
RTVSPost2010PropOp39
 70
     1
102
RTVSPost2010Prop40
 90
        0
102
RTVSPost2010PropOp40
 70
     1
102
RTVSPost2010Prop41ColorIndex
 90
       18
102
RTVSPost2010Prop41ColorRGB
 90
        0
102
RTVSPost2010PropOp41
 70
     1
102
RTVSPost2010Prop42
 90
       50
102
RTVSPost2010PropOp42
 70
     1
102
RTVSPost2010Prop43
 90
        3
102
RTVSPost2010PropOp43
 70
     1
102
RTVSPost2010Prop44ColorIndex
 90
        5
102
RTVSPost2010Prop44ColorRGB
 90
      255
102
RTVSPost2010PropOp44
 70
     1
102
RTVSPost2010Prop45
280
     0
102
RTVSPost2010PropOp45
 70
     1
102
RTVSPost2010Prop46
 90
       50
102
RTVSPost2010PropOp46
 70
     1
102
RTVSPost2010Prop47
 90
       50
102
RTVSPost2010PropOp47
 70
     1
102
RTVSPost2010Prop48
 90
       50
102
RTVSPost2010PropOp48
 70
     1
102
RTVSPost2010Prop49
280
     0
102
RTVSPost2010PropOp49
 70
     1
102
RTVSPost2010Prop50
 90
       50
102
RTVSPost2010PropOp50
 70
     1
102
RTVSPost2010Prop51ColorIndex
 90
      256
102
RTVSPost2010Prop51ColorRGB
 90
-16777216
102
RTVSPost2010PropOp51
 70
     0
102
RTVSPost2010Prop52
140
1.0
102
RTVSPost2010PropOp52
 70
     0
102
RTVSPost2010Prop53
 90
        2
102
RTVSPost2010PropOp53
 70
     1
102
RTVSPost2010Prop54
  1
strokes_ogs.tif
102
RTVSPost2010PropOp54
 70
     1
102
RTVSPost2010Prop55
280
     0
102
RTVSPost2010PropOp55
 70
     1
102
RTVSPost2010Prop56
140
1.0
102
RTVSPost2010PropOp56
 70
     1
102
RTVSPost2010Prop57
140
1.0
102
RTVSPost2010PropOp57
 70
     1
102
RTVSPropertyOp0
 70
     1
102
RTVSPropertyOp1
 70
     1
102
RTVSPropertyOp2
 70
     1
102
RTVSPropertyOp3
 70
     1
102
RTVSPropertyOp4
 70
     1
102
RTVSPropertyOp5
 70
     1
102
RTVSPropertyOp6
 70
     1
102
RTVSPropertyOp7
 70
     1
102
RTVSPropertyOp8
 70
     1
102
RTVSPropertyOp9
 70
     1
102
RTVSPropertyOp10
 70
     1
102
RTVSPropertyOp11
 70
     1
102
RTVSPropertyOp12
 70
     1
102
RTVSPropertyOp13
 70
     1
102
RTVSPropertyOp14
 70
     1
102
RTVSPropertyOp15
 70
     1
102
RTVSPropertyOp16
 70
     1
102
RTVSPropertyOp17
 70
     1
102
RTVSPropertyOp18
 70
     1
102
RTVSPropertyOp19
 70
     1
102
RTVSPropertyOp20
 70
     1
102
RTVSPropertyOp21
 70
     1
102
RTVSPropertyOp22
 70
     1
102
RTVSPropertyOp23
 70
     1
102
RTVSPropertyOp24
 70
     1
102
RTVSPropertyOp25
 70
     1
102
RTVSPropertyOp26
 70
     1
102
RTVSPropertyOp27
 70
     1
102
RTVSPropertyOp28
 70
     1
102
RTVSPropertyOp29
 70
     1
102
RTVSPropertyOp30
 70
     1
102
RTVSPropertyOp31
 70
     1
102
RTVSPropertyOp32
 70
     1
102
RTVSPropertyOp33
 70
     1
102
RTVSPropertyOp34
 70
     1
102
RTVSPropertyOp35
 70
     1
102
RTVSPropertyOp36
 70
     1
102
RTVSPropertyOp37
 70
     1
102
RTVSPropertyOp38
 70
     1
102
RTVSPropertyOp39
 70
     1
102
RTVSPropertyOp40
 70
     1
102
RTVSPropertyOp41
 70
     1
102
RTVSPropertyOp42
 70
     1
102
RTVSPropertyOp43
 70
     1
102
RTVSPropertyOp44
 70
     1
102
RTVSPropertyOp45
 70
     1
102
RTVSPropertyOp46
 70
     1
102
RTVSPropertyOp47
 70
     1
102
RTVSPropertyOp48
 70
     1
102
RTVSPropertyOp49
 70
     1
102
RTVSPropertyOp50
 70
     1
102
RTVSPropertyOp51
 70
     0
102
RTVSPropertyOp52
 70
     0
102
RTVSPropertyOp53
 70
     1
102
RTVSPropertyOp54
 70
     1
102
RTVSPropertyOp55
 70
     1
102
RTVSPropertyOp56
 70
     1
102
RTVSPropertyOp57
 70
     1
102
RTVSPropertyOp58
 70
     1
102
RTVSPropertyOp59
 70
     1
102
RTVSPropertyOp60
 70
     1
102
RTVSPropertyOp61
 70
     1
102
RTVSPropertyOp62
 70
     1
  0
XRECORD
  5
D6D
102
{ACAD_REACTORS
330
D6C
102
}
330
D6C
100
AcDbXrecord
280
     1
102
RTVSPost2010Prop28
280
     0
102
RTVSPost2010PropOp28
 70
     1
102
RTVSPost2010Prop29
280
     1
102
RTVSPost2010PropOp29
 70
     1
102
RTVSPost2010Prop30
280
     1
102
RTVSPost2010PropOp30
 70
     1
102
RTVSPost2010Prop31
280
     0
102
RTVSPost2010PropOp31
 70
     1
102
RTVSPost2010Prop32
280
     0
102
RTVSPost2010PropOp32
 70
     1
102
RTVSPost2010Prop33
280
     0
102
RTVSPost2010PropOp33
 70
     1
102
RTVSPost2010Prop34
280
     0
102
RTVSPost2010PropOp34
 70
     1
102
RTVSPost2010Prop35
280
     0
102
RTVSPost2010PropOp35
 70
     1
102
RTVSPost2010Prop36
280
     0
102
RTVSPost2010PropOp36
 70
     1
102
RTVSPost2010Prop37
 90
       50
102
RTVSPost2010PropOp37
 70
     1
102
RTVSPost2010Prop38
140
0.0
102
RTVSPost2010PropOp38
 70
     1
102
RTVSPost2010Prop39
140
1.0
102
RTVSPost2010PropOp39
 70
     1
102
RTVSPost2010Prop40
 90
        0
102
RTVSPost2010PropOp40
 70
     1
102
RTVSPost2010Prop41ColorIndex
 90
       18
102
RTVSPost2010Prop41ColorRGB
 90
        0
102
RTVSPost2010PropOp41
 70
     1
102
RTVSPost2010Prop42
 90
       50
102
RTVSPost2010PropOp42
 70
     1
102
RTVSPost2010Prop43
 90
        3
102
RTVSPost2010PropOp43
 70
     1
102
RTVSPost2010Prop44ColorIndex
 90
        5
102
RTVSPost2010Prop44ColorRGB
 90
      255
102
RTVSPost2010PropOp44
 70
     1
102
RTVSPost2010Prop45
280
     0
102
RTVSPost2010PropOp45
 70
     1
102
RTVSPost2010Prop46
 90
       50
102
RTVSPost2010PropOp46
 70
     1
102
RTVSPost2010Prop47
 90
       50
102
RTVSPost2010PropOp47
 70
     1
102
RTVSPost2010Prop48
 90
       50
102
RTVSPost2010PropOp48
 70
     1
102
RTVSPost2010Prop49
280
     0
102
RTVSPost2010PropOp49
 70
     1
102
RTVSPost2010Prop50
 90
       50
102
RTVSPost2010PropOp50
 70
     1
102
RTVSPost2010Prop51ColorIndex
 90
      256
102
RTVSPost2010Prop51ColorRGB
 90
-16777216
102
RTVSPost2010PropOp51
 70
     0
102
RTVSPost2010Prop52
140
1.0
102
RTVSPost2010PropOp52
 70
     0
102
RTVSPost2010Prop53
 90
        2
102
RTVSPost2010PropOp53
 70
     1
102
RTVSPost2010Prop54
  1
strokes_ogs.tif
102
RTVSPost2010PropOp54
 70
     1
102
RTVSPost2010Prop55
280
     0
102
RTVSPost2010PropOp55
 70
     1
102
RTVSPost2010Prop56
140
1.0
102
RTVSPost2010PropOp56
 70
     1
102
RTVSPost2010Prop57
140
1.0
102
RTVSPost2010PropOp57
 70
     1
102
RTVSPropertyOp0
 70
     1
102
RTVSPropertyOp1
 70
     1
102
RTVSPropertyOp2
 70
     1
102
RTVSPropertyOp3
 70
     1
102
RTVSPropertyOp4
 70
     1
102
RTVSPropertyOp5
 70
     1
102
RTVSPropertyOp6
 70
     1
102
RTVSPropertyOp7
 70
     1
102
RTVSPropertyOp8
 70
     1
102
RTVSPropertyOp9
 70
     1
102
RTVSPropertyOp10
 70
     1
102
RTVSPropertyOp11
 70
     1
102
RTVSPropertyOp12
 70
     1
102
RTVSPropertyOp13
 70
     1
102
RTVSPropertyOp14
 70
     1
102
RTVSPropertyOp15
 70
     1
102
RTVSPropertyOp16
 70
     1
102
RTVSPropertyOp17
 70
     1
102
RTVSPropertyOp18
 70
     1
102
RTVSPropertyOp19
 70
     1
102
RTVSPropertyOp20
 70
     1
102
RTVSPropertyOp21
 70
     1
102
RTVSPropertyOp22
 70
     1
102
RTVSPropertyOp23
 70
     1
102
RTVSPropertyOp24
 70
     1
102
RTVSPropertyOp25
 70
     1
102
RTVSPropertyOp26
 70
     1
102
RTVSPropertyOp27
 70
     1
102
RTVSPropertyOp28
 70
     1
102
RTVSPropertyOp29
 70
     1
102
RTVSPropertyOp30
 70
     1
102
RTVSPropertyOp31
 70
     1
102
RTVSPropertyOp32
 70
     1
102
RTVSPropertyOp33
 70
     1
102
RTVSPropertyOp34
 70
     1
102
RTVSPropertyOp35
 70
     1
102
RTVSPropertyOp36
 70
     1
102
RTVSPropertyOp37
 70
     1
102
RTVSPropertyOp38
 70
     1
102
RTVSPropertyOp39
 70
     1
102
RTVSPropertyOp40
 70
     1
102
RTVSPropertyOp41
 70
     1
102
RTVSPropertyOp42
 70
     1
102
RTVSPropertyOp43
 70
     1
102
RTVSPropertyOp44
 70
     1
102
RTVSPropertyOp45
 70
     1
102
RTVSPropertyOp46
 70
     1
102
RTVSPropertyOp47
 70
     1
102
RTVSPropertyOp48
 70
     1
102
RTVSPropertyOp49
 70
     1
102
RTVSPropertyOp50
 70
     1
102
RTVSPropertyOp51
 70
     0
102
RTVSPropertyOp52
 70
     0
102
RTVSPropertyOp53
 70
     1
102
RTVSPropertyOp54
 70
     1
102
RTVSPropertyOp55
 70
     1
102
RTVSPropertyOp56
 70
     1
102
RTVSPropertyOp57
 70
     1
102
RTVSPropertyOp58
 70
     1
102
RTVSPropertyOp59
 70
     1
102
RTVSPropertyOp60
 70
     1
102
RTVSPropertyOp61
 70
     1
102
RTVSPropertyOp62
 70
     1
  0
XRECORD
  5
D77
102
{ACAD_REACTORS
330
D76
102
}
330
D76
100
AcDbXrecord
280
     1
102
RTVSPost2010Prop28
280
     0
102
RTVSPost2010PropOp28
 70
     1
102
RTVSPost2010Prop29
280
     1
102
RTVSPost2010PropOp29
 70
     1
102
RTVSPost2010Prop30
280
     1
102
RTVSPost2010PropOp30
 70
     1
102
RTVSPost2010Prop31
280
     0
102
RTVSPost2010PropOp31
 70
     1
102
RTVSPost2010Prop32
280
     0
102
RTVSPost2010PropOp32
 70
     1
102
RTVSPost2010Prop33
280
     0
102
RTVSPost2010PropOp33
 70
     1
102
RTVSPost2010Prop34
280
     0
102
RTVSPost2010PropOp34
 70
     1
102
RTVSPost2010Prop35
280
     0
102
RTVSPost2010PropOp35
 70
     1
102
RTVSPost2010Prop36
280
     0
102
RTVSPost2010PropOp36
 70
     1
102
RTVSPost2010Prop37
 90
       50
102
RTVSPost2010PropOp37
 70
     1
102
RTVSPost2010Prop38
140
0.0
102
RTVSPost2010PropOp38
 70
     1
102
RTVSPost2010Prop39
140
1.0
102
RTVSPost2010PropOp39
 70
     1
102
RTVSPost2010Prop40
 90
        0
102
RTVSPost2010PropOp40
 70
     1
102
RTVSPost2010Prop41ColorIndex
 90
       18
102
RTVSPost2010Prop41ColorRGB
 90
        0
102
RTVSPost2010PropOp41
 70
     1
102
RTVSPost2010Prop42
 90
       50
102
RTVSPost2010PropOp42
 70
     1
102
RTVSPost2010Prop43
 90
        3
102
RTVSPost2010PropOp43
 70
     1
102
RTVSPost2010Prop44ColorIndex
 90
        5
102
RTVSPost2010Prop44ColorRGB
 90
      255
102
RTVSPost2010PropOp44
 70
     1
102
RTVSPost2010Prop45
280
     0
102
RTVSPost2010PropOp45
 70
     1
102
RTVSPost2010Prop46
 90
       50
102
RTVSPost2010PropOp46
 70
     1
102
RTVSPost2010Prop47
 90
       50
102
RTVSPost2010PropOp47
 70
     1
102
RTVSPost2010Prop48
 90
       50
102
RTVSPost2010PropOp48
 70
     1
102
RTVSPost2010Prop49
280
     0
102
RTVSPost2010PropOp49
 70
     1
102
RTVSPost2010Prop50
 90
       50
102
RTVSPost2010PropOp50
 70
     1
102
RTVSPost2010Prop51ColorIndex
 90
      256
102
RTVSPost2010Prop51ColorRGB
 90
-16777216
102
RTVSPost2010PropOp51
 70
     0
102
RTVSPost2010Prop52
140
1.0
102
RTVSPost2010PropOp52
 70
     0
102
RTVSPost2010Prop53
 90
        2
102
RTVSPost2010PropOp53
 70
     1
102
RTVSPost2010Prop54
  1
strokes_ogs.tif
102
RTVSPost2010PropOp54
 70
     1
102
RTVSPost2010Prop55
280
     0
102
RTVSPost2010PropOp55
 70
     1
102
RTVSPost2010Prop56
140
1.0
102
RTVSPost2010PropOp56
 70
     1
102
RTVSPost2010Prop57
140
1.0
102
RTVSPost2010PropOp57
 70
     1
102
RTVSPropertyOp0
 70
     1
102
RTVSPropertyOp1
 70
     1
102
RTVSPropertyOp2
 70
     1
102
RTVSPropertyOp3
 70
     1
102
RTVSPropertyOp4
 70
     1
102
RTVSPropertyOp5
 70
     1
102
RTVSPropertyOp6
 70
     1
102
RTVSPropertyOp7
 70
     1
102
RTVSPropertyOp8
 70
     1
102
RTVSPropertyOp9
 70
     1
102
RTVSPropertyOp10
 70
     1
102
RTVSPropertyOp11
 70
     1
102
RTVSPropertyOp12
 70
     1
102
RTVSPropertyOp13
 70
     1
102
RTVSPropertyOp14
 70
     1
102
RTVSPropertyOp15
 70
     1
102
RTVSPropertyOp16
 70
     1
102
RTVSPropertyOp17
 70
     1
102
RTVSPropertyOp18
 70
     1
102
RTVSPropertyOp19
 70
     1
102
RTVSPropertyOp20
 70
     1
102
RTVSPropertyOp21
 70
     1
102
RTVSPropertyOp22
 70
     1
102
RTVSPropertyOp23
 70
     1
102
RTVSPropertyOp24
 70
     1
102
RTVSPropertyOp25
 70
     1
102
RTVSPropertyOp26
 70
     1
102
RTVSPropertyOp27
 70
     1
102
RTVSPropertyOp28
 70
     1
102
RTVSPropertyOp29
 70
     1
102
RTVSPropertyOp30
 70
     1
102
RTVSPropertyOp31
 70
     1
102
RTVSPropertyOp32
 70
     1
102
RTVSPropertyOp33
 70
     1
102
RTVSPropertyOp34
 70
     1
102
RTVSPropertyOp35
 70
     1
102
RTVSPropertyOp36
 70
     1
102
RTVSPropertyOp37
 70
     1
102
RTVSPropertyOp38
 70
     1
102
RTVSPropertyOp39
 70
     1
102
RTVSPropertyOp40
 70
     1
102
RTVSPropertyOp41
 70
     1
102
RTVSPropertyOp42
 70
     1
102
RTVSPropertyOp43
 70
     1
102
RTVSPropertyOp44
 70
     1
102
RTVSPropertyOp45
 70
     1
102
RTVSPropertyOp46
 70
     1
102
RTVSPropertyOp47
 70
     1
102
RTVSPropertyOp48
 70
     1
102
RTVSPropertyOp49
 70
     1
102
RTVSPropertyOp50
 70
     1
102
RTVSPropertyOp51
 70
     0
102
RTVSPropertyOp52
 70
     0
102
RTVSPropertyOp53
 70
     1
102
RTVSPropertyOp54
 70
     1
102
RTVSPropertyOp55
 70
     1
102
RTVSPropertyOp56
 70
     1
102
RTVSPropertyOp57
 70
     1
102
RTVSPropertyOp58
 70
     1
102
RTVSPropertyOp59
 70
     1
102
RTVSPropertyOp60
 70
     1
102
RTVSPropertyOp61
 70
     1
102
RTVSPropertyOp62
 70
     1
  0
XRECORD
  5
D7F
102
{ACAD_REACTORS
330
D7E
102
}
330
D7E
100
AcDbXrecord
280
     1
102
RTVSPost2010Prop28
280
     0
102
RTVSPost2010PropOp28
 70
     1
102
RTVSPost2010Prop29
280
     1
102
RTVSPost2010PropOp29
 70
     1
102
RTVSPost2010Prop30
280
     1
102
RTVSPost2010PropOp30
 70
     1
102
RTVSPost2010Prop31
280
     0
102
RTVSPost2010PropOp31
 70
     1
102
RTVSPost2010Prop32
280
     0
102
RTVSPost2010PropOp32
 70
     1
102
RTVSPost2010Prop33
280
     0
102
RTVSPost2010PropOp33
 70
     1
102
RTVSPost2010Prop34
280
     0
102
RTVSPost2010PropOp34
 70
     1
102
RTVSPost2010Prop35
280
     0
102
RTVSPost2010PropOp35
 70
     1
102
RTVSPost2010Prop36
280
     0
102
RTVSPost2010PropOp36
 70
     1
102
RTVSPost2010Prop37
 90
       50
102
RTVSPost2010PropOp37
 70
     1
102
RTVSPost2010Prop38
140
0.0
102
RTVSPost2010PropOp38
 70
     1
102
RTVSPost2010Prop39
140
1.0
102
RTVSPost2010PropOp39
 70
     1
102
RTVSPost2010Prop40
 90
        0
102
RTVSPost2010PropOp40
 70
     1
102
RTVSPost2010Prop41ColorIndex
 90
       18
102
RTVSPost2010Prop41ColorRGB
 90
        0
102
RTVSPost2010PropOp41
 70
     1
102
RTVSPost2010Prop42
 90
       50
102
RTVSPost2010PropOp42
 70
     1
102
RTVSPost2010Prop43
 90
        3
102
RTVSPost2010PropOp43
 70
     1
102
RTVSPost2010Prop44ColorIndex
 90
        5
102
RTVSPost2010Prop44ColorRGB
 90
      255
102
RTVSPost2010PropOp44
 70
     1
102
RTVSPost2010Prop45
280
     0
102
RTVSPost2010PropOp45
 70
     1
102
RTVSPost2010Prop46
 90
       50
102
RTVSPost2010PropOp46
 70
     1
102
RTVSPost2010Prop47
 90
       50
102
RTVSPost2010PropOp47
 70
     1
102
RTVSPost2010Prop48
 90
       50
102
RTVSPost2010PropOp48
 70
     1
102
RTVSPost2010Prop49
280
     0
102
RTVSPost2010PropOp49
 70
     1
102
RTVSPost2010Prop50
 90
       50
102
RTVSPost2010PropOp50
 70
     1
102
RTVSPost2010Prop51ColorIndex
 90
      256
102
RTVSPost2010Prop51ColorRGB
 90
-16777216
102
RTVSPost2010PropOp51
 70
     0
102
RTVSPost2010Prop52
140
1.0
102
RTVSPost2010PropOp52
 70
     0
102
RTVSPost2010Prop53
 90
        2
102
RTVSPost2010PropOp53
 70
     1
102
RTVSPost2010Prop54
  1
strokes_ogs.tif
102
RTVSPost2010PropOp54
 70
     1
102
RTVSPost2010Prop55
280
     0
102
RTVSPost2010PropOp55
 70
     1
102
RTVSPost2010Prop56
140
1.0
102
RTVSPost2010PropOp56
 70
     1
102
RTVSPost2010Prop57
140
1.0
102
RTVSPost2010PropOp57
 70
     1
102
RTVSPropertyOp0
 70
     1
102
RTVSPropertyOp1
 70
     1
102
RTVSPropertyOp2
 70
     1
102
RTVSPropertyOp3
 70
     1
102
RTVSPropertyOp4
 70
     1
102
RTVSPropertyOp5
 70
     1
102
RTVSPropertyOp6
 70
     1
102
RTVSPropertyOp7
 70
     1
102
RTVSPropertyOp8
 70
     1
102
RTVSPropertyOp9
 70
     1
102
RTVSPropertyOp10
 70
     1
102
RTVSPropertyOp11
 70
     1
102
RTVSPropertyOp12
 70
     1
102
RTVSPropertyOp13
 70
     1
102
RTVSPropertyOp14
 70
     1
102
RTVSPropertyOp15
 70
     1
102
RTVSPropertyOp16
 70
     1
102
RTVSPropertyOp17
 70
     1
102
RTVSPropertyOp18
 70
     1
102
RTVSPropertyOp19
 70
     1
102
RTVSPropertyOp20
 70
     1
102
RTVSPropertyOp21
 70
     1
102
RTVSPropertyOp22
 70
     1
102
RTVSPropertyOp23
 70
     1
102
RTVSPropertyOp24
 70
     1
102
RTVSPropertyOp25
 70
     1
102
RTVSPropertyOp26
 70
     1
102
RTVSPropertyOp27
 70
     1
102
RTVSPropertyOp28
 70
     1
102
RTVSPropertyOp29
 70
     1
102
RTVSPropertyOp30
 70
     1
102
RTVSPropertyOp31
 70
     1
102
RTVSPropertyOp32
 70
     1
102
RTVSPropertyOp33
 70
     1
102
RTVSPropertyOp34
 70
     1
102
RTVSPropertyOp35
 70
     1
102
RTVSPropertyOp36
 70
     1
102
RTVSPropertyOp37
 70
     1
102
RTVSPropertyOp38
 70
     1
102
RTVSPropertyOp39
 70
     1
102
RTVSPropertyOp40
 70
     1
102
RTVSPropertyOp41
 70
     1
102
RTVSPropertyOp42
 70
     1
102
RTVSPropertyOp43
 70
     1
102
RTVSPropertyOp44
 70
     1
102
RTVSPropertyOp45
 70
     1
102
RTVSPropertyOp46
 70
     1
102
RTVSPropertyOp47
 70
     1
102
RTVSPropertyOp48
 70
     1
102
RTVSPropertyOp49
 70
     1
102
RTVSPropertyOp50
 70
     1
102
RTVSPropertyOp51
 70
     0
102
RTVSPropertyOp52
 70
     0
102
RTVSPropertyOp53
 70
     1
102
RTVSPropertyOp54
 70
     1
102
RTVSPropertyOp55
 70
     1
102
RTVSPropertyOp56
 70
     1
102
RTVSPropertyOp57
 70
     1
102
RTVSPropertyOp58
 70
     1
102
RTVSPropertyOp59
 70
     1
102
RTVSPropertyOp60
 70
     1
102
RTVSPropertyOp61
 70
     1
102
RTVSPropertyOp62
 70
     1
  0
ENDSEC
  0
EOF
