  0
SECTION
  2
HEADER
  9
$ACADVER
  1
AC1015
  9
$ACADMAINTVER
 70
    20
  9
$DWGCODEPAGE
  3
ANSI_1252
  9
$INSBASE
 10
0.0
 20
0.0
 30
0.0
  9
$EXTMIN
 10
-43.24304144686999
 20
-45.69440427446714
 30
0.0
  9
$EXTMAX
 10
51.45512812530569
 20
29.77047558728467
 30
0.0
  9
$LIMMIN
 10
-170.0
 20
-170.0
  9
$LIMMAX
 10
519.0
 20
260.0
  9
$ORTHOMODE
 70
     0
  9
$REGENMODE
 70
     1
  9
$FILLMODE
 70
     1
  9
$QTEXTMODE
 70
     0
  9
$MIRRTEXT
 70
     0
  9
$LTSCALE
 40
1.0
  9
$ATTMODE
 70
     1
  9
$TEXTSIZE
 40
5.0
  9
$TRACEWID
 40
1.0
  9
$TEXTSTYLE
  7
STANDARD
  9
$CLAYER
  8
0
  9
$CELTYPE
  6
BYLAYER
  9
$CECOLOR
 62
   256
  9
$CELTSCALE
 40
1.0
  9
$DISPSILH
 70
     0
  9
$DIMSCALE
 40
1.0
  9
$DIMASZ
 40
2.5
  9
$DIMEXO
 40
0.0
  9
$DIMDLI
 40
3.75
  9
$DIMRND
 40
0.0
  9
$DIMDLE
 40
0.0
  9
$DIMEXE
 40
1.25
  9
$DIMTP
 40
0.0
  9
$DIMTM
 40
0.0
  9
$DIMTXT
 40
3.5
  9
$DIMCEN
 40
0.0
  9
$DIMTSZ
 40
0.0
  9
$DIMTOL
 70
     0
  9
$DIMLIM
 70
     0
  9
$DIMTIH
 70
     0
  9
$DIMTOH
 70
     0
  9
$DIMSE1
 70
     0
  9
$DIMSE2
 70
     0
  9
$DIMTAD
 70
     1
  9
$DIMZIN
 70
     1
  9
$DIMBLK
  1

  9
$DIMASO
 70
     1
  9
$DIMSHO
 70
     1
  9
$DIMPOST
  1

  9
$DIMAPOST
  1

  9
$DIMALT
 70
     0
  9
$DIMALTD
 70
     3
  9
$DIMALTF
 40
0.039370078
  9
$DIMLFAC
 40
1.0
  9
$DIMTOFL
 70
     0
  9
$DIMTVP
 40
0.0
  9
$DIMTIX
 70
     0
  9
$DIMSOXD
 70
     0
  9
$DIMSAH
 70
     0
  9
$DIMBLK1
  1

  9
$DIMBLK2
  1

  9
$DIMSTYLE
  2
STANDARD
  9
$DIMCLRD
 70
     0
  9
$DIMCLRE
 70
     0
  9
$DIMCLRT
 70
     0
  9
$DIMTFAC
 40
1.0
  9
$DIMGAP
 40
0.625
  9
$DIMJUST
 70
     0
  9
$DIMSD1
 70
     0
  9
$DIMSD2
 70
     0
  9
$DIMTOLJ
 70
     0
  9
$DIMTZIN
 70
     8
  9
$DIMALTZ
 70
     0
  9
$DIMALTTZ
 70
     0
  9
$DIMUPT
 70
     0
  9
$DIMDEC
 70
     2
  9
$DIMTDEC
 70
     2
  9
$DIMALTU
 70
     2
  9
$DIMALTTD
 70
     3
  9
$DIMTXSTY
  7
STANDARD
  9
$DIMAUNIT
 70
     0
  9
$DIMADEC
 70
     2
  9
$DIMALTRND
 40
0.0
  9
$DIMAZIN
 70
     0
  9
$DIMDSEP
 70
    46
  9
$DIMATFIT
 70
     3
  9
$DIMFRAC
 70
     0
  9
$DIMLDRBLK
  1

  9
$DIMLUNIT
 70
     2
  9
$DIMLWD
 70
    -2
  9
$DIMLWE
 70
    -2
  9
$DIMTMOVE
 70
     0
  9
$LUNITS
 70
     2
  9
$LUPREC
 70
     4
  9
$SKETCHINC
 40
1.0
  9
$FILLETRAD
 40
0.0
  9
$AUNITS
 70
     0
  9
$AUPREC
 70
     0
  9
$MENU
  1
c:\tdm21\cad\caduti13\tdm13
  9
$ELEVATION
 40
0.0
  9
$PELEVATION
 40
0.0
  9
$THICKNESS
 40
0.0
  9
$LIMCHECK
 70
     0
  9
$CHAMFERA
 40
0.0
  9
$CHAMFERB
 40
0.0
  9
$CHAMFERC
 40
0.0
  9
$CHAMFERD
 40
0.0
  9
$SKPOLY
 70
     0
  9
$TDCREATE
 40
2456168.455397917
  9
$TDUCREATE
 40
2456168.413731250
  9
$TDUPDATE
 40
2457338.536946447
  9
$TDUUPDATE
 40
2457338.495279780
  9
$TDINDWG
 40
0.0390133796
  9
$TDUSRTIMER
 40
0.0390130208
  9
$USRTIMER
 70
     1
  9
$ANGBASE
 50
0.0
  9
$ANGDIR
 70
     0
  9
$PDMODE
 70
     3
  9
$PDSIZE
 40
0.0
  9
$PLINEWID
 40
0.0
  9
$SPLFRAME
 70
     0
  9
$SPLINETYPE
 70
     6
  9
$SPLINESEGS
 70
     8
  9
$HANDSEED
  5
1040
  9
$SURFTAB1
 70
     6
  9
$SURFTAB2
 70
     6
  9
$SURFTYPE
 70
     6
  9
$SURFU
 70
     6
  9
$SURFV
 70
     6
  9
$UCSBASE
  2

  9
$UCSNAME
  2

  9
$UCSORG
 10
0.0
 20
0.0
 30
0.0
  9
$UCSXDIR
 10
1.0
 20
0.0
 30
0.0
  9
$UCSYDIR
 10
0.0
 20
1.0
 30
0.0
  9
$UCSORTHOREF
  2

  9
$UCSORTHOVIEW
 70
     0
  9
$UCSORGTOP
 10
0.0
 20
0.0
 30
0.0
  9
$UCSORGBOTTOM
 10
0.0
 20
0.0
 30
0.0
  9
$UCSORGLEFT
 10
0.0
 20
0.0
 30
0.0
  9
$UCSORGRIGHT
 10
0.0
 20
0.0
 30
0.0
  9
$UCSORGFRONT
 10
0.0
 20
0.0
 30
0.0
  9
$UCSORGBACK
 10
0.0
 20
0.0
 30
0.0
  9
$PUCSBASE
  2

  9
$PUCSNAME
  2

  9
$PUCSORG
 10
0.0
 20
0.0
 30
0.0
  9
$PUCSXDIR
 10
1.0
 20
0.0
 30
0.0
  9
$PUCSYDIR
 10
0.0
 20
1.0
 30
0.0
  9
$PUCSORTHOREF
  2

  9
$PUCSORTHOVIEW
 70
     0
  9
$PUCSORGTOP
 10
0.0
 20
0.0
 30
0.0
  9
$PUCSORGBOTTOM
 10
0.0
 20
0.0
 30
0.0
  9
$PUCSORGLEFT
 10
0.0
 20
0.0
 30
0.0
  9
$PUCSORGRIGHT
 10
0.0
 20
0.0
 30
0.0
  9
$PUCSORGFRONT
 10
0.0
 20
0.0
 30
0.0
  9
$PUCSORGBACK
 10
0.0
 20
0.0
 30
0.0
  9
$USERI1
 70
     0
  9
$USERI2
 70
     0
  9
$USERI3
 70
     0
  9
$USERI4
 70
     0
  9
$USERI5
 70
     0
  9
$USERR1
 40
0.0
  9
$USERR2
 40
0.0
  9
$USERR3
 40
0.0
  9
$USERR4
 40
0.0
  9
$USERR5
 40
0.0
  9
$WORLDVIEW
 70
     1
  9
$SHADEDGE
 70
     3
  9
$SHADEDIF
 70
    70
  9
$TILEMODE
 70
     1
  9
$MAXACTVP
 70
    64
  9
$PINSBASE
 10
0.0
 20
0.0
 30
0.0
  9
$PLIMCHECK
 70
     0
  9
$PEXTMIN
 10
0.0
 20
0.0
 30
0.0
  9
$PEXTMAX
 10
0.0
 20
0.0
 30
0.0
  9
$PLIMMIN
 10
0.0
 20
0.0
  9
$PLIMMAX
 10
12.0
 20
9.0
  9
$UNITMODE
 70
     0
  9
$VISRETAIN
 70
     0
  9
$PLINEGEN
 70
     0
  9
$PSLTSCALE
 70
     1
  9
$TREEDEPTH
 70
  3020
  9
$CMLSTYLE
  2
STANDARD
  9
$CMLJUST
 70
     0
  9
$CMLSCALE
 40
20.0
  9
$PROXYGRAPHICS
 70
     1
  9
$MEASUREMENT
 70
     1
  9
$CELWEIGHT
370
    -1
  9
$ENDCAPS
280
     0
  9
$JOINSTYLE
280
     0
  9
$LWDISPLAY
290
     0
  9
$INSUNITS
 70
     4
  9
$HYPERLINKBASE
  1

  9
$STYLESHEET
  1
MONOCHROME.CTB
  9
$XEDIT
290
     1
  9
$CEPSNTYPE
380
     0
  9
$PSTYLEMODE
290
     1
  9
$FINGERPRINTGUID
  2
{E90E4900-EF1E-4E75-A639-4511C60D5920}
  9
$VERSIONGUID
  2
{3C7E4474-9052-4E5F-A1DF-F8D92B42BC8D}
  9
$EXTNAMES
290
     1
  9
$PSVPSCALE
 40
0.0
  9
$OLESTARTUP
290
     0
  0
ENDSEC
  0
SECTION
  2
CLASSES
  0
CLASS
  1
ACDBDICTIONARYWDFLT
  2
AcDbDictionaryWithDefault
  3
ObjectDBX Classes
 90
        0
280
     0
281
     0
  0
CLASS
  1
DICTIONARYVAR
  2
AcDbDictionaryVar
  3
ObjectDBX Classes
 90
        0
280
     0
281
     0
  0
CLASS
  1
TABLESTYLE
  2
AcDbTableStyle
  3
ObjectDBX Classes
 90
     4095
280
     0
281
     0
  0
CLASS
  1
MATERIAL
  2
AcDbMaterial
  3
ObjectDBX Classes
 90
     1153
280
     0
281
     0
  0
CLASS
  1
VISUALSTYLE
  2
AcDbVisualStyle
  3
ObjectDBX Classes
 90
     4095
280
     0
281
     0
  0
CLASS
  1
SCALE
  2
AcDbScale
  3
ObjectDBX Classes
 90
     1153
280
     0
281
     0
  0
CLASS
  1
MLEADERSTYLE
  2
AcDbMLeaderStyle
  3
ACDB_MLEADERSTYLE_CLASS
 90
     4095
280
     0
281
     0
  0
CLASS
  1
CELLSTYLEMAP
  2
AcDbCellStyleMap
  3
ObjectDBX Classes
 90
     1152
280
     0
281
     0
  0
CLASS
  1
DIMASSOC
  2
AcDbDimAssoc
  3
"AcDbDimAssoc|Product Desc:     AcDim ARX App For Dimension|Company:          Autodesk, Inc.|WEB Address:      www.autodesk.com"
 90
        0
280
     0
281
     0
  0
CLASS
  1
SORTENTSTABLE
  2
AcDbSortentsTable
  3
ObjectDBX Classes
 90
        0
280
     0
281
     0
  0
CLASS
  1
ACME_DOCUMENT
  2
AcMeDbDoc
  3
AcMeServices
 90
    33792
280
     0
281
     0
  0
CLASS
  1
AMGSETTINGSOBJ
  2
AmgSettingsObj
  3
"AcadM|Product Description: AutoCAD Mechanical|Company: Autodesk, Inc."
 90
    33792
280
     0
281
     0
  0
CLASS
  1
ACMESCOPE
  2
AcMeScope
  3
AcMeServices
 90
    33792
280
     0
281
     0
  0
CLASS
  1
ACMECOMMANDHISTORY
  2
AcMeCommandHistory
  3
AcMeServices
 90
    33792
280
     0
281
     0
  0
CLASS
  1
ACIMSYSVARMAN
  2
AcImSysVarManager
  3
AcMeServices
 90
    33792
280
     0
281
     0
  0
CLASS
  1
ACIMINTSYSVAR
  2
AcImIntSysVar
  3
AcMeServices
 90
    33792
280
     0
281
     0
  0
CLASS
  1
ACMESTATEMGR
  2
AcMeStateMgr
  3
AcMeServices
 90
    33792
280
     0
281
     0
  0
CLASS
  1
ACDBENTITYCACHE
  2
AcMeEntityCache
  3
AcMeServices
 90
    33792
280
     0
281
     0
  0
CLASS
  1
ACGREFMASTER
  2
AcGrefMaster
  3
AcAttribServices
 90
    33792
280
     0
281
     0
  0
CLASS
  1
ACME_DATABASE
  2
AcMeDbDatabase
  3
AcMeServices
 90
    33792
280
     0
281
     0
  0
CLASS
  1
ACRFINSADJUSTERMGR
  2
AcRfInsAdjusterMgr
  3
AcMeServices
 90
    33792
280
     0
281
     0
  0
CLASS
  1
ACGREFACADMASTER
  2
AcGrefacadMaster
  3
AcGrefServices
 90
    33792
280
     0
281
     0
  0
CLASS
  1
AMDTMENUSTATEMGR
  2
AmdtMenuStateMgr
  3
McadcomServices
 90
    33792
280
     0
281
     0
  0
CLASS
  1
AMDTMCOMMENUSTATE
  2
AmdtMcomMenuState
  3
McadcomServices
 90
    33792
280
     0
281
     0
  0
CLASS
  1
AMIMASTER
  2
AmiMaster
  3
AmiServices
 90
    33792
280
     0
281
     0
  0
CLASS
  1
MAPIAMMOUDLE
  2
MApiAmModule
  3
MApiAmServices
 90
    33792
280
     0
281
     0
  0
CLASS
  1
ACIMSTRSYSVAR
  2
AcImStrSysVar
  3
AcMeServices
 90
    33792
280
     0
281
     0
  0
CLASS
  1
AMDTAMMENUSTATE
  2
AmdtAmMenuState
  3
DesignerAssemblies
 90
    33792
280
     0
281
     0
  0
CLASS
  1
ACAMPROJECT
  2
AcAmProject
  3
DesignerAssemblies
 90
    33792
280
     0
281
     0
  0
CLASS
  1
ACAMGRCOMPDEF
  2
AcAmGrCompDef
  3
DesignerAssemblies
 90
    33792
280
     0
281
     0
  0
CLASS
  1
ACAMCOMPDEF
  2
AcAmCompDef
  3
DesignerAssemblies
 90
    33792
280
     0
281
     0
  0
CLASS
  1
ACAMCOMPDEFMGR
  2
AcAmCompDefMgr
  3
DesignerAssemblies
 90
    33792
280
     0
281
     0
  0
CLASS
  1
AMCONTEXTMGR
  2
AcAmContextMgr
  3
DesignerAssemblies
 90
    33792
280
     0
281
     0
  0
CLASS
  1
ACAMCONTEXTMODELER
  2
AcAmContextModeler
  3
DesignerAssemblies
 90
    33792
280
     0
281
     0
  0
CLASS
  1
ACMDATADICTIONARY
  2
AcmDataDictionary
  3
"AcmSymBB|Product Description: AutoCAD Mechanical|Company: Autodesk, Inc."
 90
    33792
280
     0
281
     0
  0
CLASS
  1
ACMSTANDARDISO
  2
AcmStandardISO
  3
"Amdt_StdImp|Product Description: AutoCAD Mechanical|Company: Autodesk, Inc."
 90
    33792
280
     0
281
     0
  0
CLASS
  1
AMDTEDGESTANDARDISO13715
  2
AmdtEdgeStdISO13715
  3
"Amdt_StdImp|Product Description: AutoCAD Mechanical|Company: Autodesk, Inc."
 90
    33792
280
     0
281
     0
  0
CLASS
  1
ACMSURFSTANDARDISO2002
  2
AcmSurfTextStdISO2002
  3
"Amdt_StdImp|Product Description: AutoCAD Mechanical|Company: Autodesk, Inc."
 90
    33792
280
     0
281
     0
  0
CLASS
  1
ACMFCFSTANDARDISO2004
  2
AcmFCFStdISO2004
  3
"Amdt_StdImp|Product Description: AutoCAD Mechanical|Company: Autodesk, Inc."
 90
    33792
280
     0
281
     0
  0
CLASS
  1
ACMWELDSTANDARDISO
  2
AcmWeldingStdISO
  3
"Amdt_StdImp|Product Description: AutoCAD Mechanical|Company: Autodesk, Inc."
 90
    33792
280
     0
281
     0
  0
CLASS
  1
ACMIDSTANDARDISO2004
  2
AcmIdStdISO2004
  3
"Amdt_StdImp|Product Description: AutoCAD Mechanical|Company: Autodesk, Inc."
 90
    33792
280
     0
281
     0
  0
CLASS
  1
ACMDATUMSTANDARDISO
  2
AcmDatumStdISO
  3
"Amdt_StdImp|Product Description: AutoCAD Mechanical|Company: Autodesk, Inc."
 90
    33792
280
     0
281
     0
  0
CLASS
  1
ACMBOMSTANDARDISO
  2
AcmBOMStdISO
  3
"Amdt_StdImp|Product Description: AutoCAD Mechanical|Company: Autodesk, Inc."
 90
    33792
280
     0
281
     0
  0
CLASS
  1
ACMDETAILSTANDARDISO
  2
AmdtDetailSymStdISO
  3
"Amdt_StdImp|Product Description: AutoCAD Mechanical|Company: Autodesk, Inc."
 90
    33792
280
     0
281
     0
  0
CLASS
  1
ACMSECTIONSTANDARDISO2001
  2
AmdtSectionSymStdISO2001
  3
"Amdt_StdImp|Product Description: AutoCAD Mechanical|Company: Autodesk, Inc."
 90
    33792
280
     0
281
     0
  0
CLASS
  1
ACMCENTERLINESTANDARDISO
  2
AmdtCenterLineStdISO
  3
"Amdt_StdImp|Product Description: AutoCAD Mechanical|Company: Autodesk, Inc."
 90
    33792
280
     0
281
     0
  0
CLASS
  1
ACMTHREADLINESTANDARDISO
  2
AmdtThreadLineStdISO
  3
"Amdt_StdImp|Product Description: AutoCAD Mechanical|Company: Autodesk, Inc."
 90
    33792
280
     0
281
     0
  0
CLASS
  1
ACMNOTESTANDARDISO
  2
AmdtNoteStdISO
  3
"Amdt_StdImp|Product Description: AutoCAD Mechanical|Company: Autodesk, Inc."
 90
    33792
280
     0
281
     0
  0
CLASS
  1
ACMTAPERSTANDARDISO
  2
AcmTaperStdISO
  3
"Amdt_StdImp|Product Description: AutoCAD Mechanical|Company: Autodesk, Inc."
 90
    33792
280
     0
281
     0
  0
CLASS
  1
ACMANOOTATIONVIEWSTANDARDISO
  2
AmdtAnViewStdISO
  3
"Amdt_StdImp|Product Description: AutoCAD Mechanical|Company: Autodesk, Inc."
 90
    33792
280
     0
281
     0
  0
CLASS
  1
ACAMGLAYSTD
  2
AcAmgLayStd
  3
"AmgLay|Product Description: AutoCAD Mechanical|Company: Autodesk, Inc."
 90
    33792
280
     0
281
     0
  0
CLASS
  1
ACAMGDIMSTD
  2
AcAmgDimStd
  3
"AmgDim|Product Description: AutoCAD Mechanical|Company: Autodesk, Inc."
 90
    33792
280
     0
281
     0
  0
CLASS
  1
AMGOBJPROPCFG
  2
AmgObjPropCfg
  3
"AmgLay|Product Description: AutoCAD Mechanical|Company: Autodesk, Inc."
 90
    33793
280
     0
281
     0
  0
CLASS
  1
ACAMGHOLECHARTSTDISO
  2
AcAmgHoleChartStdISO
  3
AmgDim|Product Description: AutoCAD Mechanical|Company: Autodesk, Inc.
 90
    33792
280
     0
281
     0
  0
CLASS
  1
ACAMGTITLESTD
  2
AcAmgTitleStd
  3
"AmgTitle|Product Description: AutoCAD Mechanical|Company: Autodesk, Inc."
 90
    36863
280
     0
281
     0
  0
CLASS
  1
AMDTNOTETEMPLATEDB
  2
AmdtNoteTemplateDB
  3
AcmSymBB|Product Description: AutoCAD Mechanical|Company: Autodesk, Inc.
 90
    33792
280
     0
281
     0
  0
CLASS
  1
ACAMGRCOMPDEFSET
  2
AcAmGrCompDefSet
  3
DesignerAssemblies
 90
    33792
280
     0
281
     0
  0
CLASS
  1
AMDTBROWSERDBTAB
  2
AmdtBrowserDbTab
  3
McadcomServices
 90
    33792
280
     0
281
     0
  0
CLASS
  1
CBROWSERAPPOBJECT
  2
CBrowserAppObject
  3
McadcomServices
 90
    33792
280
     0
281
     0
  0
CLASS
  1
DM_PLACEHOLDER
  2
AcDmSelsetPlaceholder
  3
McadcomServices
 90
    33792
280
     0
281
     0
  0
CLASS
  1
CAMSSTRUCTBTNSTATE
  2
StructBtnState
  3
DesignerAssemblies
 90
    33792
280
     0
281
     0
  0
CLASS
  1
ACAMGFILTERDAT
  2
AcAmgFilterDat
  3
"AcadM|Product Description: AutoCAD Mechanical|Company: Autodesk, Inc."
 90
    33792
280
     0
281
     0
  0
CLASS
  1
MULTILEADER
  2
AcDbMLeader
  3
ACDB_MLEADER_CLASS
 90
     1025
280
     0
281
     1
  0
CLASS
  1
AEC_REFEDIT_STATUS_TRACKER
  2
AecDbRefEditStatusTracker
  3
AecArchBase70|Product Desc: Autodesk Architectural Desktop 2007 |Company: Autodesk,Inc. |WEB Address: www.autodesk.com
 90
    32897
280
     0
281
     0
  0
CLASS
  1
NPOCOLLECTION
  2
AcDbImpNonPersistentObjectsCollection
  3
ObjectDBX Classes
 90
    33921
280
     0
281
     0
  0
CLASS
  1
ACDBSECTIONVIEWSTYLE
  2
AcDbSectionViewStyle
  3
ObjectDBX Classes
 90
     1025
280
     0
281
     0
  0
CLASS
  1
ACDBDETAILVIEWSTYLE
  2
AcDbDetailViewStyle
  3
ObjectDBX Classes
 90
     1025
280
     0
281
     0
  0
CLASS
  1
ACDBPLACEHOLDER
  2
AcDbPlaceHolder
  3
ObjectDBX Classes
 90
        0
280
     0
281
     0
  0
CLASS
  1
LAYOUT
  2
AcDbLayout
  3
ObjectDBX Classes
 90
        0
280
     0
281
     0
  0
ENDSEC
  0
SECTION
  2
TABLES
  0
TABLE
  2
VPORT
  5
8
330
0
100
AcDbSymbolTable
 70
     1
  0
VPORT
  5
3ED
330
8
100
AcDbSymbolTableRecord
100
AcDbViewportTableRecord
  2
*Active
 70
     0
 10
0.0
 20
0.0
 11
1.0
 21
1.0
 12
4.105599855544966
 22
-7.965926184512056
 13
0.0
 23
0.0
 14
5.0
 24
5.0
 15
5.0
 25
5.0
 16
0.0
 26
0.0
 36
1.0
 17
0.0
 27
0.0
 37
0.0
 40
76.180354797367
 41
2.336194563662374
 42
50.0
 43
0.0
 44
0.0
 50
0.0
 51
0.0
 71
     0
 72
  2000
 73
     1
 74
     3
 75
     0
 76
     0
 77
     0
 78
     0
281
     0
 65
     1
110
0.0
120
0.0
130
0.0
111
1.0
121
0.0
131
0.0
112
0.0
122
1.0
132
0.0
 79
     0
146
0.0
1001
ACAD_NAV_VCDISPLAY
1070
     3
  0
ENDTAB
  0
TABLE
  2
LTYPE
  5
5
330
0
100
AcDbSymbolTable
 70
    12
  0
LTYPE
  5
12
330
5
100
AcDbSymbolTableRecord
100
AcDbLinetypeTableRecord
  2
BYBLOCK
 70
     0
  3

 72
    65
 73
     0
 40
0.0
  0
LTYPE
  5
13
330
5
100
AcDbSymbolTableRecord
100
AcDbLinetypeTableRecord
  2
BYLAYER
 70
     0
  3

 72
    65
 73
     0
 40
0.0
  0
LTYPE
  5
14
330
5
100
AcDbSymbolTableRecord
100
AcDbLinetypeTableRecord
  2
CONTINUOUS
 70
     0
  3
Solid line
 72
    65
 73
     0
 40
0.0
  0
LTYPE
  5
6A7
330
5
100
AcDbSymbolTableRecord
100
AcDbLinetypeTableRecord
  2
CENTER2
 70
     0
  3
Center (.5x) ___ _ ___ _ ___ _ ___ _ ___ _ ___
 72
    65
 73
     4
 40
28.575
 49
19.05
 74
     0
 49
-3.174999999999998
 74
     0
 49
3.174999999999998
 74
     0
 49
-3.174999999999998
 74
     0
  0
LTYPE
  5
783
330
5
100
AcDbSymbolTableRecord
100
AcDbLinetypeTableRecord
  2
AM_ISO02W050
 70
     0
  3
__ __ __ __ __ __ __ __ __ __ __ __ __ __ __
 72
    65
 73
     2
 40
7.5
 49
6.0
 74
     0
 49
-1.5
 74
     0
  0
LTYPE
  5
784
330
5
100
AcDbSymbolTableRecord
100
AcDbLinetypeTableRecord
  2
AM_ISO08W050
 70
     0
  3
____ . ____ . ____ . ____ . ____ . ____ . ____
 72
    65
 73
     4
 40
18.0
 49
12.0
 74
     0
 49
-1.5
 74
     0
 49
3.0
 74
     0
 49
-1.5
 74
     0
  0
LTYPE
  5
785
330
5
100
AcDbSymbolTableRecord
100
AcDbLinetypeTableRecord
  2
AM_ISO09W050
 70
     0
  3
_____ . . _____ . . _____ . . ____ .. ____
 72
    65
 73
     6
 40
22.5
 49
12.0
 74
     0
 49
-1.5
 74
     0
 49
3.0
 74
     0
 49
-1.5
 74
     0
 49
3.0
 74
     0
 49
-1.5
 74
     0
  0
LTYPE
  5
786
330
5
100
AcDbSymbolTableRecord
100
AcDbLinetypeTableRecord
  2
Amconstr
 70
     0
  3
_______________________
 72
    65
 73
     2
 40
9999.0
 49
9999.0
 74
     0
 49
0.0
 74
     0
  0
LTYPE
  5
787
330
5
100
AcDbSymbolTableRecord
100
AcDbLinetypeTableRecord
  2
AM_ISO08W050x2
 70
     0
  3
__ . __ . __ . __ . __ . __
 72
    65
 73
     4
 40
9.0
 49
6.0
 74
     0
 49
-0.75
 74
     0
 49
1.5
 74
     0
 49
-0.75
 74
     0
  0
LTYPE
  5
788
330
5
100
AcDbSymbolTableRecord
100
AcDbLinetypeTableRecord
  2
AM_ISO02W050x2
 70
     0
  3
 _ _ _ _ _ _ _ _ _ _ _ _
 72
    65
 73
     2
 40
3.75
 49
3.0
 74
     0
 49
-0.75
 74
     0
  0
LTYPE
  5
78B
330
5
100
AcDbSymbolTableRecord
100
AcDbLinetypeTableRecord
  2
Amzigzag
 70
     0
  3
/\/-/\/-/\/-/\/-/\/-/\/
 72
    65
 73
     2
 40
11.0001
 49
0.0001
 74
     4
 75
   136
340
78A
 46
0.04
 50
0.0
 44
0.0
 45
0.0
 49
-11.0
 74
     0
  0
LTYPE
  5
79A
330
5
100
AcDbSymbolTableRecord
100
AcDbLinetypeTableRecord
  2
ACISOWELD
 70
     0
  3
_ _ _ _ _
 72
    65
 73
     2
 40
2.0
 49
2.0
 74
     0
 49
-1.0
 74
     0
  0
LTYPE
  5
79B
330
5
100
AcDbSymbolTableRecord
100
AcDbLinetypeTableRecord
  2
ACISOTGL
 70
     0
  3
_ _ _ _ _
 72
    65
 73
     2
 40
3.0
 49
2.0
 74
     0
 49
-1.0
 74
     0
  0
LTYPE
  5
79C
330
5
100
AcDbSymbolTableRecord
100
AcDbLinetypeTableRecord
  2
ACISOTGB
 70
     0
  3
__ . . __ . .
 72
    65
 73
     6
 40
9.0
 49
4.0
 74
     0
 49
-1.0
 74
     0
 49
1.0
 74
     0
 49
-1.0
 74
     0
 49
1.0
 74
     0
 49
-1.0
 74
     0
  0
ENDTAB
  0
TABLE
  2
LAYER
  5
2
102
{ACAD_XDICTIONARY
360
451
102
}
330
0
100
AcDbSymbolTable
 70
    12
  0
LAYER
  5
F
102
{ACAD_XDICTIONARY
360
D34
102
}
330
2
100
AcDbSymbolTableRecord
100
AcDbLayerTableRecord
  2
0
 70
     0
 62
     7
  6
CONTINUOUS
370
    -3
390
300
  0
LAYER
  5
23
102
{ACAD_XDICTIONARY
360
D36
102
}
330
2
100
AcDbSymbolTableRecord
100
AcDbLayerTableRecord
  2
1
 70
     0
 62
     4
  6
CONTINUOUS
370
    50
390
300
  0
LAYER
  5
24
102
{ACAD_XDICTIONARY
360
D38
102
}
330
2
100
AcDbSymbolTableRecord
100
AcDbLayerTableRecord
  2
SK1
 70
     0
 62
     4
  6
CONTINUOUS
370
    50
390
300
  0
LAYER
  5
25
102
{ACAD_XDICTIONARY
360
D3A
102
}
330
2
100
AcDbSymbolTableRecord
100
AcDbLayerTableRecord
  2
2
 70
     0
 62
     7
  6
CONTINUOUS
370
    25
390
300
  0
LAYER
  5
27
102
{ACAD_XDICTIONARY
360
D3C
102
}
330
2
100
AcDbSymbolTableRecord
100
AcDbLayerTableRecord
  2
SK2
 70
     0
 62
     7
  6
CONTINUOUS
370
    25
390
300
  0
LAYER
  5
2A
102
{ACAD_XDICTIONARY
360
D3E
102
}
330
2
100
AcDbSymbolTableRecord
100
AcDbLayerTableRecord
  2
4
 70
     0
 62
     2
  6
CENTER2
370
    25
390
300
  0
LAYER
  5
2B
102
{ACAD_XDICTIONARY
360
D40
102
}
330
2
100
AcDbSymbolTableRecord
100
AcDbLayerTableRecord
  2
SK4
 70
     0
 62
     2
  6
CENTER2
370
    25
390
300
  0
LAYER
  5
2E
102
{ACAD_XDICTIONARY
360
D42
102
}
330
2
100
AcDbSymbolTableRecord
100
AcDbLayerTableRecord
  2
SK6
 70
     0
 62
     5
  6
CONTINUOUS
370
    -3
390
300
  0
LAYER
  5
2F
330
2
100
AcDbSymbolTableRecord
100
AcDbLayerTableRecord
  2
DEFPOINTS
 70
     0
 62
     7
  6
CONTINUOUS
290
     0
370
    25
390
300
  0
LAYER
  5
375
102
{ACAD_XDICTIONARY
360
D44
102
}
330
2
100
AcDbSymbolTableRecord
100
AcDbLayerTableRecord
  2
CUT
 70
     0
 62
     1
  6
CONTINUOUS
370
    25
390
300
  0
LAYER
  5
376
102
{ACAD_XDICTIONARY
360
D46
102
}
330
2
100
AcDbSymbolTableRecord
100
AcDbLayerTableRecord
  2
NOCUT
 70
     0
 62
     7
  6
CONTINUOUS
370
    -3
390
300
  0
LAYER
  5
49B
102
{ACAD_XDICTIONARY
360
D48
102
}
330
2
100
AcDbSymbolTableRecord
100
AcDbLayerTableRecord
  2
INFTOTAL
 70
     0
 62
     9
  6
CONTINUOUS
370
    18
390
300
1001
AcAecLayerStandard
1000

1000

  0
ENDTAB
  0
TABLE
  2
STYLE
  5
3
330
0
100
AcDbSymbolTable
 70
     3
  0
STYLE
  5
10
330
3
100
AcDbSymbolTableRecord
100
AcDbTextStyleTableRecord
  2
STANDARD
 70
     0
 40
0.0
 41
1.0
 50
0.0
 71
     0
 42
5.0
  3
monos.ttf
  4

1001
ACAD
1000
Monospac821 BT
1071
       49
  0
STYLE
  5
78A
330
3
100
AcDbSymbolTableRecord
100
AcDbTextStyleTableRecord
  2

 70
     1
 40
0.0
 41
1.0
 50
0.0
 71
     0
 42
3.5
  3
genltshp.shx
  4

  0
STYLE
  5
799
330
3
100
AcDbSymbolTableRecord
100
AcDbTextStyleTableRecord
  2
ACISOGDT
 70
     0
 40
0.0
 41
1.0
 50
0.0
 71
     0
 42
3.5
  3
amgdt.shx
  4

  0
ENDTAB
  0
TABLE
  2
VIEW
  5
6
330
0
100
AcDbSymbolTable
 70
     0
  0
ENDTAB
  0
TABLE
  2
UCS
  5
7
330
0
100
AcDbSymbolTable
 70
     0
  0
ENDTAB
  0
TABLE
  2
APPID
  5
9
330
0
100
AcDbSymbolTable
 70
    43
  0
APPID
  5
11
330
9
100
AcDbSymbolTableRecord
100
AcDbRegAppTableRecord
  2
ACAD
 70
     0
  0
APPID
  5
3A6
330
9
100
AcDbSymbolTableRecord
100
AcDbRegAppTableRecord
  2
ACAD_PSEXT
 70
     0
  0
APPID
  5
3A8
330
9
100
AcDbSymbolTableRecord
100
AcDbRegAppTableRecord
  2
ACAD_EXEMPT_FROM_CAD_STANDARDS
 70
     0
  0
APPID
  5
43E
330
9
100
AcDbSymbolTableRecord
100
AcDbRegAppTableRecord
  2
ACAD_MLEADERVER
 70
     0
  0
APPID
  5
460
330
9
100
AcDbSymbolTableRecord
100
AcDbRegAppTableRecord
  2
ACAD_DSTYLE_DIMJAG
 70
     0
  0
APPID
  5
461
330
9
100
AcDbSymbolTableRecord
100
AcDbRegAppTableRecord
  2
ACAD_DSTYLE_DIMBREAK
 70
     0
  0
APPID
  5
462
330
9
100
AcDbSymbolTableRecord
100
AcDbRegAppTableRecord
  2
ACAD_DSTYLE_DIMTALN
 70
     0
  0
APPID
  5
47A
330
9
100
AcDbSymbolTableRecord
100
AcDbRegAppTableRecord
  2
AcAecLayerStandard
 70
     0
  0
APPID
  5
4AB
330
9
100
AcDbSymbolTableRecord
100
AcDbRegAppTableRecord
  2
DCO15
 70
     0
  0
APPID
  5
4B9
330
9
100
AcDbSymbolTableRecord
100
AcDbRegAppTableRecord
  2
AcadAnnoPO
 70
     0
  0
APPID
  5
55F
330
9
100
AcDbSymbolTableRecord
100
AcDbRegAppTableRecord
  2
ACAD_DSTYLE_DIMRADIAL_EXTENSION
 70
     0
  0
APPID
  5
701
330
9
100
AcDbSymbolTableRecord
100
AcDbRegAppTableRecord
  2
AcadAnnotative
 70
     0
  0
APPID
  5
702
330
9
100
AcDbSymbolTableRecord
100
AcDbRegAppTableRecord
  2
AcDbDynamicBlockGUID
 70
     0
  0
APPID
  5
703
330
9
100
AcDbSymbolTableRecord
100
AcDbRegAppTableRecord
  2
AcDbBlockRepETag
 70
     0
  0
APPID
  5
748
330
9
100
AcDbSymbolTableRecord
100
AcDbRegAppTableRecord
  2
MCAD_NO_VIS
 70
     0
  0
APPID
  5
749
330
9
100
AcDbSymbolTableRecord
100
AcDbRegAppTableRecord
  2
ACAD_TEMP_GRAPHIC
 70
     0
  0
APPID
  5
754
330
9
100
AcDbSymbolTableRecord
100
AcDbRegAppTableRecord
  2
ACATTRIBSERVICES
 70
     0
  0
APPID
  5
76C
330
9
100
AcDbSymbolTableRecord
100
AcDbRegAppTableRecord
  2
DESIGNERASSEMBLIES
 70
     0
  0
APPID
  5
7A8
330
9
100
AcDbSymbolTableRecord
100
AcDbRegAppTableRecord
  2
ACAD_NAV_VCDISPLAY
 70
     0
  0
APPID
  5
A7B
330
9
100
AcDbSymbolTableRecord
100
AcDbRegAppTableRecord
  2
ADCADD_ZZ
 70
     0
  0
APPID
  5
A7C
330
9
100
AcDbSymbolTableRecord
100
AcDbRegAppTableRecord
  2
SDSK_PMN
 70
     0
  0
APPID
  5
A7D
330
9
100
AcDbSymbolTableRecord
100
AcDbRegAppTableRecord
  2
AEC_DWGVARSSETUP_DATA
 70
     0
  0
APPID
  5
A7E
330
9
100
AcDbSymbolTableRecord
100
AcDbRegAppTableRecord
  2
AECBASE
 70
     0
  0
APPID
  5
A7F
330
9
100
AcDbSymbolTableRecord
100
AcDbRegAppTableRecord
  2
AEC_DISPREPCONFIG_DATA
 70
     0
  0
APPID
  5
A80
330
9
100
AcDbSymbolTableRecord
100
AcDbRegAppTableRecord
  2
AEC_DISPREPSET_DATA
 70
     0
  0
APPID
  5
A81
330
9
100
AcDbSymbolTableRecord
100
AcDbRegAppTableRecord
  2
AD_DRAW
 70
     0
  0
APPID
  5
A82
330
9
100
AcDbSymbolTableRecord
100
AcDbRegAppTableRecord
  2
ACADM_DIM_EDIT
 70
     0
  0
APPID
  5
A83
330
9
100
AcDbSymbolTableRecord
100
AcDbRegAppTableRecord
  2
AMDT_DM_ADJ
 70
     0
  0
APPID
  5
A84
330
9
100
AcDbSymbolTableRecord
100
AcDbRegAppTableRecord
  2
ACAD_DSTYLE_DIMTEXT_FILL
 70
     0
  0
APPID
  5
A85
330
9
100
AcDbSymbolTableRecord
100
AcDbRegAppTableRecord
  2
GENIUS_GENREC_14
 70
     0
  0
APPID
  5
A86
330
9
100
AcDbSymbolTableRecord
100
AcDbRegAppTableRecord
  2
GENIUS_GENODEF_13
 70
     0
  0
APPID
  5
A87
330
9
100
AcDbSymbolTableRecord
100
AcDbRegAppTableRecord
  2
GENIUS_GENOBJ-N-REC_13
 70
     0
  0
APPID
  5
A8F
330
9
100
AcDbSymbolTableRecord
100
AcDbRegAppTableRecord
  2
CONTENTBLOCKICON
 70
     0
  0
APPID
  5
A90
330
9
100
AcDbSymbolTableRecord
100
AcDbRegAppTableRecord
  2
ACAUTHENVIRON
 70
     0
  0
APPID
  5
A91
330
9
100
AcDbSymbolTableRecord
100
AcDbRegAppTableRecord
  2
AcDbDynamicBlockTrueName
 70
     0
  0
APPID
  5
A92
330
9
100
AcDbSymbolTableRecord
100
AcDbRegAppTableRecord
  2
AcDbBlockRepBTag
 70
     0
  0
APPID
  5
AD8
330
9
100
AcDbSymbolTableRecord
100
AcDbRegAppTableRecord
  2
ACAD_DSTYLE_DIMINSPECT
 70
     0
  0
APPID
  5
B69
330
9
100
AcDbSymbolTableRecord
100
AcDbRegAppTableRecord
  2
GENIUS_GENDTOL_13
 70
     0
  0
APPID
  5
F6E
330
9
100
AcDbSymbolTableRecord
100
AcDbRegAppTableRecord
  2
ACAD_DSTYLE_DIMARC_LENGTH_SYMBOL
 70
     0
  0
APPID
  5
F6F
330
9
100
AcDbSymbolTableRecord
100
AcDbRegAppTableRecord
  2
ACAD_DSTYLE_DIM_LINETYPE
 70
     0
  0
APPID
  5
F70
330
9
100
AcDbSymbolTableRecord
100
AcDbRegAppTableRecord
  2
ACAD_DSTYLE_DIM_EXT1_LINETYPE
 70
     0
  0
APPID
  5
F71
330
9
100
AcDbSymbolTableRecord
100
AcDbRegAppTableRecord
  2
ACAD_DSTYLE_DIM_EXT2_LINETYPE
 70
     0
  0
APPID
  5
F79
330
9
100
AcDbSymbolTableRecord
100
AcDbRegAppTableRecord
  2
ACAD_DSTYLE_DIMJOGGED_JOGANGLE_SYMBOL
 70
     0
  0
ENDTAB
  0
TABLE
  2
DIMSTYLE
  5
A
330
0
100
AcDbSymbolTable
 70
     3
100
AcDbDimStyleTable
 71
     3
340
3F
340
467
340
781
  0
DIMSTYLE
105
3F
102
{ACAD_REACTORS
330
AF1
330
C13
330
DA8
330
DFE
102
}
330
A
100
AcDbSymbolTableRecord
100
AcDbDimStyleTableRecord
  2
STANDARD
 70
     0
 41
2.5
 42
0.0
 43
3.75
 44
1.25
 73
     0
 74
     0
 77
     1
 78
     1
140
3.5
141
0.0
143
0.039370078
147
0.625
171
     3
179
     2
271
     2
272
     2
274
     3
283
     0
284
     8
340
10
1001
ACAD_DSTYLE_DIMJAG
1070
   388
1040
1.5
1001
ACAD_DSTYLE_DIMTALN
1070
   392
1070
     0
  0
DIMSTYLE
105
467
102
{ACAD_REACTORS
330
AA6
102
}
330
A
100
AcDbSymbolTableRecord
100
AcDbDimStyleTableRecord
  2
DIAMETER
 70
     0
 41
2.5
 42
0.0
 43
3.75
 44
1.25
 73
     0
 74
     0
 76
     1
 77
     1
 78
     1
140
3.5
141
0.0
143
0.039370078
147
0.625
171
     3
173
     1
179
     2
271
     2
272
     2
274
     3
283
     0
284
     8
340
10
344
464
1001
ACAD_DSTYLE_DIMBREAK
1070
   391
1040
3.75
1001
ACAD_DSTYLE_DIMJAG
1070
   388
1040
1.5
1001
ACAD_DSTYLE_DIMTALN
1070
   392
1070
     0
  0
DIMSTYLE
105
781
330
A
100
AcDbSymbolTableRecord
100
AcDbDimStyleTableRecord
  2
AM_ISO
 70
     0
  4
"
 41
3.5
 42
1.0
 43
10.0
 44
1.0
 47
0.1
 48
0.1
 73
     0
 74
     0
 77
     1
 78
     8
 79
     2
140
3.5
141
0.0
143
0.0393701
146
0.71
147
1.5
172
     1
176
   256
177
   256
178
     2
271
     2
272
     3
274
     4
283
     0
284
     8
340
10
371
    -1
372
    -1
1001
ACAD_DSTYLE_DIMJAG
1070
   388
1040
1.5
1001
ACAD_DSTYLE_DIMBREAK
1070
   391
1040
3.75
1001
ACAD_DSTYLE_DIMARC_LENGTH_SYMBOL
1070
   379
1070
     1
1001
ACAD_DSTYLE_DIM_LINETYPE
1070
   380
1005
12
1001
ACAD_DSTYLE_DIM_EXT1_LINETYPE
1070
   381
1005
12
1001
ACAD_DSTYLE_DIM_EXT2_LINETYPE
1070
   382
1005
12
  0
ENDTAB
  0
TABLE
  2
BLOCK_RECORD
  5
1
330
0
100
AcDbSymbolTable
 70
     8
  0
BLOCK_RECORD
  5
18
102
{ACAD_XDICTIONARY
360
A71
102
}
330
1
100
AcDbSymbolTableRecord
100
AcDbBlockTableRecord
  2
*MODEL_SPACE
340
303
  0
BLOCK_RECORD
  5
338
330
1
100
AcDbSymbolTableRecord
100
AcDbBlockTableRecord
  2
*Paper_Space
340
33B
  0
BLOCK_RECORD
  5
464
330
1
100
AcDbSymbolTableRecord
100
AcDbBlockTableRecord
  2
_None
340
0
  0
BLOCK_RECORD
  5
51F
330
1
100
AcDbSymbolTableRecord
100
AcDbBlockTableRecord
  2
CERO_POINT
340
0
310
2800000020000000200000000100080000000000000400000000000000000000000000000000000000000000000080000080000000808000800000008000800080800000C0C0C000C0DCC000F0CAA6000020400000206000002080000020A0000020C0000020E00000400000004020000040400000406000004080000040A0
310
000040C0000040E00000600000006020000060400000606000006080000060A0000060C0000060E00000800000008020000080400000806000008080000080A0000080C0000080E00000A0000000A0200000A0400000A0600000A0800000A0A00000A0C00000A0E00000C0000000C0200000C0400000C0600000C0800000C0
310
A00000C0C00000C0E00000E0000000E0200000E0400000E0600000E0800000E0A00000E0C00000E0E00040000000400020004000400040006000400080004000A0004000C0004000E00040200000402020004020400040206000402080004020A0004020C0004020E000404000004040200040404000404060004040800040
310
40A0004040C0004040E00040600000406020004060400040606000406080004060A0004060C0004060E00040800000408020004080400040806000408080004080A0004080C0004080E00040A0000040A0200040A0400040A0600040A0800040A0A00040A0C00040A0E00040C0000040C0200040C0400040C0600040C08000
310
40C0A00040C0C00040C0E00040E0000040E0200040E0400040E0600040E0800040E0A00040E0C00040E0E00080000000800020008000400080006000800080008000A0008000C0008000E00080200000802020008020400080206000802080008020A0008020C0008020E00080400000804020008040400080406000804080
310
008040A0008040C0008040E00080600000806020008060400080606000806080008060A0008060C0008060E00080800000808020008080400080806000808080008080A0008080C0008080E00080A0000080A0200080A0400080A0600080A0800080A0A00080A0C00080A0E00080C0000080C0200080C0400080C0600080C0
310
800080C0A00080C0C00080C0E00080E0000080E0200080E0400080E0600080E0800080E0A00080E0C00080E0E000C0000000C0002000C0004000C0006000C0008000C000A000C000C000C000E000C0200000C0202000C0204000C0206000C0208000C020A000C020C000C020E000C0400000C0402000C0404000C0406000C0
310
408000C040A000C040C000C040E000C0600000C0602000C0604000C0606000C0608000C060A000C060C000C060E000C0800000C0802000C0804000C0806000C0808000C080A000C080C000C080E000C0A00000C0A02000C0A04000C0A06000C0A08000C0A0A000C0A0C000C0A0E000C0C00000C0C02000C0C04000C0C06000
310
C0C08000C0C0A000F0FBFF00A4A0A000808080000000FF0000FF000000FFFF00FF000000FF00FF00FFFF0000FFFFFF00000000000000000000000000000000000000000000000000000000000000000000000000000000000000000000000000FF0000000000000000000000000000000000000000000000000000000000FF
310
FFFFFFFF000000000000000000000000000000000000000000FFFFFFFFFFFF0000FF0000FFFF00FF00000000000000000000000000000000FF00000000000000FFFFFF0000FFFFFFFF000000000000000000000000000000FF0000000000000000FF00FF0000FF00FFFF00000000000000000000000000FF00000000000000
310
0000FFFF00FF0000FF0000FFFF00000000000000000000FF000000000000000000FFFF00FF00FF0000FF0000FF000000000000000000FF0000000000000000000000FF0000FF00FF0000FF0000FF0000000000000000FF00000000000000000000FFFFFF0000FFFFFF0000FF00FFFF000000000000FF000000000000000000
310
000000FF00FF000000FFFF0000FF00FF0000000000FF00000000000000000000000000FFFF00FFFF0000FFFF0000FFFF0000000000FF000000000000000000000000FFFF00FF0000FF0000FFFF0000FF0000000000FF00000000000000000000000000FF0000FF0000FF0000FFFF0000FF00000000FF000000000000000000
310
000000FFFFFF0000FF0000FF0000FFFF00FF00000000FF00FF00000000FF0000FF00FF00FFFFFF0000FF0000FF0000FFFF00FF0000FFFFFFFFFFFFFFFFFFFFFFFFFFFFFFFFFFFFFFFFFFFFFFFFFFFFFFFFFFFF000000FF00FF00FF00FF0000FF0000FFFFFF00000000000000000000000000FF000000FF0000FF00FF00FF00
310
00FF0000FFFF000000000000000000000000FF00000000FFFF0000FF00FF00FF00FF000000FF000000000000000000000000FF00000000FF00FF0000FF00FF00FF00FF0000FF0000000000000000000000FF000000000000FF00FF0000FFFF0000FF00FF00FF0000000000000000000000FF000000000000FFFF00FF00FF00
310
FF0000FF00FFFF00000000000000000000FF0000000000000000FF0000FF00FF00FF0000FF00FF00000000000000000000FF000000000000000000FF0000FF00FF00FF0000FFFF000000000000000000FF0000000000000000000000FF0000FF00FF00FF0000FF000000000000000000FF000000000000000000000000FF00
310
00FF00FF00FF00FF00000000000000FFFF00000000000000000000000000FFFF0000FF00FF00FFFF0000000000FFFF00000000000000000000000000000000FFFFFFFFFF00FF00FF000000FFFF0000000000000000000000000000000000000000000000FFFFFFFFFFFFFF0000000000000000000000000000000000000000
310
0000000000000000FF0000000000000000000000000000000000000000000000000000000000000000000000000000000000000000000000
102
{BLKREFS
331
A8D
102
}
1001
ACAD
1000
DesignCenter Data
1002
{
1070
     1
1070
     4
1002
}
  0
BLOCK_RECORD
  5
6D0
102
{ACAD_XDICTIONARY
360
6D1
102
}
330
1
100
AcDbSymbolTableRecord
100
AcDbBlockTableRecord
  2
ISCAR_LOGO
340
0
310
2800000020000000200000000100080000000000000400000000000000000000000000000000000000000000000080000080000000808000800000008000800080800000C0C0C000C0DCC000F0CAA6000020400000206000002080000020A0000020C0000020E00000400000004020000040400000406000004080000040A0
310
000040C0000040E00000600000006020000060400000606000006080000060A0000060C0000060E00000800000008020000080400000806000008080000080A0000080C0000080E00000A0000000A0200000A0400000A0600000A0800000A0A00000A0C00000A0E00000C0000000C0200000C0400000C0600000C0800000C0
310
A00000C0C00000C0E00000E0000000E0200000E0400000E0600000E0800000E0A00000E0C00000E0E00040000000400020004000400040006000400080004000A0004000C0004000E00040200000402020004020400040206000402080004020A0004020C0004020E000404000004040200040404000404060004040800040
310
40A0004040C0004040E00040600000406020004060400040606000406080004060A0004060C0004060E00040800000408020004080400040806000408080004080A0004080C0004080E00040A0000040A0200040A0400040A0600040A0800040A0A00040A0C00040A0E00040C0000040C0200040C0400040C0600040C08000
310
40C0A00040C0C00040C0E00040E0000040E0200040E0400040E0600040E0800040E0A00040E0C00040E0E00080000000800020008000400080006000800080008000A0008000C0008000E00080200000802020008020400080206000802080008020A0008020C0008020E00080400000804020008040400080406000804080
310
008040A0008040C0008040E00080600000806020008060400080606000806080008060A0008060C0008060E00080800000808020008080400080806000808080008080A0008080C0008080E00080A0000080A0200080A0400080A0600080A0800080A0A00080A0C00080A0E00080C0000080C0200080C0400080C0600080C0
310
800080C0A00080C0C00080C0E00080E0000080E0200080E0400080E0600080E0800080E0A00080E0C00080E0E000C0000000C0002000C0004000C0006000C0008000C000A000C000C000C000E000C0200000C0202000C0204000C0206000C0208000C020A000C020C000C020E000C0400000C0402000C0404000C0406000C0
310
408000C040A000C040C000C040E000C0600000C0602000C0604000C0606000C0608000C060A000C060C000C060E000C0800000C0802000C0804000C0806000C0808000C080A000C080C000C080E000C0A00000C0A02000C0A04000C0A06000C0A08000C0A0A000C0A0C000C0A0E000C0C00000C0C02000C0C04000C0C06000
310
C0C08000C0C0A000F0FBFF00A4A0A000808080000000FF0000FF000000FFFF00FF000000FF00FF00FFFF0000FFFFFF0000000000000000000000000000000000000000000000000000000000000000000000000000000000000000000000000000000000000000000000000000000000000000000000000000000000000000
310
0000000000000000000000000000000000000000000000000000000000FC0000FC00000000000000000000000000000000000000000000000000000000FC000000FC000000000000000000000000000000000000000000000000000000FCFC0000FC000000000000000000000000000000000000000000000000000000FC00
310
000000FC0000000000000000000000000000000000000000000000000000FCFCFCFCFCFC000000000000000000000000000000000000000000000000000000000000000000000000000000000000000000000000000000000000000000FCFC00FCFCFC00FC000000000000000000000000000000000000000000000000FCFC
310
FCFCFCFCFCFC000000000000000000000000000000000000000000000000FC00FCFCFC00FCFC000000000000000000000000000000000000000000000000FC0000FCFC0000FC000000000000000000000000000000000000000000000000000000000000000000000000000000000000000000000000000000000000000000
310
000000000000000000000000000000000000000000FCFCFCFCFCFCFCFC0000000000FCFCFCFCFCFCFCFCFCFCFCFCFC000000000000FC0000FCFC000000FC000000FC000000FC0000FCFC00FCFC00FC000000000000FC0000FCFC000000FC0000FC00000000FC0000FCFC00FCFC00FC000000000000FC0000FCFCFCFCFCFCFC
310
FCFCFCFCFCFCFC0000FCFC00FCFCFCFC000000000000FC0000FCFCFCFCFCFCFCFCFCFCFCFCFCFC0000FCFC00FCFCFCFCFCFCFCFC0000FC0000FC00FC000000FC00FCFC000000FCFCFCFCFCFC0000FC00000000FC0000FCFCFCFC0000FCFCFCFC000000FCFCFCFC0000FCFC00000000FCFCFCFCFC0000000000FC0000000000
310
000000000000000000000000000000000000000000000000FCFCFC00000000000000000000000000000000000000000000000000000000FC0000FC00000000000000000000000000000000000000000000000000000000FC0000FC00000000000000000000000000000000000000000000000000000000FC00FC0000000000
310
000000000000000000000000000000000000000000000000FCFC000000000000000000000000000000000000000000000000000000000000FC00000000000000000000000000000000000000000000000000000000000000000000000000000000000000000000000000000000000000000000000000000000000000000000
310
0000000000000000000000000000000000000000000000000000000000000000000000000000000000000000000000000000000000000000
1001
AcDbDynamicBlockGUID
1000
{7F157122-0310-41DF-BAC8-CAC40B0A72D2}
1001
AcDbBlockRepETag
1070
     1
1071
       42
  0
BLOCK_RECORD
  5
AA7
330
1
100
AcDbSymbolTableRecord
100
AcDbBlockTableRecord
  2
*D3
340
0
  0
BLOCK_RECORD
  5
AF2
330
1
100
AcDbSymbolTableRecord
100
AcDbBlockTableRecord
  2
*D4
340
0
  0
BLOCK_RECORD
  5
C14
330
1
100
AcDbSymbolTableRecord
100
AcDbBlockTableRecord
  2
*D5
340
0
  0
BLOCK_RECORD
  5
DA9
330
1
100
AcDbSymbolTableRecord
100
AcDbBlockTableRecord
  2
*D6
340
0
  0
BLOCK_RECORD
  5
DFF
330
1
100
AcDbSymbolTableRecord
100
AcDbBlockTableRecord
  2
*D7
340
0
  0
ENDTAB
  0
ENDSEC
  0
SECTION
  2
BLOCKS
  0
BLOCK
  5
32
330
18
100
AcDbEntity
  8
0
100
AcDbBlockBegin
  2
*MODEL_SPACE
 70
     0
 10
0.0
 20
0.0
 30
0.0
  3
*MODEL_SPACE
  1

  0
ENDBLK
  5
33
330
18
100
AcDbEntity
  8
0
100
AcDbBlockEnd
  0
BLOCK
  5
339
330
338
100
AcDbEntity
 67
     1
  8
0
100
AcDbBlockBegin
  2
*Paper_Space
 70
     0
 10
0.0
 20
0.0
 30
0.0
  3
*Paper_Space
  1

  0
ENDBLK
  5
33A
330
338
100
AcDbEntity
 67
     1
  8
0
100
AcDbBlockEnd
  0
BLOCK
  5
465
330
464
100
AcDbEntity
  8
0
100
AcDbBlockBegin
  2
_None
 70
     0
 10
0.0
 20
0.0
 30
0.0
  3
_None
  1

  0
ENDBLK
  5
466
330
464
100
AcDbEntity
  8
0
100
AcDbBlockEnd
  0
BLOCK
  5
520
330
51F
100
AcDbEntity
  8
0
100
AcDbBlockBegin
  2
CERO_POINT
 70
     0
 10
0.0
 20
0.0
 30
0.0
  3
CERO_POINT
  1

  0
CIRCLE
  5
521
102
{ACAD_REACTORS
330
526
102
}
330
51F
100
AcDbEntity
  8
SK2
100
AcDbCircle
 10
0.0
 20
0.0
 30
0.0
 40
2.5
  0
LINE
  5
522
330
51F
100
AcDbEntity
  8
SK2
100
AcDbLine
 10
0.0900000000037835
 20
0.0
 30
0.0
 11
-0.0899999999965076
 21
0.0
 31
0.0
  0
LINE
  5
523
330
51F
100
AcDbEntity
  8
SK2
100
AcDbLine
 10
0.0
 20
0.0899999999999182
 30
0.0
 11
0.0
 21
-0.0899999999999182
 31
0.0
  0
LINE
  5
524
102
{ACAD_REACTORS
330
526
102
}
330
51F
100
AcDbEntity
  8
SK2
100
AcDbLine
 10
0.0
 20
-2.5
 30
0.0
 11
0.0
 21
2.5
 31
0.0
  0
LINE
  5
525
102
{ACAD_REACTORS
330
526
102
}
330
51F
100
AcDbEntity
  8
SK2
100
AcDbLine
 10
2.5
 20
0.0
 30
0.0
 11
-2.5
 21
0.0
 31
0.0
  0
HATCH
  5
526
330
51F
100
AcDbEntity
  8
SK2
100
AcDbHatch
 10
0.0
 20
0.0
 30
0.0
210
0.0
220
0.0
230
1.0
  2
ANSI31
 70
     0
 71
     1
 91
        2
 92
        7
 72
     1
 73
     1
 93
        3
 10
0.0
 20
-2.5
 42
0.4142135623730951
 10
2.5
 20
0.0
 42
0.0
 10
0.0
 20
0.0
 42
0.0
 97
        3
330
521
330
525
330
524
 92
        7
 72
     1
 73
     1
 93
        3
 10
0.0
 20
0.0
 42
0.0
 10
0.0
 20
2.5
 42
0.4142135623730951
 10
-2.5
 20
0.0
 42
0.0
 97
        3
330
525
330
524
330
521
 75
     0
 76
     1
 52
180.0
 41
0.1
 77
     0
 78
     1
 53
225.0
 43
5.170976743218488
 44
0.0
 45
0.2245064030267288
 46
-0.2245064030267289
 79
     0
 47
0.0243816376539857
 98
        2
 10
0.8789156907296272
 20
-1.044463114528752
 10
-0.8545028512526187
 20
0.7841600866017872
  0
ENDBLK
  5
527
330
51F
100
AcDbEntity
  8
0
100
AcDbBlockEnd
  0
BLOCK
  5
6D3
330
6D0
100
AcDbEntity
  8
0
100
AcDbBlockBegin
  2
ISCAR_LOGO
 70
     2
 10
0.0
 20
0.0
 30
0.0
  3
ISCAR_LOGO
  1

  0
LINE
  5
6D4
330
6D0
100
AcDbEntity
  8
SK6
100
AcDbLine
 10
0.0
 20
6.250000000000794
 30
0.0
 11
1.750000000007275
 21
4.499999999999204
 31
0.0
  0
LINE
  5
6D5
330
6D0
100
AcDbEntity
  8
SK6
100
AcDbLine
 10
1.750000000007275
 20
4.499999999999204
 30
0.0
 11
1.750000000007275
 21
6.750000000000341
 31
0.0
  0
LINE
  5
6D6
330
6D0
100
AcDbEntity
  8
SK6
100
AcDbLine
 10
4.000000000007275
 20
4.0
 30
0.0
 11
6.250000000007275
 21
4.0
 31
0.0
  0
LINE
  5
6D7
330
6D0
100
AcDbEntity
  8
SK6
100
AcDbLine
 10
8.500000000003637
 20
4.0
 30
0.0
 11
10.74999999999636
 21
4.0
 31
0.0
  0
LINE
  5
6D8
330
6D0
100
AcDbEntity
  8
SK6
100
AcDbLine
 10
17.49999999997453
 20
4.0
 30
0.0
 11
19.74999999996362
 21
4.0
 31
0.0
  0
LINE
  5
6D9
330
6D0
100
AcDbEntity
  8
SK6
100
AcDbLine
 10
0.0
 20
4.0
 30
0.0
 11
1.750000000007275
 21
4.0
 31
0.0
  0
LINE
  5
6DA
330
6D0
100
AcDbEntity
  8
SK6
100
AcDbLine
 10
15.75000000000727
 20
1.750000000000681
 30
0.0
 11
17.49999999997453
 21
1.750000000000681
 31
0.0
  0
LINE
  5
6DB
330
6D0
100
AcDbEntity
  8
SK6
100
AcDbLine
 10
15.75000000000727
 20
2.250000000000113
 30
0.0
 11
19.74999999996362
 21
2.250000000000113
 31
0.0
  0
LINE
  5
6DC
330
6D0
100
AcDbEntity
  8
SK6
100
AcDbLine
 10
15.75000000000727
 20
0.0
 30
0.0
 11
17.49999999997453
 21
0.0
 31
0.0
  0
LINE
  5
6DD
330
6D0
100
AcDbEntity
  8
SK6
100
AcDbLine
 10
15.24999999997453
 20
0.0
 30
0.0
 11
15.24999999997453
 21
2.250000000000113
 31
0.0
  0
LINE
  5
6DE
330
6D0
100
AcDbEntity
  8
SK6
100
AcDbLine
 10
11.25000000000727
 20
0.0
 30
0.0
 11
11.25000000000727
 21
2.250000000000113
 31
0.0
  0
LINE
  5
6DF
330
6D0
100
AcDbEntity
  8
SK6
100
AcDbLine
 10
2.249999999996358
 20
1.750000000000681
 30
0.0
 11
6.250000000007275
 21
1.750000000000681
 31
0.0
  0
ARC
  5
6E0
330
6D0
100
AcDbEntity
  8
SK6
100
AcDbCircle
 10
4.499999999974534
 20
1.750000000000681
 30
0.0
 40
1.749999999999998
100
AcDbArc
 50
270.0
 51
0.0
  0
LINE
  5
6E1
330
6D0
100
AcDbEntity
  8
SK6
100
AcDbLine
 10
2.249999999996358
 20
0.0
 30
0.0
 11
4.499999999974534
 21
0.0
 31
0.0
  0
LINE
  5
6E2
330
6D0
100
AcDbEntity
  8
SK6
100
AcDbLine
 10
2.249999999996358
 20
0.0
 30
0.0
 11
2.249999999996358
 21
1.750000000000681
 31
0.0
  0
LINE
  5
6E3
330
6D0
100
AcDbEntity
  8
SK6
100
AcDbLine
 10
8.500000000003637
 20
0.0
 30
0.0
 11
10.74999999999636
 21
0.0
 31
0.0
  0
LINE
  5
6E4
330
6D0
100
AcDbEntity
  8
SK6
100
AcDbLine
 10
6.750000000003637
 20
1.750000000000681
 30
0.0
 11
10.74999999999636
 21
1.750000000000681
 31
0.0
  0
ARC
  5
6E5
330
6D0
100
AcDbEntity
  8
SK6
100
AcDbCircle
 10
8.500000000003637
 20
1.750000000000681
 30
0.0
 40
1.749999999999998
100
AcDbArc
 50
180.0
 51
270.0
  0
LINE
  5
6E6
330
6D0
100
AcDbEntity
  8
SK6
100
AcDbLine
 10
10.74999999999636
 20
0.0
 30
0.0
 11
10.74999999999636
 21
1.750000000000681
 31
0.0
  0
LINE
  5
6E7
330
6D0
100
AcDbEntity
  8
SK6
100
AcDbLine
 10
15.75000000000727
 20
0.0
 30
0.0
 11
15.75000000000727
 21
1.750000000000681
 31
0.0
  0
LINE
  5
6E8
330
6D0
100
AcDbEntity
  8
SK6
100
AcDbLine
 10
11.25000000000727
 20
0.0
 30
0.0
 11
12.99999999999272
 21
0.0
 31
0.0
  0
LINE
  5
6E9
330
6D0
100
AcDbEntity
  8
SK6
100
AcDbLine
 10
13.4999999999527
 20
0.0
 30
0.0
 11
15.24999999997453
 21
0.0
 31
0.0
  0
LINE
  5
6EA
330
6D0
100
AcDbEntity
  8
SK6
100
AcDbLine
 10
2.249999999996358
 20
2.250000000000113
 30
0.0
 11
6.250000000007275
 21
2.250000000000113
 31
0.0
  0
LINE
  5
6EB
330
6D0
100
AcDbEntity
  8
SK6
100
AcDbLine
 10
6.750000000003637
 20
2.250000000000113
 30
0.0
 11
10.74999999999636
 21
2.250000000000113
 31
0.0
  0
LINE
  5
6EC
330
6D0
100
AcDbEntity
  8
SK6
100
AcDbLine
 10
17.49999999997453
 20
0.0
 30
0.0
 11
17.49999999997453
 21
1.750000000000681
 31
0.0
  0
LINE
  5
6ED
330
6D0
100
AcDbEntity
  8
SK6
100
AcDbLine
 10
0.0
 20
0.0
 30
0.0
 11
1.750000000007275
 21
0.0
 31
0.0
  0
ARC
  5
6EE
330
6D0
100
AcDbEntity
  8
SK6
100
AcDbCircle
 10
17.49999999997453
 20
2.250000000000113
 30
0.0
 40
1.749999999999998
100
AcDbArc
 50
90.0
 51
180.0
  0
LINE
  5
6EF
330
6D0
100
AcDbEntity
  8
SK6
100
AcDbLine
 10
0.0
 20
0.0
 30
0.0
 11
0.0
 21
4.0
 31
0.0
  0
LINE
  5
6F0
330
6D0
100
AcDbEntity
  8
SK6
100
AcDbLine
 10
1.750000000007275
 20
0.0
 30
0.0
 11
1.750000000007275
 21
4.0
 31
0.0
  0
LINE
  5
6F1
330
6D0
100
AcDbEntity
  8
SK6
100
AcDbLine
 10
12.99999999999272
 20
0.0
 30
0.0
 11
12.99999999999272
 21
4.0
 31
0.0
  0
LINE
  5
6F2
330
6D0
100
AcDbEntity
  8
SK6
100
AcDbLine
 10
13.4999999999527
 20
0.0
 30
0.0
 11
13.4999999999527
 21
4.0
 31
0.0
  0
ARC
  5
6F3
330
6D0
100
AcDbEntity
  8
SK6
100
AcDbCircle
 10
4.000000000007275
 20
2.250000000000113
 30
0.0
 40
1.749999999999998
100
AcDbArc
 50
90.0
 51
180.0
  0
ARC
  5
6F4
330
6D0
100
AcDbEntity
  8
SK6
100
AcDbCircle
 10
12.99999999999272
 20
2.250000000000113
 30
0.0
 40
1.749999999999998
100
AcDbArc
 50
90.0
 51
180.0
  0
LINE
  5
6F5
330
6D0
100
AcDbEntity
  8
SK6
100
AcDbLine
 10
6.250000000007275
 20
2.250000000000113
 30
0.0
 11
6.250000000007275
 21
4.0
 31
0.0
  0
ARC
  5
6F6
330
6D0
100
AcDbEntity
  8
SK6
100
AcDbCircle
 10
8.500000000003637
 20
2.250000000000113
 30
0.0
 40
1.749999999999998
100
AcDbArc
 50
90.0
 51
180.0
  0
LINE
  5
6F7
330
6D0
100
AcDbEntity
  8
SK6
100
AcDbLine
 10
10.74999999999636
 20
2.250000000000113
 30
0.0
 11
10.74999999999636
 21
4.0
 31
0.0
  0
ARC
  5
6F8
330
6D0
100
AcDbEntity
  8
SK6
100
AcDbCircle
 10
13.4999999999527
 20
2.250000000000113
 30
0.0
 40
1.749999999999998
100
AcDbArc
 50
0.0
 51
90.0
  0
LINE
  5
6F9
330
6D0
100
AcDbEntity
  8
SK6
100
AcDbLine
 10
19.74999999996362
 20
2.250000000000113
 30
0.0
 11
19.74999999996362
 21
4.0
 31
0.0
  0
LINE
  5
6FA
330
6D0
100
AcDbEntity
  8
SK6
100
AcDbLine
 10
0.0
 20
8.499999999999545
 30
0.0
 11
1.750000000007275
 21
6.750000000000341
 31
0.0
  0
LINE
  5
6FB
330
6D0
100
AcDbEntity
  8
SK6
100
AcDbLine
 10
0.0
 20
6.250000000000794
 30
0.0
 11
0.0
 21
8.499999999999545
 31
0.0
  0
ATTDEF
  5
6FC
330
6D0
100
AcDbEntity
  8
SK6
100
AcDbText
 10
3.07280028710756
 20
-6.38769206708217
 30
0.0
 40
3.5
  1
----
 72
     1
 11
9.138155171155347
 21
-6.38769206708217
 31
0.0
100
AcDbAttributeDefinition
  3
NAME OF TOOL?
  2
MM
 70
     0
  0
ATTDEF
  5
6FD
330
6D0
100
AcDbEntity
  8
SK6
100
AcDbText
 10
9.138155171155347
 20
-12.42271564516345
 30
0.0
 40
3.5
  1

 72
     1
 11
9.138155171155347
 21
-12.42271564516345
 31
0.0
100
AcDbAttributeDefinition
  3

  2
F7
 70
     0
  0
ENDBLK
  5
6FE
330
6D0
100
AcDbEntity
  8
0
100
AcDbBlockEnd
  0
BLOCK
  5
AA8
330
AA7
100
AcDbEntity
  8
0
100
AcDbBlockBegin
  2
*D3
 70
     1
 10
0.0
 20
0.0
 30
0.0
  3
*D3
  1

  0
LINE
  5
DEE
330
AA7
100
AcDbEntity
  8
2
 62
     0
370
    -2
100
AcDbLine
 10
8.393091999996361
 20
5.750502000000056
 30
0.0
 11
30.47126533064193
 21
5.750502000000047
 31
0.0
  0
LINE
  5
DEF
330
AA7
100
AcDbEntity
  8
2
 62
     0
370
    -2
100
AcDbLine
 10
29.22126533064193
 20
3.250502000000051
 30
0.0
 11
29.22126533064193
 21
-5.750497999999946
 31
0.0
  0
LINE
  5
DF0
330
AA7
100
AcDbEntity
  8
2
 62
     0
370
    -2
100
AcDbLine
 10
29.22126533064193
 20
-5.750497999999946
 30
0.0
 11
29.22126533064192
 21
-29.44533285593811
 31
0.0
  0
SOLID
  5
DF1
330
AA7
100
AcDbEntity
  8
2
 62
     0
100
AcDbTrace
 10
28.80459866397526
 20
3.250502000000051
 30
0.0
 11
29.6379319973086
 21
3.250502000000051
 31
0.0
 12
29.22126533064193
 22
5.750502000000051
 32
0.0
 13
29.22126533064193
 23
5.750502000000051
 33
0.0
  0
MTEXT
  5
DF2
330
AA7
100
AcDbEntity
  8
2
 62
     0
100
AcDbMText
 10
26.7331240797635
 20
-18.84791542796902
 30
0.0
 40
3.5
 41
0.0
 71
     5
 72
     1
  1
%%c11.501
 11
0.0000000000000001
 21
1.0
 31
0.0
 73
     1
 44
1.0
1001
ACAD
1000
MTEXTBEGIN
1070
    73
1070
     1
1070
    44
1040
1.0
1070
    74
1070
     0
1000
MTEXTEND
  0
POINT
  5
DF3
330
AA7
100
AcDbEntity
  8
DEFPOINTS
 62
     0
100
AcDbPoint
 10
8.393091999996361
 20
5.750502000000056
 30
0.0
  0
POINT
  5
DF4
330
AA7
100
AcDbEntity
  8
DEFPOINTS
 62
     0
100
AcDbPoint
 10
8.393091999996361
 20
-5.75049799999994
 30
0.0
  0
POINT
  5
DF5
330
AA7
100
AcDbEntity
  8
DEFPOINTS
 62
     0
100
AcDbPoint
 10
29.22126533064193
 20
-5.750497999999946
 30
0.0
  0
ENDBLK
  5
AA9
330
AA7
100
AcDbEntity
  8
0
100
AcDbBlockEnd
  0
BLOCK
  5
AF3
330
AF2
100
AcDbEntity
  8
0
100
AcDbBlockBegin
  2
*D4
 70
     1
 10
0.0
 20
0.0
 30
0.0
  3
*D4
  1

  0
LINE
  5
E5C
330
AF2
100
AcDbEntity
  8
2
 62
     0
370
    -2
100
AcDbLine
 10
9.469999999996362
 20
5.217293000000056
 30
0.0
 11
9.469999999996362
 21
24.20883189444811
 31
0.0
  0
LINE
  5
E5D
330
AF2
100
AcDbEntity
  8
2
 62
     0
370
    -2
100
AcDbLine
 10
0.2699999999963634
 20
5.454304904943316
 30
0.0
 11
0.2699999999963645
 21
24.20883189444811
 31
0.0
  0
LINE
  5
E5E
330
AF2
100
AcDbEntity
  8
2
 62
     0
370
    -2
100
AcDbLine
 10
2.769999999996364
 20
22.95883189444811
 30
0.0
 11
6.969999999996361
 21
22.95883189444811
 31
0.0
  0
LINE
  5
E5F
330
AF2
100
AcDbEntity
  8
2
 62
     0
370
    -2
100
AcDbLine
 10
9.469999999996362
 20
22.95883189444811
 30
0.0
 11
25.72654392657006
 21
22.95883189444811
 31
0.0
  0
SOLID
  5
E60
330
AF2
100
AcDbEntity
  8
2
 62
     0
100
AcDbTrace
 10
2.769999999996364
 20
23.37549856111478
 30
0.0
 11
2.769999999996364
 21
22.54216522778144
 31
0.0
 12
0.2699999999963644
 22
22.95883189444811
 32
0.0
 13
0.2699999999963644
 23
22.95883189444811
 33
0.0
  0
SOLID
  5
E61
330
AF2
100
AcDbEntity
  8
2
 62
     0
100
AcDbTrace
 10
6.969999999996361
 20
23.37549856111478
 30
0.0
 11
6.969999999996361
 21
22.54216522778144
 31
0.0
 12
9.469999999996362
 22
22.95883189444811
 32
0.0
 13
9.469999999996362
 23
22.95883189444811
 33
0.0
  0
MTEXT
  5
E62
330
AF2
100
AcDbEntity
  8
2
 62
     0
100
AcDbMText
 10
19.32888053935994
 20
25.39532170470812
 30
0.0
 40
3.5
 41
0.0
 71
     5
 72
     1
  1
9.20
 73
     1
 44
1.0
1001
ACAD
1000
MTEXTBEGIN
1070
    73
1070
     1
1070
    44
1040
1.0
1070
    74
1070
     0
1000
MTEXTEND
  0
POINT
  5
E63
330
AF2
100
AcDbEntity
  8
DEFPOINTS
 62
     0
100
AcDbPoint
 10
9.469999999996362
 20
5.217293000000056
 30
0.0
  0
POINT
  5
E64
330
AF2
100
AcDbEntity
  8
DEFPOINTS
 62
     0
100
AcDbPoint
 10
0.2699999999963634
 20
5.454304904943316
 30
0.0
  0
POINT
  5
E65
330
AF2
100
AcDbEntity
  8
DEFPOINTS
 62
     0
100
AcDbPoint
 10
0.2699999999963644
 20
22.95883189444811
 30
0.0
  0
ENDBLK
  5
AF4
330
AF2
100
AcDbEntity
  8
0
100
AcDbBlockEnd
  0
BLOCK
  5
C15
330
C14
100
AcDbEntity
  8
0
100
AcDbBlockBegin
  2
*D5
 70
     1
 10
0.0
 20
0.0
 30
0.0
  3
*D5
  1

  0
LINE
  5
DD6
330
C14
100
AcDbEntity
  8
2
 62
     0
370
    -2
100
AcDbLine
 10
10.45446185926562
 20
0.0000000000000568
 30
0.0
 11
17.78486846551439
 21
0.0000000000000906
 31
0.0
  0
LINE
  5
DD7
330
C14
100
AcDbEntity
  8
2
 62
     0
370
    -2
100
AcDbLine
 10
9.469999999996359
 20
1.74426982683578
 30
0.0
 11
16.99440695578294
 21
4.482929989247661
 31
0.0
  0
ARC
  5
DD8
330
C14
100
AcDbEntity
  8
2
 62
     0
370
    -2
100
AcDbCircle
 10
4.677658037329085
 20
0.0000000000000255
 30
0.0
 40
11.85721042818531
100
AcDbArc
 50
335.6565795428072
 51
0.0000000000002799
  0
LINE
  5
DD9
330
C14
100
AcDbEntity
  8
2
 62
     0
370
    -2
100
AcDbLine
 10
15.48065760574198
 20
-4.88760058342916
 30
0.0
 11
9.165130610202457
 21
-18.84672720241427
 31
0.0
  0
ARC
  5
DDA
330
C14
100
AcDbEntity
  8
2
 62
     0
370
    -2
100
AcDbCircle
 10
4.677658037329085
 20
0.0000000000000255
 30
0.0
 40
11.85721042818531
100
AcDbArc
 50
335.7942893621231
 51
347.8971446810616
  0
ARC
  5
DDB
330
C14
100
AcDbEntity
  8
2
 62
     0
370
    -2
100
AcDbCircle
 10
4.677658037329085
 20
0.0000000000000255
 30
0.0
 40
11.85721042818531
100
AcDbArc
 50
32.10285531893856
 51
44.20571063787714
  0
SOLID
  5
DDC
330
C14
100
AcDbEntity
  8
2
 62
     0
100
AcDbTrace
 10
15.85697088728154
 20
-2.44214372724799
 30
0.0
 11
16.68566061386107
 21
-2.529994632229022
 31
0.0
 12
16.5348684655144
 22
0.0000000000000848
 32
0.0
 13
16.5348684655144
 23
0.0000000000000848
 33
0.0
  0
SOLID
  5
DDD
330
C14
100
AcDbEntity
  8
2
 62
     0
100
AcDbTrace
 10
15.09618032214619
 20
6.484396048814137
 30
0.0
 11
14.34751348027121
 21
6.118414622616852
 31
0.0
 12
15.81979117980055
 22
4.055404810090576
 32
0.0
 13
15.81979117980055
 23
4.055404810090576
 33
0.0
  0
MTEXT
  5
DDE
102
{ACAD_XDICTIONARY
360
F94
102
}
330
C14
100
AcDbEntity
  8
2
 62
     0
100
AcDbMText
 10
14.54275842834506
 20
-12.87149700232143
 30
0.0
 40
3.5
 41
0.0
 71
     5
 72
     1
  1
20.0\U+00B0
 11
-0.4122049290624929
 21
-0.9110911570510303
 31
0.0
 73
     1
 44
1.0
1001
ACAD
1000
MTEXTBEGIN
1070
    73
1070
     1
1070
    44
1040
1.0
1070
    74
1070
     0
1000
MTEXTEND
  0
POINT
  5
DDF
330
C14
100
AcDbEntity
  8
DEFPOINTS
 62
     0
100
AcDbPoint
 10
16.2152558238604
 20
2.734460907472341
 30
0.0
  0
POINT
  5
DE0
330
C14
100
AcDbEntity
  8
DEFPOINTS
 62
     0
100
AcDbPoint
 10
4.677658037329085
 20
0.0000000000000255
 30
0.0
  0
POINT
  5
DE1
330
C14
100
AcDbEntity
  8
DEFPOINTS
 62
     0
100
AcDbPoint
 10
4.677658037329085
 20
0.0000000000000255
 30
0.0
  0
POINT
  5
DE2
330
C14
100
AcDbEntity
  8
DEFPOINTS
 62
     0
100
AcDbPoint
 10
10.45446185926562
 20
0.0000000000000568
 30
0.0
  0
POINT
  5
DE3
330
C14
100
AcDbEntity
  8
DEFPOINTS
 62
     0
100
AcDbPoint
 10
9.469999999996359
 20
1.74426982683578
 30
0.0
  0
ENDBLK
  5
C16
330
C14
100
AcDbEntity
  8
0
100
AcDbBlockEnd
  0
BLOCK
  5
DAA
330
DA9
100
AcDbEntity
  8
0
100
AcDbBlockBegin
  2
*D6
 70
     1
 10
0.0
 20
0.0
 30
0.0
  3
*D6
  1

  0
LINE
  5
E52
330
DA9
100
AcDbEntity
  8
2
 62
     0
370
    -2
100
AcDbLine
 10
8.393096039343042
 20
5.750500000000057
 30
0.0
 11
8.393096039343042
 21
17.52767604600907
 31
0.0
  0
LINE
  5
E53
330
DA9
100
AcDbEntity
  8
2
 62
     0
370
    -2
100
AcDbLine
 10
9.469999999996362
 20
5.217293000000061
 30
0.0
 11
9.469999999996362
 21
17.52767604600907
 31
0.0
  0
LINE
  5
E54
330
DA9
100
AcDbEntity
  8
2
 62
     0
370
    -2
100
AcDbLine
 10
5.893096039343042
 20
16.27767604600907
 30
0.0
 11
3.393096039343041
 21
16.27767604600907
 31
0.0
  0
LINE
  5
E55
330
DA9
100
AcDbEntity
  8
2
 62
     0
370
    -2
100
AcDbLine
 10
11.96999999999636
 20
16.27767604600907
 30
0.0
 11
26.92836261419174
 21
16.27767604600907
 31
0.0
  0
SOLID
  5
E56
330
DA9
100
AcDbEntity
  8
2
 62
     0
100
AcDbTrace
 10
5.893096039343042
 20
16.69434271267574
 30
0.0
 11
5.893096039343042
 21
15.86100937934241
 31
0.0
 12
8.393096039343042
 22
16.27767604600907
 32
0.0
 13
8.393096039343042
 23
16.27767604600907
 33
0.0
  0
SOLID
  5
E57
330
DA9
100
AcDbEntity
  8
2
 62
     0
100
AcDbTrace
 10
11.96999999999636
 20
16.69434271267574
 30
0.0
 11
11.96999999999636
 21
15.86100937934241
 31
0.0
 12
9.469999999996362
 22
16.27767604600907
 32
0.0
 13
9.469999999996362
 23
16.27767604600907
 33
0.0
  0
MTEXT
  5
E58
330
DA9
100
AcDbEntity
  8
2
 62
     0
100
AcDbMText
 10
20.69918130709405
 20
18.71416585626909
 30
0.0
 40
3.5
 41
0.0
 71
     5
 72
     1
  1
1.08
 73
     1
 44
1.0
1001
ACAD
1000
MTEXTBEGIN
1070
    73
1070
     1
1070
    44
1040
1.0
1070
    74
1070
     0
1000
MTEXTEND
  0
POINT
  5
E59
330
DA9
100
AcDbEntity
  8
DEFPOINTS
 62
     0
100
AcDbPoint
 10
8.393096039343042
 20
5.750500000000057
 30
0.0
  0
POINT
  5
E5A
330
DA9
100
AcDbEntity
  8
DEFPOINTS
 62
     0
100
AcDbPoint
 10
9.469999999996362
 20
5.217293000000061
 30
0.0
  0
POINT
  5
E5B
330
DA9
100
AcDbEntity
  8
DEFPOINTS
 62
     0
100
AcDbPoint
 10
9.469999999996362
 20
16.27767604600907
 30
0.0
  0
ENDBLK
  5
DAB
330
DA9
100
AcDbEntity
  8
0
100
AcDbBlockEnd
  0
BLOCK
  5
E00
330
DFF
100
AcDbEntity
  8
0
100
AcDbBlockBegin
  2
*D7
 70
     1
 10
0.0
 20
0.0
 30
0.0
  3
*D7
  1

  0
LINE
  5
EE0
330
DFF
100
AcDbEntity
  8
2
 62
     0
370
    -2
100
AcDbLine
 10
8.393093223688213
 20
5.750503519717302
 30
0.0
 11
3.022838895478665
 21
8.254694239201452
 31
0.0
  0
LINE
  5
EE1
330
DFF
100
AcDbEntity
  8
2
 62
     0
370
    -2
100
AcDbLine
 10
8.393096039343044
 20
5.750500000000057
 30
0.0
 11
2.467672398479513
 21
5.75047596620536
 31
0.0
  0
ARC
  5
EE2
330
DFF
100
AcDbEntity
  8
2
 62
     0
370
    -2
100
AcDbCircle
 10
8.393100771705043
 20
5.750500000019253
 30
0.0
 40
4.675428373274268
100
AcDbArc
 50
92.97221941705506
 51
123.9861097085275
  0
ARC
  5
EE3
330
DFF
100
AcDbEntity
  8
2
 62
     0
370
    -2
100
AcDbCircle
 10
8.393100771705043
 20
5.750500000019253
 30
0.0
 40
4.675428373274268
100
AcDbArc
 50
211.0141226858269
 51
242.0280129772993
  0
SOLID
  5
EE4
330
DFF
100
AcDbEntity
  8
2
 62
     0
100
AcDbTrace
 10
6.096377186257266
 20
9.356597746929613
 30
0.0
 11
5.462771155640672
 21
9.897881260821105
 31
0.0
 12
4.155723629274477
 22
7.726421412025575
 32
0.0
 13
4.155723629274477
 23
7.726421412025575
 33
0.0
  0
SOLID
  5
EE5
330
DFF
100
AcDbEntity
  8
2
 62
     0
100
AcDbTrace
 10
3.984571385734096
 20
3.230088994991501
 30
0.0
 11
4.787568859267511
 21
3.452888236335358
 31
0.0
 12
3.717672398469231
 22
5.75048103626367
 32
0.0
 13
3.717672398469231
 23
5.75048103626367
 33
0.0
  0
MTEXT
  5
EE6
102
{ACAD_XDICTIONARY
360
F96
102
}
330
DFF
100
AcDbEntity
  8
2
 62
     0
100
AcDbMText
 10
4.193437196493063
 20
11.49003012924789
 30
0.0
 40
3.5
 41
0.0
 71
     5
 72
     1
  1
25\U+00B0
 11
0.8070298309276061
 21
0.5905106705157489
 31
0.0
 73
     1
 44
1.0
1001
ACAD
1000
MTEXTBEGIN
1070
    73
1070
     1
1070
    44
1040
1.0
1070
    74
1070
     0
1000
MTEXTEND
  0
POINT
  5
EE7
330
DFF
100
AcDbEntity
  8
DEFPOINTS
 62
     0
100
AcDbPoint
 10
3.767035428700051
 20
6.428106018193677
 30
0.0
  0
POINT
  5
EE8
330
DFF
100
AcDbEntity
  8
DEFPOINTS
 62
     0
100
AcDbPoint
 10
8.393096039343044
 20
5.750500000000057
 30
0.0
  0
POINT
  5
EE9
330
DFF
100
AcDbEntity
  8
DEFPOINTS
 62
     0
100
AcDbPoint
 10
8.393093223688213
 20
5.750503519717302
 30
0.0
  0
POINT
  5
EEA
330
DFF
100
AcDbEntity
  8
DEFPOINTS
 62
     0
100
AcDbPoint
 10
9.031005714529019
 20
5.453040040005501
 30
0.0
  0
POINT
  5
EEB
330
DFF
100
AcDbEntity
  8
DEFPOINTS
 62
     0
100
AcDbPoint
 10
8.886187014921461
 20
5.750502000000055
 30
0.0
  0
ENDBLK
  5
E01
330
DFF
100
AcDbEntity
  8
0
100
AcDbBlockEnd
  0
ENDSEC
  0
SECTION
  2
ENTITIES
  0
LINE
  5
965
330
18
100
AcDbEntity
  8
4
 48
0.082513
100
AcDbLine
 10
10.45446185926562
 20
0.0000000000000568
 30
0.0
 11
-0.000000000003638
 21
0.0
 31
0.0
  0
ARC
  5
966
330
18
100
AcDbEntity
  8
1
100
AcDbCircle
 10
9.881789999996355
 20
-9.735818999999935
 30
0.0
 40
14.448034
100
AcDbArc
 50
92.31978299999951
 51
100.2234559999995
  0
LINE
  5
967
330
18
100
AcDbEntity
  8
1
 48
0.00433
100
AcDbLine
 10
9.29694699999638
 20
4.701188000000058
 30
0.0
 11
9.469993999996377
 21
4.708759000000043
 31
0.0
  0
ARC
  5
968
330
18
100
AcDbEntity
  8
1
100
AcDbCircle
 10
9.016208999996335
 20
45.50932900000009
 30
0.0
 40
41.062091
100
AcDbArc
 50
267.6291230000003
 51
270.6332069999994
  0
LINE
  5
969
330
18
100
AcDbEntity
  8
1
 48
0.006472
100
AcDbLine
 10
9.469999999996359
 20
4.449744000000066
 30
0.0
 11
9.469999999996359
 21
4.708636000000125
 31
0.0
  0
LINE
  5
96A
330
18
100
AcDbEntity
  8
1
 48
0.036623
100
AcDbLine
 10
-0.000000000003638
 20
2.067362000000059
 30
0.0
 11
-0.000000000003638
 21
3.532272000000091
 31
0.0
  0
ARC
  5
96B
330
18
100
AcDbEntity
  8
1
100
AcDbCircle
 10
3.329668999996357
 20
3.333289000000091
 30
0.0
 40
3.562141
100
AcDbArc
 50
200.8161780000004
 51
206.2330770000002
  0
ARC
  5
96C
330
18
100
AcDbEntity
  8
1
100
AcDbCircle
 10
-1.089548000003645
 20
1.173266000000069
 30
0.0
 40
1.357007
100
AcDbArc
 50
13.62788499999988
 51
25.56371100000111
  0
SPLINE
  5
96D
330
18
100
AcDbEntity
  8
1
100
AcDbSpline
210
0.0
220
0.0
230
1.0
 70
     8
 71
     5
 72
    30
 73
    24
 74
     0
 42
0.000000001
 43
0.0000000001
 40
0.0
 40
0.0
 40
0.0
 40
0.0
 40
0.0
 40
0.0
 40
3.976064497795333
 40
3.976064497795333
 40
3.976064497795333
 40
4.693179445356456
 40
4.693179445356456
 40
4.693179445356456
 40
5.447681197634699
 40
5.447681197634699
 40
5.447681197634699
 40
8.427536539745522
 40
8.427536539745522
 40
8.427536539745522
 40
11.58347786817156
 40
11.58347786817156
 40
11.58347786817156
 40
13.09673461950099
 40
13.09673461950099
 40
13.09673461950099
 40
14.60757205418135
 40
14.60757205418135
 40
14.60757205418135
 40
14.60757205418135
 40
14.60757205418135
 40
14.60757205418135
 10
0.2294329638166062
 20
1.493040750337229
 30
0.0
 10
0.5072799023999437
 20
1.58607572090483
 30
0.0
 10
0.8055882062376156
 20
1.685379509155268
 30
0.0
 10
1.153971589746163
 20
1.800719107918553
 30
0.0
 10
1.631119917940168
 20
1.95668853954686
 30
0.0
 10
2.13799241551308
 20
2.119615458337932
 30
0.0
 10
2.215979901048938
 20
2.144619279549885
 30
0.0
 10
2.376739348417769
 20
2.196024302214198
 30
0.0
 10
2.538085462914323
 20
2.24733127018635
 30
0.0
 10
2.600104388060541
 20
2.267001228406397
 30
0.0
 10
3.011646040882423
 20
2.39717843246143
 30
0.0
 10
3.441513506989307
 20
2.531130859207451
 30
0.0
 10
3.818879516706004
 20
2.647158121786844
 30
0.0
 10
4.598775379172846
 20
2.882689495820841
 30
0.0
 10
5.398063165317495
 20
3.114936420607361
 30
0.0
 10
5.821257924342347
 20
3.235007143252687
 30
0.0
 10
6.400000371218681
 20
3.395233395069283
 30
0.0
 10
6.937559361737299
 20
3.538956023091201
 30
0.0
 10
7.09924117789316
 20
3.581678967733465
 30
0.0
 10
7.432386720845244
 20
3.668749449879384
 30
0.0
 10
7.765678643374627
 20
3.753810510232426
 30
0.0
 10
7.932228005691257
 20
3.795799199858493
 30
0.0
 10
8.098805680233255
 20
3.83727164060218
 30
0.0
 10
8.265331217168494
 20
3.878210990427021
 30
0.0
  0
LINE
  5
96E
330
18
100
AcDbEntity
  8
1
 48
0.004428
100
AcDbLine
 10
8.412222999996371
 20
3.977206000000077
 30
0.0
 11
8.265330999996335
 21
3.878211000000078
 31
0.0
  0
ARC
  5
96F
330
18
100
AcDbEntity
  8
1
100
AcDbCircle
 10
3.599171999996343
 20
55.54628700000006
 30
0.0
 40
51.793191
100
AcDbArc
 50
273.8981019999998
 51
275.3320900000006
  0
ARC
  5
970
330
18
100
AcDbEntity
  8
1
100
AcDbCircle
 10
7.075328999996344
 20
7.688647000000115
 30
0.0
 40
3.815958
100
AcDbArc
 50
266.9321929999997
 51
270.6735610000003
  0
SPLINE
  5
971
330
18
100
AcDbEntity
  8
1
100
AcDbSpline
210
0.0
220
0.0
230
1.0
 70
     8
 71
     5
 72
    48
 73
    42
 74
     0
 42
0.000000001
 43
0.0000000001
 40
0.0
 40
0.0
 40
0.0
 40
0.0
 40
0.0
 40
0.0
 40
0.3198661705458571
 40
0.3198661705458571
 40
0.3198661705458571
 40
0.6696801975943824
 40
0.6696801975943824
 40
0.6696801975943824
 40
2.010560355081944
 40
2.010560355081944
 40
2.010560355081944
 40
3.436661003234363
 40
3.436661003234363
 40
3.436661003234363
 40
4.049591206378432
 40
4.049591206378432
 40
4.049591206378432
 40
4.355237017015363
 40
4.355237017015363
 40
4.355237017015363
 40
4.508073613891577
 40
4.508073613891577
 40
4.508073613891577
 40
4.660910210767791
 40
4.660910210767791
 40
4.660910210767791
 40
4.986831869434028
 40
4.986831869434028
 40
4.986831869434028
 40
5.291269278112456
 40
5.291269278112456
 40
5.291269278112456
 40
5.604524205093471
 40
5.604524205093471
 40
5.604524205093471
 40
5.917779132074485
 40
5.917779132074485
 40
5.917779132074485
 40
6.145679240108846
 40
6.145679240108846
 40
6.145679240108846
 40
6.145679240108846
 40
6.145679240108846
 40
6.145679240108846
 10
6.871109078047227
 20
3.878186911834745
 30
0.0
 10
6.838826983452378
 20
3.880003798038671
 30
0.0
 10
6.807408850149016
 20
3.882203556549312
 30
0.0
 10
6.766779083704959
 20
3.885755974327253
 30
0.0
 10
6.707022222321683
 20
3.891990961173688
 30
0.0
 10
6.653263118664341
 20
3.899664024772618
 30
0.0
 10
6.628335583614415
 20
3.903702074002865
 30
0.0
 10
6.499896750521627
 20
3.927654362077305
 30
0.0
 10
6.408501199637582
 20
3.96042775182974
 30
0.0
 10
6.362554739113502
 20
3.990274096948326
 30
0.0
 10
6.314271846309763
 20
4.055720971444428
 30
0.0
 10
6.347555222209308
 20
4.12414141286041
 30
0.0
 10
6.381863921418157
 20
4.158916560993361
 30
0.0
 10
6.449646138461758
 20
4.206966470389201
 30
0.0
 10
6.539600547776812
 20
4.252438310227431
 30
0.0
 10
6.56601271241405
 20
4.264766862858038
 30
0.0
 10
6.612659967978259
 20
4.284953276853058
 30
0.0
 10
6.662529246756347
 20
4.304426611763858
 30
0.0
 10
6.679405394028463
 20
4.310803525479683
 30
0.0
 10
6.705057321273526
 20
4.320194057253843
 30
0.0
 10
6.731373841118313
 20
4.329401690494194
 30
0.0
 10
6.740279933075639
 20
4.332471379428341
 30
0.0
 10
6.75739684497219
 20
4.338301440126826
 30
0.0
 10
6.773501791470295
 20
4.343650590315234
 30
0.0
 10
6.781312746993108
 20
4.346211795557732
 30
0.0
 10
6.805607126667182
 20
4.354075291415881
 30
0.0
 10
6.831059183386827
 20
4.361984006513353
 30
0.0
 10
6.844885112705837
 20
4.36621490625566
 30
0.0
 10
6.884762783068397
 20
4.378086615912366
 30
0.0
 10
6.925767899257579
 20
4.389674463811046
 30
0.0
 10
6.945828785065912
 20
4.395206581799524
 30
0.0
 10
6.987020351179211
 20
4.406296081556376
 30
0.0
 10
7.029168055034147
 20
4.417113239302524
 30
0.0
 10
7.050234880977001
 20
4.422405878352091
 30
0.0
 10
7.096765126794962
 20
4.433769543179721
 30
0.0
 10
7.148876246000241
 20
4.445868685879585
 30
0.0
 10
7.175864950972794
 20
4.451980487038039
 30
0.0
 10
7.221973894267902
 20
4.462166701207078
 30
0.0
 10
7.265610225965048
 20
4.471415788767501
 30
0.0
 10
7.283350006056052
 20
4.475106773635332
 30
0.0
 10
7.30043043998441
 20
4.478600681783233
 30
0.0
 10
7.317581477362549
 20
4.482055253894086
 30
0.0
  0
SPLINE
  5
972
330
18
100
AcDbEntity
  8
1
100
AcDbSpline
210
0.0
220
0.0
230
1.0
 70
     8
 71
     5
 72
    15
 73
     9
 74
     0
 42
0.000000001
 43
0.0000000001
 40
0.0
 40
0.0
 40
0.0
 40
0.0
 40
0.0
 40
0.0
 40
11.89906597444728
 40
11.89906597444728
 40
11.89906597444728
 40
13.23219366479078
 40
13.23219366479078
 40
13.23219366479078
 40
13.23219366479078
 40
13.23219366479078
 40
13.23219366479078
 10
9.106415240126151
 20
4.691940453815277
 30
0.0
 10
7.461509049318606
 20
4.61531360788274
 30
0.0
 10
5.818001050920909
 20
4.475928036160438
 30
0.0
 10
4.18219081106659
 20
4.273883530532883
 30
0.0
 10
2.36239505333688
 20
3.987514892048351
 30
0.0
 10
0.5480489575984962
 20
3.640483658313653
 30
0.0
 10
0.3653082021074567
 20
3.60491659390135
 30
0.0
 10
0.1826262461916315
 20
3.568758887733395
 30
0.0
 10
-0.000000000003638
 20
3.532022090449459
 30
0.0
  0
LINE
  5
973
330
18
100
AcDbEntity
  8
1
 48
0.002646
100
AcDbLine
 10
7.699999999996378
 20
4.021606000000076
 30
0.0
 11
7.699999999996378
 21
3.915783000000086
 31
0.0
  0
LINE
  5
974
330
18
100
AcDbEntity
  8
1
 48
0.006084
100
AcDbLine
 10
7.699999999996378
 20
4.264948000000058
 30
0.0
 11
7.699999999996378
 21
4.021606000000076
 31
0.0
  0
SPLINE
  5
975
330
18
100
AcDbEntity
  8
1
100
AcDbSpline
210
0.0
220
0.0
230
1.0
 70
     8
 71
     5
 72
    21
 73
    15
 74
     0
 42
0.000000001
 43
0.0000000001
 40
0.0
 40
0.0
 40
0.0
 40
0.0
 40
0.0
 40
0.0
 40
0.2035732334106264
 40
0.2035732334106264
 40
0.2035732334106264
 40
0.4857650683023229
 40
0.4857650683023229
 40
0.4857650683023229
 40
0.63311602613625
 40
0.63311602613625
 40
0.63311602613625
 40
0.708569652338251
 40
0.708569652338251
 40
0.708569652338251
 40
0.708569652338251
 40
0.708569652338251
 40
0.708569652338251
 10
7.700000000010929
 20
4.264947608744305
 30
0.0
 10
7.700000000010757
 20
4.281227908624771
 30
0.0
 10
7.702957115563179
 20
4.297414906832273
 30
0.0
 10
7.709253578350086
 20
4.313454640295446
 30
0.0
 10
7.731913168176304
 20
4.348274294797477
 30
0.0
 10
7.770703511117487
 20
4.373735215228346
 30
0.0
 10
7.798112703984003
 20
4.384171999032787
 30
0.0
 10
7.842296337848577
 20
4.392856210239131
 30
0.0
 10
7.888745286014142
 20
4.392554814324228
 30
0.0
 10
7.90473370415762
 20
4.391470997664271
 30
0.0
 10
7.929002597820527
 20
4.388487438391337
 30
0.0
 10
7.953107346371581
 20
4.383663034449226
 30
0.0
 10
7.961239568643547
 20
4.381828841456978
 30
0.0
 10
7.969317056767494
 20
4.37980909045217
 30
0.0
 10
7.97735037767674
 20
4.37760936283729
 30
0.0
  0
ARC
  5
976
330
18
100
AcDbEntity
  8
1
100
AcDbCircle
 10
11.72262099999634
 20
18.06621000000012
 30
0.0
 40
14.191726
100
AcDbArc
 50
254.698079
 51
259.422238
  0
SPLINE
  5
977
330
18
100
AcDbEntity
  8
1
100
AcDbSpline
210
0.0
220
0.0
230
1.0
 70
     8
 71
     5
 72
    15
 73
     9
 74
     0
 42
0.000000001
 43
0.0000000001
 40
0.0
 40
0.0
 40
0.0
 40
0.0
 40
0.0
 40
0.0
 40
0.356937826597774
 40
0.356937826597774
 40
0.356937826597774
 40
0.7397913421286486
 40
0.7397913421286486
 40
0.7397913421286486
 40
0.7397913421286486
 40
0.7397913421286486
 40
0.7397913421286486
 10
9.469999999996359
 20
4.174574250594048
 30
0.0
 10
9.451468436846738
 20
4.153053315253031
 30
0.0
 10
9.426077671571448
 20
4.135478435556308
 30
0.0
 10
9.394281449526003
 20
4.12235545545485
 30
0.0
 10
9.322962055774127
 20
4.104169962429466
 30
0.0
 10
9.243112247748824
 20
4.101158916174938
 30
0.0
 10
9.201292339886864
 20
4.102988793208453
 30
0.0
 10
9.159093098963666
 20
4.107870069692864
 30
0.0
 10
9.117447754955804
 20
4.115646021245026
 30
0.0
  0
LINE
  5
978
330
18
100
AcDbEntity
  8
1
 48
0.006879
100
AcDbLine
 10
9.469999999996359
 20
4.174575000000061
 30
0.0
 11
9.469999999996359
 21
4.449744000000066
 31
0.0
  0
LINE
  5
979
330
18
100
AcDbEntity
  8
1
 48
0.005135
100
AcDbLine
 10
9.469999999996359
 20
4.708399000000039
 30
0.0
 11
9.469999999996359
 21
4.913798000000096
 31
0.0
  0
LINE
  5
97A
330
18
100
AcDbEntity
  8
1
 48
0.013638
100
AcDbLine
 10
9.469999999996359
 20
4.17458200000004
 30
0.0
 11
9.469999999996359
 21
3.629044000000078
 31
0.0
  0
LINE
  5
97B
330
18
100
AcDbEntity
  8
1
 48
0.000216
100
AcDbLine
 10
-0.000000000003638
 20
3.532022000000095
 30
0.0
 11
-0.000000000003638
 21
3.540676000000074
 31
0.0
  0
SPLINE
  5
97C
330
18
100
AcDbEntity
  8
1
100
AcDbSpline
210
0.0
220
0.0
230
1.0
 70
     8
 71
     5
 72
    15
 73
     9
 74
     0
 42
0.000000001
 43
0.0000000001
 40
0.0
 40
0.0
 40
0.0
 40
0.0
 40
0.0
 40
0.0
 40
10.83148114726925
 40
10.83148114726925
 40
10.83148114726925
 40
13.55448745206955
 40
13.55448745206955
 40
13.55448745206955
 40
13.55448745206955
 40
13.55448745206955
 40
13.55448745206955
 10
9.325020745202806
 20
4.702568509201398
 30
0.0
 10
7.827537305092587
 20
4.640327787547846
 30
0.0
 10
6.331090383273846
 20
4.525942310821332
 30
0.0
 10
4.846219822841163
 20
4.359922390188671
 30
0.0
 10
2.980298098898316
 20
4.09214111553473
 30
0.0
 10
1.119880153416204
 20
3.757641431454373
 30
0.0
 10
0.7463362703371958
 20
3.687803705628537
 30
0.0
 10
0.3730521868947108
 20
3.615449291101468
 30
0.0
 10
-0.000000000003638
 20
3.540675688733413
 30
0.0
  0
LINE
  5
97D
330
18
100
AcDbEntity
  8
1
 48
0.014744
100
AcDbLine
 10
8.412208999996352
 20
3.977322000000071
 30
0.0
 11
9.001525999996346
 21
3.954086000000073
 31
0.0
  0
LINE
  5
97E
330
18
100
AcDbEntity
  8
1
 48
0.000634
100
AcDbLine
 10
9.469999999996359
 20
2.996977000000071
 30
0.0
 11
9.459271999996387
 21
3.019940000000076
 31
0.0
  0
ARC
  5
97F
330
18
100
AcDbEntity
  8
1
100
AcDbCircle
 10
35.16087499999637
 20
15.81419100000011
 30
0.0
 40
28.710123
100
AcDbArc
 50
204.6149800000026
 51
206.4641100000008
  0
ARC
  5
980
330
18
100
AcDbEntity
  8
1
100
AcDbCircle
 10
8.522586999996377
 20
3.604030000000078
 30
0.0
 40
0.593171
100
AcDbArc
 50
25.12218299999902
 51
36.16181200000017
  0
ARC
  5
981
330
18
100
AcDbEntity
  8
1
100
AcDbCircle
 10
-52.81437700000364
 20
-1.436012999999945
 30
0.0
 40
61.31016500000001
100
AcDbArc
 50
3.239927999997791
 51
4.972505000000125
  0
ARC
  5
982
330
18
100
AcDbEntity
  8
1
100
AcDbCircle
 10
11.58173299999637
 20
-13.82868899999988
 30
0.0
 40
16.17426
100
AcDbArc
 50
97.50203100000041
 51
101.3538019999999
  0
LINE
  5
983
330
18
100
AcDbEntity
  8
1
 48
0.019747
100
AcDbLine
 10
9.469999999996359
 20
2.996978000000069
 30
0.0
 11
9.469999999996359
 21
2.207116000000098
 31
0.0
  0
SPLINE
  5
984
330
18
100
AcDbEntity
  8
1
100
AcDbSpline
210
0.0
220
0.0
230
1.0
 70
     8
 71
     5
 72
    15
 73
     9
 74
     0
 42
0.000000001
 43
0.0000000001
 40
0.0
 40
0.0
 40
0.0
 40
0.0
 40
0.0
 40
0.0
 40
1.774774515805578
 40
1.774774515805578
 40
1.774774515805578
 40
2.951113189842896
 40
2.951113189842896
 40
2.951113189842896
 40
2.951113189842896
 40
2.951113189842896
 40
2.951113189842896
 10
0.2294849829173984
 20
1.493094685585049
 30
0.0
 10
0.213597151979485
 20
1.292147947904823
 30
0.0
 10
0.2002742883529152
 20
1.091788432056034
 30
0.0
 10
0.1929019871276978
 20
0.8921109356203372
 30
0.0
 10
0.1952149724591834
 20
0.561158332316154
 30
0.0
 10
0.2160229104662505
 20
0.2326499861670186
 30
0.0
 10
0.2267061493258211
 20
0.1019733609494438
 30
0.0
 10
0.2385691582837524
 20
-0.0285522347576262
 30
0.0
 10
0.2504221814297409
 20
-0.1592870098908747
 30
0.0
  0
ARC
  5
985
330
18
100
AcDbEntity
  8
1
100
AcDbCircle
 10
-36.48052400000364
 20
-41.14920899999993
 30
0.0
 40
55.039478
100
AcDbArc
 50
47.2026070000006
 51
48.13657699999883
  0
LINE
  5
986
330
18
100
AcDbEntity
  8
1
 48
0.026612
100
AcDbLine
 10
0.9137939999963576
 20
-0.7633319999999344
 30
0.0
 11
1.914765999996376
 21
-0.4011349999998971
 31
0.0
  0
SPLINE
  5
987
330
18
100
AcDbEntity
  8
1
100
AcDbSpline
210
0.0
220
0.0
230
1.0
 70
     8
 71
     5
 72
    12
 73
     6
 74
     0
 42
0.000000001
 43
0.0000000001
 40
0.0
 40
0.0
 40
0.0
 40
0.0
 40
0.0
 40
0.0
 40
11.99860537577961
 40
11.99860537577961
 40
11.99860537577961
 40
11.99860537577961
 40
11.99860537577961
 40
11.99860537577961
 10
1.914765967107284
 20
-0.4011346022654723
 30
0.0
 10
3.192357733222678
 20
0.0621781097915459
 30
0.0
 10
4.47396247812415
 20
0.5293154268999274
 30
0.0
 10
5.754809820346594
 20
0.9959851256166416
 30
0.0
 10
7.041065268780211
 20
1.45646263525947
 30
0.0
 10
8.331195954724961
 20
1.900373115682725
 30
0.0
  0
LINE
  5
988
330
18
100
AcDbEntity
  8
1
 48
0.00362
100
AcDbLine
 10
8.331200999996351
 20
1.900372000000118
 30
0.0
 11
8.397552999996348
 21
2.029058000000074
 31
0.0
  0
ARC
  5
989
330
18
100
AcDbEntity
  8
1
100
AcDbCircle
 10
-1.370870000003634
 20
-0.8864269999999121
 30
0.0
 40
2.287983999999998
100
AcDbArc
 50
357.1037409999998
 51
3.084036999999216
  0
LINE
  5
98A
330
18
100
AcDbEntity
  8
1
 48
0.044236
100
AcDbLine
 10
0.9142249999963496
 20
-1.00208399999991
 30
0.0
 11
2.57850099999635
 21
-0.4011409999998821
 31
0.0
  0
SPLINE
  5
98B
330
18
100
AcDbEntity
  8
1
100
AcDbSpline
210
0.0
220
0.0
230
1.0
 70
     8
 71
     5
 72
    15
 73
     9
 74
     0
 42
0.000000001
 43
0.0000000001
 40
0.0
 40
0.0
 40
0.0
 40
0.0
 40
0.0
 40
0.0
 40
1.358545687770239
 40
1.358545687770239
 40
1.358545687770239
 40
1.707950895829664
 40
1.707950895829664
 40
1.707950895829664
 40
1.707950895829664
 40
1.707950895829664
 40
1.707950895829664
 10
0.1612318891551467
 20
-1.125525306378164
 30
0.0
 10
0.1596016337062736
 20
-0.9751219203574235
 30
0.0
 10
0.1683233631377163
 20
-0.8242650950632537
 30
0.0
 10
0.1887648403563276
 20
-0.6564465360113445
 30
0.0
 10
0.2131800182421273
 20
-0.4669112441913513
 30
0.0
 10
0.236640355324937
 20
-0.2764516210010584
 30
0.0
 10
0.241359362432604
 20
-0.2374446888133548
 30
0.0
 10
0.2459645406584627
 20
-0.1983912813249731
 30
0.0
 10
0.2504262051368471
 20
-0.1592893349467772
 30
0.0
  0
ARC
  5
98C
330
18
100
AcDbEntity
  8
1
100
AcDbCircle
 10
3.330614999996356
 20
-18.11722899999989
 30
0.0
 40
17.28484599999999
100
AcDbArc
 50
98.03619500000037
 51
100.5660159999987
  0
SPLINE
  5
98D
330
18
100
AcDbEntity
  8
1
100
AcDbSpline
210
0.0
220
0.0
230
1.0
 70
     8
 71
     5
 72
    15
 73
     9
 74
     0
 42
0.000000001
 43
0.0000000001
 40
0.0
 40
0.0
 40
0.0
 40
0.0
 40
0.0
 40
0.0
 40
1.227149349037635
 40
1.227149349037635
 40
1.227149349037635
 40
1.545841578526768
 40
1.545841578526768
 40
1.545841578526768
 40
1.545841578526768
 40
1.545841578526768
 40
1.545841578526768
 10
0.1612318891551467
 20
4.314887485105656
 30
0.0
 10
0.1595914122045769
 20
4.406468253137973
 30
0.0
 10
0.1684445524253135
 20
4.502753768961268
 30
0.0
 10
0.1889802209836375
 20
4.61492025933995
 30
0.0
 10
0.2132346310936555
 20
4.740705866639641
 30
0.0
 10
0.2365861050275271
 20
4.866991950212026
 30
0.0
 10
0.2413216332305126
 20
4.893039763612193
 30
0.0
 10
0.2459450335563247
 20
4.919093317043631
 30
0.0
 10
0.2504262051369608
 20
4.945147024706101
 30
0.0
  0
ARC
  5
98E
330
18
100
AcDbEntity
  8
1
100
AcDbCircle
 10
15.98100699999636
 20
-25.04125299999993
 30
0.0
 40
33.347451
100
AcDbArc
 50
116.8599869999993
 51
118.3200360000012
  0
ARC
  5
98F
330
18
100
AcDbEntity
  8
1
100
AcDbCircle
 10
0.1906029999963721
 20
4.773938000000096
 30
0.0
 40
0.726514
100
AcDbArc
 50
354.833468999998
 51
5.455338000000276
  0
ARC
  5
990
330
18
100
AcDbEntity
  8
1
100
AcDbCircle
 10
1.811624999996379
 20
12.87054800000004
 30
0.0
 40
8.07765
100
AcDbArc
 50
258.8562150000005
 51
263.6183449999999
  0
LINE
  5
991
330
18
100
AcDbEntity
  8
1
 48
0.00035
100
AcDbLine
 10
-0.000000000003638
 20
-1.386135999999907
 30
0.0
 11
-0.000000000003638
 21
-1.372135999999898
 31
0.0
  0
SPLINE
  5
992
330
18
100
AcDbEntity
  8
1
100
AcDbSpline
210
0.0
220
0.0
230
1.0
 70
     8
 71
     5
 72
    15
 73
     9
 74
     0
 42
0.000000001
 43
0.0000000001
 40
0.0
 40
0.0
 40
0.0
 40
0.0
 40
0.0
 40
0.0
 40
12.66975135630594
 40
12.66975135630594
 40
12.66975135630594
 40
14.06692242482026
 40
14.06692242482026
 40
14.06692242482026
 40
14.06692242482026
 40
14.06692242482026
 40
14.06692242482026
 10
9.469999999996359
 20
1.418649008744123
 30
0.0
 10
7.751162532376809
 20
0.9254310715857627
 30
0.0
 10
6.035049170153937
 20
0.4123625843968173
 30
0.0
 10
4.380316289086835
 20
-0.0911244821657533
 30
0.0
 10
2.475782460213818
 20
-0.6663636657382313
 30
0.0
 10
0.5684961572046632
 20
-1.221915859378043
 30
0.0
 10
0.3790289225094341
 20
-1.27688572169444
 30
0.0
 10
0.1895309725444463
 20
-1.331630715831975
 30
0.0
 10
-0.000000000003638
 20
-1.386135600938985
 30
0.0
  0
LINE
  5
993
330
18
100
AcDbEntity
  8
1
 48
0.000332
100
AcDbLine
 10
9.469999999996359
 20
1.418649000000073
 30
0.0
 11
9.469999999996359
 21
1.431917000000053
 31
0.0
  0
SPLINE
  5
994
330
18
100
AcDbEntity
  8
1
100
AcDbSpline
210
0.0
220
0.0
230
1.0
 70
     8
 71
     5
 72
    15
 73
     9
 74
     0
 42
0.000000001
 43
0.0000000001
 40
0.0
 40
0.0
 40
0.0
 40
0.0
 40
0.0
 40
0.0
 40
12.68873554240223
 40
12.68873554240223
 40
12.68873554240223
 40
14.08597788466565
 40
14.08597788466565
 40
14.08597788466565
 40
14.08597788466565
 40
14.08597788466565
 40
14.08597788466565
 10
9.469999999996415
 20
1.431917112403823
 30
0.0
 10
7.748504463116915
 20
0.9385623312280133
 30
0.0
 10
6.029765739893293
 20
0.425093169730019
 30
0.0
 10
4.385487228860341
 20
-0.0752293060518241
 30
0.0
 10
2.478371650680315
 20
-0.6512269253607315
 30
0.0
 10
0.5685393060388151
 20
-1.207801591018494
 30
0.0
 10
0.3790665529825787
 20
-1.26280403986021
 30
0.0
 10
0.1895634568733158
 20
-1.31758452421127
 30
0.0
 10
0.0000277011390324
 20
-1.372127699336431
 30
0.0
  0
LINE
  5
995
330
18
100
AcDbEntity
  8
1
 48
0.052731
100
AcDbLine
 10
-0.000000000003638
 20
-3.495334999999896
 30
0.0
 11
-0.000000000003638
 21
-1.386087999999915
 31
0.0
  0
ARC
  5
996
330
18
100
AcDbEntity
  8
1
100
AcDbCircle
 10
3.785532999996377
 20
-2.321497999999905
 30
0.0
 40
3.963276
100
AcDbArc
 50
197.2275990000001
 51
202.8917379999993
  0
ARC
  5
997
330
18
100
AcDbEntity
  8
1
100
AcDbCircle
 10
-1.392731000003635
 20
-4.505529999999906
 30
0.0
 40
1.65683
100
AcDbArc
 50
16.33515800000071
 51
22.81297099999911
  0
SPLINE
  5
998
330
18
100
AcDbEntity
  8
1
100
AcDbSpline
210
0.0
220
0.0
230
1.0
 70
     8
 71
     5
 72
    18
 73
    12
 74
     0
 42
0.000000001
 43
0.0000000001
 40
0.0
 40
0.0
 40
0.0
 40
0.0
 40
0.0
 40
0.0
 40
5.897927789549665
 40
5.897927789549665
 40
5.897927789549665
 40
13.30512198098426
 40
13.30512198098426
 40
13.30512198098426
 40
14.79371224762937
 40
14.79371224762937
 40
14.79371224762937
 40
14.79371224762937
 40
14.79371224762937
 40
14.79371224762937
 10
0.1972572708939424
 20
-4.039525821947279
 30
0.0
 10
0.8479207886566085
 20
-3.888970476143981
 30
0.0
 10
1.498066586449479
 20
-3.730030800953271
 30
0.0
 10
2.144416195548473
 20
-3.564176113655548
 30
0.0
 10
3.608031285954011
 20
-3.171253442841417
 30
0.0
 10
5.069150012202467
 20
-2.744939055025838
 30
0.0
 10
5.875452323824474
 20
-2.500691025571768
 30
0.0
 10
6.851999094583245
 20
-2.196674742927029
 30
0.0
 10
7.827363687039651
 20
-1.883372577000215
 30
0.0
 10
7.990469257931437
 20
-1.830712587685524
 30
0.0
 10
8.153709795140827
 20
-1.777720822770331
 30
0.0
 10
8.316708365377762
 20
-1.724546498233905
 30
0.0
  0
LINE
  5
999
330
18
100
AcDbEntity
  8
1
 48
0.00095
100
AcDbLine
 10
8.334403999996339
 20
-1.690906999999923
 30
0.0
 11
8.316706999996339
 21
-1.724545999999918
 31
0.0
  0
ARC
  5
99A
330
18
100
AcDbEntity
  8
1
100
AcDbCircle
 10
8.928051999996368
 20
33.89532600000013
 30
0.0
 40
35.591201
100
AcDbArc
 50
267.0883949999997
 51
269.0442830000005
  0
SPLINE
  5
99B
330
18
100
AcDbEntity
  8
1
100
AcDbSpline
210
0.0
220
0.0
230
1.0
 70
     8
 71
     5
 72
    60
 73
    54
 74
     0
 42
0.000000001
 43
0.0000000001
 40
0.0
 40
0.0
 40
0.0
 40
0.0
 40
0.0
 40
0.0
 40
0.1917907079538505
 40
0.1917907079538505
 40
0.1917907079538505
 40
0.3882532154329066
 40
0.3882532154329066
 40
0.3882532154329066
 40
0.7675614051260057
 40
0.7675614051260057
 40
0.7675614051260057
 40
0.9473713152330059
 40
0.9473713152330059
 40
0.9473713152330059
 40
1.127181225340004
 40
1.127181225340004
 40
1.127181225340004
 40
2.38206224673511
 40
2.38206224673511
 40
2.38206224673511
 40
3.70319222697074
 40
3.70319222697074
 40
3.70319222697074
 40
4.370094640488034
 40
4.370094640488034
 40
4.370094640488034
 40
4.707456986302045
 40
4.707456986302045
 40
4.707456986302045
 40
4.876140719237728
 40
4.876140719237728
 40
4.876140719237728
 40
5.04482445217341
 40
5.04482445217341
 40
5.04482445217341
 40
5.389216807676316
 40
5.389216807676316
 40
5.389216807676316
 40
5.559576917979907
 40
5.559576917979907
 40
5.559576917979907
 40
5.729937028283499
 40
5.729937028283499
 40
5.729937028283499
 40
5.902166723102936
 40
5.902166723102936
 40
5.902166723102936
 40
6.074396417922371
 40
6.074396417922371
 40
6.074396417922371
 40
6.817674193442752
 40
6.817674193442752
 40
6.817674193442752
 40
6.817674193442752
 40
6.817674193442752
 40
6.817674193442752
 10
7.120188235942547
 20
-1.649945125378792
 30
0.0
 10
7.098488984120848
 20
-1.645916830499857
 30
0.0
 10
7.077098048163549
 20
-1.641669409988423
 30
0.0
 10
7.056397135131957
 20
-1.6373125785513
 30
0.0
 10
7.01540142713102
 20
-1.628117214987526
 30
0.0
 10
6.975092473272668
 20
-1.617886989372093
 30
0.0
 10
6.956862682695287
 20
-1.613008991025083
 30
0.0
 10
6.896916841532087
 20
-1.596074724429058
 30
0.0
 10
6.839614793253502
 20
-1.576985595309395
 30
0.0
 10
6.801048529582686
 20
-1.562659669460003
 30
0.0
 10
6.749282674048202
 20
-1.541253734354254
 30
0.0
 10
6.702573898957068
 20
-1.518916139169274
 30
0.0
 10
6.688033332707759
 20
-1.511610244216965
 30
0.0
 10
6.659201314266537
 20
-1.496408491774559
 30
0.0
 10
6.631082073297902
 20
-1.48013614294274
 30
0.0
 10
6.617411982103845
 20
-1.471827735179715
 30
0.0
 10
6.511593585623327
 20
-1.404286932702575
 30
0.0
 10
6.431173869979002
 20
-1.326766759587258
 30
0.0
 10
6.383117726754702
 20
-1.25439270157085
 30
0.0
 10
6.322738186194584
 20
-1.099619943836444
 30
0.0
 10
6.331960963208388
 20
-0.9390461893215727
 30
0.0
 10
6.352089466766387
 20
-0.8564549301915461
 30
0.0
 10
6.400294211189615
 20
-0.7339638747657205
 30
0.0
 10
6.471309194071094
 20
-0.6139161137293172
 30
0.0
 10
6.497501008175759
 20
-0.5738784078528738
 30
0.0
 10
6.539755205631507
 20
-0.5144624675280625
 30
0.0
 10
6.587234276434767
 20
-0.4548102527849667
 30
0.0
 10
6.603767499182906
 20
-0.434726926329063
 30
0.0
 10
6.629256108257179
 20
-0.4047170520661896
 30
0.0
 10
6.655610867681132
 20
-0.3750257388548448
 30
0.0
 10
6.664482615892751
 20
-0.3651722987955281
 30
0.0
 10
6.682383580260903
 20
-0.3455662595519584
 30
0.0
 10
6.70059573333421
 20
-0.3261546625171263
 30
0.0
 10
6.709713928548666
 20
-0.316557515026318
 30
0.0
 10
6.738137827169937
 20
-0.2870607549569399
 30
0.0
 10
6.76654340973701
 20
-0.2585876478059959
 30
0.0
 10
6.781925964169117
 20
-0.2434229490901885
 30
0.0
 10
6.806937049553281
 20
-0.2193664460349396
 30
0.0
 10
6.835348370049673
 20
-0.1928831728511113
 30
0.0
 10
6.845248366669379
 20
-0.1837316945169505
 30
0.0
 10
6.865920729758924
 20
-0.1647695461214766
 30
0.0
 10
6.886967225703557
 20
-0.1458399718955547
 30
0.0
 10
6.897541615432571
 20
-0.1364231571029677
 30
0.0
 10
6.918988340969491
 20
-0.1175005776731268
 30
0.0
 10
6.940740369458607
 20
-0.0986604222388792
 30
0.0
 10
6.951751448379155
 20
-0.0892095619053066
 30
0.0
 10
6.973920469561361
 20
-0.0703505597953722
 30
0.0
 10
6.996377229843147
 20
-0.0515770115327428
 30
0.0
 10
7.007729144397869
 20
-0.0421723845815905
 30
0.0
 10
7.067775896368432
 20
0.0072162054065643
 30
0.0
 10
7.132380517266682
 20
0.0579745049312237
 30
0.0
 10
7.20997021021779
 20
0.1167996941548495
 30
0.0
 10
7.263404126701487
 20
0.1558594250879537
 30
0.0
 10
7.317581477362549
 20
0.1944254836175787
 30
0.0
  0
ARC
  5
99C
330
18
100
AcDbEntity
  8
1
100
AcDbCircle
 10
15.30257199999639
 20
-12.06202799999988
 30
0.0
 40
14.628083
100
AcDbArc
 50
121.313757
 51
123.0839509999984
  0
LINE
  5
99D
330
18
100
AcDbEntity
  8
1
 48
0.000929
100
AcDbLine
 10
7.699999999996378
 20
0.435245000000066
 30
0.0
 11
7.699999999996378
 21
0.4723850000000879
 31
0.0
  0
ARC
  5
99E
330
18
100
AcDbEntity
  8
1
100
AcDbCircle
 10
7.989999999996342
 20
0.4723850000000879
 30
0.0
 40
0.29
100
AcDbArc
 50
92.50000000000021
 51
180.0
  0
LINE
  5
99F
330
18
100
AcDbEntity
  8
1
 48
0.007771
100
AcDbLine
 10
8.287912999996335
 20
0.7756690000000504
 30
0.0
 11
7.977349999996332
 21
0.7621090000000664
 31
0.0
  0
ARC
  5
9A0
330
18
100
AcDbEntity
  8
1
100
AcDbCircle
 10
16.95952999999636
 20
-15.00180399999993
 30
0.0
 40
18.003563
100
AcDbArc
 50
114.5823869999995
 51
118.7940839999986
  0
LINE
  5
9A1
330
18
100
AcDbEntity
  8
1
 48
0.001215
100
AcDbLine
 10
9.469997999996362
 20
1.41865600000011
 30
0.0
 11
9.469993999996377
 21
1.370057000000088
 31
0.0
  0
LINE
  5
9A2
330
18
100
AcDbEntity
  8
1
 48
0.012087
100
AcDbLine
 10
8.77119399999637
 20
0.7967690000000971
 30
0.0
 11
8.288163999996385
 21
0.7756800000000795
 31
0.0
  0
LINE
  5
9A3
330
18
100
AcDbEntity
  8
1
 48
0.018977
100
AcDbLine
 10
8.77119399999637
 20
0.7967690000000971
 30
0.0
 11
9.469999999996359
 21
1.093168000000045
 31
0.0
  0
LINE
  5
9A4
330
18
100
AcDbEntity
  8
1
 48
0.006921
100
AcDbLine
 10
9.469999999996359
 20
1.093168000000045
 30
0.0
 11
9.469999999996359
 21
1.370004000000051
 31
0.0
  0
LINE
  5
9A5
330
18
100
AcDbEntity
  8
1
 48
0.008665
100
AcDbLine
 10
8.77119399999637
 20
0.7967690000000971
 30
0.0
 11
9.117447999996356
 21
0.8118870000001264
 31
0.0
  0
ARC
  5
9A6
330
18
100
AcDbEntity
  8
1
100
AcDbCircle
 10
9.099999999996356
 20
1.211506000000041
 30
0.0
 40
0.4
100
AcDbArc
 50
272.5000000000002
 51
337.6684489999994
  0
LINE
  5
9A7
330
18
100
AcDbEntity
  8
1
 48
0.000841
100
AcDbLine
 10
9.469998999996363
 20
1.059520000000077
 30
0.0
 11
9.469999999996359
 21
1.093168000000045
 31
0.0
  0
SPLINE
  5
9A8
330
18
100
AcDbEntity
  8
1
100
AcDbSpline
210
0.0
220
0.0
230
1.0
 70
     8
 71
     5
 72
    12
 73
     6
 74
     0
 42
0.000000001
 43
0.0000000001
 40
0.0
 40
0.0
 40
0.0
 40
0.0
 40
0.0
 40
0.0
 40
2.306718738880055
 40
2.306718738880055
 40
2.306718738880055
 40
2.306718738880055
 40
2.306718738880055
 40
2.306718738880055
 10
0.2187107386291132
 20
5.380782362160458
 30
0.0
 10
0.19706122740007
 20
5.2901552347044
 30
0.0
 10
0.184905004287657
 20
5.199508181177916
 30
0.0
 10
0.1954480100087608
 20
5.115291244708146
 30
0.0
 10
0.2229338994075647
 20
5.029465988342336
 30
0.0
 10
0.2504219555882798
 20
4.945140481697818
 30
0.0
  0
ARC
  5
9A9
330
18
100
AcDbEntity
  8
1
100
AcDbCircle
 10
10.64221199999636
 20
-44.50073599999989
 30
0.0
 40
50.293449
100
AcDbArc
 50
96.84718399999972
 51
101.1531690000005
  0
ARC
  5
9AA
330
18
100
AcDbEntity
  8
1
100
AcDbCircle
 10
9.977763999996367
 20
-38.9959409999999
 30
0.0
 40
44.748408
100
AcDbArc
 50
92.10874500000043
 51
96.8428090000007
  0
ARC
  5
9AB
330
18
100
AcDbEntity
  8
1
100
AcDbCircle
 10
3.179166999996339
 20
-40.27945499999993
 30
0.0
 40
45.75601599999997
100
AcDbArc
 50
88.0037079999996
 51
93.70967499999958
  0
ARC
  5
9AC
330
18
100
AcDbEntity
  8
1
100
AcDbCircle
 10
0.5124259999963671
 20
4.638092000000085
 30
0.0
 40
0.7858500000000001
100
AcDbArc
 50
118.7468710000008
 51
130.699899000001
  0
ARC
  5
9AD
330
18
100
AcDbEntity
  8
1
100
AcDbCircle
 10
-0.2631120000036446
 20
6.045150000000089
 30
0.0
 40
0.8207399999999999
100
AcDbArc
 50
298.9733490000013
 51
305.9443439999994
  0
LINE
  5
9AE
330
18
100
AcDbEntity
  8
1
 48
0.002105
100
AcDbLine
 10
7.699999999996378
 20
0.3510820000000763
 30
0.0
 11
7.699999999996378
 21
0.4352880000000712
 31
0.0
  0
LINE
  5
9AF
330
18
100
AcDbEntity
  8
1
 48
0.010331
100
AcDbLine
 10
7.317560999996342
 20
0.1945050000001061
 30
0.0
 11
7.699999999996378
 21
0.3510820000000763
 31
0.0
  0
ARC
  5
9B0
330
18
100
AcDbEntity
  8
1
100
AcDbCircle
 10
8.70530599999634
 20
-1.189241999999918
 30
0.0
 40
0.394941
100
AcDbArc
 50
49.37665899999778
 51
87.60221499999978
  0
LINE
  5
9B1
330
18
100
AcDbEntity
  8
1
 48
0.01863
100
AcDbLine
 10
8.721830999996342
 20
-0.7946139999999105
 30
0.0
 11
7.977349999996332
 21
-0.7621089999999528
 31
0.0
  0
ARC
  5
9B2
330
18
100
AcDbEntity
  8
1
100
AcDbCircle
 10
7.989999999996342
 20
-0.4723849999999177
 30
0.0
 40
0.29
100
AcDbArc
 50
180.0
 51
267.4999999999998
  0
LINE
  5
9B3
330
18
100
AcDbEntity
  8
1
 48
0.01181
100
AcDbLine
 10
7.699999999996378
 20
0.0000000000000568
 30
0.0
 11
7.699999999996378
 21
-0.4723849999999177
 31
0.0
  0
LINE
  5
9B4
330
18
100
AcDbEntity
  8
1
 48
0.008777
100
AcDbLine
 10
7.699999999996378
 20
0.3510820000000763
 30
0.0
 11
7.699999999996378
 21
0.0000000000000568
 31
0.0
  0
ARC
  5
9B5
330
18
100
AcDbEntity
  8
1
100
AcDbCircle
 10
-44.74072600000363
 20
126.5984480000001
 30
0.0
 40
138.337289
100
AcDbArc
 50
292.0173570000008
 51
292.8428200000006
  0
LINE
  5
9B6
330
18
100
AcDbEntity
  8
1
 48
0.005951
100
AcDbLine
 10
9.063939999996335
 20
-1.027026999999917
 30
0.0
 11
9.156317999996332
 21
-1.246419999999885
 31
0.0
  0
ARC
  5
9B7
330
18
100
AcDbEntity
  8
1
100
AcDbCircle
 10
8.707443999996343
 20
-1.183924999999874
 30
0.0
 40
0.389489
100
AcDbArc
 50
23.75487299999992
 51
49.10608700000057
  0
ARC
  5
9B8
330
18
100
AcDbEntity
  8
1
100
AcDbCircle
 10
-1.853637000003629
 20
18.13314100000008
 30
0.0
 40
22.288735
100
AcDbArc
 50
297.1996640000003
 51
299.6018610000009
  0
LINE
  5
9B9
330
18
100
AcDbEntity
  8
1
 48
0.000654
100
AcDbLine
 10
9.469999999996359
 20
-1.949962999999909
 30
0.0
 11
9.459984999996351
 21
-1.92579699999993
 31
0.0
  0
LINE
  5
9BA
330
18
100
AcDbEntity
  8
1
 48
0.018604
100
AcDbLine
 10
9.459985999996346
 20
-1.925795999999934
 30
0.0
 11
9.156317999996332
 21
-1.246419999999885
 31
0.0
  0
ARC
  5
9BB
330
18
100
AcDbEntity
  8
1
100
AcDbCircle
 10
-65.78147200000362
 20
-6.517229999999925
 30
0.0
 40
74.252937
100
AcDbArc
 50
2.555665999999923
 51
3.700746999998818
  0
ARC
  5
9BC
330
18
100
AcDbEntity
  8
1
100
AcDbCircle
 10
29.57295899999636
 20
-39.30994299999993
 30
0.0
 40
41.855323
100
AcDbArc
 50
118.7047820000006
 51
120.3923499999998
  0
LINE
  5
9BD
330
18
100
AcDbEntity
  8
1
 48
0.016211
100
AcDbLine
 10
9.469999999996359
 20
-1.949961999999914
 30
0.0
 11
9.469999999996359
 21
-2.598411999999882
 31
0.0
  0
ARC
  5
9BE
330
18
100
AcDbEntity
  8
1
100
AcDbCircle
 10
5.332847999996347
 20
-3.855233999999938
 30
0.0
 40
5.139230999999996
100
AcDbArc
 50
182.0557789999998
 51
188.5770359999997
  0
ARC
  5
9BF
330
18
100
AcDbEntity
  8
1
100
AcDbCircle
 10
-6.494445000003651
 20
-14.5414879999999
 30
0.0
 40
11.995648
100
AcDbArc
 50
51.86089899999824
 51
55.78636099999967
  0
SPLINE
  5
9C0
330
18
100
AcDbEntity
  8
1
100
AcDbSpline
210
0.0
220
0.0
230
1.0
 70
     8
 71
     5
 72
    18
 73
    12
 74
     0
 42
0.000000001
 43
0.0000000001
 40
0.0
 40
0.0
 40
0.0
 40
0.0
 40
0.0
 40
0.0
 40
2.81321280254427
 40
2.81321280254427
 40
2.81321280254427
 40
8.35755927488088
 40
8.35755927488088
 40
8.35755927488088
 40
13.92209630652472
 40
13.92209630652472
 40
13.92209630652472
 40
13.92209630652472
 40
13.92209630652472
 40
13.92209630652472
 10
0.9137935759421791
 20
-5.106678005866283
 30
0.0
 10
1.220795759587559
 20
-5.05530091576594
 30
0.0
 10
1.5275074357653
 20
-5.001487476020827
 30
0.0
 10
1.82235396270917
 20
-4.947743052702037
 30
0.0
 10
2.733020599510183
 20
-4.77470533424929
 30
0.0
 10
3.628848586214556
 20
-4.584836905290728
 30
0.0
 10
4.2095240685139
 20
-4.453667608408578
 30
0.0
 10
5.368788221446465
 20
-4.177040184039981
 30
0.0
 10
6.534957959343642
 20
-3.869587619345053
 30
0.0
 10
7.127024859674831
 20
-3.706630091436011
 30
0.0
 10
7.729394124887079
 20
-3.534030358600773
 30
0.0
 10
8.331195954724961
 20
-3.355868754087963
 30
0.0
  0
LINE
  5
9C1
330
18
100
AcDbEntity
  8
1
 48
0.004091
100
AcDbLine
 10
8.331200999996351
 20
-3.355870999999921
 30
0.0
 11
8.397552999996348
 21
-3.206294999999896
 31
0.0
  0
ARC
  5
9C2
330
18
100
AcDbEntity
  8
1
100
AcDbCircle
 10
9.161033999996362
 20
2.863843000000087
 30
0.0
 40
0.370183
100
AcDbArc
 50
33.40079499999947
 51
51.04933300000075
  0
SPLINE
  5
9C3
330
18
100
AcDbEntity
  8
1
100
AcDbSpline
210
0.0
220
0.0
230
1.0
 70
     8
 71
     5
 72
    15
 73
     9
 74
     0
 42
0.000000001
 43
0.0000000001
 40
0.0
 40
0.0
 40
0.0
 40
0.0
 40
0.0
 40
0.0
 40
1.16627603056292
 40
1.16627603056292
 40
1.16627603056292
 40
1.463398803415149
 40
1.463398803415149
 40
1.463398803415149
 40
1.463398803415149
 40
1.463398803415149
 40
1.463398803415149
 10
0.1612318891551467
 20
-4.975442644017164
 30
0.0
 10
0.1596101667037146
 20
-4.914303972823346
 30
0.0
 10
0.1682225515951927
 20
-4.857085797508204
 30
0.0
 10
0.188631921297997
 20
-4.797747435384565
 30
0.0
 10
0.2131215426962569
 20
-4.730864201814653
 30
0.0
 10
0.2366782191049594
 20
-4.663276665325668
 30
0.0
 10
0.2413825838749801
 20
-4.649509871445786
 30
0.0
 10
0.2459751401008532
 20
-4.635688044649268
 30
0.0
 10
0.2504262051369039
 20
-4.621802841293913
 30
0.0
  0
ARC
  5
9C4
330
18
100
AcDbEntity
  8
1
100
AcDbCircle
 10
-18.13006200000365
 20
-64.20397899999993
 30
0.0
 40
61.988652
100
AcDbArc
 50
72.10812000000159
 51
72.83805899999912
  0
ARC
  5
9C5
330
18
100
AcDbEntity
  8
1
100
AcDbCircle
 10
0.4595589999963752
 20
-5.161872999999957
 30
0.0
 40
0.4575510000000003
100
AcDbArc
 50
353.5575129999996
 51
6.928119000000747
  0
LINE
  5
9C6
330
18
100
AcDbEntity
  8
1
 48
0.009605
100
AcDbLine
 10
9.469999999996359
 20
-2.899339999999881
 30
0.0
 11
9.096077999996367
 21
-2.987596999999878
 31
0.0
  0
LINE
  5
9C7
330
18
100
AcDbEntity
  8
1
 48
0.0003
100
AcDbLine
 10
9.469999999996359
 20
-2.899339999999881
 30
0.0
 11
9.469999999996359
 21
-2.88733899999994
 31
0.0
  0
LINE
  5
9C8
330
18
100
AcDbEntity
  8
1
 48
0.009047
100
AcDbLine
 10
9.469999999996359
 20
-2.88733899999994
 30
0.0
 11
9.117853999996356
 21
-2.970686999999941
 31
0.0
  0
LINE
  5
9C9
330
18
100
AcDbEntity
  8
1
 48
0.009045
100
AcDbLine
 10
-0.000000000003638
 20
-5.208538999999913
 30
0.0
 11
-0.000000000003638
 21
-4.846726999999927
 31
0.0
  0
ARC
  5
9CA
330
18
100
AcDbEntity
  8
1
100
AcDbCircle
 10
0.4179619999963509
 20
-4.593457999999881
 30
0.0
 40
0.7437070000000002
100
AcDbArc
 50
235.8029779999987
 51
247.5937800000009
  0
LINE
  5
9CB
330
18
100
AcDbEntity
  8
1
 48
0.001937
100
AcDbLine
 10
0.1344589999963546
 20
-5.281073999999931
 30
0.0
 11
0.2049809999963656
 21
-5.313170999999954
 31
0.0
  0
ARC
  5
9CC
330
18
100
AcDbEntity
  8
1
100
AcDbCircle
 10
3.839654999996383
 20
40.63382300000006
 30
0.0
 40
46.090488
100
AcDbArc
 50
265.4769899999997
 51
271.2829269999997
  0
ARC
  5
9CD
330
18
100
AcDbEntity
  8
1
100
AcDbCircle
 10
3.810154999996342
 20
41.4478880000001
 30
0.0
 40
46.905023
100
AcDbArc
 50
271.2966889999997
 51
275.4797170000005
  0
LINE
  5
9CE
330
18
100
AcDbEntity
  8
1
 48
0.001546
100
AcDbLine
 10
8.337643999996345
 20
-5.204303999999922
 30
0.0
 11
8.28927699999636
 21
-5.242814999999893
 31
0.0
  0
ARC
  5
9CF
330
18
100
AcDbEntity
  8
1
100
AcDbCircle
 10
19.08406899999639
 20
103.4977710000001
 30
0.0
 40
109.232005
100
AcDbArc
 50
263.7119370000008
 51
264.3540120000007
  0
SPLINE
  5
9D0
330
18
100
AcDbEntity
  8
1
100
AcDbSpline
210
0.0
220
0.0
230
1.0
 70
     8
 71
     5
 72
    57
 73
    51
 74
     0
 42
0.000000001
 43
0.0000000001
 40
0.0
 40
0.0
 40
0.0
 40
0.0
 40
0.0
 40
0.0
 40
0.191564317848456
 40
0.191564317848456
 40
0.191564317848456
 40
0.3926270809593849
 40
0.3926270809593849
 40
0.3926270809593849
 40
0.7683629622408298
 40
0.7683629622408298
 40
0.7683629622408298
 40
0.9460823011006079
 40
0.9460823011006079
 40
0.9460823011006079
 40
1.123801639960384
 40
1.123801639960384
 40
1.123801639960384
 40
1.479186499169688
 40
1.479186499169688
 40
1.479186499169688
 40
2.774321133363658
 40
2.774321133363658
 40
2.774321133363658
 40
3.841323049160759
 40
3.841323049160759
 40
3.841323049160759
 40
4.486391842955573
 40
4.486391842955573
 40
4.486391842955573
 40
4.816659258463632
 40
4.816659258463632
 40
4.816659258463632
 40
5.174236975565387
 40
5.174236975565387
 40
5.174236975565387
 40
5.528369381953615
 40
5.528369381953615
 40
5.528369381953615
 40
5.856553143060947
 40
5.856553143060947
 40
5.856553143060947
 40
6.203555787189552
 40
6.203555787189552
 40
6.203555787189552
 40
6.542853155596039
 40
6.542853155596039
 40
6.542853155596039
 40
6.731280435924837
 40
6.731280435924837
 40
6.731280435924837
 40
6.731280435924837
 40
6.731280435924837
 40
6.731280435924837
 10
7.120188235942547
 20
-5.07709080355886
 30
0.0
 10
7.098514704611176
 20
-5.073065488636018
 30
0.0
 10
7.077141279185383
 20
-5.068946112595027
 30
0.0
 10
7.056450620966272
 20
-5.064824914704386
 30
0.0
 10
7.014948382679985
 20
-5.05624450082763
 30
0.0
 10
6.974113293141752
 20
-5.047133250485043
 30
0.0
 10
6.95787591452867
 20
-5.043391368168212
 30
0.0
 10
6.897616103661588
 20
-5.02902043056133
 30
0.0
 10
6.83992154075716
 20
-5.013637804138454
 30
0.0
 10
6.799934050037535
 20
-5.002110244360038
 30
0.0
 10
6.748369220849579
 20
-4.986011300903157
 30
0.0
 10
6.701761522553539
 20
-4.969742759817619
 30
0.0
 10
6.687259042770648
 20
-4.964480439534611
 30
0.0
 10
6.658454797651785
 20
-4.953620238592691
 30
0.0
 10
6.630312902305632
 20
-4.942175643926757
 30
0.0
 10
6.616635355322357
 20
-4.936381699590754
 30
0.0
 10
6.576785656054567
 20
-4.918794378102004
 30
0.0
 10
6.540467701923461
 20
-4.900589103533374
 30
0.0
 10
6.517905320590472
 20
-4.888197569623571
 30
0.0
 10
6.421018939718662
 20
-4.82974862635234
 30
0.0
 10
6.360460681078079
 20
-4.767501766700545
 30
0.0
 10
6.334984297431303
 20
-4.716666432256545
 30
0.0
 10
6.323124790167097
 20
-4.624058383265833
 30
0.0
 10
6.362915570369493
 20
-4.531190810426664
 30
0.0
 10
6.389802571575017
 20
-4.489192272260709
 30
0.0
 10
6.444461647342138
 20
-4.422534278815021
 30
0.0
 10
6.515223161417992
 20
-4.356517115670555
 30
0.0
 10
6.54490055455605
 20
-4.330891383423646
 30
0.0
 10
6.592050489240503
 20
-4.292967077536501
 30
0.0
 10
6.643319712409919
 20
-4.255085050921876
 30
0.0
 10
6.661061416152249
 20
-4.242313589421311
 30
0.0
 10
6.69858458892392
 20
-4.215971883772795
 30
0.0
 10
6.73743868105916
 20
-4.189991249743058
 30
0.0
 10
6.751011979554362
 20
-4.18111175932097
 30
0.0
 10
6.787160771555162
 20
-4.157662982489853
 30
0.0
 10
6.823145954046509
 20
-4.135332887463846
 30
0.0
 10
6.836411935059428
 20
-4.127208248225031
 30
0.0
 10
6.878814491516862
 20
-4.101549826741631
 30
0.0
 10
6.922502973761793
 20
-4.075962728980241
 30
0.0
 10
6.943807429314432
 20
-4.063665940952716
 30
0.0
 10
6.98819663463027
 20
-4.038399765303267
 30
0.0
 10
7.033690899070874
 20
-4.013197531457477
 30
0.0
 10
7.054114463720026
 20
-4.001999301699527
 30
0.0
 10
7.105107818887375
 20
-3.97457957761361
 30
0.0
 10
7.161875449578842
 20
-3.944768586965095
 30
0.0
 10
7.190673267023129
 20
-3.929771693372343
 30
0.0
 10
7.23435639310432
 20
-3.907220291549151
 30
0.0
 10
7.275409739026286
 20
-3.886378159796946
 30
0.0
 10
7.289675256435343
 20
-3.879185877876181
 30
0.0
 10
7.303604956463657
 20
-3.872213778945647
 30
0.0
 10
7.317581477362549
 20
-3.865251260106276
 30
0.0
  0
LINE
  5
9D1
330
18
100
AcDbEntity
  8
1
 48
0.004878
100
AcDbLine
 10
7.317580999996351
 20
-3.865250999999886
 30
0.0
 11
7.49555399999636
 21
-3.785224999999911
 31
0.0
  0
ARC
  5
9D2
330
18
100
AcDbEntity
  8
1
100
AcDbCircle
 10
31.09484399999636
 20
-56.64889199999993
 30
0.0
 40
57.89258499999998
100
AcDbArc
 50
111.9337350000009
 51
112.6708960000002
  0
LINE
  5
9D3
330
18
100
AcDbEntity
  8
1
 48
0.001185
100
AcDbLine
 10
9.469997999996362
 20
-2.899370999999913
 30
0.0
 11
9.469993999996377
 21
-2.946774999999944
 31
0.0
  0
LINE
  5
9D4
330
18
100
AcDbEntity
  8
1
 48
0.005644
100
AcDbLine
 10
7.317560999996342
 20
-3.865476999999883
 30
0.0
 11
7.525298999996348
 21
-3.777064999999936
 31
0.0
  0
LINE
  5
9D5
330
18
100
AcDbEntity
  8
1
 48
0.020549
100
AcDbLine
 10
8.707728999996362
 20
-3.284770999999921
 30
0.0
 11
9.469999999996359
 21
-2.97725099999991
 31
0.0
  0
LINE
  5
9D6
330
18
100
AcDbEntity
  8
1
 48
0.000763
100
AcDbLine
 10
9.469999999996359
 20
-2.97725099999991
 30
0.0
 11
9.469999999996359
 21
-2.946714999999926
 31
0.0
  0
ARC
  5
9D7
330
18
100
AcDbEntity
  8
1
100
AcDbCircle
 10
7.818550999996347
 20
-10.9868449999999
 30
0.0
 40
6.394833
100
AcDbArc
 50
86.29561700000087
 51
88.57706300000003
  0
SPLINE
  5
9D8
330
18
100
AcDbEntity
  8
1
100
AcDbSpline
210
0.0
220
0.0
230
1.0
 70
     8
 71
     5
 72
    18
 73
    12
 74
     0
 42
0.000000001
 43
0.0000000001
 40
0.0
 40
0.0
 40
0.0
 40
0.0
 40
0.0
 40
0.0
 40
0.2486433902306687
 40
0.2486433902306687
 40
0.2486433902306687
 40
0.650239091955416
 40
0.650239091955416
 40
0.650239091955416
 40
0.8044439373496528
 40
0.8044439373496528
 40
0.8044439373496528
 40
0.8044439373496528
 40
0.8044439373496528
 40
0.8044439373496528
 10
7.97735037767589
 20
-4.593977209340494
 30
0.0
 10
7.950036050926797
 20
-4.593285729158933
 30
0.0
 10
7.923152612964912
 20
-4.58943887887159
 30
0.0
 10
7.897463317165005
 20
-4.582788843670073
 30
0.0
 10
7.83281114250829
 20
-4.558672456030532
 30
0.0
 10
7.778484100872361
 20
-4.519201211089978
 30
0.0
 10
7.749897396727106
 20
-4.490057074387606
 30
0.0
 10
7.719321424212151
 20
-4.444364583893103
 30
0.0
 10
7.704341591963012
 20
-4.393541584008687
 30
0.0
 10
7.701450378587337
 20
-4.378923740171842
 30
0.0
 10
7.700000000010817
 20
-4.364281554990665
 30
0.0
 10
7.700000000010929
 20
-4.349542165646369
 30
0.0
  0
LINE
  5
9D9
330
18
100
AcDbEntity
  8
1
 48
0.008198
100
AcDbLine
 10
7.699999999996378
 20
-4.021605999999906
 30
0.0
 11
7.699999999996378
 21
-4.349542999999925
 31
0.0
  0
LINE
  5
9DA
330
18
100
AcDbEntity
  8
1
 48
0.005726
100
AcDbLine
 10
7.699999999996378
 20
-3.792562999999912
 30
0.0
 11
7.699999999996378
 21
-4.021605999999906
 31
0.0
  0
SPLINE
  5
9DB
330
18
100
AcDbEntity
  8
1
100
AcDbSpline
210
0.0
220
0.0
230
1.0
 70
     8
 71
     5
 72
    15
 73
     9
 74
     0
 42
0.000000001
 43
0.0000000001
 40
0.0
 40
0.0
 40
0.0
 40
0.0
 40
0.0
 40
0.0
 40
0.2017173839568167
 40
0.2017173839568167
 40
0.2017173839568167
 40
0.2950991732061888
 40
0.2950991732061888
 40
0.2950991732061888
 40
0.2950991732061888
 40
0.2950991732061888
 40
0.2950991732061888
 10
7.700000000010929
 20
-3.792562213999358
 30
0.0
 10
7.700000000010757
 20
-3.782206160874068
 30
0.0
 10
7.703228279502607
 20
-3.771252210559566
 30
0.0
 10
7.710060197391922
 20
-3.759613951187759
 30
0.0
 10
7.724704799208692
 20
-3.742639293881607
 30
0.0
 10
7.744942030304087
 20
-3.725879418324096
 30
0.0
 10
7.751826249610218
 20
-3.720634780623468
 30
0.0
 10
7.75914886449479
 20
-3.715439998869384
 30
0.0
 10
7.766878481300039
 20
-3.710297226202271
 30
0.0
  0
ARC
  5
9DC
330
18
100
AcDbEntity
  8
1
100
AcDbCircle
 10
12.40256499999637
 20
-17.55764399999992
 30
0.0
 40
14.627553
100
AcDbArc
 50
102.9784319999998
 51
105.6476100000009
  0
SPLINE
  5
9DD
330
18
100
AcDbEntity
  8
1
100
AcDbSpline
210
0.0
220
0.0
230
1.0
 70
     8
 71
     5
 72
    15
 73
     9
 74
     0
 42
0.000000001
 43
0.0000000001
 40
0.0
 40
0.0
 40
0.0
 40
0.0
 40
0.0
 40
0.0
 40
0.4435816369068017
 40
0.4435816369068017
 40
0.4435816369068017
 40
0.7570758253031295
 40
0.7570758253031295
 40
0.7570758253031295
 40
0.7570758253031295
 40
0.7570758253031295
 40
0.7570758253031295
 10
9.469999999996359
 20
-3.115054698027734
 30
0.0
 10
9.447178372608419
 20
-3.144109112742341
 30
0.0
 10
9.41455234639082
 20
-3.174041844405961
 30
0.0
 10
9.374090030844996
 20
-3.202281207518126
 30
0.0
 10
9.30025182776322
 20
-3.243715316402756
 30
0.0
 10
9.219676259231649
 20
-3.275163160495876
 30
0.0
 10
9.185613596965112
 20
-3.286429450476076
 30
0.0
 10
9.151456977078936
 20
-3.295923893861186
 30
0.0
 10
9.117447754955804
 20
-3.303758915740388
 30
0.0
  0
LINE
  5
9DE
330
18
100
AcDbEntity
  8
1
 48
0.003445
100
AcDbLine
 10
9.469999999996359
 20
-3.115054999999926
 30
0.0
 11
9.469999999996359
 21
-2.97725099999991
 31
0.0
  0
ARC
  5
9DF
330
18
100
AcDbEntity
  8
1
100
AcDbCircle
 10
45.26715999999638
 20
-93.41691099999993
 30
0.0
 40
96.22428300000001
100
AcDbArc
 50
112.6367070000001
 51
113.3556959999994
  0
ARC
  5
9E0
330
18
100
AcDbEntity
  8
1
100
AcDbCircle
 10
8.632654999996388
 20
-5.076164999999886
 30
0.0
 40
0.407756
100
AcDbArc
 50
32.35698899999915
 51
78.58431999999897
  0
LINE
  5
9E1
330
18
100
AcDbEntity
  8
1
 48
0.01217
100
AcDbLine
 10
8.231711999996349
 20
-4.605379999999911
 30
0.0
 11
8.713177999996361
 21
-4.677377999999919
 31
0.0
  0
ARC
  5
9E2
330
18
100
AcDbEntity
  8
1
100
AcDbCircle
 10
-8.853715000003631
 20
27.28374900000011
 30
0.0
 40
36.756249
100
AcDbArc
 50
297.8858879999983
 51
299.0211269999999
  0
LINE
  5
9E3
330
18
100
AcDbEntity
  8
1
 48
0.000275
100
AcDbLine
 10
9.469999999996359
 20
-4.997762999999906
 30
0.0
 11
9.459984999996351
 21
-4.993211999999914
 31
0.0
  0
ARC
  5
9E4
330
18
100
AcDbEntity
  8
1
100
AcDbCircle
 10
8.09464799999634
 20
-8.411347999999918
 30
0.0
 40
3.680603
100
AcDbArc
 50
68.22629600000047
 51
74.79254199999998
  0
ARC
  5
9E5
330
18
100
AcDbEntity
  8
1
100
AcDbCircle
 10
9.013594999996339
 20
-5.091244999999901
 30
0.0
 40
0.236327
100
AcDbArc
 50
78.64269100000054
 51
98.67425000000013
  0
ARC
  5
9E6
330
18
100
AcDbEntity
  8
1
100
AcDbCircle
 10
4.609851999996378
 20
-6.367442999999922
 30
0.0
 40
3.847391
100
AcDbArc
 50
10.1022169999998
 51
16.99501700000107
  0
ARC
  5
9E7
330
18
100
AcDbEntity
  8
1
100
AcDbCircle
 10
-10.50303400000362
 20
37.58274200000011
 30
0.0
 40
47.22277899999999
100
AcDbArc
 50
293.593392000001
 51
295.0211670000002
  0
LINE
  5
9E8
330
18
100
AcDbEntity
  8
1
 48
0.005263
100
AcDbLine
 10
9.469999999996359
 20
-4.997771999999882
 30
0.0
 11
9.469999999996359
 21
-5.208287999999924
 31
0.0
  0
ARC
  5
9E9
330
18
100
AcDbEntity
  8
1
100
AcDbCircle
 10
9.973145999996377
 20
38.92706000000004
 30
0.0
 40
44.67939099999997
100
AcDbArc
 50
263.3012080000002
 51
267.8939230000006
  0
LINE
  5
9EA
330
18
100
AcDbEntity
  8
1
 48
0.001815
100
AcDbLine
 10
8.331200999996351
 20
-5.722041999999927
 30
0.0
 11
8.397552999996348
 21
-5.69259999999991
 31
0.0
  0
LINE
  5
9EB
330
18
100
AcDbEntity
  8
1
 48
0.008421
100
AcDbLine
 10
9.460831999996372
 20
-3.125610999999878
 30
0.0
 11
9.292587999996355
 21
-3.417427999999913
 31
0.0
  0
LINE
  5
9EC
330
18
100
AcDbEntity
  8
1
 48
0.000325
100
AcDbLine
 10
9.469999999996359
 20
-3.842224999999928
 30
0.0
 11
9.469999999996359
 21
-3.829215999999917
 31
0.0
  0
LINE
  5
9ED
330
18
100
AcDbEntity
  8
1
 48
0.002354
100
AcDbLine
 10
9.469999999996359
 20
-3.723198999999908
 30
0.0
 11
9.469999999996359
 21
-3.629043999999908
 31
0.0
  0
LINE
  5
9EE
330
18
100
AcDbEntity
  8
1
 48
0.005274
100
AcDbLine
 10
9.469999999996359
 20
4.707761000000061
 30
0.0
 11
9.469999999996359
 21
4.496811000000093
 31
0.0
  0
LINE
  5
9EF
330
18
100
AcDbEntity
  8
1
 48
0.000403
100
AcDbLine
 10
9.469999999996359
 20
4.480687000000044
 30
0.0
 11
9.469999999996359
 21
4.496811000000093
 31
0.0
  0
LINE
  5
9F0
330
18
100
AcDbEntity
  8
SK1
 48
0.000323
100
AcDbLine
 10
-2.500000000003634
 20
-3.38932399999993
 30
0.0
 11
-2.500000000003634
 21
-3.376383999999913
 31
0.0
  0
LINE
  5
9F1
330
18
100
AcDbEntity
  8
SK1
 48
0.010705
100
AcDbLine
 10
-2.500000000003634
 20
-3.376382999999917
 30
0.0
 11
-2.500000000003634
 21
-2.948185999999907
 31
0.0
  0
LINE
  5
9F2
330
18
100
AcDbEntity
  8
SK1
 48
0.00011
100
AcDbLine
 10
-2.500000000003634
 20
-2.948185999999907
 30
0.0
 11
-2.500000000003634
 21
-2.943800999999948
 31
0.0
  0
LINE
  5
9F3
330
18
100
AcDbEntity
  8
SK1
 48
0.031206
100
AcDbLine
 10
-2.500000000003634
 20
-2.943800999999948
 30
0.0
 11
-2.500000000003634
 21
-1.695553999999899
 31
0.0
  0
LINE
  5
9F4
330
18
100
AcDbEntity
  8
SK1
 48
0.006343
100
AcDbLine
 10
-2.500000000003634
 20
-1.695553999999899
 30
0.0
 11
-2.500000000003634
 21
-1.44184699999988
 31
0.0
  0
LINE
  5
9F5
330
18
100
AcDbEntity
  8
SK1
 48
0.006697
100
AcDbLine
 10
-2.500000000003634
 20
-1.44184699999988
 30
0.0
 11
-2.500000000003634
 21
-1.173961999999903
 31
0.0
  0
LINE
  5
9F6
330
18
100
AcDbEntity
  8
SK1
 48
0.018884
100
AcDbLine
 10
-2.500000000003634
 20
-0.4186189999999216
 30
0.0
 11
-2.500000000003634
 21
-1.173961999999903
 31
0.0
  0
LINE
  5
9F7
330
18
100
AcDbEntity
  8
SK1
 48
0.000386
100
AcDbLine
 10
-2.500000000003634
 20
-0.4031929999999309
 30
0.0
 11
-2.500000000003634
 21
-0.4186189999999216
 31
0.0
  0
LINE
  5
9F8
330
18
100
AcDbEntity
  8
SK1
 48
0.003418
100
AcDbLine
 10
-2.500000000003634
 20
-0.2664619999998763
 30
0.0
 11
-2.500000000003634
 21
-0.4031929999999309
 31
0.0
  0
LINE
  5
9F9
330
18
100
AcDbEntity
  8
SK1
 48
0.000182
100
AcDbLine
 10
-2.500000000003634
 20
-0.2591869999999403
 30
0.0
 11
-2.500000000003634
 21
-0.2664629999998738
 31
0.0
  0
LINE
  5
9FA
330
18
100
AcDbEntity
  8
SK1
 48
0.012702
100
AcDbLine
 10
-2.500000000003634
 20
-0.2591859999999428
 30
0.0
 11
-2.500000000003634
 21
0.2488940000001207
 31
0.0
  0
LINE
  5
9FB
330
18
100
AcDbEntity
  8
SK1
 48
0.000229
100
AcDbLine
 10
-2.500000000003634
 20
3.746446000000048
 30
0.0
 11
-2.500000000003634
 21
3.755595000000083
 31
0.0
  0
LINE
  5
9FC
330
18
100
AcDbEntity
  8
SK1
 48
0.001477
100
AcDbLine
 10
-2.500000000003634
 20
0.2488940000001207
 30
0.0
 11
-2.500000000003634
 21
0.3079740000001152
 31
0.0
  0
LINE
  5
9FD
330
18
100
AcDbEntity
  8
SK1
 48
0.000917
100
AcDbLine
 10
-2.500000000003634
 20
0.3446510000000558
 30
0.0
 11
-2.500000000003634
 21
0.3079740000001152
 31
0.0
  0
LINE
  5
9FE
330
18
100
AcDbEntity
  8
SK1
 48
0.032222
100
AcDbLine
 10
-2.500000000003634
 20
1.633543000000088
 30
0.0
 11
-2.500000000003634
 21
0.3446670000000722
 31
0.0
  0
LINE
  5
9FF
330
18
100
AcDbEntity
  8
SK1
 48
0.000443
100
AcDbLine
 10
-2.500000000003634
 20
1.651262000000087
 30
0.0
 11
-2.500000000003634
 21
1.633544000000084
 31
0.0
  0
LINE
  5
A00
330
18
100
AcDbEntity
  8
SK1
 48
0.000034
100
AcDbLine
 10
-2.500000000003634
 20
1.652611000000089
 30
0.0
 11
-2.500000000003634
 21
1.651262000000087
 31
0.0
  0
LINE
  5
A01
330
18
100
AcDbEntity
  8
SK1
 48
0.006976
100
AcDbLine
 10
-2.500000000003634
 20
1.652611000000089
 30
0.0
 11
-2.500000000003634
 21
1.93165500000009
 31
0.0
  0
LINE
  5
A02
330
18
100
AcDbEntity
  8
SK1
 48
0.00008
100
AcDbLine
 10
-2.500000000003634
 20
1.9316290000001
 30
0.0
 11
-2.500000000003634
 21
1.934848000000043
 31
0.0
  0
LINE
  5
A03
330
18
100
AcDbEntity
  8
SK1
 48
0.002662
100
AcDbLine
 10
-2.500000000003634
 20
1.934848000000043
 30
0.0
 11
-2.500000000003634
 21
2.041344000000091
 31
0.0
  0
LINE
  5
A04
330
18
100
AcDbEntity
  8
SK1
 48
0.023904
100
AcDbLine
 10
-2.500000000003634
 20
2.055983000000081
 30
0.0
 11
-2.500000000003634
 21
3.012135000000113
 31
0.0
  0
LINE
  5
A05
330
18
100
AcDbEntity
  8
SK1
 48
0.00017
100
AcDbLine
 10
-2.500000000003634
 20
-1.42939199999995
 30
0.0
 11
-2.500000000003634
 21
-1.422577999999873
 31
0.0
  0
LINE
  5
A06
330
18
100
AcDbEntity
  8
SK1
 48
0.002451
100
AcDbLine
 10
-2.500000000003634
 20
-1.422577999999873
 30
0.0
 11
-2.500000000003634
 21
-1.324524999999936
 31
0.0
  0
LINE
  5
A07
330
18
100
AcDbEntity
  8
SK1
 48
0.003769
100
AcDbLine
 10
-2.500000000003634
 20
-3.574317999999891
 30
0.0
 11
-2.500000000003634
 21
-3.42356199999989
 31
0.0
  0
LINE
  5
A08
330
18
100
AcDbEntity
  8
SK1
 48
0.048877
100
AcDbLine
 10
-2.500000000003634
 20
-3.755594999999912
 30
0.0
 11
-2.500000000003634
 21
-1.800527999999928
 31
0.0
  0
LINE
  5
A09
330
18
100
AcDbEntity
  8
SK1
 48
0.038464
100
AcDbLine
 10
-2.500000000003634
 20
-1.800527999999928
 30
0.0
 11
-2.500000000003634
 21
-0.2619769999999448
 31
0.0
  0
LINE
  5
A0A
330
18
100
AcDbEntity
  8
SK1
 48
0.012218
100
AcDbLine
 10
-2.500000000003634
 20
2.827037000000075
 30
0.0
 11
-2.500000000003634
 21
2.338317000000074
 31
0.0
  0
LINE
  5
A0B
330
18
100
AcDbEntity
  8
SK1
 48
0.000563
100
AcDbLine
 10
-2.500000000003634
 20
2.849564000000043
 30
0.0
 11
-2.500000000003634
 21
2.827037000000075
 31
0.0
  0
LINE
  5
A0C
330
18
100
AcDbEntity
  8
SK1
 48
0.004143
100
AcDbLine
 10
-2.500000000003634
 20
2.849564000000043
 30
0.0
 11
-2.500000000003634
 21
3.015284000000121
 31
0.0
  0
LINE
  5
A0D
102
{ACAD_REACTORS
330
CB5
102
}
330
18
100
AcDbEntity
  8
SK1
 48
0.100211
100
AcDbLine
 10
-2.500000000003634
 20
-0.2619769999999448
 30
0.0
 11
-2.500000000003634
 21
3.746446000000048
 31
0.0
  0
LINE
  5
A0E
330
18
100
AcDbEntity
  8
1
 48
0.005748
100
AcDbLine
 10
9.19999999999638
 20
-1.189449999999907
 30
0.0
 11
9.083512999996372
 21
-0.9912319999999111
 31
0.0
  0
ARC
  5
A0F
330
18
100
AcDbEntity
  8
1
100
AcDbCircle
 10
8.738542999996383
 20
-1.197171999999909
 30
0.0
 40
0.40176
100
AcDbArc
 50
30.83637700000086
 51
54.55082099999985
  0
ARC
  5
A10
330
18
100
AcDbEntity
  8
1
100
AcDbCircle
 10
-5.67099200000365
 20
-9.540370999999881
 30
0.0
 40
17.055384
100
AcDbArc
 50
27.63232399999968
 51
29.31672599999865
  0
ARC
  5
A11
330
18
100
AcDbEntity
  8
1
100
AcDbCircle
 10
8.942322999996378
 20
-1.892362999999875
 30
0.0
 40
0.5617810000000001
100
AcDbArc
 50
20.06597300000023
 51
27.82656700000059
  0
ARC
  5
A12
330
18
100
AcDbEntity
  8
1
100
AcDbCircle
 10
8.739760999996377
 20
-1.195172999999897
 30
0.0
 40
0.399408
100
AcDbArc
 50
54.52678500000072
 51
87.44802099999953
  0
ARC
  5
A13
330
18
100
AcDbEntity
  8
1
100
AcDbCircle
 10
8.913807999996349
 20
-0.9216029999999475
 30
0.0
 40
0.183441
100
AcDbArc
 50
324.9229210000016
 51
337.6919740000011
  0
LINE
  5
A14
330
18
100
AcDbEntity
  8
1
 48
0.000894
100
AcDbLine
 10
8.721830999996342
 20
-0.7946139999999105
 30
0.0
 11
8.757543999996386
 21
-0.7961729999998966
 31
0.0
  0
ARC
  5
A15
330
18
100
AcDbEntity
  8
1
100
AcDbCircle
 10
3.088700999996348
 20
-2.224055999999904
 30
0.0
 40
6.378206999999997
100
AcDbArc
 50
2.680239999999048
 51
5.343102999999254
  0
LINE
  5
A16
330
18
100
AcDbEntity
  8
1
 48
0.006259
100
AcDbLine
 10
9.469999999996359
 20
-1.949961999999914
 30
0.0
 11
9.469999999996359
 21
-1.699617999999929
 31
0.0
  0
LINE
  5
A17
330
18
100
AcDbEntity
  8
1
 48
0.032123
100
AcDbLine
 10
8.713177999996361
 20
-4.677377999999919
 30
0.0
 11
8.751405999996361
 21
-3.393023999999911
 31
0.0
  0
LINE
  5
A18
330
18
100
AcDbEntity
  8
1
 48
0.023628
100
AcDbLine
 10
7.977349999996332
 20
-3.648849999999923
 30
0.0
 11
7.977349999996332
 21
-4.593976999999938
 31
0.0
  0
LINE
  5
A19
330
18
100
AcDbEntity
  8
1
 48
0.005355
100
AcDbLine
 10
8.971553999996359
 20
-0.8055169999999518
 30
0.0
 11
8.757546999996378
 21
-0.7961739999998941
 31
0.0
  0
LINE
  5
A1A
330
18
100
AcDbEntity
  8
1
 48
0.003651
100
AcDbLine
 10
8.971553999996359
 20
-0.8055169999999518
 30
0.0
 11
9.117447999996356
 21
-0.8118869999998992
 31
0.0
  0
LINE
  5
A1B
330
18
100
AcDbEntity
  8
1
 48
0.001609
100
AcDbLine
 10
8.971553999996359
 20
-0.8698899999998841
 30
0.0
 11
8.971553999996359
 21
-0.8055169999999518
 31
0.0
  0
LINE
  5
A1C
330
18
100
AcDbEntity
  8
1
 48
0.002159
100
AcDbLine
 10
9.19999999999638
 20
-3.410714999999925
 30
0.0
 11
9.19999999999638
 21
-3.324337999999951
 31
0.0
  0
ARC
  5
A1D
330
18
100
AcDbEntity
  8
1
100
AcDbCircle
 10
8.043751999996374
 20
-4.776308999999912
 30
0.0
 40
1.789399
100
AcDbArc
 50
49.74652400000111
 51
54.47463999999939
  0
LINE
  5
A1E
330
18
100
AcDbEntity
  8
1
 48
0.000251
100
AcDbLine
 10
9.083512999996372
 20
-3.319980999999926
 30
0.0
 11
9.075282999996346
 21
-3.314251999999953
 31
0.0
  0
LINE
  5
A1F
330
18
100
AcDbEntity
  8
1
 48
0.00151
100
AcDbLine
 10
9.19999999999638
 20
-3.324337999999951
 30
0.0
 11
9.146364999996334
 21
-3.296535999999886
 31
0.0
  0
ARC
  5
A20
330
18
100
AcDbEntity
  8
1
100
AcDbCircle
 10
7.746375999996388
 20
-4.896047999999891
 30
0.0
 40
2.13999
100
AcDbArc
 50
36.31894800000187
 51
47.23526499999863
  0
LINE
  5
A21
330
18
100
AcDbEntity
  8
1
 48
0.038498
100
AcDbLine
 10
9.06009499999638
 20
-4.859739999999931
 30
0.0
 11
9.083512999996372
 21
-3.319981999999923
 31
0.0
  0
LINE
  5
A22
330
18
100
AcDbEntity
  8
1
 48
0.010978
100
AcDbLine
 10
7.977349999996332
 20
3.938484000000073
 30
0.0
 11
7.977349999996332
 21
4.377609000000063
 31
0.0
  0
LINE
  5
A23
330
18
100
AcDbEntity
  8
1
 48
0.009619
100
AcDbLine
 10
9.117447999996356
 20
3.730901000000073
 30
0.0
 11
9.117447999996356
 21
4.115646000000082
 31
0.0
  0
ARC
  5
A24
330
18
100
AcDbEntity
  8
1
100
AcDbCircle
 10
9.099999999996356
 20
-1.211505999999928
 30
0.0
 40
0.4
100
AcDbArc
 50
22.33189300000135
 51
87.49999999999982
  0
LINE
  5
A25
330
18
100
AcDbEntity
  8
1
 48
0.009131
100
AcDbLine
 10
9.19999999999638
 20
-1.189449999999907
 30
0.0
 11
9.19999999999638
 21
-0.8242079999999416
 31
0.0
  0
ARC
  5
A26
330
18
100
AcDbEntity
  8
1
100
AcDbCircle
 10
-113.8921810000036
 20
-6.310216999999909
 30
0.0
 40
123.359142
100
AcDbArc
 50
0.6117120000015284
 51
1.215694999999528
  0
ARC
  5
A27
330
18
100
AcDbEntity
  8
1
100
AcDbCircle
 10
14.15067699999636
 20
0.5379740000000766
 30
0.0
 40
6.332474999999997
100
AcDbArc
 50
218.5756930000013
 51
221.9239389999998
  0
LINE
  5
A28
330
18
100
AcDbEntity
  8
1
 48
0.000227
100
AcDbLine
 10
9.469999999996359
 20
-3.732290999999916
 30
0.0
 11
9.469999999996359
 21
-3.723198999999908
 31
0.0
  0
LINE
  5
A29
330
18
100
AcDbEntity
  8
1
 48
0.001157
100
AcDbLine
 10
9.469999999996359
 20
-3.72747599999991
 30
0.0
 11
9.439145999996382
 21
-3.692994999999939
 31
0.0
  0
ARC
  5
A2A
330
18
100
AcDbEntity
  8
1
100
AcDbCircle
 10
7.979480999996352
 20
4.70389300000005
 30
0.0
 40
1.838149999999999
100
AcDbArc
 50
314.7553460000015
 51
324.2036739999996
  0
LINE
  5
A2B
330
18
100
AcDbEntity
  8
1
 48
0.001765
100
AcDbLine
 10
9.469999999996359
 20
3.067576000000086
 30
0.0
 11
9.469999999996359
 21
2.996988000000044
 31
0.0
  0
LINE
  5
A2C
330
18
100
AcDbEntity
  8
1
 48
0.016002
100
AcDbLine
 10
9.469999999996359
 20
-1.699617999999929
 30
0.0
 11
9.469999999996359
 21
-1.059519999999904
 31
0.0
  0
LINE
  5
A2D
330
18
100
AcDbEntity
  8
1
 48
0.004069
100
AcDbLine
 10
9.469999999996359
 20
-3.108947999999883
 30
0.0
 11
9.469999999996359
 21
-2.946173999999928
 31
0.0
  0
LINE
  5
A2E
330
18
100
AcDbEntity
  8
1
 48
0.031757
100
AcDbLine
 10
9.469999999996359
 20
-4.997770999999886
 30
0.0
 11
9.469999999996359
 21
-3.727476999999908
 31
0.0
  0
LINE
  5
A2F
330
18
100
AcDbEntity
  8
SK1
 48
0.145589
100
AcDbLine
 10
-0.2842990000036423
 20
-1.88719999999995
 30
0.0
 11
-0.2842990000036423
 21
3.936377000000049
 31
0.0
  0
LINE
  5
A30
330
18
100
AcDbEntity
  8
1
 48
0.033782
100
AcDbLine
 10
-0.000000000003638
 20
-4.8465809999999
 30
0.0
 11
-0.000000000003638
 21
-3.495314999999948
 31
0.0
  0
LINE
  5
A31
330
18
100
AcDbEntity
  8
1
 48
0.006378
100
AcDbLine
 10
-0.000000000003638
 20
-1.116961999999886
 30
0.0
 11
-0.000000000003638
 21
-1.372092999999892
 31
0.0
  0
LINE
  5
A32
330
18
100
AcDbEntity
  8
1
 48
0.080102
100
AcDbLine
 10
-0.000000000003638
 20
-1.136703999999949
 30
0.0
 11
-0.000000000003638
 21
0.0000000000000568
 31
0.0
  0
LINE
  5
A33
330
18
100
AcDbEntity
  8
1
 48
0.01549
100
AcDbLine
 10
-0.000000000003638
 20
4.16049600000008
 30
0.0
 11
-0.000000000003638
 21
3.540881000000069
 31
0.0
  0
LINE
  5
A34
330
18
100
AcDbEntity
  8
1
 48
0.026834
100
AcDbLine
 10
-0.000000000003638
 20
4.16049600000008
 30
0.0
 11
-0.000000000003638
 21
5.233845000000084
 31
0.0
  0
LINE
  5
A35
330
18
100
AcDbEntity
  8
SK1
 48
0.051229
100
AcDbLine
 10
-0.2842990000036423
 20
-3.936376999999936
 30
0.0
 11
-0.2842990000036423
 21
-1.88719999999995
 31
0.0
  0
LINE
  5
A36
330
18
100
AcDbEntity
  8
SK1
 48
0.141876
100
AcDbLine
 10
-2.200000000003626
 20
-1.839066999999943
 30
0.0
 11
-2.200000000003626
 21
3.835979000000122
 31
0.0
  0
LINE
  5
A37
330
18
100
AcDbEntity
  8
1
 48
0.025924
100
AcDbLine
 10
0.1344589999963546
 20
4.290160000000071
 30
0.0
 11
0.1344589999963546
 21
5.327125000000079
 31
0.0
  0
ARC
  5
A38
330
18
100
AcDbEntity
  8
1
100
AcDbCircle
 10
1.334334999996372
 20
2.910950000000127
 30
0.0
 40
1.828078999999999
100
AcDbArc
 50
131.0224019999991
 51
136.879458999998
  0
LINE
  5
A39
330
18
100
AcDbEntity
  8
1
 48
0.072134
100
AcDbLine
 10
0.1344589999963546
 20
-1.126605999999924
 30
0.0
 11
0.1344589999963546
 21
0.0000000000000568
 31
0.0
  0
LINE
  5
A3A
330
18
100
AcDbEntity
  8
1
 48
0.003371
100
AcDbLine
 10
0.1344589999963546
 20
-1.126605999999924
 30
0.0
 11
-0.000000000003638
 21
-1.136703999999949
 31
0.0
  0
LINE
  5
A3B
330
18
100
AcDbEntity
  8
1
 48
0.027274
100
AcDbLine
 10
0.1344589999963546
 20
-4.954125999999916
 30
0.0
 11
0.1344589999963546
 21
-3.863151999999955
 31
0.0
  0
ARC
  5
A3C
330
18
100
AcDbEntity
  8
1
100
AcDbCircle
 10
1.282224999996373
 20
-3.381465999999873
 30
0.0
 40
1.946957
100
AcDbArc
 50
228.8085339999987
 51
233.8770979999994
  0
LINE
  5
A3D
330
18
100
AcDbEntity
  8
SK1
 48
0.049923
100
AcDbLine
 10
-2.200000000003626
 20
-3.835978999999895
 30
0.0
 11
-2.200000000003626
 21
-1.839066999999943
 31
0.0
  0
LINE
  5
A3E
330
18
100
AcDbEntity
  8
1
 48
0.000908
100
AcDbLine
 10
0.1611839999963536
 20
4.314739000000087
 30
0.0
 11
0.1344589999963546
 21
4.290160000000071
 31
0.0
  0
LINE
  5
A3F
330
18
100
AcDbEntity
  8
1
 48
0.000669
100
AcDbLine
 10
0.1611839999963536
 20
-1.125690999999903
 30
0.0
 11
0.1344589999963546
 21
-1.126605999999924
 31
0.0
  0
LINE
  5
A40
330
18
100
AcDbEntity
  8
1
 48
0.000855
100
AcDbLine
 10
0.1611839999963536
 20
-4.975465999999925
 30
0.0
 11
0.1344589999963546
 21
-4.954125999999916
 31
0.0
  0
ARC
  5
A41
330
18
100
AcDbEntity
  8
1
100
AcDbCircle
 10
9.484099999996344
 20
-2.672088999999914
 30
0.0
 40
0.186287
100
AcDbArc
 50
225.0337169999985
 51
265.6751830000005
  0
LINE
  5
A42
330
18
100
AcDbEntity
  8
1
 48
0.004126
100
AcDbLine
 10
9.469999999996359
 20
-2.858473999999943
 30
0.0
 11
9.469999999996359
 21
-2.693432999999913
 31
0.0
  0
ELLIPSE
  5
A43
330
18
100
AcDbEntity
  8
1
100
AcDbEllipse
 10
9.500999999996368
 20
-2.733989999999892
 30
0.0
 11
-0.164000004529953
 21
0.0
 31
0.0
210
0.0
220
0.0
230
1.0
 40
0.9816269999999999
 41
0.3596500997593221
 42
0.4453842469805624
  0
LINE
  5
A44
330
18
100
AcDbEntity
  8
1
 48
0.000375
100
AcDbLine
 10
9.352998999996339
 20
-2.803343999999923
 30
0.0
 11
9.344326999996351
 21
-2.791110999999943
 31
0.0
  0
LINE
  5
A45
330
18
100
AcDbEntity
  8
1
 48
0.001659
100
AcDbLine
 10
8.331195999996367
 20
-5.722040999999932
 30
0.0
 11
8.393091999996357
 21
-5.698122999999952
 31
0.0
  0
ARC
  5
A46
330
18
100
AcDbEntity
  8
1
100
AcDbCircle
 10
0.1092859999963593
 20
14.26697500000006
 30
0.0
 40
21.615389
100
AcDbArc
 50
292.5342620000007
 51
295.6618229999991
  0
LINE
  5
A47
330
18
100
AcDbEntity
  8
1
 48
0.000202
100
AcDbLine
 10
9.469999999996359
 20
-5.208287999999924
 30
0.0
 11
9.469999999996359
 21
-5.216386999999881
 31
0.0
  0
SPLINE
  5
A48
330
18
100
AcDbEntity
  8
1
100
AcDbSpline
210
0.0
220
0.0
230
1.0
 70
     8
 71
     5
 72
    24
 73
    18
 74
     0
 42
0.000000001
 43
0.0000000001
 40
0.0
 40
0.0
 40
0.0
 40
0.0
 40
0.0
 40
0.0
 40
1.992439154570273
 40
1.992439154570273
 40
1.992439154570273
 40
4.417875371157014
 40
4.417875371157014
 40
4.417875371157014
 40
6.819359239786463
 40
6.819359239786463
 40
6.819359239786463
 40
7.865994188081872
 40
7.865994188081872
 40
7.865994188081872
 40
10.73461995450451
 40
10.73461995450451
 40
10.73461995450451
 40
10.73461995450451
 40
10.73461995450451
 40
10.73461995450451
 10
0.9142249553065935
 20
-5.213216736157447
 30
0.0
 10
1.134943771193405
 20
-5.179310247866339
 30
0.0
 10
1.355623984814624
 20
-5.144140773572586
 30
0.0
 10
1.610348445693715
 20
-5.102372984392332
 30
0.0
 10
2.216090129912144
 20
-4.998291221190187
 30
0.0
 10
2.885213119019482
 20
-4.872741246593534
 30
0.0
 10
3.266950992240963
 20
-4.797454672004787
 30
0.0
 10
4.015111693380077
 20
-4.642948210622988
 30
0.0
 10
4.740122382598116
 20
-4.480840542320777
 30
0.0
 10
5.113844675782018
 20
-4.393965186680873
 30
0.0
 10
5.570467501686862
 20
-4.284452178503386
 30
0.0
 10
5.965883702700324
 20
-4.186288781600126
 30
0.0
 10
6.063541673226013
 20
-4.161820930235363
 30
0.0
 10
6.494578796520471
 20
-4.052901634498367
 30
0.0
 10
6.925324946426457
 20
-3.940233793058153
 30
0.0
 10
7.240741305911027
 20
-3.855714814602379
 30
0.0
 10
7.556090440323057
 20
-3.769331988794475
 30
0.0
 10
7.871342048419222
 20
-3.681170181056415
 30
0.0
  0
LINE
  5
A49
330
18
100
AcDbEntity
  8
1
 48
0.000722
100
AcDbLine
 10
9.469999999996359
 20
-2.88733899999994
 30
0.0
 11
9.469999999996359
 21
-2.85847899999993
 31
0.0
  0
ARC
  5
A4A
330
18
100
AcDbEntity
  8
1
100
AcDbCircle
 10
9.600716999996363
 20
-2.969853999999882
 30
0.0
 40
1.326905999999999
100
AcDbArc
 50
196.9125780000018
 51
204.4795959999999
  0
LINE
  5
A4B
330
18
100
AcDbEntity
  8
1
 48
0.013654
100
AcDbLine
 10
8.393091999996357
 20
-3.519680999999933
 30
0.0
 11
7.871338999996368
 21
-3.681144999999901
 31
0.0
  0
ARC
  5
A4C
330
18
100
AcDbEntity
  8
1
100
AcDbCircle
 10
-13.29415300000363
 20
25.8638610000001
 30
0.0
 40
36.520234
100
AcDbArc
 50
306.4300899999988
 51
308.5597389999991
  0
LINE
  5
A4D
330
18
100
AcDbEntity
  8
1
 48
0.002375
100
AcDbLine
 10
9.469999999996359
 20
-2.598411999999882
 30
0.0
 11
9.469999999996359
 21
-2.693425999999874
 31
0.0
  0
LINE
  5
A4E
330
18
100
AcDbEntity
  8
1
 48
0.019916
100
AcDbLine
 10
9.470040999996372
 20
1.769764000000064
 30
0.0
 11
8.703376999996377
 21
1.553312000000061
 31
0.0
  0
SPLINE
  5
A4F
330
18
100
AcDbEntity
  8
1
100
AcDbSpline
210
0.0
220
0.0
230
1.0
 70
     8
 71
     5
 72
    27
 73
    21
 74
     0
 42
0.000000001
 43
0.0000000001
 40
0.0
 40
0.0
 40
0.0
 40
0.0
 40
0.0
 40
0.0
 40
0.1408373516988148
 40
0.1408373516988148
 40
0.1408373516988148
 40
0.2816747033976297
 40
0.2816747033976297
 40
0.2816747033976297
 40
0.7066631203137713
 40
0.7066631203137713
 40
0.7066631203137713
 40
2.315351964704868
 40
2.315351964704868
 40
2.315351964704868
 40
5.067393340107045
 40
5.067393340107045
 40
5.067393340107045
 40
5.452939418170648
 40
5.452939418170648
 40
5.452939418170648
 40
5.452939418170648
 40
5.452939418170648
 40
5.452939418170648
 10
6.948798878966582
 20
1.154654374349376
 30
0.0
 10
6.93604085617741
 20
1.149783376474657
 30
0.0
 10
6.924539651788362
 20
1.145275904625975
 30
0.0
 10
6.914263698004018
 20
1.141099508214324
 30
0.0
 10
6.897687562122112
 20
1.134030090840667
 30
0.0
 10
6.887675428705932
 20
1.129090349970113
 30
0.0
 10
6.883939121152052
 20
1.127015207814849
 30
0.0
 10
6.873903603219702
 20
1.120325644925967
 30
0.0
 10
6.879974558897032
 20
1.118903531560079
 30
0.0
 10
6.888857279170025
 20
1.119332085187636
 30
0.0
 10
6.946555455929825
 20
1.126223943059357
 30
0.0
 10
7.057979237803152
 20
1.150351822946446
 30
0.0
 10
7.129487705499315
 20
1.165346361156252
 30
0.0
 10
7.402498424832657
 20
1.225236259487132
 30
0.0
 10
7.738816623301799
 20
1.302973123693448
 30
0.0
 10
7.967884301808425
 20
1.357677570154063
 30
0.0
 10
8.262430209476887
 20
1.432406002393178
 30
0.0
 10
8.582992283945456
 20
1.519908516124019
 30
0.0
 10
8.622767394526391
 20
1.530854582680774
 30
0.0
 10
8.662900125844457
 20
1.541989558557303
 30
0.0
 10
8.703377291600956
 20
1.553311545870711
 30
0.0
  0
LINE
  5
A50
330
18
100
AcDbEntity
  8
1
 48
0.000549
100
AcDbLine
 10
7.87134199999636
 20
1.507476000000053
 30
0.0
 11
7.891881999996342
 21
1.515204000000093
 31
0.0
  0
LINE
  5
A51
330
18
100
AcDbEntity
  8
1
 48
0.025259
100
AcDbLine
 10
7.892538999996387
 20
1.515422000000114
 30
0.0
 11
6.948798999996339
 21
1.154654000000107
 31
0.0
  0
SPLINE
  5
A52
330
18
100
AcDbEntity
  8
1
100
AcDbSpline
210
0.0
220
0.0
230
1.0
 70
     8
 71
     5
 72
    21
 73
    15
 74
     0
 42
0.000000001
 43
0.0000000001
 40
0.0
 40
0.0
 40
0.0
 40
0.0
 40
0.0
 40
0.0
 40
2.924286244404209
 40
2.924286244404209
 40
2.924286244404209
 40
4.67833883861383
 40
4.67833883861383
 40
4.67833883861383
 40
5.387933357700195
 40
5.387933357700195
 40
5.387933357700195
 40
8.251757623058811
 40
8.251757623058811
 40
8.251757623058811
 40
8.251757623058811
 40
8.251757623058811
 40
8.251757623058811
 10
2.578501286921291
 20
-0.4011405505160043
 30
0.0
 10
3.003988395674268
 20
-0.2466343750160149
 30
0.0
 10
3.445193138399901
 20
-0.0860452968327081
 30
0.0
 10
3.902203417285335
 20
0.0804941847502505
 30
0.0
 10
4.602517494806162
 20
0.3354174322523136
 30
0.0
 10
5.247089459191752
 20
0.5692295541303452
 30
0.0
 10
5.482737305724555
 20
0.6545362146160301
 30
0.0
 10
5.778766250528319
 20
0.7614833583808718
 30
0.0
 10
6.050839666307437
 20
0.8594765367167267
 30
0.0
 10
6.154743673575552
 20
0.8968603488301596
 30
0.0
 10
6.544311839844766
 20
1.036865652079711
 30
0.0
 10
6.933961064639872
 20
1.176159144168706
 30
0.0
 10
7.246268119110226
 20
1.287232219702842
 30
0.0
 10
7.558739680868566
 20
1.397701398467176
 30
0.0
 10
7.871342045973247
 20
1.50747596469665
 30
0.0
  0
LINE
  5
A53
330
18
100
AcDbEntity
  8
1
 48
0.008452
100
AcDbLine
 10
9.469999999996359
 20
1.431917000000053
 30
0.0
 11
9.469999999996359
 21
1.770007000000076
 31
0.0
  0
LINE
  5
A54
330
18
100
AcDbEntity
  8
1
 48
0.001659
100
AcDbLine
 10
8.331195999996367
 20
5.722041000000047
 30
0.0
 11
8.393091999996357
 21
5.698123000000066
 31
0.0
  0
SPLINE
  5
A55
330
18
100
AcDbEntity
  8
1
100
AcDbSpline
210
0.0
220
0.0
230
1.0
 70
     8
 71
     5
 72
    24
 73
    18
 74
     0
 42
0.000000001
 43
0.0000000001
 40
0.0
 40
0.0
 40
0.0
 40
0.0
 40
0.0
 40
0.0
 40
1.997398131372538
 40
1.997398131372538
 40
1.997398131372538
 40
4.418924319306028
 40
4.418924319306028
 40
4.418924319306028
 40
6.80109298898058
 40
6.80109298898058
 40
6.80109298898058
 40
7.835164223182374
 40
7.835164223182374
 40
7.835164223182374
 40
10.66990061455306
 40
10.66990061455306
 40
10.66990061455306
 40
10.66990061455306
 40
10.66990061455306
 40
10.66990061455306
 10
0.9142249553058263
 20
4.708465339804205
 30
0.0
 10
1.134815399214119
 20
4.754556445270907
 30
0.0
 10
1.355499881100513
 20
4.799521418211837
 30
0.0
 10
1.610284638794695
 20
4.850346929431623
 30
0.0
 10
2.21506250181946
 20
4.966508242641054
 30
0.0
 10
2.884958589153967
 20
5.084718125751408
 30
0.0
 10
3.267613941165365
 20
5.148495833863876
 30
0.0
 10
4.016364908525727
 20
5.265699456462754
 30
0.0
 10
4.744156806571337
 20
5.365513977629971
 30
0.0
 10
5.117684551099927
 20
5.412785289347709
 30
0.0
 10
5.57392328217517
 20
5.466301953449088
 30
0.0
 10
5.968597534795918
 20
5.508314374728398
 30
0.0
 10
6.067416601651557
 20
5.518535852464481
 30
0.0
 10
6.496850894907224
 20
5.561716170905467
 30
0.0
 10
6.926443596362588
 20
5.599764352011277
 30
0.0
 10
7.241280563883632
 20
5.624814363035794
 30
0.0
 10
7.556256545269462
 20
5.647086668406585
 30
0.0
 10
7.871342048419107
 20
5.666574007385293
 30
0.0
  0
LINE
  5
A56
330
18
100
AcDbEntity
  8
1
 48
0.013068
100
AcDbLine
 10
8.393091999996357
 20
5.698123000000066
 30
0.0
 11
7.871338999996368
 21
5.666545000000097
 31
0.0
  0
ARC
  5
A57
330
18
100
AcDbEntity
  8
1
100
AcDbCircle
 10
0.1092859999963593
 20
-14.26697499999994
 30
0.0
 40
21.615389
100
AcDbArc
 50
64.33817700000094
 51
67.46573799999942
  0
ARC
  5
A58
330
18
100
AcDbEntity
  8
1
100
AcDbCircle
 10
10.21585699999636
 20
2.394634000000053
 30
0.0
 40
1.948395999999999
100
AcDbArc
 50
194.6951330000005
 51
200.687628000001
  0
LINE
  5
A59
330
18
100
AcDbEntity
  8
1
 48
0.013959
100
AcDbLine
 10
8.393091999996357
 20
1.706318000000065
 30
0.0
 11
7.871338999996368
 21
1.507475000000056
 31
0.0
  0
LINE
  5
A5A
330
18
100
AcDbEntity
  8
1
 48
0.028799
100
AcDbLine
 10
9.469999999996359
 20
2.115312000000074
 30
0.0
 11
8.393091999996357
 21
1.706318000000065
 31
0.0
  0
LINE
  5
A5B
330
18
100
AcDbEntity
  8
1
 48
0.002295
100
AcDbLine
 10
9.469999999996359
 20
2.207116000000098
 30
0.0
 11
9.469999999996359
 21
2.115312000000074
 31
0.0
  0
LINE
  5
A5C
330
18
100
AcDbEntity
  8
1
 48
0.006747
100
AcDbLine
 10
9.469999999996359
 20
2.115293000000121
 30
0.0
 11
9.469999999996359
 21
1.845413000000064
 31
0.0
  0
LINE
  5
A5D
330
18
100
AcDbEntity
  8
1
 48
0.001885
100
AcDbLine
 10
9.469999999996359
 20
1.845413000000064
 30
0.0
 11
9.469999999996359
 21
1.770007000000076
 31
0.0
  0
LINE
  5
A5E
330
18
100
AcDbEntity
  8
1
 48
0.019169
100
AcDbLine
 10
9.470040999996372
 20
4.919384000000093
 30
0.0
 11
8.703376999996377
 21
4.908470000000079
 31
0.0
  0
SPLINE
  5
A5F
330
18
100
AcDbEntity
  8
1
100
AcDbSpline
210
0.0
220
0.0
230
1.0
 70
     8
 71
     5
 72
    24
 73
    18
 74
     0
 42
0.000000001
 43
0.0000000001
 40
0.0
 40
0.0
 40
0.0
 40
0.0
 40
0.0
 40
0.0
 40
0.1854633228945464
 40
0.1854633228945464
 40
0.1854633228945464
 40
0.5935919753847072
 40
0.5935919753847072
 40
0.5935919753847072
 40
1.64522196435073
 40
1.64522196435073
 40
1.64522196435073
 40
4.910404900215036
 40
4.910404900215036
 40
4.910404900215036
 40
5.412809160370573
 40
5.412809160370573
 40
5.412809160370573
 40
5.412809160370573
 40
5.412809160370573
 40
5.412809160370573
 10
6.948798878966527
 20
5.136315744332023
 30
0.0
 10
6.931930487471872
 20
5.130807188148764
 30
0.0
 10
6.917319688207753
 20
5.125165599683953
 30
0.0
 10
6.905154566659548
 20
5.11926251935148
 30
0.0
 10
6.877640719310959
 20
5.10217989320273
 30
0.0
 10
6.874461647766707
 20
5.087527796439244
 30
0.0
 10
6.878779378549807
 20
5.078607155422105
 30
0.0
 10
6.90763172486433
 20
5.050162183405629
 30
0.0
 10
6.973671264894702
 20
5.029209560642923
 30
0.0
 10
7.019485330481785
 20
5.016863758035754
 30
0.0
 10
7.252958025301865
 20
4.966557233908757
 30
0.0
 10
7.566753107756452
 20
4.934201476842588
 30
0.0
 10
7.815992761587407
 20
4.916275969569198
 30
0.0
 10
8.160315911039987
 20
4.905776151720316
 30
0.0
 10
8.54530813816055
 20
4.906841624445459
 30
0.0
 10
8.597355414148664
 20
4.907187111176256
 30
0.0
 10
8.650055084985041
 20
4.907731820363153
 30
0.0
 10
8.703377291601182
 20
4.908470312563906
 30
0.0
  0
SPLINE
  5
A60
330
18
100
AcDbEntity
  8
1
100
AcDbSpline
210
0.0
220
0.0
230
1.0
 70
     8
 71
     5
 72
    18
 73
    12
 74
     0
 42
0.000000001
 43
0.0000000001
 40
0.0828141269987212
 40
0.0828141269987212
 40
0.0828141269987212
 40
0.0828141269987212
 40
0.0828141269987212
 40
0.0828141269987212
 40
0.8457770979688735
 40
0.8457770979688735
 40
0.8457770979688735
 40
2.155179367282618
 40
2.155179367282618
 40
2.155179367282618
 40
3.247201691996486
 40
3.247201691996486
 40
3.247201691996486
 40
3.247201691996486
 40
3.247201691996486
 40
3.247201691996486
 10
7.871342048134605
 20
5.666574025888677
 30
0.0
 10
7.890568199440932
 20
5.647286386002347
 30
0.0
 10
7.899004537899344
 20
5.625934293621753
 30
0.0
 10
7.896229776260469
 20
5.602850867093422
 30
0.0
 10
7.860656256794555
 20
5.536587048749026
 30
0.0
 10
7.758398080700683
 20
5.463976958079853
 30
0.0
 10
7.673379254197726
 20
5.417296121488277
 30
0.0
 10
7.493048272802667
 20
5.332377594229853
 30
0.0
 10
7.276250153902736
 20
5.248636097655833
 30
0.0
 10
7.170543300283355
 20
5.210516342237781
 30
0.0
 10
7.061903878491051
 20
5.173251408569228
 30
0.0
 10
6.94879887896988
 20
5.13631574433208
 30
0.0
  0
LINE
  5
A61
330
18
100
AcDbEntity
  8
1
 48
0.000141
100
AcDbLine
 10
9.469999999996359
 20
4.913798000000096
 30
0.0
 11
9.469999999996359
 21
4.91942200000011
 31
0.0
  0
LINE
  5
A62
330
18
100
AcDbEntity
  8
1
 48
0.000187
100
AcDbLine
 10
9.469999999996359
 20
5.208922000000085
 30
0.0
 11
9.469999999996359
 21
5.216387000000111
 31
0.0
  0
LINE
  5
A63
330
18
100
AcDbEntity
  8
1
 48
0.006959
100
AcDbLine
 10
9.469999999996359
 20
5.208922000000085
 30
0.0
 11
9.469999999996359
 21
4.930548000000101
 31
0.0
  0
LINE
  5
A64
330
18
100
AcDbEntity
  8
1
 48
0.000278
100
AcDbLine
 10
9.469999999996359
 20
4.930548000000101
 30
0.0
 11
9.469999999996359
 21
4.91942200000011
 31
0.0
  0
LINE
  5
A65
330
18
100
AcDbEntity
  8
1
 48
0.06745
100
AcDbLine
 10
9.469999999996359
 20
2.115293000000121
 30
0.0
 11
6.948798999996339
 21
1.154654000000107
 31
0.0
  0
LINE
  5
A66
330
18
100
AcDbEntity
  8
1
 48
0.02051
100
AcDbLine
 10
9.469999999996359
 20
1.845413000000064
 30
0.0
 11
8.703376999996377
 21
1.553312000000061
 31
0.0
  0
LINE
  5
A67
330
18
100
AcDbEntity
  8
1
 48
0.063056
100
AcDbLine
 10
9.469999999996359
 20
5.208922000000085
 30
0.0
 11
6.948798999996339
 21
5.136316000000078
 31
0.0
  0
LINE
  5
A68
330
18
100
AcDbEntity
  8
1
 48
0.019174
100
AcDbLine
 10
9.469999999996359
 20
4.930548000000101
 30
0.0
 11
8.703376999996377
 21
4.908470000000079
 31
0.0
  0
ARC
  5
A69
330
18
100
AcDbEntity
  8
SK1
100
AcDbCircle
 10
-0.3000000000036493
 20
4.235966000000074
 30
0.0
 40
0.3
100
AcDbArc
 50
273.0000000000007
 51
0.0
  0
ARC
  5
A6A
330
18
100
AcDbEntity
  8
SK1
100
AcDbCircle
 10
-0.3000000000036493
 20
-4.235965999999904
 30
0.0
 40
0.3
100
AcDbArc
 50
0.0
 51
86.9999999999993
  0
LINE
  5
A6B
330
18
100
AcDbEntity
  8
SK1
 48
0.047958
100
AcDbLine
 10
-2.200000000003626
 20
3.835979000000122
 30
0.0
 11
-0.2842990000036423
 21
3.936377000000049
 31
0.0
  0
LINE
  5
A6C
330
18
100
AcDbEntity
  8
SK1
 48
0.047958
100
AcDbLine
 10
-2.200000000003626
 20
-3.835978999999895
 30
0.0
 11
-0.2842990000036423
 21
-3.936376999999936
 31
0.0
  0
LINE
  5
A6D
330
18
100
AcDbEntity
  8
SK1
 48
0.007765
100
AcDbLine
 10
-2.500000000003634
 20
3.755595000000083
 30
0.0
 11
-2.200000000003626
 21
3.835979000000122
 31
0.0
  0
LINE
  5
A6E
330
18
100
AcDbEntity
  8
SK1
 48
0.007765
100
AcDbLine
 10
-2.500000000003634
 20
-3.755594999999912
 30
0.0
 11
-2.200000000003626
 21
-3.835978999999895
 31
0.0
  0
LINE
  5
A70
330
18
100
AcDbEntity
  8
1
 48
0.072134
100
AcDbLine
 10
0.1344589999963546
 20
0.0000000000000568
 30
0.0
 11
0.1344589999963546
 21
1.758759000000108
 31
0.0
  0
LINE
  5
A73
330
18
100
AcDbEntity
  8
1
 48
0.080102
100
AcDbLine
 10
-0.000000000003638
 20
0.0000000000000568
 30
0.0
 11
-0.000000000003638
 21
2.0673910000001
 31
0.0
  0
INSERT
  5
A8D
330
18
100
AcDbEntity
  8
SK2
100
AcDbBlockReference
  2
CERO_POINT
 10
-0.000000000003638
 20
0.0
 30
0.0
  0
DIMENSION
  5
AA6
330
18
100
AcDbEntity
  8
2
100
AcDbDimension
  2
*D3
 10
29.22126533064193
 20
-5.750497999999946
 30
0.0
 11
26.7331240797635
 21
-18.84791542796902
 31
0.0
 70
    32
  1
%%c<>
 71
     5
 42
11.501
  3
DIAMETER
100
AcDbAlignedDimension
 13
8.393091999996361
 23
5.750502000000056
 33
0.0
 14
8.393091999996361
 24
-5.75049799999994
 34
0.0
 50
90.0
100
AcDbRotatedDimension
1001
ACAD_DSTYLE_DIMINSPECT
1070
   396
1000
100%
1070
   395
1000

1070
   394
1070
    33
1070
   393
1070
     0
1001
ACAD
1000
DSTYLE
1002
{
1070
   271
1070
     3
1002
}
  0
DIMENSION
  5
AF1
330
18
100
AcDbEntity
  8
2
100
AcDbDimension
  2
*D4
 10
0.2699999999963644
 20
22.95883189444811
 30
0.0
 11
19.32888053935994
 21
22.95883189444811
 31
0.0
 70
   160
 71
     5
 42
9.199999999999999
  3
STANDARD
100
AcDbAlignedDimension
 13
9.469999999996362
 23
5.217293000000056
 33
0.0
 14
0.2699999999963634
 24
5.454304904943316
 34
0.0
100
AcDbRotatedDimension
  0
DIMENSION
  5
C13
330
18
100
AcDbEntity
  8
2
100
AcDbDimension
  2
*D5
 10
9.469999999996359
 20
1.74426982683578
 30
0.0
 11
14.54275842834506
 21
-12.87149700232143
 31
0.0
 70
    34
 71
     5
 42
0.3490658503988606
  3
STANDARD
100
AcDb2LineAngularDimension
 13
4.677658037329085
 23
0.0000000000000254
 33
0.0
 14
10.45446185926562
 24
0.0000000000000568
 34
0.0
 15
4.677658037329085
 25
0.0000000000000254
 35
0.0
 16
16.2152558238604
 26
2.734460907472341
 36
0.0
1001
ACAD_DSTYLE_DIMINSPECT
1070
   396
1000
100%
1070
   395
1000

1070
   394
1070
    33
1070
   393
1070
     0
1001
ACAD
1000
DSTYLE
1002
{
1070
   179
1070
     1
1002
}
  0
MULTILEADER
  5
CB1
102
{ACAD_XDICTIONARY
360
CB4
102
}
102
{ACAD_REACTORS
330
CB5
102
}
330
18
100
AcDbEntity
  8
SK6
 92
      664
310
98020000180000000C00000016000000000000C00C00000033000000000000000C00000013000000993A0000A40000000B00000015302B2C38CC34C01AA74D521D742D40000000000000000000000000000000000000000000000000000000000000F03F000000000000F03F00000000000000000000000000000000424E35
310
0003000000010000000000000000001040000000000000F03F0000000000000000000000000000F03F00000000000000000000000000000000000000004D6F6E6F737061633832312042540040001C0B600C00000033000000000000000C00000010000000070000000C00000016000000000000C00C00000012000000FF7F
310
00000C00000013000000010000000C00000014000000010000005400000007000000030000005FA5257B4B760FC01CB41B130A291E400000000000000000F91F0000000004C07FD731AEB8F80D4000000000000000006A4762E9BC5714C0C2DFF2A1397B1B4000000000000000000C00000013000000891300003C00000006
310
000000020000000C8D7A53710912C0F04987DA21D21C40000000000000000000869EB2E2D320C0810DB4B883DA2B4000000000000000000C00000013000000112700003C000000060000000200000000869EB2E2D320C0810DB4B883DA2B400000000000000000B8A4239E348C21C0810DB4B883DA2B400000000000000000
310
0C00000016000000000000C00C00000012000000FF7F00000C00000017000000000000000C000000130000009A3A00003C0000000600000002000000D39DADD1506534C0800DB4B883DA2B400000000000000000B6A4239E348C21C0800DB4B883DA2B4000000000000000000C00000016000000000000C00C000000120000
310
00FF7F00000C00000017000000FFFFFFFF0C0000003300000000000000
100
AcDbMLeader
300
CONTEXT_DATA{
 40
1.0
 10
-22.395764450919
 20
16.66916146879957
 30
0.0
 41
4.0
140
4.0
145
2.0
174
     1
175
     6
176
     2
177
     0
290
     1
304
BN5
 11
0.0
 21
0.0
 31
1.0
340
10
 12
-10.773838941432
 22
18.72678620527181
 32
0.0
 13
1.0
 23
0.0
 33
0.0
 42
0.0
 43
0.0
 44
0.0
 45
1.0
170
     1
 90
-1073741824
171
     3
172
     5
 91
-1073741824
141
0.0
 92
        0
291
     0
292
     0
173
     0
293
     0
142
0.0
143
0.0
294
     0
295
     0
296
     0
110
-2.500000000003634
120
3.746446000000048
130
0.0
111
1.0
121
0.0
131
0.0
112
0.0
122
1.0
132
0.0
297
     0
302
LEADER{
290
     1
291
     1
 10
-8.413838941432004
 20
13.92678620527181
 30
0.0
 11
-1.0
 21
0.0
 31
0.0
 90
        0
 40
0.36
304
LEADER_LINE{
 10
-2.500000000003634
 20
3.746446000000048
 30
0.0
 91
        0
305
}
303
}
301
}
340
43D
 90
   279552
170
     1
 91
-1056964608
341
12
171
    -2
290
     1
291
     1
 41
0.36
 42
4.0
172
     2
343
10
173
     1
 95
        6
174
     1
175
     2
 92
-1056964608
292
     0
 93
-1056964608
 10
1.0
 20
1.0
 30
1.0
 43
0.0
176
     0
293
     0
294
     0
178
     0
179
     3
 45
1.0
1001
ACAD_MLEADERVER
1070
     2
  0
LINE
  5
CB6
330
18
100
AcDbEntity
  8
SK4
100
AcDbLine
 10
-0.000000000003638
 20
0.0
 30
0.0
 11
-3.646240495540495
 21
0.0
 31
0.0
  0
LINE
  5
CC8
330
18
100
AcDbEntity
  8
INFTOTAL
100
AcDbLine
 10
11.44922324354729
 20
-45.69440427446714
 30
0.0
 11
51.45512812530569
 21
-45.69440427446714
 31
0.0
  0
LINE
  5
CC9
330
18
100
AcDbEntity
  8
INFTOTAL
100
AcDbLine
 10
51.45512812530569
 20
-45.69440427446714
 30
0.0
 11
51.45512812530569
 21
-18.57976061509566
 31
0.0
  0
LINE
  5
CCA
330
18
100
AcDbEntity
  8
INFTOTAL
100
AcDbLine
 10
3.007684626789738
 20
29.77047558728467
 30
0.0
 11
-43.24304144686999
 21
29.77047558728467
 31
0.0
  0
LINE
  5
CCB
330
18
100
AcDbEntity
  8
INFTOTAL
100
AcDbLine
 10
-43.24304144686999
 20
29.77047558728467
 30
0.0
 11
-43.24304144686999
 21
3.241040027991658
 31
0.0
  0
LWPOLYLINE
  5
D09
102
{ACAD_REACTORS
330
DC1
102
}
330
18
100
AcDbEntity
  8
CUT
100
AcDbPolyline
 90
       10
 70
     1
 43
0.0
 10
9.469999999996367
 20
5.217293000000058
 10
8.393096039343042
 20
5.750500000000057
 10
7.871340499996371
 20
5.750515500000057
 10
1.10271299999637
 20
5.750481000000057
 10
0.9141648510997695
 20
5.750481000000057
 10
0.2699999999963651
 20
5.454304904943316
 10
0.2699999999964078
 20
0.0000000000000032
 10
9.469999999996396
 20
0.0000000000000533
 10
9.469999999996367
 20
2.207116000000099
 10
9.469999999996367
 20
2.996978000000071
  0
LWPOLYLINE
  5
D32
330
18
100
AcDbEntity
  8
NOCUT
100
AcDbPolyline
 90
        5
 70
     1
 43
0.0
 10
0.0
 20
5.247958339869088
 10
0.1612392141580017
 20
5.404298536556698
 10
0.2700000000000031
 20
5.454304904943313
 10
0.2700000000000458
 20
0.000000000000001
 10
0.0
 20
0.0
  0
DIMENSION
  5
DA8
102
{ACAD_XDICTIONARY
360
DB6
102
}
102
{ACAD_REACTORS
330
DC1
102
}
330
18
100
AcDbEntity
  8
2
100
AcDbDimension
  2
*D6
 10
9.469999999996362
 20
16.27767604600907
 30
0.0
 11
20.69918130709405
 21
18.71416585626909
 31
0.0
 70
    32
 71
     5
 42
1.076903960653319
  3
STANDARD
100
AcDbAlignedDimension
 13
8.393096039343042
 23
5.750500000000057
 33
0.0
 14
9.469999999996362
 24
5.217293000000061
 34
0.0
100
AcDbRotatedDimension
  0
DIMENSION
  5
DFE
330
18
100
AcDbEntity
  8
2
100
AcDbDimension
  2
*D7
 10
8.886187014921461
 20
5.750502000000056
 30
0.0
 11
5.632210428054492
 21
9.523710169616919
 31
0.0
 70
   162
 71
     5
 42
0.4363363690452318
  3
STANDARD
100
AcDb2LineAngularDimension
 13
8.393093223688213
 23
5.750503519717302
 33
0.0
 14
9.031005714529019
 24
5.453040040005501
 34
0.0
 15
8.393096039343042
 25
5.750500000000057
 35
0.0
 16
3.767035428700051
 26
6.428106018193677
 36
0.0
1001
ACAD_DSTYLE_DIMINSPECT
1070
   396
1000
100%
1070
   395
1000

1070
   394
1070
    33
1070
   393
1070
     0
1001
ACAD
1000
DSTYLE
1002
{
1070
   179
1070
     0
1002
}
  0
TEXT
  5
FA4
330
18
100
AcDbEntity
  8
SK6
100
AcDbText
 10
-18.45168823244016
 20
-40.74365304184371
 30
0.0
 40
3.5
  1
XLB11501R71
100
AcDbText
1001
ACAD
1000
MTEXTBEGIN
1070
    73
1070
     1
1070
    44
1040
1.0
1070
    74
1070
     0
1000
MTEXTEND
  0
ENDSEC
  0
SECTION
  2
OBJECTS
  0
DICTIONARY
  5
C
330
0
100
AcDbDictionary
281
     1
  3
ACAD_2007HEADERVARS_RT
350
FF9
  3
ACAD_CIP_PREVIOUS_PRODUCT_INFO
350
741
  3
ACAD_COLOR
350
387
  3
ACAD_DETAILVIEWSTYLE
350
F9D
  3
ACAD_GROUP
350
D
  3
ACAD_LAYOUT
350
301
  3
ACAD_MATERIAL
350
386
  3
ACAD_MLEADERSTYLE
350
43C
  3
ACAD_MLINESTYLE
350
E
  3
ACAD_PLOTSETTINGS
350
302
  3
ACAD_PLOTSTYLENAME
350
2FF
  3
ACAD_SCALELIST
350
41A
  3
ACAD_SECTIONVIEWSTYLE
350
F9B
  3
ACAD_TABLESTYLE
350
388
  3
ACAD_VISUALSTYLE
350
3F2
  3
ACDB_RECOMPOSE_DATA
350
FF7
  3
AcDbVariableDictionary
350
357
  3
AcmDictionary
350
76D
  3
AEC_PROPERTY_SET_DEFS
350
5CF
  3
AMG
350
743
  3
AMGSNAPSETTINGS
350
7F6
  3
ASE_INDEX_DICTIONARY
350
B29
  3
DWGPROPS
350
FF8
  0
DICTIONARY
  5
451
330
2
100
AcDbDictionary
280
     1
281
     1
  3
ACAD_LAYERFILTERS
360
6C6
  3
ACAD_LAYERSTATES
360
F7A
  3
ACLYDICTIONARY
360
6C5
  0
DICTIONARY
  5
D34
330
F
100
AcDbDictionary
280
     1
281
     1
  3
ADSK_XREC_LAYER_RECONCILED
360
D35
  0
DICTIONARY
  5
D36
330
23
100
AcDbDictionary
280
     1
281
     1
  3
ADSK_XREC_LAYER_RECONCILED
360
D37
  0
DICTIONARY
  5
D38
330
24
100
AcDbDictionary
280
     1
281
     1
  3
ADSK_XREC_LAYER_RECONCILED
360
D39
  0
DICTIONARY
  5
D3A
330
25
100
AcDbDictionary
280
     1
281
     1
  3
ADSK_XREC_LAYER_RECONCILED
360
D3B
  0
DICTIONARY
  5
D3C
330
27
100
AcDbDictionary
280
     1
281
     1
  3
ADSK_XREC_LAYER_RECONCILED
360
D3D
  0
DICTIONARY
  5
D3E
330
2A
100
AcDbDictionary
280
     1
281
     1
  3
ADSK_XREC_LAYER_RECONCILED
360
D3F
  0
DICTIONARY
  5
D40
330
2B
100
AcDbDictionary
280
     1
281
     1
  3
ADSK_XREC_LAYER_RECONCILED
360
D41
  0
DICTIONARY
  5
D42
330
2E
100
AcDbDictionary
280
     1
281
     1
  3
ADSK_XREC_LAYER_RECONCILED
360
D43
  0
DICTIONARY
  5
D44
330
375
100
AcDbDictionary
280
     1
281
     1
  3
ADSK_XREC_LAYER_RECONCILED
360
D45
  0
DICTIONARY
  5
D46
330
376
100
AcDbDictionary
280
     1
281
     1
  3
ADSK_XREC_LAYER_RECONCILED
360
D47
  0
DICTIONARY
  5
D48
330
49B
100
AcDbDictionary
280
     1
281
     1
  3
ADSK_XREC_LAYER_RECONCILED
360
D49
  0
DICTIONARY
  5
A71
330
18
100
AcDbDictionary
280
     1
281
     1
  3
ACAD_SORTENTS
360
A72
  0
DICTIONARY
  5
6D1
330
6D0
100
AcDbDictionary
280
     1
281
     1
  3
ACAD_SORTENTS
360
6D2
  0
DICTIONARY
  5
F94
330
DDE
100
AcDbDictionary
280
     1
281
     1
  3
ACAD_MTEXT_RT
360
103A
  0
DICTIONARY
  5
F96
330
EE6
100
AcDbDictionary
280
     1
281
     1
  3
ACAD_MTEXT_RT
360
103B
  0
DICTIONARY
  5
CB4
330
CB1
100
AcDbDictionary
280
     1
281
     1
  3
ACAD_DIMASSOC
360
CB5
  3
ACAD_XREC_ROUNDTRIP
360
1039
  0
DICTIONARY
  5
DB6
330
DA8
100
AcDbDictionary
280
     1
281
     1
  3
ACAD_DIMASSOC
360
DC1
  0
DICTIONARY
  5
FF9
102
{ACAD_REACTORS
330
C
102
}
330
C
100
AcDbDictionary
281
     1
  3
DIMARCSYM
350
FFA
  3
DIMLTEX1
350
FFC
  3
DIMLTEX2
350
FFD
  3
DIMLTYPE
350
FFB
  0
XRECORD
  5
741
102
{ACAD_REACTORS
330
C
102
}
330
C
100
AcDbXrecord
280
     1
300
ACDLT
300
2015
300
ACDLT_F_S
  0
DICTIONARY
  5
387
102
{ACAD_REACTORS
330
C
102
}
330
C
100
AcDbDictionary
281
     1
  0
DICTIONARY
  5
F9D
102
{ACAD_REACTORS
330
C
102
}
330
C
100
AcDbDictionary
281
     1
  3
Metric50
350
F9E
  0
DICTIONARY
  5
D
102
{ACAD_REACTORS
330
C
102
}
330
C
100
AcDbDictionary
281
     1
  0
DICTIONARY
  5
301
102
{ACAD_REACTORS
330
C
102
}
330
C
100
AcDbDictionary
281
     1
  3
Layout1
350
33B
  3
Model
350
303
  0
DICTIONARY
  5
386
102
{ACAD_REACTORS
330
C
102
}
330
C
100
AcDbDictionary
281
     1
  3
ByBlock
350
3F0
  3
ByLayer
350
3EF
  3
Global
350
3F1
  0
DICTIONARY
  5
43C
102
{ACAD_REACTORS
330
C
102
}
330
C
100
AcDbDictionary
281
     1
  3
Standard
350
43D
  0
DICTIONARY
  5
E
102
{ACAD_REACTORS
330
C
102
}
330
C
100
AcDbDictionary
281
     1
  3
STANDARD
350
1B
  0
DICTIONARY
  5
302
102
{ACAD_REACTORS
330
C
102
}
330
C
100
AcDbDictionary
281
     1
  0
ACDBDICTIONARYWDFLT
  5
2FF
102
{ACAD_REACTORS
330
C
102
}
330
C
100
AcDbDictionary
281
     1
  3
Normal
350
300
100
AcDbDictionaryWithDefault
340
300
  0
DICTIONARY
  5
41A
102
{ACAD_REACTORS
330
C
102
}
330
C
100
AcDbDictionary
281
     1
  3
A0
350
41B
  3
A1
350
41C
  3
A2
350
41D
  3
A3
350
41E
  3
A4
350
41F
  3
A5
350
420
  3
A6
350
421
  3
A7
350
422
  3
A8
350
423
  3
A9
350
424
  3
B0
350
425
  3
B1
350
426
  3
B2
350
427
  3
B3
350
428
  3
B4
350
429
  3
B5
350
42A
  3
B6
350
42B
  3
B7
350
42C
  3
B8
350
42D
  3
B9
350
42E
  3
C0
350
42F
  3
C1
350
430
  3
C2
350
431
  3
C3
350
432
  3
C4
350
433
  3
C5
350
434
  3
C6
350
435
  3
C7
350
436
  3
C8
350
437
  3
C9
350
438
  3
D0
350
439
  3
D1
350
43A
  3
D2
350
43B
  0
DICTIONARY
  5
F9B
102
{ACAD_REACTORS
330
C
102
}
330
C
100
AcDbDictionary
281
     1
  3
Metric50
350
F9C
  0
DICTIONARY
  5
388
102
{ACAD_REACTORS
330
C
102
}
330
C
100
AcDbDictionary
281
     1
  3
Standard
350
389
  0
DICTIONARY
  5
3F2
102
{ACAD_REACTORS
330
C
102
}
330
C
100
AcDbDictionary
281
     1
  3
2dWireframe
350
3F8
  3
3D Hidden
350
3FA
  3
3dWireframe
350
3F9
  3
Basic
350
3F7
  3
Brighten
350
3FE
  3
ColorChange
350
402
  3
Conceptual
350
3FB
  3
Dim
350
3FD
  3
EdgeColorOff
350
73A
  3
Facepattern
350
401
  3
Flat
350
3F3
  3
FlatWithEdges
350
3F4
  3
Gouraud
350
3F5
  3
GouraudWithEdges
350
3F6
  3
Hidden
350
732
  3
JitterOff
350
738
  3
Linepattern
350
400
  3
OverhangOff
350
739
  3
Realistic
350
3FC
  3
Shaded
350
737
  3
Shaded with edges
350
736
  3
Shades of Gray
350
733
  3
Sketchy
350
734
  3
Thicken
350
3FF
  3
Wireframe
350
731
  3
X-Ray
350
735
  0
XRECORD
  5
FF7
102
{ACAD_REACTORS
330
C
102
}
330
C
100
AcDbXrecord
280
     1
 90
        1
330
389
  0
DICTIONARY
  5
357
102
{ACAD_REACTORS
330
C
102
}
330
C
100
AcDbDictionary
281
     1
  3
CANNOSCALE
350
449
  3
CMLEADERSTYLE
350
447
  3
CTABLESTYLE
350
38E
  3
CVIEWDETAILSTYLE
350
FA6
  3
CVIEWSECTIONSTYLE
350
FA7
  3
DIMASSOC
350
359
  3
HIDETEXT
350
358
  3
INDEXCTL
350
F26
  3
LAYEREVAL
350
7AE
  3
LAYERNOTIFY
350
7AF
  3
LIGHTINGUNITS
350
44A
  3
MSLTSCALE
350
448
  3
SOLIDHIST
350
F28
  3
SORTENTS
350
F25
  3
XCLIPFRAME
350
FF5
  0
DICTIONARY
  5
76D
102
{ACAD_REACTORS
330
C
102
}
330
C
100
AcDbDictionary
281
     1
  3
AcmStdDictionary
350
76F
  3
AMDTSECTSYM_ARROWCOLOR
350
D33
  0
DICTIONARY
  5
5CF
102
{ACAD_REACTORS
330
C
102
}
330
C
100
AcDbDictionary
281
     1
  0
DICTIONARY
  5
743
102
{ACAD_REACTORS
330
C
102
}
330
C
100
AcDbDictionary
281
     1
  0
DICTIONARY
  5
7F6
102
{ACAD_REACTORS
330
C
102
}
330
C
100
AcDbDictionary
281
     1
  0
DICTIONARY
  5
B29
102
{ACAD_REACTORS
330
C
102
}
330
C
100
AcDbDictionary
281
     1
  3
ASEBlockHierarchyIndexRecord
350
B2A
1001
DCO15
1040
1759657084.019
  0
XRECORD
  5
FF8
102
{ACAD_REACTORS
330
C
102
}
330
C
100
AcDbXrecord
280
     1
  1
DWGPROPS COOKIE
  2

  3

  4

  6

  7

  8
kamerka
  9

300
=
301
=
302
=
303
=
304
=
305
=
306
=
307
=
308
=
309
=
 40
0.0390121412037037
 41
2456168.455397917
 42
2457338.536946447
  1

 90
        0
  0
DICTIONARY
  5
6C6
102
{ACAD_REACTORS
330
451
102
}
330
451
100
AcDbDictionary
281
     1
  0
DICTIONARY
  5
F7A
102
{ACAD_REACTORS
330
451
102
}
330
451
100
AcDbDictionary
281
     1
  0
DICTIONARY
  5
6C5
102
{ACAD_REACTORS
330
451
102
}
330
451
100
AcDbDictionary
281
     1
1001
ACAD
1000
<All
  0
XRECORD
  5
D35
102
{ACAD_REACTORS
330
D34
102
}
330
D34
100
AcDbXrecord
280
     1
290
     1
  0
XRECORD
  5
D37
102
{ACAD_REACTORS
330
D36
102
}
330
D36
100
AcDbXrecord
280
     1
290
     1
  0
XRECORD
  5
D39
102
{ACAD_REACTORS
330
D38
102
}
330
D38
100
AcDbXrecord
280
     1
290
     1
  0
XRECORD
  5
D3B
102
{ACAD_REACTORS
330
D3A
102
}
330
D3A
100
AcDbXrecord
280
     1
290
     1
  0
XRECORD
  5
D3D
102
{ACAD_REACTORS
330
D3C
102
}
330
D3C
100
AcDbXrecord
280
     1
290
     1
  0
XRECORD
  5
D3F
102
{ACAD_REACTORS
330
D3E
102
}
330
D3E
100
AcDbXrecord
280
     1
290
     1
  0
XRECORD
  5
D41
102
{ACAD_REACTORS
330
D40
102
}
330
D40
100
AcDbXrecord
280
     1
290
     1
  0
XRECORD
  5
D43
102
{ACAD_REACTORS
330
D42
102
}
330
D42
100
AcDbXrecord
280
     1
290
     1
  0
XRECORD
  5
D45
102
{ACAD_REACTORS
330
D44
102
}
330
D44
100
AcDbXrecord
280
     1
290
     1
  0
XRECORD
  5
D47
102
{ACAD_REACTORS
330
D46
102
}
330
D46
100
AcDbXrecord
280
     1
290
     1
  0
XRECORD
  5
D49
102
{ACAD_REACTORS
330
D48
102
}
330
D48
100
AcDbXrecord
280
     1
290
     1
  0
SORTENTSTABLE
  5
A72
102
{ACAD_REACTORS
330
A71
102
}
330
A71
100
AcDbSortentsTable
330
18
331
9C4
  5
9C5
331
A36
  5
A38
331
9C0
  5
9C1
331
9FF
  5
A00
331
A32
  5
A33
331
9FB
  5
9FC
331
A2E
  5
A2F
331
A6D
  5
A70
331
9BC
  5
9BD
331
9B8
  5
9B9
331
A2A
  5
A2B
331
A69
  5
A6C
331
984
  5
985
331
980
  5
981
331
9F7
  5
9F8
331
9B4
  5
9B5
331
9F3
  5
9F4
331
A26
  5
A27
331
A65
  5
A68
331
A61
  5
A64
331
9B0
  5
9B1
331
9EF
  5
9F0
331
A22
  5
A23
331
9EB
  5
9EC
331
A1E
  5
A1F
331
A5D
  5
A60
331
9AC
  5
9AD
331
A1A
  5
A1B
331
A59
  5
A5C
331
9A8
  5
9A9
331
97C
  5
97D
331
978
  5
979
331
974
  5
975
331
970
  5
971
331
9E7
  5
9E8
331
9A4
  5
9A5
331
9E3
  5
9E4
331
A16
  5
A17
331
A55
  5
A58
331
A51
  5
A54
331
9A0
  5
9A1
331
9DF
  5
9E0
331
A12
  5
A13
331
CB6
  5
CB6
331
A4D
  5
A50
331
99C
  5
99D
331
9DB
  5
9DC
331
A49
  5
A4C
331
998
  5
999
331
D09
  5
D06
331
D32
  5
D2D
331
96C
  5
96D
331
968
  5
969
331
9D7
  5
9D8
331
994
  5
995
331
9D3
  5
9D4
331
A0E
  5
A0F
331
A45
  5
A48
331
A41
  5
A44
331
990
  5
991
331
9CF
  5
9D0
331
A0A
  5
A0B
331
A06
  5
A07
331
A3D
  5
A40
331
98C
  5
98D
331
9CB
  5
9CC
331
A02
  5
A03
331
A39
  5
A3B
331
988
  5
989
331
CC9
  5
CC9
331
9C7
  5
9C8
331
9C3
  5
9C4
331
A35
  5
A37
331
A31
  5
A32
331
9BF
  5
9C0
331
9FE
  5
9FF
331
9FA
  5
9FB
331
A2D
  5
A2E
331
A6C
  5
A6F
331
9BB
  5
9BC
331
A29
  5
A2A
331
A68
  5
A6B
331
987
  5
988
331
983
  5
984
331
9B7
  5
9B8
331
9F6
  5
9F7
331
A64
  5
A67
331
9B3
  5
9B4
331
9F2
  5
9F3
331
A25
  5
A26
331
A60
  5
A63
331
9AF
  5
9B0
331
9EE
  5
9EF
331
A21
  5
A22
331
9EA
  5
9EB
331
A1D
  5
A1E
331
A5C
  5
A5F
331
9AB
  5
9AC
331
A19
  5
A1A
331
A58
  5
A5B
331
FA4
  5
FA4
331
AF1
  5
AF1
331
97F
  5
980
331
97B
  5
97C
331
977
  5
978
331
973
  5
974
331
9A7
  5
9A8
331
9E6
  5
9E7
331
9A3
  5
9A4
331
9E2
  5
9E3
331
A15
  5
A16
331
A54
  5
A57
331
A50
  5
A53
331
99F
  5
9A0
331
9DE
  5
9DF
331
A11
  5
A12
331
9DA
  5
9DB
331
A4C
  5
A4F
331
99B
  5
99C
331
CB1
  5
CB1
331
A48
  5
A4B
331
A70
  5
A3C
331
96F
  5
970
331
96B
  5
96C
331
967
  5
968
331
9D6
  5
9D7
331
997
  5
998
331
993
  5
994
331
9D2
  5
9D3
331
A0D
  5
A0E
331
A44
  5
A47
331
A40
  5
A43
331
98F
  5
990
331
9CE
  5
9CF
331
A09
  5
A0A
331
A05
  5
A06
331
A3C
  5
A3F
331
98B
  5
98C
331
9CA
  5
9CB
331
A01
  5
A02
331
A38
  5
A3A
331
CC8
  5
CC8
331
9C6
  5
9C7
331
9C2
  5
9C3
331
A34
  5
A36
331
A30
  5
A31
331
9BE
  5
9BF
331
9FD
  5
9FE
331
9F9
  5
9FA
331
A2C
  5
A2D
331
A6B
  5
A6E
331
9BA
  5
9BB
331
A28
  5
A29
331
DA8
  5
DA8
331
986
  5
987
331
982
  5
983
331
9B6
  5
9B7
331
9F5
  5
9F6
331
A67
  5
A6A
331
A63
  5
A66
331
9B2
  5
9B3
331
9F1
  5
9F2
331
A24
  5
A25
331
A20
  5
A21
331
A5F
  5
A62
331
9AE
  5
9AF
331
9ED
  5
9EE
331
9E9
  5
9EA
331
A1C
  5
A1D
331
A5B
  5
A5E
331
9AA
  5
9AB
331
A18
  5
A19
331
97E
  5
97F
331
97A
  5
97B
331
976
  5
977
331
972
  5
973
331
9A6
  5
9A7
331
9E5
  5
9E6
331
A57
  5
A5A
331
A53
  5
A56
331
9A2
  5
9A3
331
9E1
  5
9E2
331
A14
  5
A15
331
A4F
  5
A52
331
99E
  5
99F
331
9DD
  5
9DE
331
A10
  5
A11
331
9D9
  5
9DA
331
A4B
  5
A4E
331
99A
  5
99B
331
A73
  5
A34
331
A8D
  5
A8D
331
96E
  5
96F
331
96A
  5
96B
331
966
  5
967
331
996
  5
997
331
9D5
  5
9D6
331
A47
  5
A4A
331
992
  5
993
331
9D1
  5
9D2
331
A0C
  5
A0D
331
A43
  5
A46
331
A3F
  5
A42
331
98E
  5
98F
331
9CD
  5
9CE
331
A08
  5
A09
331
9C9
  5
9CA
331
A04
  5
A05
331
A3B
  5
A3E
331
98A
  5
98B
331
A00
  5
A01
331
CCB
  5
CCB
331
9C5
  5
9C6
331
A37
  5
A39
331
9C1
  5
9C2
331
A33
  5
A35
331
9FC
  5
9FD
331
A2F
  5
A30
331
A6E
  5
A73
331
9BD
  5
9BE
331
9F8
  5
9F9
331
A2B
  5
A2C
331
A6A
  5
A6D
331
9B9
  5
9BA
331
C13
  5
C13
331
985
  5
986
331
981
  5
982
331
9B5
  5
9B6
331
9F4
  5
9F5
331
A27
  5
A28
331
A66
  5
A69
331
A62
  5
A65
331
9B1
  5
9B2
331
9F0
  5
9F1
331
A23
  5
A24
331
A1F
  5
A20
331
A5E
  5
A61
331
9AD
  5
9AE
331
9EC
  5
9ED
331
9E8
  5
9E9
331
A1B
  5
A1C
331
A5A
  5
A5D
331
9A9
  5
9AA
331
97D
  5
97E
331
979
  5
97A
331
975
  5
976
331
971
  5
972
331
9A5
  5
9A6
331
9E4
  5
9E5
331
A17
  5
A18
331
A56
  5
A59
331
A52
  5
A55
331
9A1
  5
9A2
331
9E0
  5
9E1
331
A13
  5
A14
331
A4E
  5
A51
331
99D
  5
99E
331
9DC
  5
9DD
331
9D8
  5
9D9
331
A4A
  5
A4D
331
999
  5
99A
331
96D
  5
96E
331
969
  5
96A
331
965
  5
965
331
995
  5
996
331
9D4
  5
9D5
331
A0F
  5
A10
331
A46
  5
A49
331
A42
  5
A45
331
991
  5
992
331
9D0
  5
9D1
331
A0B
  5
A0C
331
A3E
  5
A41
331
98D
  5
98E
331
9CC
  5
9CD
331
A07
  5
A08
331
9C8
  5
9C9
331
A03
  5
A04
331
A3A
  5
A3D
331
989
  5
98A
331
AA6
  5
AA6
331
CCA
  5
CCA
331
DFE
  5
DFE
  0
SORTENTSTABLE
  5
6D2
102
{ACAD_REACTORS
330
6D1
102
}
330
6D1
100
AcDbSortentsTable
330
6D0
  0
XRECORD
  5
103A
102
{ACAD_REACTORS
330
F94
102
}
330
F94
100
AcDbXrecord
280
     1
 40
3751.0
  1
20.0°
  0
XRECORD
  5
103B
102
{ACAD_REACTORS
330
F96
102
}
330
F96
100
AcDbXrecord
280
     1
 40
2571.0
  1
25°
  0
DIMASSOC
  5
CB5
102
{ACAD_REACTORS
330
CB4
102
}
330
CB4
100
AcDbDimAssoc
330
CB1
 90
        1
 70
     0
 71
     0
  1
AcDbOsnapPointRef
 72
     1
331
A0D
 73
     2
 91
        0
 40
1.0
 10
0.0
 20
0.0
 30
2.000000000000000E+50
 75
     0
  0
XRECORD
  5
1039
102
{ACAD_REACTORS
330
CB4
102
}
330
CB4
100
AcDbXrecord
280
     1
102
ACAD_ROUNDTRIP_2012_MLEADER
295
     1
  0
DIMASSOC
  5
DC1
102
{ACAD_REACTORS
330
DB6
102
}
330
DB6
100
AcDbDimAssoc
330
DA8
 90
        1
 70
     0
 71
     0
  1
AcDbOsnapPointRef
 72
     1
331
D09
 73
     2
 91
        1
 40
1.0
 10
0.0
 20
0.0
 30
2.000000000000000E+50
 75
     0
  0
XRECORD
  5
FFA
102
{ACAD_REACTORS
330
FF9
102
}
330
FF9
100
AcDbXrecord
280
     1
 70
     1
  0
XRECORD
  5
FFC
102
{ACAD_REACTORS
330
FF9
102
}
330
FF9
100
AcDbXrecord
280
     1
340
12
  0
XRECORD
  5
FFD
102
{ACAD_REACTORS
330
FF9
102
}
330
FF9
100
AcDbXrecord
280
     1
340
12
  0
XRECORD
  5
FFB
102
{ACAD_REACTORS
330
FF9
102
}
330
FF9
100
AcDbXrecord
280
     1
340
12
  0
ACDBDETAILVIEWSTYLE
  5
F9E
102
{ACAD_XDICTIONARY
360
103E
102
}
102
{ACAD_REACTORS
330
F9D
102
}
330
F9D
100
AcDbModelDocViewStyle
 70
     0
  3
Metric50
290
     0
100
AcDbDetailViewStyle
 70
     0
 71
     0
 90
        3
 71
     1
340
10
 40
5.0
340
0
 40
5.0
300

 40
0.0
280
     1
 71
     2
340
14
 90
       25
 71
     3
340
10
 40
5.0
 90
        0
 40
15.0
 90
        1
300
%<\AcVar ViewDetailId>% (%<\AcVar ViewScale \f "%sn">%)
 71
     4
340
14
 90
       25
340
14
 90
       25
280
     0
  0
LAYOUT
  5
33B
102
{ACAD_XDICTIONARY
360
1000
102
}
102
{ACAD_REACTORS
330
301
102
}
330
301
100
AcDbPlotSettings
  1

  2
Lexmark Optra PS2
  4

  6

 40
0.0
 41
0.0
 42
0.0
 43
0.0
 44
0.0
 45
0.0
 46
0.0
 47
0.0
 48
0.0
 49
0.0
140
0.0
141
0.0
142
1.0
143
1.0
 70
   688
 72
     0
 73
     0
 74
     5
  7
monochrome.ctb
 75
    16
147
1.0
148
0.0
149
0.0
100
AcDbLayout
  1
Layout1
 70
     1
 71
     1
 10
0.0
 20
0.0
 11
12.0
 21
9.0
 12
0.0
 22
0.0
 32
0.0
 14
0.0
 24
0.0
 34
0.0
 15
0.0
 25
0.0
 35
0.0
146
0.0
 13
0.0
 23
0.0
 33
0.0
 16
1.0
 26
0.0
 36
0.0
 17
0.0
 27
1.0
 37
0.0
 76
     0
330
338
  0
LAYOUT
  5
303
102
{ACAD_XDICTIONARY
360
FFE
102
}
102
{ACAD_REACTORS
330
301
102
}
330
301
100
AcDbPlotSettings
  1

  2
Default Windows System Printer.pc3
  4
A4
  6

 40
6.805083274841307
 41
5.535083293914794
 42
6.974411010742187
 43
7.14373779296875
 44
209.9733276367186
 45
296.9259948730469
 46
67.83299579489725
 47
0.0
 48
0.0
 49
0.0
140
0.0
141
0.0
142
1.0
143
0.3604333568168785
 70
  3764
 72
     1
 73
     1
 74
     1
  7
monochrome.ctb
 75
     0
147
2.774437995504559
148
-82.35087775247029
149
-53.69369632994493
100
AcDbLayout
  1
Model
 70
     1
 71
     0
 10
0.0
 20
0.0
 11
12.0
 21
9.0
 12
0.0
 22
0.0
 32
0.0
 14
0.0
 24
0.0
 34
0.0
 15
0.0
 25
0.0
 35
0.0
146
0.0
 13
0.0
 23
0.0
 33
0.0
 16
1.0
 26
0.0
 36
0.0
 17
0.0
 27
1.0
 37
0.0
 76
     0
330
18
331
3ED
1001
ACAD_PSEXT
1000
Default Windows System Printer.pc3
1000
Lexmark Optra Rx
1000
Lexmark Rx
1000
Erstellt von Lexmark Benutzerdefinierte Installation,Nov 13,2005,10:03
1070
     0
  0
MATERIAL
  5
3F0
102
{ACAD_XDICTIONARY
360
F36
102
}
102
{ACAD_REACTORS
330
386
102
}
330
386
100
AcDbMaterial
  1
ByBlock
 73
     1
 78
     1
172
     1
176
     1
270
     1
274
     1
  0
MATERIAL
  5
3EF
102
{ACAD_XDICTIONARY
360
F34
102
}
102
{ACAD_REACTORS
330
386
102
}
330
386
100
AcDbMaterial
  1
ByLayer
 73
     1
 78
     1
172
     1
176
     1
270
     1
274
     1
  0
MATERIAL
  5
3F1
102
{ACAD_XDICTIONARY
360
F38
102
}
102
{ACAD_REACTORS
330
386
102
}
330
386
100
AcDbMaterial
  1
Global
 73
     1
 78
     1
172
     1
176
     1
270
     1
274
     1
  0
MLEADERSTYLE
  5
43D
102
{ACAD_XDICTIONARY
360
1023
102
}
102
{ACAD_REACTORS
330
43C
330
CB1
102
}
330
43C
100
AcDbMLeaderStyle
170
     2
171
     1
172
     0
 90
        2
 40
0.0
 41
0.0
173
     1
 91
-1056964608
340
12
 92
       -2
290
     1
 42
2.0
291
     1
 43
0.36
  3
Standard
 44
4.0
300

342
10
174
     1
178
     6
175
     1
176
     0
 93
-1056964608
 45
4.0
292
     0
297
     0
 46
4.0
 94
-1056964608
 47
1.0
 49
1.0
140
1.0
293
     1
141
0.0
294
     1
177
     0
142
1.0
295
     0
296
     0
143
0.125
1001
ACAD_MLEADERVER
1070
     2
  0
MLINESTYLE
  5
1B
102
{ACAD_REACTORS
330
E
102
}
330
E
100
AcDbMlineStyle
  2
STANDARD
 70
     0
  3

 62
     0
 51
90.0
 52
90.0
 71
     2
 49
0.5
 62
   256
  6
BYLAYER
 49
-0.5
 62
   256
  6
BYLAYER
  0
ACDBPLACEHOLDER
  5
300
102
{ACAD_REACTORS
330
2FF
102
}
330
2FF
  0
SCALE
  5
41B
102
{ACAD_REACTORS
330
41A
102
}
330
41A
100
AcDbScale
 70
     0
300
1:1
140
1.0
141
1.0
290
     1
  0
SCALE
  5
41C
102
{ACAD_REACTORS
330
41A
102
}
330
41A
100
AcDbScale
 70
     0
300
1:2
140
1.0
141
2.0
290
     0
  0
SCALE
  5
41D
102
{ACAD_REACTORS
330
41A
102
}
330
41A
100
AcDbScale
 70
     0
300
1:4
140
1.0
141
4.0
290
     0
  0
SCALE
  5
41E
102
{ACAD_REACTORS
330
41A
102
}
330
41A
100
AcDbScale
 70
     0
300
1:5
140
1.0
141
5.0
290
     0
  0
SCALE
  5
41F
102
{ACAD_REACTORS
330
41A
102
}
330
41A
100
AcDbScale
 70
     0
300
1:8
140
1.0
141
8.0
290
     0
  0
SCALE
  5
420
102
{ACAD_REACTORS
330
41A
102
}
330
41A
100
AcDbScale
 70
     0
300
1:10
140
1.0
141
10.0
290
     0
  0
SCALE
  5
421
102
{ACAD_REACTORS
330
41A
102
}
330
41A
100
AcDbScale
 70
     0
300
1:16
140
1.0
141
16.0
290
     0
  0
SCALE
  5
422
102
{ACAD_REACTORS
330
41A
102
}
330
41A
100
AcDbScale
 70
     0
300
1:20
140
1.0
141
20.0
290
     0
  0
SCALE
  5
423
102
{ACAD_REACTORS
330
41A
102
}
330
41A
100
AcDbScale
 70
     0
300
1:30
140
1.0
141
30.0
290
     0
  0
SCALE
  5
424
102
{ACAD_REACTORS
330
41A
102
}
330
41A
100
AcDbScale
 70
     0
300
1:40
140
1.0
141
40.0
290
     0
  0
SCALE
  5
425
102
{ACAD_REACTORS
330
41A
102
}
330
41A
100
AcDbScale
 70
     0
300
1:50
140
1.0
141
50.0
290
     0
  0
SCALE
  5
426
102
{ACAD_REACTORS
330
41A
102
}
330
41A
100
AcDbScale
 70
     0
300
1:100
140
1.0
141
100.0
290
     0
  0
SCALE
  5
427
102
{ACAD_REACTORS
330
41A
102
}
330
41A
100
AcDbScale
 70
     0
300
2:1
140
2.0
141
1.0
290
     0
  0
SCALE
  5
428
102
{ACAD_REACTORS
330
41A
102
}
330
41A
100
AcDbScale
 70
     0
300
4:1
140
4.0
141
1.0
290
     0
  0
SCALE
  5
429
102
{ACAD_REACTORS
330
41A
102
}
330
41A
100
AcDbScale
 70
     0
300
8:1
140
8.0
141
1.0
290
     0
  0
SCALE
  5
42A
102
{ACAD_REACTORS
330
41A
102
}
330
41A
100
AcDbScale
 70
     0
300
10:1
140
10.0
141
1.0
290
     0
  0
SCALE
  5
42B
102
{ACAD_REACTORS
330
41A
102
}
330
41A
100
AcDbScale
 70
     0
300
100:1
140
100.0
141
1.0
290
     0
  0
SCALE
  5
42C
102
{ACAD_REACTORS
330
41A
102
}
330
41A
100
AcDbScale
 70
     0
300
1/128" = 1'-0"
140
0.0078125
141
12.0
290
     0
  0
SCALE
  5
42D
102
{ACAD_REACTORS
330
41A
102
}
330
41A
100
AcDbScale
 70
     0
300
1/64" = 1'-0"
140
0.015625
141
12.0
290
     0
  0
SCALE
  5
42E
102
{ACAD_REACTORS
330
41A
102
}
330
41A
100
AcDbScale
 70
     0
300
1/32" = 1'-0"
140
0.03125
141
12.0
290
     0
  0
SCALE
  5
42F
102
{ACAD_REACTORS
330
41A
102
}
330
41A
100
AcDbScale
 70
     0
300
1/16" = 1'-0"
140
0.0625
141
12.0
290
     0
  0
SCALE
  5
430
102
{ACAD_REACTORS
330
41A
102
}
330
41A
100
AcDbScale
 70
     0
300
3/32" = 1'-0"
140
0.09375
141
12.0
290
     0
  0
SCALE
  5
431
102
{ACAD_REACTORS
330
41A
102
}
330
41A
100
AcDbScale
 70
     0
300
1/8" = 1'-0"
140
0.125
141
12.0
290
     0
  0
SCALE
  5
432
102
{ACAD_REACTORS
330
41A
102
}
330
41A
100
AcDbScale
 70
     0
300
3/16" = 1'-0"
140
0.1875
141
12.0
290
     0
  0
SCALE
  5
433
102
{ACAD_REACTORS
330
41A
102
}
330
41A
100
AcDbScale
 70
     0
300
1/4" = 1'-0"
140
0.25
141
12.0
290
     0
  0
SCALE
  5
434
102
{ACAD_REACTORS
330
41A
102
}
330
41A
100
AcDbScale
 70
     0
300
3/8" = 1'-0"
140
0.375
141
12.0
290
     0
  0
SCALE
  5
435
102
{ACAD_REACTORS
330
41A
102
}
330
41A
100
AcDbScale
 70
     0
300
1/2" = 1'-0"
140
0.5
141
12.0
290
     0
  0
SCALE
  5
436
102
{ACAD_REACTORS
330
41A
102
}
330
41A
100
AcDbScale
 70
     0
300
3/4" = 1'-0"
140
0.75
141
12.0
290
     0
  0
SCALE
  5
437
102
{ACAD_REACTORS
330
41A
102
}
330
41A
100
AcDbScale
 70
     0
300
1" = 1'-0"
140
1.0
141
12.0
290
     0
  0
SCALE
  5
438
102
{ACAD_REACTORS
330
41A
102
}
330
41A
100
AcDbScale
 70
     0
300
1-1/2" = 1'-0"
140
1.5
141
12.0
290
     0
  0
SCALE
  5
439
102
{ACAD_REACTORS
330
41A
102
}
330
41A
100
AcDbScale
 70
     0
300
3" = 1'-0"
140
3.0
141
12.0
290
     0
  0
SCALE
  5
43A
102
{ACAD_REACTORS
330
41A
102
}
330
41A
100
AcDbScale
 70
     0
300
6" = 1'-0"
140
6.0
141
12.0
290
     0
  0
SCALE
  5
43B
102
{ACAD_REACTORS
330
41A
102
}
330
41A
100
AcDbScale
 70
     0
300
1'-0" = 1'-0"
140
12.0
141
12.0
290
     0
  0
ACDBSECTIONVIEWSTYLE
  5
F9C
102
{ACAD_XDICTIONARY
360
103C
102
}
102
{ACAD_REACTORS
330
F9B
102
}
330
F9B
100
AcDbModelDocViewStyle
 70
     0
  3
Metric50
290
     0
100
AcDbSectionViewStyle
 70
     0
 71
     0
 90
      102
 71
     1
340
10
 40
5.0
340
0
340
0
 40
5.0
300
I, O, Q, S, X, Z
 40
10.0
 90
        0
 40
2.5
 90
        0
 71
     2
340
14
 90
       25
340
14
 90
       50
 40
5.0
 40
2.5
 40
5.0
 71
     3
340
10
 40
5.0
 90
        0
 40
15.0
 90
        1
300
%<\AcVar ViewSectionStartId>%-%<\AcVar ViewSectionEndId>% (%<\AcVar ViewScale \f "%sn">%)
 71
     4
300
ANSI31
 40
1.0
 90
        0
290
     0
290
     0
 90
        6
 40
0.0
 40
1.570796326794896
 40
0.2617993877991494
 40
1.308996938995747
 40
-0.2617993877991494
 40
1.832595714594045
  0
TABLESTYLE
  5
389
102
{ACAD_XDICTIONARY
360
444
102
}
102
{ACAD_REACTORS
330
388
102
}
330
388
100
AcDbTableStyle
  3
Standard
 70
     0
 71
     0
 40
1.5
 41
1.5
280
     0
281
     0
  7
STANDARD
140
4.5
170
     2
 62
     0
 63
     7
283
     0
274
    -2
284
     1
 64
     0
275
    -2
285
     1
 65
     0
276
    -2
286
     1
 66
     0
277
    -2
287
     1
 67
     0
278
    -2
288
     1
 68
     0
279
    -2
289
     1
 69
     0
  7
STANDARD
140
6.0
170
     5
 62
     0
 63
     7
283
     0
274
    -2
284
     1
 64
     0
275
    -2
285
     1
 65
     0
276
    -2
286
     1
 66
     0
277
    -2
287
     1
 67
     0
278
    -2
288
     1
 68
     0
279
    -2
289
     1
 69
     0
  7
STANDARD
140
4.5
170
     5
 62
     0
 63
     7
283
     0
274
    -2
284
     1
 64
     0
275
    -2
285
     1
 65
     0
276
    -2
286
     1
 66
     0
277
    -2
287
     1
 67
     0
278
    -2
288
     1
 68
     0
279
    -2
289
     1
 69
     0
  0
VISUALSTYLE
  5
3F8
102
{ACAD_XDICTIONARY
360
100D
102
}
102
{ACAD_REACTORS
330
3F2
102
}
330
3F2
100
AcDbVisualStyle
  2

 70
     4
 71
     0
 72
     2
 73
     0
 90
        0
 40
-0.6
 41
-30.0
 62
     5
 63
     7
 74
     1
 91
        4
 64
     7
 65
   257
 75
     1
175
     1
 42
1.0
 92
        0
 66
   257
 43
1.0
 76
     1
 77
     6
 78
     2
 67
     7
 79
     5
170
     0
171
     0
290
     0
174
     0
 93
        1
 44
0.0
173
     0
291
     0
 45
0.0
1001
ACAD
1000
AcDbSavedByObjectVersion
1070
     0
  0
VISUALSTYLE
  5
3FA
102
{ACAD_XDICTIONARY
360
1011
102
}
102
{ACAD_REACTORS
330
3F2
102
}
330
3F2
100
AcDbVisualStyle
  2

 70
     6
 71
     1
 72
     2
 73
     2
 90
        0
 40
-0.6
 41
-30.0
 62
     5
 63
     7
 74
     2
 91
        2
 64
     7
 65
   257
 75
     2
175
     1
 42
40.0
 92
        0
 66
   257
 43
1.0
 76
     1
 77
     6
 78
     2
 67
     7
 79
     3
170
     0
171
     0
290
     0
174
     0
 93
        1
 44
0.0
173
     0
291
     0
 45
0.0
1001
ACAD
1000
AcDbSavedByObjectVersion
1070
     0
  0
VISUALSTYLE
  5
3F9
102
{ACAD_XDICTIONARY
360
100F
102
}
102
{ACAD_REACTORS
330
3F2
102
}
330
3F2
100
AcDbVisualStyle
  2

 70
     5
 71
     0
 72
     2
 73
     0
 90
        0
 40
-0.6
 41
-30.0
 62
     5
 63
     7
 74
     1
 91
        4
 64
     7
 65
   257
 75
     1
175
     1
 42
1.0
 92
        0
 66
   257
 43
1.0
 76
     1
 77
     6
 78
     2
 67
     7
 79
     5
170
     0
171
     0
290
     0
174
     0
 93
        1
 44
0.0
173
     0
291
     0
 45
0.0
1001
ACAD
1000
AcDbSavedByObjectVersion
1070
     0
  0
VISUALSTYLE
  5
3F7
102
{ACAD_XDICTIONARY
360
100B
102
}
102
{ACAD_REACTORS
330
3F2
102
}
330
3F2
100
AcDbVisualStyle
  2

 70
     7
 71
     1
 72
     0
 73
     1
 90
        0
 40
-0.6
 41
-30.0
 62
     5
 63
     7
 74
     0
 91
        4
 64
     7
 65
   257
 75
     1
175
     1
 42
1.0
 92
        8
 66
     7
 43
1.0
 76
     1
 77
     6
 78
     2
 67
     7
 79
     5
170
     0
171
     0
290
     0
174
     0
 93
        1
 44
0.0
173
     0
291
     1
 45
0.0
1001
ACAD
1000
AcDbSavedByObjectVersion
1070
     0
  0
VISUALSTYLE
  5
3FE
102
{ACAD_XDICTIONARY
360
1019
102
}
102
{ACAD_REACTORS
330
3F2
102
}
330
3F2
100
AcDbVisualStyle
  2

 70
    12
 71
     2
 72
     2
 73
     0
 90
        0
 40
-0.6
 41
-30.0
 62
     5
 63
     7
 74
     1
 91
        4
 64
     7
 65
   257
 75
     1
175
     1
 42
1.0
 92
        8
 66
     7
 43
1.0
 76
     1
 77
     6
 78
     2
 67
     7
 79
     5
170
     0
171
     0
290
     0
174
     0
 93
        1
 44
50.0
173
     0
291
     1
 45
0.0
1001
ACAD
1000
AcDbSavedByObjectVersion
1070
     0
  0
VISUALSTYLE
  5
402
102
{ACAD_XDICTIONARY
360
1021
102
}
102
{ACAD_REACTORS
330
3F2
102
}
330
3F2
100
AcDbVisualStyle
  2

 70
    16
 71
     2
 72
     2
 73
     3
 90
        0
 40
-0.6
 41
-30.0
 62
     5
 63
     8
 74
     1
 91
        4
 64
     7
 65
   257
 75
     1
175
     1
 42
1.0
 92
        8
 66
     8
 43
1.0
 76
     1
 77
     6
 78
     2
 67
     7
 79
     5
170
     0
171
     0
290
     0
174
     0
 93
        1
 44
0.0
173
     0
291
     1
 45
0.0
1001
ACAD
1000
AcDbSavedByObjectVersion
1070
     0
  0
VISUALSTYLE
  5
3FB
102
{ACAD_XDICTIONARY
360
1013
102
}
102
{ACAD_REACTORS
330
3F2
102
}
330
3F2
100
AcDbVisualStyle
  2

 70
     9
 71
     3
 72
     2
 73
     0
 90
        0
 40
-0.6
 41
-30.0
 62
     5
 63
     7
 74
     2
 91
        2
 64
     7
 65
   257
 75
     1
175
     1
 42
40.0
 92
        8
 66
     7
 43
1.0
 76
     1
 77
     6
 78
     2
 67
     7
 79
     3
170
     0
171
     0
290
     0
174
     0
 93
        1
 44
0.0
173
     0
291
     0
 45
0.0
1001
ACAD
1000
AcDbSavedByObjectVersion
1070
     0
  0
VISUALSTYLE
  5
3FD
102
{ACAD_XDICTIONARY
360
1017
102
}
102
{ACAD_REACTORS
330
3F2
102
}
330
3F2
100
AcDbVisualStyle
  2

 70
    11
 71
     2
 72
     2
 73
     0
 90
        0
 40
-0.6
 41
-30.0
 62
     5
 63
     7
 74
     1
 91
        4
 64
     7
 65
   257
 75
     1
175
     1
 42
1.0
 92
        8
 66
     7
 43
1.0
 76
     1
 77
     6
 78
     2
 67
     7
 79
     5
170
     0
171
     0
290
     0
174
     0
 93
        1
 44
-50.0
173
     0
291
     1
 45
0.0
1001
ACAD
1000
AcDbSavedByObjectVersion
1070
     0
  0
VISUALSTYLE
  5
73A
102
{ACAD_XDICTIONARY
360
1037
102
}
102
{ACAD_REACTORS
330
3F2
102
}
330
3F2
100
AcDbVisualStyle
  2

 70
    22
 71
     2
 72
     2
 73
     0
 90
        0
 40
-0.6
 41
-30.0
 62
     5
 63
     7
 74
     1
 91
        4
 64
     7
 65
   257
 75
     1
175
     1
 42
1.0
 92
        8
 66
     7
 43
1.0
 76
     1
 77
     6
 78
     2
 67
     7
 79
     5
170
     0
171
     0
290
     0
174
     0
 93
        1
 44
0.0
173
     0
291
     1
 45
0.0
1001
ACAD
1000
AcDbSavedByObjectVersion
1070
     0
  0
VISUALSTYLE
  5
401
102
{ACAD_XDICTIONARY
360
101F
102
}
102
{ACAD_REACTORS
330
3F2
102
}
330
3F2
100
AcDbVisualStyle
  2

 70
    15
 71
     2
 72
     2
 73
     0
 90
        0
 40
-0.6
 41
-30.0
 62
     5
 63
     7
 74
     1
 91
        4
 64
     7
 65
   257
 75
     1
175
     1
 42
1.0
 92
        8
 66
     7
 43
1.0
 76
     1
 77
     6
 78
     2
 67
     7
 79
     5
170
     0
171
     0
290
     0
174
     0
 93
        1
 44
0.0
173
     0
291
     1
 45
0.0
1001
ACAD
1000
AcDbSavedByObjectVersion
1070
     0
  0
VISUALSTYLE
  5
3F3
102
{ACAD_XDICTIONARY
360
1003
102
}
102
{ACAD_REACTORS
330
3F2
102
}
330
3F2
100
AcDbVisualStyle
  2

 70
     0
 71
     2
 72
     1
 73
     1
 90
        2
 40
-0.6
 41
30.0
 62
     5
 63
     7
 74
     0
 91
        4
 64
     7
 65
   257
 75
     1
175
     1
 42
1.0
 92
        8
 66
     7
 43
1.0
 76
     1
 77
     6
 78
     2
 67
     7
 79
     5
170
     0
171
     0
290
     0
174
     0
 93
       13
 44
0.0
173
     0
291
     1
 45
0.0
1001
ACAD
1000
AcDbSavedByObjectVersion
1070
     0
  0
VISUALSTYLE
  5
3F4
102
{ACAD_XDICTIONARY
360
1005
102
}
102
{ACAD_REACTORS
330
3F2
102
}
330
3F2
100
AcDbVisualStyle
  2

 70
     1
 71
     2
 72
     1
 73
     1
 90
        2
 40
-0.6
 41
30.0
 62
     5
 63
     7
 74
     1
 91
        4
 64
     7
 65
   257
 75
     1
175
     1
 42
1.0
 92
        0
 66
   257
 43
1.0
 76
     1
 77
     6
 78
     2
 67
     7
 79
     5
170
     0
171
     0
290
     0
174
     0
 93
       13
 44
0.0
173
     0
291
     1
 45
0.0
1001
ACAD
1000
AcDbSavedByObjectVersion
1070
     0
  0
VISUALSTYLE
  5
3F5
102
{ACAD_XDICTIONARY
360
1007
102
}
102
{ACAD_REACTORS
330
3F2
102
}
330
3F2
100
AcDbVisualStyle
  2

 70
     2
 71
     2
 72
     2
 73
     1
 90
        2
 40
-0.6
 41
30.0
 62
     5
 63
     7
 74
     0
 91
        4
 64
     7
 65
   257
 75
     1
175
     1
 42
1.0
 92
        0
 66
     7
 43
1.0
 76
     1
 77
     6
 78
     2
 67
     7
 79
     5
170
     0
171
     0
290
     0
174
     0
 93
       13
 44
0.0
173
     0
291
     1
 45
0.0
1001
ACAD
1000
AcDbSavedByObjectVersion
1070
     0
  0
VISUALSTYLE
  5
3F6
102
{ACAD_XDICTIONARY
360
1009
102
}
102
{ACAD_REACTORS
330
3F2
102
}
330
3F2
100
AcDbVisualStyle
  2

 70
     3
 71
     2
 72
     2
 73
     1
 90
        2
 40
-0.6
 41
30.0
 62
     5
 63
     7
 74
     1
 91
        4
 64
     7
 65
   257
 75
     1
175
     1
 42
1.0
 92
        0
 66
   257
 43
1.0
 76
     1
 77
     6
 78
     2
 67
     7
 79
     5
170
     0
171
     0
290
     0
174
     0
 93
       13
 44
0.0
173
     0
291
     1
 45
0.0
1001
ACAD
1000
AcDbSavedByObjectVersion
1070
     0
  0
VISUALSTYLE
  5
732
102
{ACAD_XDICTIONARY
360
1027
102
}
102
{ACAD_REACTORS
330
3F2
102
}
330
3F2
100
AcDbVisualStyle
  2

 70
     6
 71
     1
 72
     2
 73
     2
 90
        0
 40
-0.6
 41
-30.0
 62
     5
 63
     7
 74
     2
 91
        2
 64
     7
 65
   257
 75
     2
175
     1
 42
40.0
 92
        0
 66
   257
 43
1.0
 76
     1
 77
     6
 78
     2
 67
     7
 79
     3
170
     0
171
     0
290
     0
174
     0
 93
        1
 44
0.0
173
     0
291
     0
 45
0.0
1001
ACAD
1000
AcDbSavedByObjectVersion
1070
     0
  0
VISUALSTYLE
  5
738
102
{ACAD_XDICTIONARY
360
1033
102
}
102
{ACAD_REACTORS
330
3F2
102
}
330
3F2
100
AcDbVisualStyle
  2

 70
    20
 71
     2
 72
     2
 73
     0
 90
        0
 40
-0.6
 41
-30.0
 62
     5
 63
     7
 74
     1
 91
        4
 64
     7
 65
   257
 75
     1
175
     1
 42
1.0
 92
       10
 66
     7
 43
1.0
 76
     1
 77
     6
 78
     2
 67
     7
 79
     5
170
     0
171
     0
290
     0
174
     0
 93
        1
 44
0.0
173
     0
291
     1
 45
0.0
1001
ACAD
1000
AcDbSavedByObjectVersion
1070
     0
  0
VISUALSTYLE
  5
400
102
{ACAD_XDICTIONARY
360
101D
102
}
102
{ACAD_REACTORS
330
3F2
102
}
330
3F2
100
AcDbVisualStyle
  2

 70
    14
 71
     2
 72
     2
 73
     0
 90
        0
 40
-0.6
 41
-30.0
 62
     5
 63
     7
 74
     1
 91
        4
 64
     7
 65
   257
 75
     7
175
     7
 42
1.0
 92
        8
 66
     7
 43
1.0
 76
     1
 77
     6
 78
     2
 67
     7
 79
     5
170
     0
171
     0
290
     0
174
     0
 93
        1
 44
0.0
173
     0
291
     1
 45
0.0
1001
ACAD
1000
AcDbSavedByObjectVersion
1070
     0
  0
VISUALSTYLE
  5
739
102
{ACAD_XDICTIONARY
360
1035
102
}
102
{ACAD_REACTORS
330
3F2
102
}
330
3F2
100
AcDbVisualStyle
  2

 70
    21
 71
     2
 72
     2
 73
     0
 90
        0
 40
-0.6
 41
-30.0
 62
     5
 63
     7
 74
     1
 91
        4
 64
     7
 65
   257
 75
     1
175
     1
 42
1.0
 92
        9
 66
     7
 43
1.0
 76
     1
 77
     6
 78
     2
 67
     7
 79
     5
170
     0
171
     0
290
     0
174
     0
 93
        1
 44
0.0
173
     0
291
     1
 45
0.0
1001
ACAD
1000
AcDbSavedByObjectVersion
1070
     0
  0
VISUALSTYLE
  5
3FC
102
{ACAD_XDICTIONARY
360
1015
102
}
102
{ACAD_REACTORS
330
3F2
102
}
330
3F2
100
AcDbVisualStyle
  2

 70
     8
 71
     2
 72
     2
 73
     0
 90
        0
 40
-0.6
 41
-30.0
 62
     5
 63
     7
 74
     1
 91
        0
 64
     7
 65
   257
 75
     1
175
     1
 42
1.0
 92
        8
 66
     8
 43
1.0
 76
     1
 77
     6
 78
     2
 67
     7
 79
     5
170
     0
171
     0
290
     0
174
     0
 93
       13
 44
0.0
173
     0
291
     0
 45
0.0
1001
ACAD
1000
AcDbSavedByObjectVersion
1070
     0
  0
VISUALSTYLE
  5
737
102
{ACAD_XDICTIONARY
360
1031
102
}
102
{ACAD_REACTORS
330
3F2
102
}
330
3F2
100
AcDbVisualStyle
  2

 70
    27
 71
     2
 72
     2
 73
     1
 90
        2
 40
-0.6
 41
30.0
 62
     5
 63
     7
 74
     0
 91
        4
 64
     7
 65
   257
 75
     1
175
     1
 42
1.0
 92
        8
 66
   257
 43
1.0
 76
     1
 77
     6
 78
     2
 67
     8
 79
     3
170
     0
171
     0
290
     0
174
     0
 93
        5
 44
0.0
173
     0
291
     0
 45
0.0
1001
ACAD
1000
AcDbSavedByObjectVersion
1070
     0
  0
VISUALSTYLE
  5
736
102
{ACAD_XDICTIONARY
360
102F
102
}
102
{ACAD_REACTORS
330
3F2
102
}
330
3F2
100
AcDbVisualStyle
  2

 70
    26
 71
     2
 72
     2
 73
     1
 90
        2
 40
-0.6
 41
30.0
 62
     5
 63
     7
 74
     1
 91
       10
 64
     7
 65
   257
 75
     2
175
     1
 42
1.0
 92
        8
 66
   257
 43
1.0
 76
     1
 77
     6
 78
     2
 67
     7
 79
     3
170
     0
171
     0
290
     0
174
     0
 93
        5
 44
0.0
173
     0
291
     0
 45
0.0
1001
ACAD
1000
AcDbSavedByObjectVersion
1070
     0
  0
VISUALSTYLE
  5
733
102
{ACAD_XDICTIONARY
360
1029
102
}
102
{ACAD_REACTORS
330
3F2
102
}
330
3F2
100
AcDbVisualStyle
  2

 70
    23
 71
     2
 72
     2
 73
     3
 90
        0
 40
-0.6
 41
-30.0
 62
     5
 63
     7
 74
     2
 91
        2
 64
     7
 65
     7
 75
     1
175
     1
 42
40.0
 92
        8
 66
     7
 43
1.0
 76
     1
 77
     6
 78
     2
 67
     7
 79
     3
170
     0
171
     0
290
     0
174
     0
 93
        1
 44
0.0
173
     0
291
     0
 45
0.0
1001
ACAD
1000
AcDbSavedByObjectVersion
1070
     0
  0
VISUALSTYLE
  5
734
102
{ACAD_XDICTIONARY
360
102B
102
}
102
{ACAD_REACTORS
330
3F2
102
}
330
3F2
100
AcDbVisualStyle
  2

 70
    24
 71
     1
 72
     2
 73
     2
 90
        0
 40
-0.6
 41
-30.0
 62
     5
 63
     7
 74
     2
 91
        2
 64
     7
 65
     7
 75
     1
175
     1
 42
40.0
 92
       11
 66
     7
 43
1.0
 76
     1
 77
     6
 78
     2
 67
     7
 79
     6
170
     0
171
     0
290
     0
174
     0
 93
        1
 44
0.0
173
     0
291
     0
 45
0.0
1001
ACAD
1000
AcDbSavedByObjectVersion
1070
     0
  0
VISUALSTYLE
  5
3FF
102
{ACAD_XDICTIONARY
360
101B
102
}
102
{ACAD_REACTORS
330
3F2
102
}
330
3F2
100
AcDbVisualStyle
  2

 70
    13
 71
     2
 72
     2
 73
     0
 90
        0
 40
-0.6
 41
-30.0
 62
     5
 63
     7
 74
     1
 91
        4
 64
     7
 65
   257
 75
     1
175
     1
 42
1.0
 92
       12
 66
     7
 43
1.0
 76
     1
 77
     6
 78
     2
 67
     7
 79
     5
170
     0
171
     0
290
     0
174
     0
 93
        1
 44
0.0
173
     0
291
     1
 45
0.0
1001
ACAD
1000
AcDbSavedByObjectVersion
1070
     0
  0
VISUALSTYLE
  5
731
102
{ACAD_XDICTIONARY
360
1025
102
}
102
{ACAD_REACTORS
330
3F2
102
}
330
3F2
100
AcDbVisualStyle
  2

 70
     5
 71
     0
 72
     2
 73
     0
 90
        0
 40
-0.6
 41
-30.0
 62
     5
 63
     7
 74
     1
 91
        4
 64
     7
 65
   257
 75
     1
175
     1
 42
1.0
 92
        0
 66
   257
 43
1.0
 76
     1
 77
     6
 78
     2
 67
     7
 79
     3
170
     0
171
     0
290
     0
174
     0
 93
        1
 44
0.0
173
     0
291
     0
 45
0.0
1001
ACAD
1000
AcDbSavedByObjectVersion
1070
     0
  0
VISUALSTYLE
  5
735
102
{ACAD_XDICTIONARY
360
102D
102
}
102
{ACAD_REACTORS
330
3F2
102
}
330
3F2
100
AcDbVisualStyle
  2

 70
    25
 71
     2
 72
     2
 73
     1
 90
        1
 40
0.5
 41
-30.0
 62
     5
 63
     7
 74
     1
 91
        0
 64
     7
 65
   257
 75
     1
175
     1
 42
1.0
 92
        8
 66
     7
 43
1.0
 76
     1
 77
     6
 78
     2
 67
     7
 79
     3
170
     0
171
     0
290
     0
174
     0
 93
       13
 44
0.0
173
     0
291
     0
 45
0.0
1001
ACAD
1000
AcDbSavedByObjectVersion
1070
     0
  0
DICTIONARYVAR
  5
449
102
{ACAD_REACTORS
330
357
102
}
330
357
100
DictionaryVariables
280
     0
  1
1:1
  0
DICTIONARYVAR
  5
447
102
{ACAD_REACTORS
330
357
102
}
330
357
100
DictionaryVariables
280
     0
  1
STANDARD
  0
DICTIONARYVAR
  5
38E
102
{ACAD_REACTORS
330
357
102
}
330
357
100
DictionaryVariables
280
     0
  1
STANDARD
  0
DICTIONARYVAR
  5
FA6
102
{ACAD_REACTORS
330
357
102
}
330
357
100
DictionaryVariables
280
     0
  1
Metric50
  0
DICTIONARYVAR
  5
FA7
102
{ACAD_REACTORS
330
357
102
}
330
357
100
DictionaryVariables
280
     0
  1
Metric50
  0
DICTIONARYVAR
  5
359
102
{ACAD_REACTORS
330
357
102
}
330
357
100
DictionaryVariables
280
     0
  1
2
  0
DICTIONARYVAR
  5
358
102
{ACAD_REACTORS
330
357
102
}
330
357
100
DictionaryVariables
280
     0
  1
1
  0
DICTIONARYVAR
  5
F26
102
{ACAD_REACTORS
330
357
102
}
330
357
100
DictionaryVariables
280
     0
  1
0
  0
DICTIONARYVAR
  5
7AE
102
{ACAD_REACTORS
330
357
102
}
330
357
100
DictionaryVariables
280
     0
  1
1
  0
DICTIONARYVAR
  5
7AF
102
{ACAD_REACTORS
330
357
102
}
330
357
100
DictionaryVariables
280
     0
  1
15
  0
DICTIONARYVAR
  5
44A
102
{ACAD_REACTORS
330
357
102
}
330
357
100
DictionaryVariables
280
     0
  1
0
  0
DICTIONARYVAR
  5
448
102
{ACAD_REACTORS
330
357
102
}
330
357
100
DictionaryVariables
280
     0
  1
0
  0
DICTIONARYVAR
  5
F28
102
{ACAD_REACTORS
330
357
102
}
330
357
100
DictionaryVariables
280
     0
  1
1
  0
DICTIONARYVAR
  5
F25
102
{ACAD_REACTORS
330
357
102
}
330
357
100
DictionaryVariables
280
     0
  1
127
  0
DICTIONARYVAR
  5
FF5
102
{ACAD_REACTORS
330
357
102
}
330
357
100
DictionaryVariables
280
     0
  1
2
  0
DICTIONARY
  5
76F
102
{ACAD_REACTORS
330
76D
102
}
330
76D
100
AcDbDictionary
281
     1
  0
XRECORD
  5
D33
102
{ACAD_REACTORS
330
76D
102
}
330
76D
100
AcDbXrecord
280
     1
 90
-1023410169
  0
XRECORD
  5
B2A
102
{ACAD_REACTORS
330
B29
102
}
330
B29
100
AcDbXrecord
280
     1
330
A8D
330
AA1
  0
DICTIONARY
  5
103E
330
F9E
100
AcDbDictionary
280
     1
281
     1
  3
ACAD_XREC_ROUNDTRIP
360
103F
  0
DICTIONARY
  5
1000
330
33B
100
AcDbDictionary
280
     1
281
     1
  3
ACAD_XREC_ROUNDTRIP
360
1001
  0
DICTIONARY
  5
FFE
330
303
100
AcDbDictionary
280
     1
281
     1
  3
ACAD_XREC_ROUNDTRIP
360
FFF
  0
DICTIONARY
  5
F36
330
3F0
100
AcDbDictionary
280
     1
281
     1
  3
ACAD_XREC_ROUNDTRIP
360
F37
  0
DICTIONARY
  5
F34
330
3EF
100
AcDbDictionary
280
     1
281
     1
  3
ACAD_XREC_ROUNDTRIP
360
F35
  0
DICTIONARY
  5
F38
330
3F1
100
AcDbDictionary
280
     1
281
     1
  3
ACAD_XREC_ROUNDTRIP
360
F39
  0
DICTIONARY
  5
1023
330
43D
100
AcDbDictionary
280
     1
281
     1
  3
ACAD_XREC_ROUNDTRIP
360
1024
  0
DICTIONARY
  5
103C
330
F9C
100
AcDbDictionary
280
     1
281
     1
  3
ACAD_XREC_ROUNDTRIP
360
103D
  0
DICTIONARY
  5
444
330
389
100
AcDbDictionary
280
     1
281
     1
  3
ACAD_ROUNDTRIP_2008_TABLESTYLE_CELLSTYLEMAP
360
FF6
  3
ACAD_XREC_ROUNDTRIP
360
1002
  0
DICTIONARY
  5
100D
330
3F8
100
AcDbDictionary
280
     1
281
     1
  3
ACAD_XREC_ROUNDTRIP
360
100E
  0
DICTIONARY
  5
1011
330
3FA
100
AcDbDictionary
280
     1
281
     1
  3
ACAD_XREC_ROUNDTRIP
360
1012
  0
DICTIONARY
  5
100F
330
3F9
100
AcDbDictionary
280
     1
281
     1
  3
ACAD_XREC_ROUNDTRIP
360
1010
  0
DICTIONARY
  5
100B
330
3F7
100
AcDbDictionary
280
     1
281
     1
  3
ACAD_XREC_ROUNDTRIP
360
100C
  0
DICTIONARY
  5
1019
330
3FE
100
AcDbDictionary
280
     1
281
     1
  3
ACAD_XREC_ROUNDTRIP
360
101A
  0
DICTIONARY
  5
1021
330
402
100
AcDbDictionary
280
     1
281
     1
  3
ACAD_XREC_ROUNDTRIP
360
1022
  0
DICTIONARY
  5
1013
330
3FB
100
AcDbDictionary
280
     1
281
     1
  3
ACAD_XREC_ROUNDTRIP
360
1014
  0
DICTIONARY
  5
1017
330
3FD
100
AcDbDictionary
280
     1
281
     1
  3
ACAD_XREC_ROUNDTRIP
360
1018
  0
DICTIONARY
  5
1037
330
73A
100
AcDbDictionary
280
     1
281
     1
  3
ACAD_XREC_ROUNDTRIP
360
1038
  0
DICTIONARY
  5
101F
330
401
100
AcDbDictionary
280
     1
281
     1
  3
ACAD_XREC_ROUNDTRIP
360
1020
  0
DICTIONARY
  5
1003
330
3F3
100
AcDbDictionary
280
     1
281
     1
  3
ACAD_XREC_ROUNDTRIP
360
1004
  0
DICTIONARY
  5
1005
330
3F4
100
AcDbDictionary
280
     1
281
     1
  3
ACAD_XREC_ROUNDTRIP
360
1006
  0
DICTIONARY
  5
1007
330
3F5
100
AcDbDictionary
280
     1
281
     1
  3
ACAD_XREC_ROUNDTRIP
360
1008
  0
DICTIONARY
  5
1009
330
3F6
100
AcDbDictionary
280
     1
281
     1
  3
ACAD_XREC_ROUNDTRIP
360
100A
  0
DICTIONARY
  5
1027
330
732
100
AcDbDictionary
280
     1
281
     1
  3
ACAD_XREC_ROUNDTRIP
360
1028
  0
DICTIONARY
  5
1033
330
738
100
AcDbDictionary
280
     1
281
     1
  3
ACAD_XREC_ROUNDTRIP
360
1034
  0
DICTIONARY
  5
101D
330
400
100
AcDbDictionary
280
     1
281
     1
  3
ACAD_XREC_ROUNDTRIP
360
101E
  0
DICTIONARY
  5
1035
330
739
100
AcDbDictionary
280
     1
281
     1
  3
ACAD_XREC_ROUNDTRIP
360
1036
  0
DICTIONARY
  5
1015
330
3FC
100
AcDbDictionary
280
     1
281
     1
  3
ACAD_XREC_ROUNDTRIP
360
1016
  0
DICTIONARY
  5
1031
330
737
100
AcDbDictionary
280
     1
281
     1
  3
ACAD_XREC_ROUNDTRIP
360
1032
  0
DICTIONARY
  5
102F
330
736
100
AcDbDictionary
280
     1
281
     1
  3
ACAD_XREC_ROUNDTRIP
360
1030
  0
DICTIONARY
  5
1029
330
733
100
AcDbDictionary
280
     1
281
     1
  3
ACAD_XREC_ROUNDTRIP
360
102A
  0
DICTIONARY
  5
102B
330
734
100
AcDbDictionary
280
     1
281
     1
  3
ACAD_XREC_ROUNDTRIP
360
102C
  0
DICTIONARY
  5
101B
330
3FF
100
AcDbDictionary
280
     1
281
     1
  3
ACAD_XREC_ROUNDTRIP
360
101C
  0
DICTIONARY
  5
1025
330
731
100
AcDbDictionary
280
     1
281
     1
  3
ACAD_XREC_ROUNDTRIP
360
1026
  0
DICTIONARY
  5
102D
330
735
100
AcDbDictionary
280
     1
281
     1
  3
ACAD_XREC_ROUNDTRIP
360
102E
  0
XRECORD
  5
103F
102
{ACAD_REACTORS
330
103E
102
}
330
103E
100
AcDbXrecord
280
     1
102
DISPLAYNAME
  1
Metric50
102
FLAGS
 90
        0
  0
XRECORD
  5
1001
102
{ACAD_REACTORS
330
1000
102
}
330
1000
100
AcDbXrecord
280
     1
102
SHADEPLOT
 70
     0
102
SHADEPLOTRESLEVEL
 70
     2
102
SHADEPLOTCUSTOMDPI
 70
   300
  0
XRECORD
  5
FFF
102
{ACAD_REACTORS
330
FFE
102
}
330
FFE
100
AcDbXrecord
280
     1
102
SHADEPLOT
 70
     1
102
SHADEPLOTRESLEVEL
 70
     2
102
SHADEPLOTCUSTOMDPI
 70
   300
  0
XRECORD
  5
F37
102
{ACAD_REACTORS
330
F36
102
}
330
F36
100
AcDbXrecord
280
     1
102
MATERIAL
148
0.0
149
0.0
149
0.0
 93
        0
 94
      127
282
     0
 72
     1
 77
     1
171
     1
175
     1
179
     1
273
     0
  0
XRECORD
  5
F35
102
{ACAD_REACTORS
330
F34
102
}
330
F34
100
AcDbXrecord
280
     1
102
MATERIAL
148
0.0
149
0.0
149
0.0
 93
        0
 94
      127
282
     0
 72
     1
 77
     1
171
     1
175
     1
179
     1
273
     0
  0
XRECORD
  5
F39
102
{ACAD_REACTORS
330
F38
102
}
330
F38
100
AcDbXrecord
280
     1
102
MATERIAL
148
0.0
149
0.0
149
0.0
 93
        0
 94
      127
282
     0
 72
     1
 77
     1
171
     1
175
     1
179
     1
273
     0
  0
XRECORD
  5
1024
102
{ACAD_REACTORS
330
1023
102
}
330
1023
100
AcDbXrecord
280
     1
102
ACAD_ROUNDTRIP_2012_MLEADER_STYLE
298
     1
  0
XRECORD
  5
103D
102
{ACAD_REACTORS
330
103C
102
}
330
103C
100
AcDbXrecord
280
     1
102
DISPLAYNAME
  1
Metric50
102
FLAGS
 90
        0
  0
CELLSTYLEMAP
  5
FF6
102
{ACAD_REACTORS
330
444
102
}
330
444
100
AcDbCellStyleMap
 90
        3
300
CELLSTYLE
  1
TABLEFORMAT_BEGIN
 90
        5
170
     1
 91
        0
 92
    32768
 62
   257
 93
        1
300
CONTENTFORMAT
  1
CONTENTFORMAT_BEGIN
 90
        0
 91
        0
 92
        4
 93
        0
300

 40
0.0
140
1.0
 94
        5
 62
     0
340
10
144
6.0
309
CONTENTFORMAT_END
171
     1
301
MARGIN
  1
CELLMARGIN_BEGIN
 40
1.5
 40
1.5
 40
1.5
 40
1.5
 40
0.18
 40
0.18
309
CELLMARGIN_END
 94
        6
 95
        1
302
GRIDFORMAT
  1
GRIDFORMAT_BEGIN
 90
        0
 91
        1
 62
     0
 92
       -2
340
0
 93
        0
 40
0.045
309
GRIDFORMAT_END
 95
        2
302
GRIDFORMAT
  1
GRIDFORMAT_BEGIN
 90
        0
 91
        1
 62
     0
 92
       -2
340
0
 93
        0
 40
0.045
309
GRIDFORMAT_END
 95
        4
302
GRIDFORMAT
  1
GRIDFORMAT_BEGIN
 90
        0
 91
        1
 62
     0
 92
       -2
340
0
 93
        0
 40
0.045
309
GRIDFORMAT_END
 95
        8
302
GRIDFORMAT
  1
GRIDFORMAT_BEGIN
 90
        0
 91
        1
 62
     0
 92
       -2
340
0
 93
        0
 40
0.045
309
GRIDFORMAT_END
 95
       16
302
GRIDFORMAT
  1
GRIDFORMAT_BEGIN
 90
        0
 91
        1
 62
     0
 92
       -2
340
0
 93
        0
 40
0.045
309
GRIDFORMAT_END
 95
       32
302
GRIDFORMAT
  1
GRIDFORMAT_BEGIN
 90
        0
 91
        1
 62
     0
 92
       -2
340
0
 93
        0
 40
0.045
309
GRIDFORMAT_END
309
TABLEFORMAT_END
  1
CELLSTYLE_BEGIN
 90
        1
 91
        1
300
_TITLE
309
CELLSTYLE_END
300
CELLSTYLE
  1
TABLEFORMAT_BEGIN
 90
        5
170
     1
 91
        0
 92
        0
 62
   257
 93
        1
300
CONTENTFORMAT
  1
CONTENTFORMAT_BEGIN
 90
        0
 91
        0
 92
        4
 93
        0
300

 40
0.0
140
1.0
 94
        5
 62
     0
340
10
144
4.5
309
CONTENTFORMAT_END
171
     1
301
MARGIN
  1
CELLMARGIN_BEGIN
 40
1.5
 40
1.5
 40
1.5
 40
1.5
 40
0.18
 40
0.18
309
CELLMARGIN_END
 94
        6
 95
        1
302
GRIDFORMAT
  1
GRIDFORMAT_BEGIN
 90
        0
 91
        1
 62
     0
 92
       -2
340
0
 93
        0
 40
0.045
309
GRIDFORMAT_END
 95
        2
302
GRIDFORMAT
  1
GRIDFORMAT_BEGIN
 90
        0
 91
        1
 62
     0
 92
       -2
340
0
 93
        0
 40
0.045
309
GRIDFORMAT_END
 95
        4
302
GRIDFORMAT
  1
GRIDFORMAT_BEGIN
 90
        0
 91
        1
 62
     0
 92
       -2
340
0
 93
        0
 40
0.045
309
GRIDFORMAT_END
 95
        8
302
GRIDFORMAT
  1
GRIDFORMAT_BEGIN
 90
        0
 91
        1
 62
     0
 92
       -2
340
0
 93
        0
 40
0.045
309
GRIDFORMAT_END
 95
       16
302
GRIDFORMAT
  1
GRIDFORMAT_BEGIN
 90
        0
 91
        1
 62
     0
 92
       -2
340
0
 93
        0
 40
0.045
309
GRIDFORMAT_END
 95
       32
302
GRIDFORMAT
  1
GRIDFORMAT_BEGIN
 90
        0
 91
        1
 62
     0
 92
       -2
340
0
 93
        0
 40
0.045
309
GRIDFORMAT_END
309
TABLEFORMAT_END
  1
CELLSTYLE_BEGIN
 90
        2
 91
        1
300
_HEADER
309
CELLSTYLE_END
300
CELLSTYLE
  1
TABLEFORMAT_BEGIN
 90
        5
170
     1
 91
        0
 92
        0
 62
   257
 93
        1
300
CONTENTFORMAT
  1
CONTENTFORMAT_BEGIN
 90
        0
 91
        0
 92
        4
 93
        0
300

 40
0.0
140
1.0
 94
        2
 62
     0
340
10
144
4.5
309
CONTENTFORMAT_END
171
     1
301
MARGIN
  1
CELLMARGIN_BEGIN
 40
1.5
 40
1.5
 40
1.5
 40
1.5
 40
0.18
 40
0.18
309
CELLMARGIN_END
 94
        6
 95
        1
302
GRIDFORMAT
  1
GRIDFORMAT_BEGIN
 90
        0
 91
        1
 62
     0
 92
       -2
340
0
 93
        0
 40
0.045
309
GRIDFORMAT_END
 95
        2
302
GRIDFORMAT
  1
GRIDFORMAT_BEGIN
 90
        0
 91
        1
 62
     0
 92
       -2
340
0
 93
        0
 40
0.045
309
GRIDFORMAT_END
 95
        4
302
GRIDFORMAT
  1
GRIDFORMAT_BEGIN
 90
        0
 91
        1
 62
     0
 92
       -2
340
0
 93
        0
 40
0.045
309
GRIDFORMAT_END
 95
        8
302
GRIDFORMAT
  1
GRIDFORMAT_BEGIN
 90
        0
 91
        1
 62
     0
 92
       -2
340
0
 93
        0
 40
0.045
309
GRIDFORMAT_END
 95
       16
302
GRIDFORMAT
  1
GRIDFORMAT_BEGIN
 90
        0
 91
        1
 62
     0
 92
       -2
340
0
 93
        0
 40
0.045
309
GRIDFORMAT_END
 95
       32
302
GRIDFORMAT
  1
GRIDFORMAT_BEGIN
 90
        0
 91
        1
 62
     0
 92
       -2
340
0
 93
        0
 40
0.045
309
GRIDFORMAT_END
309
TABLEFORMAT_END
  1
CELLSTYLE_BEGIN
 90
        3
 91
        2
300
_DATA
309
CELLSTYLE_END
  0
XRECORD
  5
1002
102
{ACAD_REACTORS
330
444
102
}
330
444
100
AcDbXrecord
280
     1
102
ACAD_ROUNDTRIP_PRE2007_TABLESTYLE
 90
        4
 91
        0
  1

 92
        4
 93
        0
  2

 94
        4
 95
        0
  3

  0
XRECORD
  5
100E
102
{ACAD_REACTORS
330
100D
102
}
330
100D
100
AcDbXrecord
280
     1
102
RTVSPost2010Prop28
280
     1
102
RTVSPost2010PropOp28
 70
     1
102
RTVSPost2010Prop29
280
     1
102
RTVSPost2010PropOp29
 70
     1
102
RTVSPost2010Prop30
280
     0
102
RTVSPost2010PropOp30
 70
     1
102
RTVSPost2010Prop31
280
     0
102
RTVSPost2010PropOp31
 70
     1
102
RTVSPost2010Prop32
280
     0
102
RTVSPost2010PropOp32
 70
     1
102
RTVSPost2010Prop33
280
     0
102
RTVSPost2010PropOp33
 70
     1
102
RTVSPost2010Prop34
280
     0
102
RTVSPost2010PropOp34
 70
     1
102
RTVSPost2010Prop35
280
     0
102
RTVSPost2010PropOp35
 70
     1
102
RTVSPost2010Prop36
280
     0
102
RTVSPost2010PropOp36
 70
     1
102
RTVSPost2010Prop37
 90
       50
102
RTVSPost2010PropOp37
 70
     1
102
RTVSPost2010Prop38
140
0.0
102
RTVSPost2010PropOp38
 70
     1
102
RTVSPost2010Prop39
140
1.0
102
RTVSPost2010PropOp39
 70
     1
102
RTVSPost2010Prop40
 90
        0
102
RTVSPost2010PropOp40
 70
     1
102
RTVSPost2010Prop41ColorIndex
 90
       18
102
RTVSPost2010Prop41ColorRGB
 90
        0
102
RTVSPost2010PropOp41
 70
     1
102
RTVSPost2010Prop42
 90
       50
102
RTVSPost2010PropOp42
 70
     1
102
RTVSPost2010Prop43
 90
        3
102
RTVSPost2010PropOp43
 70
     1
102
RTVSPost2010Prop44ColorIndex
 90
        5
102
RTVSPost2010Prop44ColorRGB
 90
      255
102
RTVSPost2010PropOp44
 70
     1
102
RTVSPost2010Prop45
280
     0
102
RTVSPost2010PropOp45
 70
     1
102
RTVSPost2010Prop46
 90
       50
102
RTVSPost2010PropOp46
 70
     1
102
RTVSPost2010Prop47
 90
       50
102
RTVSPost2010PropOp47
 70
     1
102
RTVSPost2010Prop48
 90
       50
102
RTVSPost2010PropOp48
 70
     1
102
RTVSPost2010Prop49
280
     0
102
RTVSPost2010PropOp49
 70
     1
102
RTVSPost2010Prop50
 90
       50
102
RTVSPost2010PropOp50
 70
     1
102
RTVSPost2010Prop51ColorIndex
 90
      256
102
RTVSPost2010Prop51ColorRGB
 90
-16777216
102
RTVSPost2010PropOp51
 70
     0
102
RTVSPost2010Prop52
140
1.0
102
RTVSPost2010PropOp52
 70
     0
102
RTVSPost2010Prop53
 90
        2
102
RTVSPost2010PropOp53
 70
     1
102
RTVSPost2010Prop54
  1
strokes_ogs.tif
102
RTVSPost2010PropOp54
 70
     1
102
RTVSPost2010Prop55
280
     0
102
RTVSPost2010PropOp55
 70
     1
102
RTVSPost2010Prop56
140
1.0
102
RTVSPost2010PropOp56
 70
     1
102
RTVSPost2010Prop57
140
1.0
102
RTVSPost2010PropOp57
 70
     1
102
RTVSPropertyOp0
 70
     1
102
RTVSPropertyOp1
 70
     1
102
RTVSPropertyOp2
 70
     1
102
RTVSPropertyOp3
 70
     1
102
RTVSPropertyOp4
 70
     1
102
RTVSPropertyOp5
 70
     1
102
RTVSPropertyOp6
 70
     1
102
RTVSPropertyOp7
 70
     1
102
RTVSPropertyOp8
 70
     1
102
RTVSPropertyOp9
 70
     1
102
RTVSPropertyOp10
 70
     1
102
RTVSPropertyOp11
 70
     1
102
RTVSPropertyOp12
 70
     1
102
RTVSPropertyOp13
 70
     1
102
RTVSPropertyOp14
 70
     1
102
RTVSPropertyOp15
 70
     1
102
RTVSPropertyOp16
 70
     1
102
RTVSPropertyOp17
 70
     1
102
RTVSPropertyOp18
 70
     1
102
RTVSPropertyOp19
 70
     1
102
RTVSPropertyOp20
 70
     1
102
RTVSPropertyOp21
 70
     1
102
RTVSPropertyOp22
 70
     1
102
RTVSPropertyOp23
 70
     1
102
RTVSPropertyOp24
 70
     1
102
RTVSPropertyOp25
 70
     1
102
RTVSPropertyOp26
 70
     1
102
RTVSPropertyOp27
 70
     1
102
RTVSPropertyOp28
 70
     1
102
RTVSPropertyOp29
 70
     1
102
RTVSPropertyOp30
 70
     1
102
RTVSPropertyOp31
 70
     1
102
RTVSPropertyOp32
 70
     1
102
RTVSPropertyOp33
 70
     1
102
RTVSPropertyOp34
 70
     1
102
RTVSPropertyOp35
 70
     1
102
RTVSPropertyOp36
 70
     1
102
RTVSPropertyOp37
 70
     1
102
RTVSPropertyOp38
 70
     1
102
RTVSPropertyOp39
 70
     1
102
RTVSPropertyOp40
 70
     1
102
RTVSPropertyOp41
 70
     1
102
RTVSPropertyOp42
 70
     1
102
RTVSPropertyOp43
 70
     1
102
RTVSPropertyOp44
 70
     1
102
RTVSPropertyOp45
 70
     1
102
RTVSPropertyOp46
 70
     1
102
RTVSPropertyOp47
 70
     1
102
RTVSPropertyOp48
 70
     1
102
RTVSPropertyOp49
 70
     1
102
RTVSPropertyOp50
 70
     1
102
RTVSPropertyOp51
 70
     0
102
RTVSPropertyOp52
 70
     0
102
RTVSPropertyOp53
 70
     1
102
RTVSPropertyOp54
 70
     1
102
RTVSPropertyOp55
 70
     1
102
RTVSPropertyOp56
 70
     1
102
RTVSPropertyOp57
 70
     1
102
RTVSPropertyOp58
 70
     1
102
RTVSPropertyOp59
 70
     1
102
RTVSPropertyOp60
 70
     1
102
RTVSPropertyOp61
 70
     1
102
RTVSPropertyOp62
 70
     1
  0
XRECORD
  5
1012
102
{ACAD_REACTORS
330
1011
102
}
330
1011
100
AcDbXrecord
280
     1
102
RTVSPost2010Prop28
280
     0
102
RTVSPost2010PropOp28
 70
     1
102
RTVSPost2010Prop29
280
     1
102
RTVSPost2010PropOp29
 70
     1
102
RTVSPost2010Prop30
280
     1
102
RTVSPost2010PropOp30
 70
     1
102
RTVSPost2010Prop31
280
     0
102
RTVSPost2010PropOp31
 70
     1
102
RTVSPost2010Prop32
280
     0
102
RTVSPost2010PropOp32
 70
     1
102
RTVSPost2010Prop33
280
     0
102
RTVSPost2010PropOp33
 70
     1
102
RTVSPost2010Prop34
280
     0
102
RTVSPost2010PropOp34
 70
     1
102
RTVSPost2010Prop35
280
     0
102
RTVSPost2010PropOp35
 70
     1
102
RTVSPost2010Prop36
280
     0
102
RTVSPost2010PropOp36
 70
     1
102
RTVSPost2010Prop37
 90
       50
102
RTVSPost2010PropOp37
 70
     1
102
RTVSPost2010Prop38
140
0.0
102
RTVSPost2010PropOp38
 70
     1
102
RTVSPost2010Prop39
140
1.0
102
RTVSPost2010PropOp39
 70
     1
102
RTVSPost2010Prop40
 90
        0
102
RTVSPost2010PropOp40
 70
     1
102
RTVSPost2010Prop41ColorIndex
 90
       18
102
RTVSPost2010Prop41ColorRGB
 90
        0
102
RTVSPost2010PropOp41
 70
     1
102
RTVSPost2010Prop42
 90
       50
102
RTVSPost2010PropOp42
 70
     1
102
RTVSPost2010Prop43
 90
        3
102
RTVSPost2010PropOp43
 70
     1
102
RTVSPost2010Prop44ColorIndex
 90
        5
102
RTVSPost2010Prop44ColorRGB
 90
      255
102
RTVSPost2010PropOp44
 70
     1
102
RTVSPost2010Prop45
280
     0
102
RTVSPost2010PropOp45
 70
     1
102
RTVSPost2010Prop46
 90
       50
102
RTVSPost2010PropOp46
 70
     1
102
RTVSPost2010Prop47
 90
       50
102
RTVSPost2010PropOp47
 70
     1
102
RTVSPost2010Prop48
 90
       50
102
RTVSPost2010PropOp48
 70
     1
102
RTVSPost2010Prop49
280
     0
102
RTVSPost2010PropOp49
 70
     1
102
RTVSPost2010Prop50
 90
       50
102
RTVSPost2010PropOp50
 70
     1
102
RTVSPost2010Prop51ColorIndex
 90
      256
102
RTVSPost2010Prop51ColorRGB
 90
-16777216
102
RTVSPost2010PropOp51
 70
     0
102
RTVSPost2010Prop52
140
1.0
102
RTVSPost2010PropOp52
 70
     0
102
RTVSPost2010Prop53
 90
        2
102
RTVSPost2010PropOp53
 70
     1
102
RTVSPost2010Prop54
  1
strokes_ogs.tif
102
RTVSPost2010PropOp54
 70
     1
102
RTVSPost2010Prop55
280
     0
102
RTVSPost2010PropOp55
 70
     1
102
RTVSPost2010Prop56
140
1.0
102
RTVSPost2010PropOp56
 70
     1
102
RTVSPost2010Prop57
140
1.0
102
RTVSPost2010PropOp57
 70
     1
102
RTVSPropertyOp0
 70
     1
102
RTVSPropertyOp1
 70
     1
102
RTVSPropertyOp2
 70
     1
102
RTVSPropertyOp3
 70
     1
102
RTVSPropertyOp4
 70
     1
102
RTVSPropertyOp5
 70
     1
102
RTVSPropertyOp6
 70
     1
102
RTVSPropertyOp7
 70
     1
102
RTVSPropertyOp8
 70
     1
102
RTVSPropertyOp9
 70
     1
102
RTVSPropertyOp10
 70
     1
102
RTVSPropertyOp11
 70
     1
102
RTVSPropertyOp12
 70
     1
102
RTVSPropertyOp13
 70
     1
102
RTVSPropertyOp14
 70
     1
102
RTVSPropertyOp15
 70
     1
102
RTVSPropertyOp16
 70
     1
102
RTVSPropertyOp17
 70
     1
102
RTVSPropertyOp18
 70
     1
102
RTVSPropertyOp19
 70
     1
102
RTVSPropertyOp20
 70
     1
102
RTVSPropertyOp21
 70
     1
102
RTVSPropertyOp22
 70
     1
102
RTVSPropertyOp23
 70
     1
102
RTVSPropertyOp24
 70
     1
102
RTVSPropertyOp25
 70
     1
102
RTVSPropertyOp26
 70
     1
102
RTVSPropertyOp27
 70
     1
102
RTVSPropertyOp28
 70
     1
102
RTVSPropertyOp29
 70
     1
102
RTVSPropertyOp30
 70
     1
102
RTVSPropertyOp31
 70
     1
102
RTVSPropertyOp32
 70
     1
102
RTVSPropertyOp33
 70
     1
102
RTVSPropertyOp34
 70
     1
102
RTVSPropertyOp35
 70
     1
102
RTVSPropertyOp36
 70
     1
102
RTVSPropertyOp37
 70
     1
102
RTVSPropertyOp38
 70
     1
102
RTVSPropertyOp39
 70
     1
102
RTVSPropertyOp40
 70
     1
102
RTVSPropertyOp41
 70
     1
102
RTVSPropertyOp42
 70
     1
102
RTVSPropertyOp43
 70
     1
102
RTVSPropertyOp44
 70
     1
102
RTVSPropertyOp45
 70
     1
102
RTVSPropertyOp46
 70
     1
102
RTVSPropertyOp47
 70
     1
102
RTVSPropertyOp48
 70
     1
102
RTVSPropertyOp49
 70
     1
102
RTVSPropertyOp50
 70
     1
102
RTVSPropertyOp51
 70
     0
102
RTVSPropertyOp52
 70
     0
102
RTVSPropertyOp53
 70
     1
102
RTVSPropertyOp54
 70
     1
102
RTVSPropertyOp55
 70
     1
102
RTVSPropertyOp56
 70
     1
102
RTVSPropertyOp57
 70
     1
102
RTVSPropertyOp58
 70
     1
102
RTVSPropertyOp59
 70
     1
102
RTVSPropertyOp60
 70
     1
102
RTVSPropertyOp61
 70
     1
102
RTVSPropertyOp62
 70
     1
  0
XRECORD
  5
1010
102
{ACAD_REACTORS
330
100F
102
}
330
100F
100
AcDbXrecord
280
     1
102
RTVSPost2010Prop28
280
     0
102
RTVSPost2010PropOp28
 70
     1
102
RTVSPost2010Prop29
280
     1
102
RTVSPost2010PropOp29
 70
     1
102
RTVSPost2010Prop30
280
     1
102
RTVSPost2010PropOp30
 70
     1
102
RTVSPost2010Prop31
280
     0
102
RTVSPost2010PropOp31
 70
     1
102
RTVSPost2010Prop32
280
     0
102
RTVSPost2010PropOp32
 70
     1
102
RTVSPost2010Prop33
280
     0
102
RTVSPost2010PropOp33
 70
     1
102
RTVSPost2010Prop34
280
     0
102
RTVSPost2010PropOp34
 70
     1
102
RTVSPost2010Prop35
280
     0
102
RTVSPost2010PropOp35
 70
     1
102
RTVSPost2010Prop36
280
     0
102
RTVSPost2010PropOp36
 70
     1
102
RTVSPost2010Prop37
 90
       50
102
RTVSPost2010PropOp37
 70
     1
102
RTVSPost2010Prop38
140
0.0
102
RTVSPost2010PropOp38
 70
     1
102
RTVSPost2010Prop39
140
1.0
102
RTVSPost2010PropOp39
 70
     1
102
RTVSPost2010Prop40
 90
        0
102
RTVSPost2010PropOp40
 70
     1
102
RTVSPost2010Prop41ColorIndex
 90
       18
102
RTVSPost2010Prop41ColorRGB
 90
        0
102
RTVSPost2010PropOp41
 70
     1
102
RTVSPost2010Prop42
 90
       50
102
RTVSPost2010PropOp42
 70
     1
102
RTVSPost2010Prop43
 90
        3
102
RTVSPost2010PropOp43
 70
     1
102
RTVSPost2010Prop44ColorIndex
 90
        5
102
RTVSPost2010Prop44ColorRGB
 90
      255
102
RTVSPost2010PropOp44
 70
     1
102
RTVSPost2010Prop45
280
     0
102
RTVSPost2010PropOp45
 70
     1
102
RTVSPost2010Prop46
 90
       50
102
RTVSPost2010PropOp46
 70
     1
102
RTVSPost2010Prop47
 90
       50
102
RTVSPost2010PropOp47
 70
     1
102
RTVSPost2010Prop48
 90
       50
102
RTVSPost2010PropOp48
 70
     1
102
RTVSPost2010Prop49
280
     0
102
RTVSPost2010PropOp49
 70
     1
102
RTVSPost2010Prop50
 90
       50
102
RTVSPost2010PropOp50
 70
     1
102
RTVSPost2010Prop51ColorIndex
 90
      256
102
RTVSPost2010Prop51ColorRGB
 90
-16777216
102
RTVSPost2010PropOp51
 70
     0
102
RTVSPost2010Prop52
140
1.0
102
RTVSPost2010PropOp52
 70
     0
102
RTVSPost2010Prop53
 90
        2
102
RTVSPost2010PropOp53
 70
     1
102
RTVSPost2010Prop54
  1
strokes_ogs.tif
102
RTVSPost2010PropOp54
 70
     1
102
RTVSPost2010Prop55
280
     0
102
RTVSPost2010PropOp55
 70
     1
102
RTVSPost2010Prop56
140
1.0
102
RTVSPost2010PropOp56
 70
     1
102
RTVSPost2010Prop57
140
1.0
102
RTVSPost2010PropOp57
 70
     1
102
RTVSPropertyOp0
 70
     1
102
RTVSPropertyOp1
 70
     1
102
RTVSPropertyOp2
 70
     1
102
RTVSPropertyOp3
 70
     1
102
RTVSPropertyOp4
 70
     1
102
RTVSPropertyOp5
 70
     1
102
RTVSPropertyOp6
 70
     1
102
RTVSPropertyOp7
 70
     1
102
RTVSPropertyOp8
 70
     1
102
RTVSPropertyOp9
 70
     1
102
RTVSPropertyOp10
 70
     1
102
RTVSPropertyOp11
 70
     1
102
RTVSPropertyOp12
 70
     1
102
RTVSPropertyOp13
 70
     1
102
RTVSPropertyOp14
 70
     1
102
RTVSPropertyOp15
 70
     1
102
RTVSPropertyOp16
 70
     1
102
RTVSPropertyOp17
 70
     1
102
RTVSPropertyOp18
 70
     1
102
RTVSPropertyOp19
 70
     1
102
RTVSPropertyOp20
 70
     1
102
RTVSPropertyOp21
 70
     1
102
RTVSPropertyOp22
 70
     1
102
RTVSPropertyOp23
 70
     1
102
RTVSPropertyOp24
 70
     1
102
RTVSPropertyOp25
 70
     1
102
RTVSPropertyOp26
 70
     1
102
RTVSPropertyOp27
 70
     1
102
RTVSPropertyOp28
 70
     1
102
RTVSPropertyOp29
 70
     1
102
RTVSPropertyOp30
 70
     1
102
RTVSPropertyOp31
 70
     1
102
RTVSPropertyOp32
 70
     1
102
RTVSPropertyOp33
 70
     1
102
RTVSPropertyOp34
 70
     1
102
RTVSPropertyOp35
 70
     1
102
RTVSPropertyOp36
 70
     1
102
RTVSPropertyOp37
 70
     1
102
RTVSPropertyOp38
 70
     1
102
RTVSPropertyOp39
 70
     1
102
RTVSPropertyOp40
 70
     1
102
RTVSPropertyOp41
 70
     1
102
RTVSPropertyOp42
 70
     1
102
RTVSPropertyOp43
 70
     1
102
RTVSPropertyOp44
 70
     1
102
RTVSPropertyOp45
 70
     1
102
RTVSPropertyOp46
 70
     1
102
RTVSPropertyOp47
 70
     1
102
RTVSPropertyOp48
 70
     1
102
RTVSPropertyOp49
 70
     1
102
RTVSPropertyOp50
 70
     1
102
RTVSPropertyOp51
 70
     0
102
RTVSPropertyOp52
 70
     0
102
RTVSPropertyOp53
 70
     1
102
RTVSPropertyOp54
 70
     1
102
RTVSPropertyOp55
 70
     1
102
RTVSPropertyOp56
 70
     1
102
RTVSPropertyOp57
 70
     1
102
RTVSPropertyOp58
 70
     1
102
RTVSPropertyOp59
 70
     1
102
RTVSPropertyOp60
 70
     1
102
RTVSPropertyOp61
 70
     1
102
RTVSPropertyOp62
 70
     1
  0
XRECORD
  5
100C
102
{ACAD_REACTORS
330
100B
102
}
330
100B
100
AcDbXrecord
280
     1
102
RTVSPost2010Prop28
280
     0
102
RTVSPost2010PropOp28
 70
     1
102
RTVSPost2010Prop29
280
     1
102
RTVSPost2010PropOp29
 70
     1
102
RTVSPost2010Prop30
280
     1
102
RTVSPost2010PropOp30
 70
     1
102
RTVSPost2010Prop31
280
     0
102
RTVSPost2010PropOp31
 70
     1
102
RTVSPost2010Prop32
280
     0
102
RTVSPost2010PropOp32
 70
     1
102
RTVSPost2010Prop33
280
     0
102
RTVSPost2010PropOp33
 70
     1
102
RTVSPost2010Prop34
280
     0
102
RTVSPost2010PropOp34
 70
     1
102
RTVSPost2010Prop35
280
     0
102
RTVSPost2010PropOp35
 70
     1
102
RTVSPost2010Prop36
280
     0
102
RTVSPost2010PropOp36
 70
     1
102
RTVSPost2010Prop37
 90
       50
102
RTVSPost2010PropOp37
 70
     1
102
RTVSPost2010Prop38
140
0.0
102
RTVSPost2010PropOp38
 70
     1
102
RTVSPost2010Prop39
140
1.0
102
RTVSPost2010PropOp39
 70
     1
102
RTVSPost2010Prop40
 90
        0
102
RTVSPost2010PropOp40
 70
     1
102
RTVSPost2010Prop41ColorIndex
 90
       18
102
RTVSPost2010Prop41ColorRGB
 90
        0
102
RTVSPost2010PropOp41
 70
     1
102
RTVSPost2010Prop42
 90
       50
102
RTVSPost2010PropOp42
 70
     1
102
RTVSPost2010Prop43
 90
        3
102
RTVSPost2010PropOp43
 70
     1
102
RTVSPost2010Prop44ColorIndex
 90
        5
102
RTVSPost2010Prop44ColorRGB
 90
      255
102
RTVSPost2010PropOp44
 70
     1
102
RTVSPost2010Prop45
280
     0
102
RTVSPost2010PropOp45
 70
     1
102
RTVSPost2010Prop46
 90
       50
102
RTVSPost2010PropOp46
 70
     1
102
RTVSPost2010Prop47
 90
       50
102
RTVSPost2010PropOp47
 70
     1
102
RTVSPost2010Prop48
 90
       50
102
RTVSPost2010PropOp48
 70
     1
102
RTVSPost2010Prop49
280
     0
102
RTVSPost2010PropOp49
 70
     1
102
RTVSPost2010Prop50
 90
       50
102
RTVSPost2010PropOp50
 70
     1
102
RTVSPost2010Prop51ColorIndex
 90
      256
102
RTVSPost2010Prop51ColorRGB
 90
-16777216
102
RTVSPost2010PropOp51
 70
     0
102
RTVSPost2010Prop52
140
1.0
102
RTVSPost2010PropOp52
 70
     0
102
RTVSPost2010Prop53
 90
        2
102
RTVSPost2010PropOp53
 70
     1
102
RTVSPost2010Prop54
  1
strokes_ogs.tif
102
RTVSPost2010PropOp54
 70
     1
102
RTVSPost2010Prop55
280
     0
102
RTVSPost2010PropOp55
 70
     1
102
RTVSPost2010Prop56
140
1.0
102
RTVSPost2010PropOp56
 70
     1
102
RTVSPost2010Prop57
140
1.0
102
RTVSPost2010PropOp57
 70
     1
102
RTVSPropertyOp0
 70
     1
102
RTVSPropertyOp1
 70
     1
102
RTVSPropertyOp2
 70
     1
102
RTVSPropertyOp3
 70
     1
102
RTVSPropertyOp4
 70
     1
102
RTVSPropertyOp5
 70
     1
102
RTVSPropertyOp6
 70
     1
102
RTVSPropertyOp7
 70
     1
102
RTVSPropertyOp8
 70
     1
102
RTVSPropertyOp9
 70
     1
102
RTVSPropertyOp10
 70
     1
102
RTVSPropertyOp11
 70
     1
102
RTVSPropertyOp12
 70
     1
102
RTVSPropertyOp13
 70
     1
102
RTVSPropertyOp14
 70
     1
102
RTVSPropertyOp15
 70
     1
102
RTVSPropertyOp16
 70
     1
102
RTVSPropertyOp17
 70
     1
102
RTVSPropertyOp18
 70
     1
102
RTVSPropertyOp19
 70
     1
102
RTVSPropertyOp20
 70
     1
102
RTVSPropertyOp21
 70
     1
102
RTVSPropertyOp22
 70
     1
102
RTVSPropertyOp23
 70
     1
102
RTVSPropertyOp24
 70
     1
102
RTVSPropertyOp25
 70
     1
102
RTVSPropertyOp26
 70
     1
102
RTVSPropertyOp27
 70
     1
102
RTVSPropertyOp28
 70
     1
102
RTVSPropertyOp29
 70
     1
102
RTVSPropertyOp30
 70
     1
102
RTVSPropertyOp31
 70
     1
102
RTVSPropertyOp32
 70
     1
102
RTVSPropertyOp33
 70
     1
102
RTVSPropertyOp34
 70
     1
102
RTVSPropertyOp35
 70
     1
102
RTVSPropertyOp36
 70
     1
102
RTVSPropertyOp37
 70
     1
102
RTVSPropertyOp38
 70
     1
102
RTVSPropertyOp39
 70
     1
102
RTVSPropertyOp40
 70
     1
102
RTVSPropertyOp41
 70
     1
102
RTVSPropertyOp42
 70
     1
102
RTVSPropertyOp43
 70
     1
102
RTVSPropertyOp44
 70
     1
102
RTVSPropertyOp45
 70
     1
102
RTVSPropertyOp46
 70
     1
102
RTVSPropertyOp47
 70
     1
102
RTVSPropertyOp48
 70
     1
102
RTVSPropertyOp49
 70
     1
102
RTVSPropertyOp50
 70
     1
102
RTVSPropertyOp51
 70
     0
102
RTVSPropertyOp52
 70
     0
102
RTVSPropertyOp53
 70
     1
102
RTVSPropertyOp54
 70
     1
102
RTVSPropertyOp55
 70
     1
102
RTVSPropertyOp56
 70
     1
102
RTVSPropertyOp57
 70
     1
102
RTVSPropertyOp58
 70
     1
102
RTVSPropertyOp59
 70
     1
102
RTVSPropertyOp60
 70
     1
102
RTVSPropertyOp61
 70
     1
102
RTVSPropertyOp62
 70
     1
  0
XRECORD
  5
101A
102
{ACAD_REACTORS
330
1019
102
}
330
1019
100
AcDbXrecord
280
     1
102
RTVSPost2010Prop28
280
     0
102
RTVSPost2010PropOp28
 70
     1
102
RTVSPost2010Prop29
280
     1
102
RTVSPost2010PropOp29
 70
     1
102
RTVSPost2010Prop30
280
     1
102
RTVSPost2010PropOp30
 70
     1
102
RTVSPost2010Prop31
280
     0
102
RTVSPost2010PropOp31
 70
     1
102
RTVSPost2010Prop32
280
     0
102
RTVSPost2010PropOp32
 70
     1
102
RTVSPost2010Prop33
280
     0
102
RTVSPost2010PropOp33
 70
     1
102
RTVSPost2010Prop34
280
     0
102
RTVSPost2010PropOp34
 70
     1
102
RTVSPost2010Prop35
280
     0
102
RTVSPost2010PropOp35
 70
     1
102
RTVSPost2010Prop36
280
     0
102
RTVSPost2010PropOp36
 70
     1
102
RTVSPost2010Prop37
 90
       50
102
RTVSPost2010PropOp37
 70
     1
102
RTVSPost2010Prop38
140
0.0
102
RTVSPost2010PropOp38
 70
     1
102
RTVSPost2010Prop39
140
1.0
102
RTVSPost2010PropOp39
 70
     1
102
RTVSPost2010Prop40
 90
        0
102
RTVSPost2010PropOp40
 70
     1
102
RTVSPost2010Prop41ColorIndex
 90
       18
102
RTVSPost2010Prop41ColorRGB
 90
        0
102
RTVSPost2010PropOp41
 70
     1
102
RTVSPost2010Prop42
 90
       50
102
RTVSPost2010PropOp42
 70
     1
102
RTVSPost2010Prop43
 90
        3
102
RTVSPost2010PropOp43
 70
     1
102
RTVSPost2010Prop44ColorIndex
 90
        5
102
RTVSPost2010Prop44ColorRGB
 90
      255
102
RTVSPost2010PropOp44
 70
     1
102
RTVSPost2010Prop45
280
     0
102
RTVSPost2010PropOp45
 70
     1
102
RTVSPost2010Prop46
 90
       50
102
RTVSPost2010PropOp46
 70
     1
102
RTVSPost2010Prop47
 90
       50
102
RTVSPost2010PropOp47
 70
     1
102
RTVSPost2010Prop48
 90
       50
102
RTVSPost2010PropOp48
 70
     1
102
RTVSPost2010Prop49
280
     0
102
RTVSPost2010PropOp49
 70
     1
102
RTVSPost2010Prop50
 90
       50
102
RTVSPost2010PropOp50
 70
     1
102
RTVSPost2010Prop51ColorIndex
 90
      256
102
RTVSPost2010Prop51ColorRGB
 90
-16777216
102
RTVSPost2010PropOp51
 70
     0
102
RTVSPost2010Prop52
140
1.0
102
RTVSPost2010PropOp52
 70
     0
102
RTVSPost2010Prop53
 90
        2
102
RTVSPost2010PropOp53
 70
     1
102
RTVSPost2010Prop54
  1
strokes_ogs.tif
102
RTVSPost2010PropOp54
 70
     1
102
RTVSPost2010Prop55
280
     0
102
RTVSPost2010PropOp55
 70
     1
102
RTVSPost2010Prop56
140
1.0
102
RTVSPost2010PropOp56
 70
     1
102
RTVSPost2010Prop57
140
1.0
102
RTVSPost2010PropOp57
 70
     1
102
RTVSPropertyOp0
 70
     1
102
RTVSPropertyOp1
 70
     1
102
RTVSPropertyOp2
 70
     1
102
RTVSPropertyOp3
 70
     1
102
RTVSPropertyOp4
 70
     1
102
RTVSPropertyOp5
 70
     1
102
RTVSPropertyOp6
 70
     1
102
RTVSPropertyOp7
 70
     1
102
RTVSPropertyOp8
 70
     1
102
RTVSPropertyOp9
 70
     1
102
RTVSPropertyOp10
 70
     1
102
RTVSPropertyOp11
 70
     1
102
RTVSPropertyOp12
 70
     1
102
RTVSPropertyOp13
 70
     1
102
RTVSPropertyOp14
 70
     1
102
RTVSPropertyOp15
 70
     1
102
RTVSPropertyOp16
 70
     1
102
RTVSPropertyOp17
 70
     1
102
RTVSPropertyOp18
 70
     1
102
RTVSPropertyOp19
 70
     1
102
RTVSPropertyOp20
 70
     1
102
RTVSPropertyOp21
 70
     1
102
RTVSPropertyOp22
 70
     1
102
RTVSPropertyOp23
 70
     1
102
RTVSPropertyOp24
 70
     1
102
RTVSPropertyOp25
 70
     1
102
RTVSPropertyOp26
 70
     1
102
RTVSPropertyOp27
 70
     1
102
RTVSPropertyOp28
 70
     1
102
RTVSPropertyOp29
 70
     1
102
RTVSPropertyOp30
 70
     1
102
RTVSPropertyOp31
 70
     1
102
RTVSPropertyOp32
 70
     1
102
RTVSPropertyOp33
 70
     1
102
RTVSPropertyOp34
 70
     1
102
RTVSPropertyOp35
 70
     1
102
RTVSPropertyOp36
 70
     1
102
RTVSPropertyOp37
 70
     1
102
RTVSPropertyOp38
 70
     1
102
RTVSPropertyOp39
 70
     1
102
RTVSPropertyOp40
 70
     1
102
RTVSPropertyOp41
 70
     1
102
RTVSPropertyOp42
 70
     1
102
RTVSPropertyOp43
 70
     1
102
RTVSPropertyOp44
 70
     1
102
RTVSPropertyOp45
 70
     1
102
RTVSPropertyOp46
 70
     1
102
RTVSPropertyOp47
 70
     1
102
RTVSPropertyOp48
 70
     1
102
RTVSPropertyOp49
 70
     1
102
RTVSPropertyOp50
 70
     1
102
RTVSPropertyOp51
 70
     0
102
RTVSPropertyOp52
 70
     0
102
RTVSPropertyOp53
 70
     1
102
RTVSPropertyOp54
 70
     1
102
RTVSPropertyOp55
 70
     1
102
RTVSPropertyOp56
 70
     1
102
RTVSPropertyOp57
 70
     1
102
RTVSPropertyOp58
 70
     1
102
RTVSPropertyOp59
 70
     1
102
RTVSPropertyOp60
 70
     1
102
RTVSPropertyOp61
 70
     1
102
RTVSPropertyOp62
 70
     1
  0
XRECORD
  5
1022
102
{ACAD_REACTORS
330
1021
102
}
330
1021
100
AcDbXrecord
280
     1
102
RTVSPost2010Prop28
280
     0
102
RTVSPost2010PropOp28
 70
     1
102
RTVSPost2010Prop29
280
     1
102
RTVSPost2010PropOp29
 70
     1
102
RTVSPost2010Prop30
280
     1
102
RTVSPost2010PropOp30
 70
     1
102
RTVSPost2010Prop31
280
     0
102
RTVSPost2010PropOp31
 70
     1
102
RTVSPost2010Prop32
280
     0
102
RTVSPost2010PropOp32
 70
     1
102
RTVSPost2010Prop33
280
     0
102
RTVSPost2010PropOp33
 70
     1
102
RTVSPost2010Prop34
280
     0
102
RTVSPost2010PropOp34
 70
     1
102
RTVSPost2010Prop35
280
     0
102
RTVSPost2010PropOp35
 70
     1
102
RTVSPost2010Prop36
280
     0
102
RTVSPost2010PropOp36
 70
     1
102
RTVSPost2010Prop37
 90
       50
102
RTVSPost2010PropOp37
 70
     1
102
RTVSPost2010Prop38
140
0.0
102
RTVSPost2010PropOp38
 70
     1
102
RTVSPost2010Prop39
140
1.0
102
RTVSPost2010PropOp39
 70
     1
102
RTVSPost2010Prop40
 90
        0
102
RTVSPost2010PropOp40
 70
     1
102
RTVSPost2010Prop41ColorIndex
 90
       18
102
RTVSPost2010Prop41ColorRGB
 90
        0
102
RTVSPost2010PropOp41
 70
     1
102
RTVSPost2010Prop42
 90
       50
102
RTVSPost2010PropOp42
 70
     1
102
RTVSPost2010Prop43
 90
        3
102
RTVSPost2010PropOp43
 70
     1
102
RTVSPost2010Prop44ColorIndex
 90
        5
102
RTVSPost2010Prop44ColorRGB
 90
      255
102
RTVSPost2010PropOp44
 70
     1
102
RTVSPost2010Prop45
280
     0
102
RTVSPost2010PropOp45
 70
     1
102
RTVSPost2010Prop46
 90
       50
102
RTVSPost2010PropOp46
 70
     1
102
RTVSPost2010Prop47
 90
       50
102
RTVSPost2010PropOp47
 70
     1
102
RTVSPost2010Prop48
 90
       50
102
RTVSPost2010PropOp48
 70
     1
102
RTVSPost2010Prop49
280
     0
102
RTVSPost2010PropOp49
 70
     1
102
RTVSPost2010Prop50
 90
       50
102
RTVSPost2010PropOp50
 70
     1
102
RTVSPost2010Prop51ColorIndex
 90
      256
102
RTVSPost2010Prop51ColorRGB
 90
-16777216
102
RTVSPost2010PropOp51
 70
     0
102
RTVSPost2010Prop52
140
1.0
102
RTVSPost2010PropOp52
 70
     0
102
RTVSPost2010Prop53
 90
        2
102
RTVSPost2010PropOp53
 70
     1
102
RTVSPost2010Prop54
  1
strokes_ogs.tif
102
RTVSPost2010PropOp54
 70
     1
102
RTVSPost2010Prop55
280
     0
102
RTVSPost2010PropOp55
 70
     1
102
RTVSPost2010Prop56
140
1.0
102
RTVSPost2010PropOp56
 70
     1
102
RTVSPost2010Prop57
140
1.0
102
RTVSPost2010PropOp57
 70
     1
102
RTVSPropertyOp0
 70
     1
102
RTVSPropertyOp1
 70
     1
102
RTVSPropertyOp2
 70
     1
102
RTVSPropertyOp3
 70
     1
102
RTVSPropertyOp4
 70
     1
102
RTVSPropertyOp5
 70
     1
102
RTVSPropertyOp6
 70
     1
102
RTVSPropertyOp7
 70
     1
102
RTVSPropertyOp8
 70
     1
102
RTVSPropertyOp9
 70
     1
102
RTVSPropertyOp10
 70
     1
102
RTVSPropertyOp11
 70
     1
102
RTVSPropertyOp12
 70
     1
102
RTVSPropertyOp13
 70
     1
102
RTVSPropertyOp14
 70
     1
102
RTVSPropertyOp15
 70
     1
102
RTVSPropertyOp16
 70
     1
102
RTVSPropertyOp17
 70
     1
102
RTVSPropertyOp18
 70
     1
102
RTVSPropertyOp19
 70
     1
102
RTVSPropertyOp20
 70
     1
102
RTVSPropertyOp21
 70
     1
102
RTVSPropertyOp22
 70
     1
102
RTVSPropertyOp23
 70
     1
102
RTVSPropertyOp24
 70
     1
102
RTVSPropertyOp25
 70
     1
102
RTVSPropertyOp26
 70
     1
102
RTVSPropertyOp27
 70
     1
102
RTVSPropertyOp28
 70
     1
102
RTVSPropertyOp29
 70
     1
102
RTVSPropertyOp30
 70
     1
102
RTVSPropertyOp31
 70
     1
102
RTVSPropertyOp32
 70
     1
102
RTVSPropertyOp33
 70
     1
102
RTVSPropertyOp34
 70
     1
102
RTVSPropertyOp35
 70
     1
102
RTVSPropertyOp36
 70
     1
102
RTVSPropertyOp37
 70
     1
102
RTVSPropertyOp38
 70
     1
102
RTVSPropertyOp39
 70
     1
102
RTVSPropertyOp40
 70
     1
102
RTVSPropertyOp41
 70
     1
102
RTVSPropertyOp42
 70
     1
102
RTVSPropertyOp43
 70
     1
102
RTVSPropertyOp44
 70
     1
102
RTVSPropertyOp45
 70
     1
102
RTVSPropertyOp46
 70
     1
102
RTVSPropertyOp47
 70
     1
102
RTVSPropertyOp48
 70
     1
102
RTVSPropertyOp49
 70
     1
102
RTVSPropertyOp50
 70
     1
102
RTVSPropertyOp51
 70
     0
102
RTVSPropertyOp52
 70
     0
102
RTVSPropertyOp53
 70
     1
102
RTVSPropertyOp54
 70
     1
102
RTVSPropertyOp55
 70
     1
102
RTVSPropertyOp56
 70
     1
102
RTVSPropertyOp57
 70
     1
102
RTVSPropertyOp58
 70
     1
102
RTVSPropertyOp59
 70
     1
102
RTVSPropertyOp60
 70
     1
102
RTVSPropertyOp61
 70
     1
102
RTVSPropertyOp62
 70
     1
  0
XRECORD
  5
1014
102
{ACAD_REACTORS
330
1013
102
}
330
1013
100
AcDbXrecord
280
     1
102
RTVSPost2010Prop28
280
     0
102
RTVSPost2010PropOp28
 70
     1
102
RTVSPost2010Prop29
280
     1
102
RTVSPost2010PropOp29
 70
     1
102
RTVSPost2010Prop30
280
     1
102
RTVSPost2010PropOp30
 70
     1
102
RTVSPost2010Prop31
280
     0
102
RTVSPost2010PropOp31
 70
     1
102
RTVSPost2010Prop32
280
     0
102
RTVSPost2010PropOp32
 70
     1
102
RTVSPost2010Prop33
280
     0
102
RTVSPost2010PropOp33
 70
     1
102
RTVSPost2010Prop34
280
     0
102
RTVSPost2010PropOp34
 70
     1
102
RTVSPost2010Prop35
280
     0
102
RTVSPost2010PropOp35
 70
     1
102
RTVSPost2010Prop36
280
     0
102
RTVSPost2010PropOp36
 70
     1
102
RTVSPost2010Prop37
 90
       50
102
RTVSPost2010PropOp37
 70
     1
102
RTVSPost2010Prop38
140
0.0
102
RTVSPost2010PropOp38
 70
     1
102
RTVSPost2010Prop39
140
1.0
102
RTVSPost2010PropOp39
 70
     1
102
RTVSPost2010Prop40
 90
        0
102
RTVSPost2010PropOp40
 70
     1
102
RTVSPost2010Prop41ColorIndex
 90
       18
102
RTVSPost2010Prop41ColorRGB
 90
        0
102
RTVSPost2010PropOp41
 70
     1
102
RTVSPost2010Prop42
 90
       50
102
RTVSPost2010PropOp42
 70
     1
102
RTVSPost2010Prop43
 90
        3
102
RTVSPost2010PropOp43
 70
     1
102
RTVSPost2010Prop44ColorIndex
 90
        5
102
RTVSPost2010Prop44ColorRGB
 90
      255
102
RTVSPost2010PropOp44
 70
     1
102
RTVSPost2010Prop45
280
     0
102
RTVSPost2010PropOp45
 70
     1
102
RTVSPost2010Prop46
 90
       50
102
RTVSPost2010PropOp46
 70
     1
102
RTVSPost2010Prop47
 90
       50
102
RTVSPost2010PropOp47
 70
     1
102
RTVSPost2010Prop48
 90
       50
102
RTVSPost2010PropOp48
 70
     1
102
RTVSPost2010Prop49
280
     0
102
RTVSPost2010PropOp49
 70
     1
102
RTVSPost2010Prop50
 90
       50
102
RTVSPost2010PropOp50
 70
     1
102
RTVSPost2010Prop51ColorIndex
 90
      256
102
RTVSPost2010Prop51ColorRGB
 90
-16777216
102
RTVSPost2010PropOp51
 70
     0
102
RTVSPost2010Prop52
140
1.0
102
RTVSPost2010PropOp52
 70
     0
102
RTVSPost2010Prop53
 90
        2
102
RTVSPost2010PropOp53
 70
     1
102
RTVSPost2010Prop54
  1
strokes_ogs.tif
102
RTVSPost2010PropOp54
 70
     1
102
RTVSPost2010Prop55
280
     0
102
RTVSPost2010PropOp55
 70
     1
102
RTVSPost2010Prop56
140
1.0
102
RTVSPost2010PropOp56
 70
     1
102
RTVSPost2010Prop57
140
1.0
102
RTVSPost2010PropOp57
 70
     1
102
RTVSPropertyOp0
 70
     1
102
RTVSPropertyOp1
 70
     1
102
RTVSPropertyOp2
 70
     1
102
RTVSPropertyOp3
 70
     1
102
RTVSPropertyOp4
 70
     1
102
RTVSPropertyOp5
 70
     1
102
RTVSPropertyOp6
 70
     1
102
RTVSPropertyOp7
 70
     1
102
RTVSPropertyOp8
 70
     1
102
RTVSPropertyOp9
 70
     1
102
RTVSPropertyOp10
 70
     1
102
RTVSPropertyOp11
 70
     1
102
RTVSPropertyOp12
 70
     1
102
RTVSPropertyOp13
 70
     1
102
RTVSPropertyOp14
 70
     1
102
RTVSPropertyOp15
 70
     1
102
RTVSPropertyOp16
 70
     1
102
RTVSPropertyOp17
 70
     1
102
RTVSPropertyOp18
 70
     1
102
RTVSPropertyOp19
 70
     1
102
RTVSPropertyOp20
 70
     1
102
RTVSPropertyOp21
 70
     1
102
RTVSPropertyOp22
 70
     1
102
RTVSPropertyOp23
 70
     1
102
RTVSPropertyOp24
 70
     1
102
RTVSPropertyOp25
 70
     1
102
RTVSPropertyOp26
 70
     1
102
RTVSPropertyOp27
 70
     1
102
RTVSPropertyOp28
 70
     1
102
RTVSPropertyOp29
 70
     1
102
RTVSPropertyOp30
 70
     1
102
RTVSPropertyOp31
 70
     1
102
RTVSPropertyOp32
 70
     1
102
RTVSPropertyOp33
 70
     1
102
RTVSPropertyOp34
 70
     1
102
RTVSPropertyOp35
 70
     1
102
RTVSPropertyOp36
 70
     1
102
RTVSPropertyOp37
 70
     1
102
RTVSPropertyOp38
 70
     1
102
RTVSPropertyOp39
 70
     1
102
RTVSPropertyOp40
 70
     1
102
RTVSPropertyOp41
 70
     1
102
RTVSPropertyOp42
 70
     1
102
RTVSPropertyOp43
 70
     1
102
RTVSPropertyOp44
 70
     1
102
RTVSPropertyOp45
 70
     1
102
RTVSPropertyOp46
 70
     1
102
RTVSPropertyOp47
 70
     1
102
RTVSPropertyOp48
 70
     1
102
RTVSPropertyOp49
 70
     1
102
RTVSPropertyOp50
 70
     1
102
RTVSPropertyOp51
 70
     0
102
RTVSPropertyOp52
 70
     0
102
RTVSPropertyOp53
 70
     1
102
RTVSPropertyOp54
 70
     1
102
RTVSPropertyOp55
 70
     1
102
RTVSPropertyOp56
 70
     1
102
RTVSPropertyOp57
 70
     1
102
RTVSPropertyOp58
 70
     1
102
RTVSPropertyOp59
 70
     1
102
RTVSPropertyOp60
 70
     1
102
RTVSPropertyOp61
 70
     1
102
RTVSPropertyOp62
 70
     1
  0
XRECORD
  5
1018
102
{ACAD_REACTORS
330
1017
102
}
330
1017
100
AcDbXrecord
280
     1
102
RTVSPost2010Prop28
280
     0
102
RTVSPost2010PropOp28
 70
     1
102
RTVSPost2010Prop29
280
     1
102
RTVSPost2010PropOp29
 70
     1
102
RTVSPost2010Prop30
280
     1
102
RTVSPost2010PropOp30
 70
     1
102
RTVSPost2010Prop31
280
     0
102
RTVSPost2010PropOp31
 70
     1
102
RTVSPost2010Prop32
280
     0
102
RTVSPost2010PropOp32
 70
     1
102
RTVSPost2010Prop33
280
     0
102
RTVSPost2010PropOp33
 70
     1
102
RTVSPost2010Prop34
280
     0
102
RTVSPost2010PropOp34
 70
     1
102
RTVSPost2010Prop35
280
     0
102
RTVSPost2010PropOp35
 70
     1
102
RTVSPost2010Prop36
280
     0
102
RTVSPost2010PropOp36
 70
     1
102
RTVSPost2010Prop37
 90
       50
102
RTVSPost2010PropOp37
 70
     1
102
RTVSPost2010Prop38
140
0.0
102
RTVSPost2010PropOp38
 70
     1
102
RTVSPost2010Prop39
140
1.0
102
RTVSPost2010PropOp39
 70
     1
102
RTVSPost2010Prop40
 90
        0
102
RTVSPost2010PropOp40
 70
     1
102
RTVSPost2010Prop41ColorIndex
 90
       18
102
RTVSPost2010Prop41ColorRGB
 90
        0
102
RTVSPost2010PropOp41
 70
     1
102
RTVSPost2010Prop42
 90
       50
102
RTVSPost2010PropOp42
 70
     1
102
RTVSPost2010Prop43
 90
        3
102
RTVSPost2010PropOp43
 70
     1
102
RTVSPost2010Prop44ColorIndex
 90
        5
102
RTVSPost2010Prop44ColorRGB
 90
      255
102
RTVSPost2010PropOp44
 70
     1
102
RTVSPost2010Prop45
280
     0
102
RTVSPost2010PropOp45
 70
     1
102
RTVSPost2010Prop46
 90
       50
102
RTVSPost2010PropOp46
 70
     1
102
RTVSPost2010Prop47
 90
       50
102
RTVSPost2010PropOp47
 70
     1
102
RTVSPost2010Prop48
 90
       50
102
RTVSPost2010PropOp48
 70
     1
102
RTVSPost2010Prop49
280
     0
102
RTVSPost2010PropOp49
 70
     1
102
RTVSPost2010Prop50
 90
       50
102
RTVSPost2010PropOp50
 70
     1
102
RTVSPost2010Prop51ColorIndex
 90
      256
102
RTVSPost2010Prop51ColorRGB
 90
-16777216
102
RTVSPost2010PropOp51
 70
     0
102
RTVSPost2010Prop52
140
1.0
102
RTVSPost2010PropOp52
 70
     0
102
RTVSPost2010Prop53
 90
        2
102
RTVSPost2010PropOp53
 70
     1
102
RTVSPost2010Prop54
  1
strokes_ogs.tif
102
RTVSPost2010PropOp54
 70
     1
102
RTVSPost2010Prop55
280
     0
102
RTVSPost2010PropOp55
 70
     1
102
RTVSPost2010Prop56
140
1.0
102
RTVSPost2010PropOp56
 70
     1
102
RTVSPost2010Prop57
140
1.0
102
RTVSPost2010PropOp57
 70
     1
102
RTVSPropertyOp0
 70
     1
102
RTVSPropertyOp1
 70
     1
102
RTVSPropertyOp2
 70
     1
102
RTVSPropertyOp3
 70
     1
102
RTVSPropertyOp4
 70
     1
102
RTVSPropertyOp5
 70
     1
102
RTVSPropertyOp6
 70
     1
102
RTVSPropertyOp7
 70
     1
102
RTVSPropertyOp8
 70
     1
102
RTVSPropertyOp9
 70
     1
102
RTVSPropertyOp10
 70
     1
102
RTVSPropertyOp11
 70
     1
102
RTVSPropertyOp12
 70
     1
102
RTVSPropertyOp13
 70
     1
102
RTVSPropertyOp14
 70
     1
102
RTVSPropertyOp15
 70
     1
102
RTVSPropertyOp16
 70
     1
102
RTVSPropertyOp17
 70
     1
102
RTVSPropertyOp18
 70
     1
102
RTVSPropertyOp19
 70
     1
102
RTVSPropertyOp20
 70
     1
102
RTVSPropertyOp21
 70
     1
102
RTVSPropertyOp22
 70
     1
102
RTVSPropertyOp23
 70
     1
102
RTVSPropertyOp24
 70
     1
102
RTVSPropertyOp25
 70
     1
102
RTVSPropertyOp26
 70
     1
102
RTVSPropertyOp27
 70
     1
102
RTVSPropertyOp28
 70
     1
102
RTVSPropertyOp29
 70
     1
102
RTVSPropertyOp30
 70
     1
102
RTVSPropertyOp31
 70
     1
102
RTVSPropertyOp32
 70
     1
102
RTVSPropertyOp33
 70
     1
102
RTVSPropertyOp34
 70
     1
102
RTVSPropertyOp35
 70
     1
102
RTVSPropertyOp36
 70
     1
102
RTVSPropertyOp37
 70
     1
102
RTVSPropertyOp38
 70
     1
102
RTVSPropertyOp39
 70
     1
102
RTVSPropertyOp40
 70
     1
102
RTVSPropertyOp41
 70
     1
102
RTVSPropertyOp42
 70
     1
102
RTVSPropertyOp43
 70
     1
102
RTVSPropertyOp44
 70
     1
102
RTVSPropertyOp45
 70
     1
102
RTVSPropertyOp46
 70
     1
102
RTVSPropertyOp47
 70
     1
102
RTVSPropertyOp48
 70
     1
102
RTVSPropertyOp49
 70
     1
102
RTVSPropertyOp50
 70
     1
102
RTVSPropertyOp51
 70
     0
102
RTVSPropertyOp52
 70
     0
102
RTVSPropertyOp53
 70
     1
102
RTVSPropertyOp54
 70
     1
102
RTVSPropertyOp55
 70
     1
102
RTVSPropertyOp56
 70
     1
102
RTVSPropertyOp57
 70
     1
102
RTVSPropertyOp58
 70
     1
102
RTVSPropertyOp59
 70
     1
102
RTVSPropertyOp60
 70
     1
102
RTVSPropertyOp61
 70
     1
102
RTVSPropertyOp62
 70
     1
  0
XRECORD
  5
1038
102
{ACAD_REACTORS
330
1037
102
}
330
1037
100
AcDbXrecord
280
     1
102
RTVSPost2010Prop28
280
     0
102
RTVSPost2010PropOp28
 70
     1
102
RTVSPost2010Prop29
280
     1
102
RTVSPost2010PropOp29
 70
     1
102
RTVSPost2010Prop30
280
     1
102
RTVSPost2010PropOp30
 70
     1
102
RTVSPost2010Prop31
280
     0
102
RTVSPost2010PropOp31
 70
     1
102
RTVSPost2010Prop32
280
     0
102
RTVSPost2010PropOp32
 70
     1
102
RTVSPost2010Prop33
280
     0
102
RTVSPost2010PropOp33
 70
     1
102
RTVSPost2010Prop34
280
     0
102
RTVSPost2010PropOp34
 70
     1
102
RTVSPost2010Prop35
280
     0
102
RTVSPost2010PropOp35
 70
     1
102
RTVSPost2010Prop36
280
     0
102
RTVSPost2010PropOp36
 70
     1
102
RTVSPost2010Prop37
 90
       50
102
RTVSPost2010PropOp37
 70
     1
102
RTVSPost2010Prop38
140
0.0
102
RTVSPost2010PropOp38
 70
     1
102
RTVSPost2010Prop39
140
1.0
102
RTVSPost2010PropOp39
 70
     1
102
RTVSPost2010Prop40
 90
        0
102
RTVSPost2010PropOp40
 70
     1
102
RTVSPost2010Prop41ColorIndex
 90
       18
102
RTVSPost2010Prop41ColorRGB
 90
        0
102
RTVSPost2010PropOp41
 70
     1
102
RTVSPost2010Prop42
 90
       50
102
RTVSPost2010PropOp42
 70
     1
102
RTVSPost2010Prop43
 90
        3
102
RTVSPost2010PropOp43
 70
     1
102
RTVSPost2010Prop44ColorIndex
 90
        5
102
RTVSPost2010Prop44ColorRGB
 90
      255
102
RTVSPost2010PropOp44
 70
     1
102
RTVSPost2010Prop45
280
     0
102
RTVSPost2010PropOp45
 70
     1
102
RTVSPost2010Prop46
 90
       50
102
RTVSPost2010PropOp46
 70
     1
102
RTVSPost2010Prop47
 90
       50
102
RTVSPost2010PropOp47
 70
     1
102
RTVSPost2010Prop48
 90
       50
102
RTVSPost2010PropOp48
 70
     1
102
RTVSPost2010Prop49
280
     0
102
RTVSPost2010PropOp49
 70
     1
102
RTVSPost2010Prop50
 90
       50
102
RTVSPost2010PropOp50
 70
     1
102
RTVSPost2010Prop51ColorIndex
 90
      256
102
RTVSPost2010Prop51ColorRGB
 90
-16777216
102
RTVSPost2010PropOp51
 70
     0
102
RTVSPost2010Prop52
140
1.0
102
RTVSPost2010PropOp52
 70
     0
102
RTVSPost2010Prop53
 90
        2
102
RTVSPost2010PropOp53
 70
     1
102
RTVSPost2010Prop54
  1
strokes_ogs.tif
102
RTVSPost2010PropOp54
 70
     1
102
RTVSPost2010Prop55
280
     0
102
RTVSPost2010PropOp55
 70
     1
102
RTVSPost2010Prop56
140
1.0
102
RTVSPost2010PropOp56
 70
     1
102
RTVSPost2010Prop57
140
1.0
102
RTVSPost2010PropOp57
 70
     1
102
RTVSPropertyOp0
 70
     0
102
RTVSPropertyOp1
 70
     0
102
RTVSPropertyOp2
 70
     0
102
RTVSPropertyOp3
 70
     0
102
RTVSPropertyOp4
 70
     0
102
RTVSPropertyOp5
 70
     0
102
RTVSPropertyOp6
 70
     0
102
RTVSPropertyOp7
 70
     0
102
RTVSPropertyOp8
 70
     0
102
RTVSPropertyOp9
 70
     0
102
RTVSPropertyOp10
 70
     0
102
RTVSPropertyOp11
 70
     0
102
RTVSPropertyOp12
 70
     0
102
RTVSPropertyOp13
 70
     0
102
RTVSPropertyOp14
 70
     2
102
RTVSPropertyOp15
 70
     0
102
RTVSPropertyOp16
 70
     0
102
RTVSPropertyOp17
 70
     0
102
RTVSPropertyOp18
 70
     0
102
RTVSPropertyOp19
 70
     0
102
RTVSPropertyOp20
 70
     0
102
RTVSPropertyOp21
 70
     0
102
RTVSPropertyOp22
 70
     0
102
RTVSPropertyOp23
 70
     0
102
RTVSPropertyOp24
 70
     0
102
RTVSPropertyOp25
 70
     0
102
RTVSPropertyOp26
 70
     0
102
RTVSPropertyOp27
 70
     0
102
RTVSPropertyOp28
 70
     1
102
RTVSPropertyOp29
 70
     1
102
RTVSPropertyOp30
 70
     1
102
RTVSPropertyOp31
 70
     1
102
RTVSPropertyOp32
 70
     1
102
RTVSPropertyOp33
 70
     1
102
RTVSPropertyOp34
 70
     1
102
RTVSPropertyOp35
 70
     1
102
RTVSPropertyOp36
 70
     1
102
RTVSPropertyOp37
 70
     1
102
RTVSPropertyOp38
 70
     1
102
RTVSPropertyOp39
 70
     1
102
RTVSPropertyOp40
 70
     1
102
RTVSPropertyOp41
 70
     1
102
RTVSPropertyOp42
 70
     1
102
RTVSPropertyOp43
 70
     1
102
RTVSPropertyOp44
 70
     1
102
RTVSPropertyOp45
 70
     1
102
RTVSPropertyOp46
 70
     1
102
RTVSPropertyOp47
 70
     1
102
RTVSPropertyOp48
 70
     1
102
RTVSPropertyOp49
 70
     1
102
RTVSPropertyOp50
 70
     1
102
RTVSPropertyOp51
 70
     0
102
RTVSPropertyOp52
 70
     0
102
RTVSPropertyOp53
 70
     1
102
RTVSPropertyOp54
 70
     1
102
RTVSPropertyOp55
 70
     1
102
RTVSPropertyOp56
 70
     1
102
RTVSPropertyOp57
 70
     1
102
RTVSPropertyOp58
 70
     1
102
RTVSPropertyOp59
 70
     1
102
RTVSPropertyOp60
 70
     1
102
RTVSPropertyOp61
 70
     1
102
RTVSPropertyOp62
 70
     1
  0
XRECORD
  5
1020
102
{ACAD_REACTORS
330
101F
102
}
330
101F
100
AcDbXrecord
280
     1
102
RTVSPost2010Prop28
280
     0
102
RTVSPost2010PropOp28
 70
     1
102
RTVSPost2010Prop29
280
     1
102
RTVSPost2010PropOp29
 70
     1
102
RTVSPost2010Prop30
280
     1
102
RTVSPost2010PropOp30
 70
     1
102
RTVSPost2010Prop31
280
     0
102
RTVSPost2010PropOp31
 70
     1
102
RTVSPost2010Prop32
280
     0
102
RTVSPost2010PropOp32
 70
     1
102
RTVSPost2010Prop33
280
     0
102
RTVSPost2010PropOp33
 70
     1
102
RTVSPost2010Prop34
280
     0
102
RTVSPost2010PropOp34
 70
     1
102
RTVSPost2010Prop35
280
     0
102
RTVSPost2010PropOp35
 70
     1
102
RTVSPost2010Prop36
280
     0
102
RTVSPost2010PropOp36
 70
     1
102
RTVSPost2010Prop37
 90
       50
102
RTVSPost2010PropOp37
 70
     1
102
RTVSPost2010Prop38
140
0.0
102
RTVSPost2010PropOp38
 70
     1
102
RTVSPost2010Prop39
140
1.0
102
RTVSPost2010PropOp39
 70
     1
102
RTVSPost2010Prop40
 90
        0
102
RTVSPost2010PropOp40
 70
     1
102
RTVSPost2010Prop41ColorIndex
 90
       18
102
RTVSPost2010Prop41ColorRGB
 90
        0
102
RTVSPost2010PropOp41
 70
     1
102
RTVSPost2010Prop42
 90
       50
102
RTVSPost2010PropOp42
 70
     1
102
RTVSPost2010Prop43
 90
        3
102
RTVSPost2010PropOp43
 70
     1
102
RTVSPost2010Prop44ColorIndex
 90
        5
102
RTVSPost2010Prop44ColorRGB
 90
      255
102
RTVSPost2010PropOp44
 70
     1
102
RTVSPost2010Prop45
280
     0
102
RTVSPost2010PropOp45
 70
     1
102
RTVSPost2010Prop46
 90
       50
102
RTVSPost2010PropOp46
 70
     1
102
RTVSPost2010Prop47
 90
       50
102
RTVSPost2010PropOp47
 70
     1
102
RTVSPost2010Prop48
 90
       50
102
RTVSPost2010PropOp48
 70
     1
102
RTVSPost2010Prop49
280
     0
102
RTVSPost2010PropOp49
 70
     1
102
RTVSPost2010Prop50
 90
       50
102
RTVSPost2010PropOp50
 70
     1
102
RTVSPost2010Prop51ColorIndex
 90
      256
102
RTVSPost2010Prop51ColorRGB
 90
-16777216
102
RTVSPost2010PropOp51
 70
     0
102
RTVSPost2010Prop52
140
1.0
102
RTVSPost2010PropOp52
 70
     0
102
RTVSPost2010Prop53
 90
        2
102
RTVSPost2010PropOp53
 70
     1
102
RTVSPost2010Prop54
  1
strokes_ogs.tif
102
RTVSPost2010PropOp54
 70
     1
102
RTVSPost2010Prop55
280
     0
102
RTVSPost2010PropOp55
 70
     1
102
RTVSPost2010Prop56
140
1.0
102
RTVSPost2010PropOp56
 70
     1
102
RTVSPost2010Prop57
140
1.0
102
RTVSPost2010PropOp57
 70
     1
102
RTVSPropertyOp0
 70
     1
102
RTVSPropertyOp1
 70
     1
102
RTVSPropertyOp2
 70
     1
102
RTVSPropertyOp3
 70
     1
102
RTVSPropertyOp4
 70
     1
102
RTVSPropertyOp5
 70
     1
102
RTVSPropertyOp6
 70
     1
102
RTVSPropertyOp7
 70
     1
102
RTVSPropertyOp8
 70
     1
102
RTVSPropertyOp9
 70
     1
102
RTVSPropertyOp10
 70
     1
102
RTVSPropertyOp11
 70
     1
102
RTVSPropertyOp12
 70
     1
102
RTVSPropertyOp13
 70
     1
102
RTVSPropertyOp14
 70
     1
102
RTVSPropertyOp15
 70
     1
102
RTVSPropertyOp16
 70
     1
102
RTVSPropertyOp17
 70
     1
102
RTVSPropertyOp18
 70
     1
102
RTVSPropertyOp19
 70
     1
102
RTVSPropertyOp20
 70
     1
102
RTVSPropertyOp21
 70
     1
102
RTVSPropertyOp22
 70
     1
102
RTVSPropertyOp23
 70
     1
102
RTVSPropertyOp24
 70
     1
102
RTVSPropertyOp25
 70
     1
102
RTVSPropertyOp26
 70
     1
102
RTVSPropertyOp27
 70
     1
102
RTVSPropertyOp28
 70
     1
102
RTVSPropertyOp29
 70
     1
102
RTVSPropertyOp30
 70
     1
102
RTVSPropertyOp31
 70
     1
102
RTVSPropertyOp32
 70
     1
102
RTVSPropertyOp33
 70
     1
102
RTVSPropertyOp34
 70
     1
102
RTVSPropertyOp35
 70
     1
102
RTVSPropertyOp36
 70
     1
102
RTVSPropertyOp37
 70
     1
102
RTVSPropertyOp38
 70
     1
102
RTVSPropertyOp39
 70
     1
102
RTVSPropertyOp40
 70
     1
102
RTVSPropertyOp41
 70
     1
102
RTVSPropertyOp42
 70
     1
102
RTVSPropertyOp43
 70
     1
102
RTVSPropertyOp44
 70
     1
102
RTVSPropertyOp45
 70
     1
102
RTVSPropertyOp46
 70
     1
102
RTVSPropertyOp47
 70
     1
102
RTVSPropertyOp48
 70
     1
102
RTVSPropertyOp49
 70
     1
102
RTVSPropertyOp50
 70
     1
102
RTVSPropertyOp51
 70
     0
102
RTVSPropertyOp52
 70
     0
102
RTVSPropertyOp53
 70
     1
102
RTVSPropertyOp54
 70
     1
102
RTVSPropertyOp55
 70
     1
102
RTVSPropertyOp56
 70
     1
102
RTVSPropertyOp57
 70
     1
102
RTVSPropertyOp58
 70
     1
102
RTVSPropertyOp59
 70
     1
102
RTVSPropertyOp60
 70
     1
102
RTVSPropertyOp61
 70
     1
102
RTVSPropertyOp62
 70
     1
  0
XRECORD
  5
1004
102
{ACAD_REACTORS
330
1003
102
}
330
1003
100
AcDbXrecord
280
     1
102
RTVSPost2010Prop28
280
     0
102
RTVSPost2010PropOp28
 70
     1
102
RTVSPost2010Prop29
280
     1
102
RTVSPost2010PropOp29
 70
     1
102
RTVSPost2010Prop30
280
     1
102
RTVSPost2010PropOp30
 70
     1
102
RTVSPost2010Prop31
280
     0
102
RTVSPost2010PropOp31
 70
     1
102
RTVSPost2010Prop32
280
     0
102
RTVSPost2010PropOp32
 70
     1
102
RTVSPost2010Prop33
280
     0
102
RTVSPost2010PropOp33
 70
     1
102
RTVSPost2010Prop34
280
     0
102
RTVSPost2010PropOp34
 70
     1
102
RTVSPost2010Prop35
280
     0
102
RTVSPost2010PropOp35
 70
     1
102
RTVSPost2010Prop36
280
     0
102
RTVSPost2010PropOp36
 70
     1
102
RTVSPost2010Prop37
 90
       50
102
RTVSPost2010PropOp37
 70
     1
102
RTVSPost2010Prop38
140
0.0
102
RTVSPost2010PropOp38
 70
     1
102
RTVSPost2010Prop39
140
1.0
102
RTVSPost2010PropOp39
 70
     1
102
RTVSPost2010Prop40
 90
        0
102
RTVSPost2010PropOp40
 70
     1
102
RTVSPost2010Prop41ColorIndex
 90
       18
102
RTVSPost2010Prop41ColorRGB
 90
        0
102
RTVSPost2010PropOp41
 70
     1
102
RTVSPost2010Prop42
 90
       50
102
RTVSPost2010PropOp42
 70
     1
102
RTVSPost2010Prop43
 90
        3
102
RTVSPost2010PropOp43
 70
     1
102
RTVSPost2010Prop44ColorIndex
 90
        5
102
RTVSPost2010Prop44ColorRGB
 90
      255
102
RTVSPost2010PropOp44
 70
     1
102
RTVSPost2010Prop45
280
     0
102
RTVSPost2010PropOp45
 70
     1
102
RTVSPost2010Prop46
 90
       50
102
RTVSPost2010PropOp46
 70
     1
102
RTVSPost2010Prop47
 90
       50
102
RTVSPost2010PropOp47
 70
     1
102
RTVSPost2010Prop48
 90
       50
102
RTVSPost2010PropOp48
 70
     1
102
RTVSPost2010Prop49
280
     0
102
RTVSPost2010PropOp49
 70
     1
102
RTVSPost2010Prop50
 90
       50
102
RTVSPost2010PropOp50
 70
     1
102
RTVSPost2010Prop51ColorIndex
 90
      256
102
RTVSPost2010Prop51ColorRGB
 90
-16777216
102
RTVSPost2010PropOp51
 70
     0
102
RTVSPost2010Prop52
140
1.0
102
RTVSPost2010PropOp52
 70
     0
102
RTVSPost2010Prop53
 90
        2
102
RTVSPost2010PropOp53
 70
     1
102
RTVSPost2010Prop54
  1
strokes_ogs.tif
102
RTVSPost2010PropOp54
 70
     1
102
RTVSPost2010Prop55
280
     0
102
RTVSPost2010PropOp55
 70
     1
102
RTVSPost2010Prop56
140
1.0
102
RTVSPost2010PropOp56
 70
     1
102
RTVSPost2010Prop57
140
1.0
102
RTVSPost2010PropOp57
 70
     1
102
RTVSPropertyOp0
 70
     1
102
RTVSPropertyOp1
 70
     1
102
RTVSPropertyOp2
 70
     1
102
RTVSPropertyOp3
 70
     1
102
RTVSPropertyOp4
 70
     1
102
RTVSPropertyOp5
 70
     1
102
RTVSPropertyOp6
 70
     1
102
RTVSPropertyOp7
 70
     1
102
RTVSPropertyOp8
 70
     1
102
RTVSPropertyOp9
 70
     1
102
RTVSPropertyOp10
 70
     1
102
RTVSPropertyOp11
 70
     1
102
RTVSPropertyOp12
 70
     1
102
RTVSPropertyOp13
 70
     1
102
RTVSPropertyOp14
 70
     1
102
RTVSPropertyOp15
 70
     1
102
RTVSPropertyOp16
 70
     1
102
RTVSPropertyOp17
 70
     1
102
RTVSPropertyOp18
 70
     1
102
RTVSPropertyOp19
 70
     1
102
RTVSPropertyOp20
 70
     1
102
RTVSPropertyOp21
 70
     1
102
RTVSPropertyOp22
 70
     1
102
RTVSPropertyOp23
 70
     1
102
RTVSPropertyOp24
 70
     1
102
RTVSPropertyOp25
 70
     1
102
RTVSPropertyOp26
 70
     1
102
RTVSPropertyOp27
 70
     1
102
RTVSPropertyOp28
 70
     1
102
RTVSPropertyOp29
 70
     1
102
RTVSPropertyOp30
 70
     1
102
RTVSPropertyOp31
 70
     1
102
RTVSPropertyOp32
 70
     1
102
RTVSPropertyOp33
 70
     1
102
RTVSPropertyOp34
 70
     1
102
RTVSPropertyOp35
 70
     1
102
RTVSPropertyOp36
 70
     1
102
RTVSPropertyOp37
 70
     1
102
RTVSPropertyOp38
 70
     1
102
RTVSPropertyOp39
 70
     1
102
RTVSPropertyOp40
 70
     1
102
RTVSPropertyOp41
 70
     1
102
RTVSPropertyOp42
 70
     1
102
RTVSPropertyOp43
 70
     1
102
RTVSPropertyOp44
 70
     1
102
RTVSPropertyOp45
 70
     1
102
RTVSPropertyOp46
 70
     1
102
RTVSPropertyOp47
 70
     1
102
RTVSPropertyOp48
 70
     1
102
RTVSPropertyOp49
 70
     1
102
RTVSPropertyOp50
 70
     1
102
RTVSPropertyOp51
 70
     0
102
RTVSPropertyOp52
 70
     0
102
RTVSPropertyOp53
 70
     1
102
RTVSPropertyOp54
 70
     1
102
RTVSPropertyOp55
 70
     1
102
RTVSPropertyOp56
 70
     1
102
RTVSPropertyOp57
 70
     1
102
RTVSPropertyOp58
 70
     1
102
RTVSPropertyOp59
 70
     1
102
RTVSPropertyOp60
 70
     1
102
RTVSPropertyOp61
 70
     1
102
RTVSPropertyOp62
 70
     1
  0
XRECORD
  5
1006
102
{ACAD_REACTORS
330
1005
102
}
330
1005
100
AcDbXrecord
280
     1
102
RTVSPost2010Prop28
280
     0
102
RTVSPost2010PropOp28
 70
     1
102
RTVSPost2010Prop29
280
     1
102
RTVSPost2010PropOp29
 70
     1
102
RTVSPost2010Prop30
280
     1
102
RTVSPost2010PropOp30
 70
     1
102
RTVSPost2010Prop31
280
     0
102
RTVSPost2010PropOp31
 70
     1
102
RTVSPost2010Prop32
280
     0
102
RTVSPost2010PropOp32
 70
     1
102
RTVSPost2010Prop33
280
     0
102
RTVSPost2010PropOp33
 70
     1
102
RTVSPost2010Prop34
280
     0
102
RTVSPost2010PropOp34
 70
     1
102
RTVSPost2010Prop35
280
     0
102
RTVSPost2010PropOp35
 70
     1
102
RTVSPost2010Prop36
280
     0
102
RTVSPost2010PropOp36
 70
     1
102
RTVSPost2010Prop37
 90
       50
102
RTVSPost2010PropOp37
 70
     1
102
RTVSPost2010Prop38
140
0.0
102
RTVSPost2010PropOp38
 70
     1
102
RTVSPost2010Prop39
140
1.0
102
RTVSPost2010PropOp39
 70
     1
102
RTVSPost2010Prop40
 90
        0
102
RTVSPost2010PropOp40
 70
     1
102
RTVSPost2010Prop41ColorIndex
 90
       18
102
RTVSPost2010Prop41ColorRGB
 90
        0
102
RTVSPost2010PropOp41
 70
     1
102
RTVSPost2010Prop42
 90
       50
102
RTVSPost2010PropOp42
 70
     1
102
RTVSPost2010Prop43
 90
        3
102
RTVSPost2010PropOp43
 70
     1
102
RTVSPost2010Prop44ColorIndex
 90
        5
102
RTVSPost2010Prop44ColorRGB
 90
      255
102
RTVSPost2010PropOp44
 70
     1
102
RTVSPost2010Prop45
280
     0
102
RTVSPost2010PropOp45
 70
     1
102
RTVSPost2010Prop46
 90
       50
102
RTVSPost2010PropOp46
 70
     1
102
RTVSPost2010Prop47
 90
       50
102
RTVSPost2010PropOp47
 70
     1
102
RTVSPost2010Prop48
 90
       50
102
RTVSPost2010PropOp48
 70
     1
102
RTVSPost2010Prop49
280
     0
102
RTVSPost2010PropOp49
 70
     1
102
RTVSPost2010Prop50
 90
       50
102
RTVSPost2010PropOp50
 70
     1
102
RTVSPost2010Prop51ColorIndex
 90
      256
102
RTVSPost2010Prop51ColorRGB
 90
-16777216
102
RTVSPost2010PropOp51
 70
     0
102
RTVSPost2010Prop52
140
1.0
102
RTVSPost2010PropOp52
 70
     0
102
RTVSPost2010Prop53
 90
        2
102
RTVSPost2010PropOp53
 70
     1
102
RTVSPost2010Prop54
  1
strokes_ogs.tif
102
RTVSPost2010PropOp54
 70
     1
102
RTVSPost2010Prop55
280
     0
102
RTVSPost2010PropOp55
 70
     1
102
RTVSPost2010Prop56
140
1.0
102
RTVSPost2010PropOp56
 70
     1
102
RTVSPost2010Prop57
140
1.0
102
RTVSPost2010PropOp57
 70
     1
102
RTVSPropertyOp0
 70
     1
102
RTVSPropertyOp1
 70
     1
102
RTVSPropertyOp2
 70
     1
102
RTVSPropertyOp3
 70
     1
102
RTVSPropertyOp4
 70
     1
102
RTVSPropertyOp5
 70
     1
102
RTVSPropertyOp6
 70
     1
102
RTVSPropertyOp7
 70
     1
102
RTVSPropertyOp8
 70
     1
102
RTVSPropertyOp9
 70
     1
102
RTVSPropertyOp10
 70
     1
102
RTVSPropertyOp11
 70
     1
102
RTVSPropertyOp12
 70
     1
102
RTVSPropertyOp13
 70
     1
102
RTVSPropertyOp14
 70
     1
102
RTVSPropertyOp15
 70
     1
102
RTVSPropertyOp16
 70
     1
102
RTVSPropertyOp17
 70
     1
102
RTVSPropertyOp18
 70
     1
102
RTVSPropertyOp19
 70
     1
102
RTVSPropertyOp20
 70
     1
102
RTVSPropertyOp21
 70
     1
102
RTVSPropertyOp22
 70
     1
102
RTVSPropertyOp23
 70
     1
102
RTVSPropertyOp24
 70
     1
102
RTVSPropertyOp25
 70
     1
102
RTVSPropertyOp26
 70
     1
102
RTVSPropertyOp27
 70
     1
102
RTVSPropertyOp28
 70
     1
102
RTVSPropertyOp29
 70
     1
102
RTVSPropertyOp30
 70
     1
102
RTVSPropertyOp31
 70
     1
102
RTVSPropertyOp32
 70
     1
102
RTVSPropertyOp33
 70
     1
102
RTVSPropertyOp34
 70
     1
102
RTVSPropertyOp35
 70
     1
102
RTVSPropertyOp36
 70
     1
102
RTVSPropertyOp37
 70
     1
102
RTVSPropertyOp38
 70
     1
102
RTVSPropertyOp39
 70
     1
102
RTVSPropertyOp40
 70
     1
102
RTVSPropertyOp41
 70
     1
102
RTVSPropertyOp42
 70
     1
102
RTVSPropertyOp43
 70
     1
102
RTVSPropertyOp44
 70
     1
102
RTVSPropertyOp45
 70
     1
102
RTVSPropertyOp46
 70
     1
102
RTVSPropertyOp47
 70
     1
102
RTVSPropertyOp48
 70
     1
102
RTVSPropertyOp49
 70
     1
102
RTVSPropertyOp50
 70
     1
102
RTVSPropertyOp51
 70
     0
102
RTVSPropertyOp52
 70
     0
102
RTVSPropertyOp53
 70
     1
102
RTVSPropertyOp54
 70
     1
102
RTVSPropertyOp55
 70
     1
102
RTVSPropertyOp56
 70
     1
102
RTVSPropertyOp57
 70
     1
102
RTVSPropertyOp58
 70
     1
102
RTVSPropertyOp59
 70
     1
102
RTVSPropertyOp60
 70
     1
102
RTVSPropertyOp61
 70
     1
102
RTVSPropertyOp62
 70
     1
  0
XRECORD
  5
1008
102
{ACAD_REACTORS
330
1007
102
}
330
1007
100
AcDbXrecord
280
     1
102
RTVSPost2010Prop28
280
     0
102
RTVSPost2010PropOp28
 70
     1
102
RTVSPost2010Prop29
280
     1
102
RTVSPost2010PropOp29
 70
     1
102
RTVSPost2010Prop30
280
     1
102
RTVSPost2010PropOp30
 70
     1
102
RTVSPost2010Prop31
280
     0
102
RTVSPost2010PropOp31
 70
     1
102
RTVSPost2010Prop32
280
     0
102
RTVSPost2010PropOp32
 70
     1
102
RTVSPost2010Prop33
280
     0
102
RTVSPost2010PropOp33
 70
     1
102
RTVSPost2010Prop34
280
     0
102
RTVSPost2010PropOp34
 70
     1
102
RTVSPost2010Prop35
280
     0
102
RTVSPost2010PropOp35
 70
     1
102
RTVSPost2010Prop36
280
     0
102
RTVSPost2010PropOp36
 70
     1
102
RTVSPost2010Prop37
 90
       50
102
RTVSPost2010PropOp37
 70
     1
102
RTVSPost2010Prop38
140
0.0
102
RTVSPost2010PropOp38
 70
     1
102
RTVSPost2010Prop39
140
1.0
102
RTVSPost2010PropOp39
 70
     1
102
RTVSPost2010Prop40
 90
        0
102
RTVSPost2010PropOp40
 70
     1
102
RTVSPost2010Prop41ColorIndex
 90
       18
102
RTVSPost2010Prop41ColorRGB
 90
        0
102
RTVSPost2010PropOp41
 70
     1
102
RTVSPost2010Prop42
 90
       50
102
RTVSPost2010PropOp42
 70
     1
102
RTVSPost2010Prop43
 90
        3
102
RTVSPost2010PropOp43
 70
     1
102
RTVSPost2010Prop44ColorIndex
 90
        5
102
RTVSPost2010Prop44ColorRGB
 90
      255
102
RTVSPost2010PropOp44
 70
     1
102
RTVSPost2010Prop45
280
     0
102
RTVSPost2010PropOp45
 70
     1
102
RTVSPost2010Prop46
 90
       50
102
RTVSPost2010PropOp46
 70
     1
102
RTVSPost2010Prop47
 90
       50
102
RTVSPost2010PropOp47
 70
     1
102
RTVSPost2010Prop48
 90
       50
102
RTVSPost2010PropOp48
 70
     1
102
RTVSPost2010Prop49
280
     0
102
RTVSPost2010PropOp49
 70
     1
102
RTVSPost2010Prop50
 90
       50
102
RTVSPost2010PropOp50
 70
     1
102
RTVSPost2010Prop51ColorIndex
 90
      256
102
RTVSPost2010Prop51ColorRGB
 90
-16777216
102
RTVSPost2010PropOp51
 70
     0
102
RTVSPost2010Prop52
140
1.0
102
RTVSPost2010PropOp52
 70
     0
102
RTVSPost2010Prop53
 90
        2
102
RTVSPost2010PropOp53
 70
     1
102
RTVSPost2010Prop54
  1
strokes_ogs.tif
102
RTVSPost2010PropOp54
 70
     1
102
RTVSPost2010Prop55
280
     0
102
RTVSPost2010PropOp55
 70
     1
102
RTVSPost2010Prop56
140
1.0
102
RTVSPost2010PropOp56
 70
     1
102
RTVSPost2010Prop57
140
1.0
102
RTVSPost2010PropOp57
 70
     1
102
RTVSPropertyOp0
 70
     1
102
RTVSPropertyOp1
 70
     1
102
RTVSPropertyOp2
 70
     1
102
RTVSPropertyOp3
 70
     1
102
RTVSPropertyOp4
 70
     1
102
RTVSPropertyOp5
 70
     1
102
RTVSPropertyOp6
 70
     1
102
RTVSPropertyOp7
 70
     1
102
RTVSPropertyOp8
 70
     1
102
RTVSPropertyOp9
 70
     1
102
RTVSPropertyOp10
 70
     1
102
RTVSPropertyOp11
 70
     1
102
RTVSPropertyOp12
 70
     1
102
RTVSPropertyOp13
 70
     1
102
RTVSPropertyOp14
 70
     1
102
RTVSPropertyOp15
 70
     1
102
RTVSPropertyOp16
 70
     1
102
RTVSPropertyOp17
 70
     1
102
RTVSPropertyOp18
 70
     1
102
RTVSPropertyOp19
 70
     1
102
RTVSPropertyOp20
 70
     1
102
RTVSPropertyOp21
 70
     1
102
RTVSPropertyOp22
 70
     1
102
RTVSPropertyOp23
 70
     1
102
RTVSPropertyOp24
 70
     1
102
RTVSPropertyOp25
 70
     1
102
RTVSPropertyOp26
 70
     1
102
RTVSPropertyOp27
 70
     1
102
RTVSPropertyOp28
 70
     1
102
RTVSPropertyOp29
 70
     1
102
RTVSPropertyOp30
 70
     1
102
RTVSPropertyOp31
 70
     1
102
RTVSPropertyOp32
 70
     1
102
RTVSPropertyOp33
 70
     1
102
RTVSPropertyOp34
 70
     1
102
RTVSPropertyOp35
 70
     1
102
RTVSPropertyOp36
 70
     1
102
RTVSPropertyOp37
 70
     1
102
RTVSPropertyOp38
 70
     1
102
RTVSPropertyOp39
 70
     1
102
RTVSPropertyOp40
 70
     1
102
RTVSPropertyOp41
 70
     1
102
RTVSPropertyOp42
 70
     1
102
RTVSPropertyOp43
 70
     1
102
RTVSPropertyOp44
 70
     1
102
RTVSPropertyOp45
 70
     1
102
RTVSPropertyOp46
 70
     1
102
RTVSPropertyOp47
 70
     1
102
RTVSPropertyOp48
 70
     1
102
RTVSPropertyOp49
 70
     1
102
RTVSPropertyOp50
 70
     1
102
RTVSPropertyOp51
 70
     0
102
RTVSPropertyOp52
 70
     0
102
RTVSPropertyOp53
 70
     1
102
RTVSPropertyOp54
 70
     1
102
RTVSPropertyOp55
 70
     1
102
RTVSPropertyOp56
 70
     1
102
RTVSPropertyOp57
 70
     1
102
RTVSPropertyOp58
 70
     1
102
RTVSPropertyOp59
 70
     1
102
RTVSPropertyOp60
 70
     1
102
RTVSPropertyOp61
 70
     1
102
RTVSPropertyOp62
 70
     1
  0
XRECORD
  5
100A
102
{ACAD_REACTORS
330
1009
102
}
330
1009
100
AcDbXrecord
280
     1
102
RTVSPost2010Prop28
280
     0
102
RTVSPost2010PropOp28
 70
     1
102
RTVSPost2010Prop29
280
     1
102
RTVSPost2010PropOp29
 70
     1
102
RTVSPost2010Prop30
280
     1
102
RTVSPost2010PropOp30
 70
     1
102
RTVSPost2010Prop31
280
     0
102
RTVSPost2010PropOp31
 70
     1
102
RTVSPost2010Prop32
280
     0
102
RTVSPost2010PropOp32
 70
     1
102
RTVSPost2010Prop33
280
     0
102
RTVSPost2010PropOp33
 70
     1
102
RTVSPost2010Prop34
280
     0
102
RTVSPost2010PropOp34
 70
     1
102
RTVSPost2010Prop35
280
     0
102
RTVSPost2010PropOp35
 70
     1
102
RTVSPost2010Prop36
280
     0
102
RTVSPost2010PropOp36
 70
     1
102
RTVSPost2010Prop37
 90
       50
102
RTVSPost2010PropOp37
 70
     1
102
RTVSPost2010Prop38
140
0.0
102
RTVSPost2010PropOp38
 70
     1
102
RTVSPost2010Prop39
140
1.0
102
RTVSPost2010PropOp39
 70
     1
102
RTVSPost2010Prop40
 90
        0
102
RTVSPost2010PropOp40
 70
     1
102
RTVSPost2010Prop41ColorIndex
 90
       18
102
RTVSPost2010Prop41ColorRGB
 90
        0
102
RTVSPost2010PropOp41
 70
     1
102
RTVSPost2010Prop42
 90
       50
102
RTVSPost2010PropOp42
 70
     1
102
RTVSPost2010Prop43
 90
        3
102
RTVSPost2010PropOp43
 70
     1
102
RTVSPost2010Prop44ColorIndex
 90
        5
102
RTVSPost2010Prop44ColorRGB
 90
      255
102
RTVSPost2010PropOp44
 70
     1
102
RTVSPost2010Prop45
280
     0
102
RTVSPost2010PropOp45
 70
     1
102
RTVSPost2010Prop46
 90
       50
102
RTVSPost2010PropOp46
 70
     1
102
RTVSPost2010Prop47
 90
       50
102
RTVSPost2010PropOp47
 70
     1
102
RTVSPost2010Prop48
 90
       50
102
RTVSPost2010PropOp48
 70
     1
102
RTVSPost2010Prop49
280
     0
102
RTVSPost2010PropOp49
 70
     1
102
RTVSPost2010Prop50
 90
       50
102
RTVSPost2010PropOp50
 70
     1
102
RTVSPost2010Prop51ColorIndex
 90
      256
102
RTVSPost2010Prop51ColorRGB
 90
-16777216
102
RTVSPost2010PropOp51
 70
     0
102
RTVSPost2010Prop52
140
1.0
102
RTVSPost2010PropOp52
 70
     0
102
RTVSPost2010Prop53
 90
        2
102
RTVSPost2010PropOp53
 70
     1
102
RTVSPost2010Prop54
  1
strokes_ogs.tif
102
RTVSPost2010PropOp54
 70
     1
102
RTVSPost2010Prop55
280
     0
102
RTVSPost2010PropOp55
 70
     1
102
RTVSPost2010Prop56
140
1.0
102
RTVSPost2010PropOp56
 70
     1
102
RTVSPost2010Prop57
140
1.0
102
RTVSPost2010PropOp57
 70
     1
102
RTVSPropertyOp0
 70
     1
102
RTVSPropertyOp1
 70
     1
102
RTVSPropertyOp2
 70
     1
102
RTVSPropertyOp3
 70
     1
102
RTVSPropertyOp4
 70
     1
102
RTVSPropertyOp5
 70
     1
102
RTVSPropertyOp6
 70
     1
102
RTVSPropertyOp7
 70
     1
102
RTVSPropertyOp8
 70
     1
102
RTVSPropertyOp9
 70
     1
102
RTVSPropertyOp10
 70
     1
102
RTVSPropertyOp11
 70
     1
102
RTVSPropertyOp12
 70
     1
102
RTVSPropertyOp13
 70
     1
102
RTVSPropertyOp14
 70
     1
102
RTVSPropertyOp15
 70
     1
102
RTVSPropertyOp16
 70
     1
102
RTVSPropertyOp17
 70
     1
102
RTVSPropertyOp18
 70
     1
102
RTVSPropertyOp19
 70
     1
102
RTVSPropertyOp20
 70
     1
102
RTVSPropertyOp21
 70
     1
102
RTVSPropertyOp22
 70
     1
102
RTVSPropertyOp23
 70
     1
102
RTVSPropertyOp24
 70
     1
102
RTVSPropertyOp25
 70
     1
102
RTVSPropertyOp26
 70
     1
102
RTVSPropertyOp27
 70
     1
102
RTVSPropertyOp28
 70
     1
102
RTVSPropertyOp29
 70
     1
102
RTVSPropertyOp30
 70
     1
102
RTVSPropertyOp31
 70
     1
102
RTVSPropertyOp32
 70
     1
102
RTVSPropertyOp33
 70
     1
102
RTVSPropertyOp34
 70
     1
102
RTVSPropertyOp35
 70
     1
102
RTVSPropertyOp36
 70
     1
102
RTVSPropertyOp37
 70
     1
102
RTVSPropertyOp38
 70
     1
102
RTVSPropertyOp39
 70
     1
102
RTVSPropertyOp40
 70
     1
102
RTVSPropertyOp41
 70
     1
102
RTVSPropertyOp42
 70
     1
102
RTVSPropertyOp43
 70
     1
102
RTVSPropertyOp44
 70
     1
102
RTVSPropertyOp45
 70
     1
102
RTVSPropertyOp46
 70
     1
102
RTVSPropertyOp47
 70
     1
102
RTVSPropertyOp48
 70
     1
102
RTVSPropertyOp49
 70
     1
102
RTVSPropertyOp50
 70
     1
102
RTVSPropertyOp51
 70
     0
102
RTVSPropertyOp52
 70
     0
102
RTVSPropertyOp53
 70
     1
102
RTVSPropertyOp54
 70
     1
102
RTVSPropertyOp55
 70
     1
102
RTVSPropertyOp56
 70
     1
102
RTVSPropertyOp57
 70
     1
102
RTVSPropertyOp58
 70
     1
102
RTVSPropertyOp59
 70
     1
102
RTVSPropertyOp60
 70
     1
102
RTVSPropertyOp61
 70
     1
102
RTVSPropertyOp62
 70
     1
  0
XRECORD
  5
1028
102
{ACAD_REACTORS
330
1027
102
}
330
1027
100
AcDbXrecord
280
     1
102
RTVSPost2010Prop28
280
     0
102
RTVSPost2010PropOp28
 70
     1
102
RTVSPost2010Prop29
280
     1
102
RTVSPost2010PropOp29
 70
     1
102
RTVSPost2010Prop30
280
     1
102
RTVSPost2010PropOp30
 70
     1
102
RTVSPost2010Prop31
280
     0
102
RTVSPost2010PropOp31
 70
     1
102
RTVSPost2010Prop32
280
     0
102
RTVSPost2010PropOp32
 70
     1
102
RTVSPost2010Prop33
280
     0
102
RTVSPost2010PropOp33
 70
     1
102
RTVSPost2010Prop34
280
     0
102
RTVSPost2010PropOp34
 70
     1
102
RTVSPost2010Prop35
280
     0
102
RTVSPost2010PropOp35
 70
     1
102
RTVSPost2010Prop36
280
     0
102
RTVSPost2010PropOp36
 70
     1
102
RTVSPost2010Prop37
 90
       50
102
RTVSPost2010PropOp37
 70
     1
102
RTVSPost2010Prop38
140
0.0
102
RTVSPost2010PropOp38
 70
     1
102
RTVSPost2010Prop39
140
1.0
102
RTVSPost2010PropOp39
 70
     1
102
RTVSPost2010Prop40
 90
        0
102
RTVSPost2010PropOp40
 70
     1
102
RTVSPost2010Prop41ColorIndex
 90
       18
102
RTVSPost2010Prop41ColorRGB
 90
        0
102
RTVSPost2010PropOp41
 70
     1
102
RTVSPost2010Prop42
 90
       50
102
RTVSPost2010PropOp42
 70
     1
102
RTVSPost2010Prop43
 90
        3
102
RTVSPost2010PropOp43
 70
     1
102
RTVSPost2010Prop44ColorIndex
 90
        5
102
RTVSPost2010Prop44ColorRGB
 90
      255
102
RTVSPost2010PropOp44
 70
     1
102
RTVSPost2010Prop45
280
     0
102
RTVSPost2010PropOp45
 70
     1
102
RTVSPost2010Prop46
 90
       50
102
RTVSPost2010PropOp46
 70
     1
102
RTVSPost2010Prop47
 90
       50
102
RTVSPost2010PropOp47
 70
     1
102
RTVSPost2010Prop48
 90
       50
102
RTVSPost2010PropOp48
 70
     1
102
RTVSPost2010Prop49
280
     0
102
RTVSPost2010PropOp49
 70
     1
102
RTVSPost2010Prop50
 90
       50
102
RTVSPost2010PropOp50
 70
     1
102
RTVSPost2010Prop51ColorIndex
 90
      256
102
RTVSPost2010Prop51ColorRGB
 90
-16777216
102
RTVSPost2010PropOp51
 70
     0
102
RTVSPost2010Prop52
140
1.0
102
RTVSPost2010PropOp52
 70
     0
102
RTVSPost2010Prop53
 90
        2
102
RTVSPost2010PropOp53
 70
     1
102
RTVSPost2010Prop54
  1
strokes_ogs.tif
102
RTVSPost2010PropOp54
 70
     1
102
RTVSPost2010Prop55
280
     0
102
RTVSPost2010PropOp55
 70
     1
102
RTVSPost2010Prop56
140
1.0
102
RTVSPost2010PropOp56
 70
     1
102
RTVSPost2010Prop57
140
1.0
102
RTVSPost2010PropOp57
 70
     1
102
RTVSPropertyOp0
 70
     1
102
RTVSPropertyOp1
 70
     1
102
RTVSPropertyOp2
 70
     1
102
RTVSPropertyOp3
 70
     1
102
RTVSPropertyOp4
 70
     1
102
RTVSPropertyOp5
 70
     1
102
RTVSPropertyOp6
 70
     1
102
RTVSPropertyOp7
 70
     1
102
RTVSPropertyOp8
 70
     1
102
RTVSPropertyOp9
 70
     1
102
RTVSPropertyOp10
 70
     1
102
RTVSPropertyOp11
 70
     1
102
RTVSPropertyOp12
 70
     1
102
RTVSPropertyOp13
 70
     1
102
RTVSPropertyOp14
 70
     1
102
RTVSPropertyOp15
 70
     1
102
RTVSPropertyOp16
 70
     1
102
RTVSPropertyOp17
 70
     1
102
RTVSPropertyOp18
 70
     1
102
RTVSPropertyOp19
 70
     1
102
RTVSPropertyOp20
 70
     1
102
RTVSPropertyOp21
 70
     1
102
RTVSPropertyOp22
 70
     1
102
RTVSPropertyOp23
 70
     1
102
RTVSPropertyOp24
 70
     1
102
RTVSPropertyOp25
 70
     1
102
RTVSPropertyOp26
 70
     1
102
RTVSPropertyOp27
 70
     1
102
RTVSPropertyOp28
 70
     1
102
RTVSPropertyOp29
 70
     1
102
RTVSPropertyOp30
 70
     1
102
RTVSPropertyOp31
 70
     1
102
RTVSPropertyOp32
 70
     1
102
RTVSPropertyOp33
 70
     1
102
RTVSPropertyOp34
 70
     1
102
RTVSPropertyOp35
 70
     1
102
RTVSPropertyOp36
 70
     1
102
RTVSPropertyOp37
 70
     1
102
RTVSPropertyOp38
 70
     1
102
RTVSPropertyOp39
 70
     1
102
RTVSPropertyOp40
 70
     1
102
RTVSPropertyOp41
 70
     1
102
RTVSPropertyOp42
 70
     1
102
RTVSPropertyOp43
 70
     1
102
RTVSPropertyOp44
 70
     1
102
RTVSPropertyOp45
 70
     1
102
RTVSPropertyOp46
 70
     1
102
RTVSPropertyOp47
 70
     1
102
RTVSPropertyOp48
 70
     1
102
RTVSPropertyOp49
 70
     1
102
RTVSPropertyOp50
 70
     1
102
RTVSPropertyOp51
 70
     0
102
RTVSPropertyOp52
 70
     0
102
RTVSPropertyOp53
 70
     1
102
RTVSPropertyOp54
 70
     1
102
RTVSPropertyOp55
 70
     1
102
RTVSPropertyOp56
 70
     1
102
RTVSPropertyOp57
 70
     1
102
RTVSPropertyOp58
 70
     1
102
RTVSPropertyOp59
 70
     1
102
RTVSPropertyOp60
 70
     1
102
RTVSPropertyOp61
 70
     1
102
RTVSPropertyOp62
 70
     1
  0
XRECORD
  5
1034
102
{ACAD_REACTORS
330
1033
102
}
330
1033
100
AcDbXrecord
280
     1
102
RTVSPost2010Prop28
280
     0
102
RTVSPost2010PropOp28
 70
     1
102
RTVSPost2010Prop29
280
     1
102
RTVSPost2010PropOp29
 70
     1
102
RTVSPost2010Prop30
280
     1
102
RTVSPost2010PropOp30
 70
     1
102
RTVSPost2010Prop31
280
     0
102
RTVSPost2010PropOp31
 70
     1
102
RTVSPost2010Prop32
280
     0
102
RTVSPost2010PropOp32
 70
     1
102
RTVSPost2010Prop33
280
     0
102
RTVSPost2010PropOp33
 70
     1
102
RTVSPost2010Prop34
280
     0
102
RTVSPost2010PropOp34
 70
     1
102
RTVSPost2010Prop35
280
     0
102
RTVSPost2010PropOp35
 70
     1
102
RTVSPost2010Prop36
280
     0
102
RTVSPost2010PropOp36
 70
     1
102
RTVSPost2010Prop37
 90
       50
102
RTVSPost2010PropOp37
 70
     1
102
RTVSPost2010Prop38
140
0.0
102
RTVSPost2010PropOp38
 70
     1
102
RTVSPost2010Prop39
140
1.0
102
RTVSPost2010PropOp39
 70
     1
102
RTVSPost2010Prop40
 90
        0
102
RTVSPost2010PropOp40
 70
     1
102
RTVSPost2010Prop41ColorIndex
 90
       18
102
RTVSPost2010Prop41ColorRGB
 90
        0
102
RTVSPost2010PropOp41
 70
     1
102
RTVSPost2010Prop42
 90
       50
102
RTVSPost2010PropOp42
 70
     1
102
RTVSPost2010Prop43
 90
        3
102
RTVSPost2010PropOp43
 70
     1
102
RTVSPost2010Prop44ColorIndex
 90
        5
102
RTVSPost2010Prop44ColorRGB
 90
      255
102
RTVSPost2010PropOp44
 70
     1
102
RTVSPost2010Prop45
280
     0
102
RTVSPost2010PropOp45
 70
     1
102
RTVSPost2010Prop46
 90
       50
102
RTVSPost2010PropOp46
 70
     1
102
RTVSPost2010Prop47
 90
       50
102
RTVSPost2010PropOp47
 70
     1
102
RTVSPost2010Prop48
 90
       50
102
RTVSPost2010PropOp48
 70
     1
102
RTVSPost2010Prop49
280
     0
102
RTVSPost2010PropOp49
 70
     1
102
RTVSPost2010Prop50
 90
       50
102
RTVSPost2010PropOp50
 70
     1
102
RTVSPost2010Prop51ColorIndex
 90
      256
102
RTVSPost2010Prop51ColorRGB
 90
-16777216
102
RTVSPost2010PropOp51
 70
     0
102
RTVSPost2010Prop52
140
1.0
102
RTVSPost2010PropOp52
 70
     0
102
RTVSPost2010Prop53
 90
        2
102
RTVSPost2010PropOp53
 70
     1
102
RTVSPost2010Prop54
  1
strokes_ogs.tif
102
RTVSPost2010PropOp54
 70
     1
102
RTVSPost2010Prop55
280
     0
102
RTVSPost2010PropOp55
 70
     1
102
RTVSPost2010Prop56
140
1.0
102
RTVSPost2010PropOp56
 70
     1
102
RTVSPost2010Prop57
140
1.0
102
RTVSPost2010PropOp57
 70
     1
102
RTVSPropertyOp0
 70
     0
102
RTVSPropertyOp1
 70
     0
102
RTVSPropertyOp2
 70
     0
102
RTVSPropertyOp3
 70
     0
102
RTVSPropertyOp4
 70
     0
102
RTVSPropertyOp5
 70
     0
102
RTVSPropertyOp6
 70
     0
102
RTVSPropertyOp7
 70
     0
102
RTVSPropertyOp8
 70
     0
102
RTVSPropertyOp9
 70
     0
102
RTVSPropertyOp10
 70
     0
102
RTVSPropertyOp11
 70
     0
102
RTVSPropertyOp12
 70
     0
102
RTVSPropertyOp13
 70
     0
102
RTVSPropertyOp14
 70
     2
102
RTVSPropertyOp15
 70
     0
102
RTVSPropertyOp16
 70
     0
102
RTVSPropertyOp17
 70
     0
102
RTVSPropertyOp18
 70
     0
102
RTVSPropertyOp19
 70
     0
102
RTVSPropertyOp20
 70
     0
102
RTVSPropertyOp21
 70
     0
102
RTVSPropertyOp22
 70
     0
102
RTVSPropertyOp23
 70
     0
102
RTVSPropertyOp24
 70
     0
102
RTVSPropertyOp25
 70
     0
102
RTVSPropertyOp26
 70
     0
102
RTVSPropertyOp27
 70
     0
102
RTVSPropertyOp28
 70
     1
102
RTVSPropertyOp29
 70
     1
102
RTVSPropertyOp30
 70
     1
102
RTVSPropertyOp31
 70
     1
102
RTVSPropertyOp32
 70
     1
102
RTVSPropertyOp33
 70
     1
102
RTVSPropertyOp34
 70
     1
102
RTVSPropertyOp35
 70
     1
102
RTVSPropertyOp36
 70
     1
102
RTVSPropertyOp37
 70
     1
102
RTVSPropertyOp38
 70
     1
102
RTVSPropertyOp39
 70
     1
102
RTVSPropertyOp40
 70
     1
102
RTVSPropertyOp41
 70
     1
102
RTVSPropertyOp42
 70
     1
102
RTVSPropertyOp43
 70
     1
102
RTVSPropertyOp44
 70
     1
102
RTVSPropertyOp45
 70
     1
102
RTVSPropertyOp46
 70
     1
102
RTVSPropertyOp47
 70
     1
102
RTVSPropertyOp48
 70
     1
102
RTVSPropertyOp49
 70
     1
102
RTVSPropertyOp50
 70
     1
102
RTVSPropertyOp51
 70
     0
102
RTVSPropertyOp52
 70
     0
102
RTVSPropertyOp53
 70
     1
102
RTVSPropertyOp54
 70
     1
102
RTVSPropertyOp55
 70
     1
102
RTVSPropertyOp56
 70
     1
102
RTVSPropertyOp57
 70
     1
102
RTVSPropertyOp58
 70
     1
102
RTVSPropertyOp59
 70
     1
102
RTVSPropertyOp60
 70
     1
102
RTVSPropertyOp61
 70
     1
102
RTVSPropertyOp62
 70
     1
  0
XRECORD
  5
101E
102
{ACAD_REACTORS
330
101D
102
}
330
101D
100
AcDbXrecord
280
     1
102
RTVSPost2010Prop28
280
     0
102
RTVSPost2010PropOp28
 70
     1
102
RTVSPost2010Prop29
280
     1
102
RTVSPost2010PropOp29
 70
     1
102
RTVSPost2010Prop30
280
     1
102
RTVSPost2010PropOp30
 70
     1
102
RTVSPost2010Prop31
280
     0
102
RTVSPost2010PropOp31
 70
     1
102
RTVSPost2010Prop32
280
     0
102
RTVSPost2010PropOp32
 70
     1
102
RTVSPost2010Prop33
280
     0
102
RTVSPost2010PropOp33
 70
     1
102
RTVSPost2010Prop34
280
     0
102
RTVSPost2010PropOp34
 70
     1
102
RTVSPost2010Prop35
280
     0
102
RTVSPost2010PropOp35
 70
     1
102
RTVSPost2010Prop36
280
     0
102
RTVSPost2010PropOp36
 70
     1
102
RTVSPost2010Prop37
 90
       50
102
RTVSPost2010PropOp37
 70
     1
102
RTVSPost2010Prop38
140
0.0
102
RTVSPost2010PropOp38
 70
     1
102
RTVSPost2010Prop39
140
1.0
102
RTVSPost2010PropOp39
 70
     1
102
RTVSPost2010Prop40
 90
        0
102
RTVSPost2010PropOp40
 70
     1
102
RTVSPost2010Prop41ColorIndex
 90
       18
102
RTVSPost2010Prop41ColorRGB
 90
        0
102
RTVSPost2010PropOp41
 70
     1
102
RTVSPost2010Prop42
 90
       50
102
RTVSPost2010PropOp42
 70
     1
102
RTVSPost2010Prop43
 90
        3
102
RTVSPost2010PropOp43
 70
     1
102
RTVSPost2010Prop44ColorIndex
 90
        5
102
RTVSPost2010Prop44ColorRGB
 90
      255
102
RTVSPost2010PropOp44
 70
     1
102
RTVSPost2010Prop45
280
     0
102
RTVSPost2010PropOp45
 70
     1
102
RTVSPost2010Prop46
 90
       50
102
RTVSPost2010PropOp46
 70
     1
102
RTVSPost2010Prop47
 90
       50
102
RTVSPost2010PropOp47
 70
     1
102
RTVSPost2010Prop48
 90
       50
102
RTVSPost2010PropOp48
 70
     1
102
RTVSPost2010Prop49
280
     0
102
RTVSPost2010PropOp49
 70
     1
102
RTVSPost2010Prop50
 90
       50
102
RTVSPost2010PropOp50
 70
     1
102
RTVSPost2010Prop51ColorIndex
 90
      256
102
RTVSPost2010Prop51ColorRGB
 90
-16777216
102
RTVSPost2010PropOp51
 70
     0
102
RTVSPost2010Prop52
140
1.0
102
RTVSPost2010PropOp52
 70
     0
102
RTVSPost2010Prop53
 90
        2
102
RTVSPost2010PropOp53
 70
     1
102
RTVSPost2010Prop54
  1
strokes_ogs.tif
102
RTVSPost2010PropOp54
 70
     1
102
RTVSPost2010Prop55
280
     0
102
RTVSPost2010PropOp55
 70
     1
102
RTVSPost2010Prop56
140
1.0
102
RTVSPost2010PropOp56
 70
     1
102
RTVSPost2010Prop57
140
1.0
102
RTVSPost2010PropOp57
 70
     1
102
RTVSPropertyOp0
 70
     1
102
RTVSPropertyOp1
 70
     1
102
RTVSPropertyOp2
 70
     1
102
RTVSPropertyOp3
 70
     1
102
RTVSPropertyOp4
 70
     1
102
RTVSPropertyOp5
 70
     1
102
RTVSPropertyOp6
 70
     1
102
RTVSPropertyOp7
 70
     1
102
RTVSPropertyOp8
 70
     1
102
RTVSPropertyOp9
 70
     1
102
RTVSPropertyOp10
 70
     1
102
RTVSPropertyOp11
 70
     1
102
RTVSPropertyOp12
 70
     1
102
RTVSPropertyOp13
 70
     1
102
RTVSPropertyOp14
 70
     1
102
RTVSPropertyOp15
 70
     1
102
RTVSPropertyOp16
 70
     1
102
RTVSPropertyOp17
 70
     1
102
RTVSPropertyOp18
 70
     1
102
RTVSPropertyOp19
 70
     1
102
RTVSPropertyOp20
 70
     1
102
RTVSPropertyOp21
 70
     1
102
RTVSPropertyOp22
 70
     1
102
RTVSPropertyOp23
 70
     1
102
RTVSPropertyOp24
 70
     1
102
RTVSPropertyOp25
 70
     1
102
RTVSPropertyOp26
 70
     1
102
RTVSPropertyOp27
 70
     1
102
RTVSPropertyOp28
 70
     1
102
RTVSPropertyOp29
 70
     1
102
RTVSPropertyOp30
 70
     1
102
RTVSPropertyOp31
 70
     1
102
RTVSPropertyOp32
 70
     1
102
RTVSPropertyOp33
 70
     1
102
RTVSPropertyOp34
 70
     1
102
RTVSPropertyOp35
 70
     1
102
RTVSPropertyOp36
 70
     1
102
RTVSPropertyOp37
 70
     1
102
RTVSPropertyOp38
 70
     1
102
RTVSPropertyOp39
 70
     1
102
RTVSPropertyOp40
 70
     1
102
RTVSPropertyOp41
 70
     1
102
RTVSPropertyOp42
 70
     1
102
RTVSPropertyOp43
 70
     1
102
RTVSPropertyOp44
 70
     1
102
RTVSPropertyOp45
 70
     1
102
RTVSPropertyOp46
 70
     1
102
RTVSPropertyOp47
 70
     1
102
RTVSPropertyOp48
 70
     1
102
RTVSPropertyOp49
 70
     1
102
RTVSPropertyOp50
 70
     1
102
RTVSPropertyOp51
 70
     0
102
RTVSPropertyOp52
 70
     0
102
RTVSPropertyOp53
 70
     1
102
RTVSPropertyOp54
 70
     1
102
RTVSPropertyOp55
 70
     1
102
RTVSPropertyOp56
 70
     1
102
RTVSPropertyOp57
 70
     1
102
RTVSPropertyOp58
 70
     1
102
RTVSPropertyOp59
 70
     1
102
RTVSPropertyOp60
 70
     1
102
RTVSPropertyOp61
 70
     1
102
RTVSPropertyOp62
 70
     1
  0
XRECORD
  5
1036
102
{ACAD_REACTORS
330
1035
102
}
330
1035
100
AcDbXrecord
280
     1
102
RTVSPost2010Prop28
280
     0
102
RTVSPost2010PropOp28
 70
     1
102
RTVSPost2010Prop29
280
     1
102
RTVSPost2010PropOp29
 70
     1
102
RTVSPost2010Prop30
280
     1
102
RTVSPost2010PropOp30
 70
     1
102
RTVSPost2010Prop31
280
     0
102
RTVSPost2010PropOp31
 70
     1
102
RTVSPost2010Prop32
280
     0
102
RTVSPost2010PropOp32
 70
     1
102
RTVSPost2010Prop33
280
     0
102
RTVSPost2010PropOp33
 70
     1
102
RTVSPost2010Prop34
280
     0
102
RTVSPost2010PropOp34
 70
     1
102
RTVSPost2010Prop35
280
     0
102
RTVSPost2010PropOp35
 70
     1
102
RTVSPost2010Prop36
280
     0
102
RTVSPost2010PropOp36
 70
     1
102
RTVSPost2010Prop37
 90
       50
102
RTVSPost2010PropOp37
 70
     1
102
RTVSPost2010Prop38
140
0.0
102
RTVSPost2010PropOp38
 70
     1
102
RTVSPost2010Prop39
140
1.0
102
RTVSPost2010PropOp39
 70
     1
102
RTVSPost2010Prop40
 90
        0
102
RTVSPost2010PropOp40
 70
     1
102
RTVSPost2010Prop41ColorIndex
 90
       18
102
RTVSPost2010Prop41ColorRGB
 90
        0
102
RTVSPost2010PropOp41
 70
     1
102
RTVSPost2010Prop42
 90
       50
102
RTVSPost2010PropOp42
 70
     1
102
RTVSPost2010Prop43
 90
        3
102
RTVSPost2010PropOp43
 70
     1
102
RTVSPost2010Prop44ColorIndex
 90
        5
102
RTVSPost2010Prop44ColorRGB
 90
      255
102
RTVSPost2010PropOp44
 70
     1
102
RTVSPost2010Prop45
280
     0
102
RTVSPost2010PropOp45
 70
     1
102
RTVSPost2010Prop46
 90
       50
102
RTVSPost2010PropOp46
 70
     1
102
RTVSPost2010Prop47
 90
       50
102
RTVSPost2010PropOp47
 70
     1
102
RTVSPost2010Prop48
 90
       50
102
RTVSPost2010PropOp48
 70
     1
102
RTVSPost2010Prop49
280
     0
102
RTVSPost2010PropOp49
 70
     1
102
RTVSPost2010Prop50
 90
       50
102
RTVSPost2010PropOp50
 70
     1
102
RTVSPost2010Prop51ColorIndex
 90
      256
102
RTVSPost2010Prop51ColorRGB
 90
-16777216
102
RTVSPost2010PropOp51
 70
     0
102
RTVSPost2010Prop52
140
1.0
102
RTVSPost2010PropOp52
 70
     0
102
RTVSPost2010Prop53
 90
        2
102
RTVSPost2010PropOp53
 70
     1
102
RTVSPost2010Prop54
  1
strokes_ogs.tif
102
RTVSPost2010PropOp54
 70
     1
102
RTVSPost2010Prop55
280
     0
102
RTVSPost2010PropOp55
 70
     1
102
RTVSPost2010Prop56
140
1.0
102
RTVSPost2010PropOp56
 70
     1
102
RTVSPost2010Prop57
140
1.0
102
RTVSPost2010PropOp57
 70
     1
102
RTVSPropertyOp0
 70
     0
102
RTVSPropertyOp1
 70
     0
102
RTVSPropertyOp2
 70
     0
102
RTVSPropertyOp3
 70
     0
102
RTVSPropertyOp4
 70
     0
102
RTVSPropertyOp5
 70
     0
102
RTVSPropertyOp6
 70
     0
102
RTVSPropertyOp7
 70
     0
102
RTVSPropertyOp8
 70
     0
102
RTVSPropertyOp9
 70
     0
102
RTVSPropertyOp10
 70
     0
102
RTVSPropertyOp11
 70
     0
102
RTVSPropertyOp12
 70
     0
102
RTVSPropertyOp13
 70
     0
102
RTVSPropertyOp14
 70
     2
102
RTVSPropertyOp15
 70
     0
102
RTVSPropertyOp16
 70
     0
102
RTVSPropertyOp17
 70
     0
102
RTVSPropertyOp18
 70
     0
102
RTVSPropertyOp19
 70
     0
102
RTVSPropertyOp20
 70
     0
102
RTVSPropertyOp21
 70
     0
102
RTVSPropertyOp22
 70
     0
102
RTVSPropertyOp23
 70
     0
102
RTVSPropertyOp24
 70
     0
102
RTVSPropertyOp25
 70
     0
102
RTVSPropertyOp26
 70
     0
102
RTVSPropertyOp27
 70
     0
102
RTVSPropertyOp28
 70
     1
102
RTVSPropertyOp29
 70
     1
102
RTVSPropertyOp30
 70
     1
102
RTVSPropertyOp31
 70
     1
102
RTVSPropertyOp32
 70
     1
102
RTVSPropertyOp33
 70
     1
102
RTVSPropertyOp34
 70
     1
102
RTVSPropertyOp35
 70
     1
102
RTVSPropertyOp36
 70
     1
102
RTVSPropertyOp37
 70
     1
102
RTVSPropertyOp38
 70
     1
102
RTVSPropertyOp39
 70
     1
102
RTVSPropertyOp40
 70
     1
102
RTVSPropertyOp41
 70
     1
102
RTVSPropertyOp42
 70
     1
102
RTVSPropertyOp43
 70
     1
102
RTVSPropertyOp44
 70
     1
102
RTVSPropertyOp45
 70
     1
102
RTVSPropertyOp46
 70
     1
102
RTVSPropertyOp47
 70
     1
102
RTVSPropertyOp48
 70
     1
102
RTVSPropertyOp49
 70
     1
102
RTVSPropertyOp50
 70
     1
102
RTVSPropertyOp51
 70
     0
102
RTVSPropertyOp52
 70
     0
102
RTVSPropertyOp53
 70
     1
102
RTVSPropertyOp54
 70
     1
102
RTVSPropertyOp55
 70
     1
102
RTVSPropertyOp56
 70
     1
102
RTVSPropertyOp57
 70
     1
102
RTVSPropertyOp58
 70
     1
102
RTVSPropertyOp59
 70
     1
102
RTVSPropertyOp60
 70
     1
102
RTVSPropertyOp61
 70
     1
102
RTVSPropertyOp62
 70
     1
  0
XRECORD
  5
1016
102
{ACAD_REACTORS
330
1015
102
}
330
1015
100
AcDbXrecord
280
     1
102
RTVSPost2010Prop28
280
     0
102
RTVSPost2010PropOp28
 70
     1
102
RTVSPost2010Prop29
280
     1
102
RTVSPost2010PropOp29
 70
     1
102
RTVSPost2010Prop30
280
     1
102
RTVSPost2010PropOp30
 70
     1
102
RTVSPost2010Prop31
280
     0
102
RTVSPost2010PropOp31
 70
     1
102
RTVSPost2010Prop32
280
     0
102
RTVSPost2010PropOp32
 70
     1
102
RTVSPost2010Prop33
280
     0
102
RTVSPost2010PropOp33
 70
     1
102
RTVSPost2010Prop34
280
     0
102
RTVSPost2010PropOp34
 70
     1
102
RTVSPost2010Prop35
280
     0
102
RTVSPost2010PropOp35
 70
     1
102
RTVSPost2010Prop36
280
     0
102
RTVSPost2010PropOp36
 70
     1
102
RTVSPost2010Prop37
 90
       50
102
RTVSPost2010PropOp37
 70
     1
102
RTVSPost2010Prop38
140
0.0
102
RTVSPost2010PropOp38
 70
     1
102
RTVSPost2010Prop39
140
1.0
102
RTVSPost2010PropOp39
 70
     1
102
RTVSPost2010Prop40
 90
        0
102
RTVSPost2010PropOp40
 70
     1
102
RTVSPost2010Prop41ColorIndex
 90
       18
102
RTVSPost2010Prop41ColorRGB
 90
        0
102
RTVSPost2010PropOp41
 70
     1
102
RTVSPost2010Prop42
 90
       50
102
RTVSPost2010PropOp42
 70
     1
102
RTVSPost2010Prop43
 90
        3
102
RTVSPost2010PropOp43
 70
     1
102
RTVSPost2010Prop44ColorIndex
 90
        5
102
RTVSPost2010Prop44ColorRGB
 90
      255
102
RTVSPost2010PropOp44
 70
     1
102
RTVSPost2010Prop45
280
     0
102
RTVSPost2010PropOp45
 70
     1
102
RTVSPost2010Prop46
 90
       50
102
RTVSPost2010PropOp46
 70
     1
102
RTVSPost2010Prop47
 90
       50
102
RTVSPost2010PropOp47
 70
     1
102
RTVSPost2010Prop48
 90
       50
102
RTVSPost2010PropOp48
 70
     1
102
RTVSPost2010Prop49
280
     0
102
RTVSPost2010PropOp49
 70
     1
102
RTVSPost2010Prop50
 90
       50
102
RTVSPost2010PropOp50
 70
     1
102
RTVSPost2010Prop51ColorIndex
 90
      256
102
RTVSPost2010Prop51ColorRGB
 90
-16777216
102
RTVSPost2010PropOp51
 70
     0
102
RTVSPost2010Prop52
140
1.0
102
RTVSPost2010PropOp52
 70
     0
102
RTVSPost2010Prop53
 90
        2
102
RTVSPost2010PropOp53
 70
     1
102
RTVSPost2010Prop54
  1
strokes_ogs.tif
102
RTVSPost2010PropOp54
 70
     1
102
RTVSPost2010Prop55
280
     0
102
RTVSPost2010PropOp55
 70
     1
102
RTVSPost2010Prop56
140
1.0
102
RTVSPost2010PropOp56
 70
     1
102
RTVSPost2010Prop57
140
1.0
102
RTVSPost2010PropOp57
 70
     1
102
RTVSPropertyOp0
 70
     1
102
RTVSPropertyOp1
 70
     1
102
RTVSPropertyOp2
 70
     1
102
RTVSPropertyOp3
 70
     1
102
RTVSPropertyOp4
 70
     1
102
RTVSPropertyOp5
 70
     1
102
RTVSPropertyOp6
 70
     1
102
RTVSPropertyOp7
 70
     1
102
RTVSPropertyOp8
 70
     1
102
RTVSPropertyOp9
 70
     1
102
RTVSPropertyOp10
 70
     1
102
RTVSPropertyOp11
 70
     1
102
RTVSPropertyOp12
 70
     1
102
RTVSPropertyOp13
 70
     1
102
RTVSPropertyOp14
 70
     1
102
RTVSPropertyOp15
 70
     1
102
RTVSPropertyOp16
 70
     1
102
RTVSPropertyOp17
 70
     1
102
RTVSPropertyOp18
 70
     1
102
RTVSPropertyOp19
 70
     1
102
RTVSPropertyOp20
 70
     1
102
RTVSPropertyOp21
 70
     1
102
RTVSPropertyOp22
 70
     1
102
RTVSPropertyOp23
 70
     1
102
RTVSPropertyOp24
 70
     1
102
RTVSPropertyOp25
 70
     1
102
RTVSPropertyOp26
 70
     1
102
RTVSPropertyOp27
 70
     1
102
RTVSPropertyOp28
 70
     1
102
RTVSPropertyOp29
 70
     1
102
RTVSPropertyOp30
 70
     1
102
RTVSPropertyOp31
 70
     1
102
RTVSPropertyOp32
 70
     1
102
RTVSPropertyOp33
 70
     1
102
RTVSPropertyOp34
 70
     1
102
RTVSPropertyOp35
 70
     1
102
RTVSPropertyOp36
 70
     1
102
RTVSPropertyOp37
 70
     1
102
RTVSPropertyOp38
 70
     1
102
RTVSPropertyOp39
 70
     1
102
RTVSPropertyOp40
 70
     1
102
RTVSPropertyOp41
 70
     1
102
RTVSPropertyOp42
 70
     1
102
RTVSPropertyOp43
 70
     1
102
RTVSPropertyOp44
 70
     1
102
RTVSPropertyOp45
 70
     1
102
RTVSPropertyOp46
 70
     1
102
RTVSPropertyOp47
 70
     1
102
RTVSPropertyOp48
 70
     1
102
RTVSPropertyOp49
 70
     1
102
RTVSPropertyOp50
 70
     1
102
RTVSPropertyOp51
 70
     0
102
RTVSPropertyOp52
 70
     0
102
RTVSPropertyOp53
 70
     1
102
RTVSPropertyOp54
 70
     1
102
RTVSPropertyOp55
 70
     1
102
RTVSPropertyOp56
 70
     1
102
RTVSPropertyOp57
 70
     1
102
RTVSPropertyOp58
 70
     1
102
RTVSPropertyOp59
 70
     1
102
RTVSPropertyOp60
 70
     1
102
RTVSPropertyOp61
 70
     1
102
RTVSPropertyOp62
 70
     1
  0
XRECORD
  5
1032
102
{ACAD_REACTORS
330
1031
102
}
330
1031
100
AcDbXrecord
280
     1
102
RTVSPost2010Prop28
280
     0
102
RTVSPost2010PropOp28
 70
     1
102
RTVSPost2010Prop29
280
     1
102
RTVSPost2010PropOp29
 70
     1
102
RTVSPost2010Prop30
280
     1
102
RTVSPost2010PropOp30
 70
     1
102
RTVSPost2010Prop31
280
     0
102
RTVSPost2010PropOp31
 70
     1
102
RTVSPost2010Prop32
280
     0
102
RTVSPost2010PropOp32
 70
     1
102
RTVSPost2010Prop33
280
     0
102
RTVSPost2010PropOp33
 70
     1
102
RTVSPost2010Prop34
280
     0
102
RTVSPost2010PropOp34
 70
     1
102
RTVSPost2010Prop35
280
     0
102
RTVSPost2010PropOp35
 70
     1
102
RTVSPost2010Prop36
280
     0
102
RTVSPost2010PropOp36
 70
     1
102
RTVSPost2010Prop37
 90
       50
102
RTVSPost2010PropOp37
 70
     1
102
RTVSPost2010Prop38
140
0.0
102
RTVSPost2010PropOp38
 70
     1
102
RTVSPost2010Prop39
140
1.0
102
RTVSPost2010PropOp39
 70
     1
102
RTVSPost2010Prop40
 90
        0
102
RTVSPost2010PropOp40
 70
     1
102
RTVSPost2010Prop41ColorIndex
 90
       18
102
RTVSPost2010Prop41ColorRGB
 90
        0
102
RTVSPost2010PropOp41
 70
     1
102
RTVSPost2010Prop42
 90
       50
102
RTVSPost2010PropOp42
 70
     1
102
RTVSPost2010Prop43
 90
        3
102
RTVSPost2010PropOp43
 70
     1
102
RTVSPost2010Prop44ColorIndex
 90
        5
102
RTVSPost2010Prop44ColorRGB
 90
      255
102
RTVSPost2010PropOp44
 70
     1
102
RTVSPost2010Prop45
280
     0
102
RTVSPost2010PropOp45
 70
     1
102
RTVSPost2010Prop46
 90
       50
102
RTVSPost2010PropOp46
 70
     1
102
RTVSPost2010Prop47
 90
       50
102
RTVSPost2010PropOp47
 70
     1
102
RTVSPost2010Prop48
 90
       50
102
RTVSPost2010PropOp48
 70
     1
102
RTVSPost2010Prop49
280
     0
102
RTVSPost2010PropOp49
 70
     1
102
RTVSPost2010Prop50
 90
       50
102
RTVSPost2010PropOp50
 70
     1
102
RTVSPost2010Prop51ColorIndex
 90
      256
102
RTVSPost2010Prop51ColorRGB
 90
-16777216
102
RTVSPost2010PropOp51
 70
     0
102
RTVSPost2010Prop52
140
1.0
102
RTVSPost2010PropOp52
 70
     0
102
RTVSPost2010Prop53
 90
        2
102
RTVSPost2010PropOp53
 70
     1
102
RTVSPost2010Prop54
  1
strokes_ogs.tif
102
RTVSPost2010PropOp54
 70
     1
102
RTVSPost2010Prop55
280
     0
102
RTVSPost2010PropOp55
 70
     1
102
RTVSPost2010Prop56
140
1.0
102
RTVSPost2010PropOp56
 70
     1
102
RTVSPost2010Prop57
140
1.0
102
RTVSPost2010PropOp57
 70
     1
102
RTVSPropertyOp0
 70
     1
102
RTVSPropertyOp1
 70
     1
102
RTVSPropertyOp2
 70
     1
102
RTVSPropertyOp3
 70
     1
102
RTVSPropertyOp4
 70
     1
102
RTVSPropertyOp5
 70
     1
102
RTVSPropertyOp6
 70
     1
102
RTVSPropertyOp7
 70
     1
102
RTVSPropertyOp8
 70
     1
102
RTVSPropertyOp9
 70
     1
102
RTVSPropertyOp10
 70
     1
102
RTVSPropertyOp11
 70
     1
102
RTVSPropertyOp12
 70
     1
102
RTVSPropertyOp13
 70
     1
102
RTVSPropertyOp14
 70
     1
102
RTVSPropertyOp15
 70
     1
102
RTVSPropertyOp16
 70
     1
102
RTVSPropertyOp17
 70
     1
102
RTVSPropertyOp18
 70
     1
102
RTVSPropertyOp19
 70
     1
102
RTVSPropertyOp20
 70
     1
102
RTVSPropertyOp21
 70
     1
102
RTVSPropertyOp22
 70
     1
102
RTVSPropertyOp23
 70
     1
102
RTVSPropertyOp24
 70
     1
102
RTVSPropertyOp25
 70
     1
102
RTVSPropertyOp26
 70
     1
102
RTVSPropertyOp27
 70
     1
102
RTVSPropertyOp28
 70
     1
102
RTVSPropertyOp29
 70
     1
102
RTVSPropertyOp30
 70
     1
102
RTVSPropertyOp31
 70
     1
102
RTVSPropertyOp32
 70
     1
102
RTVSPropertyOp33
 70
     1
102
RTVSPropertyOp34
 70
     1
102
RTVSPropertyOp35
 70
     1
102
RTVSPropertyOp36
 70
     1
102
RTVSPropertyOp37
 70
     1
102
RTVSPropertyOp38
 70
     1
102
RTVSPropertyOp39
 70
     1
102
RTVSPropertyOp40
 70
     1
102
RTVSPropertyOp41
 70
     1
102
RTVSPropertyOp42
 70
     1
102
RTVSPropertyOp43
 70
     1
102
RTVSPropertyOp44
 70
     1
102
RTVSPropertyOp45
 70
     1
102
RTVSPropertyOp46
 70
     1
102
RTVSPropertyOp47
 70
     1
102
RTVSPropertyOp48
 70
     1
102
RTVSPropertyOp49
 70
     1
102
RTVSPropertyOp50
 70
     1
102
RTVSPropertyOp51
 70
     0
102
RTVSPropertyOp52
 70
     0
102
RTVSPropertyOp53
 70
     1
102
RTVSPropertyOp54
 70
     1
102
RTVSPropertyOp55
 70
     1
102
RTVSPropertyOp56
 70
     1
102
RTVSPropertyOp57
 70
     1
102
RTVSPropertyOp58
 70
     1
102
RTVSPropertyOp59
 70
     1
102
RTVSPropertyOp60
 70
     1
102
RTVSPropertyOp61
 70
     1
102
RTVSPropertyOp62
 70
     1
  0
XRECORD
  5
1030
102
{ACAD_REACTORS
330
102F
102
}
330
102F
100
AcDbXrecord
280
     1
102
RTVSPost2010Prop28
280
     0
102
RTVSPost2010PropOp28
 70
     1
102
RTVSPost2010Prop29
280
     1
102
RTVSPost2010PropOp29
 70
     1
102
RTVSPost2010Prop30
280
     1
102
RTVSPost2010PropOp30
 70
     1
102
RTVSPost2010Prop31
280
     0
102
RTVSPost2010PropOp31
 70
     1
102
RTVSPost2010Prop32
280
     0
102
RTVSPost2010PropOp32
 70
     1
102
RTVSPost2010Prop33
280
     0
102
RTVSPost2010PropOp33
 70
     1
102
RTVSPost2010Prop34
280
     0
102
RTVSPost2010PropOp34
 70
     1
102
RTVSPost2010Prop35
280
     0
102
RTVSPost2010PropOp35
 70
     1
102
RTVSPost2010Prop36
280
     0
102
RTVSPost2010PropOp36
 70
     1
102
RTVSPost2010Prop37
 90
       50
102
RTVSPost2010PropOp37
 70
     1
102
RTVSPost2010Prop38
140
0.0
102
RTVSPost2010PropOp38
 70
     1
102
RTVSPost2010Prop39
140
1.0
102
RTVSPost2010PropOp39
 70
     1
102
RTVSPost2010Prop40
 90
        0
102
RTVSPost2010PropOp40
 70
     1
102
RTVSPost2010Prop41ColorIndex
 90
       18
102
RTVSPost2010Prop41ColorRGB
 90
        0
102
RTVSPost2010PropOp41
 70
     1
102
RTVSPost2010Prop42
 90
       50
102
RTVSPost2010PropOp42
 70
     1
102
RTVSPost2010Prop43
 90
        3
102
RTVSPost2010PropOp43
 70
     1
102
RTVSPost2010Prop44ColorIndex
 90
        5
102
RTVSPost2010Prop44ColorRGB
 90
      255
102
RTVSPost2010PropOp44
 70
     1
102
RTVSPost2010Prop45
280
     0
102
RTVSPost2010PropOp45
 70
     1
102
RTVSPost2010Prop46
 90
       50
102
RTVSPost2010PropOp46
 70
     1
102
RTVSPost2010Prop47
 90
       50
102
RTVSPost2010PropOp47
 70
     1
102
RTVSPost2010Prop48
 90
       50
102
RTVSPost2010PropOp48
 70
     1
102
RTVSPost2010Prop49
280
     0
102
RTVSPost2010PropOp49
 70
     1
102
RTVSPost2010Prop50
 90
       50
102
RTVSPost2010PropOp50
 70
     1
102
RTVSPost2010Prop51ColorIndex
 90
      256
102
RTVSPost2010Prop51ColorRGB
 90
-16777216
102
RTVSPost2010PropOp51
 70
     0
102
RTVSPost2010Prop52
140
1.0
102
RTVSPost2010PropOp52
 70
     0
102
RTVSPost2010Prop53
 90
        2
102
RTVSPost2010PropOp53
 70
     1
102
RTVSPost2010Prop54
  1
strokes_ogs.tif
102
RTVSPost2010PropOp54
 70
     1
102
RTVSPost2010Prop55
280
     0
102
RTVSPost2010PropOp55
 70
     1
102
RTVSPost2010Prop56
140
1.0
102
RTVSPost2010PropOp56
 70
     1
102
RTVSPost2010Prop57
140
1.0
102
RTVSPost2010PropOp57
 70
     1
102
RTVSPropertyOp0
 70
     1
102
RTVSPropertyOp1
 70
     1
102
RTVSPropertyOp2
 70
     1
102
RTVSPropertyOp3
 70
     1
102
RTVSPropertyOp4
 70
     1
102
RTVSPropertyOp5
 70
     1
102
RTVSPropertyOp6
 70
     1
102
RTVSPropertyOp7
 70
     1
102
RTVSPropertyOp8
 70
     1
102
RTVSPropertyOp9
 70
     1
102
RTVSPropertyOp10
 70
     1
102
RTVSPropertyOp11
 70
     1
102
RTVSPropertyOp12
 70
     1
102
RTVSPropertyOp13
 70
     1
102
RTVSPropertyOp14
 70
     1
102
RTVSPropertyOp15
 70
     1
102
RTVSPropertyOp16
 70
     1
102
RTVSPropertyOp17
 70
     1
102
RTVSPropertyOp18
 70
     1
102
RTVSPropertyOp19
 70
     1
102
RTVSPropertyOp20
 70
     1
102
RTVSPropertyOp21
 70
     1
102
RTVSPropertyOp22
 70
     1
102
RTVSPropertyOp23
 70
     1
102
RTVSPropertyOp24
 70
     1
102
RTVSPropertyOp25
 70
     1
102
RTVSPropertyOp26
 70
     1
102
RTVSPropertyOp27
 70
     1
102
RTVSPropertyOp28
 70
     1
102
RTVSPropertyOp29
 70
     1
102
RTVSPropertyOp30
 70
     1
102
RTVSPropertyOp31
 70
     1
102
RTVSPropertyOp32
 70
     1
102
RTVSPropertyOp33
 70
     1
102
RTVSPropertyOp34
 70
     1
102
RTVSPropertyOp35
 70
     1
102
RTVSPropertyOp36
 70
     1
102
RTVSPropertyOp37
 70
     1
102
RTVSPropertyOp38
 70
     1
102
RTVSPropertyOp39
 70
     1
102
RTVSPropertyOp40
 70
     1
102
RTVSPropertyOp41
 70
     1
102
RTVSPropertyOp42
 70
     1
102
RTVSPropertyOp43
 70
     1
102
RTVSPropertyOp44
 70
     1
102
RTVSPropertyOp45
 70
     1
102
RTVSPropertyOp46
 70
     1
102
RTVSPropertyOp47
 70
     1
102
RTVSPropertyOp48
 70
     1
102
RTVSPropertyOp49
 70
     1
102
RTVSPropertyOp50
 70
     1
102
RTVSPropertyOp51
 70
     0
102
RTVSPropertyOp52
 70
     0
102
RTVSPropertyOp53
 70
     1
102
RTVSPropertyOp54
 70
     1
102
RTVSPropertyOp55
 70
     1
102
RTVSPropertyOp56
 70
     1
102
RTVSPropertyOp57
 70
     1
102
RTVSPropertyOp58
 70
     1
102
RTVSPropertyOp59
 70
     1
102
RTVSPropertyOp60
 70
     1
102
RTVSPropertyOp61
 70
     1
102
RTVSPropertyOp62
 70
     1
  0
XRECORD
  5
102A
102
{ACAD_REACTORS
330
1029
102
}
330
1029
100
AcDbXrecord
280
     1
102
RTVSPost2010Prop28
280
     0
102
RTVSPost2010PropOp28
 70
     1
102
RTVSPost2010Prop29
280
     1
102
RTVSPost2010PropOp29
 70
     1
102
RTVSPost2010Prop30
280
     1
102
RTVSPost2010PropOp30
 70
     1
102
RTVSPost2010Prop31
280
     0
102
RTVSPost2010PropOp31
 70
     1
102
RTVSPost2010Prop32
280
     0
102
RTVSPost2010PropOp32
 70
     1
102
RTVSPost2010Prop33
280
     0
102
RTVSPost2010PropOp33
 70
     1
102
RTVSPost2010Prop34
280
     0
102
RTVSPost2010PropOp34
 70
     1
102
RTVSPost2010Prop35
280
     0
102
RTVSPost2010PropOp35
 70
     1
102
RTVSPost2010Prop36
280
     0
102
RTVSPost2010PropOp36
 70
     1
102
RTVSPost2010Prop37
 90
       50
102
RTVSPost2010PropOp37
 70
     1
102
RTVSPost2010Prop38
140
0.0
102
RTVSPost2010PropOp38
 70
     1
102
RTVSPost2010Prop39
140
1.0
102
RTVSPost2010PropOp39
 70
     1
102
RTVSPost2010Prop40
 90
        0
102
RTVSPost2010PropOp40
 70
     1
102
RTVSPost2010Prop41ColorIndex
 90
       18
102
RTVSPost2010Prop41ColorRGB
 90
        0
102
RTVSPost2010PropOp41
 70
     1
102
RTVSPost2010Prop42
 90
       50
102
RTVSPost2010PropOp42
 70
     1
102
RTVSPost2010Prop43
 90
        3
102
RTVSPost2010PropOp43
 70
     1
102
RTVSPost2010Prop44ColorIndex
 90
        5
102
RTVSPost2010Prop44ColorRGB
 90
      255
102
RTVSPost2010PropOp44
 70
     1
102
RTVSPost2010Prop45
280
     0
102
RTVSPost2010PropOp45
 70
     1
102
RTVSPost2010Prop46
 90
       50
102
RTVSPost2010PropOp46
 70
     1
102
RTVSPost2010Prop47
 90
       50
102
RTVSPost2010PropOp47
 70
     1
102
RTVSPost2010Prop48
 90
       50
102
RTVSPost2010PropOp48
 70
     1
102
RTVSPost2010Prop49
280
     0
102
RTVSPost2010PropOp49
 70
     1
102
RTVSPost2010Prop50
 90
       50
102
RTVSPost2010PropOp50
 70
     1
102
RTVSPost2010Prop51ColorIndex
 90
      256
102
RTVSPost2010Prop51ColorRGB
 90
-16777216
102
RTVSPost2010PropOp51
 70
     0
102
RTVSPost2010Prop52
140
1.0
102
RTVSPost2010PropOp52
 70
     0
102
RTVSPost2010Prop53
 90
        2
102
RTVSPost2010PropOp53
 70
     1
102
RTVSPost2010Prop54
  1
strokes_ogs.tif
102
RTVSPost2010PropOp54
 70
     1
102
RTVSPost2010Prop55
280
     0
102
RTVSPost2010PropOp55
 70
     1
102
RTVSPost2010Prop56
140
1.0
102
RTVSPost2010PropOp56
 70
     1
102
RTVSPost2010Prop57
140
1.0
102
RTVSPost2010PropOp57
 70
     1
102
RTVSPropertyOp0
 70
     1
102
RTVSPropertyOp1
 70
     1
102
RTVSPropertyOp2
 70
     1
102
RTVSPropertyOp3
 70
     1
102
RTVSPropertyOp4
 70
     1
102
RTVSPropertyOp5
 70
     1
102
RTVSPropertyOp6
 70
     1
102
RTVSPropertyOp7
 70
     1
102
RTVSPropertyOp8
 70
     1
102
RTVSPropertyOp9
 70
     1
102
RTVSPropertyOp10
 70
     1
102
RTVSPropertyOp11
 70
     1
102
RTVSPropertyOp12
 70
     1
102
RTVSPropertyOp13
 70
     1
102
RTVSPropertyOp14
 70
     1
102
RTVSPropertyOp15
 70
     1
102
RTVSPropertyOp16
 70
     1
102
RTVSPropertyOp17
 70
     1
102
RTVSPropertyOp18
 70
     1
102
RTVSPropertyOp19
 70
     1
102
RTVSPropertyOp20
 70
     1
102
RTVSPropertyOp21
 70
     1
102
RTVSPropertyOp22
 70
     1
102
RTVSPropertyOp23
 70
     1
102
RTVSPropertyOp24
 70
     1
102
RTVSPropertyOp25
 70
     1
102
RTVSPropertyOp26
 70
     1
102
RTVSPropertyOp27
 70
     1
102
RTVSPropertyOp28
 70
     1
102
RTVSPropertyOp29
 70
     1
102
RTVSPropertyOp30
 70
     1
102
RTVSPropertyOp31
 70
     1
102
RTVSPropertyOp32
 70
     1
102
RTVSPropertyOp33
 70
     1
102
RTVSPropertyOp34
 70
     1
102
RTVSPropertyOp35
 70
     1
102
RTVSPropertyOp36
 70
     1
102
RTVSPropertyOp37
 70
     1
102
RTVSPropertyOp38
 70
     1
102
RTVSPropertyOp39
 70
     1
102
RTVSPropertyOp40
 70
     1
102
RTVSPropertyOp41
 70
     1
102
RTVSPropertyOp42
 70
     1
102
RTVSPropertyOp43
 70
     1
102
RTVSPropertyOp44
 70
     1
102
RTVSPropertyOp45
 70
     1
102
RTVSPropertyOp46
 70
     1
102
RTVSPropertyOp47
 70
     1
102
RTVSPropertyOp48
 70
     1
102
RTVSPropertyOp49
 70
     1
102
RTVSPropertyOp50
 70
     1
102
RTVSPropertyOp51
 70
     0
102
RTVSPropertyOp52
 70
     0
102
RTVSPropertyOp53
 70
     1
102
RTVSPropertyOp54
 70
     1
102
RTVSPropertyOp55
 70
     1
102
RTVSPropertyOp56
 70
     1
102
RTVSPropertyOp57
 70
     1
102
RTVSPropertyOp58
 70
     1
102
RTVSPropertyOp59
 70
     1
102
RTVSPropertyOp60
 70
     1
102
RTVSPropertyOp61
 70
     1
102
RTVSPropertyOp62
 70
     1
  0
XRECORD
  5
102C
102
{ACAD_REACTORS
330
102B
102
}
330
102B
100
AcDbXrecord
280
     1
102
RTVSPost2010Prop28
280
     0
102
RTVSPost2010PropOp28
 70
     1
102
RTVSPost2010Prop29
280
     1
102
RTVSPost2010PropOp29
 70
     1
102
RTVSPost2010Prop30
280
     1
102
RTVSPost2010PropOp30
 70
     1
102
RTVSPost2010Prop31
280
     0
102
RTVSPost2010PropOp31
 70
     1
102
RTVSPost2010Prop32
280
     0
102
RTVSPost2010PropOp32
 70
     1
102
RTVSPost2010Prop33
280
     0
102
RTVSPost2010PropOp33
 70
     1
102
RTVSPost2010Prop34
280
     0
102
RTVSPost2010PropOp34
 70
     1
102
RTVSPost2010Prop35
280
     0
102
RTVSPost2010PropOp35
 70
     1
102
RTVSPost2010Prop36
280
     0
102
RTVSPost2010PropOp36
 70
     1
102
RTVSPost2010Prop37
 90
       50
102
RTVSPost2010PropOp37
 70
     1
102
RTVSPost2010Prop38
140
0.0
102
RTVSPost2010PropOp38
 70
     1
102
RTVSPost2010Prop39
140
1.0
102
RTVSPost2010PropOp39
 70
     1
102
RTVSPost2010Prop40
 90
        0
102
RTVSPost2010PropOp40
 70
     1
102
RTVSPost2010Prop41ColorIndex
 90
       18
102
RTVSPost2010Prop41ColorRGB
 90
        0
102
RTVSPost2010PropOp41
 70
     1
102
RTVSPost2010Prop42
 90
       50
102
RTVSPost2010PropOp42
 70
     1
102
RTVSPost2010Prop43
 90
        3
102
RTVSPost2010PropOp43
 70
     1
102
RTVSPost2010Prop44ColorIndex
 90
        5
102
RTVSPost2010Prop44ColorRGB
 90
      255
102
RTVSPost2010PropOp44
 70
     1
102
RTVSPost2010Prop45
280
     0
102
RTVSPost2010PropOp45
 70
     1
102
RTVSPost2010Prop46
 90
       50
102
RTVSPost2010PropOp46
 70
     1
102
RTVSPost2010Prop47
 90
       50
102
RTVSPost2010PropOp47
 70
     1
102
RTVSPost2010Prop48
 90
       50
102
RTVSPost2010PropOp48
 70
     1
102
RTVSPost2010Prop49
280
     0
102
RTVSPost2010PropOp49
 70
     1
102
RTVSPost2010Prop50
 90
       50
102
RTVSPost2010PropOp50
 70
     1
102
RTVSPost2010Prop51ColorIndex
 90
      256
102
RTVSPost2010Prop51ColorRGB
 90
-16777216
102
RTVSPost2010PropOp51
 70
     0
102
RTVSPost2010Prop52
140
1.0
102
RTVSPost2010PropOp52
 70
     0
102
RTVSPost2010Prop53
 90
        2
102
RTVSPost2010PropOp53
 70
     1
102
RTVSPost2010Prop54
  1
strokes_ogs.tif
102
RTVSPost2010PropOp54
 70
     1
102
RTVSPost2010Prop55
280
     0
102
RTVSPost2010PropOp55
 70
     1
102
RTVSPost2010Prop56
140
1.0
102
RTVSPost2010PropOp56
 70
     1
102
RTVSPost2010Prop57
140
1.0
102
RTVSPost2010PropOp57
 70
     1
102
RTVSPropertyOp0
 70
     1
102
RTVSPropertyOp1
 70
     1
102
RTVSPropertyOp2
 70
     1
102
RTVSPropertyOp3
 70
     1
102
RTVSPropertyOp4
 70
     1
102
RTVSPropertyOp5
 70
     1
102
RTVSPropertyOp6
 70
     1
102
RTVSPropertyOp7
 70
     1
102
RTVSPropertyOp8
 70
     1
102
RTVSPropertyOp9
 70
     1
102
RTVSPropertyOp10
 70
     1
102
RTVSPropertyOp11
 70
     1
102
RTVSPropertyOp12
 70
     1
102
RTVSPropertyOp13
 70
     1
102
RTVSPropertyOp14
 70
     1
102
RTVSPropertyOp15
 70
     1
102
RTVSPropertyOp16
 70
     1
102
RTVSPropertyOp17
 70
     1
102
RTVSPropertyOp18
 70
     1
102
RTVSPropertyOp19
 70
     1
102
RTVSPropertyOp20
 70
     1
102
RTVSPropertyOp21
 70
     1
102
RTVSPropertyOp22
 70
     1
102
RTVSPropertyOp23
 70
     1
102
RTVSPropertyOp24
 70
     1
102
RTVSPropertyOp25
 70
     1
102
RTVSPropertyOp26
 70
     1
102
RTVSPropertyOp27
 70
     1
102
RTVSPropertyOp28
 70
     1
102
RTVSPropertyOp29
 70
     1
102
RTVSPropertyOp30
 70
     1
102
RTVSPropertyOp31
 70
     1
102
RTVSPropertyOp32
 70
     1
102
RTVSPropertyOp33
 70
     1
102
RTVSPropertyOp34
 70
     1
102
RTVSPropertyOp35
 70
     1
102
RTVSPropertyOp36
 70
     1
102
RTVSPropertyOp37
 70
     1
102
RTVSPropertyOp38
 70
     1
102
RTVSPropertyOp39
 70
     1
102
RTVSPropertyOp40
 70
     1
102
RTVSPropertyOp41
 70
     1
102
RTVSPropertyOp42
 70
     1
102
RTVSPropertyOp43
 70
     1
102
RTVSPropertyOp44
 70
     1
102
RTVSPropertyOp45
 70
     1
102
RTVSPropertyOp46
 70
     1
102
RTVSPropertyOp47
 70
     1
102
RTVSPropertyOp48
 70
     1
102
RTVSPropertyOp49
 70
     1
102
RTVSPropertyOp50
 70
     1
102
RTVSPropertyOp51
 70
     0
102
RTVSPropertyOp52
 70
     0
102
RTVSPropertyOp53
 70
     1
102
RTVSPropertyOp54
 70
     1
102
RTVSPropertyOp55
 70
     1
102
RTVSPropertyOp56
 70
     1
102
RTVSPropertyOp57
 70
     1
102
RTVSPropertyOp58
 70
     1
102
RTVSPropertyOp59
 70
     1
102
RTVSPropertyOp60
 70
     1
102
RTVSPropertyOp61
 70
     1
102
RTVSPropertyOp62
 70
     1
  0
XRECORD
  5
101C
102
{ACAD_REACTORS
330
101B
102
}
330
101B
100
AcDbXrecord
280
     1
102
RTVSPost2010Prop28
280
     0
102
RTVSPost2010PropOp28
 70
     1
102
RTVSPost2010Prop29
280
     1
102
RTVSPost2010PropOp29
 70
     1
102
RTVSPost2010Prop30
280
     1
102
RTVSPost2010PropOp30
 70
     1
102
RTVSPost2010Prop31
280
     0
102
RTVSPost2010PropOp31
 70
     1
102
RTVSPost2010Prop32
280
     0
102
RTVSPost2010PropOp32
 70
     1
102
RTVSPost2010Prop33
280
     0
102
RTVSPost2010PropOp33
 70
     1
102
RTVSPost2010Prop34
280
     0
102
RTVSPost2010PropOp34
 70
     1
102
RTVSPost2010Prop35
280
     0
102
RTVSPost2010PropOp35
 70
     1
102
RTVSPost2010Prop36
280
     0
102
RTVSPost2010PropOp36
 70
     1
102
RTVSPost2010Prop37
 90
       50
102
RTVSPost2010PropOp37
 70
     1
102
RTVSPost2010Prop38
140
0.0
102
RTVSPost2010PropOp38
 70
     1
102
RTVSPost2010Prop39
140
1.0
102
RTVSPost2010PropOp39
 70
     1
102
RTVSPost2010Prop40
 90
        0
102
RTVSPost2010PropOp40
 70
     1
102
RTVSPost2010Prop41ColorIndex
 90
       18
102
RTVSPost2010Prop41ColorRGB
 90
        0
102
RTVSPost2010PropOp41
 70
     1
102
RTVSPost2010Prop42
 90
       50
102
RTVSPost2010PropOp42
 70
     1
102
RTVSPost2010Prop43
 90
        3
102
RTVSPost2010PropOp43
 70
     1
102
RTVSPost2010Prop44ColorIndex
 90
        5
102
RTVSPost2010Prop44ColorRGB
 90
      255
102
RTVSPost2010PropOp44
 70
     1
102
RTVSPost2010Prop45
280
     0
102
RTVSPost2010PropOp45
 70
     1
102
RTVSPost2010Prop46
 90
       50
102
RTVSPost2010PropOp46
 70
     1
102
RTVSPost2010Prop47
 90
       50
102
RTVSPost2010PropOp47
 70
     1
102
RTVSPost2010Prop48
 90
       50
102
RTVSPost2010PropOp48
 70
     1
102
RTVSPost2010Prop49
280
     0
102
RTVSPost2010PropOp49
 70
     1
102
RTVSPost2010Prop50
 90
       50
102
RTVSPost2010PropOp50
 70
     1
102
RTVSPost2010Prop51ColorIndex
 90
      256
102
RTVSPost2010Prop51ColorRGB
 90
-16777216
102
RTVSPost2010PropOp51
 70
     0
102
RTVSPost2010Prop52
140
1.0
102
RTVSPost2010PropOp52
 70
     0
102
RTVSPost2010Prop53
 90
        2
102
RTVSPost2010PropOp53
 70
     1
102
RTVSPost2010Prop54
  1
strokes_ogs.tif
102
RTVSPost2010PropOp54
 70
     1
102
RTVSPost2010Prop55
280
     0
102
RTVSPost2010PropOp55
 70
     1
102
RTVSPost2010Prop56
140
1.0
102
RTVSPost2010PropOp56
 70
     1
102
RTVSPost2010Prop57
140
1.0
102
RTVSPost2010PropOp57
 70
     1
102
RTVSPropertyOp0
 70
     1
102
RTVSPropertyOp1
 70
     1
102
RTVSPropertyOp2
 70
     1
102
RTVSPropertyOp3
 70
     1
102
RTVSPropertyOp4
 70
     1
102
RTVSPropertyOp5
 70
     1
102
RTVSPropertyOp6
 70
     1
102
RTVSPropertyOp7
 70
     1
102
RTVSPropertyOp8
 70
     1
102
RTVSPropertyOp9
 70
     1
102
RTVSPropertyOp10
 70
     1
102
RTVSPropertyOp11
 70
     1
102
RTVSPropertyOp12
 70
     1
102
RTVSPropertyOp13
 70
     1
102
RTVSPropertyOp14
 70
     1
102
RTVSPropertyOp15
 70
     1
102
RTVSPropertyOp16
 70
     1
102
RTVSPropertyOp17
 70
     1
102
RTVSPropertyOp18
 70
     1
102
RTVSPropertyOp19
 70
     1
102
RTVSPropertyOp20
 70
     1
102
RTVSPropertyOp21
 70
     1
102
RTVSPropertyOp22
 70
     1
102
RTVSPropertyOp23
 70
     1
102
RTVSPropertyOp24
 70
     1
102
RTVSPropertyOp25
 70
     1
102
RTVSPropertyOp26
 70
     1
102
RTVSPropertyOp27
 70
     1
102
RTVSPropertyOp28
 70
     1
102
RTVSPropertyOp29
 70
     1
102
RTVSPropertyOp30
 70
     1
102
RTVSPropertyOp31
 70
     1
102
RTVSPropertyOp32
 70
     1
102
RTVSPropertyOp33
 70
     1
102
RTVSPropertyOp34
 70
     1
102
RTVSPropertyOp35
 70
     1
102
RTVSPropertyOp36
 70
     1
102
RTVSPropertyOp37
 70
     1
102
RTVSPropertyOp38
 70
     1
102
RTVSPropertyOp39
 70
     1
102
RTVSPropertyOp40
 70
     1
102
RTVSPropertyOp41
 70
     1
102
RTVSPropertyOp42
 70
     1
102
RTVSPropertyOp43
 70
     1
102
RTVSPropertyOp44
 70
     1
102
RTVSPropertyOp45
 70
     1
102
RTVSPropertyOp46
 70
     1
102
RTVSPropertyOp47
 70
     1
102
RTVSPropertyOp48
 70
     1
102
RTVSPropertyOp49
 70
     1
102
RTVSPropertyOp50
 70
     1
102
RTVSPropertyOp51
 70
     0
102
RTVSPropertyOp52
 70
     0
102
RTVSPropertyOp53
 70
     1
102
RTVSPropertyOp54
 70
     1
102
RTVSPropertyOp55
 70
     1
102
RTVSPropertyOp56
 70
     1
102
RTVSPropertyOp57
 70
     1
102
RTVSPropertyOp58
 70
     1
102
RTVSPropertyOp59
 70
     1
102
RTVSPropertyOp60
 70
     1
102
RTVSPropertyOp61
 70
     1
102
RTVSPropertyOp62
 70
     1
  0
XRECORD
  5
1026
102
{ACAD_REACTORS
330
1025
102
}
330
1025
100
AcDbXrecord
280
     1
102
RTVSPost2010Prop28
280
     0
102
RTVSPost2010PropOp28
 70
     1
102
RTVSPost2010Prop29
280
     1
102
RTVSPost2010PropOp29
 70
     1
102
RTVSPost2010Prop30
280
     1
102
RTVSPost2010PropOp30
 70
     1
102
RTVSPost2010Prop31
280
     0
102
RTVSPost2010PropOp31
 70
     1
102
RTVSPost2010Prop32
280
     0
102
RTVSPost2010PropOp32
 70
     1
102
RTVSPost2010Prop33
280
     0
102
RTVSPost2010PropOp33
 70
     1
102
RTVSPost2010Prop34
280
     0
102
RTVSPost2010PropOp34
 70
     1
102
RTVSPost2010Prop35
280
     0
102
RTVSPost2010PropOp35
 70
     1
102
RTVSPost2010Prop36
280
     0
102
RTVSPost2010PropOp36
 70
     1
102
RTVSPost2010Prop37
 90
       50
102
RTVSPost2010PropOp37
 70
     1
102
RTVSPost2010Prop38
140
0.0
102
RTVSPost2010PropOp38
 70
     1
102
RTVSPost2010Prop39
140
1.0
102
RTVSPost2010PropOp39
 70
     1
102
RTVSPost2010Prop40
 90
        0
102
RTVSPost2010PropOp40
 70
     1
102
RTVSPost2010Prop41ColorIndex
 90
       18
102
RTVSPost2010Prop41ColorRGB
 90
        0
102
RTVSPost2010PropOp41
 70
     1
102
RTVSPost2010Prop42
 90
       50
102
RTVSPost2010PropOp42
 70
     1
102
RTVSPost2010Prop43
 90
        3
102
RTVSPost2010PropOp43
 70
     1
102
RTVSPost2010Prop44ColorIndex
 90
        5
102
RTVSPost2010Prop44ColorRGB
 90
      255
102
RTVSPost2010PropOp44
 70
     1
102
RTVSPost2010Prop45
280
     0
102
RTVSPost2010PropOp45
 70
     1
102
RTVSPost2010Prop46
 90
       50
102
RTVSPost2010PropOp46
 70
     1
102
RTVSPost2010Prop47
 90
       50
102
RTVSPost2010PropOp47
 70
     1
102
RTVSPost2010Prop48
 90
       50
102
RTVSPost2010PropOp48
 70
     1
102
RTVSPost2010Prop49
280
     0
102
RTVSPost2010PropOp49
 70
     1
102
RTVSPost2010Prop50
 90
       50
102
RTVSPost2010PropOp50
 70
     1
102
RTVSPost2010Prop51ColorIndex
 90
      256
102
RTVSPost2010Prop51ColorRGB
 90
-16777216
102
RTVSPost2010PropOp51
 70
     0
102
RTVSPost2010Prop52
140
1.0
102
RTVSPost2010PropOp52
 70
     0
102
RTVSPost2010Prop53
 90
        2
102
RTVSPost2010PropOp53
 70
     1
102
RTVSPost2010Prop54
  1
strokes_ogs.tif
102
RTVSPost2010PropOp54
 70
     1
102
RTVSPost2010Prop55
280
     0
102
RTVSPost2010PropOp55
 70
     1
102
RTVSPost2010Prop56
140
1.0
102
RTVSPost2010PropOp56
 70
     1
102
RTVSPost2010Prop57
140
1.0
102
RTVSPost2010PropOp57
 70
     1
102
RTVSPropertyOp0
 70
     1
102
RTVSPropertyOp1
 70
     1
102
RTVSPropertyOp2
 70
     1
102
RTVSPropertyOp3
 70
     1
102
RTVSPropertyOp4
 70
     1
102
RTVSPropertyOp5
 70
     1
102
RTVSPropertyOp6
 70
     1
102
RTVSPropertyOp7
 70
     1
102
RTVSPropertyOp8
 70
     1
102
RTVSPropertyOp9
 70
     1
102
RTVSPropertyOp10
 70
     1
102
RTVSPropertyOp11
 70
     1
102
RTVSPropertyOp12
 70
     1
102
RTVSPropertyOp13
 70
     1
102
RTVSPropertyOp14
 70
     1
102
RTVSPropertyOp15
 70
     1
102
RTVSPropertyOp16
 70
     1
102
RTVSPropertyOp17
 70
     1
102
RTVSPropertyOp18
 70
     1
102
RTVSPropertyOp19
 70
     1
102
RTVSPropertyOp20
 70
     1
102
RTVSPropertyOp21
 70
     1
102
RTVSPropertyOp22
 70
     1
102
RTVSPropertyOp23
 70
     1
102
RTVSPropertyOp24
 70
     1
102
RTVSPropertyOp25
 70
     1
102
RTVSPropertyOp26
 70
     1
102
RTVSPropertyOp27
 70
     1
102
RTVSPropertyOp28
 70
     1
102
RTVSPropertyOp29
 70
     1
102
RTVSPropertyOp30
 70
     1
102
RTVSPropertyOp31
 70
     1
102
RTVSPropertyOp32
 70
     1
102
RTVSPropertyOp33
 70
     1
102
RTVSPropertyOp34
 70
     1
102
RTVSPropertyOp35
 70
     1
102
RTVSPropertyOp36
 70
     1
102
RTVSPropertyOp37
 70
     1
102
RTVSPropertyOp38
 70
     1
102
RTVSPropertyOp39
 70
     1
102
RTVSPropertyOp40
 70
     1
102
RTVSPropertyOp41
 70
     1
102
RTVSPropertyOp42
 70
     1
102
RTVSPropertyOp43
 70
     1
102
RTVSPropertyOp44
 70
     1
102
RTVSPropertyOp45
 70
     1
102
RTVSPropertyOp46
 70
     1
102
RTVSPropertyOp47
 70
     1
102
RTVSPropertyOp48
 70
     1
102
RTVSPropertyOp49
 70
     1
102
RTVSPropertyOp50
 70
     1
102
RTVSPropertyOp51
 70
     0
102
RTVSPropertyOp52
 70
     0
102
RTVSPropertyOp53
 70
     1
102
RTVSPropertyOp54
 70
     1
102
RTVSPropertyOp55
 70
     1
102
RTVSPropertyOp56
 70
     1
102
RTVSPropertyOp57
 70
     1
102
RTVSPropertyOp58
 70
     1
102
RTVSPropertyOp59
 70
     1
102
RTVSPropertyOp60
 70
     1
102
RTVSPropertyOp61
 70
     1
102
RTVSPropertyOp62
 70
     1
  0
XRECORD
  5
102E
102
{ACAD_REACTORS
330
102D
102
}
330
102D
100
AcDbXrecord
280
     1
102
RTVSPost2010Prop28
280
     0
102
RTVSPost2010PropOp28
 70
     1
102
RTVSPost2010Prop29
280
     1
102
RTVSPost2010PropOp29
 70
     1
102
RTVSPost2010Prop30
280
     1
102
RTVSPost2010PropOp30
 70
     1
102
RTVSPost2010Prop31
280
     0
102
RTVSPost2010PropOp31
 70
     1
102
RTVSPost2010Prop32
280
     0
102
RTVSPost2010PropOp32
 70
     1
102
RTVSPost2010Prop33
280
     0
102
RTVSPost2010PropOp33
 70
     1
102
RTVSPost2010Prop34
280
     0
102
RTVSPost2010PropOp34
 70
     1
102
RTVSPost2010Prop35
280
     0
102
RTVSPost2010PropOp35
 70
     1
102
RTVSPost2010Prop36
280
     0
102
RTVSPost2010PropOp36
 70
     1
102
RTVSPost2010Prop37
 90
       50
102
RTVSPost2010PropOp37
 70
     1
102
RTVSPost2010Prop38
140
0.0
102
RTVSPost2010PropOp38
 70
     1
102
RTVSPost2010Prop39
140
1.0
102
RTVSPost2010PropOp39
 70
     1
102
RTVSPost2010Prop40
 90
        0
102
RTVSPost2010PropOp40
 70
     1
102
RTVSPost2010Prop41ColorIndex
 90
       18
102
RTVSPost2010Prop41ColorRGB
 90
        0
102
RTVSPost2010PropOp41
 70
     1
102
RTVSPost2010Prop42
 90
       50
102
RTVSPost2010PropOp42
 70
     1
102
RTVSPost2010Prop43
 90
        3
102
RTVSPost2010PropOp43
 70
     1
102
RTVSPost2010Prop44ColorIndex
 90
        5
102
RTVSPost2010Prop44ColorRGB
 90
      255
102
RTVSPost2010PropOp44
 70
     1
102
RTVSPost2010Prop45
280
     0
102
RTVSPost2010PropOp45
 70
     1
102
RTVSPost2010Prop46
 90
       50
102
RTVSPost2010PropOp46
 70
     1
102
RTVSPost2010Prop47
 90
       50
102
RTVSPost2010PropOp47
 70
     1
102
RTVSPost2010Prop48
 90
       50
102
RTVSPost2010PropOp48
 70
     1
102
RTVSPost2010Prop49
280
     0
102
RTVSPost2010PropOp49
 70
     1
102
RTVSPost2010Prop50
 90
       50
102
RTVSPost2010PropOp50
 70
     1
102
RTVSPost2010Prop51ColorIndex
 90
      256
102
RTVSPost2010Prop51ColorRGB
 90
-16777216
102
RTVSPost2010PropOp51
 70
     0
102
RTVSPost2010Prop52
140
1.0
102
RTVSPost2010PropOp52
 70
     0
102
RTVSPost2010Prop53
 90
        2
102
RTVSPost2010PropOp53
 70
     1
102
RTVSPost2010Prop54
  1
strokes_ogs.tif
102
RTVSPost2010PropOp54
 70
     1
102
RTVSPost2010Prop55
280
     0
102
RTVSPost2010PropOp55
 70
     1
102
RTVSPost2010Prop56
140
1.0
102
RTVSPost2010PropOp56
 70
     1
102
RTVSPost2010Prop57
140
1.0
102
RTVSPost2010PropOp57
 70
     1
102
RTVSPropertyOp0
 70
     1
102
RTVSPropertyOp1
 70
     1
102
RTVSPropertyOp2
 70
     1
102
RTVSPropertyOp3
 70
     1
102
RTVSPropertyOp4
 70
     1
102
RTVSPropertyOp5
 70
     1
102
RTVSPropertyOp6
 70
     1
102
RTVSPropertyOp7
 70
     1
102
RTVSPropertyOp8
 70
     1
102
RTVSPropertyOp9
 70
     1
102
RTVSPropertyOp10
 70
     1
102
RTVSPropertyOp11
 70
     1
102
RTVSPropertyOp12
 70
     1
102
RTVSPropertyOp13
 70
     1
102
RTVSPropertyOp14
 70
     1
102
RTVSPropertyOp15
 70
     1
102
RTVSPropertyOp16
 70
     1
102
RTVSPropertyOp17
 70
     1
102
RTVSPropertyOp18
 70
     1
102
RTVSPropertyOp19
 70
     1
102
RTVSPropertyOp20
 70
     1
102
RTVSPropertyOp21
 70
     1
102
RTVSPropertyOp22
 70
     1
102
RTVSPropertyOp23
 70
     1
102
RTVSPropertyOp24
 70
     1
102
RTVSPropertyOp25
 70
     1
102
RTVSPropertyOp26
 70
     1
102
RTVSPropertyOp27
 70
     1
102
RTVSPropertyOp28
 70
     1
102
RTVSPropertyOp29
 70
     1
102
RTVSPropertyOp30
 70
     1
102
RTVSPropertyOp31
 70
     1
102
RTVSPropertyOp32
 70
     1
102
RTVSPropertyOp33
 70
     1
102
RTVSPropertyOp34
 70
     1
102
RTVSPropertyOp35
 70
     1
102
RTVSPropertyOp36
 70
     1
102
RTVSPropertyOp37
 70
     1
102
RTVSPropertyOp38
 70
     1
102
RTVSPropertyOp39
 70
     1
102
RTVSPropertyOp40
 70
     1
102
RTVSPropertyOp41
 70
     1
102
RTVSPropertyOp42
 70
     1
102
RTVSPropertyOp43
 70
     1
102
RTVSPropertyOp44
 70
     1
102
RTVSPropertyOp45
 70
     1
102
RTVSPropertyOp46
 70
     1
102
RTVSPropertyOp47
 70
     1
102
RTVSPropertyOp48
 70
     1
102
RTVSPropertyOp49
 70
     1
102
RTVSPropertyOp50
 70
     1
102
RTVSPropertyOp51
 70
     0
102
RTVSPropertyOp52
 70
     0
102
RTVSPropertyOp53
 70
     1
102
RTVSPropertyOp54
 70
     1
102
RTVSPropertyOp55
 70
     1
102
RTVSPropertyOp56
 70
     1
102
RTVSPropertyOp57
 70
     1
102
RTVSPropertyOp58
 70
     1
102
RTVSPropertyOp59
 70
     1
102
RTVSPropertyOp60
 70
     1
102
RTVSPropertyOp61
 70
     1
102
RTVSPropertyOp62
 70
     1
  0
ENDSEC
  0
EOF
