  0
SECTION
  2
HEADER
  9
$ACADVER
  1
AC1018
  9
$ACADMAINTVER
 70
   104
  9
$DWGCODEPAGE
  3
ANSI_1252
  9
$LASTSAVEDBY
  1
kamerka
  9
$INSBASE
 10
0.0
 20
0.0
 30
0.0
  9
$EXTMIN
 10
-20.88978398881136
 20
-47.21877937347016
 30
-0.0000000349181948
  9
$EXTMAX
 10
47.39413557666603
 20
22.79007030510115
 30
0.0000000814935747
  9
$LIMMIN
 10
-170.0
 20
-170.0
  9
$LIMMAX
 10
519.0
 20
260.0
  9
$ORTHOMODE
 70
     1
  9
$REGENMODE
 70
     1
  9
$FILLMODE
 70
     1
  9
$QTEXTMODE
 70
     0
  9
$MIRRTEXT
 70
     0
  9
$LTSCALE
 40
1.0
  9
$ATTMODE
 70
     1
  9
$TEXTSIZE
 40
5.0
  9
$TRACEWID
 40
1.0
  9
$TEXTSTYLE
  7
STANDARD
  9
$CLAYER
  8
NOCUT
  9
$CELTYPE
  6
BYLAYER
  9
$CECOLOR
 62
   256
  9
$CELTSCALE
 40
1.0
  9
$DISPSILH
 70
     0
  9
$DIMSCALE
 40
1.0
  9
$DIMASZ
 40
2.5
  9
$DIMEXO
 40
0.0
  9
$DIMDLI
 40
3.75
  9
$DIMRND
 40
0.0
  9
$DIMDLE
 40
0.0
  9
$DIMEXE
 40
1.25
  9
$DIMTP
 40
0.0
  9
$DIMTM
 40
0.0
  9
$DIMTXT
 40
3.5
  9
$DIMCEN
 40
0.0
  9
$DIMTSZ
 40
0.0
  9
$DIMTOL
 70
     0
  9
$DIMLIM
 70
     0
  9
$DIMTIH
 70
     0
  9
$DIMTOH
 70
     0
  9
$DIMSE1
 70
     0
  9
$DIMSE2
 70
     0
  9
$DIMTAD
 70
     1
  9
$DIMZIN
 70
     1
  9
$DIMBLK
  1

  9
$DIMASO
 70
     1
  9
$DIMSHO
 70
     1
  9
$DIMPOST
  1

  9
$DIMAPOST
  1

  9
$DIMALT
 70
     0
  9
$DIMALTD
 70
     3
  9
$DIMALTF
 40
0.039370078
  9
$DIMLFAC
 40
1.0
  9
$DIMTOFL
 70
     0
  9
$DIMTVP
 40
0.0
  9
$DIMTIX
 70
     0
  9
$DIMSOXD
 70
     0
  9
$DIMSAH
 70
     0
  9
$DIMBLK1
  1

  9
$DIMBLK2
  1

  9
$DIMSTYLE
  2
STANDARD
  9
$DIMCLRD
 70
     0
  9
$DIMCLRE
 70
     0
  9
$DIMCLRT
 70
     0
  9
$DIMTFAC
 40
1.0
  9
$DIMGAP
 40
0.625
  9
$DIMJUST
 70
     0
  9
$DIMSD1
 70
     0
  9
$DIMSD2
 70
     0
  9
$DIMTOLJ
 70
     0
  9
$DIMTZIN
 70
     8
  9
$DIMALTZ
 70
     0
  9
$DIMALTTZ
 70
     0
  9
$DIMUPT
 70
     0
  9
$DIMDEC
 70
     2
  9
$DIMTDEC
 70
     2
  9
$DIMALTU
 70
     2
  9
$DIMALTTD
 70
     3
  9
$DIMTXSTY
  7
STANDARD
  9
$DIMAUNIT
 70
     0
  9
$DIMADEC
 70
     2
  9
$DIMALTRND
 40
0.0
  9
$DIMAZIN
 70
     0
  9
$DIMDSEP
 70
    46
  9
$DIMATFIT
 70
     3
  9
$DIMFRAC
 70
     0
  9
$DIMLDRBLK
  1

  9
$DIMLUNIT
 70
     2
  9
$DIMLWD
 70
    -2
  9
$DIMLWE
 70
    -2
  9
$DIMTMOVE
 70
     0
  9
$LUNITS
 70
     2
  9
$LUPREC
 70
     4
  9
$SKETCHINC
 40
1.0
  9
$FILLETRAD
 40
0.0
  9
$AUNITS
 70
     0
  9
$AUPREC
 70
     0
  9
$MENU
  1
c:\tdm21\cad\caduti13\tdm13
  9
$ELEVATION
 40
0.0
  9
$PELEVATION
 40
0.0
  9
$THICKNESS
 40
0.0
  9
$LIMCHECK
 70
     0
  9
$CHAMFERA
 40
0.0
  9
$CHAMFERB
 40
0.0
  9
$CHAMFERC
 40
0.0
  9
$CHAMFERD
 40
0.0
  9
$SKPOLY
 70
     0
  9
$TDCREATE
 40
2455799.542344456
  9
$TDUCREATE
 40
2455799.459011123
  9
$TDUPDATE
 40
2456542.552331019
  9
$TDUUPDATE
 40
2456542.468997685
  9
$TDINDWG
 40
0.0275814352
  9
$TDUSRTIMER
 40
0.0275812500
  9
$USRTIMER
 70
     1
  9
$ANGBASE
 50
0.0
  9
$ANGDIR
 70
     0
  9
$PDMODE
 70
     3
  9
$PDSIZE
 40
0.0
  9
$PLINEWID
 40
0.0
  9
$SPLFRAME
 70
     0
  9
$SPLINETYPE
 70
     6
  9
$SPLINESEGS
 70
     8
  9
$HANDSEED
  5
C22
  9
$SURFTAB1
 70
     6
  9
$SURFTAB2
 70
     6
  9
$SURFTYPE
 70
     6
  9
$SURFU
 70
     6
  9
$SURFV
 70
     6
  9
$UCSBASE
  2

  9
$UCSNAME
  2

  9
$UCSORG
 10
0.0
 20
0.0
 30
0.0
  9
$UCSXDIR
 10
1.0
 20
0.0
 30
0.0
  9
$UCSYDIR
 10
0.0
 20
1.0
 30
0.0
  9
$UCSORTHOREF
  2

  9
$UCSORTHOVIEW
 70
     0
  9
$UCSORGTOP
 10
0.0
 20
0.0
 30
0.0
  9
$UCSORGBOTTOM
 10
0.0
 20
0.0
 30
0.0
  9
$UCSORGLEFT
 10
0.0
 20
0.0
 30
0.0
  9
$UCSORGRIGHT
 10
0.0
 20
0.0
 30
0.0
  9
$UCSORGFRONT
 10
0.0
 20
0.0
 30
0.0
  9
$UCSORGBACK
 10
0.0
 20
0.0
 30
0.0
  9
$PUCSBASE
  2

  9
$PUCSNAME
  2

  9
$PUCSORG
 10
0.0
 20
0.0
 30
0.0
  9
$PUCSXDIR
 10
1.0
 20
0.0
 30
0.0
  9
$PUCSYDIR
 10
0.0
 20
1.0
 30
0.0
  9
$PUCSORTHOREF
  2

  9
$PUCSORTHOVIEW
 70
     0
  9
$PUCSORGTOP
 10
0.0
 20
0.0
 30
0.0
  9
$PUCSORGBOTTOM
 10
0.0
 20
0.0
 30
0.0
  9
$PUCSORGLEFT
 10
0.0
 20
0.0
 30
0.0
  9
$PUCSORGRIGHT
 10
0.0
 20
0.0
 30
0.0
  9
$PUCSORGFRONT
 10
0.0
 20
0.0
 30
0.0
  9
$PUCSORGBACK
 10
0.0
 20
0.0
 30
0.0
  9
$USERI1
 70
     0
  9
$USERI2
 70
     0
  9
$USERI3
 70
     0
  9
$USERI4
 70
     0
  9
$USERI5
 70
     0
  9
$USERR1
 40
0.0
  9
$USERR2
 40
0.0
  9
$USERR3
 40
0.0
  9
$USERR4
 40
0.0
  9
$USERR5
 40
0.0
  9
$WORLDVIEW
 70
     1
  9
$SHADEDGE
 70
     3
  9
$SHADEDIF
 70
    70
  9
$TILEMODE
 70
     1
  9
$MAXACTVP
 70
    64
  9
$PINSBASE
 10
0.0
 20
0.0
 30
0.0
  9
$PLIMCHECK
 70
     0
  9
$PEXTMIN
 10
0.0
 20
0.0
 30
0.0
  9
$PEXTMAX
 10
0.0
 20
0.0
 30
0.0
  9
$PLIMMIN
 10
0.0
 20
0.0
  9
$PLIMMAX
 10
12.0
 20
9.0
  9
$UNITMODE
 70
     0
  9
$VISRETAIN
 70
     0
  9
$PLINEGEN
 70
     0
  9
$PSLTSCALE
 70
     1
  9
$TREEDEPTH
 70
  3020
  9
$CMLSTYLE
  2
STANDARD
  9
$CMLJUST
 70
     0
  9
$CMLSCALE
 40
20.0
  9
$PROXYGRAPHICS
 70
     1
  9
$MEASUREMENT
 70
     1
  9
$CELWEIGHT
370
    -1
  9
$ENDCAPS
280
     0
  9
$JOINSTYLE
280
     0
  9
$LWDISPLAY
290
     0
  9
$INSUNITS
 70
     4
  9
$HYPERLINKBASE
  1

  9
$STYLESHEET
  1
MONOCHROME.CTB
  9
$XEDIT
290
     1
  9
$CEPSNTYPE
380
     0
  9
$PSTYLEMODE
290
     1
  9
$FINGERPRINTGUID
  2
{131DE029-7B80-47C0-965C-C876676624E5}
  9
$VERSIONGUID
  2
{3477439E-ADE0-4C81-A701-3C55676CA6A4}
  9
$EXTNAMES
290
     1
  9
$PSVPSCALE
 40
0.0
  9
$OLESTARTUP
290
     0
  9
$SORTENTS
280
   127
  9
$INDEXCTL
280
     0
  9
$HIDETEXT
280
     1
  9
$XCLIPFRAME
290
     0
  9
$HALOGAP
280
     0
  9
$OBSCOLOR
 70
   257
  9
$OBSLTYPE
280
     0
  9
$INTERSECTIONDISPLAY
280
     0
  9
$INTERSECTIONCOLOR
 70
   257
  9
$DIMASSOC
280
     2
  9
$PROJECTNAME
  1

  0
ENDSEC
  0
SECTION
  2
CLASSES
  0
CLASS
  1
ACDBDICTIONARYWDFLT
  2
AcDbDictionaryWithDefault
  3
ObjectDBX Classes
 90
        0
 91
        1
280
     0
281
     0
  0
CLASS
  1
DICTIONARYVAR
  2
AcDbDictionaryVar
  3
ObjectDBX Classes
 90
        0
 91
       10
280
     0
281
     0
  0
CLASS
  1
TABLESTYLE
  2
AcDbTableStyle
  3
ObjectDBX Classes
 90
     4095
 91
        1
280
     0
281
     0
  0
CLASS
  1
MATERIAL
  2
AcDbMaterial
  3
ObjectDBX Classes
 90
     1153
 91
        3
280
     0
281
     0
  0
CLASS
  1
VISUALSTYLE
  2
AcDbVisualStyle
  3
ObjectDBX Classes
 90
     4095
 91
       26
280
     0
281
     0
  0
CLASS
  1
SCALE
  2
AcDbScale
  3
ObjectDBX Classes
 90
     1153
 91
       33
280
     0
281
     0
  0
CLASS
  1
MLEADERSTYLE
  2
AcDbMLeaderStyle
  3
ACDB_MLEADERSTYLE_CLASS
 90
     4095
 91
        1
280
     0
281
     0
  0
CLASS
  1
CELLSTYLEMAP
  2
AcDbCellStyleMap
  3
ObjectDBX Classes
 90
     1152
 91
        2
280
     0
281
     0
  0
CLASS
  1
DIMASSOC
  2
AcDbDimAssoc
  3
"AcDbDimAssoc|Product Desc:     AcDim ARX App For Dimension|Company:          Autodesk, Inc.|WEB Address:      www.autodesk.com"
 90
        0
 91
        4
280
     0
281
     0
  0
CLASS
  1
SORTENTSTABLE
  2
AcDbSortentsTable
  3
ObjectDBX Classes
 90
        0
 91
        2
280
     0
281
     0
  0
CLASS
  1
AEC_REFEDIT_STATUS_TRACKER
  2
AecDbRefEditStatusTracker
  3
AecArchBase50|Product Desc: Autodesk Architectural Desktop 2007 |Company: Autodesk,Inc. |WEB Address: www.autodesk.com
 90
      129
 91
        0
280
     0
281
     0
  0
CLASS
  1
NPOCOLLECTION
  2
AcDbImpNonPersistentObjectsCollection
  3
ObjectDBX Classes
 90
     1153
 91
        0
280
     0
281
     0
  0
CLASS
  1
MULTILEADER
  2
AcDbMLeader
  3
ACDB_MLEADER_CLASS
 90
     1025
 91
        3
280
     0
281
     1
  0
ENDSEC
  0
SECTION
  2
TABLES
  0
TABLE
  2
VPORT
  5
8
330
0
100
AcDbSymbolTable
 70
     1
  0
VPORT
  5
3ED
330
8
100
AcDbSymbolTableRecord
100
AcDbViewportTableRecord
  2
*Active
 70
     0
 10
0.0
 20
0.0
 11
1.0
 21
1.0
 12
13.25217579392733
 22
-12.21435453418451
 13
0.0
 23
0.0
 14
5.0
 24
5.0
 15
5.0
 25
5.0
 16
0.0
 26
0.0
 36
1.0
 17
0.0
 27
0.0
 37
0.0
 40
70.66212043762487
 41
1.922118380062305
 42
50.0
 43
0.0
 44
0.0
 50
0.0
 51
0.0
 71
     0
 72
  2000
 73
     1
 74
     3
 75
     0
 76
     0
 77
     0
 78
     0
281
     0
 65
     1
110
0.0
120
0.0
130
0.0
111
1.0
121
0.0
131
0.0
112
0.0
122
1.0
132
0.0
 79
     0
146
0.0
1001
ACAD_NAV_VCDISPLAY
1070
     3
  0
ENDTAB
  0
TABLE
  2
LTYPE
  5
5
330
0
100
AcDbSymbolTable
 70
     3
  0
LTYPE
  5
12
330
5
100
AcDbSymbolTableRecord
100
AcDbLinetypeTableRecord
  2
BYBLOCK
 70
     0
  3

 72
    65
 73
     0
 40
0.0
  0
LTYPE
  5
13
330
5
100
AcDbSymbolTableRecord
100
AcDbLinetypeTableRecord
  2
BYLAYER
 70
     0
  3

 72
    65
 73
     0
 40
0.0
  0
LTYPE
  5
14
330
5
100
AcDbSymbolTableRecord
100
AcDbLinetypeTableRecord
  2
CONTINUOUS
 70
     0
  3
Solid line
 72
    65
 73
     0
 40
0.0
  0
LTYPE
  5
697
330
5
100
AcDbSymbolTableRecord
100
AcDbLinetypeTableRecord
  2
ACAD_ISO02W100
 70
     0
  3
ISO dash __ __ __ __ __ __ __ __ __ __ __ __ __
 72
    65
 73
     2
 40
15.0
 49
12.0
 74
     0
 49
-3.0
 74
     0
  0
LTYPE
  5
6A7
330
5
100
AcDbSymbolTableRecord
100
AcDbLinetypeTableRecord
  2
CENTER2
 70
     0
  3
Center (.5x) ___ _ ___ _ ___ _ ___ _ ___ _ ___
 72
    65
 73
     4
 40
28.575
 49
19.05
 74
     0
 49
-3.174999999999998
 74
     0
 49
3.174999999999998
 74
     0
 49
-3.174999999999998
 74
     0
  0
ENDTAB
  0
TABLE
  2
LAYER
  5
2
102
{ACAD_XDICTIONARY
360
451
102
}
330
0
100
AcDbSymbolTable
 70
    13
  0
LAYER
  5
F
102
{ACAD_XDICTIONARY
360
B76
102
}
330
2
100
AcDbSymbolTableRecord
100
AcDbLayerTableRecord
  2
0
 70
     0
 62
     7
  6
CONTINUOUS
370
    -3
390
300
  0
LAYER
  5
23
102
{ACAD_XDICTIONARY
360
B78
102
}
330
2
100
AcDbSymbolTableRecord
100
AcDbLayerTableRecord
  2
1
 70
     0
 62
     4
  6
CONTINUOUS
370
    50
390
300
  0
LAYER
  5
24
102
{ACAD_XDICTIONARY
360
B7A
102
}
330
2
100
AcDbSymbolTableRecord
100
AcDbLayerTableRecord
  2
SK1
 70
     0
 62
     4
  6
CONTINUOUS
370
    50
390
300
  0
LAYER
  5
25
102
{ACAD_XDICTIONARY
360
B7C
102
}
330
2
100
AcDbSymbolTableRecord
100
AcDbLayerTableRecord
  2
2
 70
     0
 62
     7
  6
CONTINUOUS
370
    25
390
300
  0
LAYER
  5
27
102
{ACAD_XDICTIONARY
360
B7E
102
}
330
2
100
AcDbSymbolTableRecord
100
AcDbLayerTableRecord
  2
SK2
 70
     0
 62
     7
  6
CONTINUOUS
370
    25
390
300
  0
LAYER
  5
29
102
{ACAD_XDICTIONARY
360
B80
102
}
330
2
100
AcDbSymbolTableRecord
100
AcDbLayerTableRecord
  2
SK3
 70
     0
 62
     1
  6
ACAD_ISO02W100
370
    35
390
300
  0
LAYER
  5
2A
102
{ACAD_XDICTIONARY
360
B82
102
}
330
2
100
AcDbSymbolTableRecord
100
AcDbLayerTableRecord
  2
4
 70
     0
 62
     2
  6
CENTER2
370
    25
390
300
  0
LAYER
  5
2B
102
{ACAD_XDICTIONARY
360
B84
102
}
330
2
100
AcDbSymbolTableRecord
100
AcDbLayerTableRecord
  2
SK4
 70
     0
 62
     2
  6
CENTER2
370
    25
390
300
  0
LAYER
  5
2E
102
{ACAD_XDICTIONARY
360
B86
102
}
330
2
100
AcDbSymbolTableRecord
100
AcDbLayerTableRecord
  2
SK6
 70
     0
 62
     5
  6
CONTINUOUS
370
    -3
390
300
  0
LAYER
  5
2F
330
2
100
AcDbSymbolTableRecord
100
AcDbLayerTableRecord
  2
DEFPOINTS
 70
     0
 62
     7
  6
CONTINUOUS
290
     0
370
    25
390
300
  0
LAYER
  5
376
102
{ACAD_XDICTIONARY
360
B88
102
}
330
2
100
AcDbSymbolTableRecord
100
AcDbLayerTableRecord
  2
NOCUT
 70
     0
 62
     7
  6
CONTINUOUS
370
    -3
390
300
  0
LAYER
  5
49B
102
{ACAD_XDICTIONARY
360
B8A
102
}
330
2
100
AcDbSymbolTableRecord
100
AcDbLayerTableRecord
  2
INFTOTAL
 70
     0
 62
     9
  6
CONTINUOUS
370
    18
390
300
1001
AcAecLayerStandard
1000

1000

  0
LAYER
  5
B68
102
{ACAD_XDICTIONARY
360
B69
102
}
330
2
100
AcDbSymbolTableRecord
100
AcDbLayerTableRecord
  2
3
 70
     0
 62
     1
  6
ACAD_ISO02W100
370
    35
390
300
  0
ENDTAB
  0
TABLE
  2
STYLE
  5
3
330
0
100
AcDbSymbolTable
 70
     1
  0
STYLE
  5
10
330
3
100
AcDbSymbolTableRecord
100
AcDbTextStyleTableRecord
  2
STANDARD
 70
     0
 40
0.0
 41
1.0
 50
0.0
 71
     0
 42
5.0
  3
isocp.shx
  4

  0
ENDTAB
  0
TABLE
  2
VIEW
  5
6
330
0
100
AcDbSymbolTable
 70
     0
  0
ENDTAB
  0
TABLE
  2
UCS
  5
7
330
0
100
AcDbSymbolTable
 70
     0
  0
ENDTAB
  0
TABLE
  2
APPID
  5
9
330
0
100
AcDbSymbolTable
 70
    15
  0
APPID
  5
11
330
9
100
AcDbSymbolTableRecord
100
AcDbRegAppTableRecord
  2
ACAD
 70
     0
  0
APPID
  5
3A6
330
9
100
AcDbSymbolTableRecord
100
AcDbRegAppTableRecord
  2
ACAD_PSEXT
 70
     0
  0
APPID
  5
3A8
330
9
100
AcDbSymbolTableRecord
100
AcDbRegAppTableRecord
  2
ACAD_EXEMPT_FROM_CAD_STANDARDS
 70
     0
  0
APPID
  5
43E
330
9
100
AcDbSymbolTableRecord
100
AcDbRegAppTableRecord
  2
ACAD_MLEADERVER
 70
     0
  0
APPID
  5
460
330
9
100
AcDbSymbolTableRecord
100
AcDbRegAppTableRecord
  2
ACAD_DSTYLE_DIMJAG
 70
     0
  0
APPID
  5
461
330
9
100
AcDbSymbolTableRecord
100
AcDbRegAppTableRecord
  2
ACAD_DSTYLE_DIMBREAK
 70
     0
  0
APPID
  5
462
330
9
100
AcDbSymbolTableRecord
100
AcDbRegAppTableRecord
  2
ACAD_DSTYLE_DIMTALN
 70
     0
  0
APPID
  5
47A
330
9
100
AcDbSymbolTableRecord
100
AcDbRegAppTableRecord
  2
AcAecLayerStandard
 70
     0
  0
APPID
  5
4AB
330
9
100
AcDbSymbolTableRecord
100
AcDbRegAppTableRecord
  2
DCO15
 70
     0
  0
APPID
  5
4B9
330
9
100
AcDbSymbolTableRecord
100
AcDbRegAppTableRecord
  2
AcadAnnoPO
 70
     0
  0
APPID
  5
55F
330
9
100
AcDbSymbolTableRecord
100
AcDbRegAppTableRecord
  2
ACAD_DSTYLE_DIMRADIAL_EXTENSION
 70
     0
  0
APPID
  5
701
330
9
100
AcDbSymbolTableRecord
100
AcDbRegAppTableRecord
  2
AcadAnnotative
 70
     0
  0
APPID
  5
702
330
9
100
AcDbSymbolTableRecord
100
AcDbRegAppTableRecord
  2
AcDbDynamicBlockGUID
 70
     0
  0
APPID
  5
703
330
9
100
AcDbSymbolTableRecord
100
AcDbRegAppTableRecord
  2
AcDbBlockRepETag
 70
     0
  0
APPID
  5
BEA
330
9
100
AcDbSymbolTableRecord
100
AcDbRegAppTableRecord
  2
ACAD_NAV_VCDISPLAY
 70
     0
  0
ENDTAB
  0
TABLE
  2
DIMSTYLE
  5
A
330
0
100
AcDbSymbolTable
 70
     1
100
AcDbDimStyleTable
 71
     1
340
3F
  0
DIMSTYLE
105
3F
102
{ACAD_REACTORS
330
936
330
951
102
}
330
A
100
AcDbSymbolTableRecord
100
AcDbDimStyleTableRecord
  2
STANDARD
 70
     0
 41
2.5
 42
0.0
 43
3.75
 44
1.25
 73
     0
 74
     0
 77
     1
 78
     1
140
3.5
141
0.0
143
0.039370078
147
0.625
171
     3
179
     2
271
     2
272
     2
274
     3
283
     0
284
     8
340
10
1001
ACAD_DSTYLE_DIMJAG
1070
   388
1040
1.5
1001
ACAD_DSTYLE_DIMTALN
1070
   392
1070
     0
  0
ENDTAB
  0
TABLE
  2
BLOCK_RECORD
  5
1
330
0
100
AcDbSymbolTable
 70
     4
  0
BLOCK_RECORD
  5
18
102
{ACAD_XDICTIONARY
360
85E
102
}
330
1
100
AcDbSymbolTableRecord
100
AcDbBlockTableRecord
  2
*MODEL_SPACE
340
303
  0
BLOCK_RECORD
  5
338
330
1
100
AcDbSymbolTableRecord
100
AcDbBlockTableRecord
  2
*Paper_Space
340
33B
  0
BLOCK_RECORD
  5
51F
330
1
100
AcDbSymbolTableRecord
100
AcDbBlockTableRecord
  2
CERO_POINT
340
0
310
2800000020000000200000000100080000000000000400000000000000000000000000000000000000000000000080000080000000808000800000008000800080800000C0C0C000C0DCC000F0CAA6000020400000206000002080000020A0000020C0000020E00000400000004020000040400000406000004080000040A0
310
000040C0000040E00000600000006020000060400000606000006080000060A0000060C0000060E00000800000008020000080400000806000008080000080A0000080C0000080E00000A0000000A0200000A0400000A0600000A0800000A0A00000A0C00000A0E00000C0000000C0200000C0400000C0600000C0800000C0
310
A00000C0C00000C0E00000E0000000E0200000E0400000E0600000E0800000E0A00000E0C00000E0E00040000000400020004000400040006000400080004000A0004000C0004000E00040200000402020004020400040206000402080004020A0004020C0004020E000404000004040200040404000404060004040800040
310
40A0004040C0004040E00040600000406020004060400040606000406080004060A0004060C0004060E00040800000408020004080400040806000408080004080A0004080C0004080E00040A0000040A0200040A0400040A0600040A0800040A0A00040A0C00040A0E00040C0000040C0200040C0400040C0600040C08000
310
40C0A00040C0C00040C0E00040E0000040E0200040E0400040E0600040E0800040E0A00040E0C00040E0E00080000000800020008000400080006000800080008000A0008000C0008000E00080200000802020008020400080206000802080008020A0008020C0008020E00080400000804020008040400080406000804080
310
008040A0008040C0008040E00080600000806020008060400080606000806080008060A0008060C0008060E00080800000808020008080400080806000808080008080A0008080C0008080E00080A0000080A0200080A0400080A0600080A0800080A0A00080A0C00080A0E00080C0000080C0200080C0400080C0600080C0
310
800080C0A00080C0C00080C0E00080E0000080E0200080E0400080E0600080E0800080E0A00080E0C00080E0E000C0000000C0002000C0004000C0006000C0008000C000A000C000C000C000E000C0200000C0202000C0204000C0206000C0208000C020A000C020C000C020E000C0400000C0402000C0404000C0406000C0
310
408000C040A000C040C000C040E000C0600000C0602000C0604000C0606000C0608000C060A000C060C000C060E000C0800000C0802000C0804000C0806000C0808000C080A000C080C000C080E000C0A00000C0A02000C0A04000C0A06000C0A08000C0A0A000C0A0C000C0A0E000C0C00000C0C02000C0C04000C0C06000
310
C0C08000C0C0A000F0FBFF00A4A0A000808080000000FF0000FF000000FFFF00FF000000FF00FF00FFFF0000FFFFFF00000000000000000000000000000000000000000000000000000000000000000000000000000000000000000000000000FF0000000000000000000000000000000000000000000000000000000000FF
310
FFFFFFFF000000000000000000000000000000000000000000FFFFFFFFFFFF0000FF0000FFFF00FF00000000000000000000000000000000FF00000000000000FFFFFF0000FFFFFFFF000000000000000000000000000000FF0000000000000000FF00FF0000FF00FFFF00000000000000000000000000FF00000000000000
310
0000FFFF00FF0000FF0000FFFF00000000000000000000FF000000000000000000FFFF00FF00FF0000FF0000FF000000000000000000FF0000000000000000000000FF0000FF00FF0000FF0000FF0000000000000000FF00000000000000000000FFFFFF0000FFFFFF0000FF00FFFF000000000000FF000000000000000000
310
000000FF00FF000000FFFF0000FF00FF0000000000FF00000000000000000000000000FFFF00FFFF0000FFFF0000FFFF0000000000FF000000000000000000000000FFFF00FF0000FF0000FFFF0000FF0000000000FF00000000000000000000000000FF0000FF0000FF0000FFFF0000FF00000000FF000000000000000000
310
000000FFFFFF0000FF0000FF0000FFFF00FF00000000FF00FF00000000FF0000FF00FF00FFFFFF0000FF0000FF0000FFFF00FF0000FFFFFFFFFFFFFFFFFFFFFFFFFFFFFFFFFFFFFFFFFFFFFFFFFFFFFFFFFFFF000000FF00FF00FF00FF0000FF0000FFFFFF00000000000000000000000000FF000000FF0000FF00FF00FF00
310
00FF0000FFFF000000000000000000000000FF00000000FFFF0000FF00FF00FF00FF000000FF000000000000000000000000FF00000000FF00FF0000FF00FF00FF00FF0000FF0000000000000000000000FF000000000000FF00FF0000FFFF0000FF00FF00FF0000000000000000000000FF000000000000FFFF00FF00FF00
310
FF0000FF00FFFF00000000000000000000FF0000000000000000FF0000FF00FF00FF0000FF00FF00000000000000000000FF000000000000000000FF0000FF00FF00FF0000FFFF000000000000000000FF0000000000000000000000FF0000FF00FF00FF0000FF000000000000000000FF000000000000000000000000FF00
310
00FF00FF00FF00FF00000000000000FFFF00000000000000000000000000FFFF0000FF00FF00FFFF0000000000FFFF00000000000000000000000000000000FFFFFFFFFF00FF00FF000000FFFF0000000000000000000000000000000000000000000000FFFFFFFFFFFFFF0000000000000000000000000000000000000000
310
0000000000000000FF0000000000000000000000000000000000000000000000000000000000000000000000000000000000000000000000
102
{BLKREFS
331
933
102
}
1001
ACAD
1000
DesignCenter Data
1002
{
1070
     1
1070
     4
1002
}
  0
BLOCK_RECORD
  5
6D0
102
{ACAD_XDICTIONARY
360
6D1
102
}
330
1
100
AcDbSymbolTableRecord
100
AcDbBlockTableRecord
  2
ISCAR_LOGO
340
0
310
2800000020000000200000000100080000000000000400000000000000000000000000000000000000000000000080000080000000808000800000008000800080800000C0C0C000C0DCC000F0CAA6000020400000206000002080000020A0000020C0000020E00000400000004020000040400000406000004080000040A0
310
000040C0000040E00000600000006020000060400000606000006080000060A0000060C0000060E00000800000008020000080400000806000008080000080A0000080C0000080E00000A0000000A0200000A0400000A0600000A0800000A0A00000A0C00000A0E00000C0000000C0200000C0400000C0600000C0800000C0
310
A00000C0C00000C0E00000E0000000E0200000E0400000E0600000E0800000E0A00000E0C00000E0E00040000000400020004000400040006000400080004000A0004000C0004000E00040200000402020004020400040206000402080004020A0004020C0004020E000404000004040200040404000404060004040800040
310
40A0004040C0004040E00040600000406020004060400040606000406080004060A0004060C0004060E00040800000408020004080400040806000408080004080A0004080C0004080E00040A0000040A0200040A0400040A0600040A0800040A0A00040A0C00040A0E00040C0000040C0200040C0400040C0600040C08000
310
40C0A00040C0C00040C0E00040E0000040E0200040E0400040E0600040E0800040E0A00040E0C00040E0E00080000000800020008000400080006000800080008000A0008000C0008000E00080200000802020008020400080206000802080008020A0008020C0008020E00080400000804020008040400080406000804080
310
008040A0008040C0008040E00080600000806020008060400080606000806080008060A0008060C0008060E00080800000808020008080400080806000808080008080A0008080C0008080E00080A0000080A0200080A0400080A0600080A0800080A0A00080A0C00080A0E00080C0000080C0200080C0400080C0600080C0
310
800080C0A00080C0C00080C0E00080E0000080E0200080E0400080E0600080E0800080E0A00080E0C00080E0E000C0000000C0002000C0004000C0006000C0008000C000A000C000C000C000E000C0200000C0202000C0204000C0206000C0208000C020A000C020C000C020E000C0400000C0402000C0404000C0406000C0
310
408000C040A000C040C000C040E000C0600000C0602000C0604000C0606000C0608000C060A000C060C000C060E000C0800000C0802000C0804000C0806000C0808000C080A000C080C000C080E000C0A00000C0A02000C0A04000C0A06000C0A08000C0A0A000C0A0C000C0A0E000C0C00000C0C02000C0C04000C0C06000
310
C0C08000C0C0A000F0FBFF00A4A0A000808080000000FF0000FF000000FFFF00FF000000FF00FF00FFFF0000FFFFFF0000000000000000000000000000000000000000000000000000000000000000000000000000000000000000000000000000000000000000000000000000000000000000000000000000000000000000
310
0000000000000000000000000000000000000000000000000000000000FC0000FC00000000000000000000000000000000000000000000000000000000FC000000FC000000000000000000000000000000000000000000000000000000FCFC0000FC000000000000000000000000000000000000000000000000000000FC00
310
000000FC0000000000000000000000000000000000000000000000000000FCFCFCFCFCFC000000000000000000000000000000000000000000000000000000000000000000000000000000000000000000000000000000000000000000FCFC00FCFCFC00FC000000000000000000000000000000000000000000000000FCFC
310
FCFCFCFCFCFC000000000000000000000000000000000000000000000000FC00FCFCFC00FCFC000000000000000000000000000000000000000000000000FC0000FCFC0000FC000000000000000000000000000000000000000000000000000000000000000000000000000000000000000000000000000000000000000000
310
000000000000000000000000000000000000000000FCFCFCFCFCFCFCFC0000000000FCFCFCFCFCFCFCFCFCFCFCFCFC000000000000FC0000FCFC000000FC000000FC000000FC0000FCFC00FCFC00FC000000000000FC0000FCFC000000FC0000FC00000000FC0000FCFC00FCFC00FC000000000000FC0000FCFCFCFCFCFCFC
310
FCFCFCFCFCFCFC0000FCFC00FCFCFCFC000000000000FC0000FCFCFCFCFCFCFCFCFCFCFCFCFCFC0000FCFC00FCFCFCFCFCFCFCFC0000FC0000FC00FC000000FC00FCFC000000FCFCFCFCFCFC0000FC00000000FC0000FCFCFCFC0000FCFCFCFC000000FCFCFCFC0000FCFC00000000FCFCFCFCFC0000000000FC0000000000
310
000000000000000000000000000000000000000000000000FCFCFC00000000000000000000000000000000000000000000000000000000FC0000FC00000000000000000000000000000000000000000000000000000000FC0000FC00000000000000000000000000000000000000000000000000000000FC00FC0000000000
310
000000000000000000000000000000000000000000000000FCFC000000000000000000000000000000000000000000000000000000000000FC00000000000000000000000000000000000000000000000000000000000000000000000000000000000000000000000000000000000000000000000000000000000000000000
310
0000000000000000000000000000000000000000000000000000000000000000000000000000000000000000000000000000000000000000
1001
AcDbDynamicBlockGUID
1000
{7F157122-0310-41DF-BAC8-CAC40B0A72D2}
1001
AcDbBlockRepETag
1070
     1
1071
       42
  0
BLOCK_RECORD
  5
937
330
1
100
AcDbSymbolTableRecord
100
AcDbBlockTableRecord
  2
*D2
340
0
  0
BLOCK_RECORD
  5
952
330
1
100
AcDbSymbolTableRecord
100
AcDbBlockTableRecord
  2
*D3
340
0
  0
ENDTAB
  0
ENDSEC
  0
SECTION
  2
BLOCKS
  0
BLOCK
  5
32
330
18
100
AcDbEntity
  8
0
100
AcDbBlockBegin
  2
*MODEL_SPACE
 70
     0
 10
0.0
 20
0.0
 30
0.0
  3
*MODEL_SPACE
  1

  0
ENDBLK
  5
33
330
18
100
AcDbEntity
  8
0
100
AcDbBlockEnd
  0
BLOCK
  5
339
330
338
100
AcDbEntity
 67
     1
  8
0
100
AcDbBlockBegin
  2
*Paper_Space
 70
     0
 10
0.0
 20
0.0
 30
0.0
  3
*Paper_Space
  1

  0
ENDBLK
  5
33A
330
338
100
AcDbEntity
 67
     1
  8
0
100
AcDbBlockEnd
  0
BLOCK
  5
520
330
51F
100
AcDbEntity
  8
0
100
AcDbBlockBegin
  2
CERO_POINT
 70
     0
 10
0.0
 20
0.0
 30
0.0
  3
CERO_POINT
  1

  0
CIRCLE
  5
521
102
{ACAD_REACTORS
330
526
102
}
330
51F
100
AcDbEntity
  8
SK2
100
AcDbCircle
 10
0.0
 20
0.0
 30
0.0
 40
2.5
  0
LINE
  5
522
330
51F
100
AcDbEntity
  8
SK2
100
AcDbLine
 10
0.0900000000037835
 20
0.0
 30
0.0
 11
-0.0899999999965076
 21
0.0
 31
0.0
  0
LINE
  5
523
330
51F
100
AcDbEntity
  8
SK2
100
AcDbLine
 10
0.0
 20
0.0899999999999182
 30
0.0
 11
0.0
 21
-0.0899999999999182
 31
0.0
  0
LINE
  5
524
102
{ACAD_REACTORS
330
526
102
}
330
51F
100
AcDbEntity
  8
SK2
100
AcDbLine
 10
0.0
 20
-2.5
 30
0.0
 11
0.0
 21
2.5
 31
0.0
  0
LINE
  5
525
102
{ACAD_REACTORS
330
526
102
}
330
51F
100
AcDbEntity
  8
SK2
100
AcDbLine
 10
2.5
 20
0.0
 30
0.0
 11
-2.5
 21
0.0
 31
0.0
  0
HATCH
  5
526
330
51F
100
AcDbEntity
  8
SK2
100
AcDbHatch
 10
0.0
 20
0.0
 30
0.0
210
0.0
220
0.0
230
1.0
  2
ANSI31
 70
     0
 71
     1
 91
        2
 92
        7
 72
     1
 73
     1
 93
        3
 10
0.0
 20
-2.5
 42
0.4142135623730951
 10
2.5
 20
0.0
 42
0.0
 10
0.0
 20
0.0
 42
0.0
 97
        3
330
521
330
525
330
524
 92
        7
 72
     1
 73
     1
 93
        3
 10
0.0
 20
0.0
 42
0.0
 10
0.0
 20
2.5
 42
0.4142135623730951
 10
-2.5
 20
0.0
 42
0.0
 97
        3
330
525
330
524
330
521
 75
     0
 76
     1
 52
180.0
 41
0.1
 77
     0
 78
     1
 53
225.0
 43
5.170976743218488
 44
0.0
 45
0.2245064030267288
 46
-0.2245064030267289
 79
     0
 47
0.0243816376539857
 98
        2
 10
0.8789156907296272
 20
-1.044463114528752
 10
-0.8545028512526187
 20
0.7841600866017872
  0
ENDBLK
  5
527
330
51F
100
AcDbEntity
  8
0
100
AcDbBlockEnd
  0
BLOCK
  5
6D3
330
6D0
100
AcDbEntity
  8
0
100
AcDbBlockBegin
  2
ISCAR_LOGO
 70
     2
 10
0.0
 20
0.0
 30
0.0
  3
ISCAR_LOGO
  1

  0
LINE
  5
6D4
330
6D0
100
AcDbEntity
  8
SK6
100
AcDbLine
 10
0.0
 20
6.250000000000794
 30
0.0
 11
1.750000000007275
 21
4.499999999999204
 31
0.0
  0
LINE
  5
6D5
330
6D0
100
AcDbEntity
  8
SK6
100
AcDbLine
 10
1.750000000007275
 20
4.499999999999204
 30
0.0
 11
1.750000000007275
 21
6.750000000000341
 31
0.0
  0
LINE
  5
6D6
330
6D0
100
AcDbEntity
  8
SK6
100
AcDbLine
 10
4.000000000007275
 20
4.0
 30
0.0
 11
6.250000000007275
 21
4.0
 31
0.0
  0
LINE
  5
6D7
330
6D0
100
AcDbEntity
  8
SK6
100
AcDbLine
 10
8.500000000003637
 20
4.0
 30
0.0
 11
10.74999999999636
 21
4.0
 31
0.0
  0
LINE
  5
6D8
330
6D0
100
AcDbEntity
  8
SK6
100
AcDbLine
 10
17.49999999997453
 20
4.0
 30
0.0
 11
19.74999999996362
 21
4.0
 31
0.0
  0
LINE
  5
6D9
330
6D0
100
AcDbEntity
  8
SK6
100
AcDbLine
 10
0.0
 20
4.0
 30
0.0
 11
1.750000000007275
 21
4.0
 31
0.0
  0
LINE
  5
6DA
330
6D0
100
AcDbEntity
  8
SK6
100
AcDbLine
 10
15.75000000000727
 20
1.750000000000681
 30
0.0
 11
17.49999999997453
 21
1.750000000000681
 31
0.0
  0
LINE
  5
6DB
330
6D0
100
AcDbEntity
  8
SK6
100
AcDbLine
 10
15.75000000000727
 20
2.250000000000113
 30
0.0
 11
19.74999999996362
 21
2.250000000000113
 31
0.0
  0
LINE
  5
6DC
330
6D0
100
AcDbEntity
  8
SK6
100
AcDbLine
 10
15.75000000000727
 20
0.0
 30
0.0
 11
17.49999999997453
 21
0.0
 31
0.0
  0
LINE
  5
6DD
330
6D0
100
AcDbEntity
  8
SK6
100
AcDbLine
 10
15.24999999997453
 20
0.0
 30
0.0
 11
15.24999999997453
 21
2.250000000000113
 31
0.0
  0
LINE
  5
6DE
330
6D0
100
AcDbEntity
  8
SK6
100
AcDbLine
 10
11.25000000000727
 20
0.0
 30
0.0
 11
11.25000000000727
 21
2.250000000000113
 31
0.0
  0
LINE
  5
6DF
330
6D0
100
AcDbEntity
  8
SK6
100
AcDbLine
 10
2.249999999996359
 20
1.750000000000681
 30
0.0
 11
6.250000000007275
 21
1.750000000000681
 31
0.0
  0
ARC
  5
6E0
330
6D0
100
AcDbEntity
  8
SK6
100
AcDbCircle
 10
4.499999999974534
 20
1.750000000000681
 30
0.0
 40
1.749999999999998
100
AcDbArc
 50
270.0
 51
0.0
  0
LINE
  5
6E1
330
6D0
100
AcDbEntity
  8
SK6
100
AcDbLine
 10
2.249999999996359
 20
0.0
 30
0.0
 11
4.499999999974534
 21
0.0
 31
0.0
  0
LINE
  5
6E2
330
6D0
100
AcDbEntity
  8
SK6
100
AcDbLine
 10
2.249999999996359
 20
0.0
 30
0.0
 11
2.249999999996359
 21
1.750000000000681
 31
0.0
  0
LINE
  5
6E3
330
6D0
100
AcDbEntity
  8
SK6
100
AcDbLine
 10
8.500000000003637
 20
0.0
 30
0.0
 11
10.74999999999636
 21
0.0
 31
0.0
  0
LINE
  5
6E4
330
6D0
100
AcDbEntity
  8
SK6
100
AcDbLine
 10
6.750000000003637
 20
1.750000000000681
 30
0.0
 11
10.74999999999636
 21
1.750000000000681
 31
0.0
  0
ARC
  5
6E5
330
6D0
100
AcDbEntity
  8
SK6
100
AcDbCircle
 10
8.500000000003637
 20
1.750000000000681
 30
0.0
 40
1.749999999999998
100
AcDbArc
 50
180.0
 51
270.0
  0
LINE
  5
6E6
330
6D0
100
AcDbEntity
  8
SK6
100
AcDbLine
 10
10.74999999999636
 20
0.0
 30
0.0
 11
10.74999999999636
 21
1.750000000000681
 31
0.0
  0
LINE
  5
6E7
330
6D0
100
AcDbEntity
  8
SK6
100
AcDbLine
 10
15.75000000000727
 20
0.0
 30
0.0
 11
15.75000000000727
 21
1.750000000000681
 31
0.0
  0
LINE
  5
6E8
330
6D0
100
AcDbEntity
  8
SK6
100
AcDbLine
 10
11.25000000000727
 20
0.0
 30
0.0
 11
12.99999999999272
 21
0.0
 31
0.0
  0
LINE
  5
6E9
330
6D0
100
AcDbEntity
  8
SK6
100
AcDbLine
 10
13.4999999999527
 20
0.0
 30
0.0
 11
15.24999999997453
 21
0.0
 31
0.0
  0
LINE
  5
6EA
330
6D0
100
AcDbEntity
  8
SK6
100
AcDbLine
 10
2.249999999996359
 20
2.250000000000113
 30
0.0
 11
6.250000000007275
 21
2.250000000000113
 31
0.0
  0
LINE
  5
6EB
330
6D0
100
AcDbEntity
  8
SK6
100
AcDbLine
 10
6.750000000003637
 20
2.250000000000113
 30
0.0
 11
10.74999999999636
 21
2.250000000000113
 31
0.0
  0
LINE
  5
6EC
330
6D0
100
AcDbEntity
  8
SK6
100
AcDbLine
 10
17.49999999997453
 20
0.0
 30
0.0
 11
17.49999999997453
 21
1.750000000000681
 31
0.0
  0
LINE
  5
6ED
330
6D0
100
AcDbEntity
  8
SK6
100
AcDbLine
 10
0.0
 20
0.0
 30
0.0
 11
1.750000000007275
 21
0.0
 31
0.0
  0
ARC
  5
6EE
330
6D0
100
AcDbEntity
  8
SK6
100
AcDbCircle
 10
17.49999999997453
 20
2.250000000000113
 30
0.0
 40
1.749999999999998
100
AcDbArc
 50
90.0
 51
180.0
  0
LINE
  5
6EF
330
6D0
100
AcDbEntity
  8
SK6
100
AcDbLine
 10
0.0
 20
0.0
 30
0.0
 11
0.0
 21
4.0
 31
0.0
  0
LINE
  5
6F0
330
6D0
100
AcDbEntity
  8
SK6
100
AcDbLine
 10
1.750000000007275
 20
0.0
 30
0.0
 11
1.750000000007275
 21
4.0
 31
0.0
  0
LINE
  5
6F1
330
6D0
100
AcDbEntity
  8
SK6
100
AcDbLine
 10
12.99999999999272
 20
0.0
 30
0.0
 11
12.99999999999272
 21
4.0
 31
0.0
  0
LINE
  5
6F2
330
6D0
100
AcDbEntity
  8
SK6
100
AcDbLine
 10
13.4999999999527
 20
0.0
 30
0.0
 11
13.4999999999527
 21
4.0
 31
0.0
  0
ARC
  5
6F3
330
6D0
100
AcDbEntity
  8
SK6
100
AcDbCircle
 10
4.000000000007275
 20
2.250000000000113
 30
0.0
 40
1.749999999999998
100
AcDbArc
 50
90.0
 51
180.0
  0
ARC
  5
6F4
330
6D0
100
AcDbEntity
  8
SK6
100
AcDbCircle
 10
12.99999999999272
 20
2.250000000000113
 30
0.0
 40
1.749999999999998
100
AcDbArc
 50
90.0
 51
180.0
  0
LINE
  5
6F5
330
6D0
100
AcDbEntity
  8
SK6
100
AcDbLine
 10
6.250000000007275
 20
2.250000000000113
 30
0.0
 11
6.250000000007275
 21
4.0
 31
0.0
  0
ARC
  5
6F6
330
6D0
100
AcDbEntity
  8
SK6
100
AcDbCircle
 10
8.500000000003637
 20
2.250000000000113
 30
0.0
 40
1.749999999999998
100
AcDbArc
 50
90.0
 51
180.0
  0
LINE
  5
6F7
330
6D0
100
AcDbEntity
  8
SK6
100
AcDbLine
 10
10.74999999999636
 20
2.250000000000113
 30
0.0
 11
10.74999999999636
 21
4.0
 31
0.0
  0
ARC
  5
6F8
330
6D0
100
AcDbEntity
  8
SK6
100
AcDbCircle
 10
13.4999999999527
 20
2.250000000000113
 30
0.0
 40
1.749999999999998
100
AcDbArc
 50
0.0
 51
90.0
  0
LINE
  5
6F9
330
6D0
100
AcDbEntity
  8
SK6
100
AcDbLine
 10
19.74999999996362
 20
2.250000000000113
 30
0.0
 11
19.74999999996362
 21
4.0
 31
0.0
  0
LINE
  5
6FA
330
6D0
100
AcDbEntity
  8
SK6
100
AcDbLine
 10
0.0
 20
8.499999999999545
 30
0.0
 11
1.750000000007275
 21
6.750000000000341
 31
0.0
  0
LINE
  5
6FB
330
6D0
100
AcDbEntity
  8
SK6
100
AcDbLine
 10
0.0
 20
6.250000000000794
 30
0.0
 11
0.0
 21
8.499999999999545
 31
0.0
  0
ATTDEF
  5
6FC
330
6D0
100
AcDbEntity
  8
SK6
100
AcDbText
 10
4.238155171155345
 20
-6.38769206708217
 30
0.0
 40
3.5
  1
----
 72
     1
 11
9.138155171155347
 21
-6.38769206708217
 31
0.0
100
AcDbAttributeDefinition
  3
NAME OF TOOL?
  2
MM
 70
     0
  0
ATTDEF
  5
6FD
330
6D0
100
AcDbEntity
  8
SK6
100
AcDbText
 10
9.138155171155347
 20
-12.42271564516345
 30
0.0
 40
3.5
  1

 72
     1
 11
9.138155171155347
 21
-12.42271564516345
 31
0.0
100
AcDbAttributeDefinition
  3

  2
F7
 70
     0
  0
ENDBLK
  5
6FE
330
6D0
100
AcDbEntity
  8
0
100
AcDbBlockEnd
  0
BLOCK
  5
938
330
937
100
AcDbEntity
  8
0
100
AcDbBlockBegin
  2
*D2
 70
     1
 10
0.0
 20
0.0
 30
0.0
  3
*D2
  1

  0
LINE
  5
B16
330
937
100
AcDbEntity
  8
2
 62
     0
440
 16777216
370
    -2
100
AcDbLine
 10
-0.0000000000027285
 20
7.599999999999997
 30
0.0
 11
-0.0000000000027278
 21
18.45202262830125
 31
0.0
  0
LINE
  5
B17
330
937
100
AcDbEntity
  8
2
 62
     0
440
 16777216
370
    -2
100
AcDbLine
 10
38.09999999999723
 20
7.599999999999997
 30
0.0
 11
38.09999999999723
 21
18.45202262830125
 31
0.0
  0
LINE
  5
B18
330
937
100
AcDbEntity
  8
2
 62
     0
440
 16777216
370
    -2
100
AcDbLine
 10
2.499999999997271
 20
17.20202262830125
 30
0.0
 11
35.59999999999722
 21
17.20202262830125
 31
0.0
  0
SOLID
  5
B19
330
937
100
AcDbEntity
  8
2
 62
     0
440
 16777216
100
AcDbTrace
 10
2.499999999997271
 20
17.61868929496792
 30
0.0
 11
2.499999999997271
 21
16.78535596163458
 31
0.0
 12
-0.0000000000027279
 22
17.20202262830125
 32
0.0
 13
-0.0000000000027279
 23
17.20202262830125
 33
0.0
  0
SOLID
  5
B1A
330
937
100
AcDbEntity
  8
2
 62
     0
440
 16777216
100
AcDbTrace
 10
35.59999999999722
 20
17.61868929496792
 30
0.0
 11
35.59999999999722
 21
16.78535596163458
 31
0.0
 12
38.09999999999723
 22
17.20202262830125
 32
0.0
 13
38.09999999999723
 23
17.20202262830125
 33
0.0
  0
MTEXT
  5
B1B
330
937
100
AcDbEntity
  8
2
 62
     0
440
 16777216
100
AcDbMText
 10
19.04999999999725
 20
19.63851243856126
 30
0.0
 40
3.5
 41
0.0
 71
     5
 72
     1
  1
38.10
 73
     1
 44
1.0
  0
POINT
  5
B1C
330
937
100
AcDbEntity
  8
DEFPOINTS
 62
     0
440
 16777216
100
AcDbPoint
 10
-0.0000000000027285
 20
7.599999999999997
 30
0.0
  0
POINT
  5
B1D
330
937
100
AcDbEntity
  8
DEFPOINTS
 62
     0
440
 16777216
100
AcDbPoint
 10
38.09999999999723
 20
7.599999999999997
 30
0.0
  0
POINT
  5
B1E
330
937
100
AcDbEntity
  8
DEFPOINTS
 62
     0
440
 16777216
100
AcDbPoint
 10
38.09999999999723
 20
17.20202262830125
 30
0.0
  0
ENDBLK
  5
939
330
937
100
AcDbEntity
  8
0
100
AcDbBlockEnd
  0
BLOCK
  5
953
330
952
100
AcDbEntity
  8
0
100
AcDbBlockBegin
  2
*D3
 70
     1
 10
0.0
 20
0.0
 30
0.0
  3
*D3
  1

  0
LINE
  5
B0C
330
952
100
AcDbEntity
  8
2
 62
     0
440
 16777216
370
    -2
100
AcDbLine
 10
38.10000000000268
 20
7.599999999999997
 30
0.0
 11
47.34573361361524
 21
7.599999999999996
 31
0.0
  0
LINE
  5
B0D
330
952
100
AcDbEntity
  8
2
 62
     0
440
 16777216
370
    -2
100
AcDbLine
 10
38.10000000000268
 20
-7.599999999999997
 30
0.0
 11
47.34573361361524
 21
-7.600000000000002
 31
0.0
  0
LINE
  5
B0E
330
952
100
AcDbEntity
  8
2
 62
     0
440
 16777216
370
    -2
100
AcDbLine
 10
46.09573361361524
 20
5.099999999999996
 30
0.0
 11
46.09573361361524
 21
-5.100000000000001
 31
0.0
  0
LINE
  5
B0F
330
952
100
AcDbEntity
  8
2
 62
     0
440
 16777216
370
    -2
100
AcDbLine
 10
46.09573361361524
 20
-7.600000000000002
 30
0.0
 11
46.09573361361524
 21
-29.10333801827126
 31
0.0
  0
SOLID
  5
B10
330
952
100
AcDbEntity
  8
2
 62
     0
440
 16777216
100
AcDbTrace
 10
45.6790669469486
 20
5.099999999999996
 30
0.0
 11
46.51240028028192
 21
5.099999999999996
 31
0.0
 12
46.09573361361524
 22
7.599999999999996
 32
0.0
 13
46.09573361361524
 23
7.599999999999996
 33
0.0
  0
SOLID
  5
B11
330
952
100
AcDbEntity
  8
2
 62
     0
440
 16777216
100
AcDbTrace
 10
45.6790669469486
 20
-5.100000000000001
 30
0.0
 11
46.51240028028192
 21
-5.100000000000001
 31
0.0
 12
46.09573361361524
 22
-7.600000000000002
 32
0.0
 13
46.09573361361524
 23
-7.600000000000002
 33
0.0
  0
MTEXT
  5
B12
330
952
100
AcDbEntity
  8
2
 62
     0
440
 16777216
100
AcDbMText
 10
43.60759236273684
 20
-19.60166900913562
 30
0.0
 40
3.5
 41
0.0
 71
     5
 72
     1
  1
%%C15.20
 11
0.0000000000000001
 21
1.0
 31
0.0
 73
     1
 44
1.0
  0
POINT
  5
B13
330
952
100
AcDbEntity
  8
DEFPOINTS
 62
     0
440
 16777216
100
AcDbPoint
 10
38.10000000000268
 20
7.599999999999997
 30
0.0
  0
POINT
  5
B14
330
952
100
AcDbEntity
  8
DEFPOINTS
 62
     0
440
 16777216
100
AcDbPoint
 10
38.10000000000268
 20
-7.599999999999997
 30
0.0
  0
POINT
  5
B15
330
952
100
AcDbEntity
  8
DEFPOINTS
 62
     0
440
 16777216
100
AcDbPoint
 10
46.09573361361524
 20
-7.600000000000002
 30
0.0
  0
ENDBLK
  5
954
330
952
100
AcDbEntity
  8
0
100
AcDbBlockEnd
  0
ENDSEC
  0
SECTION
  2
ENTITIES
  0
LINE
  5
7F9
330
18
100
AcDbEntity
  8
1
100
AcDbLine
 10
38.10000000000268
 20
9.112499999999982
 30
0.0
 11
38.10000000000268
 21
-7.599999999999997
 31
0.0
  0
LINE
  5
7FA
330
18
100
AcDbEntity
  8
1
100
AcDbLine
 10
-0.0000000000027285
 20
7.599999999999997
 30
0.0
 11
0.0000000000027285
 21
-7.599999999999997
 31
0.0
  0
LINE
  5
7FB
330
18
100
AcDbEntity
  8
1
100
AcDbLine
 10
38.09999999999723
 20
7.599999999999997
 30
0.0
 11
6.549884416133117
 21
7.599999999999997
 31
0.0
  0
LINE
  5
7FC
102
{ACAD_REACTORS
330
96A
102
}
330
18
100
AcDbEntity
  8
1
100
AcDbLine
 10
38.10000000000268
 20
-7.599999999999997
 30
0.0
 11
6.549884416133117
 21
-7.599999999999997
 31
0.0
  0
LINE
  5
7FD
330
18
100
AcDbEntity
  8
4
100
AcDbLine
 10
39.77025450000264
 20
0.0
 30
0.0
 11
0.0000000000027285
 21
0.0
 31
0.0
  0
LINE
  5
7FE
330
18
100
AcDbEntity
  8
3
100
AcDbLine
 10
12.0611823839299
 20
0.8999999999999509
 30
0.0
 11
12.0611823839299
 21
-0.9000000000000319
 31
0.0
  0
LINE
  5
7FF
330
18
100
AcDbEntity
  8
3
100
AcDbLine
 10
12.32478488392986
 20
-0.6363959999999885
 30
0.0
 11
6.298682048228942
 21
-6.662499999999997
 31
0.0
  0
LINE
  5
800
330
18
100
AcDbEntity
  8
3
100
AcDbLine
 10
12.32478488392986
 20
0.6363974999999891
 30
0.0
 11
6.29868238392979
 21
6.662500000000002
 31
0.0
  0
ARC
  5
801
330
18
100
AcDbEntity
  8
3
100
AcDbCircle
 10
11.68838888392987
 20
0.0000000000000022
 30
0.0
 40
0.9
100
AcDbArc
 50
314.9999999999995
 51
45.00000000000057
  0
LINE
  5
802
330
18
100
AcDbEntity
  8
1
100
AcDbLine
 10
0.6999999999972708
 20
-7.599999999999997
 30
0.0
 11
0.0000000000027285
 21
-7.599999999999997
 31
0.0
  0
LINE
  5
806
330
18
100
AcDbEntity
  8
SK3
100
AcDbLine
 10
34.40109642540468
 20
4.563550030777522
 30
0.0
 11
33.8054638476301
 21
4.563550030777522
 31
0.0
  0
LWPOLYLINE
  5
807
330
18
100
AcDbEntity
  8
SK3
100
AcDbPolyline
 90
       20
 70
     0
 43
0.0
 10
34.53279182333968
 20
4.444203062337567
 10
34.52728269259424
 20
4.443361572199846
 10
34.52165194022733
 20
4.440344041159042
 10
34.51003433615137
 20
4.427815918457496
 10
34.49931629379818
 20
4.409432426880946
 10
34.48826297021823
 20
4.384300578848292
 10
34.47403871895783
 20
4.343611024480263
 10
34.45936413899091
 20
4.292676765961465
 10
34.43926589212067
 20
4.209583997621978
 10
34.41852885781516
 20
4.109167270210027
 10
34.39643097617753
 20
3.987141339026953
 10
34.37384112960261
 20
3.847536152935379
 10
34.33353506683378
 20
3.563663618595873
 10
34.29256720713372
 20
3.231967490452482
 10
34.25147005598019
 20
2.856758214080451
 10
34.22088057464544
 20
2.549684437987929
 10
34.19074032632693
 20
2.223077791211377
 10
34.13269942062936
 20
1.521046017076989
 10
34.07913331404961
 20
0.7718842210881034
 10
34.03182579036921
 20
-0.0005105916721297
  0
LWPOLYLINE
  5
808
330
18
100
AcDbEntity
  8
SK3
100
AcDbPolyline
 90
       13
 70
     0
 43
0.0
 10
34.03182579036921
 20
-0.0005105916721297
 10
33.98347955230008
 20
-0.7883721684741887
 10
33.9285668423619
 20
-1.552678595561615
 10
33.89874105715474
 20
-1.923836009265279
 10
33.86797297830379
 20
-2.278950325837898
 10
33.83758729536175
 20
-2.604097513156774
 10
33.80678634580229
 20
-2.909100434613542
 10
33.75949744885672
 20
-3.330695759137526
 10
33.71258656505894
 20
-3.692950689287746
 10
33.68839810636039
 20
-3.857143165341078
 10
33.66465230653638
 20
-4.002495246969614
 10
33.64361614878347
 20
-4.117330162822111
 10
33.62312564479174
 20
-4.215640973509134
  0
LWPOLYLINE
  5
809
330
18
100
AcDbEntity
  8
SK3
100
AcDbPolyline
 90
       13
 70
     0
 43
0.0
 10
35.61327392570469
 20
4.208272456352641
 10
35.5930135166725
 20
4.110349520025931
 10
35.57220087973741
 20
3.995997803588482
 10
35.54836961607128
 20
3.849247621158181
 10
35.52408692800836
 20
3.683443384697841
 10
35.47730314428348
 20
3.320444480845133
 10
35.43017640949986
 20
2.898921471879866
 10
35.3996197988736
 20
2.595667272115573
 10
35.36948941176766
 20
2.272810077489158
 10
35.33877063897943
 20
1.917879836884139
 10
35.30900621242815
 20
1.547033599221014
 10
35.25438605179568
 20
0.7859539800185056
 10
35.20616362672856
 20
-0.0002531044554726
  0
LWPOLYLINE
  5
80A
330
18
100
AcDbEntity
  8
SK3
100
AcDbPolyline
 90
       20
 70
     0
 43
0.0
 10
35.20616362672856
 20
-0.0002531044554726
 10
35.15890102634979
 20
-0.7716453606062808
 10
35.10534258960202
 20
-1.520653759955489
 10
35.04728415285993
 20
-2.222969317873333
 10
35.01712966056774
 20
-2.549779763042538
 10
34.98652374387872
 20
-2.857056241837558
 10
34.94540467891953
 20
-3.232495613169168
 10
34.90441709679436
 20
-3.564336372429989
 10
34.86409569436157
 20
-3.848250543000223
 10
34.84151899607005
 20
-3.987724246257736
 10
34.81943645409639
 20
-4.10961431184569
 10
34.79868408012689
 20
-4.210055144443876
 10
34.77857487635382
 20
-4.293120520526283
 10
34.7639145403606
 20
-4.343946305707038
 10
34.74970782014473
 20
-4.384533960878711
 10
34.73865668794535
 20
-4.409614311468045
 10
34.72794521973386
 20
-4.427941922840092
 10
34.71634405101216
 20
-4.440402112744108
 10
34.71072096847723
 20
-4.443388964456924
 10
34.70522279463463
 20
-4.444203062337567
  0
LINE
  5
80B
330
18
100
AcDbEntity
  8
SK3
100
AcDbLine
 10
37.82607852481797
 20
-4.724764420640284
 30
0.0
 11
36.94940248501594
 21
-4.681120885267922
 31
0.0
  0
LINE
  5
80C
330
18
100
AcDbEntity
  8
SK3
100
AcDbLine
 10
37.82607852481797
 20
4.724764420640284
 30
0.0
 11
36.94952629801797
 21
4.681127459409608
 31
0.0
  0
LINE
  5
80D
330
18
100
AcDbEntity
  8
SK3
100
AcDbLine
 10
35.62699525512496
 20
4.440424026549722
 30
0.0
 11
35.54901169057743
 21
4.185351711312113
 31
0.0
  0
LINE
  5
80E
330
18
100
AcDbEntity
  8
SK3
100
AcDbLine
 10
34.66266070557207
 20
4.185351711312113
 30
0.0
 11
34.58970197666467
 21
4.423988672297237
 31
0.0
  0
LINE
  5
80F
330
18
100
AcDbEntity
  8
SK3
100
AcDbLine
 10
32.39598320659967
 20
4.563550030777522
 30
0.0
 11
31.8003506288251
 21
4.563550030777522
 31
0.0
  0
LINE
  5
810
330
18
100
AcDbEntity
  8
SK3
100
AcDbLine
 10
36.18254309956796
 20
4.563550030777522
 30
0.0
 11
35.8105770664351
 21
4.563550030777522
 31
0.0
  0
LINE
  5
811
330
18
100
AcDbEntity
  8
SK3
100
AcDbLine
 10
33.61685720067983
 20
4.423988672297237
 30
0.0
 11
33.54389847177241
 21
4.185351711312113
 31
0.0
  0
LINE
  5
812
330
18
100
AcDbEntity
  8
SK3
100
AcDbLine
 10
31.61174398187483
 20
4.423988672297237
 30
0.0
 11
31.53878525296742
 21
4.185351711312113
 31
0.0
  0
LINE
  5
813
330
18
100
AcDbEntity
  8
SK3
100
AcDbLine
 10
26.00080130979403
 20
4.42398867229724
 30
0.0
 11
25.92784258088662
 21
4.185351711312113
 31
0.0
  0
LINE
  5
814
330
18
100
AcDbEntity
  8
SK3
100
AcDbLine
 10
32.65754858245737
 20
4.185351711312113
 30
0.0
 11
32.58458985354995
 21
4.423988672297237
 31
0.0
  0
LINE
  5
815
330
18
100
AcDbEntity
  8
SK3
100
AcDbLine
 10
27.04660591037657
 20
4.185351711312113
 30
0.0
 11
26.97364718146915
 21
4.42398867229724
 31
0.0
  0
LINE
  5
816
330
18
100
AcDbEntity
  8
SK3
100
AcDbLine
 10
33.39751753696768
 20
4.021183340445015
 30
0.0
 11
32.80392842157183
 21
4.021183340445015
 31
0.0
  0
LINE
  5
817
330
18
100
AcDbEntity
  8
SK3
100
AcDbLine
 10
31.39240431816266
 20
4.021183340445015
 30
0.0
 11
30.79881520276682
 21
4.021183340445015
 31
0.0
  0
LINE
  5
818
330
18
100
AcDbEntity
  8
SK3
100
AcDbLine
 10
35.40263075577267
 20
4.021183340445015
 30
0.0
 11
34.80904164037682
 21
4.021183340445015
 31
0.0
  0
LWPOLYLINE
  5
819
330
18
100
AcDbEntity
  8
SK3
100
AcDbPolyline
 90
       13
 70
     0
 43
0.0
 10
33.60816070689969
 20
4.208272456352641
 10
33.58790029786749
 20
4.110349520025931
 10
33.56708766093241
 20
3.995997803588482
 10
33.54325639726628
 20
3.849247621158181
 10
33.51897261351307
 20
3.683443384697841
 10
33.47218992547848
 20
3.320444480845133
 10
33.42506319069487
 20
2.898921471879866
 10
33.39450658006861
 20
2.595667272115573
 10
33.36437619296265
 20
2.272810077489158
 10
33.33365851586471
 20
1.917879836884139
 10
33.30389299362316
 20
1.547033599221014
 10
33.24927283299068
 20
0.7859539800185056
 10
33.20105150361384
 20
-0.0002531044554726
  0
LWPOLYLINE
  5
81A
330
18
100
AcDbEntity
  8
SK3
100
AcDbPolyline
 90
       20
 70
     0
 43
0.0
 10
33.20105150361384
 20
-0.0002531044554726
 10
33.15378671185451
 20
-0.7716453606062808
 10
33.10022827510675
 20
-1.520653759955489
 10
33.04217093405493
 20
-2.222969317873333
 10
33.01201644176273
 20
-2.549779763042538
 10
32.98141052507373
 20
-2.857056241837558
 10
32.94029146011455
 20
-3.232495613169168
 10
32.89930387798938
 20
-3.564336372429989
 10
32.85898247555657
 20
-3.848250543000223
 10
32.83640687295534
 20
-3.987724246257736
 10
32.81432433098168
 20
-4.10961431184569
 10
32.7935708613219
 20
-4.210055144443876
 10
32.77346165754882
 20
-4.293120520526283
 10
32.7588013215556
 20
-4.343946305707038
 10
32.74459350564945
 20
-4.384533960878711
 10
32.73354346914036
 20
-4.409614311468045
 10
32.72283200092886
 20
-4.427941922840092
 10
32.71123083220717
 20
-4.440402112744108
 10
32.70560774967224
 20
-4.443388964456924
 10
32.70010957582963
 20
-4.444203062337567
  0
LWPOLYLINE
  5
81B
330
18
100
AcDbEntity
  8
SK3
100
AcDbPolyline
 90
       13
 70
     0
 43
0.0
 10
31.60304748809469
 20
4.208272456352641
 10
31.5827870790625
 20
4.110349520025931
 10
31.56197444212741
 20
3.995997803588482
 10
31.53814317846129
 20
3.849247621158181
 10
31.51385939470808
 20
3.683443384697841
 10
31.46707670667347
 20
3.320444480845133
 10
31.41994997188986
 20
2.898921471879866
 10
31.38939336126361
 20
2.595667272115573
 10
31.35926297415764
 20
2.272810077489158
 10
31.32854529705972
 20
1.917879836884139
 10
31.29877867912787
 20
1.547033599221014
 10
31.24415961418568
 20
0.7859539800185056
 10
31.19593828480885
 20
-0.0002531044554726
  0
LWPOLYLINE
  5
81C
330
18
100
AcDbEntity
  8
SK3
100
AcDbPolyline
 90
       20
 70
     0
 43
0.0
 10
31.19593828480885
 20
-0.0002531044554726
 10
31.14867349304951
 20
-0.7716453606062808
 10
31.09511505630175
 20
-1.520653759955489
 10
31.03705771524993
 20
-2.222969317873333
 10
31.00690322295773
 20
-2.549779763042538
 10
30.97629730626872
 20
-2.857056241837558
 10
30.93517824130954
 20
-3.232495613169168
 10
30.89419065918437
 20
-3.564336372429989
 10
30.85386925675158
 20
-3.848250543000223
 10
30.83129365415034
 20
-3.987724246257736
 10
30.80921001648639
 20
-4.10961431184569
 10
30.7884576425169
 20
-4.210055144443876
 10
30.76834843874383
 20
-4.293120520526283
 10
30.75368810275059
 20
-4.343946305707038
 10
30.73948138253474
 20
-4.384533960878711
 10
30.72843025033535
 20
-4.409614311468045
 10
30.71771878212386
 20
-4.427941922840092
 10
30.70611761340215
 20
-4.440402112744108
 10
30.70049453086724
 20
-4.443388964456924
 10
30.69499635702463
 20
-4.444203062337567
  0
LWPOLYLINE
  5
81D
330
18
100
AcDbEntity
  8
SK3
100
AcDbPolyline
 90
       18
 70
     0
 43
0.0
 10
25.89292731431261
 20
3.966375816774048
 10
25.88136230337028
 20
3.94978158743042
 10
25.86938202581047
 20
3.925972237569975
 10
25.8570160652709
 20
3.895031039654234
 10
25.84429071831833
 20
3.857045648905846
 10
25.81787143420258
 20
3.760341120174426
 10
25.79947150727176
 20
3.680135495731961
 10
25.78063549560811
 20
3.588063545519128
 10
25.75694776736912
 20
3.45892220163497
 10
25.73281957163618
 20
3.312957629137948
 10
25.69332103260629
 20
3.044268075056998
 10
25.65347954251765
 20
2.737149375662778
 10
25.61377939647559
 20
2.395350983105488
 10
25.5843820261693
 20
2.118727535681689
 10
25.55553250100473
 20
1.82683016570585
 10
25.50024944775075
 20
1.205462014552459
 10
25.44946858587166
 20
0.549042731229894
 10
25.40468553260444
 20
-0.1225814461568406
  0
LWPOLYLINE
  5
81E
330
18
100
AcDbEntity
  8
SK3
100
AcDbPolyline
 90
       18
 70
     0
 43
0.0
 10
27.07627282049261
 20
3.966375816774048
 10
27.0647790294187
 20
3.949913070264481
 10
27.05288202432046
 20
3.926342580885798
 10
27.0406081017647
 20
3.895742142648238
 10
27.02798136693764
 20
3.858198315084105
 10
27.00178012518831
 20
3.762667270646278
 10
26.98365521651864
 20
3.684014239335537
 10
26.96510518001898
 20
3.593801675533843
 10
26.94149634148041
 20
3.465738490888665
 10
26.91743936561588
 20
3.320877278507084
 10
26.87824761986537
 20
3.055508761675383
 10
26.83868772217961
 20
2.752105548032536
 10
26.79923301076105
 20
2.414322860364285
 10
26.76999451554586
 20
2.140846235434664
 10
26.74127866459589
 20
1.852157046608974
 10
26.68619283559293
 20
1.237198683614004
 10
26.63552373412275
 20
0.5868155580632612
 10
26.59079984813085
 20
-0.0796117603088122
  0
LWPOLYLINE
  5
81F
330
18
100
AcDbEntity
  8
SK3
100
AcDbPolyline
 90
       20
 70
     0
 43
0.0
 10
32.52767970022496
 20
4.444203062337567
 10
32.52216947378923
 20
4.443361572199846
 10
32.51653762573204
 20
4.440344041159042
 10
32.50492111734637
 20
4.427815918457496
 10
32.49420307499318
 20
4.409432426880946
 10
32.48314975141325
 20
4.384300578848292
 10
32.46892550015284
 20
4.343611024480263
 10
32.45424982449563
 20
4.292676765961465
 10
32.43415267331568
 20
4.209583997621978
 10
32.41341563901015
 20
4.109167270210027
 10
32.39131775737253
 20
3.987141339026953
 10
32.3687279107976
 20
3.847536152935379
 10
32.3284207523385
 20
3.563663618595873
 10
32.28745398832871
 20
3.231967490452482
 10
32.2463568371752
 20
2.856758214080451
 10
32.21576735584044
 20
2.549684437987929
 10
32.18562710752193
 20
2.223077791211377
 10
32.12758620182436
 20
1.521046017076989
 10
32.07402009524462
 20
0.7718842210881034
 10
32.02671257156422
 20
-0.0005105916721297
  0
LWPOLYLINE
  5
820
102
{ACAD_REACTORS
330
AFB
102
}
330
18
100
AcDbEntity
  8
SK3
100
AcDbPolyline
 90
       13
 70
     0
 43
0.0
 10
32.02671257156422
 20
-0.0005105916721297
 10
31.97836633349506
 20
-0.7883721684741887
 10
31.9234536235569
 20
-1.552678595561615
 10
31.89362783834974
 20
-1.923836009265279
 10
31.86285975949878
 20
-2.278950325837898
 10
31.83247407655676
 20
-2.604097513156774
 10
31.80167312699729
 20
-2.909100434613542
 10
31.75438532574199
 20
-3.330695759137526
 10
31.70747334625394
 20
-3.692950689287746
 10
31.6832848875554
 20
-3.857143165341078
 10
31.65953908773138
 20
-4.002495246969614
 10
31.63850402566876
 20
-4.117330162822111
 10
31.61801242598673
 20
-4.215640973509134
  0
LINE
  5
821
330
18
100
AcDbEntity
  8
SK3
100
AcDbLine
 10
34.61941381008233
 20
-4.423988672297237
 30
0.0
 11
34.54645508117491
 21
-4.185351711312113
 31
0.0
  0
LINE
  5
822
330
18
100
AcDbEntity
  8
SK3
100
AcDbLine
 10
33.66010409616958
 20
-4.185351711312113
 30
0.0
 11
33.58714646295245
 21
-4.423988672297237
 31
0.0
  0
LINE
  5
823
330
18
100
AcDbEntity
  8
SK3
100
AcDbLine
 10
33.39853981600217
 20
-4.563550030777522
 30
0.0
 11
32.80290723822761
 21
-4.563550030777522
 31
0.0
  0
LINE
  5
824
330
18
100
AcDbEntity
  8
SK3
100
AcDbLine
 10
36.18254309956796
 20
-4.563550030777522
 30
0.0
 11
34.8080204570326
 21
-4.563550030777522
 31
0.0
  0
LINE
  5
825
330
18
100
AcDbEntity
  8
SK3
100
AcDbLine
 10
31.65499197305486
 20
-4.185351711312113
 30
0.0
 11
31.58203324414744
 21
-4.423988672297237
 31
0.0
  0
LINE
  5
826
330
18
100
AcDbEntity
  8
SK3
100
AcDbLine
 10
32.39496092756517
 20
-4.021183340445015
 30
0.0
 11
31.80137181216933
 21
-4.021183340445015
 31
0.0
  0
LINE
  5
827
330
18
100
AcDbEntity
  8
SK3
100
AcDbLine
 10
32.61430059127734
 20
-4.423988672297237
 30
0.0
 11
32.54134186236991
 21
-4.185351711312113
 31
0.0
  0
LINE
  5
828
330
18
100
AcDbEntity
  8
SK3
100
AcDbLine
 10
26.59895997266775
 20
-4.42398890325671
 30
0.0
 11
26.52600124376034
 21
-4.185351942271585
 31
0.0
  0
LWPOLYLINE
  5
829
330
18
100
AcDbEntity
  8
SK3
100
AcDbPolyline
 90
       17
 70
     0
 43
0.0
 10
25.52459897292097
 20
-0.6483977347570722
 10
25.54604382314963
 20
-1.29149123285172
 10
25.55825419566895
 20
-1.580260407068156
 10
25.57129181435232
 20
-1.84312636729237
 10
25.5897333775139
 20
-2.148757119281553
 10
25.60907669377883
 20
-2.398143897638178
 10
25.62897223794661
 20
-2.586743970446729
 10
25.6392596740184
 20
-2.658619061663725
 10
25.64954053594848
 20
-2.713187724852874
 10
25.65603797932964
 20
-2.738688820511068
 10
25.66249707355086
 20
-2.75702191033458
 10
25.66890357463849
 20
-2.768130018428748
 10
25.67324469954171
 20
-2.771539806590984
 10
25.67540320940021
 20
-2.77196603011125
 10
25.67862234745313
 20
-2.771004014042337
 10
25.68181738031981
 20
-2.768115774455035
 10
25.68812855635278
 20
-2.756550763512683
  0
LINE
  5
82A
330
18
100
AcDbEntity
  8
SK3
100
AcDbLine
 10
36.94952629801797
 20
4.711468219050011
 30
0.0
 11
36.94952629801797
 21
-4.711468219050011
 31
0.0
  0
LINE
  5
82B
330
18
100
AcDbEntity
  8
SK3
100
AcDbLine
 10
36.18254309956796
 20
4.711468219050011
 30
0.0
 11
36.18254309956796
 21
-4.711468219050011
 31
0.0
  0
LINE
  5
82C
330
18
100
AcDbEntity
  8
SK3
100
AcDbLine
 10
36.83995726966796
 20
-4.821037247399973
 30
0.0
 11
36.29211212791796
 21
-4.821037247399973
 31
0.0
  0
ARC
  5
82D
330
18
100
AcDbEntity
  8
SK3
100
AcDbCircle
 10
36.29211212791796
 20
-4.711468219050011
 30
0.0
 40
0.10956902835
100
AcDbArc
 50
180.0
 51
270.0000030000002
  0
ARC
  5
82E
330
18
100
AcDbEntity
  8
SK3
100
AcDbCircle
 10
36.83995726966796
 20
-4.711468219050011
 30
0.0
 40
0.10956902835
100
AcDbArc
 50
270.0000030000002
 51
0.000008999999603
  0
LINE
  5
82F
330
18
100
AcDbEntity
  8
SK3
100
AcDbLine
 10
36.83995726966796
 20
4.821037247399973
 30
0.0
 11
36.29211212791796
 21
4.821037247399973
 31
0.0
  0
ARC
  5
830
330
18
100
AcDbEntity
  8
SK3
100
AcDbCircle
 10
36.29211212791796
 20
4.711468219050011
 30
0.0
 40
0.10956902835
100
AcDbArc
 50
89.99999699999987
 51
180.0
  0
ARC
  5
831
330
18
100
AcDbEntity
  8
SK3
100
AcDbCircle
 10
36.83995726966796
 20
4.711468219050011
 30
0.0
 40
0.10956902835
100
AcDbArc
 50
0.000008999999603
 51
89.99999699999987
  0
ARC
  5
832
330
18
100
AcDbEntity
  8
SK3
100
AcDbCircle
 10
34.8080204570326
 20
-4.366325779747515
 30
0.0
 40
0.19722425103
100
AcDbArc
 50
196.9999989999995
 51
270.0000030000002
  0
ARC
  5
833
330
18
100
AcDbEntity
  8
SK3
100
AcDbCircle
 10
33.39853981600217
 20
-4.366325779747515
 30
0.0
 40
0.19722425103
100
AcDbArc
 50
270.0000030000002
 51
343.0000059999985
  0
ARC
  5
834
330
18
100
AcDbEntity
  8
SK3
100
AcDbCircle
 10
32.80290723822761
 20
-4.366325779747515
 30
0.0
 40
0.19722425103
100
AcDbArc
 50
196.9999989999995
 51
270.0000030000002
  0
ARC
  5
835
330
18
100
AcDbEntity
  8
SK3
100
AcDbCircle
 10
31.39342659719718
 20
-4.366325779747515
 30
0.0
 40
0.19722425103
100
AcDbArc
 50
270.0000030000002
 51
343.0000059999985
  0
ARC
  5
836
330
18
100
AcDbEntity
  8
SK3
100
AcDbCircle
 10
26.78756661961803
 20
-4.366326010706987
 30
0.0
 40
0.19722425103
100
AcDbArc
 50
196.9999989999995
 51
270.0000030000002
  0
ARC
  5
837
330
18
100
AcDbEntity
  8
SK3
100
AcDbCircle
 10
26.18940795674431
 20
4.366325779747516
 30
0.0
 40
0.19722425103
100
AcDbArc
 50
89.99999699999987
 51
162.9999969999978
  0
ARC
  5
838
330
18
100
AcDbEntity
  8
SK3
100
AcDbCircle
 10
26.78504053451888
 20
4.366325779747516
 30
0.0
 40
0.19722425103
100
AcDbArc
 50
17.00000800000034
 51
89.99999699999987
  0
ARC
  5
839
330
18
100
AcDbEntity
  8
SK3
100
AcDbCircle
 10
31.8003506288251
 20
4.366325779747515
 30
0.0
 40
0.19722425103
100
AcDbArc
 50
89.99999699999987
 51
162.9999969999978
  0
ARC
  5
83A
330
18
100
AcDbEntity
  8
SK3
100
AcDbCircle
 10
32.39598320659967
 20
4.366325779747515
 30
0.0
 40
0.19722425103
100
AcDbArc
 50
17.00000800000036
 51
89.99999699999987
  0
ARC
  5
83B
330
18
100
AcDbEntity
  8
SK3
100
AcDbCircle
 10
33.8054638476301
 20
4.366325779747515
 30
0.0
 40
0.19722425103
100
AcDbArc
 50
89.99999699999987
 51
162.9999969999978
  0
ARC
  5
83C
330
18
100
AcDbEntity
  8
SK3
100
AcDbCircle
 10
34.40109642540468
 20
4.366325779747515
 30
0.0
 40
0.19722425103
100
AcDbArc
 50
17.00000800000036
 51
89.99999699999987
  0
ARC
  5
83D
330
18
100
AcDbEntity
  8
SK3
100
AcDbCircle
 10
34.91413696529928
 20
4.262235202814983
 30
0.0
 40
0.2629656680400001
100
AcDbArc
 50
196.9999989999995
 51
246.4435340000008
  0
ARC
  5
83E
330
18
100
AcDbEntity
  8
SK3
100
AcDbCircle
 10
32.90902374649431
 20
4.262235202814983
 30
0.0
 40
0.2629656680400001
100
AcDbArc
 50
196.9999989999995
 51
246.4435340000008
  0
ARC
  5
83F
330
18
100
AcDbEntity
  8
SK3
100
AcDbCircle
 10
27.2980810744135
 20
4.262235202814983
 30
0.0
 40
0.2629656680400001
100
AcDbArc
 50
196.9999989999995
 51
246.4435340000008
  0
ARC
  5
840
330
18
100
AcDbEntity
  8
SK3
100
AcDbCircle
 10
31.28731008893048
 20
4.262235202814983
 30
0.0
 40
0.2629656680400001
100
AcDbArc
 50
293.5564640000016
 51
343.0000059999985
  0
ARC
  5
841
330
18
100
AcDbEntity
  8
SK3
100
AcDbCircle
 10
33.29242330773548
 20
4.262235202814983
 30
0.0
 40
0.2629656680400001
100
AcDbArc
 50
293.5564640000016
 51
343.0000059999985
  0
ARC
  5
842
330
18
100
AcDbEntity
  8
SK3
100
AcDbCircle
 10
35.29753652654048
 20
4.262235202814983
 30
0.0
 40
0.2629656680400001
100
AcDbArc
 50
293.5564640000016
 51
343.0000059999985
  0
ARC
  5
843
330
18
100
AcDbEntity
  8
SK3
100
AcDbCircle
 10
33.91158035589679
 20
-4.262235202814983
 30
0.0
 40
0.2629656680400001
100
AcDbArc
 50
113.5564729999995
 51
162.9999969999978
  0
ARC
  5
844
330
18
100
AcDbEntity
  8
SK3
100
AcDbCircle
 10
31.9064671370918
 20
-4.262235202814983
 30
0.0
 40
0.2629656680400001
100
AcDbArc
 50
113.5564729999995
 51
162.9999969999978
  0
ARC
  5
845
330
18
100
AcDbEntity
  8
SK3
100
AcDbCircle
 10
34.29497991713798
 20
-4.262235202814983
 30
0.0
 40
0.2629656680400001
100
AcDbArc
 50
17.00000800000036
 51
66.44352199999864
  0
ARC
  5
846
330
18
100
AcDbEntity
  8
SK3
100
AcDbCircle
 10
32.28986669833299
 20
-4.262235202814983
 30
0.0
 40
0.2629656680400001
100
AcDbArc
 50
17.00000800000036
 51
66.44352199999864
  0
ARC
  5
847
330
18
100
AcDbEntity
  8
SK3
100
AcDbCircle
 10
26.27452607972341
 20
-4.262235433774455
 30
0.0
 40
0.2629656680400001
100
AcDbArc
 50
17.00000800000034
 51
66.44352199999864
  0
ARC
  5
848
330
18
100
AcDbEntity
  8
SK3
100
AcDbCircle
 10
25.67636741684969
 20
4.262235202814983
 30
0.0
 40
0.2629656680400001
100
AcDbArc
 50
293.5564640000016
 51
343.0000059999985
  0
LINE
  5
849
330
18
100
AcDbEntity
  8
SK3
100
AcDbLine
 10
26.30959860670256
 20
-2.756550763512683
 30
0.0
 11
25.66229217946785
 21
-2.756550763512683
 31
0.0
  0
LWPOLYLINE
  5
84A
330
18
100
AcDbEntity
  8
SK3
100
AcDbPolyline
 90
       10
 70
     0
 43
0.0
 10
25.52459897292097
 20
-0.6483977347570722
 10
25.51571292472178
 20
-0.5678666903004195
 10
25.50494995906696
 20
-0.4905931330565469
 10
25.49289079180677
 20
-0.4198279760967374
 10
25.47925602191889
 20
-0.3531639878679904
 10
25.46497041200261
 20
-0.294203798022576
 10
25.4494521505174
 20
-0.2397512780034976
 10
25.4339470373156
 20
-0.1933137324081659
 10
25.41754674515217
 20
-0.1513805695683898
 10
25.40464608775425
 20
-0.1228893351265361
  0
LWPOLYLINE
  5
84B
330
18
100
AcDbEntity
  8
SK3
100
AcDbPolyline
 90
        7
 70
     0
 43
0.0
 10
26.59077245587376
 20
-0.0798243242238352
 10
26.56152300375573
 20
-0.1350701240081578
 10
26.53194046179151
 20
-0.2104470413712844
 10
26.50331445744479
 20
-0.3082034327748864
 10
26.47728085630883
 20
-0.4291391521258925
 10
26.45566069563481
 20
-0.572046748731944
 10
26.44729181324944
 20
-0.6483977347570722
  0
LWPOLYLINE
  5
84C
330
18
100
AcDbEntity
  8
SK3
100
AcDbPolyline
 90
       11
 70
     0
 43
0.0
 10
26.44729181324944
 20
-0.6483977347570722
 10
26.42533089289724
 20
-1.304669099891365
 10
26.41197771541223
 20
-1.616138785401339
 10
26.39766800030971
 20
-1.896587287604893
 10
26.3844079564988
 20
-2.115212561252187
 10
26.3706625218923
 20
-2.3051471848261
 10
26.35050620343703
 20
-2.522613218153455
 10
26.34027793464055
 20
-2.606847695768391
 10
26.33001460375502
 20
-2.674149375742084
 10
26.3163688769643
 20
-2.736920376393543
 10
26.30959860670256
 20
-2.756550763512683
  0
ARC
  5
84D
330
18
100
AcDbEntity
  8
SK3
100
AcDbCircle
 10
35.8105770664351
 20
4.366325779747515
 30
0.0
 40
0.19722425103
100
AcDbArc
 50
89.99999699999987
 51
162.9999969999978
  0
LINE
  5
84E
330
18
100
AcDbEntity
  8
SK3
100
AcDbLine
 10
31.39342659719718
 20
-4.563550030777522
 30
0.0
 11
30.79779401942261
 21
-4.563550030777522
 31
0.0
  0
LINE
  5
84F
330
18
100
AcDbEntity
  8
SK3
100
AcDbLine
 10
26.78504053451888
 20
4.563550030777523
 30
0.0
 11
26.18940795674431
 21
4.563550030777523
 31
0.0
  0
LINE
  5
850
330
18
100
AcDbEntity
  8
SK3
100
AcDbLine
 10
25.78146164608187
 20
4.021183340445016
 30
0.0
 11
24.85209605192689
 21
4.021183340445016
 31
0.0
  0
LINE
  5
851
330
18
100
AcDbEntity
  8
SK3
100
AcDbLine
 10
26.78401935117466
 20
-4.021183340445015
 30
0.0
 11
24.85209605192689
 21
-4.021183340445015
 31
0.0
  0
LWPOLYLINE
  5
852
330
18
100
AcDbEntity
  8
SK3
100
AcDbPolyline
 90
       14
 70
     0
 43
0.0
 10
25.59520525478971
 20
-2.226275015458654
 10
25.60804345784148
 20
-2.386519719420475
 10
25.62113257396817
 20
-2.520314459938683
 10
25.63149451697923
 20
-2.60596566509016
 10
25.64189261776965
 20
-2.674241413725912
 10
25.65070525471984
 20
-2.718273919148931
 10
25.65947077698783
 20
-2.749313729190188
 10
25.6640409011603
 20
-2.7603539044867
 10
25.66858472876599
 20
-2.767746526829494
 10
25.67309458997288
 20
-2.771478447935079
 10
25.67563659143059
 20
-2.771960551659844
 10
25.67816544460491
 20
-2.771258214188088
 10
25.68151606549185
 20
-2.768471873797208
 10
25.68812855635278
 20
-2.756550763512683
  0
LINE
  5
853
330
18
100
AcDbEntity
  8
SK3
100
AcDbLine
 10
34.40007414637018
 20
-4.021183340445015
 30
0.0
 11
33.80648503097433
 21
-4.021183340445015
 31
0.0
  0
LINE
  5
854
330
18
100
AcDbEntity
  8
SK3
100
AcDbLine
 10
24.30425091017689
 20
3.83491599225
 30
0.0
 11
24.30425091017689
 21
-3.83491599225
 31
0.0
  0
LINE
  5
855
330
18
100
AcDbEntity
  8
SK3
100
AcDbLine
 10
24.555854269977
 20
-3.83491599225
 30
0.0
 11
24.30425091017689
 21
-3.83491599225
 31
0.0
  0
LINE
  5
856
330
18
100
AcDbEntity
  8
SK3
100
AcDbLine
 10
24.555854269977
 20
3.83491599225
 30
0.0
 11
24.30425091017689
 21
3.83491599225
 31
0.0
  0
LINE
  5
857
330
18
100
AcDbEntity
  8
SK3
100
AcDbLine
 10
24.30425091017689
 20
3.83491599225
 30
0.0
 11
22.00000109569298
 21
0.0000000000000004
 31
0.0
  0
LINE
  5
858
330
18
100
AcDbEntity
  8
SK3
100
AcDbLine
 10
24.30425091017689
 20
-3.83491599225
 30
0.0
 11
22.00000109569298
 21
0.0000000000000004
 31
0.0
  0
LINE
  5
859
330
18
100
AcDbEntity
  8
SK3
100
AcDbLine
 10
38.10000109569296
 20
4.998686991515286
 30
0.0
 11
37.82607852481797
 21
4.724764420640284
 31
0.0
  0
LINE
  5
85A
330
18
100
AcDbEntity
  8
SK3
100
AcDbLine
 10
38.10000109569296
 20
-4.998686991515286
 30
0.0
 11
37.82607852481797
 21
-4.724764420640284
 31
0.0
  0
ARC
  5
85B
330
18
100
AcDbEntity
  8
SK3
100
AcDbCircle
 10
24.85209605192689
 20
-3.692476255395003
 30
0.0
 40
0.32870708505
100
AcDbArc
 50
205.6792880000029
 51
270.0000030000002
  0
ARC
  5
85C
330
18
100
AcDbEntity
  8
SK3
100
AcDbCircle
 10
24.85209605192689
 20
3.692476255395004
 30
0.0
 40
0.32870708505
100
AcDbArc
 50
89.99999699999987
 51
154.3207119999971
  0
LINE
  5
860
330
18
100
AcDbEntity
  8
SK1
100
AcDbLine
 10
-1.700904205317733
 20
4.793128844736611
 30
0.0
 11
-1.700904205317733
 21
-4.793128844736611
 31
0.0
  0
LINE
  5
861
330
18
100
AcDbEntity
  8
SK1
100
AcDbLine
 10
-3.175565360572928
 20
-4.631855742000015
 30
0.0
 11
-3.903187072697541
 21
-4.631855742000015
 31
0.0
  0
LWPOLYLINE
  5
862
330
18
100
AcDbEntity
  8
SK1
100
AcDbPolyline
 90
       20
 70
     0
 43
0.0
 10
-3.11601051466394
 20
-4.571084893087219
 10
-3.121676930885536
 20
-4.570219378437626
 10
-3.127469567993533
 20
-4.567115696998785
 10
-3.139418854230138
 20
-4.554229896863973
 10
-3.150444023262735
 20
-4.535321557292387
 10
-3.161812918816328
 20
-4.509472195940972
 10
-3.176442144944543
 20
-4.4676209563218
 10
-3.191535683619136
 20
-4.415232526632583
 10
-3.212207734683736
 20
-4.329767462873403
 10
-3.233537937513142
 20
-4.226483841659979
 10
-3.25626671284274
 20
-4.100974074718213
 10
-3.279499244745748
 20
-3.957383165799626
 10
-3.320957171067139
 20
-3.665406081251384
 10
-3.36309466162514
 20
-3.324240041089781
 10
-3.405365134902742
 20
-2.938318553949573
 10
-3.436827944782343
 20
-2.622477833066428
 10
-3.467827569087742
 20
-2.286546578773806
 10
-3.527526667438337
 20
-1.56447182381762
 10
-3.582620957379745
 20
-0.7939214866506084
 10
-3.631280236059142
 20
0.0005251690452193
  0
LWPOLYLINE
  5
863
330
18
100
AcDbEntity
  8
SK1
100
AcDbPolyline
 90
       13
 70
     0
 43
0.0
 10
-3.631280236059142
 20
0.0005251690452193
 10
-3.681005630439745
 20
0.8108801643161843
 10
-3.737486096187143
 20
1.597007511231604
 10
-3.768164533415538
 20
1.978761455176227
 10
-3.799809912791541
 20
2.34401427216841
 10
-3.831064232814137
 20
2.678444399490579
 10
-3.862743421356134
 20
2.992155142915785
 10
-3.911383541508136
 20
3.425786998142973
 10
-3.959633729278944
 20
3.798384292962588
 10
-3.984512767566143
 20
3.967264458049198
 10
-4.008937636056749
 20
4.116766336156787
 10
-4.030572121380141
 20
4.234879784549986
 10
-4.051648755464547
 20
4.335997365194971
  0
LWPOLYLINE
  5
864
330
18
100
AcDbEntity
  8
SK1
100
AcDbPolyline
 90
       13
 70
     0
 43
0.0
 10
-2.004682942744334
 20
-4.328418477150015
 10
-2.025519531750138
 20
-4.227699844663783
 10
-2.046927495661339
 20
-4.110083391010815
 10
-2.071438014039139
 20
-3.959143496376001
 10
-2.096416225879943
 20
-3.788605555183216
 10
-2.14453455790333
 20
-3.415243046239808
 10
-2.193006759197539
 20
-2.981685571177825
 10
-2.22443688688334
 20
-2.669773475383826
 10
-2.255425241466738
 20
-2.337698719959604
 10
-2.287021034065936
 20
-1.972635234296993
 10
-2.317636360851131
 20
-1.59120135045719
 10
-2.373817051993336
 20
-0.8083929366707863
 10
-2.423415098515334
 20
0.0002603305781834
  0
LWPOLYLINE
  5
865
330
18
100
AcDbEntity
  8
SK1
100
AcDbPolyline
 90
       20
 70
     0
 43
0.0
 10
-2.423415098515334
 20
0.0002603305781834
 10
-2.472028171334541
 20
0.7936758067109877
 10
-2.527114572470537
 20
1.564068367770014
 10
-2.586830575404135
 20
2.28643500852603
 10
-2.617845977320344
 20
2.62257587964777
 10
-2.649325691782934
 20
2.938625090387968
 10
-2.691618704504541
 20
3.32478324169022
 10
-2.733776480562143
 20
3.666098042182231
 10
-2.775250184494338
 20
3.958117951674028
 10
-2.798469192730934
 20
4.101573623928573
 10
-2.821183317421937
 20
4.226943646317572
 10
-2.842528170889936
 20
4.330252060919399
 10
-2.863210364704329
 20
4.415688950373585
 10
-2.878291506684736
 20
4.467965809815027
 10
-2.892902701257746
 20
4.509712241019608
 10
-2.904269342866948
 20
4.535508634677627
 10
-2.915287750066331
 20
4.554359498666966
 10
-2.927219004747747
 20
4.567175426525426
 10
-2.933001499105937
 20
4.570247552742621
 10
-2.93865889954994
 20
4.571084893087219
  0
LINE
  5
866
330
18
100
AcDbEntity
  8
SK1
100
AcDbLine
 10
-1.953747180220934
 20
-4.51084935596942
 30
0.0
 11
-2.027065737608543
 21
-4.271034179698191
 31
0.0
  0
ARC
  5
867
330
18
100
AcDbEntity
  8
SK1
100
AcDbCircle
 10
-1.813602552289941
 20
-4.744552961999976
 30
0.0
 40
0.11269722
100
AcDbArc
 50
0.000008999999603
 51
89.99999699999987
  0
LINE
  5
868
330
18
100
AcDbEntity
  8
SK1
100
AcDbLine
 10
-1.813602552289941
 20
-4.631855742000015
 30
0.0
 11
-1.840827946697539
 21
-4.631855742000015
 31
0.0
  0
LINE
  5
869
330
18
100
AcDbEntity
  8
SK1
100
AcDbLine
 10
-2.285720508147139
 20
-4.079639364000005
 30
0.0
 11
-2.730670545178936
 21
-4.079639364000005
 31
0.0
  0
ARC
  5
86A
330
18
100
AcDbEntity
  8
SK1
100
AcDbCircle
 10
-2.285720508147139
 20
-4.350112692000015
 30
0.0
 40
0.270473328
100
AcDbArc
 50
17.00000800000034
 51
89.99999699999987
  0
ARC
  5
86B
330
18
100
AcDbEntity
  8
SK1
100
AcDbCircle
 10
-1.759756947546135
 20
-4.445905328999992
 30
0.0
 40
0.202854996
100
AcDbArc
 50
196.9999989999995
 51
246.4435340000008
  0
LINE
  5
86C
330
18
100
AcDbEntity
  8
SK1
100
AcDbLine
 10
-2.989325315717533
 20
-4.271034179698191
 30
0.0
 11
-3.062643873105143
 21
-4.51084935596942
 31
0.0
  0
ARC
  5
86D
330
18
100
AcDbEntity
  8
SK1
100
AcDbCircle
 10
-3.256636359724336
 20
-4.445905328999992
 30
0.0
 40
0.202854996
100
AcDbArc
 50
293.5564640000016
 51
343.0000059999985
  0
ARC
  5
86E
330
18
100
AcDbEntity
  8
SK1
100
AcDbCircle
 10
-2.730670545178936
 20
-4.350112692000015
 30
0.0
 40
0.270473328
100
AcDbArc
 50
89.99999699999987
 51
162.9999969999978
  0
ARC
  5
86F
330
18
100
AcDbEntity
  8
SK1
100
AcDbCircle
 10
-3.822116073546133
 20
-4.445905328999992
 30
0.0
 40
0.202854996
100
AcDbArc
 50
196.9999989999995
 51
246.4435340000008
  0
ARC
  5
870
330
18
100
AcDbEntity
  8
SK1
100
AcDbCircle
 10
-5.884474072573932
 20
-4.445905328999992
 30
0.0
 40
0.202854996
100
AcDbArc
 50
196.9999989999995
 51
246.4435340000008
  0
ARC
  5
871
330
18
100
AcDbEntity
  8
SK1
100
AcDbCircle
 10
-7.946835452518342
 20
-4.445905328999992
 30
0.0
 40
0.202854996
100
AcDbArc
 50
196.9999989999995
 51
246.4435340000008
  0
LINE
  5
872
330
18
100
AcDbEntity
  8
SK1
100
AcDbLine
 10
-5.23792223262855
 20
-4.631855742000015
 30
0.0
 11
-5.965546198697552
 21
-4.631855742000015
 31
0.0
  0
LINE
  5
873
330
18
100
AcDbEntity
  8
SK1
100
AcDbLine
 10
-7.300283612572942
 20
-4.631855742000015
 30
0.0
 11
-8.027903070753138
 21
-4.631855742000015
 31
0.0
  0
ARC
  5
874
330
18
100
AcDbEntity
  8
SK1
100
AcDbCircle
 10
-5.31899323177994
 20
-4.445905328999992
 30
0.0
 40
0.202854996
100
AcDbArc
 50
293.5564640000016
 51
343.0000059999985
  0
ARC
  5
875
330
18
100
AcDbEntity
  8
SK1
100
AcDbCircle
 10
-7.381354611724332
 20
-4.445905328999992
 30
0.0
 40
0.202854996
100
AcDbArc
 50
293.5564640000016
 51
343.0000059999985
  0
LINE
  5
876
330
18
100
AcDbEntity
  8
SK1
100
AcDbLine
 10
-4.016106306220946
 20
-4.51084935596942
 30
0.0
 11
-4.089424863608542
 21
-4.271034179698191
 31
0.0
  0
LINE
  5
877
330
18
100
AcDbEntity
  8
SK1
100
AcDbLine
 10
-6.078465432220928
 20
-4.51084935596942
 30
0.0
 11
-6.151783989608539
 21
-4.271034179698191
 31
0.0
  0
LINE
  5
878
330
18
100
AcDbEntity
  8
SK1
100
AcDbLine
 10
-8.140826812165338
 20
-4.51084935596942
 30
0.0
 11
-8.214143115608536
 21
-4.271034179698191
 31
0.0
  0
LINE
  5
879
330
18
100
AcDbEntity
  8
SK1
100
AcDbLine
 10
-5.051684441717549
 20
-4.271034179698191
 30
0.0
 11
-5.125002999105142
 21
-4.51084935596942
 31
0.0
  0
LINE
  5
87A
330
18
100
AcDbEntity
  8
SK1
100
AcDbLine
 10
-7.114043567717547
 20
-4.271034179698191
 30
0.0
 11
-7.187362125105138
 21
-4.51084935596942
 31
0.0
  0
ARC
  5
87B
330
18
100
AcDbEntity
  8
SK1
100
AcDbCircle
 10
-4.34807963414714
 20
-4.350112692000015
 30
0.0
 40
0.270473328
100
AcDbArc
 50
17.00000800000034
 51
89.99999699999987
  0
ARC
  5
87C
330
18
100
AcDbEntity
  8
SK1
100
AcDbCircle
 10
-6.410438760147151
 20
-4.350112692000015
 30
0.0
 40
0.270473328
100
AcDbArc
 50
17.00000800000034
 51
89.99999699999987
  0
ARC
  5
87D
330
18
100
AcDbEntity
  8
SK1
100
AcDbCircle
 10
-8.472800140091527
 20
-4.350112692000015
 30
0.0
 40
0.270473328
100
AcDbArc
 50
17.00000800000034
 51
89.99999699999987
  0
ARC
  5
87E
330
18
100
AcDbEntity
  8
SK1
100
AcDbCircle
 10
-4.793029671178953
 20
-4.350112692000015
 30
0.0
 40
0.270473328
100
AcDbArc
 50
89.99999699999987
 51
162.9999969999978
  0
ARC
  5
87F
330
18
100
AcDbEntity
  8
SK1
100
AcDbCircle
 10
-6.855388797178934
 20
-4.350112692000015
 30
0.0
 40
0.270473328
100
AcDbArc
 50
89.99999699999987
 51
162.9999969999978
  0
LINE
  5
880
330
18
100
AcDbEntity
  8
SK1
100
AcDbLine
 10
-4.34807963414714
 20
-4.079639364000005
 30
0.0
 11
-4.793029671178953
 21
-4.079639364000005
 31
0.0
  0
LINE
  5
881
330
18
100
AcDbEntity
  8
SK1
100
AcDbLine
 10
-6.410438760147151
 20
-4.079639364000005
 30
0.0
 11
-6.855388797178934
 21
-4.079639364000005
 31
0.0
  0
LINE
  5
882
330
18
100
AcDbEntity
  8
SK1
100
AcDbLine
 10
-8.472800140091527
 20
-4.079639364000005
 30
0.0
 11
-8.669180680802547
 21
-4.079639364000005
 31
0.0
  0
LWPOLYLINE
  5
883
330
18
100
AcDbEntity
  8
SK1
100
AcDbPolyline
 90
       13
 70
     0
 43
0.0
 10
-4.067040941772138
 20
-4.328418477150015
 10
-4.087880911694533
 20
-4.227699844663783
 10
-4.10928662166134
 20
-4.110083391010815
 10
-4.133797140039138
 20
-3.959143496376001
 10
-4.158774224907745
 20
-3.788605555183216
 10
-4.206893683903331
 20
-3.415243046239808
 10
-4.255365885197541
 20
-2.981685571177825
 10
-4.286793758938948
 20
-2.669773475383826
 10
-4.317786621411134
 20
-2.337698719959604
 10
-4.349380160065937
 20
-1.972635234296993
 10
-4.379995486851147
 20
-1.59120135045719
 10
-4.436176177993335
 20
-0.8083929366707863
 10
-4.485774224515353
 20
0.0002603305781834
  0
LWPOLYLINE
  5
884
330
18
100
AcDbEntity
  8
SK1
100
AcDbPolyline
 90
       20
 70
     0
 43
0.0
 10
-4.485774224515353
 20
0.0002603305781834
 10
-4.53438617036234
 20
0.7936758067109877
 10
-4.589473698470538
 20
1.564068367770014
 10
-4.649189701404137
 20
2.28643500852603
 10
-4.680205103320343
 20
2.62257587964777
 10
-4.711684817782933
 20
2.938625090387968
 10
-4.753976703532345
 20
3.32478324169022
 10
-4.796135606562141
 20
3.666098042182231
 10
-4.83760931049434
 20
3.958117951674028
 10
-4.860830572675341
 20
4.101573623928573
 10
-4.883542443421933
 20
4.226943646317572
 10
-4.904887296889953
 20
4.330252060919399
 10
-4.925569490704344
 20
4.415688950373585
 10
-4.940650632684736
 20
4.467965809815027
 10
-4.955262954229943
 20
4.509712241019608
 10
-4.966628468866931
 20
4.535508634677627
 10
-4.977646876066346
 20
4.554359498666966
 10
-4.98957813074773
 20
4.567175426525426
 10
-4.995360625105938
 20
4.570247552742621
 10
-5.001018025549938
 20
4.571084893087219
  0
LWPOLYLINE
  5
885
330
18
100
AcDbEntity
  8
SK1
100
AcDbPolyline
 90
       13
 70
     0
 43
0.0
 10
-6.129400067772133
 20
-4.328418477150015
 10
-6.150237783750133
 20
-4.227699844663783
 10
-6.171645747661337
 20
-4.110083391010815
 10
-6.196156266039134
 20
-3.959143496376001
 10
-6.221133350907745
 20
-3.788605555183216
 10
-6.269252809903345
 20
-3.415243046239808
 10
-6.317725011197552
 20
-2.981685571177825
 10
-6.34915513888334
 20
-2.669773475383826
 10
-6.380143493466754
 20
-2.337698719959604
 10
-6.411741540010345
 20
-1.972635234296993
 10
-6.442354612851127
 20
-1.59120135045719
 10
-6.498535303993332
 20
-0.8083929366707863
 10
-6.548133350515332
 20
0.0002603305781834
  0
LWPOLYLINE
  5
886
330
18
100
AcDbEntity
  8
SK1
100
AcDbPolyline
 90
       20
 70
     0
 43
0.0
 10
-6.548133350515332
 20
0.0002603305781834
 10
-6.596746423334536
 20
0.7936758067109877
 10
-6.651835078414942
 20
1.564068367770014
 10
-6.711548827404133
 20
2.28643500852603
 10
-6.74256422932034
 20
2.62257587964777
 10
-6.774043943782931
 20
2.938625090387968
 10
-6.816338083476736
 20
3.32478324169022
 10
-6.858494732562139
 20
3.666098042182231
 10
-6.899968436494336
 20
3.958117951674028
 10
-6.923187444730945
 20
4.101573623928573
 10
-6.945901569421947
 20
4.226943646317572
 10
-6.967246422889932
 20
4.330252060919399
 10
-6.987930870648735
 20
4.415688950373585
 10
-7.003009758684733
 20
4.467965809815027
 10
-7.017619826285544
 20
4.509712241019608
 10
-7.028986467894744
 20
4.535508634677627
 10
-7.040006002066345
 20
4.554359498666966
 10
-7.051937256747745
 20
4.567175426525426
 10
-7.057722005050347
 20
4.570247552742621
 10
-7.063377151549936
 20
4.571084893087219
  0
LWPOLYLINE
  5
887
330
18
100
AcDbEntity
  8
SK1
100
AcDbPolyline
 90
       11
 70
     0
 43
0.0
 10
-8.191761447716544
 20
-4.328418477150015
 10
-8.209744543111927
 20
-4.242215246599778
 10
-8.228157014915549
 20
-4.143438387214176
 10
-8.26603680450194
 20
-3.909490228216196
 10
-8.304929742096135
 20
-3.629489477237417
 10
-8.333058968208142
 20
-3.40324079230981
 10
-8.361307653373337
 20
-3.156555593507428
 10
-8.392343340789143
 20
-2.863052588600396
 10
-8.423098412127147
 20
-2.548636360577976
 10
-8.480194204695735
 20
-1.898907586000776
 10
-8.53392373130293
 20
-1.198665663475227
  0
LWPOLYLINE
  5
888
330
18
100
AcDbEntity
  8
SK1
100
AcDbPolyline
 90
       20
 70
     0
 43
0.0
 10
-5.178371894608336
 20
-4.571084893087219
 10
-5.18403718385773
 20
-4.570219378437626
 10
-5.189828693993547
 20
-4.567115696998785
 10
-5.201777980230136
 20
-4.554229896863973
 10
-5.212803149262748
 20
-4.535321557292387
 10
-5.224172044816343
 20
-4.509472195940972
 10
-5.238801270944541
 20
-4.4676209563218
 10
-5.253894809619136
 20
-4.415232526632583
 10
-5.274566860683737
 20
-4.329767462873403
 10
-5.29589480956873
 20
-4.226483841659979
 10
-5.318623584898346
 20
-4.100974074718213
 10
-5.341860624690141
 20
-3.957383165799626
 10
-5.383316297067134
 20
-3.665406081251384
 10
-5.425453787625136
 20
-3.324240041089781
 10
-5.467724260902739
 20
-2.938318553949573
 10
-5.499187070782338
 20
-2.622477833066428
 10
-5.530188949032136
 20
-2.286546578773806
 10
-5.589885793438334
 20
-1.56447182381762
 10
-5.64498008337974
 20
-0.7939214866506084
 10
-5.693639362059142
 20
0.0005251690452193
  0
LWPOLYLINE
  5
889
330
18
100
AcDbEntity
  8
SK1
100
AcDbPolyline
 90
       13
 70
     0
 43
0.0
 10
-5.693639362059142
 20
0.0005251690452193
 10
-5.743367010384137
 20
0.8108801643161843
 10
-5.799847476131534
 20
1.597007511231604
 10
-5.830523659415534
 20
1.978761455176227
 10
-5.862171292735933
 20
2.34401427216841
 10
-5.893423358814136
 20
2.678444399490579
 10
-5.925102547356138
 20
2.992155142915785
 10
-5.973742667508151
 20
3.425786998142973
 10
-6.021992855278941
 20
3.798384292962588
 10
-6.046871893566141
 20
3.967264458049198
 10
-6.071294508112337
 20
4.116766336156787
 10
-6.092931247380137
 20
4.234879784549986
 10
-6.114007881464544
 20
4.335997365194971
  0
LWPOLYLINE
  5
88A
330
18
100
AcDbEntity
  8
SK1
100
AcDbPolyline
 90
       18
 70
     0
 43
0.0
 10
-7.240728766663937
 20
-4.571084893087219
 10
-7.251733650196936
 20
-4.567240790912988
 10
-7.263182560776741
 20
-4.55527798101002
 10
-7.273423357158132
 20
-4.538418476897986
 10
-7.283963928144737
 20
-4.515560099765377
 10
-7.29822012647473
 20
-4.476552211006802
 10
-7.31292711368474
 20
-4.427416223086773
 10
-7.332156640333334
 20
-4.350803525958601
 10
-7.351981208303544
 20
-4.258454916001777
 10
-7.374093529839727
 20
-4.140791129516397
 10
-7.396726512532342
 20
-4.005516148461627
 10
-7.436301268307545
 20
-3.735493609341631
 10
-7.476634476373341
 20
-3.419129973357596
 10
-7.517243792628139
 20
-3.060243422323217
 10
-7.547581884252146
 20
-2.765761078574423
 10
-7.577589773021536
 20
-2.451813670987173
 10
-7.635773093763144
 20
-1.774440268344005
 10
-7.690075122247936
 20
-1.047615325564771
  0
ARC
  5
88B
330
18
100
AcDbEntity
  8
SK1
100
AcDbCircle
 10
-2.790935383573943
 20
4.445905328999992
 30
0.0
 40
0.202854996
100
AcDbArc
 50
113.5564729999995
 51
162.9999969999978
  0
LINE
  5
88C
330
18
100
AcDbEntity
  8
SK1
100
AcDbLine
 10
-2.984927870193136
 20
4.51084935596942
 30
0.0
 11
-3.058246427580745
 21
4.271034179698191
 31
0.0
  0
ARC
  5
88D
102
{ACAD_REACTORS
330
AFE
102
}
330
18
100
AcDbEntity
  8
SK1
100
AcDbCircle
 10
-3.316901198119345
 20
4.350112692000015
 30
0.0
 40
0.270473328
100
AcDbArc
 50
270.0000030000002
 51
343.0000059999985
  0
LINE
  5
88E
330
18
100
AcDbEntity
  8
SK1
100
AcDbLine
 10
-3.316901198119345
 20
4.079639364000005
 30
0.0
 11
-3.761848981206731
 21
4.079639364000005
 31
0.0
  0
ARC
  5
88F
330
18
100
AcDbEntity
  8
SK1
100
AcDbCircle
 10
-3.761848981206731
 20
4.350112692000015
 30
0.0
 40
0.270473328
100
AcDbArc
 50
196.9999989999995
 51
270.0000030000002
  0
LINE
  5
890
330
18
100
AcDbEntity
  8
SK1
100
AcDbLine
 10
-4.020506005689738
 20
4.271034179698191
 30
0.0
 11
-4.093824563077347
 21
4.51084935596942
 31
0.0
  0
ARC
  5
891
330
18
100
AcDbEntity
  8
SK1
100
AcDbCircle
 10
-4.287814795752145
 20
4.445905328999992
 30
0.0
 40
0.202854996
100
AcDbArc
 50
17.00000800000034
 51
66.44352199999864
  0
LINE
  5
892
330
18
100
AcDbEntity
  8
SK1
100
AcDbLine
 10
-4.20674379660074
 20
4.631855742000015
 30
0.0
 11
-4.934365508725335
 21
4.631855742000015
 31
0.0
  0
LINE
  5
893
330
18
100
AcDbEntity
  8
SK1
100
AcDbLine
 10
-1.813602552289941
 20
4.631855742000015
 30
0.0
 11
-2.87200638272535
 21
4.631855742000015
 31
0.0
  0
ARC
  5
894
330
18
100
AcDbEntity
  8
SK1
100
AcDbCircle
 10
-1.813602552289941
 20
4.744552961999976
 30
0.0
 40
0.11269722
100
AcDbArc
 50
270.0000030000002
 51
0.000008999999603
  0
LINE
  5
895
330
18
100
AcDbEntity
  8
SK1
100
AcDbLine
 10
-6.269102922600738
 20
4.631855742000015
 30
0.0
 11
-6.996724634725346
 21
4.631855742000015
 31
0.0
  0
ARC
  5
896
330
18
100
AcDbEntity
  8
SK1
100
AcDbCircle
 10
-6.350173921752142
 20
4.445905328999992
 30
0.0
 40
0.202854996
100
AcDbArc
 50
17.00000800000034
 51
66.44352199999864
  0
LINE
  5
897
330
18
100
AcDbEntity
  8
SK1
100
AcDbLine
 10
-6.082862877745343
 20
4.271034179698191
 30
0.0
 11
-6.156183689077329
 21
4.51084935596942
 31
0.0
  0
ARC
  5
898
330
18
100
AcDbEntity
  8
SK1
100
AcDbCircle
 10
-5.824210361151141
 20
4.350112692000015
 30
0.0
 40
0.270473328
100
AcDbArc
 50
196.9999989999995
 51
270.0000030000002
  0
LINE
  5
899
330
18
100
AcDbEntity
  8
SK1
100
AcDbLine
 10
-5.379260324119341
 20
4.079639364000005
 30
0.0
 11
-5.824210361151141
 21
4.079639364000005
 31
0.0
  0
LINE
  5
89A
330
18
100
AcDbEntity
  8
SK1
100
AcDbLine
 10
-7.44161945011934
 20
4.079639364000005
 30
0.0
 11
-7.867634100246736
 21
4.079639364000005
 31
0.0
  0
ARC
  5
89B
330
18
100
AcDbEntity
  8
SK1
100
AcDbCircle
 10
-5.379260324119341
 20
4.350112692000015
 30
0.0
 40
0.270473328
100
AcDbArc
 50
270.0000030000002
 51
343.0000059999985
  0
ARC
  5
89C
330
18
100
AcDbEntity
  8
SK1
100
AcDbCircle
 10
-7.44161945011934
 20
4.350112692000015
 30
0.0
 40
0.270473328
100
AcDbArc
 50
270.0000030000002
 51
343.0000059999985
  0
LINE
  5
89D
330
18
100
AcDbEntity
  8
SK1
100
AcDbLine
 10
-5.047284742248741
 20
4.51084935596942
 30
0.0
 11
-5.120605553580745
 21
4.271034179698191
 31
0.0
  0
LINE
  5
89E
330
18
100
AcDbEntity
  8
SK1
100
AcDbLine
 10
-7.109646122193151
 20
4.51084935596942
 30
0.0
 11
-7.182964679580742
 21
4.271034179698191
 31
0.0
  0
ARC
  5
89F
330
18
100
AcDbEntity
  8
SK1
100
AcDbCircle
 10
-4.853294509573941
 20
4.445905328999992
 30
0.0
 40
0.202854996
100
AcDbArc
 50
113.5564729999995
 51
162.9999969999978
  0
ARC
  5
8A0
330
18
100
AcDbEntity
  8
SK1
100
AcDbCircle
 10
-6.915652508601745
 20
4.445905328999992
 30
0.0
 40
0.202854996
100
AcDbArc
 50
113.5564729999995
 51
162.9999969999978
  0
LINE
  5
8A1
330
18
100
AcDbEntity
  8
SK1
100
AcDbLine
 10
-8.969873768345539
 20
3.784294886518209
 30
0.0
 11
-8.969873768345539
 21
-3.999068740505368
 31
0.0
  0
LWPOLYLINE
  5
8A2
330
18
100
AcDbEntity
  8
SK1
100
AcDbPolyline
 90
        5
 70
     0
 43
0.0
 10
-8.969830943401937
 20
0.281291134147788
 10
-8.900908704566525
 20
-0.0228256949388257
 10
-8.838812536346546
 20
-0.3282926367210255
 10
-8.78270622536953
 20
-0.6338441014182044
 10
-8.728378276524141
 20
-0.9397257689699822
  0
LWPOLYLINE
  5
8A3
330
18
100
AcDbEntity
  8
SK1
100
AcDbPolyline
 90
       11
 70
     0
 43
0.0
 10
-8.728378276524141
 20
-0.9397257689699822
 10
-8.712941011328535
 20
-1.003149510441605
 10
-8.691101417064736
 20
-1.061118706465224
 10
-8.664236653761136
 20
-1.11161720377501
 10
-8.648544692848336
 20
-1.134515024934581
 10
-8.632036804062742
 20
-1.154491734151825
 10
-8.616650252616134
 20
-1.169732906184582
 10
-8.600912085843152
 20
-1.182156647717405
 10
-8.578444768063951
 20
-1.194458676252613
 10
-8.555981958173539
 20
-1.20016002861237
 10
-8.53392373130293
 20
-1.198665663475227
  0
LWPOLYLINE
  5
8A4
330
18
100
AcDbEntity
  8
SK1
100
AcDbPolyline
 90
       11
 70
     0
 43
0.0
 10
-7.756078503085347
 20
-0.9902625833345981
 10
-7.747595783335935
 20
-0.9894060844625823
 10
-7.739105174781142
 20
-0.9853512384869699
 10
-7.730687819419325
 20
-0.9782941385705791
 10
-7.722415843471345
 20
-0.9684308778762256
 10
-7.706616820199537
 20
-0.9410725007489768
 10
-7.696114566267731
 20
-0.9157460544983877
 10
-7.686596159066542
 20
-0.8864019523548197
 10
-7.677671666214743
 20
-0.8508966931937765
 10
-7.670393679747146
 20
-0.8121536429021723
 10
-7.661889547525941
 20
-0.7311829442765854
  0
LWPOLYLINE
  5
8A5
330
18
100
AcDbEntity
  8
SK1
100
AcDbPolyline
 90
       16
 70
     0
 43
0.0
 10
-7.661889547525941
 20
-0.7311829442765854
 10
-7.644036053933532
 20
-0.4254522909996107
 10
-7.626590524277537
 20
-0.1199042072190233
 10
-7.604475948796942
 20
0.1848166789668024
 10
-7.591114566393747
 20
0.330666040174191
 10
-7.576438007433142
 20
0.4686570242310247
 10
-7.555183311741139
 20
0.6363933125345742
 10
-7.53251426593815
 20
0.781072876598369
 10
-7.509070990233745
 20
0.8984842213110081
 10
-7.495666782886932
 20
0.9517178801502057
 10
-7.482386542482142
 20
0.9944628087240275
 10
-7.472481583816348
 20
1.019617955200199
 10
-7.46280878142373
 20
1.038294138498597
 10
-7.455535302844943
 20
1.048192335331191
 10
-7.448480456872944
 20
1.054076257187396
 10
-7.44167016386834
 20
1.055900825179203
  0
LINE
  5
8A6
330
18
100
AcDbEntity
  8
SK1
100
AcDbLine
 10
-0.1067986475011384
 20
-4.887366260100606
 30
0.0
 11
-1.690223889778328
 21
-4.804382789125777
 31
0.0
  0
LINE
  5
8A7
330
18
100
AcDbEntity
  8
SK1
100
AcDbLine
 10
-0.1067986475011384
 20
4.887366260100606
 30
0.0
 11
-1.690223889778328
 21
4.804382789125776
 31
0.0
  0
ARC
  5
8A8
330
18
100
AcDbEntity
  8
SK1
100
AcDbCircle
 10
-0.1126972199959404
 20
4.999909084909172
 30
0.0
 40
0.11269722
100
AcDbArc
 50
272.999999
 51
0.4377690000015681
  0
ARC
  5
8A9
330
18
100
AcDbEntity
  8
SK1
100
AcDbCircle
 10
-0.1126972199959404
 20
-4.999909084909171
 30
0.0
 40
0.11269722
100
AcDbArc
 50
359.5622309999985
 51
86.99998700000056
  0
LWPOLYLINE
  5
8AA
330
18
100
AcDbEntity
  8
SK1
100
AcDbPolyline
 90
       16
 70
     0
 43
0.0
 10
-7.448402695791132
 20
1.053501501365375
 10
-7.506495858756744
 20
1.730134483273216
 10
-7.537075122431534
 20
2.049382041117011
 10
-7.568355362814744
 20
2.352593911527002
 10
-7.610753183950947
 20
2.728005255930026
 10
-7.653420351442942
 20
3.065890680017383
 10
-7.695792252218544
 20
3.361795262682575
 10
-7.72109615902513
 20
3.519046201637404
 10
-7.745958292729338
 20
3.658625089524
 10
-7.766791500818532
 20
3.763504503372569
 10
-7.787134476000746
 20
3.854505254578201
 10
-7.815508255080132
 20
3.960782113954828
 10
-7.829170539060732
 20
4.002442895272168
 10
-7.842446271576752
 20
4.036303901993401
 10
-7.855305024378732
 20
4.062268214509181
 10
-7.867716369217338
 20
4.080247928988006
  0
LINE
  5
8AB
330
18
100
AcDbEntity
  8
SK1
100
AcDbLine
 10
-7.867634100246736
 20
4.079639364000005
 30
0.0
 11
-8.969873768345539
 21
3.784294886518209
 31
0.0
  0
LINE
  5
8AC
330
18
100
AcDbEntity
  8
SK1
100
AcDbLine
 10
-7.756078503085347
 20
-0.9902422978349854
 30
0.0
 11
-8.53392373130293
 21
-1.198665663475227
 31
0.0
  0
LINE
  5
8AD
330
18
100
AcDbEntity
  8
SK1
100
AcDbLine
 10
-7.44846355228994
 20
1.053966940884017
 30
0.0
 11
-8.969873768345539
 21
0.6463050330335971
 31
0.0
  0
LWPOLYLINE
  5
8AE
330
18
100
AcDbEntity
  8
SK1
100
AcDbPolyline
 90
       14
 70
     0
 43
0.0
 10
-8.665745669536939
 20
-4.100748680278208
 10
-8.681080380262347
 20
-4.076259574372218
 10
-8.696874895645347
 20
-4.039222759991397
 10
-8.711801642434329
 20
-3.994084142464798
 10
-8.727037179606131
 20
-3.938535682726814
 10
-8.745192701748131
 20
-3.860581888680568
 10
-8.76364799849534
 20
-3.7688970653496
 10
-8.798457915808945
 20
-3.563607809397587
 10
-8.833662273392548
 20
-3.314750935165781
 10
-8.868837329698941
 20
-3.025342220261388
 10
-8.893560845822532
 20
-2.797141619483376
 10
-8.917897810481537
 20
-2.551675804601392
 10
-8.944328689488139
 20
-2.260184445071404
 10
-8.969873768345539
 20
-1.951548457462798
  0
LINE
  5
8AF
330
18
100
AcDbEntity
  8
SK1
100
AcDbLine
 10
-8.669180680802547
 20
-4.079639364000005
 30
0.0
 11
-8.969873768345539
 21
-3.999068740505368
 31
0.0
  0
LINE
  5
8BC
330
18
100
AcDbEntity
  8
SK4
100
AcDbLine
 10
0.0000000000027285
 20
0.0
 30
0.0
 11
-10.67579958629478
 21
0.0
 31
0.0
  0
LINE
  5
927
330
18
100
AcDbEntity
  8
1
100
AcDbLine
 10
0.6999999999972708
 20
7.599999999999997
 30
0.0
 11
-0.0000000000027285
 21
7.599999999999997
 31
0.0
  0
INSERT
  5
933
330
18
100
AcDbEntity
  8
SK2
100
AcDbBlockReference
  2
CERO_POINT
 10
0.0000000000027285
 20
0.0
 30
0.0
 41
1.5
 42
1.5
 43
1.5
  0
DIMENSION
  5
936
330
18
100
AcDbEntity
  8
2
100
AcDbDimension
  2
*D2
 10
38.09999999999723
 20
17.20202262830125
 30
0.0
 11
19.04999999999725
 21
19.63851243856126
 31
0.0
 70
    32
 71
     5
 42
38.09999999999995
  3
STANDARD
100
AcDbAlignedDimension
 13
-0.0000000000027285
 23
7.599999999999997
 33
0.0
 14
38.09999999999723
 24
7.599999999999997
 34
0.0
100
AcDbRotatedDimension
  0
DIMENSION
  5
951
102
{ACAD_XDICTIONARY
360
95F
102
}
102
{ACAD_REACTORS
330
96A
102
}
330
18
100
AcDbEntity
  8
2
100
AcDbDimension
  2
*D3
 10
46.09573361361524
 20
-7.600000000000002
 30
0.0
 11
43.60759236273684
 21
-19.60166900913562
 31
0.0
 70
    32
 71
     5
 42
15.2
  3
STANDARD
100
AcDbAlignedDimension
 13
38.10000000000268
 23
7.599999999999997
 33
0.0
 14
38.10000000000268
 24
-7.599999999999997
 34
0.0
 50
90.0
100
AcDbRotatedDimension
1001
ACAD
1000
DSTYLE
1002
{
1070
     3
1000
%%C<>
1002
}
  0
LINE
  5
9C9
330
18
100
AcDbEntity
  8
SK3
100
AcDbLine
 10
30.390869590014
 20
4.563550027676021
 30
0.0
 11
29.79523701223943
 21
4.563550027676021
 31
0.0
  0
LINE
  5
9CA
330
18
100
AcDbEntity
  8
SK3
100
AcDbLine
 10
29.60663036528915
 20
4.423988669195738
 30
0.0
 11
29.53367163638174
 21
4.185351708210611
 31
0.0
  0
LINE
  5
9CB
330
18
100
AcDbEntity
  8
SK3
100
AcDbLine
 10
30.65243496587169
 20
4.185351708210611
 30
0.0
 11
30.57947623696426
 21
4.423988669195738
 31
0.0
  0
LINE
  5
9CC
330
18
100
AcDbEntity
  8
SK3
100
AcDbLine
 10
29.38729070157699
 20
4.021183337343517
 30
0.0
 11
28.79370158618115
 21
4.021183337343517
 31
0.0
  0
LWPOLYLINE
  5
9CD
330
18
100
AcDbEntity
  8
SK3
100
AcDbPolyline
 90
       13
 70
     0
 43
0.0
 10
29.59793387150901
 20
4.208272453251137
 10
29.57767346247682
 20
4.110349516924428
 10
29.55686082554173
 20
3.995997800486982
 10
29.53302956187561
 20
3.849247618056681
 10
29.50874577812239
 20
3.683443381596338
 10
29.4619630900878
 20
3.320444477743634
 10
29.41483635530418
 20
2.898921468778366
 10
29.38427974467794
 20
2.59566726901407
 10
29.35414935757197
 20
2.272810074387658
 10
29.32343168047405
 20
1.917879833782639
 10
29.2936650625422
 20
1.547033596119513
 10
29.23904599760001
 20
0.7859539769170043
 10
29.19082466822317
 20
-0.0002531075569738
  0
LWPOLYLINE
  5
9CE
330
18
100
AcDbEntity
  8
SK3
100
AcDbPolyline
 90
       20
 70
     0
 43
0.0
 10
29.19082466822317
 20
-0.0002531075569738
 10
29.14355987646383
 20
-0.7716453637077816
 10
29.09000143971607
 20
-1.520653763056992
 10
29.03194409866426
 20
-2.222969320974836
 10
29.00178960637206
 20
-2.549779766144038
 10
28.97118368968305
 20
-2.85705624493906
 10
28.93006462472386
 20
-3.232495616270669
 10
28.8890770425987
 20
-3.56433637553149
 10
28.84875564016589
 20
-3.848250546101724
 10
28.82618003756466
 20
-3.987724249359238
 10
28.80409639990072
 20
-4.109614314947191
 10
28.78334402593123
 20
-4.21005514754538
 10
28.76323482215815
 20
-4.293120523627782
 10
28.74857448616492
 20
-4.343946308808541
 10
28.73436776594905
 20
-4.384533963980213
 10
28.72331663374968
 20
-4.409614314569545
 10
28.71260516553818
 20
-4.427941925941593
 10
28.70100399681648
 20
-4.440402115845611
 10
28.69538091428156
 20
-4.443388967558425
 10
28.68988274043896
 20
-4.444203065439068
  0
LWPOLYLINE
  5
9CF
330
18
100
AcDbEntity
  8
SK3
100
AcDbPolyline
 90
       20
 70
     0
 43
0.0
 10
30.52256608363928
 20
4.444203059236063
 10
30.51705585720356
 20
4.443361569098343
 10
30.51142400914637
 20
4.440344038057543
 10
30.4998075007607
 20
4.427815915355995
 10
30.48908945840751
 20
4.409432423779445
 10
30.47803613482756
 20
4.384300575746792
 10
30.46381188356716
 20
4.343611021378761
 10
30.44913620790997
 20
4.292676762859962
 10
30.42903905673
 20
4.209583994520476
 10
30.40830202242448
 20
4.109167267108528
 10
30.38620414078685
 20
3.987141335925453
 10
30.36361429421193
 20
3.847536149833877
 10
30.32330713575282
 20
3.563663615494372
 10
30.28234037174304
 20
3.231967487350983
 10
30.24124322058952
 20
2.856758210978951
 10
30.21065373925477
 20
2.549684434886428
 10
30.18051349093625
 20
2.223077788109875
 10
30.12247258523869
 20
1.521046013975489
 10
30.06890647865894
 20
0.7718842179866022
 10
30.02159895497854
 20
-0.0005105947736306
  0
LWPOLYLINE
  5
9D0
330
18
100
AcDbEntity
  8
SK3
100
AcDbPolyline
 90
       13
 70
     0
 43
0.0
 10
30.02159895497854
 20
-0.0005105947736306
 10
29.97325271690939
 20
-0.7883721715756895
 10
29.91834000697123
 20
-1.552678598663118
 10
29.88851422176407
 20
-1.923836012366782
 10
29.8577461429131
 20
-2.2789503289394
 10
29.82736045997108
 20
-2.604097516258276
 10
29.79655951041161
 20
-2.909100437715044
 10
29.74927170915631
 20
-3.330695762239026
 10
29.70235972966827
 20
-3.692950692389247
 10
29.67817127096973
 20
-3.857143168442581
 10
29.65442547114571
 20
-4.002495250071115
 10
29.63339040908308
 20
-4.117330165923611
 10
29.61289880940105
 20
-4.215640976610636
  0
LINE
  5
9D1
330
18
100
AcDbEntity
  8
SK3
100
AcDbLine
 10
29.64987835646919
 20
-4.185351714413613
 30
0.0
 11
29.57691962756177
 21
-4.42398867539874
 31
0.0
  0
LINE
  5
9D2
330
18
100
AcDbEntity
  8
SK3
100
AcDbLine
 10
30.38984731097949
 20
-4.021183343546518
 30
0.0
 11
29.79625819558365
 21
-4.021183343546518
 31
0.0
  0
LINE
  5
9D3
330
18
100
AcDbEntity
  8
SK3
100
AcDbLine
 10
30.60918697469166
 20
-4.42398867539874
 30
0.0
 11
30.53622824578424
 21
-4.185351714413613
 31
0.0
  0
ARC
  5
9D4
330
18
100
AcDbEntity
  8
SK3
100
AcDbCircle
 10
29.3883129806115
 20
-4.366325782849016
 30
0.0
 40
0.19722425103
100
AcDbArc
 50
270.0000030000002
 51
343.0000059999985
  0
ARC
  5
9D5
330
18
100
AcDbEntity
  8
SK3
100
AcDbCircle
 10
29.79523701223943
 20
4.366325776646013
 30
0.0
 40
0.19722425103
100
AcDbArc
 50
89.99999699999987
 51
162.9999969999978
  0
ARC
  5
9D6
330
18
100
AcDbEntity
  8
SK3
100
AcDbCircle
 10
30.390869590014
 20
4.366325776646013
 30
0.0
 40
0.19722425103
100
AcDbArc
 50
17.00000800000036
 51
89.99999699999987
  0
ARC
  5
9D7
330
18
100
AcDbEntity
  8
SK3
100
AcDbCircle
 10
29.28219647234481
 20
4.262235199713484
 30
0.0
 40
0.2629656680400001
100
AcDbArc
 50
293.5564640000016
 51
343.0000059999985
  0
ARC
  5
9D8
330
18
100
AcDbEntity
  8
SK3
100
AcDbCircle
 10
29.90135352050612
 20
-4.262235205916486
 30
0.0
 40
0.2629656680400001
100
AcDbArc
 50
113.5564729999995
 51
162.9999969999978
  0
ARC
  5
9D9
330
18
100
AcDbEntity
  8
SK3
100
AcDbCircle
 10
30.28475308174731
 20
-4.262235205916486
 30
0.0
 40
0.2629656680400001
100
AcDbArc
 50
17.00000800000036
 51
66.44352199999864
  0
LINE
  5
9DA
330
18
100
AcDbEntity
  8
SK3
100
AcDbLine
 10
29.3883129806115
 20
-4.563550033879023
 30
0.0
 11
28.79268040283693
 21
-4.563550033879023
 31
0.0
  0
ARC
  5
9DB
330
18
100
AcDbEntity
  8
SK3
100
AcDbCircle
 10
30.90391028621521
 20
4.262235424469944
 30
0.0
 40
0.2629656680400001
100
AcDbArc
 50
196.9999989999995
 51
246.4435340000008
  0
ARC
  5
9DC
330
18
100
AcDbEntity
  8
SK3
100
AcDbCircle
 10
30.79779400909597
 20
-4.366325779747523
 30
0.0
 40
0.19722425103
100
AcDbArc
 50
196.9999989999995
 51
270.0000030000002
  0
LINE
  5
9DD
330
18
100
AcDbEntity
  8
SK3
100
AcDbLine
 10
28.38575581712173
 20
4.563549799818058
 30
0.0
 11
27.79012323934717
 21
4.563549799818058
 31
0.0
  0
LINE
  5
9DE
330
18
100
AcDbEntity
  8
SK3
100
AcDbLine
 10
27.60151659239689
 20
4.423988441337776
 30
0.0
 11
27.52855786348948
 21
4.185351480352649
 31
0.0
  0
LINE
  5
9DF
330
18
100
AcDbEntity
  8
SK3
100
AcDbLine
 10
28.64732119297942
 20
4.185351480352649
 30
0.0
 11
28.574362464072
 21
4.423988441337776
 31
0.0
  0
LINE
  5
9E0
330
18
100
AcDbEntity
  8
SK3
100
AcDbLine
 10
27.38217692868472
 20
4.021183109485553
 30
0.0
 11
26.78858781328889
 21
4.021183109485553
 31
0.0
  0
LWPOLYLINE
  5
9E1
330
18
100
AcDbEntity
  8
SK3
100
AcDbPolyline
 90
       13
 70
     0
 43
0.0
 10
27.59282009861675
 20
4.208272225393177
 10
27.57255968958455
 20
4.110349289066467
 10
27.55174705264947
 20
3.99599757262902
 10
27.52791578898335
 20
3.849247390198718
 10
27.50363200523013
 20
3.683443153738377
 10
27.45684931719553
 20
3.32044424988567
 10
27.40972258241191
 20
2.898921240920403
 10
27.37916597178568
 20
2.595667041156107
 10
27.34903558467971
 20
2.272809846529693
 10
27.31831790758179
 20
1.917879605924676
 10
27.28855128964994
 20
1.54703336826155
 10
27.23393222470774
 20
0.7859537490590416
 10
27.18571089533091
 20
-0.0002533354149366
  0
LWPOLYLINE
  5
9E2
330
18
100
AcDbEntity
  8
SK3
100
AcDbPolyline
 90
       20
 70
     0
 43
0.0
 10
27.18571089533091
 20
-0.0002533354149366
 10
27.13844610357157
 20
-0.7716455915657443
 10
27.08488766682381
 20
-1.520653990914954
 10
27.02683032577199
 20
-2.222969548832798
 10
26.99667583347979
 20
-2.549779994002002
 10
26.96606991679078
 20
-2.857056472797022
 10
26.92495085183161
 20
-3.232495844128632
 10
26.88396326970643
 20
-3.564336603389453
 10
26.84364186727363
 20
-3.848250773959686
 10
26.8210662646724
 20
-3.9877244772172
 10
26.79898262700845
 20
-4.109614542805153
 10
26.77823025303896
 20
-4.21005537540334
 10
26.75812104926589
 20
-4.293120751485747
 10
26.74346071327265
 20
-4.343946536666503
 10
26.72925399305679
 20
-4.384534191838175
 10
26.71820286085741
 20
-4.40961454242751
 10
26.70749139264592
 20
-4.427942153799556
 10
26.69589022392421
 20
-4.440402343703573
 10
26.6902671413893
 20
-4.443389195416388
 10
26.68476896754671
 20
-4.444203293297031
  0
LWPOLYLINE
  5
9E3
330
18
100
AcDbEntity
  8
SK3
100
AcDbPolyline
 90
       20
 70
     0
 43
0.0
 10
28.51745231074702
 20
4.444202831378103
 10
28.5119420843113
 20
4.443361341240381
 10
28.5063102362541
 20
4.440343810199578
 10
28.49469372786844
 20
4.427815687498032
 10
28.48397568551524
 20
4.409432195921481
 10
28.4729223619353
 20
4.384300347888827
 10
28.4586981106749
 20
4.3436107935208
 10
28.4440224350177
 20
4.292676535002001
 10
28.42392528383774
 20
4.209583766662515
 10
28.40318824953222
 20
4.109167039250566
 10
28.38109036789459
 20
3.98714110806749
 10
28.35850052131967
 20
3.847535921975913
 10
28.31819336286056
 20
3.56366338763641
 10
28.27722659885077
 20
3.231967259493021
 10
28.23612944769726
 20
2.856757983120988
 10
28.20553996636251
 20
2.549684207028465
 10
28.17539971804398
 20
2.223077560251913
 10
28.11735881234642
 20
1.521045786117524
 10
28.06379270576668
 20
0.7718839901286394
 10
28.01648518208628
 20
-0.0005108226315933
  0
LWPOLYLINE
  5
9E4
330
18
100
AcDbEntity
  8
SK3
100
AcDbPolyline
 90
       13
 70
     0
 43
0.0
 10
28.01648518208628
 20
-0.0005108226315933
 10
27.96813894401712
 20
-0.7883723994336524
 10
27.91322623407896
 20
-1.552678826521081
 10
27.8834004488718
 20
-1.923836240224743
 10
27.85263237002084
 20
-2.27895055679736
 10
27.82224668707881
 20
-2.60409774411624
 10
27.79144573751935
 20
-2.909100665573006
 10
27.74415793626405
 20
-3.33069599009699
 10
27.697245956776
 20
-3.692950920247209
 10
27.67305749807746
 20
-3.857143396300544
 10
27.64931169825344
 20
-4.002495477929078
 10
27.62827663619082
 20
-4.117330393781575
 10
27.60778503650879
 20
-4.215641204468598
  0
ARC
  5
9E5
330
18
100
AcDbEntity
  8
SK3
100
AcDbCircle
 10
27.38319920771923
 20
-4.366326010706977
 30
0.0
 40
0.19722425103
100
AcDbArc
 50
270.0000030000002
 51
343.0000059999985
  0
ARC
  5
9E6
330
18
100
AcDbEntity
  8
SK3
100
AcDbCircle
 10
27.79012323934717
 20
4.366325548788051
 30
0.0
 40
0.19722425103
100
AcDbArc
 50
89.99999699999987
 51
162.9999969999978
  0
ARC
  5
9E7
330
18
100
AcDbEntity
  8
SK3
100
AcDbCircle
 10
28.38575581712173
 20
4.366325548788051
 30
0.0
 40
0.19722425103
100
AcDbArc
 50
17.00000800000036
 51
89.99999699999987
  0
ARC
  5
9E8
330
18
100
AcDbEntity
  8
SK3
100
AcDbCircle
 10
27.27708269945254
 20
4.262234971855519
 30
0.0
 40
0.2629656680400001
100
AcDbArc
 50
293.5564640000016
 51
343.0000059999985
  0
LINE
  5
9E9
330
18
100
AcDbEntity
  8
SK3
100
AcDbLine
 10
27.38319920771923
 20
-4.563550261736986
 30
0.0
 11
26.78756662994466
 21
-4.563550261736986
 31
0.0
  0
ARC
  5
9EA
330
18
100
AcDbEntity
  8
SK3
100
AcDbCircle
 10
28.89879651332295
 20
4.262235196611983
 30
0.0
 40
0.2629656680400001
100
AcDbArc
 50
196.9999989999995
 51
246.4435340000008
  0
LINE
  5
9EE
330
18
100
AcDbEntity
  8
SK3
100
AcDbLine
 10
27.64476458357692
 20
-4.185351942271576
 30
0.0
 11
27.5718058546695
 21
-4.423988903256702
 31
0.0
  0
LINE
  5
9EF
330
18
100
AcDbEntity
  8
SK3
100
AcDbLine
 10
28.38473369439381
 20
-4.021183343546518
 30
0.0
 11
27.79114457899798
 21
-4.021183343546518
 31
0.0
  0
LINE
  5
9F0
330
18
100
AcDbEntity
  8
SK3
100
AcDbLine
 10
28.60407335810599
 20
-4.42398867539874
 30
0.0
 11
28.53111462919856
 21
-4.185351714413613
 31
0.0
  0
ARC
  5
9F1
330
18
100
AcDbEntity
  8
SK3
100
AcDbCircle
 10
27.89623990392045
 20
-4.262235205916486
 30
0.0
 40
0.2629656680400001
100
AcDbArc
 50
113.5564729999995
 51
162.9999969999978
  0
ARC
  5
9F2
330
18
100
AcDbEntity
  8
SK3
100
AcDbCircle
 10
28.27963946516164
 20
-4.262235205916486
 30
0.0
 40
0.2629656680400001
100
AcDbArc
 50
17.00000800000036
 51
66.44352199999864
  0
ARC
  5
9F3
330
18
100
AcDbEntity
  8
SK3
100
AcDbCircle
 10
28.79268039251029
 20
-4.366325779747523
 30
0.0
 40
0.19722425103
100
AcDbArc
 50
196.9999989999995
 51
270.0000030000002
  0
LINE
  5
AAE
330
18
100
AcDbEntity
  8
1
100
AcDbLine
 10
0.6999999999972708
 20
7.599999999999997
 30
0.0
 11
0.9351644601784714
 21
6.722354286469244
 31
0.0
  0
ARC
  5
AAF
330
18
100
AcDbEntity
  8
1
100
AcDbCircle
 10
1.224942208065192
 20
6.799999999999998
 30
0.0
 40
0.3
100
AcDbArc
 50
194.9999999999999
 51
270.0
  0
LINE
  5
AB3
330
18
100
AcDbEntity
  8
1
100
AcDbLine
 10
1.224942208065192
 20
6.5
 30
0.0
 11
6.024942208065192
 21
6.5
 31
0.0
  0
LINE
  5
ABA
330
18
100
AcDbEntity
  8
1
100
AcDbLine
 10
6.549884416133117
 20
7.599999999999997
 30
0.0
 11
6.314719955951916
 21
6.722354286469244
 31
0.0
  0
ARC
  5
ABB
330
18
100
AcDbEntity
  8
1
100
AcDbCircle
 10
6.024942208065196
 20
6.799999999999998
 30
0.0
 40
0.3
100
AcDbArc
 50
270.0
 51
345.0000000000002
  0
ARC
  5
ABF
330
18
100
AcDbEntity
  8
1
100
AcDbCircle
 10
1.224942208065192
 20
-6.799999999999998
 30
0.0
 40
0.3
100
AcDbArc
 50
90.0
 51
165.0
  0
LINE
  5
AC0
330
18
100
AcDbEntity
  8
1
100
AcDbLine
 10
0.6999999999972708
 20
-7.599999999999997
 30
0.0
 11
0.9351644601784714
 21
-6.722354286469244
 31
0.0
  0
LINE
  5
AC1
102
{ACAD_REACTORS
330
B39
102
}
330
18
100
AcDbEntity
  8
1
100
AcDbLine
 10
1.224942208065192
 20
-6.5
 30
0.0
 11
6.024942208065192
 21
-6.5
 31
0.0
  0
ARC
  5
AC2
330
18
100
AcDbEntity
  8
1
100
AcDbCircle
 10
6.024942208065196
 20
-6.799999999999998
 30
0.0
 40
0.3
100
AcDbArc
 50
14.99999999999988
 51
90.0
  0
LINE
  5
AC3
330
18
100
AcDbEntity
  8
1
100
AcDbLine
 10
6.549884416133117
 20
-7.599999999999997
 30
0.0
 11
6.314719955951916
 21
-6.722354286469244
 31
0.0
  0
MULTILEADER
  5
AF8
102
{ACAD_XDICTIONARY
360
AFA
102
}
102
{ACAD_REACTORS
330
AFB
102
}
330
18
100
AcDbEntity
  8
SK6
 92
      660
310
94020000180000000C00000016000000000000C00C00000033000000000000000C00000013000000993A0000A00000000B000000ADBF2D73E5B82A403C409CF3F3C230C0000000000000000000000000000000000000000000000000000000000000F03F000000000000F03F00000000000000000000000000000000543130
310
0003000000010000000000000000001040000000000000F03F0000000000000000000000000000F03F000000000000000000000000000000000000000069736F63702E736878000000000000000C00000033000000000000000C00000010000000080000000C00000016000000000000C00C00000012000000FF7F00000C00
310
000013000000010000000C000000140000000100000054000000070000000300000004D9CA14FA0A3D408C308DD4526219C00000000000000000E6A48E651FC13F405F5F73D143A50AC0000000000000000053FCC302DA2A3E402F7E414CEF3F1CC000000000000000000C00000013000000891300003C0000000600000002
310
000000AC6AC70BEA9A3D405E57671021D11AC0000000000000000081E25F7FD01F3740BF6DE9F074E030C000000000000000000C00000013000000112700003C000000060000000200000081E25F7FD01F3740BF6DE9F074E030C0000000000000000025539D89A7C33640BF6DE9F074E030C000000000000000000C000000
310
16000000000000C00C00000012000000FF7F00000C00000017000000000000000C000000130000009A3A00003C0000000600000002000000E3A03C4E17F12540CAA30F3F819E31C00000000000000000262A8BDD26C63340CAA30F3F819E31C000000000000000000C00000016000000000000C00C00000012000000FF7F00
310
000C00000017000000FFFFFFFF0C0000003300000000000000
100
AcDbMLeader
300
CONTEXT_DATA{
 40
1.0
 10
8.970880932713447
 20
-14.81915964252311
 30
0.0
 41
4.0
140
4.0
145
2.0
174
     1
175
     6
176
     2
177
     0
290
     1
304
T10
 11
0.0
 21
0.0
 31
1.0
340
10
 12
20.7642751702398
 22
-12.76153490605087
 32
0.0
 13
1.0
 23
0.0
 33
0.0
 42
0.0
 43
0.0
 44
0.0
 45
1.0
170
     1
 90
-1073741824
171
     3
172
     5
 91
-1073741824
141
0.0
 92
 15785088
291
     0
292
     0
173
     0
293
     0
142
0.0
143
0.0
294
     0
295
     0
296
     0
110
31.75438532574199
120
-3.330695759137526
130
0.0
111
1.0
121
0.0
131
0.0
112
0.0
122
1.0
132
0.0
297
     0
302
LEADER{
290
     1
291
     1
 10
23.1242751702398
 20
-16.87678437899535
 30
0.0
 11
-1.0
 21
0.0
 31
0.0
 90
        0
 40
0.36
304
LEADER_LINE{
 10
31.75438532574199
 20
-3.330695759137526
 30
0.0
 91
        0
305
}
303
}
301
}
340
43D
 90
   279552
170
     1
 91
-1056964608
341
12
171
    -2
290
     1
291
     1
 41
0.36
 42
4.0
172
     2
343
10
173
     1
 95
        6
174
     1
175
     2
 92
-1056964608
292
     0
 93
-1056964608
 10
1.0
 20
1.0
 30
1.0
 43
0.0
176
     0
293
     0
294
     0
178
     0
179
     3
 45
1.0
1001
ACAD_MLEADERVER
1070
     2
  0
MULTILEADER
  5
AFC
102
{ACAD_XDICTIONARY
360
AFD
102
}
102
{ACAD_REACTORS
330
AFE
102
}
330
18
100
AcDbEntity
  8
SK6
 92
      660
310
94020000180000000C00000016000000000000C00C00000033000000000000000C00000013000000993A0000A00000000B0000002A2D7275043232C08654894F95EE2B40000000000000000000000000000000000000000000000000000000000000F03F000000000000F03F00000000000000000000000000000000543130
310
0003000000010000000000000000001040000000000000F03F0000000000000000000000000000F03F000000000000000000000000000000000000000069736F63702E736878000000000000000C00000033000000000000000C00000010000000080000000C00000016000000000000C00C00000012000000FF7F00000C00
310
000013000000010000000C00000014000000010000005400000007000000030000006AE72F053A8112C0466EAA534F6020400000000000000000EEE2CF7E03890AC0E63708F1836611400000000000000000850F8A3C623317C0E183D8865A391E4000000000000000000C00000013000000891300003C0000000600000002
310
00000078FBDC204EDA14C036B01697FC7C1F4000000000000000000055525F4DDD20C080F9EE5493B32B4000000000000000000C00000013000000112700003C00000006000000020000000055525F4DDD20C080F9EE5493B32B400000000000000000B873D74A9F9521C080F9EE5493B32B4000000000000000000C000000
310
16000000000000C00C00000012000000FF7F00000C00000017000000000000000C000000130000009A3A00003C00000006000000020000008EBCEA87EB9534C0688DA2B87A372A400000000000000000B4C5FBA2A09027C0688DA2B87A372A4000000000000000000C00000016000000000000C00C00000012000000FF7F00
310
000C00000017000000FFFFFFFF0C0000003300000000000000
100
AcDbMLeader
300
CONTEXT_DATA{
 40
1.0
 10
-22.58562516671059
 20
15.90835816368372
 30
0.0
 41
4.0
140
4.0
145
2.0
174
     1
175
     6
176
     2
177
     0
290
     1
304
T10
 11
0.0
 21
0.0
 31
1.0
340
10
 12
-10.79223092918424
 22
17.96598290015596
 32
0.0
 13
1.0
 23
0.0
 33
0.0
 42
0.0
 43
0.0
 44
0.0
 45
1.0
170
     1
 90
-1073741824
171
     3
172
     5
 91
-1073741824
141
0.0
 92
 15785088
291
     0
292
     0
173
     0
293
     0
142
0.0
143
0.0
294
     0
295
     0
296
     0
110
-3.316901198119345
120
4.350112692000015
130
0.0
111
1.0
121
0.0
131
0.0
112
0.0
122
1.0
132
0.0
297
     0
302
LEADER{
290
     1
291
     1
 10
-8.432230929184242
 20
13.85073342721148
 30
0.0
 11
-1.0
 21
0.0
 31
0.0
 90
        0
 40
0.36
304
LEADER_LINE{
 10
-3.316901198119345
 20
4.350112692000015
 30
0.0
 91
        0
305
}
303
}
301
}
340
43D
 90
   279552
170
     1
 91
-1056964608
341
12
171
    -2
290
     1
291
     1
 41
0.36
 42
4.0
172
     2
343
10
173
     1
 95
        6
174
     1
175
     2
 92
-1056964608
292
     0
 93
-1056964608
 10
1.0
 20
1.0
 30
1.0
 43
0.0
176
     0
293
     0
294
     0
178
     0
179
     3
 45
1.0
1001
ACAD_MLEADERVER
1070
     2
  0
MULTILEADER
  5
B37
102
{ACAD_XDICTIONARY
360
B38
102
}
102
{ACAD_REACTORS
330
B39
102
}
330
18
100
AcDbEntity
  8
SK6
 92
      660
310
94020000180000000C00000016000000000000C00C00000033000000000000000C00000013000000993A0000A00000000B000000EA3DF1EF71242DC03DAEB131064A32C0000000000000000000000000000000000000000000000000000000000000F03F000000000000F03F00000000000000000000000000000000543133
310
0003000000010000000000000000001040000000000000F03F0000000000000000000000000000F03F000000000000000000000000000000000000000069736F63702E736878000000000000000C00000033000000000000000C00000010000000080000000C00000016000000000000C00C00000012000000FF7F00000C00
310
000013000000010000000C000000140000000100000054000000070000000300000080E5D0E05072E93FEECA28232FCF22C00000000000000000823D4CB3E1FF0C400000000000001AC00000000000000000CC7AF72B513EFE3F1B7B8269AF5424C000000000000000000C00000013000000891300003C0000000600000002
310
000000C6F62FCEBC7BF53F04A35546EF9123C00000000000000000FE5198FEFC9412C0C0DBFE2E876732C000000000000000000C00000013000000112700003C0000000600000002000000FE5198FEFC9412C0C0DBFE2E876732C000000000000000006F8FA2D5A00514C0C0DBFE2E876732C000000000000000000C000000
310
16000000000000C00C00000012000000FF7F00000C00000017000000000000000C000000130000009A3A00003C00000006000000020000005B39180671C230C0CB11257D932533C00000000000000000705F8774E72C1FC0CB11257D932533C000000000000000000C00000016000000000000C00C00000012000000FF7F00
310
000C00000017000000FFFFFFFF0C0000003300000000000000
100
AcDbMLeader
300
CONTEXT_DATA{
 40
1.0
 10
-18.75953710643203
 20
-16.3467817512037
 30
0.0
 41
4.0
140
4.0
145
2.0
174
     1
175
     6
176
     2
177
     0
290
     1
304
T13
 11
0.0
 21
0.0
 31
1.0
340
10
 12
-7.005496347472091
 22
-14.28915701473146
 32
0.0
 13
1.0
 23
0.0
 33
0.0
 42
0.0
 43
0.0
 44
0.0
 45
1.0
170
     1
 90
-1073741824
171
     3
172
     5
 91
-1073741824
141
0.0
 92
 15785088
291
     0
292
     0
173
     0
293
     0
142
0.0
143
0.0
294
     0
295
     0
296
     0
110
3.624942208065193
120
-6.5
130
0.0
111
1.0
121
0.0
131
0.0
112
0.0
122
1.0
132
0.0
297
     0
302
LEADER{
290
     1
291
     1
 10
-4.645496347472088
 20
-18.40440648767594
 30
0.0
 11
-1.0
 21
0.0
 31
0.0
 90
        0
 40
0.36
304
LEADER_LINE{
 10
3.624942208065193
 20
-6.5
 30
0.0
 91
        0
305
}
303
}
301
}
340
43D
 90
   279552
170
     1
 91
-1056964608
341
12
171
    -2
290
     1
291
     1
 41
0.36
 42
4.0
172
     2
343
10
173
     1
 95
        6
174
     1
175
     2
 92
-1056964608
292
     0
 93
-1056964608
 10
1.0
 20
1.0
 30
1.0
 43
0.0
176
     0
293
     0
294
     0
178
     0
179
     3
 45
1.0
1001
ACAD_MLEADERVER
1070
     2
  0
LWPOLYLINE
  5
B61
330
18
100
AcDbEntity
  8
NOCUT
100
AcDbPolyline
 90
       10
 70
     1
 43
0.0
 10
0.0000000000027143
 20
0.0
 10
-0.0000000000027427
 20
7.599999999999997
 10
0.6999999999972602
 20
7.599999999999997
 10
0.9351644601784554
 20
6.722354286469247
 42
0.3394542588633811
 10
1.224942208065172
 20
6.5
 10
6.024942208065183
 20
6.5
 42
0.3394542588633754
 10
6.3147199559519
 20
6.722354286469242
 10
6.54988441613311
 20
7.599999999999997
 10
38.09999999999995
 20
7.599999999999997
 10
38.10000000000268
 20
0.0
  0
ATTDEF
  5
BE7
330
18
100
AcDbEntity
  8
SK6
100
AcDbText
 10
7.438180930891878
 20
-46.00767235269818
 30
0.0
 40
3.5
  1

 72
     1
 11
20.81066830430716
 21
-46.00767235269818
 31
0.0
100
AcDbAttributeDefinition
  3

  2
T10T10SA-15
 70
     0
  0
ENDSEC
  0
SECTION
  2
OBJECTS
  0
DICTIONARY
  5
C
330
0
100
AcDbDictionary
281
     1
  3
ACAD_CIP_PREVIOUS_PRODUCT_INFO
350
BBC
  3
ACAD_COLOR
350
387
  3
ACAD_GROUP
350
D
  3
ACAD_LAYOUT
350
301
  3
ACAD_MATERIAL
350
386
  3
ACAD_MLEADERSTYLE
350
43C
  3
ACAD_MLINESTYLE
350
E
  3
ACAD_PLOTSETTINGS
350
302
  3
ACAD_PLOTSTYLENAME
350
2FF
  3
ACAD_SCALELIST
350
41A
  3
ACAD_TABLESTYLE
350
388
  3
ACAD_VISUALSTYLE
350
3F2
  3
ACDB_RECOMPOSE_DATA
350
BEC
  3
AcDbVariableDictionary
350
357
  3
AEC_PROPERTY_SET_DEFS
350
5CF
  3
ASE_INDEX_DICTIONARY
350
69C
  0
DICTIONARY
  5
451
330
2
100
AcDbDictionary
280
     1
281
     1
  3
ACAD_LAYERFILTERS
360
6C6
  3
ACLYDICTIONARY
360
6C5
  0
DICTIONARY
  5
B76
330
F
100
AcDbDictionary
280
     1
281
     1
  3
ADSK_XREC_LAYER_RECONCILED
360
B77
  0
DICTIONARY
  5
B78
330
23
100
AcDbDictionary
280
     1
281
     1
  3
ADSK_XREC_LAYER_RECONCILED
360
B79
  0
DICTIONARY
  5
B7A
330
24
100
AcDbDictionary
280
     1
281
     1
  3
ADSK_XREC_LAYER_RECONCILED
360
B7B
  0
DICTIONARY
  5
B7C
330
25
100
AcDbDictionary
280
     1
281
     1
  3
ADSK_XREC_LAYER_RECONCILED
360
B7D
  0
DICTIONARY
  5
B7E
330
27
100
AcDbDictionary
280
     1
281
     1
  3
ADSK_XREC_LAYER_RECONCILED
360
B7F
  0
DICTIONARY
  5
B80
330
29
100
AcDbDictionary
280
     1
281
     1
  3
ADSK_XREC_LAYER_RECONCILED
360
B81
  0
DICTIONARY
  5
B82
330
2A
100
AcDbDictionary
280
     1
281
     1
  3
ADSK_XREC_LAYER_RECONCILED
360
B83
  0
DICTIONARY
  5
B84
330
2B
100
AcDbDictionary
280
     1
281
     1
  3
ADSK_XREC_LAYER_RECONCILED
360
B85
  0
DICTIONARY
  5
B86
330
2E
100
AcDbDictionary
280
     1
281
     1
  3
ADSK_XREC_LAYER_RECONCILED
360
B87
  0
DICTIONARY
  5
B88
330
376
100
AcDbDictionary
280
     1
281
     1
  3
ADSK_XREC_LAYER_RECONCILED
360
B89
  0
DICTIONARY
  5
B8A
330
49B
100
AcDbDictionary
280
     1
281
     1
  3
ADSK_XREC_LAYER_RECONCILED
360
B8B
  0
DICTIONARY
  5
B69
330
B68
100
AcDbDictionary
280
     1
281
     1
  3
ADSK_XREC_LAYER_RECONCILED
360
B8C
  0
DICTIONARY
  5
85E
330
18
100
AcDbDictionary
280
     1
281
     1
  3
ACAD_SORTENTS
360
85F
  0
DICTIONARY
  5
6D1
330
6D0
100
AcDbDictionary
280
     1
281
     1
  3
ACAD_SORTENTS
360
6D2
  0
DICTIONARY
  5
95F
330
951
100
AcDbDictionary
280
     1
281
     1
  3
ACAD_DIMASSOC
360
96A
  0
DICTIONARY
  5
AFA
330
AF8
100
AcDbDictionary
280
     1
281
     1
  3
ACAD_DIMASSOC
360
AFB
  0
DICTIONARY
  5
AFD
330
AFC
100
AcDbDictionary
280
     1
281
     1
  3
ACAD_DIMASSOC
360
AFE
  0
DICTIONARY
  5
B38
330
B37
100
AcDbDictionary
280
     1
281
     1
  3
ACAD_DIMASSOC
360
B39
  0
XRECORD
  5
BBC
102
{ACAD_REACTORS
330
C
102
}
330
C
100
AcDbXrecord
280
     1
300
ACDLT
300
2012
300
ACDLT_F_S
  0
DICTIONARY
  5
387
102
{ACAD_REACTORS
330
C
102
}
330
C
100
AcDbDictionary
281
     1
  0
DICTIONARY
  5
D
102
{ACAD_REACTORS
330
C
102
}
330
C
100
AcDbDictionary
281
     1
  0
DICTIONARY
  5
301
102
{ACAD_REACTORS
330
C
102
}
330
C
100
AcDbDictionary
281
     1
  3
Layout1
350
33B
  3
Model
350
303
  0
DICTIONARY
  5
386
102
{ACAD_REACTORS
330
C
102
}
330
C
100
AcDbDictionary
281
     1
  3
ByBlock
350
3F0
  3
ByLayer
350
3EF
  3
Global
350
3F1
  0
DICTIONARY
  5
43C
102
{ACAD_REACTORS
330
C
102
}
330
C
100
AcDbDictionary
281
     1
  3
Standard
350
43D
  0
DICTIONARY
  5
E
102
{ACAD_REACTORS
330
C
102
}
330
C
100
AcDbDictionary
281
     1
  3
STANDARD
350
1B
  0
DICTIONARY
  5
302
102
{ACAD_REACTORS
330
C
102
}
330
C
100
AcDbDictionary
281
     1
  0
ACDBDICTIONARYWDFLT
  5
2FF
102
{ACAD_REACTORS
330
C
102
}
330
C
100
AcDbDictionary
281
     1
  3
Normal
350
300
100
AcDbDictionaryWithDefault
340
300
  0
DICTIONARY
  5
41A
102
{ACAD_REACTORS
330
C
102
}
330
C
100
AcDbDictionary
281
     1
  3
A0
350
41B
  3
A1
350
41C
  3
A2
350
41D
  3
A3
350
41E
  3
A4
350
41F
  3
A5
350
420
  3
A6
350
421
  3
A7
350
422
  3
A8
350
423
  3
A9
350
424
  3
B0
350
425
  3
B1
350
426
  3
B2
350
427
  3
B3
350
428
  3
B4
350
429
  3
B5
350
42A
  3
B6
350
42B
  3
B7
350
42C
  3
B8
350
42D
  3
B9
350
42E
  3
C0
350
42F
  3
C1
350
430
  3
C2
350
431
  3
C3
350
432
  3
C4
350
433
  3
C5
350
434
  3
C6
350
435
  3
C7
350
436
  3
C8
350
437
  3
C9
350
438
  3
D0
350
439
  3
D1
350
43A
  3
D2
350
43B
  0
DICTIONARY
  5
388
102
{ACAD_REACTORS
330
C
102
}
330
C
100
AcDbDictionary
281
     1
  3
Standard
350
389
  0
DICTIONARY
  5
3F2
102
{ACAD_REACTORS
330
C
102
}
330
C
100
AcDbDictionary
281
     1
  3
2dWireframe
350
3F8
  3
3D Hidden
350
3FA
  3
3dWireframe
350
3F9
  3
Basic
350
3F7
  3
Brighten
350
3FE
  3
ColorChange
350
402
  3
Conceptual
350
3FB
  3
Dim
350
3FD
  3
EdgeColorOff
350
BBA
  3
Facepattern
350
401
  3
Flat
350
3F3
  3
FlatWithEdges
350
3F4
  3
Gouraud
350
3F5
  3
GouraudWithEdges
350
3F6
  3
Hidden
350
BB2
  3
JitterOff
350
BB8
  3
Linepattern
350
400
  3
OverhangOff
350
BB9
  3
Realistic
350
3FC
  3
Shaded
350
BB7
  3
Shaded with edges
350
BB6
  3
Shades of Gray
350
BB3
  3
Sketchy
350
BB4
  3
Thicken
350
3FF
  3
Wireframe
350
BB1
  3
X-Ray
350
BB5
  0
XRECORD
  5
BEC
102
{ACAD_REACTORS
330
C
102
}
330
C
100
AcDbXrecord
280
     1
 90
        1
330
389
  0
DICTIONARY
  5
357
102
{ACAD_REACTORS
330
C
102
}
330
C
100
AcDbDictionary
281
     1
  3
CANNOSCALE
350
449
  3
CMLEADERSTYLE
350
447
  3
CTABLESTYLE
350
38E
  3
DIMASSOC
350
359
  3
HIDETEXT
350
358
  3
INDEXCTL
350
B91
  3
LIGHTINGUNITS
350
44A
  3
MSLTSCALE
350
448
  3
SORTENTS
350
B90
  3
XCLIPFRAME
350
BE9
  0
DICTIONARY
  5
5CF
102
{ACAD_REACTORS
330
C
102
}
330
C
100
AcDbDictionary
281
     1
  0
DICTIONARY
  5
69C
102
{ACAD_REACTORS
330
C
102
}
330
C
100
AcDbDictionary
281
     1
  3
ASEBlockHierarchyIndexRecord
350
69D
1001
DCO15
1040
1680501600.633
  0
DICTIONARY
  5
6C6
102
{ACAD_REACTORS
330
451
102
}
330
451
100
AcDbDictionary
281
     1
  0
DICTIONARY
  5
6C5
102
{ACAD_REACTORS
330
451
102
}
330
451
100
AcDbDictionary
281
     1
1001
ACAD
1000
<All
  0
XRECORD
  5
B77
102
{ACAD_REACTORS
330
B76
102
}
330
B76
100
AcDbXrecord
280
     1
290
     1
  0
XRECORD
  5
B79
102
{ACAD_REACTORS
330
B78
102
}
330
B78
100
AcDbXrecord
280
     1
290
     1
  0
XRECORD
  5
B7B
102
{ACAD_REACTORS
330
B7A
102
}
330
B7A
100
AcDbXrecord
280
     1
290
     1
  0
XRECORD
  5
B7D
102
{ACAD_REACTORS
330
B7C
102
}
330
B7C
100
AcDbXrecord
280
     1
290
     1
  0
XRECORD
  5
B7F
102
{ACAD_REACTORS
330
B7E
102
}
330
B7E
100
AcDbXrecord
280
     1
290
     1
  0
XRECORD
  5
B81
102
{ACAD_REACTORS
330
B80
102
}
330
B80
100
AcDbXrecord
280
     1
290
     1
  0
XRECORD
  5
B83
102
{ACAD_REACTORS
330
B82
102
}
330
B82
100
AcDbXrecord
280
     1
290
     1
  0
XRECORD
  5
B85
102
{ACAD_REACTORS
330
B84
102
}
330
B84
100
AcDbXrecord
280
     1
290
     1
  0
XRECORD
  5
B87
102
{ACAD_REACTORS
330
B86
102
}
330
B86
100
AcDbXrecord
280
     1
290
     1
  0
XRECORD
  5
B89
102
{ACAD_REACTORS
330
B88
102
}
330
B88
100
AcDbXrecord
280
     1
290
     1
  0
XRECORD
  5
B8B
102
{ACAD_REACTORS
330
B8A
102
}
330
B8A
100
AcDbXrecord
280
     1
290
     1
  0
XRECORD
  5
B8C
102
{ACAD_REACTORS
330
B69
102
}
330
B69
100
AcDbXrecord
280
     1
290
     1
  0
SORTENTSTABLE
  5
85F
102
{ACAD_REACTORS
330
85E
102
}
330
85E
100
AcDbSortentsTable
330
18
331
9E1
  5
9E6
331
82C
  5
831
331
86B
  5
871
331
7FD
  5
7FE
331
8AA
  5
8BC
331
9E9
  5
9F1
331
834
  5
839
331
873
  5
879
331
9F1
  5
A5E
331
83C
  5
841
331
87B
  5
881
331
883
  5
889
331
80D
  5
812
331
844
  5
849
331
88B
  5
891
331
9CA
  5
9CF
331
815
  5
81A
331
84C
  5
851
331
854
  5
859
331
893
  5
899
331
81D
  5
822
331
9D2
  5
9D7
331
9DA
  5
9DF
331
AC1
  5
AC1
331
864
  5
86A
331
89B
  5
8A1
331
8A3
  5
8A9
331
825
  5
82A
331
85C
  5
864
331
8AB
  5
90A
331
9E2
  5
9E7
331
7FE
  5
805
331
82D
  5
832
331
86C
  5
872
331
B61
  5
BE7
331
874
  5
87A
331
835
  5
83A
331
9EA
  5
9F2
331
9F2
  5
AA8
331
83D
  5
842
331
87C
  5
882
331
806
  5
80B
331
845
  5
84A
331
884
  5
88A
331
80E
  5
813
331
9CB
  5
9D0
331
816
  5
81B
331
84D
  5
852
331
88C
  5
892
331
894
  5
89A
331
9D3
  5
9D8
331
81E
  5
823
331
855
  5
85A
331
ABA
  5
ABB
331
AC2
  5
AC2
331
89C
  5
8A2
331
9DB
  5
9E0
331
865
  5
86B
331
8A4
  5
8AA
331
826
  5
82B
331
9E3
  5
9E8
331
82E
  5
833
331
86D
  5
873
331
7FF
  5
806
331
8AC
  5
922
331
8BC
  5
927
331
836
  5
83B
331
875
  5
87B
331
9F3
  5
AA9
331
807
  5
80C
331
83E
  5
843
331
87D
  5
883
331
885
  5
88B
331
80F
  5
814
331
846
  5
84B
331
AB3
  5
AB3
331
84E
  5
853
331
88D
  5
893
331
817
  5
81C
331
9CC
  5
9D1
331
ABB
  5
ABA
331
856
  5
85B
331
895
  5
89B
331
81F
  5
824
331
9D4
  5
9D9
331
9DC
  5
9E1
331
AC3
  5
AC3
331
866
  5
86C
331
89D
  5
8A3
331
8A5
  5
8AB
331
827
  5
82C
331
936
  5
9CC
331
8AD
  5
923
331
9E4
  5
9E9
331
82F
  5
834
331
86E
  5
874
331
876
  5
87C
331
800
  5
807
331
837
  5
83C
331
83F
  5
844
331
87E
  5
884
331
808
  5
80D
331
847
  5
84C
331
886
  5
88C
331
810
  5
815
331
9CD
  5
9D2
331
818
  5
81D
331
84F
  5
854
331
88E
  5
894
331
896
  5
89C
331
9D5
  5
9DA
331
AF8
  5
AF8
331
857
  5
85C
331
867
  5
86D
331
89E
  5
8A4
331
820
  5
825
331
9DD
  5
9E2
331
8A6
  5
8AC
331
7F9
  5
7F9
331
828
  5
82D
331
9E5
  5
9EA
331
830
  5
835
331
86F
  5
875
331
8AE
  5
924
331
801
  5
808
331
838
  5
83D
331
877
  5
87D
331
809
  5
80E
331
840
  5
845
331
87F
  5
885
331
887
  5
88D
331
811
  5
816
331
848
  5
84D
331
850
  5
855
331
88F
  5
895
331
819
  5
81E
331
9CE
  5
9D3
331
9D6
  5
9DB
331
860
  5
866
331
897
  5
89D
331
9DE
  5
9E3
331
821
  5
826
331
89F
  5
8A5
331
8A7
  5
8AD
331
858
  5
860
331
7FA
  5
7FA
331
829
  5
82E
331
868
  5
86E
331
870
  5
876
331
8AF
  5
925
331
831
  5
836
331
9E6
  5
9EE
331
878
  5
87E
331
802
  5
80A
331
839
  5
83E
331
9EE
  5
9F3
331
841
  5
846
331
880
  5
886
331
80A
  5
80F
331
927
  5
7FC
331
AAE
  5
AAF
331
BE7
  5
BE1
331
812
  5
817
331
849
  5
84E
331
888
  5
88E
331
9CF
  5
9D4
331
81A
  5
81F
331
851
  5
856
331
890
  5
896
331
898
  5
89E
331
9D7
  5
9DC
331
861
  5
867
331
8A0
  5
8A6
331
822
  5
827
331
9DF
  5
9E4
331
951
  5
9CD
331
859
  5
861
331
869
  5
86F
331
8A8
  5
8AE
331
7FB
  5
7FB
331
82A
  5
82F
331
9E7
  5
9EF
331
832
  5
837
331
871
  5
877
331
9EF
  5
9F4
331
83A
  5
83F
331
879
  5
87F
331
881
  5
887
331
80B
  5
810
331
842
  5
847
331
AAF
  5
803
331
889
  5
88F
331
813
  5
818
331
84A
  5
84F
331
852
  5
857
331
891
  5
897
331
81B
  5
820
331
9D0
  5
9D5
331
9D8
  5
9DD
331
ABF
  5
ABF
331
862
  5
868
331
899
  5
89F
331
823
  5
828
331
8A1
  5
8A7
331
85A
  5
862
331
8A9
  5
8AF
331
9E0
  5
9E5
331
7FC
  5
7FD
331
82B
  5
830
331
86A
  5
870
331
B37
  5
BE6
331
872
  5
878
331
833
  5
838
331
9E8
  5
9F0
331
9F0
  5
9F5
331
87A
  5
880
331
83B
  5
840
331
843
  5
848
331
882
  5
888
331
80C
  5
811
331
9C9
  5
9CE
331
814
  5
819
331
84B
  5
850
331
88A
  5
890
331
892
  5
898
331
9D1
  5
9D6
331
81C
  5
821
331
853
  5
858
331
89A
  5
8A0
331
9D9
  5
9DE
331
AFC
  5
AFC
331
863
  5
869
331
AC0
  5
AC0
331
8A2
  5
8A8
331
824
  5
829
331
933
  5
9CB
331
85B
  5
863
  0
SORTENTSTABLE
  5
6D2
102
{ACAD_REACTORS
330
6D1
102
}
330
6D1
100
AcDbSortentsTable
330
6D0
  0
DIMASSOC
  5
96A
102
{ACAD_REACTORS
330
95F
102
}
330
95F
100
AcDbDimAssoc
330
951
 90
        2
 70
     0
 71
     0
  1
AcDbOsnapPointRef
 72
    13
331
7FC
 73
     2
 91
        0
 40
0.0
 10
0.0
 20
0.0
 30
2.000000000000000E+50
 75
     0
  0
DIMASSOC
  5
AFB
102
{ACAD_REACTORS
330
AFA
102
}
330
AFA
100
AcDbDimAssoc
330
AF8
 90
        1
 70
     0
 71
     0
  1
AcDbOsnapPointRef
 72
     1
331
820
 73
     2
 91
        7
 40
1.0
 10
0.0
 20
0.0
 30
2.000000000000000E+50
 75
     0
  0
DIMASSOC
  5
AFE
102
{ACAD_REACTORS
330
AFD
102
}
330
AFD
100
AcDbDimAssoc
330
AFC
 90
        1
 70
     0
 71
     0
  1
AcDbOsnapPointRef
 72
     3
331
88D
 73
     2
 91
        0
 40
4.712389032744568
 10
0.0
 20
0.0
 30
0.0
 75
     0
  0
DIMASSOC
  5
B39
102
{ACAD_REACTORS
330
B38
102
}
330
B38
100
AcDbDimAssoc
330
B37
 90
        1
 70
     0
 71
     0
  1
AcDbOsnapPointRef
 72
     2
331
AC1
 73
     2
 91
        0
 40
0.5
 10
0.0
 20
0.0
 30
0.0
 75
     0
  0
LAYOUT
  5
33B
102
{ACAD_REACTORS
330
301
102
}
330
301
100
AcDbPlotSettings
  1

  2
Lexmark Optra PS2
  4

  6

 40
0.0
 41
0.0
 42
0.0
 43
0.0
 44
0.0
 45
0.0
 46
0.0
 47
0.0
 48
0.0
 49
0.0
140
0.0
141
0.0
142
1.0
143
1.0
 70
   688
 72
     0
 73
     0
 74
     5
  7
monochrome.ctb
 75
    16
147
1.0
 76
     0
 77
     2
 78
   300
148
0.0
149
0.0
100
AcDbLayout
  1
Layout1
 70
     1
 71
     1
 10
0.0
 20
0.0
 11
12.0
 21
9.0
 12
0.0
 22
0.0
 32
0.0
 14
0.0
 24
0.0
 34
0.0
 15
0.0
 25
0.0
 35
0.0
146
0.0
 13
0.0
 23
0.0
 33
0.0
 16
1.0
 26
0.0
 36
0.0
 17
0.0
 27
1.0
 37
0.0
 76
     0
330
338
  0
LAYOUT
  5
303
102
{ACAD_REACTORS
330
301
102
}
330
301
100
AcDbPlotSettings
  1

  2
Default Windows System Printer.pc3
  4
A4
  6

 40
6.805083274841307
 41
5.535083293914794
 42
6.974411010742187
 43
7.14373779296875
 44
209.9733276367186
 45
296.9259948730469
 46
67.83299579489725
 47
0.0
 48
0.0
 49
0.0
140
0.0
141
0.0
142
1.0
143
0.3604333568168785
 70
  3764
 72
     1
 73
     1
 74
     1
  7
monochrome.ctb
 75
     0
147
2.774437995504559
 76
     1
 77
     2
 78
   300
148
-82.35087775247029
149
-53.69369632994493
100
AcDbLayout
  1
Model
 70
     1
 71
     0
 10
0.0
 20
0.0
 11
12.0
 21
9.0
 12
0.0
 22
0.0
 32
0.0
 14
0.0
 24
0.0
 34
0.0
 15
0.0
 25
0.0
 35
0.0
146
0.0
 13
0.0
 23
0.0
 33
0.0
 16
1.0
 26
0.0
 36
0.0
 17
0.0
 27
1.0
 37
0.0
 76
     0
330
18
331
3ED
1001
ACAD_PSEXT
1000
Default Windows System Printer.pc3
1000
Lexmark Optra Rx
1000
Lexmark Rx
1000
Erstellt von Lexmark Benutzerdefinierte Installation,Nov 13,2005,10:03
1070
     0
  0
MATERIAL
  5
3F0
102
{ACAD_XDICTIONARY
360
B9B
102
}
102
{ACAD_REACTORS
330
386
102
}
330
386
100
AcDbMaterial
  1
ByBlock
 73
     1
 78
     1
172
     1
176
     1
270
     1
274
     1
  0
MATERIAL
  5
3EF
102
{ACAD_XDICTIONARY
360
B99
102
}
102
{ACAD_REACTORS
330
386
102
}
330
386
100
AcDbMaterial
  1
ByLayer
 73
     1
 78
     1
172
     1
176
     1
270
     1
274
     1
  0
MATERIAL
  5
3F1
102
{ACAD_XDICTIONARY
360
B9D
102
}
102
{ACAD_REACTORS
330
386
102
}
330
386
100
AcDbMaterial
  1
Global
 73
     1
 78
     1
172
     1
176
     1
270
     1
274
     1
  0
MLEADERSTYLE
  5
43D
102
{ACAD_REACTORS
330
43C
330
AF8
330
AFC
330
B37
102
}
330
43C
100
AcDbMLeaderStyle
170
     2
171
     1
172
     0
 90
        2
 40
0.0
 41
0.0
173
     1
 91
-1056964608
340
12
 92
       -2
290
     1
 42
2.0
291
     1
 43
0.36
  3
Standard
 44
4.0
300

342
10
174
     1
178
     6
175
     1
176
     0
 93
-1056964608
 45
4.0
292
     0
297
     0
 46
4.0
 94
-1056964608
 47
1.0
 49
1.0
140
1.0
293
     1
141
0.0
294
     1
177
     0
142
1.0
295
     0
296
     0
143
0.125
1001
ACAD_MLEADERVER
1070
     2
  0
MLINESTYLE
  5
1B
102
{ACAD_REACTORS
330
E
102
}
330
E
100
AcDbMlineStyle
  2
STANDARD
 70
     0
  3

 62
     0
 51
90.0
 52
90.0
 71
     2
 49
0.5
 62
   256
  6
BYLAYER
 49
-0.5
 62
   256
  6
BYLAYER
  0
ACDBPLACEHOLDER
  5
300
102
{ACAD_REACTORS
330
2FF
102
}
330
2FF
  0
SCALE
  5
41B
102
{ACAD_REACTORS
330
41A
102
}
330
41A
100
AcDbScale
 70
     0
300
1:1
140
1.0
141
1.0
290
     1
  0
SCALE
  5
41C
102
{ACAD_REACTORS
330
41A
102
}
330
41A
100
AcDbScale
 70
     0
300
1:2
140
1.0
141
2.0
290
     0
  0
SCALE
  5
41D
102
{ACAD_REACTORS
330
41A
102
}
330
41A
100
AcDbScale
 70
     0
300
1:4
140
1.0
141
4.0
290
     0
  0
SCALE
  5
41E
102
{ACAD_REACTORS
330
41A
102
}
330
41A
100
AcDbScale
 70
     0
300
1:5
140
1.0
141
5.0
290
     0
  0
SCALE
  5
41F
102
{ACAD_REACTORS
330
41A
102
}
330
41A
100
AcDbScale
 70
     0
300
1:8
140
1.0
141
8.0
290
     0
  0
SCALE
  5
420
102
{ACAD_REACTORS
330
41A
102
}
330
41A
100
AcDbScale
 70
     0
300
1:10
140
1.0
141
10.0
290
     0
  0
SCALE
  5
421
102
{ACAD_REACTORS
330
41A
102
}
330
41A
100
AcDbScale
 70
     0
300
1:16
140
1.0
141
16.0
290
     0
  0
SCALE
  5
422
102
{ACAD_REACTORS
330
41A
102
}
330
41A
100
AcDbScale
 70
     0
300
1:20
140
1.0
141
20.0
290
     0
  0
SCALE
  5
423
102
{ACAD_REACTORS
330
41A
102
}
330
41A
100
AcDbScale
 70
     0
300
1:30
140
1.0
141
30.0
290
     0
  0
SCALE
  5
424
102
{ACAD_REACTORS
330
41A
102
}
330
41A
100
AcDbScale
 70
     0
300
1:40
140
1.0
141
40.0
290
     0
  0
SCALE
  5
425
102
{ACAD_REACTORS
330
41A
102
}
330
41A
100
AcDbScale
 70
     0
300
1:50
140
1.0
141
50.0
290
     0
  0
SCALE
  5
426
102
{ACAD_REACTORS
330
41A
102
}
330
41A
100
AcDbScale
 70
     0
300
1:100
140
1.0
141
100.0
290
     0
  0
SCALE
  5
427
102
{ACAD_REACTORS
330
41A
102
}
330
41A
100
AcDbScale
 70
     0
300
2:1
140
2.0
141
1.0
290
     0
  0
SCALE
  5
428
102
{ACAD_REACTORS
330
41A
102
}
330
41A
100
AcDbScale
 70
     0
300
4:1
140
4.0
141
1.0
290
     0
  0
SCALE
  5
429
102
{ACAD_REACTORS
330
41A
102
}
330
41A
100
AcDbScale
 70
     0
300
8:1
140
8.0
141
1.0
290
     0
  0
SCALE
  5
42A
102
{ACAD_REACTORS
330
41A
102
}
330
41A
100
AcDbScale
 70
     0
300
10:1
140
10.0
141
1.0
290
     0
  0
SCALE
  5
42B
102
{ACAD_REACTORS
330
41A
102
}
330
41A
100
AcDbScale
 70
     0
300
100:1
140
100.0
141
1.0
290
     0
  0
SCALE
  5
42C
102
{ACAD_REACTORS
330
41A
102
}
330
41A
100
AcDbScale
 70
     0
300
1/128" = 1'-0"
140
0.0078125
141
12.0
290
     0
  0
SCALE
  5
42D
102
{ACAD_REACTORS
330
41A
102
}
330
41A
100
AcDbScale
 70
     0
300
1/64" = 1'-0"
140
0.015625
141
12.0
290
     0
  0
SCALE
  5
42E
102
{ACAD_REACTORS
330
41A
102
}
330
41A
100
AcDbScale
 70
     0
300
1/32" = 1'-0"
140
0.03125
141
12.0
290
     0
  0
SCALE
  5
42F
102
{ACAD_REACTORS
330
41A
102
}
330
41A
100
AcDbScale
 70
     0
300
1/16" = 1'-0"
140
0.0625
141
12.0
290
     0
  0
SCALE
  5
430
102
{ACAD_REACTORS
330
41A
102
}
330
41A
100
AcDbScale
 70
     0
300
3/32" = 1'-0"
140
0.09375
141
12.0
290
     0
  0
SCALE
  5
431
102
{ACAD_REACTORS
330
41A
102
}
330
41A
100
AcDbScale
 70
     0
300
1/8" = 1'-0"
140
0.125
141
12.0
290
     0
  0
SCALE
  5
432
102
{ACAD_REACTORS
330
41A
102
}
330
41A
100
AcDbScale
 70
     0
300
3/16" = 1'-0"
140
0.1875
141
12.0
290
     0
  0
SCALE
  5
433
102
{ACAD_REACTORS
330
41A
102
}
330
41A
100
AcDbScale
 70
     0
300
1/4" = 1'-0"
140
0.25
141
12.0
290
     0
  0
SCALE
  5
434
102
{ACAD_REACTORS
330
41A
102
}
330
41A
100
AcDbScale
 70
     0
300
3/8" = 1'-0"
140
0.375
141
12.0
290
     0
  0
SCALE
  5
435
102
{ACAD_REACTORS
330
41A
102
}
330
41A
100
AcDbScale
 70
     0
300
1/2" = 1'-0"
140
0.5
141
12.0
290
     0
  0
SCALE
  5
436
102
{ACAD_REACTORS
330
41A
102
}
330
41A
100
AcDbScale
 70
     0
300
3/4" = 1'-0"
140
0.75
141
12.0
290
     0
  0
SCALE
  5
437
102
{ACAD_REACTORS
330
41A
102
}
330
41A
100
AcDbScale
 70
     0
300
1" = 1'-0"
140
1.0
141
12.0
290
     0
  0
SCALE
  5
438
102
{ACAD_REACTORS
330
41A
102
}
330
41A
100
AcDbScale
 70
     0
300
1-1/2" = 1'-0"
140
1.5
141
12.0
290
     0
  0
SCALE
  5
439
102
{ACAD_REACTORS
330
41A
102
}
330
41A
100
AcDbScale
 70
     0
300
3" = 1'-0"
140
3.0
141
12.0
290
     0
  0
SCALE
  5
43A
102
{ACAD_REACTORS
330
41A
102
}
330
41A
100
AcDbScale
 70
     0
300
6" = 1'-0"
140
6.0
141
12.0
290
     0
  0
SCALE
  5
43B
102
{ACAD_REACTORS
330
41A
102
}
330
41A
100
AcDbScale
 70
     0
300
1'-0" = 1'-0"
140
12.0
141
12.0
290
     0
  0
TABLESTYLE
  5
389
102
{ACAD_XDICTIONARY
360
444
102
}
102
{ACAD_REACTORS
330
388
102
}
330
388
100
AcDbTableStyle
  3
Standard
 70
     0
 71
     0
 40
1.5
 41
1.5
280
     0
281
     0
  7
STANDARD
140
4.5
170
     2
 62
     0
 63
     7
283
     0
274
    -2
284
     1
 64
     0
275
    -2
285
     1
 65
     0
276
    -2
286
     1
 66
     0
277
    -2
287
     1
 67
     0
278
    -2
288
     1
 68
     0
279
    -2
289
     1
 69
     0
  7
STANDARD
140
6.0
170
     5
 62
     0
 63
     7
283
     0
274
    -2
284
     1
 64
     0
275
    -2
285
     1
 65
     0
276
    -2
286
     1
 66
     0
277
    -2
287
     1
 67
     0
278
    -2
288
     1
 68
     0
279
    -2
289
     1
 69
     0
  7
STANDARD
140
4.5
170
     5
 62
     0
 63
     7
283
     0
274
    -2
284
     1
 64
     0
275
    -2
285
     1
 65
     0
276
    -2
286
     1
 66
     0
277
    -2
287
     1
 67
     0
278
    -2
288
     1
 68
     0
279
    -2
289
     1
 69
     0
  0
VISUALSTYLE
  5
3F8
102
{ACAD_XDICTIONARY
360
BF8
102
}
102
{ACAD_REACTORS
330
3F2
102
}
330
3F2
100
AcDbVisualStyle
  2

 70
     4
 71
     0
 72
     2
 73
     0
 90
        0
 40
-0.6
 41
-30.0
 62
     5
 63
     7
 74
     1
 91
        4
 64
     7
 65
   257
 75
     1
175
     1
 42
1.0
 92
        0
 66
   257
 43
1.0
 76
     1
 77
     6
 78
     2
 67
     7
 79
     5
170
     0
171
     0
290
     0
174
     0
 93
        1
 44
0.0
173
     0
291
     0
 45
0.0
1001
ACAD
1000
AcDbSavedByObjectVersion
1070
     0
  0
VISUALSTYLE
  5
3FA
102
{ACAD_XDICTIONARY
360
BFC
102
}
102
{ACAD_REACTORS
330
3F2
102
}
330
3F2
100
AcDbVisualStyle
  2

 70
     6
 71
     1
 72
     2
 73
     2
 90
        0
 40
-0.6
 41
-30.0
 62
     5
 63
     7
 74
     2
 91
        2
 64
     7
 65
   257
 75
     2
175
     1
 42
40.0
 92
        0
 66
   257
 43
1.0
 76
     1
 77
     6
 78
     2
 67
     7
 79
     3
170
     0
171
     0
290
     0
174
     0
 93
        1
 44
0.0
173
     0
291
     0
 45
0.0
1001
ACAD
1000
AcDbSavedByObjectVersion
1070
     0
  0
VISUALSTYLE
  5
3F9
102
{ACAD_XDICTIONARY
360
BFA
102
}
102
{ACAD_REACTORS
330
3F2
102
}
330
3F2
100
AcDbVisualStyle
  2

 70
     5
 71
     0
 72
     2
 73
     0
 90
        0
 40
-0.6
 41
-30.0
 62
     5
 63
     7
 74
     1
 91
        4
 64
     7
 65
   257
 75
     1
175
     1
 42
1.0
 92
        0
 66
   257
 43
1.0
 76
     1
 77
     6
 78
     2
 67
     7
 79
     5
170
     0
171
     0
290
     0
174
     0
 93
        1
 44
0.0
173
     0
291
     0
 45
0.0
1001
ACAD
1000
AcDbSavedByObjectVersion
1070
     0
  0
VISUALSTYLE
  5
3F7
102
{ACAD_XDICTIONARY
360
BF6
102
}
102
{ACAD_REACTORS
330
3F2
102
}
330
3F2
100
AcDbVisualStyle
  2

 70
     7
 71
     1
 72
     0
 73
     1
 90
        0
 40
-0.6
 41
-30.0
 62
     5
 63
     7
 74
     0
 91
        4
 64
     7
 65
   257
 75
     1
175
     1
 42
1.0
 92
        8
 66
     7
 43
1.0
 76
     1
 77
     6
 78
     2
 67
     7
 79
     5
170
     0
171
     0
290
     0
174
     0
 93
        1
 44
0.0
173
     0
291
     1
 45
0.0
1001
ACAD
1000
AcDbSavedByObjectVersion
1070
     0
  0
VISUALSTYLE
  5
3FE
102
{ACAD_XDICTIONARY
360
C04
102
}
102
{ACAD_REACTORS
330
3F2
102
}
330
3F2
100
AcDbVisualStyle
  2

 70
    12
 71
     2
 72
     2
 73
     0
 90
        0
 40
-0.6
 41
-30.0
 62
     5
 63
     7
 74
     1
 91
        4
 64
     7
 65
   257
 75
     1
175
     1
 42
1.0
 92
        8
 66
     7
 43
1.0
 76
     1
 77
     6
 78
     2
 67
     7
 79
     5
170
     0
171
     0
290
     0
174
     0
 93
        1
 44
50.0
173
     0
291
     1
 45
0.0
1001
ACAD
1000
AcDbSavedByObjectVersion
1070
     0
  0
VISUALSTYLE
  5
402
102
{ACAD_XDICTIONARY
360
C0C
102
}
102
{ACAD_REACTORS
330
3F2
102
}
330
3F2
100
AcDbVisualStyle
  2

 70
    16
 71
     2
 72
     2
 73
     3
 90
        0
 40
-0.6
 41
-30.0
 62
     5
 63
     8
 74
     1
 91
        4
 64
     7
 65
   257
 75
     1
175
     1
 42
1.0
 92
        8
 66
     8
 43
1.0
 76
     1
 77
     6
 78
     2
 67
     7
 79
     5
170
     0
171
     0
290
     0
174
     0
 93
        1
 44
0.0
173
     0
291
     1
 45
0.0
1001
ACAD
1000
AcDbSavedByObjectVersion
1070
     0
  0
VISUALSTYLE
  5
3FB
102
{ACAD_XDICTIONARY
360
BFE
102
}
102
{ACAD_REACTORS
330
3F2
102
}
330
3F2
100
AcDbVisualStyle
  2

 70
     9
 71
     3
 72
     2
 73
     0
 90
        0
 40
-0.6
 41
-30.0
 62
     5
 63
     7
 74
     2
 91
        2
 64
     7
 65
   257
 75
     1
175
     1
 42
40.0
 92
        8
 66
     7
 43
1.0
 76
     1
 77
     6
 78
     2
 67
     7
 79
     3
170
     0
171
     0
290
     0
174
     0
 93
        1
 44
0.0
173
     0
291
     0
 45
0.0
1001
ACAD
1000
AcDbSavedByObjectVersion
1070
     0
  0
VISUALSTYLE
  5
3FD
102
{ACAD_XDICTIONARY
360
C02
102
}
102
{ACAD_REACTORS
330
3F2
102
}
330
3F2
100
AcDbVisualStyle
  2

 70
    11
 71
     2
 72
     2
 73
     0
 90
        0
 40
-0.6
 41
-30.0
 62
     5
 63
     7
 74
     1
 91
        4
 64
     7
 65
   257
 75
     1
175
     1
 42
1.0
 92
        8
 66
     7
 43
1.0
 76
     1
 77
     6
 78
     2
 67
     7
 79
     5
170
     0
171
     0
290
     0
174
     0
 93
        1
 44
-50.0
173
     0
291
     1
 45
0.0
1001
ACAD
1000
AcDbSavedByObjectVersion
1070
     0
  0
VISUALSTYLE
  5
BBA
102
{ACAD_XDICTIONARY
360
C20
102
}
102
{ACAD_REACTORS
330
3F2
102
}
330
3F2
100
AcDbVisualStyle
  2
EdgeColorOff
 70
    22
 71
     2
 72
     2
 73
     0
 90
        0
 40
-0.6
 41
-30.0
 62
     5
 63
     7
421
 16777215
 74
     1
 91
        4
 64
     7
 65
   257
 75
     1
175
     1
 42
1.0
 92
        8
 66
     7
 43
1.0
 76
     1
 77
     6
 78
     2
 67
     7
 79
     5
170
     0
171
     0
290
     0
174
     0
 93
        1
 44
0.0
173
     0
291
     1
 45
0.0
1001
ACAD
1000
AcDbSavedByObjectVersion
1070
     0
  0
VISUALSTYLE
  5
401
102
{ACAD_XDICTIONARY
360
C0A
102
}
102
{ACAD_REACTORS
330
3F2
102
}
330
3F2
100
AcDbVisualStyle
  2

 70
    15
 71
     2
 72
     2
 73
     0
 90
        0
 40
-0.6
 41
-30.0
 62
     5
 63
     7
 74
     1
 91
        4
 64
     7
 65
   257
 75
     1
175
     1
 42
1.0
 92
        8
 66
     7
 43
1.0
 76
     1
 77
     6
 78
     2
 67
     7
 79
     5
170
     0
171
     0
290
     0
174
     0
 93
        1
 44
0.0
173
     0
291
     1
 45
0.0
1001
ACAD
1000
AcDbSavedByObjectVersion
1070
     0
  0
VISUALSTYLE
  5
3F3
102
{ACAD_XDICTIONARY
360
BEE
102
}
102
{ACAD_REACTORS
330
3F2
102
}
330
3F2
100
AcDbVisualStyle
  2

 70
     0
 71
     2
 72
     1
 73
     1
 90
        2
 40
-0.6
 41
30.0
 62
     5
 63
     7
 74
     0
 91
        4
 64
     7
 65
   257
 75
     1
175
     1
 42
1.0
 92
        8
 66
     7
 43
1.0
 76
     1
 77
     6
 78
     2
 67
     7
 79
     5
170
     0
171
     0
290
     0
174
     0
 93
       13
 44
0.0
173
     0
291
     1
 45
0.0
1001
ACAD
1000
AcDbSavedByObjectVersion
1070
     0
  0
VISUALSTYLE
  5
3F4
102
{ACAD_XDICTIONARY
360
BF0
102
}
102
{ACAD_REACTORS
330
3F2
102
}
330
3F2
100
AcDbVisualStyle
  2

 70
     1
 71
     2
 72
     1
 73
     1
 90
        2
 40
-0.6
 41
30.0
 62
     5
 63
     7
 74
     1
 91
        4
 64
     7
 65
   257
 75
     1
175
     1
 42
1.0
 92
        0
 66
   257
 43
1.0
 76
     1
 77
     6
 78
     2
 67
     7
 79
     5
170
     0
171
     0
290
     0
174
     0
 93
       13
 44
0.0
173
     0
291
     1
 45
0.0
1001
ACAD
1000
AcDbSavedByObjectVersion
1070
     0
  0
VISUALSTYLE
  5
3F5
102
{ACAD_XDICTIONARY
360
BF2
102
}
102
{ACAD_REACTORS
330
3F2
102
}
330
3F2
100
AcDbVisualStyle
  2

 70
     2
 71
     2
 72
     2
 73
     1
 90
        2
 40
-0.6
 41
30.0
 62
     5
 63
     7
 74
     0
 91
        4
 64
     7
 65
   257
 75
     1
175
     1
 42
1.0
 92
        0
 66
     7
 43
1.0
 76
     1
 77
     6
 78
     2
 67
     7
 79
     5
170
     0
171
     0
290
     0
174
     0
 93
       13
 44
0.0
173
     0
291
     1
 45
0.0
1001
ACAD
1000
AcDbSavedByObjectVersion
1070
     0
  0
VISUALSTYLE
  5
3F6
102
{ACAD_XDICTIONARY
360
BF4
102
}
102
{ACAD_REACTORS
330
3F2
102
}
330
3F2
100
AcDbVisualStyle
  2

 70
     3
 71
     2
 72
     2
 73
     1
 90
        2
 40
-0.6
 41
30.0
 62
     5
 63
     7
 74
     1
 91
        4
 64
     7
 65
   257
 75
     1
175
     1
 42
1.0
 92
        0
 66
   257
 43
1.0
 76
     1
 77
     6
 78
     2
 67
     7
 79
     5
170
     0
171
     0
290
     0
174
     0
 93
       13
 44
0.0
173
     0
291
     1
 45
0.0
1001
ACAD
1000
AcDbSavedByObjectVersion
1070
     0
  0
VISUALSTYLE
  5
BB2
102
{ACAD_XDICTIONARY
360
C10
102
}
102
{ACAD_REACTORS
330
3F2
102
}
330
3F2
100
AcDbVisualStyle
  2
Hidden
 70
     6
 71
     1
 72
     2
 73
     2
 90
        0
 40
-0.6
 41
-30.0
 62
     5
 63
     7
421
 16777215
 74
     2
 91
        2
 64
     7
 65
   257
 75
     2
175
     1
 42
40.0
 92
        0
 66
   257
 43
1.0
 76
     1
 77
     6
 78
     2
 67
     7
 79
     3
170
     0
171
     0
290
     0
174
     0
 93
        1
 44
0.0
173
     0
291
     0
 45
0.0
1001
ACAD
1000
AcDbSavedByObjectVersion
1070
     0
  0
VISUALSTYLE
  5
BB8
102
{ACAD_XDICTIONARY
360
C1C
102
}
102
{ACAD_REACTORS
330
3F2
102
}
330
3F2
100
AcDbVisualStyle
  2
JitterOff
 70
    20
 71
     2
 72
     2
 73
     0
 90
        0
 40
-0.6
 41
-30.0
 62
     5
 63
     7
421
 16777215
 74
     1
 91
        4
 64
     7
 65
   257
 75
     1
175
     1
 42
1.0
 92
       10
 66
     7
 43
1.0
 76
     1
 77
     6
 78
     2
 67
     7
 79
     5
170
     0
171
     0
290
     0
174
     0
 93
        1
 44
0.0
173
     0
291
     1
 45
0.0
1001
ACAD
1000
AcDbSavedByObjectVersion
1070
     0
  0
VISUALSTYLE
  5
400
102
{ACAD_XDICTIONARY
360
C08
102
}
102
{ACAD_REACTORS
330
3F2
102
}
330
3F2
100
AcDbVisualStyle
  2

 70
    14
 71
     2
 72
     2
 73
     0
 90
        0
 40
-0.6
 41
-30.0
 62
     5
 63
     7
 74
     1
 91
        4
 64
     7
 65
   257
 75
     7
175
     7
 42
1.0
 92
        8
 66
     7
 43
1.0
 76
     1
 77
     6
 78
     2
 67
     7
 79
     5
170
     0
171
     0
290
     0
174
     0
 93
        1
 44
0.0
173
     0
291
     1
 45
0.0
1001
ACAD
1000
AcDbSavedByObjectVersion
1070
     0
  0
VISUALSTYLE
  5
BB9
102
{ACAD_XDICTIONARY
360
C1E
102
}
102
{ACAD_REACTORS
330
3F2
102
}
330
3F2
100
AcDbVisualStyle
  2
OverhangOff
 70
    21
 71
     2
 72
     2
 73
     0
 90
        0
 40
-0.6
 41
-30.0
 62
     5
 63
     7
421
 16777215
 74
     1
 91
        4
 64
     7
 65
   257
 75
     1
175
     1
 42
1.0
 92
        9
 66
     7
 43
1.0
 76
     1
 77
     6
 78
     2
 67
     7
 79
     5
170
     0
171
     0
290
     0
174
     0
 93
        1
 44
0.0
173
     0
291
     1
 45
0.0
1001
ACAD
1000
AcDbSavedByObjectVersion
1070
     0
  0
VISUALSTYLE
  5
3FC
102
{ACAD_XDICTIONARY
360
C00
102
}
102
{ACAD_REACTORS
330
3F2
102
}
330
3F2
100
AcDbVisualStyle
  2

 70
     8
 71
     2
 72
     2
 73
     0
 90
        0
 40
-0.6
 41
-30.0
 62
     5
 63
     7
 74
     1
 91
        0
 64
     7
 65
   257
 75
     1
175
     1
 42
1.0
 92
        8
 66
     8
 43
1.0
 76
     1
 77
     6
 78
     2
 67
     7
 79
     5
170
     0
171
     0
290
     0
174
     0
 93
       13
 44
0.0
173
     0
291
     0
 45
0.0
1001
ACAD
1000
AcDbSavedByObjectVersion
1070
     0
  0
VISUALSTYLE
  5
BB7
102
{ACAD_XDICTIONARY
360
C1A
102
}
102
{ACAD_REACTORS
330
3F2
102
}
330
3F2
100
AcDbVisualStyle
  2
Shaded
 70
    27
 71
     2
 72
     2
 73
     1
 90
        2
 40
-0.6
 41
30.0
 62
     5
 63
     7
421
 16777215
 74
     0
 91
        4
 64
     7
 65
   257
 75
     1
175
     1
 42
1.0
 92
        8
 66
   257
 43
1.0
 76
     1
 77
     6
 78
     2
 67
     8
425
  7895160
 79
     3
170
     0
171
     0
290
     0
174
     0
 93
        5
 44
0.0
173
     0
291
     0
 45
0.0
1001
ACAD
1000
AcDbSavedByObjectVersion
1070
     0
  0
VISUALSTYLE
  5
BB6
102
{ACAD_XDICTIONARY
360
C18
102
}
102
{ACAD_REACTORS
330
3F2
102
}
330
3F2
100
AcDbVisualStyle
  2
Shaded with edges
 70
    26
 71
     2
 72
     2
 73
     1
 90
        2
 40
-0.6
 41
30.0
 62
     5
 63
     7
421
 16777215
 74
     1
 91
       10
 64
     7
 65
   257
 75
     2
175
     1
 42
1.0
 92
        8
 66
   257
 43
1.0
 76
     1
 77
     6
 78
     2
 67
     7
 79
     3
170
     0
171
     0
290
     0
174
     0
 93
        5
 44
0.0
173
     0
291
     0
 45
0.0
1001
ACAD
1000
AcDbSavedByObjectVersion
1070
     0
  0
VISUALSTYLE
  5
BB3
102
{ACAD_XDICTIONARY
360
C12
102
}
102
{ACAD_REACTORS
330
3F2
102
}
330
3F2
100
AcDbVisualStyle
  2
Shades of Gray
 70
    23
 71
     2
 72
     2
 73
     3
 90
        0
 40
-0.6
 41
-30.0
 62
     5
 63
     7
421
 16777215
 74
     2
 91
        2
 64
     7
 65
     7
 75
     1
175
     1
 42
40.0
 92
        8
 66
     7
 43
1.0
 76
     1
 77
     6
 78
     2
 67
     7
 79
     3
170
     0
171
     0
290
     0
174
     0
 93
        1
 44
0.0
173
     0
291
     0
 45
0.0
1001
ACAD
1000
AcDbSavedByObjectVersion
1070
     0
  0
VISUALSTYLE
  5
BB4
102
{ACAD_XDICTIONARY
360
C14
102
}
102
{ACAD_REACTORS
330
3F2
102
}
330
3F2
100
AcDbVisualStyle
  2
Sketchy
 70
    24
 71
     1
 72
     2
 73
     2
 90
        0
 40
-0.6
 41
-30.0
 62
     5
 63
     7
421
 16777215
 74
     2
 91
        2
 64
     7
 65
     7
 75
     1
175
     1
 42
40.0
 92
       11
 66
     7
 43
1.0
 76
     1
 77
     6
 78
     2
 67
     7
 79
     6
170
     0
171
     0
290
     0
174
     0
 93
        1
 44
0.0
173
     0
291
     0
 45
0.0
1001
ACAD
1000
AcDbSavedByObjectVersion
1070
     0
  0
VISUALSTYLE
  5
3FF
102
{ACAD_XDICTIONARY
360
C06
102
}
102
{ACAD_REACTORS
330
3F2
102
}
330
3F2
100
AcDbVisualStyle
  2

 70
    13
 71
     2
 72
     2
 73
     0
 90
        0
 40
-0.6
 41
-30.0
 62
     5
 63
     7
 74
     1
 91
        4
 64
     7
 65
   257
 75
     1
175
     1
 42
1.0
 92
       12
 66
     7
 43
1.0
 76
     1
 77
     6
 78
     2
 67
     7
 79
     5
170
     0
171
     0
290
     0
174
     0
 93
        1
 44
0.0
173
     0
291
     1
 45
0.0
1001
ACAD
1000
AcDbSavedByObjectVersion
1070
     0
  0
VISUALSTYLE
  5
BB1
102
{ACAD_XDICTIONARY
360
C0E
102
}
102
{ACAD_REACTORS
330
3F2
102
}
330
3F2
100
AcDbVisualStyle
  2
Wireframe
 70
     5
 71
     0
 72
     2
 73
     0
 90
        0
 40
-0.6
 41
-30.0
 62
     5
 63
     7
421
 16777215
 74
     1
 91
        4
 64
     7
 65
   257
 75
     1
175
     1
 42
1.0
 92
        0
 66
   257
 43
1.0
 76
     1
 77
     6
 78
     2
 67
     7
 79
     3
170
     0
171
     0
290
     0
174
     0
 93
        1
 44
0.0
173
     0
291
     0
 45
0.0
1001
ACAD
1000
AcDbSavedByObjectVersion
1070
     0
  0
VISUALSTYLE
  5
BB5
102
{ACAD_XDICTIONARY
360
C16
102
}
102
{ACAD_REACTORS
330
3F2
102
}
330
3F2
100
AcDbVisualStyle
  2
X-Ray
 70
    25
 71
     2
 72
     2
 73
     1
 90
        1
 40
0.5
 41
-30.0
 62
     5
 63
     7
421
 16777215
 74
     1
 91
        0
 64
     7
 65
   257
 75
     1
175
     1
 42
1.0
 92
        8
 66
     7
 43
1.0
 76
     1
 77
     6
 78
     2
 67
     7
 79
     3
170
     0
171
     0
290
     0
174
     0
 93
       13
 44
0.0
173
     0
291
     0
 45
0.0
1001
ACAD
1000
AcDbSavedByObjectVersion
1070
     0
  0
DICTIONARYVAR
  5
449
102
{ACAD_REACTORS
330
357
102
}
330
357
100
DictionaryVariables
280
     0
  1
1:1
  0
DICTIONARYVAR
  5
447
102
{ACAD_REACTORS
330
357
102
}
330
357
100
DictionaryVariables
280
     0
  1
STANDARD
  0
DICTIONARYVAR
  5
38E
102
{ACAD_REACTORS
330
357
102
}
330
357
100
DictionaryVariables
280
     0
  1
STANDARD
  0
DICTIONARYVAR
  5
359
102
{ACAD_REACTORS
330
357
102
}
330
357
100
DictionaryVariables
280
     0
  1
2
  0
DICTIONARYVAR
  5
358
102
{ACAD_REACTORS
330
357
102
}
330
357
100
DictionaryVariables
280
     0
  1
1
  0
DICTIONARYVAR
  5
B91
102
{ACAD_REACTORS
330
357
102
}
330
357
100
DictionaryVariables
280
     0
  1
0
  0
DICTIONARYVAR
  5
44A
102
{ACAD_REACTORS
330
357
102
}
330
357
100
DictionaryVariables
280
     0
  1
0
  0
DICTIONARYVAR
  5
448
102
{ACAD_REACTORS
330
357
102
}
330
357
100
DictionaryVariables
280
     0
  1
0
  0
DICTIONARYVAR
  5
B90
102
{ACAD_REACTORS
330
357
102
}
330
357
100
DictionaryVariables
280
     0
  1
127
  0
DICTIONARYVAR
  5
BE9
102
{ACAD_REACTORS
330
357
102
}
330
357
100
DictionaryVariables
280
     0
  1
2
  0
XRECORD
  5
69D
102
{ACAD_REACTORS
330
69C
102
}
330
69C
100
AcDbXrecord
280
     1
  0
DICTIONARY
  5
B9B
330
3F0
100
AcDbDictionary
280
     1
281
     1
  3
ACAD_XREC_ROUNDTRIP
360
B9C
  0
DICTIONARY
  5
B99
330
3EF
100
AcDbDictionary
280
     1
281
     1
  3
ACAD_XREC_ROUNDTRIP
360
B9A
  0
DICTIONARY
  5
B9D
330
3F1
100
AcDbDictionary
280
     1
281
     1
  3
ACAD_XREC_ROUNDTRIP
360
B9E
  0
DICTIONARY
  5
444
330
389
100
AcDbDictionary
280
     1
281
     1
  3
ACAD_ROUNDTRIP_2008_TABLESTYLE_CELLSTYLEMAP
360
BEB
  3
ACAD_XREC_ROUNDTRIP
360
BED
  0
DICTIONARY
  5
BF8
330
3F8
100
AcDbDictionary
280
     1
281
     1
  3
ACAD_XREC_ROUNDTRIP
360
BF9
  0
DICTIONARY
  5
BFC
330
3FA
100
AcDbDictionary
280
     1
281
     1
  3
ACAD_XREC_ROUNDTRIP
360
BFD
  0
DICTIONARY
  5
BFA
330
3F9
100
AcDbDictionary
280
     1
281
     1
  3
ACAD_XREC_ROUNDTRIP
360
BFB
  0
DICTIONARY
  5
BF6
330
3F7
100
AcDbDictionary
280
     1
281
     1
  3
ACAD_XREC_ROUNDTRIP
360
BF7
  0
DICTIONARY
  5
C04
330
3FE
100
AcDbDictionary
280
     1
281
     1
  3
ACAD_XREC_ROUNDTRIP
360
C05
  0
DICTIONARY
  5
C0C
330
402
100
AcDbDictionary
280
     1
281
     1
  3
ACAD_XREC_ROUNDTRIP
360
C0D
  0
DICTIONARY
  5
BFE
330
3FB
100
AcDbDictionary
280
     1
281
     1
  3
ACAD_XREC_ROUNDTRIP
360
BFF
  0
DICTIONARY
  5
C02
330
3FD
100
AcDbDictionary
280
     1
281
     1
  3
ACAD_XREC_ROUNDTRIP
360
C03
  0
DICTIONARY
  5
C20
330
BBA
100
AcDbDictionary
280
     1
281
     1
  3
ACAD_XREC_ROUNDTRIP
360
C21
  0
DICTIONARY
  5
C0A
330
401
100
AcDbDictionary
280
     1
281
     1
  3
ACAD_XREC_ROUNDTRIP
360
C0B
  0
DICTIONARY
  5
BEE
330
3F3
100
AcDbDictionary
280
     1
281
     1
  3
ACAD_XREC_ROUNDTRIP
360
BEF
  0
DICTIONARY
  5
BF0
330
3F4
100
AcDbDictionary
280
     1
281
     1
  3
ACAD_XREC_ROUNDTRIP
360
BF1
  0
DICTIONARY
  5
BF2
330
3F5
100
AcDbDictionary
280
     1
281
     1
  3
ACAD_XREC_ROUNDTRIP
360
BF3
  0
DICTIONARY
  5
BF4
330
3F6
100
AcDbDictionary
280
     1
281
     1
  3
ACAD_XREC_ROUNDTRIP
360
BF5
  0
DICTIONARY
  5
C10
330
BB2
100
AcDbDictionary
280
     1
281
     1
  3
ACAD_XREC_ROUNDTRIP
360
C11
  0
DICTIONARY
  5
C1C
330
BB8
100
AcDbDictionary
280
     1
281
     1
  3
ACAD_XREC_ROUNDTRIP
360
C1D
  0
DICTIONARY
  5
C08
330
400
100
AcDbDictionary
280
     1
281
     1
  3
ACAD_XREC_ROUNDTRIP
360
C09
  0
DICTIONARY
  5
C1E
330
BB9
100
AcDbDictionary
280
     1
281
     1
  3
ACAD_XREC_ROUNDTRIP
360
C1F
  0
DICTIONARY
  5
C00
330
3FC
100
AcDbDictionary
280
     1
281
     1
  3
ACAD_XREC_ROUNDTRIP
360
C01
  0
DICTIONARY
  5
C1A
330
BB7
100
AcDbDictionary
280
     1
281
     1
  3
ACAD_XREC_ROUNDTRIP
360
C1B
  0
DICTIONARY
  5
C18
330
BB6
100
AcDbDictionary
280
     1
281
     1
  3
ACAD_XREC_ROUNDTRIP
360
C19
  0
DICTIONARY
  5
C12
330
BB3
100
AcDbDictionary
280
     1
281
     1
  3
ACAD_XREC_ROUNDTRIP
360
C13
  0
DICTIONARY
  5
C14
330
BB4
100
AcDbDictionary
280
     1
281
     1
  3
ACAD_XREC_ROUNDTRIP
360
C15
  0
DICTIONARY
  5
C06
330
3FF
100
AcDbDictionary
280
     1
281
     1
  3
ACAD_XREC_ROUNDTRIP
360
C07
  0
DICTIONARY
  5
C0E
330
BB1
100
AcDbDictionary
280
     1
281
     1
  3
ACAD_XREC_ROUNDTRIP
360
C0F
  0
DICTIONARY
  5
C16
330
BB5
100
AcDbDictionary
280
     1
281
     1
  3
ACAD_XREC_ROUNDTRIP
360
C17
  0
XRECORD
  5
B9C
102
{ACAD_REACTORS
330
B9B
102
}
330
B9B
100
AcDbXrecord
280
     1
102
MATERIAL
148
0.0
149
0.0
149
0.0
 93
        0
 94
      127
282
     0
 72
     1
 77
     1
171
     1
175
     1
179
     1
273
     0
  0
XRECORD
  5
B9A
102
{ACAD_REACTORS
330
B99
102
}
330
B99
100
AcDbXrecord
280
     1
102
MATERIAL
148
0.0
149
0.0
149
0.0
 93
        0
 94
      127
282
     0
 72
     1
 77
     1
171
     1
175
     1
179
     1
273
     0
  0
XRECORD
  5
B9E
102
{ACAD_REACTORS
330
B9D
102
}
330
B9D
100
AcDbXrecord
280
     1
102
MATERIAL
148
0.0
149
0.0
149
0.0
 93
        0
 94
      127
282
     0
 72
     1
 77
     1
171
     1
175
     1
179
     1
273
     0
  0
CELLSTYLEMAP
  5
BEB
102
{ACAD_REACTORS
330
444
102
}
330
444
100
AcDbCellStyleMap
 90
        3
300
CELLSTYLE
  1
TABLEFORMAT_BEGIN
 90
        5
170
     1
 91
        0
 92
    32768
 62
   257
 93
        1
300
CONTENTFORMAT
  1
CONTENTFORMAT_BEGIN
 90
        0
 91
        0
 92
        4
 93
        0
300

 40
0.0
140
1.0
 94
        5
 62
     0
340
10
144
6.0
309
CONTENTFORMAT_END
171
     1
301
MARGIN
  1
CELLMARGIN_BEGIN
 40
1.5
 40
1.5
 40
1.5
 40
1.5
 40
0.18
 40
0.18
309
CELLMARGIN_END
 94
        6
 95
        1
302
GRIDFORMAT
  1
GRIDFORMAT_BEGIN
 90
        0
 91
        1
 62
     0
 92
       -2
340
0
 93
        0
 40
0.045
309
GRIDFORMAT_END
 95
        2
302
GRIDFORMAT
  1
GRIDFORMAT_BEGIN
 90
        0
 91
        1
 62
     0
 92
       -2
340
0
 93
        0
 40
0.045
309
GRIDFORMAT_END
 95
        4
302
GRIDFORMAT
  1
GRIDFORMAT_BEGIN
 90
        0
 91
        1
 62
     0
 92
       -2
340
0
 93
        0
 40
0.045
309
GRIDFORMAT_END
 95
        8
302
GRIDFORMAT
  1
GRIDFORMAT_BEGIN
 90
        0
 91
        1
 62
     0
 92
       -2
340
0
 93
        0
 40
0.045
309
GRIDFORMAT_END
 95
       16
302
GRIDFORMAT
  1
GRIDFORMAT_BEGIN
 90
        0
 91
        1
 62
     0
 92
       -2
340
0
 93
        0
 40
0.045
309
GRIDFORMAT_END
 95
       32
302
GRIDFORMAT
  1
GRIDFORMAT_BEGIN
 90
        0
 91
        1
 62
     0
 92
       -2
340
0
 93
        0
 40
0.045
309
GRIDFORMAT_END
309
TABLEFORMAT_END
  1
CELLSTYLE_BEGIN
 90
        1
 91
        1
300
_TITLE
309
CELLSTYLE_END
300
CELLSTYLE
  1
TABLEFORMAT_BEGIN
 90
        5
170
     1
 91
        0
 92
        0
 62
   257
 93
        1
300
CONTENTFORMAT
  1
CONTENTFORMAT_BEGIN
 90
        0
 91
        0
 92
        4
 93
        0
300

 40
0.0
140
1.0
 94
        5
 62
     0
340
10
144
4.5
309
CONTENTFORMAT_END
171
     1
301
MARGIN
  1
CELLMARGIN_BEGIN
 40
1.5
 40
1.5
 40
1.5
 40
1.5
 40
0.18
 40
0.18
309
CELLMARGIN_END
 94
        6
 95
        1
302
GRIDFORMAT
  1
GRIDFORMAT_BEGIN
 90
        0
 91
        1
 62
     0
 92
       -2
340
0
 93
        0
 40
0.045
309
GRIDFORMAT_END
 95
        2
302
GRIDFORMAT
  1
GRIDFORMAT_BEGIN
 90
        0
 91
        1
 62
     0
 92
       -2
340
0
 93
        0
 40
0.045
309
GRIDFORMAT_END
 95
        4
302
GRIDFORMAT
  1
GRIDFORMAT_BEGIN
 90
        0
 91
        1
 62
     0
 92
       -2
340
0
 93
        0
 40
0.045
309
GRIDFORMAT_END
 95
        8
302
GRIDFORMAT
  1
GRIDFORMAT_BEGIN
 90
        0
 91
        1
 62
     0
 92
       -2
340
0
 93
        0
 40
0.045
309
GRIDFORMAT_END
 95
       16
302
GRIDFORMAT
  1
GRIDFORMAT_BEGIN
 90
        0
 91
        1
 62
     0
 92
       -2
340
0
 93
        0
 40
0.045
309
GRIDFORMAT_END
 95
       32
302
GRIDFORMAT
  1
GRIDFORMAT_BEGIN
 90
        0
 91
        1
 62
     0
 92
       -2
340
0
 93
        0
 40
0.045
309
GRIDFORMAT_END
309
TABLEFORMAT_END
  1
CELLSTYLE_BEGIN
 90
        2
 91
        1
300
_HEADER
309
CELLSTYLE_END
300
CELLSTYLE
  1
TABLEFORMAT_BEGIN
 90
        5
170
     1
 91
        0
 92
        0
 62
   257
 93
        1
300
CONTENTFORMAT
  1
CONTENTFORMAT_BEGIN
 90
        0
 91
        0
 92
        4
 93
        0
300

 40
0.0
140
1.0
 94
        2
 62
     0
340
10
144
4.5
309
CONTENTFORMAT_END
171
     1
301
MARGIN
  1
CELLMARGIN_BEGIN
 40
1.5
 40
1.5
 40
1.5
 40
1.5
 40
0.18
 40
0.18
309
CELLMARGIN_END
 94
        6
 95
        1
302
GRIDFORMAT
  1
GRIDFORMAT_BEGIN
 90
        0
 91
        1
 62
     0
 92
       -2
340
0
 93
        0
 40
0.045
309
GRIDFORMAT_END
 95
        2
302
GRIDFORMAT
  1
GRIDFORMAT_BEGIN
 90
        0
 91
        1
 62
     0
 92
       -2
340
0
 93
        0
 40
0.045
309
GRIDFORMAT_END
 95
        4
302
GRIDFORMAT
  1
GRIDFORMAT_BEGIN
 90
        0
 91
        1
 62
     0
 92
       -2
340
0
 93
        0
 40
0.045
309
GRIDFORMAT_END
 95
        8
302
GRIDFORMAT
  1
GRIDFORMAT_BEGIN
 90
        0
 91
        1
 62
     0
 92
       -2
340
0
 93
        0
 40
0.045
309
GRIDFORMAT_END
 95
       16
302
GRIDFORMAT
  1
GRIDFORMAT_BEGIN
 90
        0
 91
        1
 62
     0
 92
       -2
340
0
 93
        0
 40
0.045
309
GRIDFORMAT_END
 95
       32
302
GRIDFORMAT
  1
GRIDFORMAT_BEGIN
 90
        0
 91
        1
 62
     0
 92
       -2
340
0
 93
        0
 40
0.045
309
GRIDFORMAT_END
309
TABLEFORMAT_END
  1
CELLSTYLE_BEGIN
 90
        3
 91
        2
300
_DATA
309
CELLSTYLE_END
  0
XRECORD
  5
BED
102
{ACAD_REACTORS
330
444
102
}
330
444
100
AcDbXrecord
280
     1
102
ACAD_ROUNDTRIP_PRE2007_TABLESTYLE
 90
        4
 91
        0
  1

 92
        4
 93
        0
  2

 94
        4
 95
        0
  3

  0
XRECORD
  5
BF9
102
{ACAD_REACTORS
330
BF8
102
}
330
BF8
100
AcDbXrecord
280
     1
102
RTVSPropertyOp0
 70
     1
102
RTVSPropertyOp1
 70
     1
102
RTVSPropertyOp2
 70
     1
102
RTVSPropertyOp3
 70
     1
102
RTVSPropertyOp4
 70
     1
102
RTVSPropertyOp5
 70
     1
102
RTVSPropertyOp6
 70
     1
102
RTVSPropertyOp7
 70
     1
102
RTVSPropertyOp8
 70
     1
102
RTVSPropertyOp9
 70
     1
102
RTVSPropertyOp10
 70
     1
102
RTVSPropertyOp11
 70
     1
102
RTVSPropertyOp12
 70
     1
102
RTVSPropertyOp13
 70
     1
102
RTVSPropertyOp14
 70
     1
102
RTVSPropertyOp15
 70
     1
102
RTVSPropertyOp16
 70
     1
102
RTVSPropertyOp17
 70
     1
102
RTVSPropertyOp18
 70
     1
102
RTVSPropertyOp19
 70
     1
102
RTVSPropertyOp20
 70
     1
102
RTVSPropertyOp21
 70
     1
102
RTVSPropertyOp22
 70
     1
102
RTVSPropertyOp23
 70
     1
102
RTVSPropertyOp24
 70
     1
102
RTVSPropertyOp25
 70
     1
102
RTVSPropertyOp26
 70
     1
102
RTVSPropertyOp27
 70
     1
102
RTVSPropertyOp28
 70
     1
102
RTVSPropertyOp29
 70
     1
102
RTVSPropertyOp30
 70
     1
102
RTVSPropertyOp31
 70
     1
102
RTVSPropertyOp32
 70
     1
  0
XRECORD
  5
BFD
102
{ACAD_REACTORS
330
BFC
102
}
330
BFC
100
AcDbXrecord
280
     1
102
RTVSPropertyOp0
 70
     1
102
RTVSPropertyOp1
 70
     1
102
RTVSPropertyOp2
 70
     1
102
RTVSPropertyOp3
 70
     1
102
RTVSPropertyOp4
 70
     1
102
RTVSPropertyOp5
 70
     1
102
RTVSPropertyOp6
 70
     1
102
RTVSPropertyOp7
 70
     1
102
RTVSPropertyOp8
 70
     1
102
RTVSPropertyOp9
 70
     1
102
RTVSPropertyOp10
 70
     1
102
RTVSPropertyOp11
 70
     1
102
RTVSPropertyOp12
 70
     1
102
RTVSPropertyOp13
 70
     1
102
RTVSPropertyOp14
 70
     1
102
RTVSPropertyOp15
 70
     1
102
RTVSPropertyOp16
 70
     1
102
RTVSPropertyOp17
 70
     1
102
RTVSPropertyOp18
 70
     1
102
RTVSPropertyOp19
 70
     1
102
RTVSPropertyOp20
 70
     1
102
RTVSPropertyOp21
 70
     1
102
RTVSPropertyOp22
 70
     1
102
RTVSPropertyOp23
 70
     1
102
RTVSPropertyOp24
 70
     1
102
RTVSPropertyOp25
 70
     1
102
RTVSPropertyOp26
 70
     1
102
RTVSPropertyOp27
 70
     1
102
RTVSPropertyOp28
 70
     1
102
RTVSPropertyOp29
 70
     1
102
RTVSPropertyOp30
 70
     1
102
RTVSPropertyOp31
 70
     1
102
RTVSPropertyOp32
 70
     1
  0
XRECORD
  5
BFB
102
{ACAD_REACTORS
330
BFA
102
}
330
BFA
100
AcDbXrecord
280
     1
102
RTVSPropertyOp0
 70
     1
102
RTVSPropertyOp1
 70
     1
102
RTVSPropertyOp2
 70
     1
102
RTVSPropertyOp3
 70
     1
102
RTVSPropertyOp4
 70
     1
102
RTVSPropertyOp5
 70
     1
102
RTVSPropertyOp6
 70
     1
102
RTVSPropertyOp7
 70
     1
102
RTVSPropertyOp8
 70
     1
102
RTVSPropertyOp9
 70
     1
102
RTVSPropertyOp10
 70
     1
102
RTVSPropertyOp11
 70
     1
102
RTVSPropertyOp12
 70
     1
102
RTVSPropertyOp13
 70
     1
102
RTVSPropertyOp14
 70
     1
102
RTVSPropertyOp15
 70
     1
102
RTVSPropertyOp16
 70
     1
102
RTVSPropertyOp17
 70
     1
102
RTVSPropertyOp18
 70
     1
102
RTVSPropertyOp19
 70
     1
102
RTVSPropertyOp20
 70
     1
102
RTVSPropertyOp21
 70
     1
102
RTVSPropertyOp22
 70
     1
102
RTVSPropertyOp23
 70
     1
102
RTVSPropertyOp24
 70
     1
102
RTVSPropertyOp25
 70
     1
102
RTVSPropertyOp26
 70
     1
102
RTVSPropertyOp27
 70
     1
102
RTVSPropertyOp28
 70
     1
102
RTVSPropertyOp29
 70
     1
102
RTVSPropertyOp30
 70
     1
102
RTVSPropertyOp31
 70
     1
102
RTVSPropertyOp32
 70
     1
  0
XRECORD
  5
BF7
102
{ACAD_REACTORS
330
BF6
102
}
330
BF6
100
AcDbXrecord
280
     1
102
RTVSPropertyOp0
 70
     1
102
RTVSPropertyOp1
 70
     1
102
RTVSPropertyOp2
 70
     1
102
RTVSPropertyOp3
 70
     1
102
RTVSPropertyOp4
 70
     1
102
RTVSPropertyOp5
 70
     1
102
RTVSPropertyOp6
 70
     1
102
RTVSPropertyOp7
 70
     1
102
RTVSPropertyOp8
 70
     1
102
RTVSPropertyOp9
 70
     1
102
RTVSPropertyOp10
 70
     1
102
RTVSPropertyOp11
 70
     1
102
RTVSPropertyOp12
 70
     1
102
RTVSPropertyOp13
 70
     1
102
RTVSPropertyOp14
 70
     1
102
RTVSPropertyOp15
 70
     1
102
RTVSPropertyOp16
 70
     1
102
RTVSPropertyOp17
 70
     1
102
RTVSPropertyOp18
 70
     1
102
RTVSPropertyOp19
 70
     1
102
RTVSPropertyOp20
 70
     1
102
RTVSPropertyOp21
 70
     1
102
RTVSPropertyOp22
 70
     1
102
RTVSPropertyOp23
 70
     1
102
RTVSPropertyOp24
 70
     1
102
RTVSPropertyOp25
 70
     1
102
RTVSPropertyOp26
 70
     1
102
RTVSPropertyOp27
 70
     1
102
RTVSPropertyOp28
 70
     1
102
RTVSPropertyOp29
 70
     1
102
RTVSPropertyOp30
 70
     1
102
RTVSPropertyOp31
 70
     1
102
RTVSPropertyOp32
 70
     1
  0
XRECORD
  5
C05
102
{ACAD_REACTORS
330
C04
102
}
330
C04
100
AcDbXrecord
280
     1
102
RTVSPropertyOp0
 70
     1
102
RTVSPropertyOp1
 70
     1
102
RTVSPropertyOp2
 70
     1
102
RTVSPropertyOp3
 70
     1
102
RTVSPropertyOp4
 70
     1
102
RTVSPropertyOp5
 70
     1
102
RTVSPropertyOp6
 70
     1
102
RTVSPropertyOp7
 70
     1
102
RTVSPropertyOp8
 70
     1
102
RTVSPropertyOp9
 70
     1
102
RTVSPropertyOp10
 70
     1
102
RTVSPropertyOp11
 70
     1
102
RTVSPropertyOp12
 70
     1
102
RTVSPropertyOp13
 70
     1
102
RTVSPropertyOp14
 70
     1
102
RTVSPropertyOp15
 70
     1
102
RTVSPropertyOp16
 70
     1
102
RTVSPropertyOp17
 70
     1
102
RTVSPropertyOp18
 70
     1
102
RTVSPropertyOp19
 70
     1
102
RTVSPropertyOp20
 70
     1
102
RTVSPropertyOp21
 70
     1
102
RTVSPropertyOp22
 70
     1
102
RTVSPropertyOp23
 70
     1
102
RTVSPropertyOp24
 70
     1
102
RTVSPropertyOp25
 70
     1
102
RTVSPropertyOp26
 70
     1
102
RTVSPropertyOp27
 70
     1
102
RTVSPropertyOp28
 70
     1
102
RTVSPropertyOp29
 70
     1
102
RTVSPropertyOp30
 70
     1
102
RTVSPropertyOp31
 70
     1
102
RTVSPropertyOp32
 70
     1
  0
XRECORD
  5
C0D
102
{ACAD_REACTORS
330
C0C
102
}
330
C0C
100
AcDbXrecord
280
     1
102
RTVSPropertyOp0
 70
     1
102
RTVSPropertyOp1
 70
     1
102
RTVSPropertyOp2
 70
     1
102
RTVSPropertyOp3
 70
     1
102
RTVSPropertyOp4
 70
     1
102
RTVSPropertyOp5
 70
     1
102
RTVSPropertyOp6
 70
     1
102
RTVSPropertyOp7
 70
     1
102
RTVSPropertyOp8
 70
     1
102
RTVSPropertyOp9
 70
     1
102
RTVSPropertyOp10
 70
     1
102
RTVSPropertyOp11
 70
     1
102
RTVSPropertyOp12
 70
     1
102
RTVSPropertyOp13
 70
     1
102
RTVSPropertyOp14
 70
     1
102
RTVSPropertyOp15
 70
     1
102
RTVSPropertyOp16
 70
     1
102
RTVSPropertyOp17
 70
     1
102
RTVSPropertyOp18
 70
     1
102
RTVSPropertyOp19
 70
     1
102
RTVSPropertyOp20
 70
     1
102
RTVSPropertyOp21
 70
     1
102
RTVSPropertyOp22
 70
     1
102
RTVSPropertyOp23
 70
     1
102
RTVSPropertyOp24
 70
     1
102
RTVSPropertyOp25
 70
     1
102
RTVSPropertyOp26
 70
     1
102
RTVSPropertyOp27
 70
     1
102
RTVSPropertyOp28
 70
     1
102
RTVSPropertyOp29
 70
     1
102
RTVSPropertyOp30
 70
     1
102
RTVSPropertyOp31
 70
     1
102
RTVSPropertyOp32
 70
     1
  0
XRECORD
  5
BFF
102
{ACAD_REACTORS
330
BFE
102
}
330
BFE
100
AcDbXrecord
280
     1
102
RTVSPropertyOp0
 70
     1
102
RTVSPropertyOp1
 70
     1
102
RTVSPropertyOp2
 70
     1
102
RTVSPropertyOp3
 70
     1
102
RTVSPropertyOp4
 70
     1
102
RTVSPropertyOp5
 70
     1
102
RTVSPropertyOp6
 70
     1
102
RTVSPropertyOp7
 70
     1
102
RTVSPropertyOp8
 70
     1
102
RTVSPropertyOp9
 70
     1
102
RTVSPropertyOp10
 70
     1
102
RTVSPropertyOp11
 70
     1
102
RTVSPropertyOp12
 70
     1
102
RTVSPropertyOp13
 70
     1
102
RTVSPropertyOp14
 70
     1
102
RTVSPropertyOp15
 70
     1
102
RTVSPropertyOp16
 70
     1
102
RTVSPropertyOp17
 70
     1
102
RTVSPropertyOp18
 70
     1
102
RTVSPropertyOp19
 70
     1
102
RTVSPropertyOp20
 70
     1
102
RTVSPropertyOp21
 70
     1
102
RTVSPropertyOp22
 70
     1
102
RTVSPropertyOp23
 70
     1
102
RTVSPropertyOp24
 70
     1
102
RTVSPropertyOp25
 70
     1
102
RTVSPropertyOp26
 70
     1
102
RTVSPropertyOp27
 70
     1
102
RTVSPropertyOp28
 70
     1
102
RTVSPropertyOp29
 70
     1
102
RTVSPropertyOp30
 70
     1
102
RTVSPropertyOp31
 70
     1
102
RTVSPropertyOp32
 70
     1
  0
XRECORD
  5
C03
102
{ACAD_REACTORS
330
C02
102
}
330
C02
100
AcDbXrecord
280
     1
102
RTVSPropertyOp0
 70
     1
102
RTVSPropertyOp1
 70
     1
102
RTVSPropertyOp2
 70
     1
102
RTVSPropertyOp3
 70
     1
102
RTVSPropertyOp4
 70
     1
102
RTVSPropertyOp5
 70
     1
102
RTVSPropertyOp6
 70
     1
102
RTVSPropertyOp7
 70
     1
102
RTVSPropertyOp8
 70
     1
102
RTVSPropertyOp9
 70
     1
102
RTVSPropertyOp10
 70
     1
102
RTVSPropertyOp11
 70
     1
102
RTVSPropertyOp12
 70
     1
102
RTVSPropertyOp13
 70
     1
102
RTVSPropertyOp14
 70
     1
102
RTVSPropertyOp15
 70
     1
102
RTVSPropertyOp16
 70
     1
102
RTVSPropertyOp17
 70
     1
102
RTVSPropertyOp18
 70
     1
102
RTVSPropertyOp19
 70
     1
102
RTVSPropertyOp20
 70
     1
102
RTVSPropertyOp21
 70
     1
102
RTVSPropertyOp22
 70
     1
102
RTVSPropertyOp23
 70
     1
102
RTVSPropertyOp24
 70
     1
102
RTVSPropertyOp25
 70
     1
102
RTVSPropertyOp26
 70
     1
102
RTVSPropertyOp27
 70
     1
102
RTVSPropertyOp28
 70
     1
102
RTVSPropertyOp29
 70
     1
102
RTVSPropertyOp30
 70
     1
102
RTVSPropertyOp31
 70
     1
102
RTVSPropertyOp32
 70
     1
  0
XRECORD
  5
C21
102
{ACAD_REACTORS
330
C20
102
}
330
C20
100
AcDbXrecord
280
     1
102
RTVSPropertyOp0
 70
     0
102
RTVSPropertyOp1
 70
     0
102
RTVSPropertyOp2
 70
     0
102
RTVSPropertyOp3
 70
     0
102
RTVSPropertyOp4
 70
     0
102
RTVSPropertyOp5
 70
     0
102
RTVSPropertyOp6
 70
     0
102
RTVSPropertyOp7
 70
     0
102
RTVSPropertyOp8
 70
     0
102
RTVSPropertyOp9
 70
     0
102
RTVSPropertyOp10
 70
     0
102
RTVSPropertyOp11
 70
     0
102
RTVSPropertyOp12
 70
     0
102
RTVSPropertyOp13
 70
     0
102
RTVSPropertyOp14
 70
     2
102
RTVSPropertyOp15
 70
     0
102
RTVSPropertyOp16
 70
     0
102
RTVSPropertyOp17
 70
     0
102
RTVSPropertyOp18
 70
     0
102
RTVSPropertyOp19
 70
     0
102
RTVSPropertyOp20
 70
     0
102
RTVSPropertyOp21
 70
     0
102
RTVSPropertyOp22
 70
     0
102
RTVSPropertyOp23
 70
     0
102
RTVSPropertyOp24
 70
     0
102
RTVSPropertyOp25
 70
     0
102
RTVSPropertyOp26
 70
     0
102
RTVSPropertyOp27
 70
     0
102
RTVSPropertyOp28
 70
     0
102
RTVSPropertyOp29
 70
     0
102
RTVSPropertyOp30
 70
     0
102
RTVSPropertyOp31
 70
     0
102
RTVSPropertyOp32
 70
     0
  0
XRECORD
  5
C0B
102
{ACAD_REACTORS
330
C0A
102
}
330
C0A
100
AcDbXrecord
280
     1
102
RTVSPropertyOp0
 70
     1
102
RTVSPropertyOp1
 70
     1
102
RTVSPropertyOp2
 70
     1
102
RTVSPropertyOp3
 70
     1
102
RTVSPropertyOp4
 70
     1
102
RTVSPropertyOp5
 70
     1
102
RTVSPropertyOp6
 70
     1
102
RTVSPropertyOp7
 70
     1
102
RTVSPropertyOp8
 70
     1
102
RTVSPropertyOp9
 70
     1
102
RTVSPropertyOp10
 70
     1
102
RTVSPropertyOp11
 70
     1
102
RTVSPropertyOp12
 70
     1
102
RTVSPropertyOp13
 70
     1
102
RTVSPropertyOp14
 70
     1
102
RTVSPropertyOp15
 70
     1
102
RTVSPropertyOp16
 70
     1
102
RTVSPropertyOp17
 70
     1
102
RTVSPropertyOp18
 70
     1
102
RTVSPropertyOp19
 70
     1
102
RTVSPropertyOp20
 70
     1
102
RTVSPropertyOp21
 70
     1
102
RTVSPropertyOp22
 70
     1
102
RTVSPropertyOp23
 70
     1
102
RTVSPropertyOp24
 70
     1
102
RTVSPropertyOp25
 70
     1
102
RTVSPropertyOp26
 70
     1
102
RTVSPropertyOp27
 70
     1
102
RTVSPropertyOp28
 70
     1
102
RTVSPropertyOp29
 70
     1
102
RTVSPropertyOp30
 70
     1
102
RTVSPropertyOp31
 70
     1
102
RTVSPropertyOp32
 70
     1
  0
XRECORD
  5
BEF
102
{ACAD_REACTORS
330
BEE
102
}
330
BEE
100
AcDbXrecord
280
     1
102
RTVSPropertyOp0
 70
     1
102
RTVSPropertyOp1
 70
     1
102
RTVSPropertyOp2
 70
     1
102
RTVSPropertyOp3
 70
     1
102
RTVSPropertyOp4
 70
     1
102
RTVSPropertyOp5
 70
     1
102
RTVSPropertyOp6
 70
     1
102
RTVSPropertyOp7
 70
     1
102
RTVSPropertyOp8
 70
     1
102
RTVSPropertyOp9
 70
     1
102
RTVSPropertyOp10
 70
     1
102
RTVSPropertyOp11
 70
     1
102
RTVSPropertyOp12
 70
     1
102
RTVSPropertyOp13
 70
     1
102
RTVSPropertyOp14
 70
     1
102
RTVSPropertyOp15
 70
     1
102
RTVSPropertyOp16
 70
     1
102
RTVSPropertyOp17
 70
     1
102
RTVSPropertyOp18
 70
     1
102
RTVSPropertyOp19
 70
     1
102
RTVSPropertyOp20
 70
     1
102
RTVSPropertyOp21
 70
     1
102
RTVSPropertyOp22
 70
     1
102
RTVSPropertyOp23
 70
     1
102
RTVSPropertyOp24
 70
     1
102
RTVSPropertyOp25
 70
     1
102
RTVSPropertyOp26
 70
     1
102
RTVSPropertyOp27
 70
     1
102
RTVSPropertyOp28
 70
     1
102
RTVSPropertyOp29
 70
     1
102
RTVSPropertyOp30
 70
     1
102
RTVSPropertyOp31
 70
     1
102
RTVSPropertyOp32
 70
     1
  0
XRECORD
  5
BF1
102
{ACAD_REACTORS
330
BF0
102
}
330
BF0
100
AcDbXrecord
280
     1
102
RTVSPropertyOp0
 70
     1
102
RTVSPropertyOp1
 70
     1
102
RTVSPropertyOp2
 70
     1
102
RTVSPropertyOp3
 70
     1
102
RTVSPropertyOp4
 70
     1
102
RTVSPropertyOp5
 70
     1
102
RTVSPropertyOp6
 70
     1
102
RTVSPropertyOp7
 70
     1
102
RTVSPropertyOp8
 70
     1
102
RTVSPropertyOp9
 70
     1
102
RTVSPropertyOp10
 70
     1
102
RTVSPropertyOp11
 70
     1
102
RTVSPropertyOp12
 70
     1
102
RTVSPropertyOp13
 70
     1
102
RTVSPropertyOp14
 70
     1
102
RTVSPropertyOp15
 70
     1
102
RTVSPropertyOp16
 70
     1
102
RTVSPropertyOp17
 70
     1
102
RTVSPropertyOp18
 70
     1
102
RTVSPropertyOp19
 70
     1
102
RTVSPropertyOp20
 70
     1
102
RTVSPropertyOp21
 70
     1
102
RTVSPropertyOp22
 70
     1
102
RTVSPropertyOp23
 70
     1
102
RTVSPropertyOp24
 70
     1
102
RTVSPropertyOp25
 70
     1
102
RTVSPropertyOp26
 70
     1
102
RTVSPropertyOp27
 70
     1
102
RTVSPropertyOp28
 70
     1
102
RTVSPropertyOp29
 70
     1
102
RTVSPropertyOp30
 70
     1
102
RTVSPropertyOp31
 70
     1
102
RTVSPropertyOp32
 70
     1
  0
XRECORD
  5
BF3
102
{ACAD_REACTORS
330
BF2
102
}
330
BF2
100
AcDbXrecord
280
     1
102
RTVSPropertyOp0
 70
     1
102
RTVSPropertyOp1
 70
     1
102
RTVSPropertyOp2
 70
     1
102
RTVSPropertyOp3
 70
     1
102
RTVSPropertyOp4
 70
     1
102
RTVSPropertyOp5
 70
     1
102
RTVSPropertyOp6
 70
     1
102
RTVSPropertyOp7
 70
     1
102
RTVSPropertyOp8
 70
     1
102
RTVSPropertyOp9
 70
     1
102
RTVSPropertyOp10
 70
     1
102
RTVSPropertyOp11
 70
     1
102
RTVSPropertyOp12
 70
     1
102
RTVSPropertyOp13
 70
     1
102
RTVSPropertyOp14
 70
     1
102
RTVSPropertyOp15
 70
     1
102
RTVSPropertyOp16
 70
     1
102
RTVSPropertyOp17
 70
     1
102
RTVSPropertyOp18
 70
     1
102
RTVSPropertyOp19
 70
     1
102
RTVSPropertyOp20
 70
     1
102
RTVSPropertyOp21
 70
     1
102
RTVSPropertyOp22
 70
     1
102
RTVSPropertyOp23
 70
     1
102
RTVSPropertyOp24
 70
     1
102
RTVSPropertyOp25
 70
     1
102
RTVSPropertyOp26
 70
     1
102
RTVSPropertyOp27
 70
     1
102
RTVSPropertyOp28
 70
     1
102
RTVSPropertyOp29
 70
     1
102
RTVSPropertyOp30
 70
     1
102
RTVSPropertyOp31
 70
     1
102
RTVSPropertyOp32
 70
     1
  0
XRECORD
  5
BF5
102
{ACAD_REACTORS
330
BF4
102
}
330
BF4
100
AcDbXrecord
280
     1
102
RTVSPropertyOp0
 70
     1
102
RTVSPropertyOp1
 70
     1
102
RTVSPropertyOp2
 70
     1
102
RTVSPropertyOp3
 70
     1
102
RTVSPropertyOp4
 70
     1
102
RTVSPropertyOp5
 70
     1
102
RTVSPropertyOp6
 70
     1
102
RTVSPropertyOp7
 70
     1
102
RTVSPropertyOp8
 70
     1
102
RTVSPropertyOp9
 70
     1
102
RTVSPropertyOp10
 70
     1
102
RTVSPropertyOp11
 70
     1
102
RTVSPropertyOp12
 70
     1
102
RTVSPropertyOp13
 70
     1
102
RTVSPropertyOp14
 70
     1
102
RTVSPropertyOp15
 70
     1
102
RTVSPropertyOp16
 70
     1
102
RTVSPropertyOp17
 70
     1
102
RTVSPropertyOp18
 70
     1
102
RTVSPropertyOp19
 70
     1
102
RTVSPropertyOp20
 70
     1
102
RTVSPropertyOp21
 70
     1
102
RTVSPropertyOp22
 70
     1
102
RTVSPropertyOp23
 70
     1
102
RTVSPropertyOp24
 70
     1
102
RTVSPropertyOp25
 70
     1
102
RTVSPropertyOp26
 70
     1
102
RTVSPropertyOp27
 70
     1
102
RTVSPropertyOp28
 70
     1
102
RTVSPropertyOp29
 70
     1
102
RTVSPropertyOp30
 70
     1
102
RTVSPropertyOp31
 70
     1
102
RTVSPropertyOp32
 70
     1
  0
XRECORD
  5
C11
102
{ACAD_REACTORS
330
C10
102
}
330
C10
100
AcDbXrecord
280
     1
102
RTVSPropertyOp0
 70
     1
102
RTVSPropertyOp1
 70
     1
102
RTVSPropertyOp2
 70
     1
102
RTVSPropertyOp3
 70
     1
102
RTVSPropertyOp4
 70
     1
102
RTVSPropertyOp5
 70
     1
102
RTVSPropertyOp6
 70
     1
102
RTVSPropertyOp7
 70
     1
102
RTVSPropertyOp8
 70
     1
102
RTVSPropertyOp9
 70
     1
102
RTVSPropertyOp10
 70
     1
102
RTVSPropertyOp11
 70
     1
102
RTVSPropertyOp12
 70
     1
102
RTVSPropertyOp13
 70
     1
102
RTVSPropertyOp14
 70
     1
102
RTVSPropertyOp15
 70
     1
102
RTVSPropertyOp16
 70
     1
102
RTVSPropertyOp17
 70
     1
102
RTVSPropertyOp18
 70
     1
102
RTVSPropertyOp19
 70
     1
102
RTVSPropertyOp20
 70
     1
102
RTVSPropertyOp21
 70
     1
102
RTVSPropertyOp22
 70
     1
102
RTVSPropertyOp23
 70
     1
102
RTVSPropertyOp24
 70
     1
102
RTVSPropertyOp25
 70
     1
102
RTVSPropertyOp26
 70
     1
102
RTVSPropertyOp27
 70
     1
102
RTVSPropertyOp28
 70
     1
102
RTVSPropertyOp29
 70
     1
102
RTVSPropertyOp30
 70
     1
102
RTVSPropertyOp31
 70
     1
102
RTVSPropertyOp32
 70
     1
  0
XRECORD
  5
C1D
102
{ACAD_REACTORS
330
C1C
102
}
330
C1C
100
AcDbXrecord
280
     1
102
RTVSPropertyOp0
 70
     0
102
RTVSPropertyOp1
 70
     0
102
RTVSPropertyOp2
 70
     0
102
RTVSPropertyOp3
 70
     0
102
RTVSPropertyOp4
 70
     0
102
RTVSPropertyOp5
 70
     0
102
RTVSPropertyOp6
 70
     0
102
RTVSPropertyOp7
 70
     0
102
RTVSPropertyOp8
 70
     0
102
RTVSPropertyOp9
 70
     0
102
RTVSPropertyOp10
 70
     0
102
RTVSPropertyOp11
 70
     0
102
RTVSPropertyOp12
 70
     0
102
RTVSPropertyOp13
 70
     0
102
RTVSPropertyOp14
 70
     2
102
RTVSPropertyOp15
 70
     0
102
RTVSPropertyOp16
 70
     0
102
RTVSPropertyOp17
 70
     0
102
RTVSPropertyOp18
 70
     0
102
RTVSPropertyOp19
 70
     0
102
RTVSPropertyOp20
 70
     0
102
RTVSPropertyOp21
 70
     0
102
RTVSPropertyOp22
 70
     0
102
RTVSPropertyOp23
 70
     0
102
RTVSPropertyOp24
 70
     0
102
RTVSPropertyOp25
 70
     0
102
RTVSPropertyOp26
 70
     0
102
RTVSPropertyOp27
 70
     0
102
RTVSPropertyOp28
 70
     0
102
RTVSPropertyOp29
 70
     0
102
RTVSPropertyOp30
 70
     0
102
RTVSPropertyOp31
 70
     0
102
RTVSPropertyOp32
 70
     0
  0
XRECORD
  5
C09
102
{ACAD_REACTORS
330
C08
102
}
330
C08
100
AcDbXrecord
280
     1
102
RTVSPropertyOp0
 70
     1
102
RTVSPropertyOp1
 70
     1
102
RTVSPropertyOp2
 70
     1
102
RTVSPropertyOp3
 70
     1
102
RTVSPropertyOp4
 70
     1
102
RTVSPropertyOp5
 70
     1
102
RTVSPropertyOp6
 70
     1
102
RTVSPropertyOp7
 70
     1
102
RTVSPropertyOp8
 70
     1
102
RTVSPropertyOp9
 70
     1
102
RTVSPropertyOp10
 70
     1
102
RTVSPropertyOp11
 70
     1
102
RTVSPropertyOp12
 70
     1
102
RTVSPropertyOp13
 70
     1
102
RTVSPropertyOp14
 70
     1
102
RTVSPropertyOp15
 70
     1
102
RTVSPropertyOp16
 70
     1
102
RTVSPropertyOp17
 70
     1
102
RTVSPropertyOp18
 70
     1
102
RTVSPropertyOp19
 70
     1
102
RTVSPropertyOp20
 70
     1
102
RTVSPropertyOp21
 70
     1
102
RTVSPropertyOp22
 70
     1
102
RTVSPropertyOp23
 70
     1
102
RTVSPropertyOp24
 70
     1
102
RTVSPropertyOp25
 70
     1
102
RTVSPropertyOp26
 70
     1
102
RTVSPropertyOp27
 70
     1
102
RTVSPropertyOp28
 70
     1
102
RTVSPropertyOp29
 70
     1
102
RTVSPropertyOp30
 70
     1
102
RTVSPropertyOp31
 70
     1
102
RTVSPropertyOp32
 70
     1
  0
XRECORD
  5
C1F
102
{ACAD_REACTORS
330
C1E
102
}
330
C1E
100
AcDbXrecord
280
     1
102
RTVSPropertyOp0
 70
     0
102
RTVSPropertyOp1
 70
     0
102
RTVSPropertyOp2
 70
     0
102
RTVSPropertyOp3
 70
     0
102
RTVSPropertyOp4
 70
     0
102
RTVSPropertyOp5
 70
     0
102
RTVSPropertyOp6
 70
     0
102
RTVSPropertyOp7
 70
     0
102
RTVSPropertyOp8
 70
     0
102
RTVSPropertyOp9
 70
     0
102
RTVSPropertyOp10
 70
     0
102
RTVSPropertyOp11
 70
     0
102
RTVSPropertyOp12
 70
     0
102
RTVSPropertyOp13
 70
     0
102
RTVSPropertyOp14
 70
     2
102
RTVSPropertyOp15
 70
     0
102
RTVSPropertyOp16
 70
     0
102
RTVSPropertyOp17
 70
     0
102
RTVSPropertyOp18
 70
     0
102
RTVSPropertyOp19
 70
     0
102
RTVSPropertyOp20
 70
     0
102
RTVSPropertyOp21
 70
     0
102
RTVSPropertyOp22
 70
     0
102
RTVSPropertyOp23
 70
     0
102
RTVSPropertyOp24
 70
     0
102
RTVSPropertyOp25
 70
     0
102
RTVSPropertyOp26
 70
     0
102
RTVSPropertyOp27
 70
     0
102
RTVSPropertyOp28
 70
     0
102
RTVSPropertyOp29
 70
     0
102
RTVSPropertyOp30
 70
     0
102
RTVSPropertyOp31
 70
     0
102
RTVSPropertyOp32
 70
     0
  0
XRECORD
  5
C01
102
{ACAD_REACTORS
330
C00
102
}
330
C00
100
AcDbXrecord
280
     1
102
RTVSPropertyOp0
 70
     1
102
RTVSPropertyOp1
 70
     1
102
RTVSPropertyOp2
 70
     1
102
RTVSPropertyOp3
 70
     1
102
RTVSPropertyOp4
 70
     1
102
RTVSPropertyOp5
 70
     1
102
RTVSPropertyOp6
 70
     1
102
RTVSPropertyOp7
 70
     1
102
RTVSPropertyOp8
 70
     1
102
RTVSPropertyOp9
 70
     1
102
RTVSPropertyOp10
 70
     1
102
RTVSPropertyOp11
 70
     1
102
RTVSPropertyOp12
 70
     1
102
RTVSPropertyOp13
 70
     1
102
RTVSPropertyOp14
 70
     1
102
RTVSPropertyOp15
 70
     1
102
RTVSPropertyOp16
 70
     1
102
RTVSPropertyOp17
 70
     1
102
RTVSPropertyOp18
 70
     1
102
RTVSPropertyOp19
 70
     1
102
RTVSPropertyOp20
 70
     1
102
RTVSPropertyOp21
 70
     1
102
RTVSPropertyOp22
 70
     1
102
RTVSPropertyOp23
 70
     1
102
RTVSPropertyOp24
 70
     1
102
RTVSPropertyOp25
 70
     1
102
RTVSPropertyOp26
 70
     1
102
RTVSPropertyOp27
 70
     1
102
RTVSPropertyOp28
 70
     1
102
RTVSPropertyOp29
 70
     1
102
RTVSPropertyOp30
 70
     1
102
RTVSPropertyOp31
 70
     1
102
RTVSPropertyOp32
 70
     1
  0
XRECORD
  5
C1B
102
{ACAD_REACTORS
330
C1A
102
}
330
C1A
100
AcDbXrecord
280
     1
102
RTVSPropertyOp0
 70
     1
102
RTVSPropertyOp1
 70
     1
102
RTVSPropertyOp2
 70
     1
102
RTVSPropertyOp3
 70
     1
102
RTVSPropertyOp4
 70
     1
102
RTVSPropertyOp5
 70
     1
102
RTVSPropertyOp6
 70
     1
102
RTVSPropertyOp7
 70
     1
102
RTVSPropertyOp8
 70
     1
102
RTVSPropertyOp9
 70
     1
102
RTVSPropertyOp10
 70
     1
102
RTVSPropertyOp11
 70
     1
102
RTVSPropertyOp12
 70
     1
102
RTVSPropertyOp13
 70
     1
102
RTVSPropertyOp14
 70
     1
102
RTVSPropertyOp15
 70
     1
102
RTVSPropertyOp16
 70
     1
102
RTVSPropertyOp17
 70
     1
102
RTVSPropertyOp18
 70
     1
102
RTVSPropertyOp19
 70
     1
102
RTVSPropertyOp20
 70
     1
102
RTVSPropertyOp21
 70
     1
102
RTVSPropertyOp22
 70
     1
102
RTVSPropertyOp23
 70
     1
102
RTVSPropertyOp24
 70
     1
102
RTVSPropertyOp25
 70
     1
102
RTVSPropertyOp26
 70
     1
102
RTVSPropertyOp27
 70
     1
102
RTVSPropertyOp28
 70
     1
102
RTVSPropertyOp29
 70
     1
102
RTVSPropertyOp30
 70
     1
102
RTVSPropertyOp31
 70
     1
102
RTVSPropertyOp32
 70
     1
  0
XRECORD
  5
C19
102
{ACAD_REACTORS
330
C18
102
}
330
C18
100
AcDbXrecord
280
     1
102
RTVSPropertyOp0
 70
     1
102
RTVSPropertyOp1
 70
     1
102
RTVSPropertyOp2
 70
     1
102
RTVSPropertyOp3
 70
     1
102
RTVSPropertyOp4
 70
     1
102
RTVSPropertyOp5
 70
     1
102
RTVSPropertyOp6
 70
     1
102
RTVSPropertyOp7
 70
     1
102
RTVSPropertyOp8
 70
     1
102
RTVSPropertyOp9
 70
     1
102
RTVSPropertyOp10
 70
     1
102
RTVSPropertyOp11
 70
     1
102
RTVSPropertyOp12
 70
     1
102
RTVSPropertyOp13
 70
     1
102
RTVSPropertyOp14
 70
     1
102
RTVSPropertyOp15
 70
     1
102
RTVSPropertyOp16
 70
     1
102
RTVSPropertyOp17
 70
     1
102
RTVSPropertyOp18
 70
     1
102
RTVSPropertyOp19
 70
     1
102
RTVSPropertyOp20
 70
     1
102
RTVSPropertyOp21
 70
     1
102
RTVSPropertyOp22
 70
     1
102
RTVSPropertyOp23
 70
     1
102
RTVSPropertyOp24
 70
     1
102
RTVSPropertyOp25
 70
     1
102
RTVSPropertyOp26
 70
     1
102
RTVSPropertyOp27
 70
     1
102
RTVSPropertyOp28
 70
     1
102
RTVSPropertyOp29
 70
     1
102
RTVSPropertyOp30
 70
     1
102
RTVSPropertyOp31
 70
     1
102
RTVSPropertyOp32
 70
     1
  0
XRECORD
  5
C13
102
{ACAD_REACTORS
330
C12
102
}
330
C12
100
AcDbXrecord
280
     1
102
RTVSPropertyOp0
 70
     1
102
RTVSPropertyOp1
 70
     1
102
RTVSPropertyOp2
 70
     1
102
RTVSPropertyOp3
 70
     1
102
RTVSPropertyOp4
 70
     1
102
RTVSPropertyOp5
 70
     1
102
RTVSPropertyOp6
 70
     1
102
RTVSPropertyOp7
 70
     1
102
RTVSPropertyOp8
 70
     1
102
RTVSPropertyOp9
 70
     1
102
RTVSPropertyOp10
 70
     1
102
RTVSPropertyOp11
 70
     1
102
RTVSPropertyOp12
 70
     1
102
RTVSPropertyOp13
 70
     1
102
RTVSPropertyOp14
 70
     1
102
RTVSPropertyOp15
 70
     1
102
RTVSPropertyOp16
 70
     1
102
RTVSPropertyOp17
 70
     1
102
RTVSPropertyOp18
 70
     1
102
RTVSPropertyOp19
 70
     1
102
RTVSPropertyOp20
 70
     1
102
RTVSPropertyOp21
 70
     1
102
RTVSPropertyOp22
 70
     1
102
RTVSPropertyOp23
 70
     1
102
RTVSPropertyOp24
 70
     1
102
RTVSPropertyOp25
 70
     1
102
RTVSPropertyOp26
 70
     1
102
RTVSPropertyOp27
 70
     1
102
RTVSPropertyOp28
 70
     1
102
RTVSPropertyOp29
 70
     1
102
RTVSPropertyOp30
 70
     1
102
RTVSPropertyOp31
 70
     1
102
RTVSPropertyOp32
 70
     1
  0
XRECORD
  5
C15
102
{ACAD_REACTORS
330
C14
102
}
330
C14
100
AcDbXrecord
280
     1
102
RTVSPropertyOp0
 70
     1
102
RTVSPropertyOp1
 70
     1
102
RTVSPropertyOp2
 70
     1
102
RTVSPropertyOp3
 70
     1
102
RTVSPropertyOp4
 70
     1
102
RTVSPropertyOp5
 70
     1
102
RTVSPropertyOp6
 70
     1
102
RTVSPropertyOp7
 70
     1
102
RTVSPropertyOp8
 70
     1
102
RTVSPropertyOp9
 70
     1
102
RTVSPropertyOp10
 70
     1
102
RTVSPropertyOp11
 70
     1
102
RTVSPropertyOp12
 70
     1
102
RTVSPropertyOp13
 70
     1
102
RTVSPropertyOp14
 70
     1
102
RTVSPropertyOp15
 70
     1
102
RTVSPropertyOp16
 70
     1
102
RTVSPropertyOp17
 70
     1
102
RTVSPropertyOp18
 70
     1
102
RTVSPropertyOp19
 70
     1
102
RTVSPropertyOp20
 70
     1
102
RTVSPropertyOp21
 70
     1
102
RTVSPropertyOp22
 70
     1
102
RTVSPropertyOp23
 70
     1
102
RTVSPropertyOp24
 70
     1
102
RTVSPropertyOp25
 70
     1
102
RTVSPropertyOp26
 70
     1
102
RTVSPropertyOp27
 70
     1
102
RTVSPropertyOp28
 70
     1
102
RTVSPropertyOp29
 70
     1
102
RTVSPropertyOp30
 70
     1
102
RTVSPropertyOp31
 70
     1
102
RTVSPropertyOp32
 70
     1
  0
XRECORD
  5
C07
102
{ACAD_REACTORS
330
C06
102
}
330
C06
100
AcDbXrecord
280
     1
102
RTVSPropertyOp0
 70
     1
102
RTVSPropertyOp1
 70
     1
102
RTVSPropertyOp2
 70
     1
102
RTVSPropertyOp3
 70
     1
102
RTVSPropertyOp4
 70
     1
102
RTVSPropertyOp5
 70
     1
102
RTVSPropertyOp6
 70
     1
102
RTVSPropertyOp7
 70
     1
102
RTVSPropertyOp8
 70
     1
102
RTVSPropertyOp9
 70
     1
102
RTVSPropertyOp10
 70
     1
102
RTVSPropertyOp11
 70
     1
102
RTVSPropertyOp12
 70
     1
102
RTVSPropertyOp13
 70
     1
102
RTVSPropertyOp14
 70
     1
102
RTVSPropertyOp15
 70
     1
102
RTVSPropertyOp16
 70
     1
102
RTVSPropertyOp17
 70
     1
102
RTVSPropertyOp18
 70
     1
102
RTVSPropertyOp19
 70
     1
102
RTVSPropertyOp20
 70
     1
102
RTVSPropertyOp21
 70
     1
102
RTVSPropertyOp22
 70
     1
102
RTVSPropertyOp23
 70
     1
102
RTVSPropertyOp24
 70
     1
102
RTVSPropertyOp25
 70
     1
102
RTVSPropertyOp26
 70
     1
102
RTVSPropertyOp27
 70
     1
102
RTVSPropertyOp28
 70
     1
102
RTVSPropertyOp29
 70
     1
102
RTVSPropertyOp30
 70
     1
102
RTVSPropertyOp31
 70
     1
102
RTVSPropertyOp32
 70
     1
  0
XRECORD
  5
C0F
102
{ACAD_REACTORS
330
C0E
102
}
330
C0E
100
AcDbXrecord
280
     1
102
RTVSPropertyOp0
 70
     1
102
RTVSPropertyOp1
 70
     1
102
RTVSPropertyOp2
 70
     1
102
RTVSPropertyOp3
 70
     1
102
RTVSPropertyOp4
 70
     1
102
RTVSPropertyOp5
 70
     1
102
RTVSPropertyOp6
 70
     1
102
RTVSPropertyOp7
 70
     1
102
RTVSPropertyOp8
 70
     1
102
RTVSPropertyOp9
 70
     1
102
RTVSPropertyOp10
 70
     1
102
RTVSPropertyOp11
 70
     1
102
RTVSPropertyOp12
 70
     1
102
RTVSPropertyOp13
 70
     1
102
RTVSPropertyOp14
 70
     1
102
RTVSPropertyOp15
 70
     1
102
RTVSPropertyOp16
 70
     1
102
RTVSPropertyOp17
 70
     1
102
RTVSPropertyOp18
 70
     1
102
RTVSPropertyOp19
 70
     1
102
RTVSPropertyOp20
 70
     1
102
RTVSPropertyOp21
 70
     1
102
RTVSPropertyOp22
 70
     1
102
RTVSPropertyOp23
 70
     1
102
RTVSPropertyOp24
 70
     1
102
RTVSPropertyOp25
 70
     1
102
RTVSPropertyOp26
 70
     1
102
RTVSPropertyOp27
 70
     1
102
RTVSPropertyOp28
 70
     1
102
RTVSPropertyOp29
 70
     1
102
RTVSPropertyOp30
 70
     1
102
RTVSPropertyOp31
 70
     1
102
RTVSPropertyOp32
 70
     1
  0
XRECORD
  5
C17
102
{ACAD_REACTORS
330
C16
102
}
330
C16
100
AcDbXrecord
280
     1
102
RTVSPropertyOp0
 70
     1
102
RTVSPropertyOp1
 70
     1
102
RTVSPropertyOp2
 70
     1
102
RTVSPropertyOp3
 70
     1
102
RTVSPropertyOp4
 70
     1
102
RTVSPropertyOp5
 70
     1
102
RTVSPropertyOp6
 70
     1
102
RTVSPropertyOp7
 70
     1
102
RTVSPropertyOp8
 70
     1
102
RTVSPropertyOp9
 70
     1
102
RTVSPropertyOp10
 70
     1
102
RTVSPropertyOp11
 70
     1
102
RTVSPropertyOp12
 70
     1
102
RTVSPropertyOp13
 70
     1
102
RTVSPropertyOp14
 70
     1
102
RTVSPropertyOp15
 70
     1
102
RTVSPropertyOp16
 70
     1
102
RTVSPropertyOp17
 70
     1
102
RTVSPropertyOp18
 70
     1
102
RTVSPropertyOp19
 70
     1
102
RTVSPropertyOp20
 70
     1
102
RTVSPropertyOp21
 70
     1
102
RTVSPropertyOp22
 70
     1
102
RTVSPropertyOp23
 70
     1
102
RTVSPropertyOp24
 70
     1
102
RTVSPropertyOp25
 70
     1
102
RTVSPropertyOp26
 70
     1
102
RTVSPropertyOp27
 70
     1
102
RTVSPropertyOp28
 70
     1
102
RTVSPropertyOp29
 70
     1
102
RTVSPropertyOp30
 70
     1
102
RTVSPropertyOp31
 70
     1
102
RTVSPropertyOp32
 70
     1
  0
ENDSEC
  0
EOF
