  0
SECTION
  2
HEADER
  9
$ACADVER
  1
AC1018
  9
$ACADMAINTVER
 70
   104
  9
$DWGCODEPAGE
  3
ANSI_1252
  9
$LASTSAVEDBY
  1
kamerka
  9
$INSBASE
 10
0.0
 20
0.0
 30
0.0
  9
$EXTMIN
 10
-16.68446171829077
 20
-29.96261480260012
 30
-0.0015258207003583
  9
$EXTMAX
 10
37.5116282409424
 20
15.67108225970423
 30
0.0000000349246037
  9
$LIMMIN
 10
-170.0
 20
-170.0
  9
$LIMMAX
 10
519.0
 20
260.0
  9
$ORTHOMODE
 70
     1
  9
$REGENMODE
 70
     1
  9
$FILLMODE
 70
     1
  9
$QTEXTMODE
 70
     0
  9
$MIRRTEXT
 70
     0
  9
$LTSCALE
 40
0.4
  9
$ATTMODE
 70
     1
  9
$TEXTSIZE
 40
5.0
  9
$TRACEWID
 40
1.0
  9
$TEXTSTYLE
  7
STANDARD
  9
$CLAYER
  8
0
  9
$CELTYPE
  6
BYLAYER
  9
$CECOLOR
 62
   256
  9
$CELTSCALE
 40
1.0
  9
$DISPSILH
 70
     0
  9
$DIMSCALE
 40
1.0
  9
$DIMASZ
 40
2.5
  9
$DIMEXO
 40
0.0
  9
$DIMDLI
 40
3.75
  9
$DIMRND
 40
0.0
  9
$DIMDLE
 40
0.0
  9
$DIMEXE
 40
1.25
  9
$DIMTP
 40
0.0
  9
$DIMTM
 40
0.0
  9
$DIMTXT
 40
3.5
  9
$DIMCEN
 40
0.0
  9
$DIMTSZ
 40
0.0
  9
$DIMTOL
 70
     0
  9
$DIMLIM
 70
     0
  9
$DIMTIH
 70
     0
  9
$DIMTOH
 70
     0
  9
$DIMSE1
 70
     0
  9
$DIMSE2
 70
     0
  9
$DIMTAD
 70
     1
  9
$DIMZIN
 70
     1
  9
$DIMBLK
  1

  9
$DIMASO
 70
     1
  9
$DIMSHO
 70
     1
  9
$DIMPOST
  1

  9
$DIMAPOST
  1

  9
$DIMALT
 70
     0
  9
$DIMALTD
 70
     3
  9
$DIMALTF
 40
0.039370078
  9
$DIMLFAC
 40
1.0
  9
$DIMTOFL
 70
     0
  9
$DIMTVP
 40
0.0
  9
$DIMTIX
 70
     0
  9
$DIMSOXD
 70
     0
  9
$DIMSAH
 70
     0
  9
$DIMBLK1
  1

  9
$DIMBLK2
  1

  9
$DIMSTYLE
  2
STANDARD
  9
$DIMCLRD
 70
     0
  9
$DIMCLRE
 70
     0
  9
$DIMCLRT
 70
     0
  9
$DIMTFAC
 40
1.0
  9
$DIMGAP
 40
0.625
  9
$DIMJUST
 70
     0
  9
$DIMSD1
 70
     0
  9
$DIMSD2
 70
     0
  9
$DIMTOLJ
 70
     0
  9
$DIMTZIN
 70
     8
  9
$DIMALTZ
 70
     0
  9
$DIMALTTZ
 70
     0
  9
$DIMUPT
 70
     0
  9
$DIMDEC
 70
     2
  9
$DIMTDEC
 70
     2
  9
$DIMALTU
 70
     2
  9
$DIMALTTD
 70
     3
  9
$DIMTXSTY
  7
STANDARD
  9
$DIMAUNIT
 70
     0
  9
$DIMADEC
 70
     2
  9
$DIMALTRND
 40
0.0
  9
$DIMAZIN
 70
     0
  9
$DIMDSEP
 70
    46
  9
$DIMATFIT
 70
     3
  9
$DIMFRAC
 70
     0
  9
$DIMLDRBLK
  1

  9
$DIMLUNIT
 70
     2
  9
$DIMLWD
 70
    -2
  9
$DIMLWE
 70
    -2
  9
$DIMTMOVE
 70
     0
  9
$LUNITS
 70
     2
  9
$LUPREC
 70
     4
  9
$SKETCHINC
 40
1.0
  9
$FILLETRAD
 40
0.0
  9
$AUNITS
 70
     0
  9
$AUPREC
 70
     0
  9
$MENU
  1
c:\tdm21\cad\caduti13\tdm13
  9
$ELEVATION
 40
0.0
  9
$PELEVATION
 40
0.0
  9
$THICKNESS
 40
0.0
  9
$LIMCHECK
 70
     0
  9
$CHAMFERA
 40
0.0
  9
$CHAMFERB
 40
0.0
  9
$CHAMFERC
 40
0.0
  9
$CHAMFERD
 40
0.0
  9
$SKPOLY
 70
     0
  9
$TDCREATE
 40
2456413.611479306
  9
$TDUCREATE
 40
2456413.528145972
  9
$TDUPDATE
 40
2456538.326666690
  9
$TDUUPDATE
 40
2456538.243333357
  9
$TDINDWG
 40
0.0823807755
  9
$TDUSRTIMER
 40
0.0823804282
  9
$USRTIMER
 70
     1
  9
$ANGBASE
 50
0.0
  9
$ANGDIR
 70
     0
  9
$PDMODE
 70
     1
  9
$PDSIZE
 40
0.0
  9
$PLINEWID
 40
0.0
  9
$SPLFRAME
 70
     0
  9
$SPLINETYPE
 70
     6
  9
$SPLINESEGS
 70
     8
  9
$HANDSEED
  5
100B
  9
$SURFTAB1
 70
     6
  9
$SURFTAB2
 70
     6
  9
$SURFTYPE
 70
     6
  9
$SURFU
 70
     6
  9
$SURFV
 70
     6
  9
$UCSBASE
  2

  9
$UCSNAME
  2

  9
$UCSORG
 10
0.0
 20
0.0
 30
0.0
  9
$UCSXDIR
 10
1.0
 20
0.0
 30
0.0
  9
$UCSYDIR
 10
0.0
 20
1.0
 30
0.0
  9
$UCSORTHOREF
  2

  9
$UCSORTHOVIEW
 70
     0
  9
$UCSORGTOP
 10
0.0
 20
0.0
 30
0.0
  9
$UCSORGBOTTOM
 10
0.0
 20
0.0
 30
0.0
  9
$UCSORGLEFT
 10
0.0
 20
0.0
 30
0.0
  9
$UCSORGRIGHT
 10
0.0
 20
0.0
 30
0.0
  9
$UCSORGFRONT
 10
0.0
 20
0.0
 30
0.0
  9
$UCSORGBACK
 10
0.0
 20
0.0
 30
0.0
  9
$PUCSBASE
  2

  9
$PUCSNAME
  2

  9
$PUCSORG
 10
0.0
 20
0.0
 30
0.0
  9
$PUCSXDIR
 10
1.0
 20
0.0
 30
0.0
  9
$PUCSYDIR
 10
0.0
 20
1.0
 30
0.0
  9
$PUCSORTHOREF
  2

  9
$PUCSORTHOVIEW
 70
     0
  9
$PUCSORGTOP
 10
0.0
 20
0.0
 30
0.0
  9
$PUCSORGBOTTOM
 10
0.0
 20
0.0
 30
0.0
  9
$PUCSORGLEFT
 10
0.0
 20
0.0
 30
0.0
  9
$PUCSORGRIGHT
 10
0.0
 20
0.0
 30
0.0
  9
$PUCSORGFRONT
 10
0.0
 20
0.0
 30
0.0
  9
$PUCSORGBACK
 10
0.0
 20
0.0
 30
0.0
  9
$USERI1
 70
     0
  9
$USERI2
 70
     0
  9
$USERI3
 70
     0
  9
$USERI4
 70
     0
  9
$USERI5
 70
     0
  9
$USERR1
 40
0.0
  9
$USERR2
 40
0.0
  9
$USERR3
 40
0.0
  9
$USERR4
 40
0.0
  9
$USERR5
 40
0.0
  9
$WORLDVIEW
 70
     1
  9
$SHADEDGE
 70
     3
  9
$SHADEDIF
 70
    70
  9
$TILEMODE
 70
     1
  9
$MAXACTVP
 70
    64
  9
$PINSBASE
 10
0.0
 20
0.0
 30
0.0
  9
$PLIMCHECK
 70
     0
  9
$PEXTMIN
 10
0.0
 20
0.0
 30
0.0
  9
$PEXTMAX
 10
0.0
 20
0.0
 30
0.0
  9
$PLIMMIN
 10
0.0
 20
0.0
  9
$PLIMMAX
 10
12.0
 20
9.0
  9
$UNITMODE
 70
     0
  9
$VISRETAIN
 70
     0
  9
$PLINEGEN
 70
     0
  9
$PSLTSCALE
 70
     1
  9
$TREEDEPTH
 70
  3020
  9
$CMLSTYLE
  2
STANDARD
  9
$CMLJUST
 70
     0
  9
$CMLSCALE
 40
20.0
  9
$PROXYGRAPHICS
 70
     1
  9
$MEASUREMENT
 70
     1
  9
$CELWEIGHT
370
    -1
  9
$ENDCAPS
280
     0
  9
$JOINSTYLE
280
     0
  9
$LWDISPLAY
290
     0
  9
$INSUNITS
 70
     4
  9
$HYPERLINKBASE
  1

  9
$STYLESHEET
  1
MONOCHROME.CTB
  9
$XEDIT
290
     1
  9
$CEPSNTYPE
380
     0
  9
$PSTYLEMODE
290
     1
  9
$FINGERPRINTGUID
  2
{98A8CCB2-F3AA-4692-9B40-FBF309E79B5D}
  9
$VERSIONGUID
  2
{F4EBD557-D4A1-4663-84DD-A6D128308E20}
  9
$EXTNAMES
290
     1
  9
$PSVPSCALE
 40
0.0
  9
$OLESTARTUP
290
     0
  9
$SORTENTS
280
   127
  9
$INDEXCTL
280
     0
  9
$HIDETEXT
280
     1
  9
$XCLIPFRAME
290
     0
  9
$HALOGAP
280
     0
  9
$OBSCOLOR
 70
   257
  9
$OBSLTYPE
280
     0
  9
$INTERSECTIONDISPLAY
280
     0
  9
$INTERSECTIONCOLOR
 70
   257
  9
$DIMASSOC
280
     2
  9
$PROJECTNAME
  1

  0
ENDSEC
  0
SECTION
  2
CLASSES
  0
CLASS
  1
ACDBDICTIONARYWDFLT
  2
AcDbDictionaryWithDefault
  3
ObjectDBX Classes
 90
        0
 91
        1
280
     0
281
     0
  0
CLASS
  1
DICTIONARYVAR
  2
AcDbDictionaryVar
  3
ObjectDBX Classes
 90
        0
 91
       14
280
     0
281
     0
  0
CLASS
  1
TABLESTYLE
  2
AcDbTableStyle
  3
ObjectDBX Classes
 90
     4095
 91
        1
280
     0
281
     0
  0
CLASS
  1
MATERIAL
  2
AcDbMaterial
  3
ObjectDBX Classes
 90
     1153
 91
        3
280
     0
281
     0
  0
CLASS
  1
VISUALSTYLE
  2
AcDbVisualStyle
  3
ObjectDBX Classes
 90
     4095
 91
       26
280
     0
281
     0
  0
CLASS
  1
SCALE
  2
AcDbScale
  3
ObjectDBX Classes
 90
     1153
 91
       33
280
     0
281
     0
  0
CLASS
  1
MLEADERSTYLE
  2
AcDbMLeaderStyle
  3
ACDB_MLEADERSTYLE_CLASS
 90
     4095
 91
        1
280
     0
281
     0
  0
CLASS
  1
CELLSTYLEMAP
  2
AcDbCellStyleMap
  3
ObjectDBX Classes
 90
     1152
 91
        2
280
     0
281
     0
  0
CLASS
  1
DIMASSOC
  2
AcDbDimAssoc
  3
"AcDbDimAssoc|Product Desc:     AcDim ARX App For Dimension|Company:          Autodesk, Inc.|WEB Address:      www.autodesk.com"
 90
        0
 91
        5
280
     0
281
     0
  0
CLASS
  1
SORTENTSTABLE
  2
AcDbSortentsTable
  3
ObjectDBX Classes
 90
        0
 91
        2
280
     0
281
     0
  0
CLASS
  1
ACME_DOCUMENT
  2
AcMeDbDoc
  3
AcMeServices
 90
     1024
 91
        0
280
     0
281
     0
  0
CLASS
  1
AMGSETTINGSOBJ
  2
AmgSettingsObj
  3
"AcadM|Product Description: AutoCAD Mechanical|Company: Autodesk, Inc."
 90
     1024
 91
        0
280
     0
281
     0
  0
CLASS
  1
ACMESCOPE
  2
AcMeScope
  3
AcMeServices
 90
     1024
 91
        0
280
     0
281
     0
  0
CLASS
  1
ACMECOMMANDHISTORY
  2
AcMeCommandHistory
  3
AcMeServices
 90
     1024
 91
        0
280
     0
281
     0
  0
CLASS
  1
ACIMSYSVARMAN
  2
AcImSysVarManager
  3
AcMeServices
 90
     1024
 91
        0
280
     0
281
     0
  0
CLASS
  1
ACIMINTSYSVAR
  2
AcImIntSysVar
  3
AcMeServices
 90
     1024
 91
        0
280
     0
281
     0
  0
CLASS
  1
ACMESTATEMGR
  2
AcMeStateMgr
  3
AcMeServices
 90
     1024
 91
        0
280
     0
281
     0
  0
CLASS
  1
ACDBENTITYCACHE
  2
AcMeEntityCache
  3
AcMeServices
 90
     1024
 91
        0
280
     0
281
     0
  0
CLASS
  1
ACGREFMASTER
  2
AcGrefMaster
  3
AcAttribServices
 90
     1024
 91
        0
280
     0
281
     0
  0
CLASS
  1
ACME_DATABASE
  2
AcMeDbDatabase
  3
AcMeServices
 90
     1024
 91
        0
280
     0
281
     0
  0
CLASS
  1
ACRFINSADJUSTERMGR
  2
AcRfInsAdjusterMgr
  3
AcMeServices
 90
     1024
 91
        0
280
     0
281
     0
  0
CLASS
  1
ACGREFACADMASTER
  2
AcGrefacadMaster
  3
AcGrefServices
 90
     1024
 91
        0
280
     0
281
     0
  0
CLASS
  1
AMDTMENUSTATEMGR
  2
AmdtMenuStateMgr
  3
McadcomServices
 90
     1024
 91
        0
280
     0
281
     0
  0
CLASS
  1
AMDTMCOMMENUSTATE
  2
AmdtMcomMenuState
  3
McadcomServices
 90
     1024
 91
        0
280
     0
281
     0
  0
CLASS
  1
AMIMASTER
  2
AmiMaster
  3
AmiServices
 90
     1024
 91
        0
280
     0
281
     0
  0
CLASS
  1
MAPIAMMOUDLE
  2
MApiAmModule
  3
MApiAmServices
 90
     1024
 91
        0
280
     0
281
     0
  0
CLASS
  1
ACIMSTRSYSVAR
  2
AcImStrSysVar
  3
AcMeServices
 90
     1024
 91
        0
280
     0
281
     0
  0
CLASS
  1
AMDTAMMENUSTATE
  2
AmdtAmMenuState
  3
DesignerAssemblies
 90
     1024
 91
        0
280
     0
281
     0
  0
CLASS
  1
ACAMPROJECT
  2
AcAmProject
  3
DesignerAssemblies
 90
     1024
 91
        0
280
     0
281
     0
  0
CLASS
  1
ACAMGRCOMPDEF
  2
AcAmGrCompDef
  3
DesignerAssemblies
 90
     1024
 91
        0
280
     0
281
     0
  0
CLASS
  1
ACAMCOMPDEF
  2
AcAmCompDef
  3
DesignerAssemblies
 90
     1024
 91
        0
280
     0
281
     0
  0
CLASS
  1
ACAMCOMPDEFMGR
  2
AcAmCompDefMgr
  3
DesignerAssemblies
 90
     1024
 91
        0
280
     0
281
     0
  0
CLASS
  1
AMCONTEXTMGR
  2
AcAmContextMgr
  3
DesignerAssemblies
 90
     1024
 91
        0
280
     0
281
     0
  0
CLASS
  1
ACAMCONTEXTMODELER
  2
AcAmContextModeler
  3
DesignerAssemblies
 90
     1024
 91
        0
280
     0
281
     0
  0
CLASS
  1
ACMDATADICTIONARY
  2
AcmDataDictionary
  3
"AcmSymBB|Product Description: AutoCAD Mechanical|Company: Autodesk, Inc."
 90
     1024
 91
        0
280
     0
281
     0
  0
CLASS
  1
ACMSTANDARDISO
  2
AcmStandardISO
  3
"Amdt_StdImp|Product Description: AutoCAD Mechanical|Company: Autodesk, Inc."
 90
     1024
 91
        0
280
     0
281
     0
  0
CLASS
  1
AMDTEDGESTANDARDISO13715
  2
AmdtEdgeStdISO13715
  3
"Amdt_StdImp|Product Description: AutoCAD Mechanical|Company: Autodesk, Inc."
 90
     1024
 91
        0
280
     0
281
     0
  0
CLASS
  1
ACMSURFSTANDARDISO2002
  2
AcmSurfTextStdISO2002
  3
"Amdt_StdImp|Product Description: AutoCAD Mechanical|Company: Autodesk, Inc."
 90
     1024
 91
        0
280
     0
281
     0
  0
CLASS
  1
ACMFCFSTANDARDISO2004
  2
AcmFCFStdISO2004
  3
"Amdt_StdImp|Product Description: AutoCAD Mechanical|Company: Autodesk, Inc."
 90
     1024
 91
        0
280
     0
281
     0
  0
CLASS
  1
ACMWELDSTANDARDISO
  2
AcmWeldingStdISO
  3
"Amdt_StdImp|Product Description: AutoCAD Mechanical|Company: Autodesk, Inc."
 90
     1024
 91
        0
280
     0
281
     0
  0
CLASS
  1
ACMIDSTANDARDISO2004
  2
AcmIdStdISO2004
  3
"Amdt_StdImp|Product Description: AutoCAD Mechanical|Company: Autodesk, Inc."
 90
     1024
 91
        0
280
     0
281
     0
  0
CLASS
  1
ACMDATUMSTANDARDISO
  2
AcmDatumStdISO
  3
"Amdt_StdImp|Product Description: AutoCAD Mechanical|Company: Autodesk, Inc."
 90
     1024
 91
        0
280
     0
281
     0
  0
CLASS
  1
ACMBOMSTANDARDISO
  2
AcmBOMStdISO
  3
"Amdt_StdImp|Product Description: AutoCAD Mechanical|Company: Autodesk, Inc."
 90
     1024
 91
        0
280
     0
281
     0
  0
CLASS
  1
ACMDETAILSTANDARDISO
  2
AmdtDetailSymStdISO
  3
"Amdt_StdImp|Product Description: AutoCAD Mechanical|Company: Autodesk, Inc."
 90
     1024
 91
        0
280
     0
281
     0
  0
CLASS
  1
ACMSECTIONSTANDARDISO2001
  2
AmdtSectionSymStdISO2001
  3
"Amdt_StdImp|Product Description: AutoCAD Mechanical|Company: Autodesk, Inc."
 90
     1024
 91
        0
280
     0
281
     0
  0
CLASS
  1
ACMCENTERLINESTANDARDISO
  2
AmdtCenterLineStdISO
  3
"Amdt_StdImp|Product Description: AutoCAD Mechanical|Company: Autodesk, Inc."
 90
     1024
 91
        0
280
     0
281
     0
  0
CLASS
  1
ACMTHREADLINESTANDARDISO
  2
AmdtThreadLineStdISO
  3
"Amdt_StdImp|Product Description: AutoCAD Mechanical|Company: Autodesk, Inc."
 90
     1024
 91
        0
280
     0
281
     0
  0
CLASS
  1
ACMNOTESTANDARDISO
  2
AmdtNoteStdISO
  3
"Amdt_StdImp|Product Description: AutoCAD Mechanical|Company: Autodesk, Inc."
 90
     1024
 91
        0
280
     0
281
     0
  0
CLASS
  1
ACMTAPERSTANDARDISO
  2
AcmTaperStdISO
  3
"Amdt_StdImp|Product Description: AutoCAD Mechanical|Company: Autodesk, Inc."
 90
     1024
 91
        0
280
     0
281
     0
  0
CLASS
  1
ACMANOOTATIONVIEWSTANDARDISO
  2
AmdtAnViewStdISO
  3
"Amdt_StdImp|Product Description: AutoCAD Mechanical|Company: Autodesk, Inc."
 90
     1024
 91
        0
280
     0
281
     0
  0
CLASS
  1
ACAMGLAYSTD
  2
AcAmgLayStd
  3
"AmgLay|Product Description: AutoCAD Mechanical|Company: Autodesk, Inc."
 90
     1024
 91
        0
280
     0
281
     0
  0
CLASS
  1
ACAMGDIMSTD
  2
AcAmgDimStd
  3
"AmgDim|Product Description: AutoCAD Mechanical|Company: Autodesk, Inc."
 90
     1024
 91
        0
280
     0
281
     0
  0
CLASS
  1
AMGOBJPROPCFG
  2
AmgObjPropCfg
  3
"AmgLay|Product Description: AutoCAD Mechanical|Company: Autodesk, Inc."
 90
     1025
 91
        0
280
     0
281
     0
  0
CLASS
  1
ACAMGHOLECHARTSTDISO
  2
AcAmgHoleChartStdISO
  3
AmgDim|Product Description: AutoCAD Mechanical|Company: Autodesk, Inc.
 90
     1024
 91
        0
280
     0
281
     0
  0
CLASS
  1
ACAMGTITLESTD
  2
AcAmgTitleStd
  3
"AmgTitle|Product Description: AutoCAD Mechanical|Company: Autodesk, Inc."
 90
     4095
 91
        0
280
     0
281
     0
  0
CLASS
  1
AMDTNOTETEMPLATEDB
  2
AmdtNoteTemplateDB
  3
AcmSymBB|Product Description: AutoCAD Mechanical|Company: Autodesk, Inc.
 90
     1024
 91
        0
280
     0
281
     0
  0
CLASS
  1
ACAMGRCOMPDEFSET
  2
AcAmGrCompDefSet
  3
DesignerAssemblies
 90
     1024
 91
        0
280
     0
281
     0
  0
CLASS
  1
AMDTBROWSERDBTAB
  2
AmdtBrowserDbTab
  3
McadcomServices
 90
     1024
 91
        0
280
     0
281
     0
  0
CLASS
  1
CBROWSERAPPOBJECT
  2
CBrowserAppObject
  3
McadcomServices
 90
     1024
 91
        0
280
     0
281
     0
  0
CLASS
  1
DM_PLACEHOLDER
  2
AcDmSelsetPlaceholder
  3
McadcomServices
 90
     1024
 91
        0
280
     0
281
     0
  0
CLASS
  1
CAMSSTRUCTBTNSTATE
  2
StructBtnState
  3
DesignerAssemblies
 90
     1024
 91
        0
280
     0
281
     0
  0
CLASS
  1
ACAMGFILTERDAT
  2
AcAmgFilterDat
  3
"AcadM|Product Description: AutoCAD Mechanical|Company: Autodesk, Inc."
 90
     1024
 91
        0
280
     0
281
     0
  0
CLASS
  1
MULTILEADER
  2
AcDbMLeader
  3
ACDB_MLEADER_CLASS
 90
     1025
 91
        3
280
     0
281
     1
  0
ENDSEC
  0
SECTION
  2
TABLES
  0
TABLE
  2
VPORT
  5
8
330
0
100
AcDbSymbolTable
 70
     1
  0
VPORT
  5
3ED
330
8
100
AcDbSymbolTableRecord
100
AcDbViewportTableRecord
  2
*Active
 70
     0
 10
0.0
 20
0.0
 11
1.0
 21
1.0
 12
10.41358326132581
 22
-7.145766271447939
 13
0.0
 23
0.0
 14
5.0
 24
5.0
 15
5.0
 25
5.0
 16
0.0
 26
0.0
 36
1.0
 17
0.0
 27
0.0
 37
0.0
 40
46.05951694157935
 41
1.922118380062305
 42
50.0
 43
0.0
 44
0.0
 50
0.0
 51
0.0
 71
     0
 72
  2000
 73
     1
 74
     3
 75
     0
 76
     0
 77
     0
 78
     0
281
     0
 65
     1
110
0.0
120
0.0
130
0.0
111
1.0
121
0.0
131
0.0
112
0.0
122
1.0
132
0.0
 79
     0
146
0.0
1001
ACAD_NAV_VCDISPLAY
1070
     3
  0
ENDTAB
  0
TABLE
  2
LTYPE
  5
5
330
0
100
AcDbSymbolTable
 70
    13
  0
LTYPE
  5
12
330
5
100
AcDbSymbolTableRecord
100
AcDbLinetypeTableRecord
  2
BYBLOCK
 70
     0
  3

 72
    65
 73
     0
 40
0.0
  0
LTYPE
  5
13
330
5
100
AcDbSymbolTableRecord
100
AcDbLinetypeTableRecord
  2
BYLAYER
 70
     0
  3

 72
    65
 73
     0
 40
0.0
  0
LTYPE
  5
14
330
5
100
AcDbSymbolTableRecord
100
AcDbLinetypeTableRecord
  2
CONTINUOUS
 70
     0
  3
Solid line
 72
    65
 73
     0
 40
0.0
  0
LTYPE
  5
697
330
5
100
AcDbSymbolTableRecord
100
AcDbLinetypeTableRecord
  2
ACAD_ISO02W100
 70
     0
  3
ISO dash __ __ __ __ __ __ __ __ __ __ __ __ __
 72
    65
 73
     2
 40
15.0
 49
12.0
 74
     0
 49
-3.0
 74
     0
  0
LTYPE
  5
6A7
330
5
100
AcDbSymbolTableRecord
100
AcDbLinetypeTableRecord
  2
CENTER2
 70
     0
  3
Center (.5x) ___ _ ___ _ ___ _ ___ _ ___ _ ___
 72
    65
 73
     4
 40
28.575
 49
19.05
 74
     0
 49
-3.174999999999998
 74
     0
 49
3.174999999999998
 74
     0
 49
-3.174999999999998
 74
     0
  0
ENDTAB
  0
TABLE
  2
LAYER
  5
2
102
{ACAD_XDICTIONARY
360
451
102
}
330
0
100
AcDbSymbolTable
 70
    12
  0
LAYER
  5
F
102
{ACAD_XDICTIONARY
360
F34
102
}
330
2
100
AcDbSymbolTableRecord
100
AcDbLayerTableRecord
  2
0
 70
     0
 62
     7
  6
CONTINUOUS
370
    -3
390
300
  0
LAYER
  5
23
102
{ACAD_XDICTIONARY
360
F36
102
}
330
2
100
AcDbSymbolTableRecord
100
AcDbLayerTableRecord
  2
1
 70
     0
 62
     4
  6
CONTINUOUS
370
    50
390
300
  0
LAYER
  5
24
102
{ACAD_XDICTIONARY
360
F38
102
}
330
2
100
AcDbSymbolTableRecord
100
AcDbLayerTableRecord
  2
SK1
 70
     0
 62
     4
  6
CONTINUOUS
370
    50
390
300
  0
LAYER
  5
25
102
{ACAD_XDICTIONARY
360
F3A
102
}
330
2
100
AcDbSymbolTableRecord
100
AcDbLayerTableRecord
  2
2
 70
     0
 62
     7
  6
CONTINUOUS
370
    25
390
300
  0
LAYER
  5
27
102
{ACAD_XDICTIONARY
360
F3C
102
}
330
2
100
AcDbSymbolTableRecord
100
AcDbLayerTableRecord
  2
SK2
 70
     0
 62
     7
  6
CONTINUOUS
370
    25
390
300
  0
LAYER
  5
29
102
{ACAD_XDICTIONARY
360
F3E
102
}
330
2
100
AcDbSymbolTableRecord
100
AcDbLayerTableRecord
  2
SK3
 70
     0
 62
     1
  6
ACAD_ISO02W100
370
    35
390
300
  0
LAYER
  5
2A
102
{ACAD_XDICTIONARY
360
F40
102
}
330
2
100
AcDbSymbolTableRecord
100
AcDbLayerTableRecord
  2
4
 70
     0
 62
     2
  6
CENTER2
370
    25
390
300
  0
LAYER
  5
2B
102
{ACAD_XDICTIONARY
360
F42
102
}
330
2
100
AcDbSymbolTableRecord
100
AcDbLayerTableRecord
  2
SK4
 70
     0
 62
     2
  6
CENTER2
370
    25
390
300
  0
LAYER
  5
2E
102
{ACAD_XDICTIONARY
360
F44
102
}
330
2
100
AcDbSymbolTableRecord
100
AcDbLayerTableRecord
  2
SK6
 70
     0
 62
     5
  6
CONTINUOUS
370
    -3
390
300
  0
LAYER
  5
2F
330
2
100
AcDbSymbolTableRecord
100
AcDbLayerTableRecord
  2
DEFPOINTS
 70
     0
 62
     7
  6
CONTINUOUS
290
     0
370
    25
390
300
  0
LAYER
  5
376
102
{ACAD_XDICTIONARY
360
F46
102
}
330
2
100
AcDbSymbolTableRecord
100
AcDbLayerTableRecord
  2
NOCUT
 70
     0
 62
     7
  6
CONTINUOUS
370
    -3
390
300
  0
ENDTAB
  0
TABLE
  2
STYLE
  5
3
330
0
100
AcDbSymbolTable
 70
     3
  0
STYLE
  5
10
330
3
100
AcDbSymbolTableRecord
100
AcDbTextStyleTableRecord
  2
STANDARD
 70
     0
 40
0.0
 41
1.0
 50
0.0
 71
     0
 42
5.0
  3
isocp.shx
  4

  0
ENDTAB
  0
TABLE
  2
VIEW
  5
6
330
0
100
AcDbSymbolTable
 70
     0
  0
ENDTAB
  0
TABLE
  2
UCS
  5
7
330
0
100
AcDbSymbolTable
 70
     0
  0
ENDTAB
  0
TABLE
  2
APPID
  5
9
330
0
100
AcDbSymbolTable
 70
    24
  0
APPID
  5
11
330
9
100
AcDbSymbolTableRecord
100
AcDbRegAppTableRecord
  2
ACAD
 70
     0
  0
APPID
  5
3A6
330
9
100
AcDbSymbolTableRecord
100
AcDbRegAppTableRecord
  2
ACAD_PSEXT
 70
     0
  0
APPID
  5
3A8
330
9
100
AcDbSymbolTableRecord
100
AcDbRegAppTableRecord
  2
ACAD_EXEMPT_FROM_CAD_STANDARDS
 70
     0
  0
APPID
  5
43E
330
9
100
AcDbSymbolTableRecord
100
AcDbRegAppTableRecord
  2
ACAD_MLEADERVER
 70
     0
  0
APPID
  5
460
330
9
100
AcDbSymbolTableRecord
100
AcDbRegAppTableRecord
  2
ACAD_DSTYLE_DIMJAG
 70
     0
  0
APPID
  5
461
330
9
100
AcDbSymbolTableRecord
100
AcDbRegAppTableRecord
  2
ACAD_DSTYLE_DIMBREAK
 70
     0
  0
APPID
  5
462
330
9
100
AcDbSymbolTableRecord
100
AcDbRegAppTableRecord
  2
ACAD_DSTYLE_DIMTALN
 70
     0
  0
APPID
  5
47A
330
9
100
AcDbSymbolTableRecord
100
AcDbRegAppTableRecord
  2
AcAecLayerStandard
 70
     0
  0
APPID
  5
4AB
330
9
100
AcDbSymbolTableRecord
100
AcDbRegAppTableRecord
  2
DCO15
 70
     0
  0
APPID
  5
4B9
330
9
100
AcDbSymbolTableRecord
100
AcDbRegAppTableRecord
  2
AcadAnnoPO
 70
     0
  0
APPID
  5
55F
330
9
100
AcDbSymbolTableRecord
100
AcDbRegAppTableRecord
  2
ACAD_DSTYLE_DIMRADIAL_EXTENSION
 70
     0
  0
APPID
  5
701
330
9
100
AcDbSymbolTableRecord
100
AcDbRegAppTableRecord
  2
AcadAnnotative
 70
     0
  0
APPID
  5
702
330
9
100
AcDbSymbolTableRecord
100
AcDbRegAppTableRecord
  2
AcDbDynamicBlockGUID
 70
     0
  0
APPID
  5
703
330
9
100
AcDbSymbolTableRecord
100
AcDbRegAppTableRecord
  2
AcDbBlockRepETag
 70
     0
  0
APPID
  5
748
330
9
100
AcDbSymbolTableRecord
100
AcDbRegAppTableRecord
  2
MCAD_NO_VIS
 70
     0
  0
APPID
  5
749
330
9
100
AcDbSymbolTableRecord
100
AcDbRegAppTableRecord
  2
ACAD_TEMP_GRAPHIC
 70
     0
  0
APPID
  5
754
330
9
100
AcDbSymbolTableRecord
100
AcDbRegAppTableRecord
  2
ACATTRIBSERVICES
 70
     0
  0
APPID
  5
76C
330
9
100
AcDbSymbolTableRecord
100
AcDbRegAppTableRecord
  2
DESIGNERASSEMBLIES
 70
     0
  0
APPID
  5
7A8
330
9
100
AcDbSymbolTableRecord
100
AcDbRegAppTableRecord
  2
ACAD_NAV_VCDISPLAY
 70
     0
  0
APPID
  5
D18
330
9
100
AcDbSymbolTableRecord
100
AcDbRegAppTableRecord
  2
ACAD_DSTYLE_DIMINSPECT
 70
     0
  0
APPID
  5
F93
330
9
100
AcDbSymbolTableRecord
100
AcDbRegAppTableRecord
  2
ACAD_DSTYLE_DIMARC_LENGTH_SYMBOL
 70
     0
  0
APPID
  5
F94
330
9
100
AcDbSymbolTableRecord
100
AcDbRegAppTableRecord
  2
ACAD_DSTYLE_DIM_LINETYPE
 70
     0
  0
APPID
  5
F95
330
9
100
AcDbSymbolTableRecord
100
AcDbRegAppTableRecord
  2
ACAD_DSTYLE_DIM_EXT1_LINETYPE
 70
     0
  0
APPID
  5
F96
330
9
100
AcDbSymbolTableRecord
100
AcDbRegAppTableRecord
  2
ACAD_DSTYLE_DIM_EXT2_LINETYPE
 70
     0
  0
ENDTAB
  0
TABLE
  2
DIMSTYLE
  5
A
330
0
100
AcDbSymbolTable
 70
     2
100
AcDbDimStyleTable
 71
     1
340
3F
  0
DIMSTYLE
105
3F
102
{ACAD_REACTORS
330
C9E
330
CD0
102
}
330
A
100
AcDbSymbolTableRecord
100
AcDbDimStyleTableRecord
  2
STANDARD
 70
     0
 41
2.5
 42
0.0
 43
3.75
 44
1.25
 73
     0
 74
     0
 77
     1
 78
     1
140
3.5
141
0.0
143
0.039370078
147
0.625
171
     3
179
     2
271
     2
272
     2
274
     3
283
     0
284
     8
340
10
1001
ACAD_DSTYLE_DIMJAG
1070
   388
1040
1.5
1001
ACAD_DSTYLE_DIMTALN
1070
   392
1070
     0
  0
ENDTAB
  0
TABLE
  2
BLOCK_RECORD
  5
1
330
0
100
AcDbSymbolTable
 70
     4
  0
BLOCK_RECORD
  5
18
102
{ACAD_XDICTIONARY
360
C29
102
}
330
1
100
AcDbSymbolTableRecord
100
AcDbBlockTableRecord
  2
*MODEL_SPACE
340
303
  0
BLOCK_RECORD
  5
338
330
1
100
AcDbSymbolTableRecord
100
AcDbBlockTableRecord
  2
*Paper_Space
340
33B
  0
BLOCK_RECORD
  5
51F
330
1
100
AcDbSymbolTableRecord
100
AcDbBlockTableRecord
  2
CERO_POINT
340
0
310
2800000020000000200000000100080000000000000400000000000000000000000000000000000000000000000080000080000000808000800000008000800080800000C0C0C000C0DCC000F0CAA6000020400000206000002080000020A0000020C0000020E00000400000004020000040400000406000004080000040A0
310
000040C0000040E00000600000006020000060400000606000006080000060A0000060C0000060E00000800000008020000080400000806000008080000080A0000080C0000080E00000A0000000A0200000A0400000A0600000A0800000A0A00000A0C00000A0E00000C0000000C0200000C0400000C0600000C0800000C0
310
A00000C0C00000C0E00000E0000000E0200000E0400000E0600000E0800000E0A00000E0C00000E0E00040000000400020004000400040006000400080004000A0004000C0004000E00040200000402020004020400040206000402080004020A0004020C0004020E000404000004040200040404000404060004040800040
310
40A0004040C0004040E00040600000406020004060400040606000406080004060A0004060C0004060E00040800000408020004080400040806000408080004080A0004080C0004080E00040A0000040A0200040A0400040A0600040A0800040A0A00040A0C00040A0E00040C0000040C0200040C0400040C0600040C08000
310
40C0A00040C0C00040C0E00040E0000040E0200040E0400040E0600040E0800040E0A00040E0C00040E0E00080000000800020008000400080006000800080008000A0008000C0008000E00080200000802020008020400080206000802080008020A0008020C0008020E00080400000804020008040400080406000804080
310
008040A0008040C0008040E00080600000806020008060400080606000806080008060A0008060C0008060E00080800000808020008080400080806000808080008080A0008080C0008080E00080A0000080A0200080A0400080A0600080A0800080A0A00080A0C00080A0E00080C0000080C0200080C0400080C0600080C0
310
800080C0A00080C0C00080C0E00080E0000080E0200080E0400080E0600080E0800080E0A00080E0C00080E0E000C0000000C0002000C0004000C0006000C0008000C000A000C000C000C000E000C0200000C0202000C0204000C0206000C0208000C020A000C020C000C020E000C0400000C0402000C0404000C0406000C0
310
408000C040A000C040C000C040E000C0600000C0602000C0604000C0606000C0608000C060A000C060C000C060E000C0800000C0802000C0804000C0806000C0808000C080A000C080C000C080E000C0A00000C0A02000C0A04000C0A06000C0A08000C0A0A000C0A0C000C0A0E000C0C00000C0C02000C0C04000C0C06000
310
C0C08000C0C0A000F0FBFF00A4A0A000808080000000FF0000FF000000FFFF00FF000000FF00FF00FFFF0000FFFFFF00000000000000000000000000000000000000000000000000000000000000000000000000000000000000000000000000FF0000000000000000000000000000000000000000000000000000000000FF
310
FFFFFFFF000000000000000000000000000000000000000000FFFFFFFFFFFF0000FF0000FFFF00FF00000000000000000000000000000000FF00000000000000FFFFFF0000FFFFFFFF000000000000000000000000000000FF0000000000000000FF00FF0000FF00FFFF00000000000000000000000000FF00000000000000
310
0000FFFF00FF0000FF0000FFFF00000000000000000000FF000000000000000000FFFF00FF00FF0000FF0000FF000000000000000000FF0000000000000000000000FF0000FF00FF0000FF0000FF0000000000000000FF00000000000000000000FFFFFF0000FFFFFF0000FF00FFFF000000000000FF000000000000000000
310
000000FF00FF000000FFFF0000FF00FF0000000000FF00000000000000000000000000FFFF00FFFF0000FFFF0000FFFF0000000000FF000000000000000000000000FFFF00FF0000FF0000FFFF0000FF0000000000FF00000000000000000000000000FF0000FF0000FF0000FFFF0000FF00000000FF000000000000000000
310
000000FFFFFF0000FF0000FF0000FFFF00FF00000000FF00FF00000000FF0000FF00FF00FFFFFF0000FF0000FF0000FFFF00FF0000FFFFFFFFFFFFFFFFFFFFFFFFFFFFFFFFFFFFFFFFFFFFFFFFFFFFFFFFFFFF000000FF00FF00FF00FF0000FF0000FFFFFF00000000000000000000000000FF000000FF0000FF00FF00FF00
310
00FF0000FFFF000000000000000000000000FF00000000FFFF0000FF00FF00FF00FF000000FF000000000000000000000000FF00000000FF00FF0000FF00FF00FF00FF0000FF0000000000000000000000FF000000000000FF00FF0000FFFF0000FF00FF00FF0000000000000000000000FF000000000000FFFF00FF00FF00
310
FF0000FF00FFFF00000000000000000000FF0000000000000000FF0000FF00FF00FF0000FF00FF00000000000000000000FF000000000000000000FF0000FF00FF00FF0000FFFF000000000000000000FF0000000000000000000000FF0000FF00FF00FF0000FF000000000000000000FF000000000000000000000000FF00
310
00FF00FF00FF00FF00000000000000FFFF00000000000000000000000000FFFF0000FF00FF00FFFF0000000000FFFF00000000000000000000000000000000FFFFFFFFFF00FF00FF000000FFFF0000000000000000000000000000000000000000000000FFFFFFFFFFFFFF0000000000000000000000000000000000000000
310
0000000000000000FF0000000000000000000000000000000000000000000000000000000000000000000000000000000000000000000000
102
{BLKREFS
331
EB6
102
}
1001
ACAD
1000
DesignCenter Data
1002
{
1070
     1
1070
     4
1002
}
  0
BLOCK_RECORD
  5
C9F
330
1
100
AcDbSymbolTableRecord
100
AcDbBlockTableRecord
  2
*D2
340
0
  0
BLOCK_RECORD
  5
CD1
330
1
100
AcDbSymbolTableRecord
100
AcDbBlockTableRecord
  2
*D3
340
0
  0
ENDTAB
  0
ENDSEC
  0
SECTION
  2
BLOCKS
  0
BLOCK
  5
32
330
18
100
AcDbEntity
  8
0
100
AcDbBlockBegin
  2
*MODEL_SPACE
 70
     0
 10
0.0
 20
0.0
 30
0.0
  3
*MODEL_SPACE
  1

  0
ENDBLK
  5
33
330
18
100
AcDbEntity
  8
0
100
AcDbBlockEnd
  0
BLOCK
  5
339
330
338
100
AcDbEntity
 67
     1
  8
0
100
AcDbBlockBegin
  2
*Paper_Space
 70
     0
 10
0.0
 20
0.0
 30
0.0
  3
*Paper_Space
  1

  0
ENDBLK
  5
33A
330
338
100
AcDbEntity
 67
     1
  8
0
100
AcDbBlockEnd
  0
BLOCK
  5
520
330
51F
100
AcDbEntity
  8
0
100
AcDbBlockBegin
  2
CERO_POINT
 70
     0
 10
0.0
 20
0.0
 30
0.0
  3
CERO_POINT
  1

  0
CIRCLE
  5
521
102
{ACAD_REACTORS
330
526
102
}
330
51F
100
AcDbEntity
  8
SK2
100
AcDbCircle
 10
0.0
 20
0.0
 30
0.0
 40
2.5
  0
LINE
  5
522
330
51F
100
AcDbEntity
  8
SK2
100
AcDbLine
 10
0.0900000000037835
 20
0.0
 30
0.0
 11
-0.0899999999965076
 21
0.0
 31
0.0
  0
LINE
  5
523
330
51F
100
AcDbEntity
  8
SK2
100
AcDbLine
 10
0.0
 20
0.0899999999999182
 30
0.0
 11
0.0
 21
-0.0899999999999182
 31
0.0
  0
LINE
  5
524
102
{ACAD_REACTORS
330
526
102
}
330
51F
100
AcDbEntity
  8
SK2
100
AcDbLine
 10
0.0
 20
-2.5
 30
0.0
 11
0.0
 21
2.5
 31
0.0
  0
LINE
  5
525
102
{ACAD_REACTORS
330
526
102
}
330
51F
100
AcDbEntity
  8
SK2
100
AcDbLine
 10
2.5
 20
0.0
 30
0.0
 11
-2.5
 21
0.0
 31
0.0
  0
HATCH
  5
526
330
51F
100
AcDbEntity
  8
SK2
100
AcDbHatch
 10
0.0
 20
0.0
 30
0.0
210
0.0
220
0.0
230
1.0
  2
ANSI31
 70
     0
 71
     1
 91
        2
 92
        7
 72
     1
 73
     1
 93
        3
 10
0.0
 20
-2.5
 42
0.4142135623730951
 10
2.5
 20
0.0
 42
0.0
 10
0.0
 20
0.0
 42
0.0
 97
        3
330
521
330
525
330
524
 92
        7
 72
     1
 73
     1
 93
        3
 10
0.0
 20
0.0
 42
0.0
 10
0.0
 20
2.5
 42
0.4142135623730951
 10
-2.5
 20
0.0
 42
0.0
 97
        3
330
525
330
524
330
521
 75
     0
 76
     1
 52
180.0
 41
0.1
 77
     0
 78
     1
 53
225.0
 43
5.170976743218488
 44
0.0
 45
0.2245064030267288
 46
-0.2245064030267289
 79
     0
 47
0.0243816376539857
 98
        2
 10
0.8789156907296272
 20
-1.044463114528752
 10
-0.8545028512526187
 20
0.7841600866017872
  0
ENDBLK
  5
527
330
51F
100
AcDbEntity
  8
0
100
AcDbBlockEnd
  0
BLOCK
  5
CA0
330
C9F
100
AcDbEntity
  8
0
100
AcDbBlockBegin
  2
*D2
 70
     1
 10
0.0
 20
0.0
 30
0.0
  3
*D2
  1

  0
LINE
  5
EBC
330
C9F
100
AcDbEntity
  8
2
 62
     0
440
 16777216
370
    -2
100
AcDbLine
 10
25.39999999999636
 20
5.750000000000056
 30
0.0
 11
25.39999999999636
 21
12.87743196292018
 31
0.0
  0
LINE
  5
EBD
330
C9F
100
AcDbEntity
  8
2
 62
     0
440
 16777216
370
    -2
100
AcDbLine
 10
-0.000000000003638
 20
5.750000000000056
 30
0.0
 11
-0.0000000000036375
 21
12.87743196292018
 31
0.0
  0
LINE
  5
EBE
330
C9F
100
AcDbEntity
  8
2
 62
     0
440
 16777216
370
    -2
100
AcDbLine
 10
22.89999999999636
 20
11.62743196292018
 30
0.0
 11
2.499999999996361
 21
11.62743196292018
 31
0.0
  0
SOLID
  5
EBF
330
C9F
100
AcDbEntity
  8
2
 62
     0
440
 16777216
100
AcDbTrace
 10
22.89999999999636
 20
12.04409862958685
 30
0.0
 11
22.89999999999636
 21
11.21076529625351
 31
0.0
 12
25.39999999999636
 22
11.62743196292018
 32
0.0
 13
25.39999999999636
 23
11.62743196292018
 33
0.0
  0
SOLID
  5
EC0
330
C9F
100
AcDbEntity
  8
2
 62
     0
440
 16777216
100
AcDbTrace
 10
2.499999999996361
 20
12.04409862958685
 30
0.0
 11
2.499999999996361
 21
11.21076529625351
 31
0.0
 12
-0.0000000000036376
 22
11.62743196292018
 32
0.0
 13
-0.0000000000036376
 23
11.62743196292018
 33
0.0
  0
MTEXT
  5
EC1
330
C9F
100
AcDbEntity
  8
2
 62
     0
440
 16777216
100
AcDbMText
 10
12.69999999999636
 20
14.0639217731802
 30
0.0
 40
3.5
 41
0.0
 71
     5
 72
     1
  1
25.40
 73
     1
 44
1.0
  0
POINT
  5
EC2
330
C9F
100
AcDbEntity
  8
DEFPOINTS
 62
     0
440
 16777216
100
AcDbPoint
 10
25.39999999999636
 20
5.750000000000056
 30
0.0
  0
POINT
  5
EC3
330
C9F
100
AcDbEntity
  8
DEFPOINTS
 62
     0
440
 16777216
100
AcDbPoint
 10
-0.000000000003638
 20
5.750000000000056
 30
0.0
  0
POINT
  5
EC4
330
C9F
100
AcDbEntity
  8
DEFPOINTS
 62
     0
440
 16777216
100
AcDbPoint
 10
-0.0000000000036376
 20
11.62743196292018
 30
0.0
  0
ENDBLK
  5
CA1
330
C9F
100
AcDbEntity
  8
0
100
AcDbBlockEnd
  0
BLOCK
  5
CD2
330
CD1
100
AcDbEntity
  8
0
100
AcDbBlockBegin
  2
*D3
 70
     1
 10
0.0
 20
0.0
 30
0.0
  3
*D3
  1

  0
LINE
  5
ECF
330
CD1
100
AcDbEntity
  8
SK2
 62
     0
440
 16777216
370
    -2
100
AcDbLine
 10
23.89057738577841
 20
5.750000000000056
 30
0.0
 11
32.76462423474888
 21
5.750000000000053
 31
0.0
  0
LINE
  5
ED0
330
CD1
100
AcDbEntity
  8
SK2
 62
     0
440
 16777216
370
    -2
100
AcDbLine
 10
23.89057738577841
 20
-5.75
 30
0.0
 11
32.76462423474888
 21
-5.750000000000002
 31
0.0
  0
LINE
  5
ED1
330
CD1
100
AcDbEntity
  8
SK2
 62
     0
440
 16777216
370
    -2
100
AcDbLine
 10
31.51462423474888
 20
3.250000000000053
 30
0.0
 11
31.51462423474888
 21
-3.250000000000001
 31
0.0
  0
LINE
  5
ED2
330
CD1
100
AcDbEntity
  8
SK2
 62
     0
440
 16777216
370
    -2
100
AcDbLine
 10
31.51462423474888
 20
-5.750000000000002
 30
0.0
 11
31.51462423474888
 21
-27.25333801827126
 31
0.0
  0
SOLID
  5
ED3
330
CD1
100
AcDbEntity
  8
SK2
 62
     0
440
 16777216
100
AcDbTrace
 10
31.09795756808221
 20
3.250000000000053
 30
0.0
 11
31.93129090141555
 21
3.250000000000053
 31
0.0
 12
31.51462423474888
 22
5.750000000000053
 32
0.0
 13
31.51462423474888
 23
5.750000000000053
 33
0.0
  0
SOLID
  5
ED4
330
CD1
100
AcDbEntity
  8
SK2
 62
     0
440
 16777216
100
AcDbTrace
 10
31.09795756808221
 20
-3.250000000000001
 30
0.0
 11
31.93129090141555
 21
-3.250000000000001
 31
0.0
 12
31.51462423474888
 22
-5.750000000000002
 32
0.0
 13
31.51462423474888
 23
-5.750000000000002
 33
0.0
  0
MTEXT
  5
ED5
330
CD1
100
AcDbEntity
  8
SK2
 62
     0
440
 16777216
100
AcDbMText
 10
29.02648298387045
 20
-17.75166900913563
 30
0.0
 40
3.5
 41
0.0
 71
     5
 72
     1
  1
%%c11.50
 11
0.0000000000000001
 21
1.0
 31
0.0
 73
     1
 44
1.0
  0
POINT
  5
ED6
330
CD1
100
AcDbEntity
  8
DEFPOINTS
 62
     0
440
 16777216
100
AcDbPoint
 10
23.89057738577841
 20
5.750000000000056
 30
0.0
  0
POINT
  5
ED7
330
CD1
100
AcDbEntity
  8
DEFPOINTS
 62
     0
440
 16777216
100
AcDbPoint
 10
23.89057738577841
 20
-5.75
 30
0.0
  0
POINT
  5
ED8
330
CD1
100
AcDbEntity
  8
DEFPOINTS
 62
     0
440
 16777216
100
AcDbPoint
 10
31.51462423474888
 20
-5.750000000000002
 30
0.0
  0
ENDBLK
  5
CD3
330
CD1
100
AcDbEntity
  8
0
100
AcDbBlockEnd
  0
ENDSEC
  0
SECTION
  2
ENTITIES
  0
LINE
  5
A3E
330
18
100
AcDbEntity
  8
SK4
100
AcDbLine
 10
-8.817297000003632
 20
0.0000000000000568
 30
0.0
 11
-0.000000000003638
 21
0.0
 31
0.0
  0
LINE
  5
A42
330
18
100
AcDbEntity
  8
1
 48
0.024887
370
    35
100
AcDbLine
 10
6.333899999996361
 20
5.046100000000079
 30
0.0
 11
5.629999999996361
 21
5.750000000000056
 31
0.0
  0
LINE
  5
A43
330
18
100
AcDbEntity
  8
1
 48
0.017598
370
    35
100
AcDbLine
 10
25.39999999999636
 20
5.046100000000079
 30
0.0
 11
25.39999999999636
 21
5.750000000000056
 31
0.0
  0
LINE
  5
A44
330
18
100
AcDbEntity
  8
1
 48
0.192543
370
    35
100
AcDbLine
 10
5.629999999996361
 20
-5.749999999999943
 30
0.0
 11
11.07594399999636
 21
-0.3040559999999459
 31
0.0
  0
ARC
  5
A45
330
18
100
AcDbEntity
  8
1
370
    35
100
AcDbCircle
 10
10.77188799999636
 20
0.0000000000000568
 30
0.0
 40
0.43
100
AcDbArc
 50
314.9999999999995
 51
45.00000000000042
  0
LINE
  5
A46
330
18
100
AcDbEntity
  8
1
 48
0.167657
370
    35
100
AcDbLine
 10
6.333899999996361
 20
5.046100000000079
 30
0.0
 11
11.07594399999636
 21
0.3040560000000596
 31
0.0
  0
LINE
  5
A47
330
18
100
AcDbEntity
  8
1
 48
0.269902
370
    35
100
AcDbLine
 10
25.39999999999636
 20
-5.749999999999943
 30
0.0
 11
25.39999999999636
 21
5.046100000000079
 31
0.0
  0
ARC
  5
A48
330
18
100
AcDbEntity
  8
SK3
100
AcDbCircle
 10
184.6694599999963
 20
8.120311000000071
 30
0.0
 40
161.767737
100
AcDbArc
 50
182.8786650000006
 51
183.4796300000012
  0
SPLINE
  5
A49
330
18
100
AcDbEntity
  8
SK3
100
AcDbSpline
210
0.0
220
0.0
230
1.0
 70
     8
 71
     5
 72
    18
 73
    12
 74
     0
 42
0.0000000001
 43
0.0000000001
 40
0.0
 40
0.0
 40
0.0
 40
0.0
 40
0.0
 40
0.0
 40
3.013026822830263
 40
3.013026822830263
 40
3.013026822830263
 40
6.475863903799608
 40
6.475863903799608
 40
6.475863903799608
 40
7.075779087810933
 40
7.075779087810933
 40
7.075779087810933
 40
7.075779087810933
 40
7.075779087810933
 40
7.075779087810933
 10
23.10578573607096
 20
-0.0038386990450476
 30
0.0
 10
23.08782086859114
 20
0.3476382091616301
 30
0.0
 10
23.07019275122197
 20
0.7028011669270882
 30
0.0
 10
23.05450418472303
 20
1.022517338910175
 30
0.0
 10
23.01700105653182
 20
1.774578929716254
 30
0.0
 10
22.97838940292332
 20
2.474453488408129
 30
0.0
 10
22.95634815505416
 20
2.836026333970323
 30
0.0
 10
22.93014776807835
 20
3.202783727003406
 30
0.0
 10
22.90270538645668
 20
3.503647167482141
 30
0.0
 10
22.89862311811798
 20
3.546617182434146
 30
0.0
 10
22.89451506365677
 20
3.588037807661123
 30
0.0
 10
22.89037856637399
 20
3.627889712867556
 30
0.0
  0
LINE
  5
A4A
330
18
100
AcDbEntity
  8
SK3
 48
0.000496
100
AcDbLine
 10
23.19999999999637
 20
-1.69796599999995
 30
0.0
 11
23.19999999999637
 21
-1.678126999999959
 31
0.0
  0
SPLINE
  5
A4B
330
18
100
AcDbEntity
  8
SK3
100
AcDbSpline
210
0.0
220
0.0
230
1.0
 70
     8
 71
     5
 72
    15
 73
     9
 74
     0
 42
0.0000000001
 43
0.0000000001
 40
0.0
 40
0.0
 40
0.0
 40
0.0
 40
0.0
 40
0.0
 40
4.387310254693602
 40
4.387310254693602
 40
4.387310254693602
 40
6.503111486903566
 40
6.503111486903566
 40
6.503111486903566
 40
6.503111486903566
 40
6.503111486903566
 40
6.503111486903566
 10
22.89034724077902
 20
3.627890495327334
 30
0.0
 10
22.92441259639278
 20
3.299430928649258
 30
0.0
 10
22.95602496379812
 20
2.869336169496306
 30
0.0
 10
22.98460542152755
 20
2.379930710939901
 30
0.0
 10
23.02501579189065
 20
1.60895349090174
 30
0.0
 10
23.06517985583433
 20
0.7993315575030238
 30
0.0
 10
23.07836651342419
 20
0.533364051304659
 30
0.0
 10
23.09181919364178
 20
0.2658094051550393
 30
0.0
 10
23.10555476487217
 20
-0.0007510663034509
 30
0.0
  0
ARC
  5
A4C
330
18
100
AcDbEntity
  8
SK3
100
AcDbCircle
 10
174.4551369999963
 20
7.667895000000044
 30
0.0
 40
151.543664
100
AcDbArc
 50
182.9006069999993
 51
183.5357849999985
  0
LINE
  5
A4D
330
18
100
AcDbEntity
  8
SK3
 48
0.001464
100
AcDbLine
 10
22.89034699999636
 20
3.627890000000036
 30
0.0
 11
22.88413499999636
 21
3.686122000000068
 31
0.0
  0
LINE
  5
A4E
330
18
100
AcDbEntity
  8
SK3
 48
0.000065
100
AcDbLine
 10
22.58374499999636
 20
-3.108989999999947
 30
0.0
 11
22.58634699999637
 21
-3.108989999999947
 31
0.0
  0
LINE
  5
A4F
330
18
100
AcDbEntity
  8
SK3
 48
0.015341
100
AcDbLine
 10
22.58634699999637
 20
-3.108989999999947
 30
0.0
 11
23.19999999999637
 21
-3.108989999999947
 31
0.0
  0
LINE
  5
A50
330
18
100
AcDbEntity
  8
SK3
 48
0.007474
100
AcDbLine
 10
23.19999999999637
 20
-1.996806999999931
 30
0.0
 11
23.19999999999637
 21
-1.697859999999934
 31
0.0
  0
LINE
  5
A51
330
18
100
AcDbEntity
  8
SK3
 48
0.054205
100
AcDbLine
 10
23.19999999999637
 20
-4.164999999999962
 30
0.0
 11
23.19999999999637
 21
-1.996806999999931
 31
0.0
  0
LINE
  5
A54
330
18
100
AcDbEntity
  8
SK3
 48
0.055962
100
AcDbLine
 10
23.64999999999636
 20
-4.299999999999953
 30
0.0
 11
23.64999999999636
 21
-2.061529999999946
 31
0.0
  0
LINE
  5
A55
330
18
100
AcDbEntity
  8
SK3
 48
0.159038
100
AcDbLine
 10
23.64999999999636
 20
-2.061529999999946
 30
0.0
 11
23.64999999999636
 21
4.300000000000068
 31
0.0
  0
ARC
  5
A56
330
18
100
AcDbEntity
  8
SK3
100
AcDbCircle
 10
9.089045999996363
 20
-1.748626999999942
 30
0.0
 40
13.56295
100
AcDbArc
 50
351.7826839999997
 51
354.2435589999992
  0
ARC
  5
A57
330
18
100
AcDbEntity
  8
SK3
100
AcDbCircle
 10
19.60087799999636
 20
-3.303958999999963
 30
0.0
 40
2.936411
100
AcDbArc
 50
345.355976
 51
352.5031419999995
  0
SPLINE
  5
A58
330
18
100
AcDbEntity
  8
SK3
100
AcDbSpline
210
0.0
220
0.0
230
1.0
 70
     8
 71
     5
 72
    12
 73
     6
 74
     0
 42
0.0000000001
 43
0.0000000001
 40
0.0
 40
0.0
 40
0.0
 40
0.0
 40
0.0
 40
0.0
 40
0.9627894440948502
 40
0.9627894440948502
 40
0.9627894440948502
 40
0.9627894440948502
 40
0.9627894440948502
 40
0.9627894440948502
 10
22.44151144572882
 20
-4.046219709118815
 30
0.0
 10
22.42785442936473
 20
-4.0925822703025
 30
0.0
 10
22.41400285118823
 20
-4.128468834358044
 30
0.0
 10
22.40000130044366
 20
-4.152880260681456
 30
0.0
 10
22.38590992048856
 20
-4.16510652204704
 30
0.0
 10
22.37180832267203
 20
-4.16511780129332
 30
0.0
  0
SPLINE
  5
A59
330
18
100
AcDbEntity
  8
SK3
100
AcDbSpline
210
0.0
220
0.0
230
1.0
 70
     8
 71
     5
 72
    24
 73
    18
 74
     0
 42
0.0000000001
 43
0.0000000001
 40
0.0
 40
0.0
 40
0.0
 40
0.0
 40
0.0
 40
0.0
 40
2.048444016520791
 40
2.048444016520791
 40
2.048444016520791
 40
6.154409672182872
 40
6.154409672182872
 40
6.154409672182872
 40
11.50575819801135
 40
11.50575819801135
 40
11.50575819801135
 40
14.41760746754391
 40
14.41760746754391
 40
14.41760746754391
 40
15.39333357484966
 40
15.39333357484966
 40
15.39333357484966
 40
15.39333357484966
 40
15.39333357484966
 40
15.39333357484966
 10
22.37180832267203
 20
-4.16511780129332
 30
0.0
 10
22.34180556989173
 20
-4.165141799172203
 30
0.0
 10
22.31175666835207
 20
-4.109871704341286
 30
0.0
 10
22.28244496957964
 20
-3.998898914038761
 30
0.0
 10
22.19793119193666
 20
-3.541889302333742
 30
0.0
 10
22.12366218422389
 20
-2.799737582417947
 30
0.0
 10
22.07713967181518
 20
-2.245043998006962
 30
0.0
 10
21.97702995779982
 20
-0.9311569719889119
 30
0.0
 10
21.88289258542383
 20
0.4546201626736776
 30
0.0
 10
21.83073007211394
 20
1.207951597709552
 30
0.0
 10
21.74498585264839
 20
2.380286143312844
 30
0.0
 10
21.64667742906488
 20
3.346859240012747
 30
0.0
 10
21.60930377916194
 20
3.657143034752778
 30
0.0
 10
21.55628440620755
 20
3.977679642638747
 30
0.0
 10
21.49989509051418
 20
4.126614778166015
 30
0.0
 10
21.4855709969443
 20
4.152104596995343
 30
0.0
 10
21.47116441148781
 20
4.164831178356337
 30
0.0
 10
21.45675939705776
 20
4.16483112889864
 30
0.0
  0
SPLINE
  5
A5B
330
18
100
AcDbEntity
  8
SK3
100
AcDbSpline
210
0.0
220
0.0
230
1.0
 70
     8
 71
     5
 72
    24
 73
    18
 74
     0
 42
0.0000000001
 43
0.0000000001
 40
0.0
 40
0.0
 40
0.0
 40
0.0
 40
0.0
 40
0.0
 40
2.038270972229117
 40
2.038270972229117
 40
2.038270972229117
 40
6.153979405454384
 40
6.153979405454384
 40
6.153979405454384
 40
11.52197329589333
 40
11.52197329589333
 40
11.52197329589333
 40
14.41999970499587
 40
14.41999970499587
 40
14.41999970499587
 40
15.39370791264187
 40
15.39370791264187
 40
15.39370791264187
 40
15.39370791264187
 40
15.39370791264187
 40
15.39370791264187
 10
20.54176248576962
 20
-4.164833399309372
 30
0.0
 10
20.51169139405665
 20
-4.164833317299438
 30
0.0
 10
20.48161426821213
 20
-4.109335647455394
 30
0.0
 10
20.45232955205984
 20
-3.99819042629565
 30
0.0
 10
20.3676390850984
 20
-3.540020567276711
 30
0.0
 10
20.29350878491282
 20
-2.797837276415463
 30
0.0
 10
20.24738802759063
 20
-2.248090208242898
 30
0.0
 10
20.14689481515738
 20
-0.9278007161689744
 30
0.0
 10
20.05203867922784
 20
0.4686980696972684
 30
0.0
 10
19.99960729629028
 20
1.224992520712419
 30
0.0
 10
19.91313953526627
 20
2.401616376994865
 30
0.0
 10
19.81454612381171
 20
3.363347599618236
 30
0.0
 10
19.77742006998464
 20
3.668597400243015
 30
0.0
 10
19.72494146552822
 20
3.982500040649995
 30
0.0
 10
19.66934811043083
 20
4.127808477530209
 30
0.0
 10
19.655215288516
 20
4.152662627404936
 30
0.0
 10
19.64099214213971
 20
4.165098257278883
 30
0.0
 10
19.62675980337
 20
4.165088451630309
 30
0.0
  0
SPLINE
  5
A5D
330
18
100
AcDbEntity
  8
SK3
100
AcDbSpline
210
0.0
220
0.0
230
1.0
 70
     8
 71
     5
 72
    21
 73
    15
 74
     0
 42
0.0000000001
 43
0.0000000001
 40
0.0
 40
0.0
 40
0.0
 40
0.0
 40
0.0
 40
0.0
 40
2.038525883394648
 40
2.038525883394648
 40
2.038525883394648
 40
6.879614961434422
 40
6.879614961434422
 40
6.879614961434422
 40
10.99231579492153
 40
10.99231579492153
 40
10.99231579492153
 40
12.24263343787115
 40
12.24263343787115
 40
12.24263343787115
 40
12.24263343787115
 40
12.24263343787115
 40
12.24263343787115
 10
18.71178137383829
 20
-4.164838639861443
 30
0.0
 10
18.68169145794193
 20
-4.164838693402997
 30
0.0
 10
18.6515822840981
 20
-4.109354724227158
 30
0.0
 10
18.6222513771222
 20
-3.997830371819076
 30
0.0
 10
18.5277548604428
 20
-3.487150745641372
 30
0.0
 10
18.44666593029754
 20
-2.625235242143048
 30
0.0
 10
18.39412292711398
 20
-1.964193501782631
 30
0.0
 10
18.30192390466357
 20
-0.6953153313983762
 30
0.0
 10
18.21216584605104
 20
0.6086941598508134
 30
0.0
 10
18.17106002689182
 20
1.193966404867353
 30
0.0
 10
18.11502033196196
 20
1.951746672621482
 30
0.0
 10
18.05448872316479
 20
2.642576350662976
 30
0.0
 10
18.04006280808333
 20
2.799553672558488
 30
0.0
 10
18.02534601909282
 20
2.950740253767263
 30
0.0
 10
18.01026857961832
 20
3.095010105145148
 30
0.0
  0
LINE
  5
A5E
330
18
100
AcDbEntity
  8
SK3
 48
0.01359
100
AcDbLine
 10
18.01026899999636
 20
3.095010000000057
 30
0.0
 11
17.46665499999636
 21
3.095010000000057
 31
0.0
  0
LINE
  5
A5F
330
18
100
AcDbEntity
  8
SK3
 48
0.026808
100
AcDbLine
 10
22.28564799999636
 20
0.0000000000000568
 30
0.0
 11
22.20998499999637
 21
-1.069658999999944
 31
0.0
  0
ARC
  5
A60
330
18
100
AcDbEntity
  8
SK3
100
AcDbCircle
 10
-101.2882220000036
 20
7.786167000000034
 30
0.0
 40
123.81528
100
AcDbArc
 50
355.4366790000005
 51
355.8984469999997
  0
ARC
  5
A61
330
18
100
AcDbEntity
  8
SK3
100
AcDbCircle
 10
-27.95202900000364
 20
1.902602000000058
 30
0.0
 40
50.24337199999999
100
AcDbArc
 50
354.4925950000002
 51
355.471151
  0
ARC
  5
A62
330
18
100
AcDbEntity
  8
SK3
100
AcDbCircle
 10
4.15706399999636
 20
-1.228139999999938
 30
0.0
 40
17.981866
100
AcDbArc
 50
352.4855799999988
 51
354.6029640000002
  0
ARC
  5
A63
330
18
100
AcDbEntity
  8
SK3
100
AcDbCircle
 10
17.84347099999636
 20
-3.074354999999968
 30
0.0
 40
4.171233999999999
100
AcDbArc
 50
347.1244690000012
 51
353.0419889999992
  0
SPLINE
  5
A64
330
18
100
AcDbEntity
  8
SK3
100
AcDbSpline
210
0.0
220
0.0
230
1.0
 70
     8
 71
     5
 72
    12
 73
     6
 74
     0
 42
0.0000000001
 43
0.0000000001
 40
0.0
 40
0.0
 40
0.0
 40
0.0
 40
0.0
 40
0.0
 40
1.040989669285667
 40
1.040989669285667
 40
1.040989669285667
 40
1.040989669285667
 40
1.040989669285667
 40
1.040989669285667
 10
21.90946512460449
 20
-4.003764885935595
 30
0.0
 10
21.89484924436552
 20
-4.061417098147558
 30
0.0
 10
21.87998412665827
 20
-4.107431588466795
 30
0.0
 10
21.86491422486174
 20
-4.140467486639977
 30
0.0
 10
21.84971007697246
 20
-4.159432422911095
 30
0.0
 10
21.83447085605958
 20
-4.164144825407503
 30
0.0
  0
LINE
  5
A65
330
18
100
AcDbEntity
  8
SK3
 48
0.000159
100
AcDbLine
 10
21.83447099999636
 20
-4.164144999999962
 30
0.0
 11
21.82817799999636
 21
-4.165117999999949
 31
0.0
  0
SPLINE
  5
A6A
330
18
100
AcDbEntity
  8
SK3
100
AcDbSpline
210
0.0
220
0.0
230
1.0
 70
     8
 71
     5
 72
    21
 73
    15
 74
     0
 42
0.0000000001
 43
0.0000000001
 40
0.0
 40
0.0
 40
0.0
 40
0.0
 40
0.0
 40
0.0
 40
2.038525998890291
 40
2.038525998890291
 40
2.038525998890291
 40
6.879614910408292
 40
6.879614910408292
 40
6.879614910408292
 40
10.99231528457938
 40
10.99231528457938
 40
10.99231528457938
 40
12.24263246202064
 40
12.24263246202064
 40
12.24263246202064
 40
12.24263246202064
 40
12.24263246202064
 40
12.24263246202064
 10
18.16816728624243
 20
-4.164838639861443
 30
0.0
 10
18.13807736860297
 20
-4.164838583347601
 30
0.0
 10
18.10796819417312
 20
-4.109354497436868
 30
0.0
 10
18.0786372874604
 20
-3.99783003599623
 30
0.0
 10
17.98414078031241
 20
-3.487150133643353
 30
0.0
 10
17.9030518587473
 20
-2.625234542994745
 30
0.0
 10
17.85050886211285
 20
-1.964192821470305
 30
0.0
 10
17.75830984882996
 20
-0.695314703292695
 30
0.0
 10
17.66855179594294
 20
0.6086946912216718
 30
0.0
 10
17.6274459804014
 20
1.193966867777929
 30
0.0
 10
17.57140629377782
 20
1.951746988260196
 30
0.0
 10
17.51087469406869
 20
2.642576525940285
 30
0.0
 10
17.4964487841351
 20
2.799553785135628
 30
0.0
 10
17.48173200048956
 20
2.950740307480656
 30
0.0
 10
17.46665456662857
 20
3.095010105145148
 30
0.0
  0
ARC
  5
A6B
330
18
100
AcDbEntity
  8
SK3
100
AcDbCircle
 10
17.06296399999636
 20
-2.68393599999996
 30
0.0
 40
5.692007
100
AcDbArc
 50
348.6409010000006
 51
353.0739540000009
  0
ARC
  5
A6C
330
18
100
AcDbEntity
  8
SK3
100
AcDbCircle
 10
21.23274099999637
 20
-3.512763999999946
 30
0.0
 40
1.440393999999999
100
AcDbArc
 50
343.1637520000009
 51
348.295776999999
  0
SPLINE
  5
A6D
330
18
100
AcDbEntity
  8
SK3
100
AcDbSpline
210
0.0
220
0.0
230
1.0
 70
     8
 71
     5
 72
    24
 73
    18
 74
     0
 42
0.0000000001
 43
0.0000000001
 40
0.0
 40
0.0
 40
0.0
 40
0.0
 40
0.0
 40
0.0
 40
2.130847979856751
 40
2.130847979856751
 40
2.130847979856751
 40
4.305172125735438
 40
4.305172125735438
 40
4.305172125735438
 40
9.157927781502651
 40
9.157927781502651
 40
9.157927781502651
 40
14.57876563667573
 40
14.57876563667573
 40
14.57876563667573
 40
15.21172843108052
 40
15.21172843108052
 40
15.21172843108052
 40
15.21172843108052
 40
15.21172843108052
 40
15.21172843108052
 10
22.61134048693973
 20
-3.929939261170773
 30
0.0
 10
22.58100745775321
 20
-4.026522131205638
 30
0.0
 10
22.54979102163112
 20
-4.072559088329909
 30
0.0
 10
22.51841266469775
 20
-4.057232201668283
 30
0.0
 10
22.45575968522623
 20
-3.906450888310643
 30
0.0
 10
22.39711999897906
 20
-3.56269420349264
 30
0.0
 10
22.36872061921612
 20
-3.35060649793661
 30
0.0
 10
22.28137662135934
 20
-2.588054307212757
 30
0.0
 10
22.20451947660295
 20
-1.630792590951159
 30
0.0
 10
22.15516911140793
 20
-0.9638028149324782
 30
0.0
 10
22.05056639164523
 20
0.5112967741749799
 30
0.0
 10
21.94370054495486
 20
1.950221523671189
 30
0.0
 10
21.88223185543376
 20
2.702835954778207
 30
0.0
 10
21.80773590749993
 20
3.431426969128323
 30
0.0
 10
21.72349893863003
 20
3.829261077049294
 30
0.0
 10
21.7145548674036
 20
3.86707282688593
 30
0.0
 10
21.7055496701204
 20
3.900498439117598
 30
0.0
 10
21.69646271250488
 20
3.929415131560062
 30
0.0
  0
SPLINE
  5
A6F
330
18
100
AcDbEntity
  8
SK3
100
AcDbSpline
210
0.0
220
0.0
230
1.0
 70
     8
 71
     5
 72
    24
 73
    18
 74
     0
 42
0.0000000001
 43
0.0000000001
 40
0.0
 40
0.0
 40
0.0
 40
0.0
 40
0.0
 40
0.0
 40
2.114506988351334
 40
2.114506988351334
 40
2.114506988351334
 40
4.284305810327071
 40
4.284305810327071
 40
4.284305810327071
 40
9.122255436424515
 40
9.122255436424515
 40
9.122255436424515
 40
14.53329184730018
 40
14.53329184730018
 40
14.53329184730018
 40
15.16434890075602
 40
15.16434890075602
 40
15.16434890075602
 40
15.16434890075602
 40
15.16434890075602
 40
15.16434890075602
 10
20.78132494797182
 20
-3.929743487708662
 30
0.0
 10
20.75095779704504
 20
-4.026333720442266
 30
0.0
 10
20.71971674995403
 20
-4.072302628957061
 30
0.0
 10
20.68836006195986
 20
-4.056779519647533
 30
0.0
 10
20.62568892281335
 20
-3.906000287453308
 30
0.0
 10
20.56722575572645
 20
-3.563364864687457
 30
0.0
 10
20.53887087330836
 20
-3.351664454455373
 30
0.0
 10
20.45178028460698
 20
-2.592188458825943
 30
0.0
 10
20.37511374213915
 20
-1.63789385617315
 30
0.0
 10
20.32505347194593
 20
-0.9607037049263452
 30
0.0
 10
20.22020741738727
 20
0.5183040482006618
 30
0.0
 10
20.11279517053175
 20
1.961048486790956
 30
0.0
 10
20.05075386742482
 20
2.716914553862693
 30
0.0
 10
19.97636538804442
 20
3.438582974806593
 30
0.0
 10
19.89295899763598
 20
3.831332147097839
 30
0.0
 10
19.88412025732266
 20
3.868607528982294
 30
0.0
 10
19.87522638507107
 20
3.901567868378548
 30
0.0
 10
19.86625636084149
 20
3.930104495904402
 30
0.0
  0
SPLINE
  5
A71
330
18
100
AcDbEntity
  8
SK3
100
AcDbSpline
210
0.0
220
0.0
230
1.0
 70
     8
 71
     5
 72
    21
 73
    15
 74
     0
 42
0.0000000001
 43
0.0000000001
 40
0.0
 40
0.0
 40
0.0
 40
0.0
 40
0.0
 40
0.0
 40
2.120118985051641
 40
2.120118985051641
 40
2.120118985051641
 40
4.297594104612024
 40
4.297594104612024
 40
4.297594104612024
 40
9.974515090614891
 40
9.974515090614891
 40
9.974515090614891
 40
13.06287421471893
 40
13.06287421471893
 40
13.06287421471893
 40
13.06287421471893
 40
13.06287421471893
 40
13.06287421471893
 10
18.95148012359738
 20
-3.92952918801393
 30
0.0
 10
18.92108045751453
 20
-4.026220565068455
 30
0.0
 10
18.88975619547928
 20
-4.072432289215043
 30
0.0
 10
18.85833813595005
 20
-4.056915941813031
 30
0.0
 10
18.79545927870851
 20
-3.905265946763165
 30
0.0
 10
18.73696390687129
 20
-3.562142142237461
 30
0.0
 10
18.70862927879518
 20
-3.350550905325917
 30
0.0
 10
18.61144832668068
 20
-2.502852421797399
 30
0.0
 10
18.52743151807394
 20
-1.413472846714284
 30
0.0
 10
18.47106599253745
 20
-0.6302274400258057
 30
0.0
 10
18.38258154203495
 20
0.6385352860080502
 30
0.0
 10
18.28930814718521
 20
1.848213491991315
 30
0.0
 10
18.25549248578661
 20
2.259809641690877
 30
0.0
 10
18.2200246320293
 20
2.651382847741841
 30
0.0
 10
18.18240343569166
 20
3.000355356796887
 30
0.0
  0
ELLIPSE
  5
A72
330
18
100
AcDbEntity
  8
SK3
100
AcDbEllipse
 10
18.01026899999636
 20
2.961247000000071
 30
0.0
 11
0.1800000071525574
 21
0.0
 31
0.0
210
0.0
220
0.0
230
1.0
 40
0.7431300000000001
 41
0.296705972845313
 42
1.570796326790278
  0
SPLINE
  5
A73
330
18
100
AcDbEntity
  8
SK3
100
AcDbSpline
210
0.0
220
0.0
230
1.0
 70
     8
 71
     5
 72
    27
 73
    21
 74
     0
 42
0.0000000001
 43
0.0000000001
 40
0.0
 40
0.0
 40
0.0
 40
0.0
 40
0.0
 40
0.0
 40
0.0085032854212705
 40
0.0085032854212705
 40
0.0085032854212705
 40
0.020687510770483
 40
0.020687510770483
 40
0.020687510770483
 40
0.0328717361196964
 40
0.0328717361196964
 40
0.0328717361196964
 40
0.1059661121726999
 40
0.1059661121726999
 40
0.1059661121726999
 40
0.755594322886354
 40
0.755594322886354
 40
0.755594322886354
 40
0.9201243452466556
 40
0.9201243452466556
 40
0.9201243452466556
 40
0.9201243452466556
 40
0.9201243452466556
 40
0.9201243452466556
 10
22.58634653082677
 20
-3.108989966706643
 30
0.0
 10
22.58625204675071
 20
-3.109726236485186
 30
0.0
 10
22.58615847916249
 20
-3.110461580653236
 30
0.0
 10
22.58604877977548
 20
-3.111204655393351
 30
0.0
 10
22.58631454448508
 20
-3.112966251908971
 30
0.0
 10
22.58658030919468
 20
-3.114727848424593
 30
0.0
 10
22.58716314105698
 20
-3.115724390359446
 30
0.0
 10
22.58811629574415
 20
-3.117709758402212
 30
0.0
 10
22.58905196130578
 20
-3.119669425831886
 30
0.0
 10
22.58944897254281
 20
-3.120649696834448
 30
0.0
 10
22.59234727939681
 20
-3.127483134935799
 30
0.0
 10
22.5954985269793
 20
-3.134166458504466
 30
0.0
 10
22.59814156686136
 20
-3.139850066243069
 30
0.0
 10
22.62415663761315
 20
-3.195456735740776
 30
0.0
 10
22.6509971392185
 20
-3.244653044184133
 30
0.0
 10
22.67243240083491
 20
-3.284084859042478
 30
0.0
 10
22.69532112197783
 20
-3.325140299642213
 30
0.0
 10
22.7085305027077
 20
-3.355077989358335
 30
0.0
 10
22.7107615603949
 20
-3.360664783739877
 30
0.0
 10
22.71249559826022
 20
-3.365756887984957
 30
0.0
 10
22.71368224100981
 20
-3.370354736003946
 30
0.0
  0
LINE
  5
A74
330
18
100
AcDbEntity
  8
SK3
 48
0.00829
100
AcDbLine
 10
22.86838899999636
 20
-3.337045999999928
 30
0.0
 11
23.20000199999636
 21
-3.337045999999928
 31
0.0
  0
ARC
  5
A75
330
18
100
AcDbEntity
  8
SK3
100
AcDbCircle
 10
22.90414699999637
 20
-3.597444999999936
 30
0.0
 40
0.262159
100
AcDbArc
 50
97.81893699999997
 51
126.2303810000002
  0
ARC
  5
A76
330
18
100
AcDbEntity
  8
SK3
100
AcDbCircle
 10
22.74272799999636
 20
-3.370626999999955
 30
0.0
 40
0.028434
100
AcDbArc
 50
179.4623970000005
 51
249.0142419999993
  0
ARC
  5
A77
330
18
100
AcDbEntity
  8
SK3
100
AcDbCircle
 10
22.72861199999636
 20
-3.371186999999963
 30
0.0
 40
0.025958
100
AcDbArc
 50
279.1881680000005
 51
323.769804
  0
SPLINE
  5
A78
330
18
100
AcDbEntity
  8
SK3
100
AcDbSpline
210
0.0
220
0.0
230
1.0
 70
     8
 71
     5
 72
    30
 73
    24
 74
     0
 42
0.0000000001
 43
0.0000000001
 40
0.0
 40
0.0
 40
0.0
 40
0.0
 40
0.0
 40
0.0
 40
1.621998857312638
 40
1.621998857312638
 40
1.621998857312638
 40
2.019503114863204
 40
2.019503114863204
 40
2.019503114863204
 40
2.417007372413772
 40
2.417007372413772
 40
2.417007372413772
 40
3.18802079524495
 40
3.18802079524495
 40
3.18802079524495
 40
3.943215771233084
 40
3.943215771233084
 40
3.943215771233084
 40
4.671497998361898
 40
4.671497998361898
 40
4.671497998361898
 40
7.594034327451218
 40
7.594034327451218
 40
7.594034327451218
 40
7.594034327451218
 40
7.594034327451218
 40
7.594034327451218
 10
22.4311102339749
 20
-1.761888854370396
 30
0.0
 10
22.44394914602181
 20
-1.905247945700408
 30
0.0
 10
22.4568624700251
 20
-2.045142866466051
 30
0.0
 10
22.46988358254001
 20
-2.181084557521273
 30
0.0
 10
22.48624596602986
 20
-2.344365933568667
 30
0.0
 10
22.50281619045533
 20
-2.499282868105638
 30
0.0
 10
22.50608204751573
 20
-2.529412188950515
 30
0.0
 10
22.51267884438045
 20
-2.589395477524135
 30
0.0
 10
22.51909129574956
 20
-2.646065339161451
 30
0.0
 10
22.52220207208518
 20
-2.673148386435912
 30
0.0
 10
22.53097780165479
 20
-2.748501345164299
 30
0.0
 10
22.53870890543041
 20
-2.812115586533252
 30
0.0
 10
22.54336282467872
 20
-2.849460989348131
 30
0.0
 10
22.55250715879988
 20
-2.921339975444595
 30
0.0
 10
22.5626793797001
 20
-2.996959894099005
 30
0.0
 10
22.56823868943925
 20
-3.037219761200843
 30
0.0
 10
22.58040261127148
 20
-3.121528696901123
 30
0.0
 10
22.5934042451262
 20
-3.204029433078403
 30
0.0
 10
22.60113180940219
 20
-3.250389383252297
 30
0.0
 10
22.63284656528782
 20
-3.430420471936656
 30
0.0
 10
22.665115709006
 20
-3.564366654434024
 30
0.0
 10
22.69116606053957
 20
-3.638257112927078
 30
0.0
 10
22.71722309679822
 20
-3.674980066272951
 30
0.0
 10
22.7431367288397
 20
-3.674999993238145
 30
0.0
  0
LINE
  5
A79
330
18
100
AcDbEntity
  8
SK3
 48
0.000246
100
AcDbLine
 10
22.74313699999636
 20
-3.674999999999953
 30
0.0
 11
22.75277699999636
 21
-3.672973999999952
 31
0.0
  0
SPLINE
  5
A7A
330
18
100
AcDbEntity
  8
SK3
100
AcDbSpline
210
0.0
220
0.0
230
1.0
 70
     8
 71
     5
 72
    12
 73
     6
 74
     0
 42
0.0000000001
 43
0.0000000001
 40
0.0
 40
0.0
 40
0.0
 40
0.0
 40
0.0
 40
0.0
 40
2.649304691027877
 40
2.649304691027877
 40
2.649304691027877
 40
2.649304691027877
 40
2.649304691027877
 40
2.649304691027877
 10
22.75277678683419
 20
-3.672974039671998
 30
0.0
 10
22.77622555767047
 20
-3.663096714361643
 30
0.0
 10
22.79953807507283
 20
-3.623163789321552
 30
0.0
 10
22.82264133880015
 20
-3.553860008985111
 30
0.0
 10
22.84561783439096
 20
-3.457472352551348
 30
0.0
 10
22.86838873786647
 20
-3.33704742786773
 30
0.0
  0
SPLINE
  5
A7B
330
18
100
AcDbEntity
  8
SK3
100
AcDbSpline
210
0.0
220
0.0
230
1.0
 70
     8
 71
     5
 72
    15
 73
     9
 74
     0
 42
0.0000000001
 43
0.0000000001
 40
0.0
 40
0.0
 40
0.0
 40
0.0
 40
0.0
 40
0.0
 40
4.903943943349896
 40
4.903943943349896
 40
4.903943943349896
 40
5.393568739381454
 40
5.393568739381454
 40
5.393568739381454
 40
5.393568739381454
 40
5.393568739381454
 40
5.393568739381454
 10
22.97547827418675
 20
-1.761888854370226
 30
0.0
 10
23.01436934762091
 20
-2.194374158390529
 30
0.0
 10
23.05369736284999
 20
-2.594996325937529
 30
0.0
 10
23.09328041575207
 20
-2.944097672003123
 30
0.0
 10
23.13948842394204
 20
-3.256538263967228
 30
0.0
 10
23.18700521702714
 20
-3.462245161375448
 30
0.0
 10
23.19132994058525
 20
-3.480026764892669
 30
0.0
 10
23.19566215968853
 20
-3.496888494495009
 30
0.0
 10
23.20000216668836
 20
-3.512821010289997
 30
0.0
  0
LINE
  5
A7E
330
18
100
AcDbEntity
  8
SK3
 48
0.000257
100
AcDbLine
 10
22.36163699999636
 20
3.672789000000078
 30
0.0
 11
22.37165899999636
 21
3.675000000000068
 31
0.0
  0
SPLINE
  5
A7F
330
18
100
AcDbEntity
  8
SK3
100
AcDbSpline
210
0.0
220
0.0
230
1.0
 70
     8
 71
     5
 72
    21
 73
    15
 74
     0
 42
0.0000000001
 43
0.0000000001
 40
0.0
 40
0.0
 40
0.0
 40
0.0
 40
0.0
 40
0.0
 40
5.018534463084967
 40
5.018534463084967
 40
5.018534463084967
 40
9.470021389597272
 40
9.470021389597272
 40
9.470021389597272
 40
12.7086064654797
 40
12.7086064654797
 40
12.7086064654797
 40
14.88894399360572
 40
14.88894399360572
 40
14.88894399360572
 40
14.88894399360572
 40
14.88894399360572
 40
14.88894399360572
 10
22.37165909436124
 20
3.675000000000068
 30
0.0
 10
22.41613706148635
 20
3.674999977552714
 30
0.0
 10
22.46052166933443
 20
3.566211767351034
 30
0.0
 10
22.50494903493301
 20
3.3526285578356
 30
0.0
 10
22.58623931790196
 20
2.791666929626386
 30
0.0
 10
22.66306909498986
 20
2.014703560675569
 30
0.0
 10
22.69896786433396
 20
1.607971942859989
 30
0.0
 10
22.7589538682743
 20
0.8848750873297035
 30
0.0
 10
22.8189283055092
 20
0.1298305082967772
 30
0.0
 10
22.83893627418438
 20
-0.1226990355308999
 30
0.0
 10
22.88127838780834
 20
-0.6526924516825261
 30
0.0
 10
22.92382092334016
 20
-1.167454299521182
 30
0.0
 10
22.94098198802606
 20
-1.371016625530955
 30
0.0
 10
22.95818695359239
 20
-1.569602003294676
 30
0.0
 10
22.97547827419009
 20
-1.761888854370396
 30
0.0
  0
ARC
  5
A80
330
18
100
AcDbEntity
  8
SK3
100
AcDbCircle
 10
191.4793109999964
 20
-12.99450499999994
 30
0.0
 40
170.061212
100
AcDbArc
 50
175.0221170000006
 51
175.6177250000005
  0
LINE
  5
A81
330
18
100
AcDbEntity
  8
SK3
 48
0.025993
100
AcDbLine
 10
22.11351299999636
 20
0.0000000000000568
 30
0.0
 11
22.03784999999636
 21
-1.036945999999942
 31
0.0
  0
ARC
  5
A82
330
18
100
AcDbEntity
  8
SK3
100
AcDbCircle
 10
-94.06685600000363
 20
7.551374000000066
 30
0.0
 40
116.421876
100
AcDbArc
 50
355.2933490000008
 51
355.7695090000001
  0
ARC
  5
A83
330
18
100
AcDbEntity
  8
SK3
100
AcDbCircle
 10
-25.13289100000364
 20
1.846519000000056
 30
0.0
 40
47.25216999999999
100
AcDbArc
 50
354.3199419999985
 51
355.3288699999996
  0
ARC
  5
A84
330
18
100
AcDbEntity
  8
SK3
100
AcDbCircle
 10
5.047167999996361
 20
-1.188966999999934
 30
0.0
 40
16.919697
100
AcDbArc
 50
352.2512009999995
 51
354.4335830000006
  0
ARC
  5
A85
330
18
100
AcDbEntity
  8
SK3
100
AcDbCircle
 10
17.91091599999636
 20
-2.978952999999933
 30
0.0
 40
3.931742999999998
100
AcDbArc
 50
346.730654
 51
352.8226829999988
  0
SPLINE
  5
A86
330
18
100
AcDbEntity
  8
SK3
100
AcDbSpline
210
0.0
220
0.0
230
1.0
 70
     8
 71
     5
 72
    12
 73
     6
 74
     0
 42
0.0000000001
 43
0.0000000001
 40
0.0
 40
0.0
 40
0.0
 40
0.0
 40
0.0
 40
0.0
 40
1.040070503402459
 40
1.040070503402459
 40
1.040070503402459
 40
1.040070503402459
 40
1.040070503402459
 40
1.040070503402459
 10
21.73733026853113
 20
-3.881317674206911
 30
0.0
 10
21.72269345484003
 20
-3.937286754326406
 30
0.0
 10
21.70782041744316
 20
-3.981889198982115
 30
0.0
 10
21.69275440840798
 20
-4.013870960114501
 30
0.0
 10
21.67756199999097
 20
-4.032228391420288
 30
0.0
 10
21.66233599998622
 20
-4.036792711177382
 30
0.0
  0
SPLINE
  5
A87
330
18
100
AcDbEntity
  8
SK3
100
AcDbSpline
210
0.0
220
0.0
230
1.0
 70
     8
 71
     5
 72
    12
 73
     6
 74
     0
 42
0.0000000001
 43
0.0000000001
 40
0.0
 40
0.0
 40
0.0
 40
0.0
 40
0.0
 40
0.0
 40
1.014068434615394
 40
1.014068434615394
 40
1.014068434615394
 40
1.014068434615394
 40
1.014068434615394
 40
1.014068434615394
 10
21.66233599998622
 20
-4.036792711177382
 30
0.0
 10
21.6474906544642
 20
-4.041242921596732
 30
0.0
 10
21.63261339989191
 20
-4.032581024344153
 30
0.0
 10
21.61779259026531
 20
-4.010647238371234
 30
0.0
 10
21.60309866453582
 20
-3.976063876816111
 30
0.0
 10
21.58859093715603
 20
-3.929888241360345
 30
0.0
  0
SPLINE
  5
A88
330
18
100
AcDbEntity
  8
SK3
100
AcDbSpline
210
0.0
220
0.0
230
1.0
 70
     8
 71
     5
 72
    24
 73
    18
 74
     0
 42
0.0000000001
 43
0.0000000001
 40
0.0
 40
0.0
 40
0.0
 40
0.0
 40
0.0
 40
0.0
 40
2.135922352117185
 40
2.135922352117185
 40
2.135922352117185
 40
6.860869310083814
 40
6.860869310083814
 40
6.860869310083814
 40
12.38637293599244
 40
12.38637293599244
 40
12.38637293599244
 40
14.05151842308979
 40
14.05151842308979
 40
14.05151842308979
 40
15.22086119038144
 40
15.22086119038144
 40
15.22086119038144
 40
15.22086119038144
 40
15.22086119038144
 40
15.22086119038144
 10
21.58859093715603
 20
-3.929888241360345
 30
0.0
 10
21.558033453922
 20
-3.83262895537274
 30
0.0
 10
21.5283021060771
 20
-3.683942113934903
 30
0.0
 10
21.49973525934163
 20
-3.492961617841728
 30
0.0
 10
21.41240192907402
 20
-2.793193899142066
 30
0.0
 10
21.33585579738492
 20
-1.876489723691064
 30
0.0
 10
21.28690544262825
 20
-1.230343523387148
 30
0.0
 10
21.1818586134246
 20
0.2337300891548466
 30
0.0
 10
21.0764467484215
 20
1.686156932850336
 30
0.0
 10
21.01626296370797
 20
2.44905904173072
 30
0.0
 10
20.93103440103598
 20
3.356855976515418
 30
0.0
 10
20.83164642432373
 20
3.862049552761162
 30
0.0
 10
20.80784589138328
 20
3.952388412376024
 30
0.0
 10
20.76637378208653
 20
4.048552268625826
 30
0.0
 10
20.7244059853485
 20
4.041654626068748
 30
0.0
 10
20.70714913703508
 20
4.0206393687385
 30
0.0
 10
20.69009230708851
 20
3.982540719115036
 30
0.0
 10
20.67331627877593
 20
3.929079112521435
 30
0.0
  0
SPLINE
  5
A8A
330
18
100
AcDbEntity
  8
SK3
100
AcDbSpline
210
0.0
220
0.0
230
1.0
 70
     8
 71
     5
 72
    24
 73
    18
 74
     0
 42
0.0000000001
 43
0.0000000001
 40
0.0
 40
0.0
 40
0.0
 40
0.0
 40
0.0
 40
0.0
 40
2.132253453686705
 40
2.132253453686705
 40
2.132253453686705
 40
6.857213106639047
 40
6.857213106639047
 40
6.857213106639047
 40
12.37822378335049
 40
12.37822378335049
 40
12.37822378335049
 40
13.9362359940543
 40
13.9362359940543
 40
13.9362359940543
 40
15.19973764512745
 40
15.19973764512745
 40
15.19973764512745
 40
15.19973764512745
 40
15.19973764512745
 40
15.19973764512745
 10
19.75845382548039
 20
-3.929324840057403
 30
0.0
 10
19.72781721042003
 20
-3.831692632493286
 30
0.0
 10
19.69806651648919
 20
-3.682539194773198
 30
0.0
 10
19.66951788960759
 20
-3.491315470796678
 30
0.0
 10
19.5822640553817
 20
-2.791628654696751
 30
0.0
 10
19.50582346134648
 20
-1.875978982741344
 30
0.0
 10
19.45644164810059
 20
-1.222785695629909
 30
0.0
 10
19.35105963598323
 20
0.2472152593454098
 30
0.0
 10
19.24487394666132
 20
1.706824275765995
 30
0.0
 10
19.18386082327138
 20
2.4759919636258
 30
0.0
 10
19.099559515894
 20
3.363679280832968
 30
0.0
 10
19.00247945750581
 20
3.855760437734261
 30
0.0
 10
18.98048487192662
 20
3.940850338418669
 30
0.0
 10
18.93979452783369
 20
4.043225291567067
 30
0.0
 10
18.89843118622888
 20
4.04627716169324
 30
0.0
 10
18.87994075761764
 20
4.026765721307469
 30
0.0
 10
18.86161541670601
 20
3.987270646200613
 30
0.0
 10
18.84357602979197
 20
3.929842554909555
 30
0.0
  0
SPLINE
  5
A8B
330
18
100
AcDbEntity
  8
SK3
100
AcDbSpline
210
0.0
220
0.0
230
1.0
 70
     8
 71
     5
 72
    24
 73
    18
 74
     0
 42
0.0000000001
 43
0.0000000001
 40
0.0
 40
0.0
 40
0.0
 40
0.0
 40
0.0
 40
0.0
 40
2.139221495020473
 40
2.139221495020473
 40
2.139221495020473
 40
6.851532814475605
 40
6.851532814475605
 40
6.851532814475605
 40
12.37585072707259
 40
12.37585072707259
 40
12.37585072707259
 40
14.04087971548019
 40
14.04087971548019
 40
14.04087971548019
 40
15.20658567367455
 40
15.20658567367455
 40
15.20658567367455
 40
15.20658567367455
 40
15.20658567367455
 40
15.20658567367455
 10
18.84357602979197
 20
3.929842554909555
 30
0.0
 10
18.81303373156013
 20
3.832611651251113
 30
0.0
 10
18.78331120836515
 20
3.683975890988903
 30
0.0
 10
18.75474166524934
 20
3.493015209628707
 30
0.0
 10
18.66760119171442
 20
2.794837214892935
 30
0.0
 10
18.59106518517632
 20
1.879168892585538
 30
0.0
 10
18.54144765541445
 20
1.223525629448374
 30
0.0
 10
18.4364205723307
 20
-0.2398289381404197
 30
0.0
 10
18.33106536948931
 20
-1.690407678137773
 30
0.0
 10
18.27085793677402
 20
-2.453142033456116
 30
0.0
 10
18.1857101698062
 20
-3.359475255017116
 30
0.0
 10
18.08646117772869
 20
-3.863029279141471
 30
0.0
 10
18.06269258242999
 20
-3.953004930391728
 30
0.0
 10
18.02131934911627
 20
-4.048555160740761
 30
0.0
 10
17.97941481560159
 20
-4.041573339893488
 30
0.0
 10
17.9622354797352
 20
-4.020701870247193
 30
0.0
 10
17.94521677663186
 20
-3.982727494512971
 30
0.0
 10
17.92847307594405
 20
-3.929431065120411
 30
0.0
  0
SPLINE
  5
A8C
330
18
100
AcDbEntity
  8
SK3
100
AcDbSpline
210
0.0
220
0.0
230
1.0
 70
     8
 71
     5
 72
    18
 73
    12
 74
     0
 42
0.0000000001
 43
0.0000000001
 40
0.0
 40
0.0
 40
0.0
 40
0.0
 40
0.0
 40
0.0
 40
1.847093155839304
 40
1.847093155839304
 40
1.847093155839304
 40
7.585165612435712
 40
7.585165612435712
 40
7.585165612435712
 40
11.20112283289008
 40
11.20112283289008
 40
11.20112283289008
 40
11.20112283289008
 40
11.20112283289008
 40
11.20112283289008
 10
17.92847307594405
 20
-3.929431065120411
 30
0.0
 10
17.90194222163514
 20
-3.844981406722694
 30
0.0
 10
17.87610188024471
 20
-3.722063136644464
 30
0.0
 10
17.85118886905818
 20
-3.567124375607875
 30
0.0
 10
17.75319253007667
 20
-2.839443441904109
 30
0.0
 10
17.66946365362147
 20
-1.811111925779414
 30
0.0
 10
17.61125220265362
 20
-1.022989063354827
 30
0.0
 10
17.51663066481748
 20
0.326492293776198
 30
0.0
 10
17.41855786583688
 20
1.636256463020855
 30
0.0
 10
17.3796641770401
 20
2.124777988029051
 30
0.0
 10
17.33856790283884
 20
2.591766325163574
 30
0.0
 10
17.29451971055522
 20
3.000355356796887
 30
0.0
  0
ELLIPSE
  5
A8D
330
18
100
AcDbEntity
  8
SK3
100
AcDbEllipse
 10
17.46665499999636
 20
2.961247000000071
 30
0.0
 11
0.1800000071525574
 21
0.0
 31
0.0
210
0.0
220
0.0
230
1.0
 40
0.7431300000000001
 41
1.570796326789053
 42
2.844886680740782
  0
LINE
  5
A8E
330
18
100
AcDbEntity
  8
SK3
 48
0.162737
100
AcDbLine
 10
23.74999999999636
 20
-4.39999999999992
 30
0.0
 11
23.74999999999636
 21
2.109472000000038
 31
0.0
  0
LINE
  5
A8F
330
18
100
AcDbEntity
  8
SK3
 48
0.162737
100
AcDbLine
 10
23.74999999999636
 20
-2.109471999999925
 30
0.0
 11
23.74999999999636
 21
4.400000000000034
 31
0.0
  0
SPLINE
  5
A90
330
18
100
AcDbEntity
  8
SK3
100
AcDbSpline
210
0.0
220
0.0
230
1.0
 70
     8
 71
     5
 72
    18
 73
    12
 74
     0
 42
0.0000000001
 43
0.0000000001
 40
0.0
 40
0.0
 40
0.0
 40
0.0
 40
0.0
 40
0.0
 40
1.539250134283646
 40
1.539250134283646
 40
1.539250134283646
 40
2.360832613964451
 40
2.360832613964451
 40
2.360832613964451
 40
2.871177278171843
 40
2.871177278171843
 40
2.871177278171843
 40
2.871177278171843
 40
2.871177278171843
 40
2.871177278171843
 10
18.0102685796183
 20
3.095010105145148
 30
0.0
 10
17.99255518163597
 20
3.274895353234171
 30
0.0
 10
17.97610095645471
 20
3.439668591764473
 30
0.0
 10
17.96125395925997
 20
3.585393330502482
 30
0.0
 10
17.94289302346794
 20
3.759049533822292
 30
0.0
 10
17.93325589543214
 20
3.836604416643353
 30
0.0
 10
17.93110013919381
 20
3.850550581880951
 30
0.0
 10
17.92967880096074
 20
3.850846781281915
 30
0.0
 10
17.93151898019866
 20
3.816454755771245
 30
0.0
 10
17.9327044341506
 20
3.798160818947962
 30
0.0
 10
17.93432737796846
 20
3.775324493062555
 30
0.0
 10
17.93636456527346
 20
3.748172147927276
 30
0.0
  0
SPLINE
  5
A91
330
18
100
AcDbEntity
  8
SK3
100
AcDbSpline
210
0.0
220
0.0
230
1.0
 70
     8
 71
     5
 72
    18
 73
    12
 74
     0
 42
0.0000000001
 43
0.0000000001
 40
0.0
 40
0.0
 40
0.0
 40
0.0
 40
0.0
 40
0.0
 40
1.539250134889908
 40
1.539250134889908
 40
1.539250134889908
 40
2.360832615371461
 40
2.360832615371461
 40
2.360832615371461
 40
2.871177280133851
 40
2.871177280133851
 40
2.871177280133851
 40
2.871177280133851
 40
2.871177280133851
 40
2.871177280133851
 10
17.46665456662857
 20
3.095010105145148
 30
0.0
 10
17.44894116863926
 20
3.274895353304998
 30
0.0
 10
17.43248694345163
 20
3.439668591894303
 30
0.0
 10
17.41763994161875
 20
3.585393332919863
 30
0.0
 10
17.39927899678731
 20
3.759049540251794
 30
0.0
 10
17.38964186744533
 20
3.836604423853088
 30
0.0
 10
17.38748611230641
 20
3.850550588595808
 30
0.0
 10
17.38606477877128
 20
3.850846785715758
 30
0.0
 10
17.38790496380759
 20
3.816454757403731
 30
0.0
 10
17.38909041983486
 20
3.798160819606096
 30
0.0
 10
17.39071336501034
 20
3.775324493092283
 30
0.0
 10
17.39275055228373
 20
3.748172147927276
 30
0.0
  0
ARC
  5
A92
330
18
100
AcDbEntity
  8
SK3
100
AcDbCircle
 10
20.23745399999636
 20
-3.023910999999941
 30
0.0
 40
2.537868
100
AcDbArc
 50
344.2507080000016
 51
351.7845750000008
  0
SPLINE
  5
A93
330
18
100
AcDbEntity
  8
SK3
100
AcDbSpline
210
0.0
220
0.0
230
1.0
 70
     8
 71
     5
 72
    24
 73
    18
 74
     0
 42
0.0000000001
 43
0.0000000001
 40
0.0
 40
0.0
 40
0.0
 40
0.0
 40
0.0
 40
0.0
 40
2.188899669505179
 40
2.188899669505179
 40
2.188899669505179
 40
4.411076595773748
 40
4.411076595773748
 40
4.411076595773748
 40
9.213358228825279
 40
9.213358228825279
 40
9.213358228825279
 40
14.4784230577399
 40
14.4784230577399
 40
14.4784230577399
 40
14.94435839534482
 40
14.94435839534482
 40
14.94435839534482
 40
14.94435839534482
 40
14.94435839534482
 40
14.94435839534482
 10
22.67968570972135
 20
-3.712659225775552
 30
0.0
 10
22.64851770263243
 20
-3.811241489887776
 30
0.0
 10
22.61647381107549
 20
-3.859372347032433
 30
0.0
 10
22.58424671991043
 20
-3.846413687221627
 30
0.0
 10
22.51996253486144
 20
-3.700324450433356
 30
0.0
 10
22.45953001095433
 20
-3.359876390546901
 30
0.0
 10
22.43027501901659
 20
-3.149424016346301
 30
0.0
 10
22.34205148686624
 20
-2.406677976139292
 30
0.0
 10
22.26371804266761
 20
-1.47425215620575
 30
0.0
 10
22.21355315193836
 20
-0.8269546811253006
 30
0.0
 10
22.10841958065087
 20
0.5823163787171099
 30
0.0
 10
22.00044980665547
 20
1.945526164817124
 30
0.0
 10
21.9383345508433
 20
2.655014010961791
 30
0.0
 10
21.86562595428774
 20
3.298183300202538
 30
0.0
 10
21.7850504948764
 20
3.640685459624478
 30
0.0
 10
21.77843706926295
 20
3.666480621542631
 30
0.0
 10
21.7717898034442
 20
3.690015566841907
 30
0.0
 10
21.76510061371139
 20
3.711242683644286
 30
0.0
  0
SPLINE
  5
A95
330
18
100
AcDbEntity
  8
SK3
100
AcDbSpline
210
0.0
220
0.0
230
1.0
 70
     8
 71
     5
 72
    24
 73
    18
 74
     0
 42
0.0000000001
 43
0.0000000001
 40
0.0
 40
0.0
 40
0.0
 40
0.0
 40
0.0
 40
0.0
 40
2.172494009166542
 40
2.172494009166542
 40
2.172494009166542
 40
4.38898210381781
 40
4.38898210381781
 40
4.38898210381781
 40
9.17651498978244
 40
9.17651498978244
 40
9.17651498978244
 40
13.55089174324844
 40
13.55089174324844
 40
13.55089174324844
 40
14.96076583870458
 40
14.96076583870458
 40
14.96076583870458
 40
14.96076583870458
 40
14.96076583870458
 40
14.96076583870458
 10
20.84998561741169
 20
-3.711485818212792
 30
0.0
 10
20.81878171341286
 20
-3.810507103424298
 30
0.0
 10
20.78670871853115
 20
-3.859033733458374
 30
0.0
 10
20.75449581334568
 20
-3.846340006324509
 30
0.0
 10
20.69019086580052
 20
-3.701090741315795
 30
0.0
 10
20.62993385520494
 20
-3.362445056681223
 30
0.0
 10
20.60072311051653
 20
-3.152698559828593
 30
0.0
 10
20.51274582175175
 20
-2.413806141679458
 30
0.0
 10
20.43458977508347
 20
-1.484394399441497
 30
0.0
 10
20.38366563076535
 20
-0.8269552581293169
 30
0.0
 10
20.28747135237966
 20
0.462717663630997
 30
0.0
 10
20.18871190845231
 20
1.71343511338017
 30
0.0
 10
20.13944310375526
 20
2.288292456918894
 30
0.0
 10
20.07038274041435
 20
2.980843489384368
 30
0.0
 10
19.99352576245958
 20
3.462877523654185
 30
0.0
 10
19.97428869918851
 20
3.565470682818498
 30
0.0
 10
19.95459831337179
 20
3.649672569589198
 30
0.0
 10
19.9345512342772
 20
3.712983529795678
 30
0.0
  0
SPLINE
  5
A97
330
18
100
AcDbEntity
  8
SK3
100
AcDbSpline
210
0.0
220
0.0
230
1.0
 70
     8
 71
     5
 72
    21
 73
    15
 74
     0
 42
0.0000000001
 43
0.0000000001
 40
0.0
 40
0.0
 40
0.0
 40
0.0
 40
0.0
 40
0.0
 40
2.178625481128686
 40
2.178625481128686
 40
2.178625481128686
 40
4.403145975740527
 40
4.403145975740527
 40
4.403145975740527
 40
9.9822632971714
 40
9.9822632971714
 40
9.9822632971714
 40
12.87149287135976
 40
12.87149287135976
 40
12.87149287135976
 40
12.87149287135976
 40
12.87149287135976
 40
12.87149287135976
 10
19.02014651358453
 20
-3.711265420042536
 30
0.0
 10
18.9889092922335
 20
-3.810389426812433
 30
0.0
 10
18.9567479830487
 20
-3.859168319055243
 30
0.0
 10
18.92446551408989
 20
-3.84648575269
 30
0.0
 10
18.85993761319356
 20
-3.700310614353725
 30
0.0
 10
18.79964654695938
 20
-3.361115443955042
 30
0.0
 10
18.77045974778306
 20
-3.151470262349846
 30
0.0
 10
18.67289523539947
 20
-2.331747412533275
 30
0.0
 10
18.58760044982217
 20
-1.278641205265842
 30
0.0
 10
18.53036740320153
 20
-0.5209064259879029
 30
0.0
 10
18.4425019497647
 20
0.6735372915704261
 30
0.0
 10
18.34973388643444
 20
1.803595913853541
 30
0.0
 10
18.31717442309842
 20
2.175657138233701
 30
0.0
 10
18.2831960922003
 20
2.527877508537528
 30
0.0
 10
18.24741000481937
 20
2.842345954165238
 30
0.0
  0
LINE
  5
A98
330
18
100
AcDbEntity
  8
SK3
 48
0.004271
100
AcDbLine
 10
18.18240299999636
 20
3.000355000000069
 30
0.0
 11
18.24740999999636
 21
2.842346000000076
 31
0.0
  0
ARC
  5
A99
330
18
100
AcDbEntity
  8
SK3
100
AcDbCircle
 10
18.08271899999636
 20
3.639658000000053
 30
0.0
 40
0.034408
100
AcDbArc
 50
48.49281000000128
 51
88.63035799999996
  0
SPLINE
  5
A9A
330
18
100
AcDbEntity
  8
SK3
100
AcDbSpline
210
0.0
220
0.0
230
1.0
 70
     8
 71
     5
 72
    18
 73
    12
 74
     0
 42
0.0000000001
 43
0.0000000001
 40
0.0
 40
0.0
 40
0.0
 40
0.0
 40
0.0
 40
0.0
 40
1.431784889839799
 40
1.431784889839799
 40
1.431784889839799
 40
2.455755070846754
 40
2.455755070846754
 40
2.455755070846754
 40
2.679419883083721
 40
2.679419883083721
 40
2.679419883083721
 40
2.679419883083721
 40
2.679419883083721
 40
2.679419883083721
 10
18.18240343569166
 20
3.000355356796887
 30
0.0
 10
18.16568256890804
 20
3.162792324750796
 30
0.0
 10
18.15012341046727
 20
3.311965258181771
 30
0.0
 10
18.13605370981045
 20
3.444386064041451
 30
0.0
 10
18.1160727956434
 20
3.626575307176721
 30
0.0
 10
18.10521662360345
 20
3.712272832075711
 30
0.0
 10
18.10255617695737
 20
3.72854618914306
 30
0.0
 10
18.10177369420882
 20
3.723086732930368
 30
0.0
 10
18.10381256528627
 20
3.689016516377932
 30
0.0
 10
18.10426824669916
 20
3.681993681820756
 30
0.0
 10
18.10481117194642
 20
3.67409466499356
 30
0.0
 10
18.10543991002825
 20
3.665332978210301
 30
0.0
  0
SPLINE
  5
A9B
330
18
100
AcDbEntity
  8
SK3
100
AcDbSpline
210
0.0
220
0.0
230
1.0
 70
     8
 71
     5
 72
    24
 73
    18
 74
     0
 42
0.0000000001
 43
0.0000000001
 40
0.0
 40
0.0
 40
0.0
 40
0.0
 40
0.0
 40
0.0
 40
4.569484710331771
 40
4.569484710331771
 40
4.569484710331771
 40
9.139347630173103
 40
9.139347630173103
 40
9.139347630173103
 40
10.60790876171887
 40
10.60790876171887
 40
10.60790876171887
 40
13.39399825313951
 40
13.39399825313951
 40
13.39399825313951
 40
14.66468264902505
 40
14.66468264902505
 40
14.66468264902505
 40
14.66468264902505
 40
14.66468264902505
 40
14.66468264902505
 10
22.4311102339749
 20
-1.761888854370624
 30
0.0
 10
22.39494053383538
 20
-1.358018547701703
 30
0.0
 10
22.35936134055183
 20
-0.9266551540225124
 30
0.0
 10
22.32342965341779
 20
-0.4770928175307745
 30
0.0
 10
22.25208167231806
 20
0.4239866172671328
 30
0.0
 10
22.18064945843534
 20
1.300063068527322
 30
0.0
 10
22.14570057989974
 20
1.712664531892698
 30
0.0
 10
22.09790865119952
 20
2.233383284490344
 30
0.0
 10
22.04839636059215
 20
2.679406621880843
 30
0.0
 10
22.03664744225551
 20
2.779423500715324
 30
0.0
 10
22.00172603131267
 20
3.058543649894146
 30
0.0
 10
21.96681828381527
 20
3.282333694716384
 30
0.0
 10
21.94321868012424
 20
3.409019356087354
 30
0.0
 10
21.90780339140844
 20
3.555359829960706
 30
0.0
 10
21.87154306088453
 20
3.637251081452575
 30
0.0
 10
21.86020611217417
 20
3.655998531345629
 30
0.0
 10
21.84887611408287
 20
3.667866470759065
 30
0.0
 10
21.83755514351272
 20
3.672803525148935
 30
0.0
  0
LINE
  5
A9C
330
18
100
AcDbEntity
  8
SK3
 48
0.000258
100
AcDbLine
 10
21.83755499999636
 20
3.672804000000041
 30
0.0
 11
21.82747999999636
 21
3.675000000000068
 31
0.0
  0
LINE
  5
A9F
330
18
100
AcDbEntity
  8
SK3
 48
0.000259
100
AcDbLine
 10
20.92263799999636
 20
-3.672774999999944
 30
0.0
 11
20.91250299999636
 21
-3.674999999999953
 31
0.0
  0
SPLINE
  5
AA0
330
18
100
AcDbEntity
  8
SK3
100
AcDbSpline
210
0.0
220
0.0
230
1.0
 70
     8
 71
     5
 72
    15
 73
     9
 74
     0
 42
0.0000000001
 43
0.0000000001
 40
0.0
 40
0.0
 40
0.0
 40
0.0
 40
0.0
 40
0.0
 40
2.73873921121698
 40
2.73873921121698
 40
2.73873921121698
 40
7.228746184789347
 40
7.228746184789347
 40
7.228746184789347
 40
7.228746184789347
 40
7.228746184789347
 40
7.228746184789347
 10
20.91250257310902
 20
-3.674999999995917
 30
0.0
 10
20.88685328879903
 20
-3.674999521561686
 30
0.0
 10
20.86107748479445
 20
-3.639373550297249
 30
0.0
 10
20.83598917665257
 20
-3.56733069622544
 30
0.0
 10
20.77229797686513
 20
-3.307910680704991
 30
0.0
 10
20.71111592087853
 20
-2.867554070499123
 30
0.0
 10
20.6729523167763
 20
-2.529334086950029
 30
0.0
 10
20.63649573245418
 20
-2.159047944329984
 30
0.0
 10
20.60063085313178
 20
-1.761888854369145
 30
0.0
  0
LINE
  5
AA2
330
18
100
AcDbEntity
  8
SK3
 48
0.000238
100
AcDbLine
 10
19.99812599999636
 20
3.675000000000068
 30
0.0
 11
20.00745499999636
 21
3.673079000000028
 31
0.0
  0
SPLINE
  5
AA3
330
18
100
AcDbEntity
  8
SK3
100
AcDbSpline
210
0.0
220
0.0
230
1.0
 70
     8
 71
     5
 72
    48
 73
    42
 74
     0
 42
0.0000000001
 43
0.0000000001
 40
0.0
 40
0.0
 40
0.0
 40
0.0
 40
0.0
 40
0.0
 40
0.8425601998130025
 40
0.8425601998130025
 40
0.8425601998130025
 40
2.162110398130653
 40
2.162110398130653
 40
2.162110398130653
 40
3.517442762056236
 40
3.517442762056236
 40
3.517442762056236
 40
6.962499611594526
 40
6.962499611594526
 40
6.962499611594526
 40
7.319502678157477
 40
7.319502678157477
 40
7.319502678157477
 40
7.676505744720429
 40
7.676505744720429
 40
7.676505744720429
 40
9.137520254157692
 40
9.137520254157692
 40
9.137520254157692
 40
9.518962154108463
 40
9.518962154108463
 40
9.518962154108463
 40
9.90040405405924
 40
9.90040405405924
 40
9.90040405405924
 40
10.66327111242644
 40
10.66327111242644
 40
10.66327111242644
 40
11.46546186511565
 40
11.46546186511565
 40
11.46546186511565
 40
12.22533995824863
 40
12.22533995824863
 40
12.22533995824863
 40
14.37204919930386
 40
14.37204919930386
 40
14.37204919930386
 40
14.37204919930386
 40
14.37204919930386
 40
14.37204919930386
 10
20.00745549904919
 20
3.673078838778963
 30
0.0
 10
20.01441554852094
 20
3.670215669095227
 30
0.0
 10
20.02145045656396
 20
3.664655091306655
 30
0.0
 10
20.02866624348505
 20
3.656268754248229
 30
0.0
 10
20.04771681158393
 20
3.626033002462293
 30
0.0
 10
20.06680557400576
 20
3.576059476350109
 30
0.0
 10
20.07840262791528
 20
3.538454771710235
 30
0.0
 10
20.10183280587149
 20
3.448526642596276
 30
0.0
 10
20.1250766823572
 20
3.332191686991905
 30
0.0
 10
20.13629527754812
 20
3.269803028500859
 30
0.0
 10
20.17758521384748
 20
3.017644711223566
 30
0.0
 10
20.21561449251317
 20
2.713954517957176
 30
0.0
 10
20.24139728376757
 20
2.483069590645128
 30
0.0
 10
20.27106657749093
 20
2.187480584294631
 30
0.0
 10
20.30121049562236
 20
1.859382511362581
 30
0.0
 10
20.30404371972899
 20
1.82830809940259
 30
0.0
 10
20.30971115858482
 20
1.765687344746709
 30
0.0
 10
20.31537091552474
 20
1.702258972510549
 30
0.0
 10
20.31818117025341
 20
1.670550585916656
 30
0.0
 10
20.33267261883922
 20
1.505985630308089
 30
0.0
 10
20.34838398706197
 20
1.322030645503843
 30
0.0
 10
20.36362230052095
 20
1.13904034217296
 30
0.0
 10
20.38001104584608
 20
0.9384432556252589
 30
0.0
 10
20.39487601250467
 20
0.7542662067074845
 30
0.0
 10
20.39789042143423
 20
0.7168336185621911
 30
0.0
 10
20.40382436859905
 20
0.6430105029164679
 30
0.0
 10
20.4097450796866
 20
0.5690905702182363
 30
0.0
 10
20.41269365037909
 20
0.5322186463092749
 30
0.0
 10
20.42146265765821
 20
0.4224156486212111
 30
0.0
 10
20.43012121908169
 20
0.3136117599544264
 30
0.0
 10
20.43592090917311
 20
0.240619645854224
 30
0.0
 10
20.44826281434383
 20
0.0850728304298514
 30
0.0
 10
20.46098261183317
 20
-0.0754013649772105
 30
0.0
 10
20.46579506770351
 20
-0.1361049395110285
 30
0.0
 10
20.47868427232329
 20
-0.2984980951477496
 30
0.0
 10
20.4917601974235
 20
-0.4625138434159341
 30
0.0
 10
20.49814942141653
 20
-0.5424041111169231
 30
0.0
 10
20.52266945887517
 20
-0.8477191507722068
 30
0.0
 10
20.54756148274105
 20
-1.151482447392367
 30
0.0
 10
20.56647128281323
 20
-1.375973538201265
 30
0.0
 10
20.58348355952535
 20
-1.57200382888908
 30
0.0
 10
20.60063085313178
 20
-1.761888854370396
 30
0.0
  0
LINE
  5
AA5
330
18
100
AcDbEntity
  8
SK3
 48
0.000259
100
AcDbLine
 10
19.09267299999636
 20
-3.672781999999926
 30
0.0
 11
19.08254399999636
 21
-3.674999999999953
 31
0.0
  0
SPLINE
  5
AA6
330
18
100
AcDbEntity
  8
SK3
100
AcDbSpline
210
0.0
220
0.0
230
1.0
 70
     8
 71
     5
 72
    21
 73
    15
 74
     0
 42
0.0000000001
 43
0.0000000001
 40
0.0
 40
0.0
 40
0.0
 40
0.0
 40
0.0
 40
0.0
 40
2.218218960597583
 40
2.218218960597583
 40
2.218218960597583
 40
3.586709235590471
 40
3.586709235590471
 40
3.586709235590471
 40
6.5241452493962
 40
6.5241452493962
 40
6.5241452493962
 40
7.114088717478478
 40
7.114088717478478
 40
7.114088717478478
 40
7.114088717478478
 40
7.114088717478478
 40
7.114088717478478
 10
19.08254443421202
 20
-3.674999993453353
 30
0.0
 10
19.06301656282191
 20
-3.675014670559618
 30
0.0
 10
19.0434179043937
 20
-3.65446359654021
 30
0.0
 10
19.0234699390533
 20
-3.612040175256935
 30
0.0
 10
18.9919511269766
 20
-3.511238208221868
 30
0.0
 10
18.96090921094222
 20
-3.361682301069265
 30
0.0
 10
18.9483894308432
 20
-3.293644930770426
 30
0.0
 10
18.91126353499457
 20
-3.070874173690866
 30
0.0
 10
18.87180835369379
 20
-2.767330816691752
 30
0.0
 10
18.84450435065535
 20
-2.523991480502218
 30
0.0
 10
18.81375983482277
 20
-2.222831384777861
 30
0.0
 10
18.78495976899143
 20
-1.916845151880693
 30
0.0
 10
18.78019039398649
 20
-1.865515104389317
 30
0.0
 10
18.77545507990535
 20
-1.813932484062774
 30
0.0
 10
18.77073238439541
 20
-1.761888854370396
 30
0.0
  0
SPLINE
  5
AA7
330
18
100
AcDbEntity
  8
SK3
100
AcDbSpline
210
0.0
220
0.0
230
1.0
 70
     8
 71
     5
 72
    18
 73
    12
 74
     0
 42
0.0000000001
 43
0.0000000001
 40
0.0
 40
0.0
 40
0.0
 40
0.0
 40
0.0
 40
0.0
 40
3.438855940062375
 40
3.438855940062375
 40
3.438855940062375
 40
7.719987405578097
 40
7.719987405578097
 40
7.719987405578097
 40
8.513104009353233
 40
8.513104009353233
 40
8.513104009353233
 40
8.513104009353233
 40
8.513104009353233
 40
8.513104009353233
 10
18.77073238439364
 20
-1.761888854370396
 30
0.0
 10
18.7388544190338
 20
-1.410596881163769
 30
0.0
 10
18.70770984771207
 20
-1.040047185757487
 30
0.0
 10
18.67692802339458
 20
-0.6550062890509594
 30
0.0
 10
18.60876431928726
 20
0.216076123707694
 30
0.0
 10
18.54041830145287
 20
1.077089254106567
 30
0.0
 10
18.5007607638884
 20
1.549361956246229
 30
0.0
 10
18.45322640568421
 20
2.071342716790979
 30
0.0
 10
18.40422972407312
 20
2.527831651408461
 30
0.0
 10
18.39652963110239
 20
2.597497000602686
 30
0.0
 10
18.38879291329115
 20
2.665259972602825
 30
0.0
 10
18.38100651578416
 20
2.731002220150685
 30
0.0
  0
ARC
  5
AA8
330
18
100
AcDbEntity
  8
SK3
100
AcDbCircle
 10
18.43467199999636
 20
2.93421100000006
 30
0.0
 40
0.209363
100
AcDbArc
 50
206.1312230000017
 51
255.2064180000007
  0
SPLINE
  5
AA9
330
18
100
AcDbEntity
  8
SK3
100
AcDbSpline
210
0.0
220
0.0
230
1.0
 70
     8
 71
     5
 72
    18
 73
    12
 74
     0
 42
0.0000000001
 43
0.0000000001
 40
0.0
 40
0.0
 40
0.0
 40
0.0
 40
0.0
 40
0.0
 40
3.438881468190575
 40
3.438881468190575
 40
3.438881468190575
 40
7.720142059137922
 40
7.720142059137922
 40
7.720142059137922
 40
8.513264474986682
 40
8.513264474986682
 40
8.513264474986682
 40
8.513264474986682
 40
8.513264474986682
 40
8.513264474986682
 10
17.48532689358822
 20
-1.761888854370396
 30
0.0
 10
17.45380930963848
 20
-1.410577222621383
 30
0.0
 10
17.42282148594469
 20
-1.040015686930189
 30
0.0
 10
17.39170661888337
 20
-0.654994749196419
 30
0.0
 10
17.32242055061795
 20
0.2160422351132638
 30
0.0
 10
17.253440441822
 20
1.077045365587195
 30
0.0
 10
17.21455434154411
 20
1.549287217354843
 30
0.0
 10
17.16790200045357
 20
2.071318187753149
 30
0.0
 10
17.11912408078404
 20
2.527829411966365
 30
0.0
 10
17.11143994397373
 20
2.597496010916358
 30
0.0
 10
17.10370308515936
 20
2.665259490839559
 30
0.0
 10
17.09591663046264
 20
2.731002220150685
 30
0.0
  0
SPLINE
  5
AAA
330
18
100
AcDbEntity
  8
SK3
100
AcDbSpline
210
0.0
220
0.0
230
1.0
 70
     8
 71
     5
 72
    42
 73
    36
 74
     0
 42
0.0000000001
 43
0.0000000001
 40
0.0
 40
0.0
 40
0.0
 40
0.0
 40
0.0
 40
0.0
 40
1.553618689954341
 40
1.553618689954341
 40
1.553618689954341
 40
2.345208014850675
 40
2.345208014850675
 40
2.345208014850675
 40
3.136797339747008
 40
3.136797339747008
 40
3.136797339747008
 40
4.720604089129174
 40
4.720604089129174
 40
4.720604089129174
 40
5.455392026302137
 40
5.455392026302137
 40
5.455392026302137
 40
7.823831370159107
 40
7.823831370159107
 40
7.823831370159107
 40
9.397023868451087
 40
9.397023868451087
 40
9.397023868451087
 40
10.90935536515604
 40
10.90935536515604
 40
10.90935536515604
 40
11.635793248241
 40
11.635793248241
 40
11.635793248241
 40
12.34966122117433
 40
12.34966122117433
 40
12.34966122117433
 40
15.09356947218506
 40
15.09356947218506
 40
15.09356947218506
 40
15.09356947218506
 40
15.09356947218506
 40
15.09356947218506
 10
18.40031407456499
 20
1.76188885437051
 30
0.0
 10
18.38781119544395
 20
1.6245100557623
 30
0.0
 10
18.37536149465097
 20
1.483947111436464
 30
0.0
 10
18.36296252634998
 20
1.340593246609897
 30
0.0
 10
18.34433916846993
 20
1.120819152604383
 30
0.0
 10
18.32585021587992
 20
0.8969411158180944
 30
0.0
 10
18.31962961049457
 20
0.8210280177572713
 30
0.0
 10
18.30719997772621
 20
0.6682801303552992
 30
0.0
 10
18.29485005962267
 20
0.5146670893101942
 30
0.0
 10
18.28882311267429
 20
0.4393201555872679
 30
0.0
 10
18.27122743748873
 20
0.2184969270918486
 30
0.0
 10
18.25469403259574
 20
0.0089585117052025
 30
0.0
 10
18.24437475261855
 20
-0.1222478010601549
 30
0.0
 10
18.2268655818981
 20
-0.3447482110873921
 30
0.0
 10
18.20893326015723
 20
-0.5708063941708021
 30
0.0
 10
18.20090781922253
 20
-0.6715442353200274
 30
0.0
 10
18.17703455317044
 20
-0.9695851038566159
 30
0.0
 10
18.15319228239063
 20
-1.259985816530785
 30
0.0
 10
18.13498809946874
 20
-1.475239747188425
 30
0.0
 10
18.1043706995522
 20
-1.823388351288428
 30
0.0
 10
18.07286909724114
 20
-2.152395701671706
 30
0.0
 10
18.06144593578549
 20
-2.267353435605002
 30
0.0
 10
18.0360110822542
 20
-2.51210947361659
 30
0.0
 10
18.01036781396369
 20
-2.734819709832265
 30
0.0
 10
17.99956267085654
 20
-2.822399221210218
 30
0.0
 10
17.98381437561171
 20
-2.945614598951351
 30
0.0
 10
17.96659973430319
 20
-3.067662110379443
 30
0.0
 10
17.96077196732575
 20
-3.107626032918118
 30
0.0
 10
17.94867790999001
 20
-3.187105837133286
 30
0.0
 10
17.9361608738086
 20
-3.262290405107364
 30
0.0
 10
17.92949408224171
 20
-3.300278041469709
 30
0.0
 10
17.89960135470932
 20
-3.461577500712734
 30
0.0
 10
17.86944430909322
 20
-3.580149853973068
 30
0.0
 10
17.84528330448356
 20
-3.643488929693886
 30
0.0
 10
17.82146539247178
 20
-3.674979499645131
 30
0.0
 10
17.79740427610519
 20
-3.674999991660286
 30
0.0
  0
LINE
  5
AAB
330
18
100
AcDbEntity
  8
SK3
 48
0.000257
100
AcDbLine
 10
17.79740399999636
 20
-3.674999999999953
 30
0.0
 11
17.78735199999636
 21
-3.672812999999961
 31
0.0
  0
SPLINE
  5
AAC
330
18
100
AcDbEntity
  8
SK3
100
AcDbSpline
210
0.0
220
0.0
230
1.0
 70
     8
 71
     5
 72
    18
 73
    12
 74
     0
 42
0.0000000001
 43
0.0000000001
 40
0.0
 40
0.0
 40
0.0
 40
0.0
 40
0.0
 40
0.0
 40
2.271425953864314
 40
2.271425953864314
 40
2.271425953864314
 40
4.339177499367223
 40
4.339177499367223
 40
4.339177499367223
 40
6.938304973094974
 40
6.938304973094974
 40
6.938304973094974
 40
6.938304973094974
 40
6.938304973094974
 40
6.938304973094974
 10
17.78735212165926
 20
-3.672813461433746
 30
0.0
 10
17.76735014164579
 20
-3.664098933774083
 30
0.0
 10
17.74710731346967
 20
-3.633593080482683
 30
0.0
 10
17.72665433491115
 20
-3.579887400180268
 30
0.0
 10
17.68820368200733
 20
-3.439129843548528
 30
0.0
 10
17.65034635567132
 20
-3.229406541885849
 30
0.0
 10
17.63350421744219
 20
-3.122934015700194
 30
0.0
 10
17.59112454257067
 20
-2.817176167231763
 30
0.0
 10
17.54877282619921
 20
-2.434166248398979
 30
0.0
 10
17.52662915668824
 20
-2.211548620244286
 30
0.0
 10
17.50589852479926
 20
-1.991191117533275
 30
0.0
 10
17.48532689358649
 20
-1.761888854370396
 30
0.0
  0
SPLINE
  5
AAD
330
18
100
AcDbEntity
  8
SK3
100
AcDbSpline
210
0.0
220
0.0
230
1.0
 70
     8
 71
     5
 72
    21
 73
    15
 74
     0
 42
0.0000000001
 43
0.0000000001
 40
0.0
 40
0.0
 40
0.0
 40
0.0
 40
0.0
 40
0.0
 40
2.234226469082098
 40
2.234226469082098
 40
2.234226469082098
 40
4.391490748507959
 40
4.391490748507959
 40
4.391490748507959
 40
5.790397702729276
 40
5.790397702729276
 40
5.790397702729276
 40
7.128924863321572
 40
7.128924863321572
 40
7.128924863321572
 40
7.128924863321572
 40
7.128924863321572
 40
7.128924863321572
 10
18.40031407456499
 20
1.76188885437051
 30
0.0
 10
18.41829420292761
 20
1.959450424738975
 30
0.0
 10
18.43638416267896
 20
2.150425241416995
 30
0.0
 10
18.45418620517328
 20
2.329712182626451
 30
0.0
 10
18.49020168930264
 20
2.669109994924041
 30
0.0
 10
18.52699754332813
 20
2.964722968448256
 30
0.0
 10
18.54559364846721
 20
3.099808398443939
 30
0.0
 10
18.57585499830858
 20
3.29335244912454
 30
0.0
 10
18.60663452000793
 20
3.442985713412952
 30
0.0
 10
18.61885452577267
 20
3.494724608580553
 30
0.0
 10
18.64286717296802
 20
3.580784611995227
 30
0.0
 10
18.66714348580176
 20
3.636613635755053
 30
0.0
 10
18.67905944919432
 20
3.656156459525162
 30
0.0
 10
18.69055789745886
 20
3.667914660878636
 30
0.0
 10
18.7018204185715
 20
3.672798487271676
 30
0.0
  0
LINE
  5
AAE
330
18
100
AcDbEntity
  8
SK3
 48
0.00026
100
AcDbLine
 10
18.70181999999636
 20
3.672798000000056
 30
0.0
 11
18.71197399999636
 21
3.675000000000068
 31
0.0
  0
SPLINE
  5
AAF
330
18
100
AcDbEntity
  8
SK3
100
AcDbSpline
210
0.0
220
0.0
230
1.0
 70
     8
 71
     5
 72
    48
 73
    42
 74
     0
 42
0.0000000001
 43
0.0000000001
 40
0.0
 40
0.0
 40
0.0
 40
0.0
 40
0.0
 40
0.0
 40
0.8344694746651814
 40
0.8344694746651814
 40
0.8344694746651814
 40
2.17384057462101
 40
2.17384057462101
 40
2.17384057462101
 40
3.534712300344703
 40
3.534712300344703
 40
3.534712300344703
 40
6.306264481497978
 40
6.306264481497978
 40
6.306264481497978
 40
7.029779728904803
 40
7.029779728904803
 40
7.029779728904803
 40
7.838069732387732
 40
7.838069732387732
 40
7.838069732387732
 40
9.307885129513703
 40
9.307885129513703
 40
9.307885129513703
 40
9.699307279266562
 40
9.699307279266562
 40
9.699307279266562
 40
10.09072942901942
 40
10.09072942901942
 40
10.09072942901942
 40
10.87352851866989
 40
10.87352851866989
 40
10.87352851866989
 40
11.67967001864586
 40
11.67967001864586
 40
11.67967001864586
 40
12.45061250339343
 40
12.45061250339343
 40
12.45061250339343
 40
14.65093342888966
 40
14.65093342888966
 40
14.65093342888966
 40
14.65093342888966
 40
14.65093342888966
 40
14.65093342888966
 10
18.71197403055067
 20
3.674999999991483
 30
0.0
 10
18.71893569727827
 20
3.675000188091359
 30
0.0
 10
18.72588969049975
 20
3.672413672888466
 30
0.0
 10
18.73294736669484
 20
3.667278550678758
 30
0.0
 10
18.75185507055573
 20
3.646106031267208
 30
0.0
 10
18.77156963369605
 20
3.604050699364563
 30
0.0
 10
18.78340592324114
 20
3.570718795271318
 30
0.0
 10
18.80723560347568
 20
3.489208588499819
 30
0.0
 10
18.83069503034001
 20
3.380058286006089
 30
0.0
 10
18.84242950809743
 20
3.318386284200983
 30
0.0
 10
18.87787904081136
 20
3.110922303247718
 30
0.0
 10
18.91111573064391
 20
2.859603383917202
 30
0.0
 10
18.93261699531386
 20
2.676326456584603
 30
0.0
 10
18.95889227804845
 20
2.433937602025309
 30
0.0
 10
18.98611180729306
 20
2.159250106533193
 30
0.0
 10
18.99179421032411
 20
2.100947850422641
 30
0.0
 10
19.00391339846077
 20
1.974615756098841
 30
0.0
 10
19.01618380706493
 20
1.842656772345036
 30
0.0
 10
19.01936586772201
 20
1.807975008514461
 30
0.0
 10
19.037361377584
 20
1.609886775382561
 30
0.0
 10
19.05642628474607
 20
1.39214180194034
 30
0.0
 10
19.07227429886012
 20
1.206790779375352
 30
0.0
 10
19.08945529446338
 20
1.000820154920404
 30
0.0
 10
19.10503638701952
 20
0.8105529744047428
 30
0.0
 10
19.10823718045975
 20
0.7713176314815656
 30
0.0
 10
19.1144920471291
 20
0.6943828706064892
 30
0.0
 10
19.12058884952285
 20
0.6189141391980117
 30
0.0
 10
19.12365497486792
 20
0.5808552421336231
 30
0.0
 10
19.13275872424066
 20
0.4675600395964922
 30
0.0
 10
19.1416759778124
 20
0.3558192762607177
 30
0.0
 10
19.14757320662291
 20
0.2816768711824125
 30
0.0
 10
19.15994596862997
 20
0.1257714871638882
 30
0.0
 10
19.17282188793892
 20
-0.0368342482191793
 30
0.0
 10
19.17792881726879
 20
-0.1013378854316898
 30
0.0
 10
19.19088927383515
 20
-0.2648602340198067
 30
0.0
 10
19.20405770068869
 20
-0.4302926679480379
 30
0.0
 10
19.21053223810602
 20
-0.5113736164876741
 30
0.0
 10
19.23556053192844
 20
-0.8234811197992256
 30
0.0
 10
19.26100821829405
 20
-1.134393555105531
 30
0.0
 10
19.28052110480854
 20
-1.366178596783867
 30
0.0
 10
19.29795699866177
 20
-1.5672617102976
 30
0.0
 10
19.31553345656497
 20
-1.761888854370396
 30
0.0
  0
SPLINE
  5
AB0
330
18
100
AcDbEntity
  8
SK3
100
AcDbSpline
210
0.0
220
0.0
230
1.0
 70
     8
 71
     5
 72
    39
 73
    33
 74
     0
 42
0.0000000001
 43
0.0000000001
 40
0.0
 40
0.0
 40
0.0
 40
0.0
 40
0.0
 40
0.0
 40
4.460636224416019
 40
4.460636224416019
 40
4.460636224416019
 40
6.086911310144918
 40
6.086911310144918
 40
6.086911310144918
 40
8.906996768116275
 40
8.906996768116275
 40
8.906996768116275
 40
9.093306061945069
 40
9.093306061945069
 40
9.093306061945069
 40
9.627474379784553
 40
9.627474379784553
 40
9.627474379784553
 40
9.805532275687683
 40
9.805532275687683
 40
9.805532275687683
 40
10.53557345069179
 40
10.53557345069179
 40
10.53557345069179
 40
11.23571434750133
 40
11.23571434750133
 40
11.23571434750133
 40
11.94778522656225
 40
11.94778522656225
 40
11.94778522656225
 40
14.53061821913639
 40
14.53061821913639
 40
14.53061821913639
 40
14.53061821913639
 40
14.53061821913639
 40
14.53061821913639
 10
20.23043920533549
 20
1.76188885437051
 30
0.0
 10
20.19510368872794
 20
1.368503703839792
 30
0.0
 10
20.16014283680828
 20
0.9487640588890258
 30
0.0
 10
20.12464464821964
 20
0.5078752178006312
 30
0.0
 10
20.07705502766155
 20
-0.0925776289656142
 30
0.0
 10
20.02968558437757
 20
-0.6827226435552804
 30
0.0
 10
20.02177733829325
 20
-0.7808426003748537
 30
0.0
 10
19.98576598157986
 20
-1.22373691115399
 30
0.0
 10
19.94746538924403
 20
-1.674491680671508
 30
0.0
 10
19.92232551586478
 20
-1.95449312529945
 30
0.0
 10
19.89760709414171
 20
-2.211121878152254
 30
0.0
 10
19.87293276766326
 20
-2.444717490873927
 30
0.0
 10
19.87140854766642
 20
-2.459061418654926
 30
0.0
 10
19.86545895538288
 20
-2.514701788015258
 30
0.0
 10
19.85964547694968
 20
-2.567756217704412
 30
0.0
 10
19.85594150080814
 20
-2.601030369978103
 30
0.0
 10
19.84993168867869
 20
-2.654017297347819
 30
0.0
 10
19.84373149668432
 20
-2.707150028185366
 30
0.0
 10
19.84217443911273
 20
-2.720396965502856
 30
0.0
 10
19.83417560726555
 20
-2.787945899264741
 30
0.0
 10
19.82593870171052
 20
-2.854873793478872
 30
0.0
 10
19.82006479164464
 20
-2.901055369636991
 30
0.0
 10
19.80678026330064
 20
-3.001729445233365
 30
0.0
 10
19.79355324827253
 20
-3.094216904539393
 30
0.0
 10
19.78718281668817
 20
-3.136762900193843
 30
0.0
 10
19.77496894481946
 20
-3.215069079331215
 30
0.0
 10
19.76288064068159
 20
-3.285616581753401
 30
0.0
 10
19.75719488036639
 20
-3.317219062935236
 30
0.0
 10
19.72853624029008
 20
-3.467968991630812
 30
0.0
 10
19.69913183825413
 20
-3.581040393287366
 30
0.0
 10
19.67566632823248
 20
-3.643318520074615
 30
0.0
 10
19.65159257049261
 20
-3.674999982958978
 30
0.0
 10
19.62740584641682
 20
-3.674999999999953
 30
0.0
  0
LINE
  5
AB1
330
18
100
AcDbEntity
  8
SK3
 48
0.000257
100
AcDbLine
 10
19.62740599999636
 20
-3.674999999999953
 30
0.0
 11
19.61736299999636
 21
-3.672814999999956
 31
0.0
  0
SPLINE
  5
AB2
330
18
100
AcDbEntity
  8
SK3
100
AcDbSpline
210
0.0
220
0.0
230
1.0
 70
     8
 71
     5
 72
    15
 73
     9
 74
     0
 42
0.0000000001
 43
0.0000000001
 40
0.0
 40
0.0
 40
0.0
 40
0.0
 40
0.0
 40
0.0
 40
2.670044486078988
 40
2.670044486078988
 40
2.670044486078988
 40
7.01339642792782
 40
7.01339642792782
 40
7.01339642792782
 40
7.01339642792782
 40
7.01339642792782
 40
7.01339642792782
 10
19.61736254318081
 20
-3.672815154123611
 30
0.0
 10
19.59234035891897
 20
-3.661929425478944
 30
0.0
 10
19.56732360064737
 20
-3.617158067621346
 30
0.0
 10
19.54296220484893
 20
-3.538687247055975
 30
0.0
 10
19.48159207475911
 20
-3.27060991222214
 30
0.0
 10
19.42197811168184
 20
-2.832503889044118
 30
0.0
 10
19.38547270908318
 20
-2.505116524154231
 30
0.0
 10
19.3502287329131
 20
-2.146075622013881
 30
0.0
 10
19.31553345656497
 20
-1.761888854370169
 30
0.0
  0
SPLINE
  5
AB3
330
18
100
AcDbEntity
  8
SK3
100
AcDbSpline
210
0.0
220
0.0
230
1.0
 70
     8
 71
     5
 72
    21
 73
    15
 74
     0
 42
0.0000000001
 43
0.0000000001
 40
0.0
 40
0.0
 40
0.0
 40
0.0
 40
0.0
 40
0.0
 40
4.647572838196865
 40
4.647572838196865
 40
4.647572838196865
 40
9.277540686825783
 40
9.277540686825783
 40
9.277540686825783
 40
12.1923658155577
 40
12.1923658155577
 40
12.1923658155577
 40
14.90346087659954
 40
14.90346087659954
 40
14.90346087659954
 40
14.90346087659954
 40
14.90346087659954
 40
14.90346087659954
 10
21.14498874305249
 20
-1.761888854370624
 30
0.0
 10
21.10753450004731
 20
-1.351152243059572
 30
0.0
 10
21.07076748615335
 20
-0.9119750742848964
 30
0.0
 10
21.03460216219735
 20
-0.4541249909519821
 30
0.0
 10
20.96369653540319
 20
0.4607839534396591
 30
0.0
 10
20.89190160561572
 20
1.348293966306981
 30
0.0
 10
20.85563615590114
 20
1.769515156642738
 30
0.0
 10
20.79438835379909
 20
2.414604769529318
 30
0.0
 10
20.73117485277604
 20
2.938042323298986
 30
0.0
 10
20.7075347417876
 20
3.109229337153464
 30
0.0
 10
20.66205418115344
 20
3.39390911344401
 30
0.0
 10
20.61411069819211
 20
3.581062268589618
 30
0.0
 10
20.59071307970018
 20
3.643375576339393
 30
0.0
 10
20.56660977751768
 20
3.674984114735309
 30
0.0
 10
20.54243758029872
 20
3.674999995011091
 30
0.0
  0
LINE
  5
AB4
330
18
100
AcDbEntity
  8
SK3
 48
0.000256
100
AcDbLine
 10
20.54243799999637
 20
3.675000000000068
 30
0.0
 11
20.53241199999636
 21
3.672835000000076
 31
0.0
  0
SPLINE
  5
AB6
330
18
100
AcDbEntity
  8
SK3
100
AcDbSpline
210
0.0
220
0.0
230
1.0
 70
     8
 71
     5
 72
    30
 73
    24
 74
     0
 42
0.0000000001
 43
0.0000000001
 40
0.0
 40
0.0
 40
0.0
 40
0.0
 40
0.0
 40
0.0
 40
1.57112720079599
 40
1.57112720079599
 40
1.57112720079599
 40
1.976344781682593
 40
1.976344781682593
 40
1.976344781682593
 40
2.361572368283045
 40
2.361572368283045
 40
2.361572368283045
 40
3.111542832808853
 40
3.111542832808853
 40
3.111542832808853
 40
3.842929737670201
 40
3.842929737670201
 40
3.842929737670201
 40
4.591816203630425
 40
4.591816203630425
 40
4.591816203630425
 40
7.425213513457746
 40
7.425213513457746
 40
7.425213513457746
 40
7.425213513457746
 40
7.425213513457746
 40
7.425213513457746
 10
21.14498874305249
 20
-1.761888854370396
 30
0.0
 10
21.15765027241832
 20
-1.900739709399488
 30
0.0
 10
21.17039033763953
 20
-2.036340309106378
 30
0.0
 10
21.18321272871362
 20
-2.168246665571643
 30
0.0
 10
21.19940559940372
 20
-2.328567038404514
 30
0.0
 10
21.21570067490837
 20
-2.48097933347816
 30
0.0
 10
21.21820646920027
 20
-2.504162300736139
 30
0.0
 10
21.22477866483862
 20
-2.564248802188841
 30
0.0
 10
21.23126466193726
 20
-2.622007878145723
 30
0.0
 10
21.2343522198762
 20
-2.649123321887258
 30
0.0
 10
21.24313321934107
 20
-2.725229617170611
 30
0.0
 10
21.25093539897155
 20
-2.790166646347585
 30
0.0
 10
21.25560722844133
 20
-2.828082339264084
 30
0.0
 10
21.26450544843107
 20
-2.898931381579359
 30
0.0
 10
21.27393162380387
 20
-2.970353959685723
 30
0.0
 10
21.27898760792458
 20
-3.007805428208087
 30
0.0
 10
21.29038940289764
 20
-3.08928863782188
 30
0.0
 10
21.30319537661707
 20
-3.173794391962529
 30
0.0
 10
21.30914037518028
 20
-3.211132754884487
 30
0.0
 10
21.33976749610282
 20
-3.394845644317682
 30
0.0
 10
21.37087529092979
 20
-3.535320268734551
 30
0.0
 10
21.39596177665091
 20
-3.615746039087355
 30
0.0
 10
21.42125497519469
 20
-3.661488427048992
 30
0.0
 10
21.44660223399097
 20
-3.672717048100991
 30
0.0
  0
LINE
  5
AB7
330
18
100
AcDbEntity
  8
SK3
 48
0.000264
100
AcDbLine
 10
21.44660199999636
 20
-3.67271699999992
 30
0.0
 11
21.45691299999636
 21
-3.674999999999953
 31
0.0
  0
SPLINE
  5
AB8
330
18
100
AcDbEntity
  8
SK3
100
AcDbSpline
210
0.0
220
0.0
230
1.0
 70
     8
 71
     5
 72
    30
 73
    24
 74
     0
 42
0.0000000001
 43
0.0000000001
 40
0.0
 40
0.0
 40
0.0
 40
0.0
 40
0.0
 40
0.0
 40
4.091412541786684
 40
4.091412541786684
 40
4.091412541786684
 40
5.197304117362909
 40
5.197304117362909
 40
5.197304117362909
 40
5.799150360292401
 40
5.799150360292401
 40
5.799150360292401
 40
6.364060837060549
 40
6.364060837060549
 40
6.364060837060549
 40
6.923010866383516
 40
6.923010866383516
 40
6.923010866383516
 40
7.497862794281926
 40
7.497862794281926
 40
7.497862794281926
 40
11.29806689988286
 40
11.29806689988286
 40
11.29806689988286
 40
11.29806689988286
 40
11.29806689988286
 40
11.29806689988286
 10
21.45691256253201
 20
-3.674999999999953
 30
0.0
 10
21.49352686034236
 20
-3.674999975010507
 30
0.0
 10
21.53014095416044
 20
-3.603073209227146
 30
0.0
 10
21.56619798727467
 20
-3.459490654777993
 30
0.0
 10
21.61049184024191
 20
-3.204164142954254
 30
0.0
 10
21.65375693639736
 20
-2.870517674026301
 30
0.0
 10
21.66292870817109
 20
-2.796115814791903
 30
0.0
 10
21.67702209837353
 20
-2.676474029737675
 30
0.0
 10
21.6910254428161
 20
-2.549976339724252
 30
0.0
 10
21.69440325423446
 20
-2.518859965151364
 30
0.0
 10
21.70335834860005
 20
-2.435088998643493
 30
0.0
 10
21.71155523568913
 20
-2.355946906952965
 30
0.0
 10
21.71536438211139
 20
-2.318674241000735
 30
0.0
 10
21.72281006215911
 20
-2.244974407376901
 30
0.0
 10
21.7303356891195
 20
-2.16874214101466
 30
0.0
 10
21.73418592738927
 20
-2.129332064969503
 30
0.0
 10
21.74233383036804
 20
-2.044970885604526
 30
0.0
 10
21.75113023242059
 20
-1.951776606087206
 30
0.0
 10
21.75514068655889
 20
-1.908803376534081
 30
0.0
 10
21.79031115355178
 20
-1.527812728752451
 30
0.0
 10
21.82513545864798
 20
-1.120009223266777
 30
0.0
 10
21.85588212047173
 20
-0.7448151279756985
 30
0.0
 10
21.88539582422411
 20
-0.3724076867689519
 30
0.0
 10
21.91491011467493
 20
0.0000000000000568
 30
0.0
  0
LINE
  5
AB9
330
18
100
AcDbEntity
  8
SK3
 48
0.024631
100
AcDbLine
 10
22.04850699999636
 20
0.0000000000000568
 30
0.0
 11
21.97284399999636
 21
-0.9823359999999183
 31
0.0
  0
ARC
  5
ABA
330
18
100
AcDbEntity
  8
SK3
100
AcDbCircle
 10
-82.30132100000364
 20
7.159679000000039
 30
0.0
 40
104.59152
100
AcDbArc
 50
355.0329650000013
 51
355.5352460000003
  0
ARC
  5
ABB
330
18
100
AcDbEntity
  8
SK3
100
AcDbCircle
 10
-20.41148100000364
 20
1.753058000000065
 30
0.0
 40
42.465889
100
AcDbArc
 50
354.0063680000002
 51
355.0703869999984
  0
ARC
  5
ABC
330
18
100
AcDbEntity
  8
SK3
100
AcDbCircle
 10
6.681877999996361
 20
-1.123453999999924
 30
0.0
 40
15.220113
100
AcDbArc
 50
351.8258010000012
 51
354.1259100000012
  0
ARC
  5
ABD
330
18
100
AcDbEntity
  8
SK3
100
AcDbCircle
 10
18.22926799999636
 20
-2.819591999999943
 30
0.0
 40
3.548553
100
AcDbArc
 50
346.0176799999994
 51
352.4241300000004
  0
SPLINE
  5
ABE
330
18
100
AcDbEntity
  8
SK3
100
AcDbSpline
210
0.0
220
0.0
230
1.0
 70
     8
 71
     5
 72
    12
 73
     6
 74
     0
 42
0.0000000001
 43
0.0000000001
 40
0.0
 40
0.0
 40
0.0
 40
0.0
 40
0.0
 40
0.0
 40
1.038596605703489
 40
1.038596605703489
 40
1.038596605703489
 40
1.038596605703489
 40
1.038596605703489
 40
1.038596605703489
 10
21.67232369940342
 20
-3.676913657263298
 30
0.0
 10
21.6576530658664
 20
-3.730057717897352
 30
0.0
 10
21.64276745243284
 20
-3.772303024020458
 30
0.0
 10
21.62770779660366
 20
-3.802533976578615
 30
0.0
 10
21.61253422927913
 20
-3.819882899367654
 30
0.0
 10
21.59732943085852
 20
-3.824200824866238
 30
0.0
  0
SPLINE
  5
ABF
330
18
100
AcDbEntity
  8
SK3
100
AcDbSpline
210
0.0
220
0.0
230
1.0
 70
     8
 71
     5
 72
    12
 73
     6
 74
     0
 42
0.0000000001
 43
0.0000000001
 40
0.0
 40
0.0
 40
0.0
 40
0.0
 40
0.0
 40
0.0
 40
1.033661057911908
 40
1.033661057911908
 40
1.033661057911908
 40
1.033661057911908
 40
1.033661057911908
 40
1.033661057911908
 10
21.59732943085852
 20
-3.824200824866238
 30
0.0
 10
21.58219688764156
 20
-3.828498231014463
 30
0.0
 10
21.56703343172269
 20
-3.819888159529739
 30
0.0
 10
21.55192274751204
 20
-3.798220947974868
 30
0.0
 10
21.53693190695223
 20
-3.764077109835453
 30
0.0
 10
21.52211832073364
 20
-3.718458752315256
 30
0.0
  0
LINE
  5
AC0
330
18
100
AcDbEntity
  8
SK3
 48
0.000179
100
AcDbLine
 10
21.52211799999636
 20
-3.718458999999938
 30
0.0
 11
21.51993799999636
 21
-3.71163999999993
 31
0.0
  0
SPLINE
  5
AC1
330
18
100
AcDbEntity
  8
SK3
100
AcDbSpline
210
0.0
220
0.0
230
1.0
 70
     8
 71
     5
 72
    24
 73
    18
 74
     0
 42
0.0000000001
 43
0.0000000001
 40
0.0
 40
0.0
 40
0.0
 40
0.0
 40
0.0
 40
0.0
 40
2.194783654637153
 40
2.194783654637153
 40
2.194783654637153
 40
6.896383428940914
 40
6.896383428940914
 40
6.896383428940914
 40
12.24409707947097
 40
12.24409707947097
 40
12.24409707947097
 40
14.27210501814058
 40
14.27210501814058
 40
14.27210501814058
 40
14.9506730920818
 40
14.9506730920818
 40
14.9506730920818
 40
14.9506730920818
 40
14.9506730920818
 40
14.9506730920818
 10
21.51993802307343
 20
-3.711640445442128
 30
0.0
 10
21.48852908944869
 20
-3.611918675592278
 30
0.0
 10
21.45793961345155
 20
-3.46086153116903
 30
0.0
 10
21.42848278853445
 20
-3.267462695498466
 30
0.0
 10
21.34023237799254
 20
-2.574754044851885
 30
0.0
 10
21.26213465068528
 20
-1.67415671837466
 30
0.0
 10
21.21236452245799
 20
-1.043789953210136
 30
0.0
 10
21.10695252121668
 20
0.3575196088957
 30
0.0
 10
21.00026943879818
 20
1.734200042629765
 30
0.0
 10
20.9391601289439
 20
2.455247276360181
 30
0.0
 10
20.84837157674796
 20
3.325246070897833
 30
0.0
 10
20.74383491327958
 20
3.749335503530914
 30
0.0
 10
20.7141362514139
 20
3.823087030168096
 30
0.0
 10
20.67390836130896
 20
3.850241799751643
 30
0.0
 10
20.63419632412472
 20
3.788858607180201
 30
0.0
 10
20.62424457449426
 20
3.767907501560671
 30
0.0
 10
20.61441995076731
 20
3.741861708045859
 30
0.0
 10
20.60468479865949
 20
3.710928999500993
 30
0.0
  0
SPLINE
  5
AC3
330
18
100
AcDbEntity
  8
SK3
100
AcDbSpline
210
0.0
220
0.0
230
1.0
 70
     8
 71
     5
 72
    24
 73
    18
 74
     0
 42
0.0000000001
 43
0.0000000001
 40
0.0
 40
0.0
 40
0.0
 40
0.0
 40
0.0
 40
0.0
 40
2.191459276008795
 40
2.191459276008795
 40
2.191459276008795
 40
6.890226007557473
 40
6.890226007557473
 40
6.890226007557473
 40
12.23321367383494
 40
12.23321367383494
 40
12.23321367383494
 40
14.26087445311569
 40
14.26087445311569
 40
14.26087445311569
 40
14.92787536987088
 40
14.92787536987088
 40
14.92787536987088
 40
14.92787536987088
 40
14.92787536987088
 40
14.92787536987088
 10
19.68985037371112
 20
-3.711250195781929
 30
0.0
 10
19.65835703067986
 20
-3.611209912015623
 30
0.0
 10
19.62774512196068
 20
-3.459730296739564
 30
0.0
 10
19.59831558061223
 20
-3.266177810672218
 30
0.0
 10
19.51018322106991
 20
-2.574128153292064
 30
0.0
 10
19.43219644900077
 20
-1.674654361407817
 30
0.0
 10
19.38182595499698
 20
-1.035532985618714
 30
0.0
 10
19.2760342819576
 20
0.3719049860605423
 30
0.0
 10
19.16855533105089
 20
1.754886453422044
 30
0.0
 10
19.10666580255977
 20
2.480517880445006
 30
0.0
 10
19.01566265685562
 20
3.342150555964053
 30
0.0
 10
18.91199245637448
 20
3.754576650438592
 30
0.0
 10
18.88264089891015
 20
3.825118500126165
 30
0.0
 10
18.84303372481437
 20
3.849864002058438
 30
0.0
 10
18.8038189985487
 20
3.788108620943603
 30
0.0
 10
18.79410855909288
 20
3.767508437576622
 30
0.0
 10
18.78450756018294
 20
3.742006884476722
 30
0.0
 10
18.77498131691013
 20
3.711779598474776
 30
0.0
  0
SPLINE
  5
AC4
330
18
100
AcDbEntity
  8
SK3
100
AcDbSpline
210
0.0
220
0.0
230
1.0
 70
     8
 71
     5
 72
    24
 73
    18
 74
     0
 42
0.0000000001
 43
0.0000000001
 40
0.0
 40
0.0
 40
0.0
 40
0.0
 40
0.0
 40
0.0
 40
2.198056461367893
 40
2.198056461367893
 40
2.198056461367893
 40
6.888243105170857
 40
6.888243105170857
 40
6.888243105170857
 40
12.23507469591608
 40
12.23507469591608
 40
12.23507469591608
 40
14.26443942224276
 40
14.26443942224276
 40
14.26443942224276
 40
14.93888338461025
 40
14.93888338461025
 40
14.93888338461025
 40
14.93888338461025
 40
14.93888338461025
 40
14.93888338461025
 10
18.77498131691013
 20
3.711779598474776
 30
0.0
 10
18.74358822575787
 20
3.612167619484694
 30
0.0
 10
18.71300703993113
 20
3.461235811843096
 30
0.0
 10
18.68355823725075
 20
3.267980956795098
 30
0.0
 10
18.59547006653482
 20
2.576892567362278
 30
0.0
 10
18.5173613115216
 20
1.676791890216918
 30
0.0
 10
18.46700567913684
 20
1.03859195336787
 30
0.0
 10
18.36159057268331
 20
-0.3621433123474276
 30
0.0
 10
18.25496494378468
 20
-1.737207149383436
 30
0.0
 10
18.19384222191547
 20
-2.458056846879458
 30
0.0
 10
18.10315028520217
 20
-3.326811057340988
 30
0.0
 10
17.99874752972817
 20
-3.749760774735306
 30
0.0
 10
17.96909546879247
 20
-3.823140633933404
 30
0.0
 10
17.92892701893271
 20
-3.850288817397768
 30
0.0
 10
17.88923289682097
 20
-3.788838574683836
 30
0.0
 10
17.87933376918234
 20
-3.767995609543845
 30
0.0
 10
17.869558568279
 20
-3.742103817884241
 30
0.0
 10
17.85987042376806
 20
-3.711366616341364
 30
0.0
  0
SPLINE
  5
AC5
330
18
100
AcDbEntity
  8
SK3
100
AcDbSpline
210
0.0
220
0.0
230
1.0
 70
     8
 71
     5
 72
    18
 73
    12
 74
     0
 42
0.0000000001
 43
0.0000000001
 40
0.0
 40
0.0
 40
0.0
 40
0.0
 40
0.0
 40
0.0
 40
2.830175553126979
 40
2.830175553126979
 40
2.830175553126979
 40
8.606582533718404
 40
8.606582533718404
 40
8.606582533718404
 40
10.91868582131112
 40
10.91868582131112
 40
10.91868582131112
 40
10.91868582131112
 40
10.91868582131112
 40
10.91868582131112
 10
17.85987042376806
 20
-3.711366616341364
 30
0.0
 10
17.81921597168611
 20
-3.582383807936081
 30
0.0
 10
17.78009461524115
 20
-3.368080032382578
 30
0.0
 10
17.74298578990598
 20
-3.088689142807936
 30
0.0
 10
17.63740416177097
 20
-2.142415015914195
 30
0.0
 10
17.54508985207384
 20
-0.960014913447992
 30
0.0
 10
17.48655404698082
 20
-0.1727149484492543
 30
0.0
 10
17.40248216408849
 20
0.9693300957097791
 30
0.0
 10
17.31215868566303
 20
2.023968449768061
 30
0.0
 10
17.28563102323094
 20
2.314863511250393
 30
0.0
 10
17.25815092467005
 20
2.590692872154875
 30
0.0
 10
17.22951314142751
 20
2.842345954165238
 30
0.0
  0
ARC
  5
AC6
330
18
100
AcDbEntity
  8
SK3
100
AcDbCircle
 10
17.04225099999636
 20
2.93421100000006
 30
0.0
 40
0.209363
100
AcDbArc
 50
284.7935819999993
 51
333.8687769999983
  0
LINE
  5
AC7
330
18
100
AcDbEntity
  8
SK3
 48
0.004271
100
AcDbLine
 10
17.29451999999636
 20
3.000355000000069
 30
0.0
 11
17.22951299999636
 21
2.842346000000076
 31
0.0
  0
ARC
  5
AC8
330
18
100
AcDbEntity
  8
SK3
100
AcDbCircle
 10
17.24693099999636
 20
3.619598000000053
 30
0.0
 40
0.05448
100
AcDbArc
 50
91.42751399999992
 51
122.7120079999994
  0
SPLINE
  5
AC9
330
18
100
AcDbEntity
  8
SK3
100
AcDbSpline
210
0.0
220
0.0
230
1.0
 70
     8
 71
     5
 72
    18
 73
    12
 74
     0
 42
0.0000000001
 43
0.0000000001
 40
0.0
 40
0.0
 40
0.0
 40
0.0
 40
0.0
 40
0.0
 40
1.431784890234551
 40
1.431784890234551
 40
1.431784890234551
 40
2.455755071803022
 40
2.455755071803022
 40
2.455755071803022
 40
2.679419884147328
 40
2.679419884147328
 40
2.679419884147328
 40
2.679419884147328
 40
2.679419884147328
 40
2.679419884147328
 10
17.2945197105552
 20
3.000355356796887
 30
0.0
 10
17.27779884376697
 20
3.162792324795588
 30
0.0
 10
17.26223968532227
 20
3.311965258264137
 30
0.0
 10
17.2481699846652
 20
3.444386065004038
 30
0.0
 10
17.22818907051483
 20
3.626575310144743
 30
0.0
 10
17.21733289846696
 20
3.71227283572108
 30
0.0
 10
17.21467245182
 20
3.728546192472662
 30
0.0
 10
17.21388996907254
 20
3.723086734951663
 30
0.0
 10
17.21592884015014
 20
3.689016517212678
 30
0.0
 10
17.21638452156293
 20
3.681993682455639
 30
0.0
 10
17.21692744681007
 20
3.674094665450581
 30
0.0
 10
17.2175561848918
 20
3.665332978522143
 30
0.0
  0
LINE
  5
ACA
330
18
100
AcDbEntity
  8
SK3
 48
0.162737
100
AcDbLine
 10
24.24999999999637
 20
-4.39999999999992
 30
0.0
 11
24.24999999999637
 21
2.109472000000038
 31
0.0
  0
LINE
  5
ACB
330
18
100
AcDbEntity
  8
SK3
 48
0.162737
100
AcDbLine
 10
24.24999999999637
 20
-2.109471999999925
 30
0.0
 11
24.24999999999637
 21
4.400000000000034
 31
0.0
  0
LINE
  5
ACC
330
18
100
AcDbEntity
  8
SK3
 48
0.01359
100
AcDbLine
 10
17.94246099999636
 20
3.669852000000048
 30
0.0
 11
17.39884699999636
 21
3.669852000000048
 31
0.0
  0
LINE
  5
ACD
330
18
100
AcDbEntity
  8
SK3
 48
0.001964
100
AcDbLine
 10
17.93636499999636
 20
3.748172000000066
 30
0.0
 11
17.94246099999636
 21
3.669852000000048
 31
0.0
  0
LINE
  5
ACE
330
18
100
AcDbEntity
  8
SK3
 48
0.001964
100
AcDbLine
 10
17.39275099999636
 20
3.748172000000066
 30
0.0
 11
17.39884699999636
 21
3.669852000000048
 31
0.0
  0
ARC
  5
ACF
330
18
100
AcDbEntity
  8
SK3
100
AcDbCircle
 10
17.86627999999636
 20
3.502240000000028
 30
0.0
 40
0.289964
100
AcDbArc
 50
12.91868499999877
 51
34.29156699999975
  0
LINE
  5
AD0
330
18
100
AcDbEntity
  8
SK3
 48
0.002263
100
AcDbLine
 10
18.14942099999636
 20
3.567186000000048
 30
0.0
 11
18.17278799999636
 21
3.479733000000066
 31
0.0
  0
ARC
  5
AD1
330
18
100
AcDbEntity
  8
SK3
100
AcDbCircle
 10
-15.44172300000363
 20
-0.7490589999999317
 30
0.0
 40
33.879729
100
AcDbArc
 50
6.084992999998446
 51
7.170288999999494
  0
SPLINE
  5
AD2
330
18
100
AcDbEntity
  8
SK3
100
AcDbSpline
210
0.0
220
0.0
230
1.0
 70
     8
 71
     5
 72
    15
 73
     9
 74
     0
 42
0.0000000001
 43
0.0000000001
 40
0.0
 40
0.0
 40
0.0
 40
0.0
 40
0.0
 40
0.0
 40
0.7226639428206527
 40
0.7226639428206527
 40
0.7226639428206527
 40
2.351111571541796
 40
2.351111571541796
 40
2.351111571541796
 40
2.351111571541796
 40
2.351111571541796
 40
2.351111571541796
 10
18.38100651578422
 20
2.731002220150685
 30
0.0
 10
18.37281435659783
 20
2.790012201667933
 30
0.0
 10
18.36194690667602
 20
2.847264541606421
 30
0.0
 10
18.34855160058111
 20
2.903229467152812
 30
0.0
 10
18.3014026932811
 20
3.077505988856613
 30
0.0
 10
18.24858180302772
 20
3.230096061288576
 30
0.0
 10
18.21652496514105
 20
3.324676936227091
 30
0.0
 10
18.18960775596911
 20
3.409166733887218
 30
0.0
 10
18.17278789715597
 20
3.479733014494228
 30
0.0
  0
LINE
  5
AD3
330
18
100
AcDbEntity
  8
SK3
 48
0.003131
100
AcDbLine
 10
17.94246099999636
 20
3.669852000000048
 30
0.0
 11
18.06757599999636
 21
3.675000000000068
 31
0.0
  0
LINE
  5
AD4
330
18
100
AcDbEntity
  8
SK3
 48
0.0004
100
AcDbLine
 10
18.06757599999636
 20
3.675000000000068
 30
0.0
 11
18.08354499999636
 21
3.674200000000041
 31
0.0
  0
LINE
  5
AD5
330
18
100
AcDbEntity
  8
SK3
 48
0.003359
100
AcDbLine
 10
17.39884699999636
 20
3.669852000000048
 30
0.0
 11
17.26458999999636
 21
3.675000000000068
 31
0.0
  0
LINE
  5
AD6
330
18
100
AcDbEntity
  8
SK3
 48
0.000476
100
AcDbLine
 10
17.26458999999636
 20
3.675000000000068
 30
0.0
 11
17.24556999999636
 21
3.674200000000041
 31
0.0
  0
ARC
  5
AD7
330
18
100
AcDbEntity
  8
SK3
100
AcDbCircle
 10
17.79698799999636
 20
3.415903000000071
 30
0.0
 40
0.6451600000000001
100
AcDbArc
 50
164.1788790000004
 51
174.3229799999985
  0
ARC
  5
AD8
330
18
100
AcDbEntity
  8
SK3
100
AcDbCircle
 10
17.32225899999636
 20
3.560122000000035
 30
0.0
 40
0.148845
100
AcDbArc
 50
134.8613070000011
 51
167.7610639999984
  0
SPLINE
  5
AD9
330
18
100
AcDbEntity
  8
SK3
100
AcDbSpline
210
0.0
220
0.0
230
1.0
 70
     8
 71
     5
 72
    15
 73
     9
 74
     0
 42
0.0000000001
 43
0.0000000001
 40
0.0
 40
0.0
 40
0.0
 40
0.0
 40
0.0
 40
0.0
 40
0.718179845574722
 40
0.718179845574722
 40
0.718179845574722
 40
2.333337523176179
 40
2.333337523176179
 40
2.333337523176179
 40
2.333337523176179
 40
2.333337523176179
 40
2.333337523176179
 10
17.09591663046259
 20
2.731002220150685
 30
0.0
 10
17.090281984205
 20
2.789744755167362
 30
0.0
 10
17.08785437805778
 20
2.846972265749683
 30
0.0
 10
17.08849231475621
 20
2.903202558572843
 30
0.0
 10
17.09676716571508
 20
3.077946889263955
 30
0.0
 10
17.11864922950619
 20
3.230866606470272
 30
0.0
 10
17.13329816598049
 20
3.325546367770185
 30
0.0
 10
17.14682277736796
 20
3.409599003155904
 30
0.0
 10
17.15489103393691
 20
3.479733011826283
 30
0.0
  0
ARC
  5
ADA
330
18
100
AcDbEntity
  8
SK3
100
AcDbCircle
 10
-16.45961400000364
 20
-0.7490589999999317
 30
0.0
 40
33.879723
100
AcDbArc
 50
6.084992999998446
 51
7.170288999999494
  0
LINE
  5
ADB
330
18
100
AcDbEntity
  8
SK3
 48
0.055962
100
AcDbLine
 10
24.34999999999636
 20
-4.299999999999953
 30
0.0
 11
24.34999999999636
 21
-2.061529999999946
 31
0.0
  0
LINE
  5
ADC
330
18
100
AcDbEntity
  8
SK3
 48
0.159038
100
AcDbLine
 10
24.34999999999636
 20
-2.061529999999946
 30
0.0
 11
24.34999999999636
 21
4.300000000000068
 31
0.0
  0
LINE
  5
ADD
330
18
100
AcDbEntity
  8
SK3
 48
0.135922
100
AcDbLine
 10
16.59999999999636
 20
-1.761888999999938
 30
0.0
 11
16.59999999999636
 21
3.675000000000068
 31
0.0
  0
LINE
  5
ADE
330
18
100
AcDbEntity
  8
SK3
 48
0.135922
100
AcDbLine
 10
16.59999999999636
 20
-3.674999999999953
 30
0.0
 11
16.59999999999636
 21
1.761889000000053
 31
0.0
  0
LINE
  5
ADF
330
18
100
AcDbEntity
  8
SK3
 48
0.12945
100
AcDbLine
 10
16.32728199999636
 20
-1.677988999999968
 30
0.0
 11
16.32728199999636
 21
3.500000000000055
 31
0.0
  0
LINE
  5
AE0
330
18
100
AcDbEntity
  8
SK3
 48
0.12945
100
AcDbLine
 10
16.32728199999636
 20
-3.499999999999943
 30
0.0
 11
16.32728199999636
 21
1.67798900000008
 31
0.0
  0
LINE
  5
AE1
330
18
100
AcDbEntity
  8
SK3
 48
0.159963
100
AcDbLine
 10
25.14999999999636
 20
-4.32499999999993
 30
0.0
 11
25.14999999999636
 21
2.073515000000043
 31
0.0
  0
LINE
  5
AE2
330
18
100
AcDbEntity
  8
SK3
 48
0.159963
100
AcDbLine
 10
25.14999999999636
 20
-2.073514999999928
 30
0.0
 11
25.14999999999636
 21
4.325000000000044
 31
0.0
  0
LINE
  5
AE3
330
18
100
AcDbEntity
  8
SK3
 48
0.12945
100
AcDbLine
 10
16.09999999999636
 20
-1.677988999999968
 30
0.0
 11
16.09999999999636
 21
3.500000000000055
 31
0.0
  0
LINE
  5
AE4
330
18
100
AcDbEntity
  8
SK3
 48
0.12945
100
AcDbLine
 10
16.09999999999636
 20
-3.499999999999943
 30
0.0
 11
16.09999999999636
 21
1.67798900000008
 31
0.0
  0
LINE
  5
AE5
102
{ACAD_REACTORS
330
CB5
330
CE9
102
}
330
18
100
AcDbEntity
  8
1
 48
0.49425
370
    35
100
AcDbLine
 10
5.629999999996361
 20
5.750000000000056
 30
0.0
 11
25.39999999999636
 21
5.750000000000056
 31
0.0
  0
LINE
  5
AE6
102
{ACAD_REACTORS
330
CE9
102
}
330
18
100
AcDbEntity
  8
1
 48
0.49425
370
    35
100
AcDbLine
 10
5.629999999996361
 20
-5.749999999999943
 30
0.0
 11
25.39999999999636
 21
-5.749999999999943
 31
0.0
  0
LINE
  5
AE7
330
18
100
AcDbEntity
  8
SK3
 48
0.021738
100
AcDbLine
 10
22.78046999999636
 20
4.165000000000077
 30
0.0
 11
23.64999999999636
 21
4.165000000000077
 31
0.0
  0
SPLINE
  5
AE8
330
18
100
AcDbEntity
  8
SK3
100
AcDbSpline
210
0.0
220
0.0
230
1.0
 70
     8
 71
     3
 72
    24
 73
    20
 74
     0
 42
0.0000000001
 43
0.0000000001
 40
0.0
 40
0.0
 40
0.0
 40
0.0
 40
0.0226037700963989
 40
0.0446680216293668
 40
0.0663679708498235
 40
0.0880469267656409
 40
0.1132269221001054
 40
0.1399028135488487
 40
0.1603086666696224
 40
0.1825320259331622
 40
0.2146383457488505
 40
0.2301928282918174
 40
0.2468771483950555
 40
0.2617376231725482
 40
0.2774877658244679
 40
0.2920067722575924
 40
0.3068313732252818
 40
0.3350012657040974
 40
0.3620381109060629
 40
0.3620381109060629
 40
0.3620381109060629
 40
0.3620381109060629
 10
22.50352835627111
 20
3.929790934421361
 30
0.0
 10
22.50578460719933
 20
3.936980224261446
 30
0.0
 10
22.51040383884937
 20
3.951136117034366
 30
0.0
 10
22.51783251429907
 20
3.971977703142498
 30
0.0
 10
22.52581152378473
 20
3.992285215321828
 30
0.0
 10
22.5349821826335
 20
4.013224543109799
 30
0.0
 10
22.54593551201072
 20
4.035168435117156
 30
0.0
 10
22.55815343223929
 20
4.055956717173727
 30
0.0
 10
22.57133159252665
 20
4.074953718841243
 30
0.0
 10
22.58706788956358
 20
4.094297989828476
 30
0.0
 10
22.60368921338191
 20
4.110735798907739
 30
0.0
 10
22.62044239304959
 20
4.124150720469232
 30
0.0
 10
22.63339409500347
 20
4.133053340892558
 30
0.0
 10
22.64701764086181
 20
4.141010779763121
 30
0.0
 10
22.6605374391625
 20
4.147640445426701
 30
0.0
 10
22.67449279778438
 20
4.153259504101129
 30
0.0
 10
22.69275619529361
 20
4.15913348500544
 30
0.0
 10
22.7156955002344
 20
4.16390619974021
 30
0.0
 10
22.73410007277779
 20
4.165151622507153
 30
0.0
 10
22.74312554249237
 20
4.165151623392659
 30
0.0
  0
LINE
  5
AE9
330
18
100
AcDbEntity
  8
SK3
 48
0.01125
100
AcDbLine
 10
23.19999999999637
 20
-4.164999999999962
 30
0.0
 11
23.64999999999636
 21
-4.164999999999962
 31
0.0
  0
LINE
  5
AEA
330
18
100
AcDbEntity
  8
SK3
 48
0.000935
100
AcDbLine
 10
22.78050699999636
 20
4.165152000000033
 30
0.0
 11
22.74312599999637
 21
4.165152000000033
 31
0.0
  0
LINE
  5
AEB
330
18
100
AcDbEntity
  8
SK3
 48
0.013591
100
AcDbLine
 10
22.37180799999636
 20
-4.165117999999949
 30
0.0
 11
21.82817799999636
 21
-4.165117999999949
 31
0.0
  0
LINE
  5
AEC
330
18
100
AcDbEntity
  8
SK3
 48
0.01359
100
AcDbLine
 10
21.45675899999636
 20
4.164831000000049
 30
0.0
 11
20.91314499999636
 21
4.164831000000049
 31
0.0
  0
LINE
  5
AED
330
18
100
AcDbEntity
  8
SK3
 48
0.01359
100
AcDbLine
 10
20.54176199999636
 20
-4.16483299999993
 30
0.0
 11
19.99814899999636
 21
-4.16483299999993
 31
0.0
  0
LINE
  5
AEE
330
18
100
AcDbEntity
  8
SK3
 48
0.01359
100
AcDbLine
 10
19.62675999999636
 20
4.165088000000082
 30
0.0
 11
19.08315999999636
 21
4.165088000000082
 31
0.0
  0
LINE
  5
AEF
330
18
100
AcDbEntity
  8
SK3
 48
0.01359
100
AcDbLine
 10
18.71178099999636
 20
-4.164838999999914
 30
0.0
 11
18.16816699999636
 21
-4.164838999999914
 31
0.0
  0
SPLINE
  5
AF0
330
18
100
AcDbEntity
  8
SK3
100
AcDbSpline
210
0.0
220
0.0
230
1.0
 70
     8
 71
     3
 72
    25
 73
    21
 74
     0
 42
0.0000000001
 43
0.0000000001
 40
0.0
 40
0.0
 40
0.0
 40
0.0
 40
0.0270084958232164
 40
0.0551939872436299
 40
0.0694338592305098
 40
0.0845629658858413
 40
0.1003278377365234
 40
0.1152003365651561
 40
0.1318921497779345
 40
0.1474552292448766
 40
0.1655719876923882
 40
0.1822730992973656
 40
0.2030561480059658
 40
0.2221087672269579
 40
0.2487009636168041
 40
0.2739082196570983
 40
0.3000520712408448
 40
0.3264027477951245
 40
0.3439349411805459
 40
0.3618537005625001
 40
0.3618537005625001
 40
0.3618537005625001
 40
0.3618537005625001
 10
22.37180832267202
 20
-4.165117801316569
 30
0.0
 10
22.38082426456562
 20
-4.165117057905944
 30
0.0
 10
22.39922441130104
 20
-4.163871845695608
 30
0.0
 10
22.42196861837823
 20
-4.159140340047314
 30
0.0
 10
22.44025201635212
 20
-4.153288921890066
 30
0.0
 10
22.45422864752035
 20
-4.147683187936081
 30
0.0
 10
22.46793803162399
 20
-4.140957894975656
 30
0.0
 10
22.48156981540403
 20
-4.132991561154482
 30
0.0
 10
22.49452675574407
 20
-4.124080862916173
 30
0.0
 10
22.50763976414472
 20
-4.113573670796711
 30
0.0
 10
22.5199483401807
 20
-4.102122805405882
 30
0.0
 10
22.53257656142711
 20
-4.088539257863827
 30
0.0
 10
22.54437233805018
 20
-4.073815576280367
 30
0.0
 10
22.55696383791546
 20
-4.055584468523078
 30
0.0
 10
22.56894914635366
 20
-4.035204331556427
 30
0.0
 10
22.58056505869367
 20
-4.011948221908482
 30
0.0
 10
22.59085174184134
 20
-3.988166039511611
 30
0.0
 10
22.59915518569559
 20
-3.96634395564763
 30
0.0
 10
22.60590838659991
 20
-3.946880221002799
 30
0.0
 10
22.6095507041857
 20
-3.935637963156238
 30
0.0
 10
22.61134048693973
 20
-3.929939261170773
 30
0.0
  0
SPLINE
  5
AF1
330
18
100
AcDbEntity
  8
SK3
100
AcDbSpline
210
0.0
220
0.0
230
1.0
 70
     8
 71
     3
 72
    26
 73
    22
 74
     0
 42
0.0000000001
 43
0.0000000001
 40
0.0
 40
0.0
 40
0.0
 40
0.0
 40
0.0270639767053512
 40
0.0552235835619726
 40
0.0702466899665768
 40
0.0845790902008461
 40
0.1003307691526214
 40
0.1152020121721305
 40
0.1319086488884871
 40
0.1474917547498636
 40
0.165600303719893
 40
0.1823078417593193
 40
0.2030935095020102
 40
0.2221662459774165
 40
0.2487981274443046
 40
0.2740907007824361
 40
0.2905529027271015
 40
0.3080099286600198
 40
0.3257186160881105
 40
0.3437277331226124
 40
0.3621642165905039
 40
0.3621642165905039
 40
0.3621642165905039
 40
0.3621642165905039
 10
21.45675939705774
 20
4.16483112889864
 30
0.0
 10
21.46579395809214
 20
4.164831132153948
 30
0.0
 10
21.4842041790118
 20
4.163584352592407
 30
0.0
 10
21.50721350717589
 20
4.158795702886891
 30
0.0
 10
21.52547495893502
 20
4.152912216636308
 30
0.0
 10
21.53943125585673
 20
4.147284601232513
 30
0.0
 10
21.55289859889959
 20
4.140680015252768
 30
0.0
 10
21.56653175728543
 20
4.13271591071708
 30
0.0
 10
21.579499278473
 20
4.123800749726456
 30
0.0
 10
21.59262016948599
 20
4.113289141686948
 30
0.0
 10
21.60493421280086
 20
4.101835270848083
 30
0.0
 10
21.61756434857919
 20
4.088253116902023
 30
0.0
 10
21.62936839024522
 20
4.073523630183956
 30
0.0
 10
21.64197468953296
 20
4.055277389092053
 30
0.0
 10
21.65398719114778
 20
4.034857229759609
 30
0.0
 10
21.66418063057477
 20
4.014452812357831
 30
0.0
 10
21.67220553516279
 20
3.996417293808973
 30
0.0
 10
21.67870458766175
 20
3.980479407970392
 30
0.0
 10
21.68493688451869
 20
3.963884211469404
 30
0.0
 10
21.69087141033547
 20
3.946834456062048
 30
0.0
 10
21.69462038683272
 20
3.935278206632688
 30
0.0
 10
21.69646271250488
 20
3.929415131560062
 30
0.0
  0
SPLINE
  5
AF2
330
18
100
AcDbEntity
  8
SK3
100
AcDbSpline
210
0.0
220
0.0
230
1.0
 70
     8
 71
     3
 72
    25
 73
    21
 74
     0
 42
0.0000000001
 43
0.0000000001
 40
0.0
 40
0.0
 40
0.0
 40
0.0
 40
0.0270641975399424
 40
0.0552408983264865
 40
0.0702596909099495
 40
0.0845890432713582
 40
0.100333793766814
 40
0.1151999178892558
 40
0.131871946696565
 40
0.1474291716275264
 40
0.165530470463025
 40
0.1822303809785976
 40
0.2030193862672079
 40
0.2220940420083097
 40
0.2502428729456282
 40
0.2740762379428252
 40
0.2956434894550965
 40
0.3172454443822333
 40
0.3392097184896191
 40
0.3618024201880604
 40
0.3618024201880604
 40
0.3618024201880604
 40
0.3618024201880604
 10
20.54176248576961
 20
-4.164833399309316
 30
0.0
 10
20.55079712024771
 20
-4.16483340189535
 30
0.0
 10
20.56921310855146
 20
-4.163586142925111
 30
0.0
 10
20.59222654407941
 20
-4.158795285270457
 30
0.0
 10
20.61049056475837
 20
-4.152909235953187
 30
0.0
 10
20.62444203155315
 20
-4.147282397028334
 30
0.0
 10
20.63790454124766
 20
-4.140679428940926
 30
0.0
 10
20.65152409167131
 20
-4.132722889029706
 30
0.0
 10
20.66447410876229
 20
-4.123821030116005
 30
0.0
 10
20.67757935146312
 20
-4.113326091448981
 30
0.0
 10
20.68988617689301
 20
-4.101884422473346
 30
0.0
 10
20.70251691689488
 20
-4.08830810154177
 30
0.0
 10
20.71432345481518
 20
-4.073581527067801
 30
0.0
 10
20.72722081717438
 20
-4.054919443406106
 30
0.0
 10
20.73919695406094
 20
-4.034450832336971
 30
0.0
 10
20.75012095282557
 20
-4.012489743053889
 30
0.0
 10
20.75908783238859
 20
-3.992027395083255
 30
0.0
 10
20.76703668614934
 20
-3.97181908898591
 30
0.0
 10
20.77445187865774
 20
-3.951046679766875
 30
0.0
 10
20.77906652072855
 20
-3.936928228174053
 30
0.0
 10
20.78132494797182
 20
-3.929743487708662
 30
0.0
  0
SPLINE
  5
AF3
330
18
100
AcDbEntity
  8
SK3
100
AcDbSpline
210
0.0
220
0.0
230
1.0
 70
     8
 71
     3
 72
    25
 73
    21
 74
     0
 42
0.0000000001
 43
0.0000000001
 40
0.0
 40
0.0
 40
0.0
 40
0.0
 40
0.0270635397967611
 40
0.0552336018640025
 40
0.0702536709950012
 40
0.084576216284687
 40
0.1003244540174583
 40
0.1151836591674744
 40
0.1318634243633572
 40
0.1474145536948463
 40
0.1655330997715897
 40
0.182231238430809
 40
0.198937592962306
 40
0.222142876353615
 40
0.2488157388288153
 40
0.2740249278228548
 40
0.2955882826787029
 40
0.3171725050645797
 40
0.3391150125912037
 40
0.3616776606191403
 40
0.3616776606191403
 40
0.3616776606191403
 40
0.3616776606191403
 10
19.62675980336999
 20
4.165088451629229
 30
0.0
 10
19.6357942228616
 20
4.165089104827301
 30
0.0
 10
19.65420786884599
 20
4.163843097016466
 30
0.0
 10
19.67721958285568
 20
4.159053922513918
 30
0.0
 10
19.69548002068656
 20
4.153169952376742
 30
0.0
 10
19.70943112990482
 20
4.147544077548218
 30
0.0
 10
19.7228908519691
 20
4.140943145903293
 30
0.0
 10
19.73651192434804
 20
4.1329863839739
 30
0.0
 10
19.74946065360452
 20
4.124085727515761
 30
0.0
 10
19.76257079145187
 20
4.113586776614339
 30
0.0
 10
19.77487932478757
 20
4.102142523257326
 30
0.0
 10
19.78658501060958
 20
4.089557769024736
 30
0.0
 10
19.79851236272739
 20
4.074919733194518
 30
0.0
 10
19.81126020812384
 20
4.056721102867412
 30
0.0
 10
19.82395718643107
 20
4.035121856324053
 30
0.0
 10
19.83489829881373
 20
4.01320487199291
 30
0.0
 10
19.84404469423799
 20
3.99232864341087
 30
0.0
 10
19.85198676905566
 20
3.972133110151105
 30
0.0
 10
19.85939276500477
 20
3.951382071023886
 30
0.0
 10
19.86400127839278
 20
3.937279786076942
 30
0.0
 10
19.86625636084149
 20
3.930104495904402
 30
0.0
  0
SPLINE
  5
AF4
330
18
100
AcDbEntity
  8
SK3
100
AcDbSpline
210
0.0
220
0.0
230
1.0
 70
     8
 71
     3
 72
    25
 73
    21
 74
     0
 42
0.0000000001
 43
0.0000000001
 40
0.0
 40
0.0
 40
0.0
 40
0.0
 40
0.0270339442861178
 40
0.055215417809602
 40
0.070022274548181
 40
0.0845740974654299
 40
0.1003317243274412
 40
0.1152059857678965
 40
0.1322611815521502
 40
0.1481712623963448
 40
0.1659576172902618
 40
0.1823547388230672
 40
0.2031736378266905
 40
0.2222733302695726
 40
0.2489381425029916
 40
0.2741733667149637
 40
0.2957659329483128
 40
0.317419100157112
 40
0.3394325768413811
 40
0.3620709903842489
 40
0.3620709903842489
 40
0.3620709903842489
 40
0.3620709903842489
 10
18.71178137383828
 20
-4.164838639861386
 30
0.0
 10
18.72080586042183
 20
-4.164838638192236
 30
0.0
 10
18.73921331741184
 20
-4.163593574185028
 30
0.0
 10
18.76214995034309
 20
-4.158822764134185
 30
0.0
 10
18.78042241218418
 20
-4.152948140692443
 30
0.0
 10
18.79438538628778
 20
-4.147327678467205
 30
0.0
 10
18.80792162473209
 20
-4.140690606214946
 30
0.0
 10
18.82165834069552
 20
-4.132667382094267
 30
0.0
 10
18.83480639833839
 20
-4.123613933282853
 30
0.0
 10
18.84799643672808
 20
-4.112999229994557
 30
0.0
 10
18.86021161034466
 20
-4.101589987892622
 30
0.0
 10
18.87269638018896
 20
-4.088146403948542
 30
0.0
 10
18.8844469309566
 20
-4.073480910497834
 30
0.0
 10
18.89706778121602
 20
-4.055206986620646
 30
0.0
 10
18.90907630188052
 20
-4.034783343593346
 30
0.0
 10
18.92002758218547
 20
-4.012854349487156
 30
0.0
 10
18.92919433818175
 20
-3.991941729838231
 30
0.0
 10
18.93716003704607
 20
-3.971694907281687
 30
0.0
 10
18.94459237101968
 20
-3.950876906999837
 30
0.0
 10
18.94921706500504
 20
-3.936728447130008
 30
0.0
 10
18.95148012359738
 20
-3.92952918801393
 30
0.0
  0
LINE
  5
AF5
330
18
100
AcDbEntity
  8
SK3
 48
0.011682
100
AcDbLine
 10
22.73273599999637
 20
-3.396678999999948
 30
0.0
 11
23.19999999999637
 21
-3.396678999999948
 31
0.0
  0
LINE
  5
AF6
330
18
100
AcDbEntity
  8
SK3
 48
0.011422
100
AcDbLine
 10
22.74313699999636
 20
-3.674999999999953
 30
0.0
 11
23.19999999999637
 21
-3.674999999999953
 31
0.0
  0
SPLINE
  5
AF7
330
18
100
AcDbEntity
  8
SK3
100
AcDbSpline
210
0.0
220
0.0
230
1.0
 70
     8
 71
     5
 72
    30
 73
    24
 74
     0
 42
0.0000000001
 43
0.0000000001
 40
0.0
 40
0.0
 40
0.0
 40
0.0
 40
0.0
 40
0.0
 40
0.0124256983887398
 40
0.0124256983887398
 40
0.0124256983887398
 40
0.0223578599451833
 40
0.0223578599451833
 40
0.0223578599451833
 40
0.0294974868458205
 40
0.0294974868458205
 40
0.0294974868458205
 40
0.0334779558464418
 40
0.0334779558464418
 40
0.0334779558464418
 40
0.0497779317941354
 40
0.0497779317941354
 40
0.0497779317941354
 40
0.0715292814563213
 40
0.0715292814563213
 40
0.0715292814563213
 40
0.1453490835989376
 40
0.1453490835989376
 40
0.1453490835989376
 40
0.1453490835989376
 40
0.1453490835989376
 40
0.1453490835989376
 10
22.43501021258085
 20
3.711961246972122
 30
0.0
 10
22.43575745531476
 20
3.714332147104073
 30
0.0
 10
22.43650816780442
 20
3.716702020155252
 30
0.0
 10
22.4372728155508
 20
3.719067027600658
 30
0.0
 10
22.43869256962849
 20
3.723306781202608
 30
0.0
 10
22.44022520557827
 20
3.727505927109119
 30
0.0
 10
22.44091203665963
 20
3.729369545185078
 30
0.0
 10
22.44207485378165
 20
3.732580416155428
 30
0.0
 10
22.443159038083
 20
3.735822748700513
 30
0.0
 10
22.4436411540694
 20
3.737167532147906
 30
0.0
 10
22.44450287127778
 20
3.739218600651497
 30
0.0
 10
22.44564015969033
 20
3.741161470404732
 30
0.0
 10
22.44590111607728
 20
3.741105378184613
 30
0.0
 10
22.44798844842892
 20
3.748987605630816
 30
0.0
 10
22.44261128625332
 20
3.736389099852714
 30
0.0
 10
22.44064202408818
 20
3.73333123644079
 30
0.0
 10
22.43716668322882
 20
3.730120949582101
 30
0.0
 10
22.43190486012158
 20
3.723189319532082
 30
0.0
 10
22.42890915042107
 20
3.719676474865877
 30
0.0
 10
22.41592155130336
 20
3.706432927705805
 30
0.0
 10
22.40062544852376
 20
3.693491660331686
 30
0.0
 10
22.3884208308101
 20
3.685787979889311
 30
0.0
 10
22.3753898825225
 20
3.678739013759524
 30
0.0
 10
22.36183306951467
 20
3.672873739675821
 30
0.0
  0
LINE
  5
AF8
330
18
100
AcDbEntity
  8
SK3
 48
0.005709
100
AcDbLine
 10
22.50352799999637
 20
3.929791000000078
 30
0.0
 11
22.43500999999636
 21
3.711961000000029
 31
0.0
  0
SPLINE
  5
AF9
330
18
100
AcDbEntity
  8
SK3
100
AcDbSpline
210
0.0
220
0.0
230
1.0
 70
     8
 71
     3
 72
    27
 73
    23
 74
     0
 42
0.0000000001
 43
0.0000000001
 40
0.0
 40
0.0
 40
0.0
 40
0.0
 40
0.0150541279393127
 40
0.0298062858888382
 40
0.04453680503842
 40
0.0590955674787959
 40
0.0735715278020296
 40
0.0880154903695854
 40
0.113287918588518
 40
0.1398384645972456
 40
0.1588934350440059
 40
0.1796723124396437
 40
0.1963723001110837
 40
0.2144840446863356
 40
0.2300453797490885
 40
0.2467326196768562
 40
0.2616033598546536
 40
0.2773641679227215
 40
0.2844944774518665
 40
0.3067303403324352
 40
0.3349209875380529
 40
0.3619322255697057
 40
0.3619322255697057
 40
0.3619322255697057
 40
0.3619322255697057
 10
21.58859093715603
 20
-3.929888241341756
 30
0.0
 10
21.59009500690339
 20
-3.934675691555866
 30
0.0
 10
21.59314463242648
 20
-3.944131861962033
 30
0.0
 10
21.59794022951371
 20
-3.958182428343319
 30
0.0
 10
21.60294550806778
 20
-3.971984346970828
 30
0.0
 10
21.60821236527235
 20
-3.985590144708169
 30
0.0
 10
21.61376998524371
 20
-3.998976930615184
 30
0.0
 10
21.62115101657255
 20
-4.01546651765409
 30
0.0
 10
21.63103092973807
 20
-4.035237448803569
 30
0.0
 10
21.64302513154798
 20
-4.055622035106863
 30
0.0
 10
21.65561135350295
 20
-4.073839221956915
 30
0.0
 10
21.66740872399366
 20
-4.088560338468198
 30
0.0
 10
21.68003645383839
 20
-4.102139643924886
 30
0.0
 10
21.69234446287356
 20
-4.113587253093384
 30
0.0
 10
21.70545553595542
 20
-4.124090749518926
 30
0.0
 10
21.71841111323566
 20
-4.132998909450178
 30
0.0
 10
21.73203992247956
 20
-4.140962441988675
 30
0.0
 10
21.74335332089762
 20
-4.14651145551022
 30
0.0
 10
21.75720530382694
 20
-4.152380107358908
 30
0.0
 10
21.77539659238548
 20
-4.158600022984103
 30
0.0
 10
21.80075709907006
 20
-4.16387321007653
 30
0.0
 10
21.81916078254418
 20
-4.165117808259991
 30
0.0
 10
21.82817804302677
 20
-4.165117807802801
 30
0.0
  0
SPLINE
  5
AFA
330
18
100
AcDbEntity
  8
SK3
100
AcDbSpline
210
0.0
220
0.0
230
1.0
 70
     8
 71
     3
 72
    25
 73
    21
 74
     0
 42
0.0000000001
 43
0.0000000001
 40
0.0
 40
0.0
 40
0.0
 40
0.0
 40
0.0226745627807035
 40
0.0448108278457879
 40
0.0665788003988346
 40
0.0883138392597144
 40
0.1135647756606903
 40
0.1402739791439829
 40
0.1701640715555603
 40
0.1802282760571805
 40
0.1969492545670331
 40
0.2150773458860275
 40
0.2306432136840167
 40
0.2473273315930273
 40
0.2621971219546332
 40
0.277947360120255
 40
0.2922781598925546
 40
0.3072990806199027
 40
0.3354762394464995
 40
0.3625221157742016
 40
0.3625221157742016
 40
0.3625221157742016
 40
0.3625221157742016
 10
20.67331627874489
 20
3.929079112521435
 30
0.0
 10
20.6755797998557
 20
3.936290854643857
 30
0.0
 10
20.68021421128102
 20
3.950491874332668
 30
0.0
 10
20.68766721366159
 20
3.97139939249098
 30
0.0
 10
20.69567118194266
 20
3.991767421473069
 30
0.0
 10
20.70486908998949
 20
4.012765551570338
 30
0.0
 10
20.71584905993378
 20
4.034757149222627
 30
0.0
 10
20.72968756368803
 20
4.058298846240631
 30
0.0
 10
20.74265760553931
 20
4.076400053820008
 30
0.0
 10
20.75478370473631
 20
4.090890539179098
 30
0.0
 10
20.76498846208063
 20
4.101861268887319
 30
0.0
 10
20.77730888130552
 20
4.113315432832108
 30
0.0
 10
20.79042707635146
 20
4.123819725835801
 30
0.0
 10
20.80338447833366
 20
4.132725200203879
 30
0.0
 10
20.8170109403357
 20
4.140683967400376
 30
0.0
 10
20.83047731823512
 20
4.147287094391401
 30
0.0
 10
20.84443223949153
 20
4.152913448070647
 30
0.0
 10
20.86269818239116
 20
4.158797916445506
 30
0.0
 10
20.88570697448601
 20
4.163585225100462
 30
0.0
 10
20.90411699748093
 20
4.164831130716038
 30
0.0
 10
20.91314549335989
 20
4.164831128898696
 30
0.0
  0
SPLINE
  5
AFB
330
18
100
AcDbEntity
  8
SK3
100
AcDbSpline
210
0.0
220
0.0
230
1.0
 70
     8
 71
     3
 72
    26
 73
    22
 74
     0
 42
0.0000000001
 43
0.0000000001
 40
0.0
 40
0.0
 40
0.0
 40
0.0
 40
0.022659399531427
 40
0.0447738649858775
 40
0.0665175917838995
 40
0.0882006410668611
 40
0.0928272075164374
 40
0.1159337388609946
 40
0.1401607415373693
 40
0.1592274640700896
 40
0.180006376015443
 40
0.1967051641010322
 40
0.2148041953785826
 40
0.2303621130721814
 40
0.2470344634669746
 40
0.261901741274133
 40
0.2776477833741423
 40
0.2919783896587799
 40
0.3069989142184483
 40
0.335178933812782
 40
0.3622443256311221
 40
0.3622443256311221
 40
0.3622443256311221
 40
0.3622443256311221
 10
19.75845382548729
 20
-3.929324840060758
 30
0.0
 10
19.76071580260168
 20
-3.93653173827306
 30
0.0
 10
19.76534654548876
 20
-3.950721009931328
 30
0.0
 10
19.77279366561926
 20
-3.971609099312444
 30
0.0
 10
19.78078710919738
 20
-3.991945621546108
 30
0.0
 10
19.7872176211748
 20
-4.006622236143016
 30
0.0
 10
19.79425058453387
 20
-4.021517339135527
 30
0.0
 10
19.80213042685086
 20
-4.036952097263792
 30
0.0
 10
19.81343798628271
 20
-4.056001982632038
 30
0.0
 10
19.82558881524773
 20
-4.073583034217278
 30
0.0
 10
19.83739120695715
 20
-4.088304594118028
 30
0.0
 10
19.85001846746053
 20
-4.101878035569881
 30
0.0
 10
19.86232416177371
 20
-4.113319581953759
 30
0.0
 10
19.87542859098539
 20
-4.123814871639921
 30
0.0
 10
19.8883787999854
 20
-4.132717726749034
 30
0.0
 10
19.90199879703702
 20
-4.140675335986486
 30
0.0
 10
19.91546216692205
 20
-4.147279357419278
 30
0.0
 10
19.92941476725467
 20
-4.152907206221185
 30
0.0
 10
19.94768064274926
 20
-4.158794367434211
 30
0.0
 10
19.97069607385839
 20
-4.163585989203681
 30
0.0
 10
19.98911356680212
 20
-4.164833402696955
 30
0.0
 10
19.99814860106027
 20
-4.164833399309316
 30
0.0
  0
SPLINE
  5
AFC
330
18
100
AcDbEntity
  8
SK3
100
AcDbSpline
210
0.0
220
0.0
230
1.0
 70
     8
 71
     3
 72
    26
 73
    22
 74
     0
 42
0.0000000001
 43
0.0000000001
 40
0.0
 40
0.0
 40
0.0
 40
0.0
 40
0.0194921690834057
 40
0.0369760950871749
 40
0.0541185665305012
 40
0.0711046251495802
 40
0.0880428093363845
 40
0.1133010061492252
 40
0.1398520155722752
 40
0.1589053174389493
 40
0.1796874921184998
 40
0.1963873447272987
 40
0.2145031360439877
 40
0.2300645602373951
 40
0.2467555979719669
 40
0.2621855224620101
 40
0.2773936185565549
 40
0.2919645186227892
 40
0.3067598286388418
 40
0.3349119281152139
 40
0.3619488673562809
 40
0.3619488673562809
 40
0.3619488673562809
 40
0.3619488673562809
 10
18.84357602985947
 20
3.929842554934623
 30
0.0
 10
18.84552325355111
 20
3.936041578702372
 30
0.0
 10
18.84933198409963
 20
3.947764456448509
 30
0.0
 10
18.85527913870202
 20
3.964797122607933
 30
0.0
 10
18.86133452604402
 20
3.980902288425453
 30
0.0
 10
18.86775671529484
 20
3.996669266185392
 30
0.0
 10
18.8757695465077
 20
4.014699701058475
 30
0.0
 10
18.88601882561156
 20
4.03521070084423
 30
0.0
 10
18.8980097829045
 20
4.055591285053822
 30
0.0
 10
18.91059585432057
 20
4.07380940949173
 30
0.0
 10
18.92239321171454
 20
4.088531189749801
 30
0.0
 10
18.9350224313978
 20
4.102112400835436
 30
0.0
 10
18.94733142106332
 20
4.113560900430512
 30
0.0
 10
18.96044479776942
 20
4.124065878969361
 30
0.0
 10
18.97355517108167
 20
4.133080013778908
 30
0.0
 10
18.98719922403506
 20
4.141027696731555
 30
0.0
 10
19.00075027174834
 20
4.147650758492829
 30
0.0
 10
19.01454570977252
 20
4.153203673963446
 30
0.0
 10
19.03281151413206
 20
4.159075016921916
 30
0.0
 10
19.05573556560676
 20
4.163843450544391
 30
0.0
 10
19.07413423639476
 20
4.165088453294116
 30
0.0
 10
19.08315973872933
 20
4.165088456458818
 30
0.0
  0
SPLINE
  5
AFD
330
18
100
AcDbEntity
  8
SK3
100
AcDbSpline
210
0.0
220
0.0
230
1.0
 70
     8
 71
     3
 72
    25
 73
    21
 74
     0
 42
0.0000000001
 43
0.0000000001
 40
0.0
 40
0.0
 40
0.0
 40
0.0
 40
0.0226263366370881
 40
0.0446608161370081
 40
0.0663312708575793
 40
0.0879870892786591
 40
0.1132359755740417
 40
0.1399529927555001
 40
0.1576898885843902
 40
0.179903148865967
 40
0.1966199091636339
 40
0.2147417777724296
 40
0.2302866936098087
 40
0.2469407144553144
 40
0.261812989107115
 40
0.2775663213305915
 40
0.2921201691608666
 40
0.3069525834311493
 40
0.3351291987539363
 40
0.3621543994555012
 40
0.3621543994555012
 40
0.3621543994555012
 40
0.3621543994555012
 10
17.92847307597365
 20
-3.929431065115068
 30
0.0
 10
17.93073368690076
 20
-3.936626871186376
 30
0.0
 10
17.93535642647096
 20
-3.950779092399783
 30
0.0
 10
17.942786599418
 20
-3.971607142098207
 30
0.0
 10
17.95075930325544
 20
-3.991887569292031
 30
0.0
 10
17.95993375338345
 20
-4.012831184235892
 30
0.0
 10
17.97090043466975
 20
-4.034800465837008
 30
0.0
 10
17.98268853496828
 20
-4.054852397913805
 30
0.0
 10
17.99528493446757
 20
-4.073173715360553
 30
0.0
 10
18.00707379145523
 20
-4.087962841945341
 30
0.0
 10
18.02003710239932
 20
-4.101895433805906
 30
0.0
 10
18.03235145575573
 20
-4.113341457687339
 30
0.0
 10
18.04545551164793
 20
-4.123832617303718
 30
0.0
 10
18.05839935469467
 20
-4.132729149523129
 30
0.0
 10
18.07201815200474
 20
-4.14068486019596
 30
0.0
 10
18.08555258331201
 20
-4.147322350269518
 30
0.0
 10
18.09952233152001
 20
-4.152946804087946
 30
0.0
 10
18.11780204394611
 20
-4.158823849633789
 30
0.0
 10
18.14074280316356
 20
-4.163594281718758
 30
0.0
 10
18.15914572572649
 20
-4.164838638105209
 30
0.0
 10
18.16816728624243
 20
-4.164838639861443
 30
0.0
  0
ARC
  5
AFE
330
18
100
AcDbEntity
  8
SK3
100
AcDbCircle
 10
23.74999999999636
 20
-4.299999999999953
 30
0.0
 40
0.1
100
AcDbArc
 50
180.0000010000014
 51
269.9999980000001
  0
ARC
  5
AFF
330
18
100
AcDbEntity
  8
SK3
100
AcDbCircle
 10
23.74999999999636
 20
4.300000000000068
 30
0.0
 40
0.1
100
AcDbArc
 50
90.00000199999997
 51
179.9999989999986
  0
LINE
  5
B00
330
18
100
AcDbEntity
  8
SK3
 48
0.01359
100
AcDbLine
 10
17.93088699999636
 20
3.845679000000075
 30
0.0
 11
17.38727299999636
 21
3.845679000000075
 31
0.0
  0
LINE
  5
B01
330
18
100
AcDbEntity
  8
SK3
 48
0.005716
100
AcDbLine
 10
22.61133999999636
 20
-3.929938999999933
 30
0.0
 11
22.67994599999636
 21
-3.711833999999953
 31
0.0
  0
LINE
  5
B02
330
18
100
AcDbEntity
  8
SK3
 48
0.005718
100
AcDbLine
 10
21.69646299999636
 20
3.929415000000061
 30
0.0
 11
21.76510099999636
 21
3.71124300000008
 31
0.0
  0
LINE
  5
B03
330
18
100
AcDbEntity
  8
SK3
 48
0.00572
100
AcDbLine
 10
20.78132499999636
 20
-3.929742999999915
 30
0.0
 11
20.84998599999636
 21
-3.711485999999922
 31
0.0
  0
LINE
  5
B04
330
18
100
AcDbEntity
  8
SK3
 48
0.005721
100
AcDbLine
 10
19.86625599999636
 20
3.930104000000085
 30
0.0
 11
19.93492199999636
 21
3.711809000000073
 31
0.0
  0
LINE
  5
B05
330
18
100
AcDbEntity
  8
SK3
 48
0.00572
100
AcDbLine
 10
18.95147999999636
 20
-3.929528999999944
 30
0.0
 11
19.02014699999636
 21
-3.711264999999968
 31
0.0
  0
ARC
  5
B06
330
18
100
AcDbEntity
  8
SK3
100
AcDbCircle
 10
17.93077399999636
 20
3.665349000000048
 30
0.0
 40
0.180345
100
AcDbArc
 50
16.80053499999835
 51
89.96412600000011
  0
SPLINE
  5
B07
330
18
100
AcDbEntity
  8
SK3
100
AcDbSpline
210
0.0
220
0.0
230
1.0
 70
     8
 71
     5
 72
    27
 73
    21
 74
     0
 42
0.0000000001
 43
0.0000000001
 40
0.0
 40
0.0
 40
0.0
 40
0.0
 40
0.0
 40
0.0
 40
0.0610093949461202
 40
0.0610093949461202
 40
0.0610093949461202
 40
0.0856421370642404
 40
0.0856421370642404
 40
0.0856421370642404
 40
0.1057797706041955
 40
0.1057797706041955
 40
0.1057797706041955
 40
0.115690578051809
 40
0.115690578051809
 40
0.115690578051809
 40
0.1227155969732906
 40
0.1227155969732906
 40
0.1227155969732906
 40
0.1444859213890152
 40
0.1444859213890152
 40
0.1444859213890152
 40
0.1444859213890152
 40
0.1444859213890152
 40
0.1444859213890152
 10
22.75304396616195
 20
-3.672862019964441
 30
0.0
 10
22.74184074717677
 20
-3.677711942819143
 30
0.0
 10
22.73099804987317
 20
-3.683363198174106
 30
0.0
 10
22.72059541057874
 20
-3.689572944077895
 30
0.0
 10
22.70667123089742
 20
-3.700256973486261
 30
0.0
 10
22.69407504331619
 20
-3.711319610432667
 30
0.0
 10
22.69056302077109
 20
-3.714654229345399
 30
0.0
 10
22.68438347891654
 20
-3.721213229055535
 30
0.0
 10
22.67857758099044
 20
-3.729078943448029
 30
0.0
 10
22.67615110686129
 20
-3.731778110819276
 30
0.0
 10
22.67296115945027
 20
-3.733008810289561
 30
0.0
 10
22.66918281322746
 20
-3.744917107908634
 30
0.0
 10
22.66690631534832
 20
-3.743324153907622
 30
0.0
 10
22.67011053582162
 20
-3.740341767466246
 30
0.0
 10
22.67151220037828
 20
-3.737210438661691
 30
0.0
 10
22.67190632518387
 20
-3.735894968506727
 30
0.0
 10
22.67325774170886
 20
-3.730471953744427
 30
0.0
 10
22.67559091333725
 20
-3.725073982939533
 30
0.0
 10
22.67710287761496
 20
-3.720949772760433
 30
0.0
 10
22.67837464835436
 20
-3.716798294324461
 30
0.0
 10
22.67968570972135
 20
-3.712659225775552
 30
0.0
  0
SPLINE
  5
B08
330
18
100
AcDbEntity
  8
SK3
100
AcDbSpline
210
0.0
220
0.0
230
1.0
 70
     8
 71
     5
 72
    30
 73
    24
 74
     0
 42
0.0000000001
 43
0.0000000001
 40
0.0
 40
0.0
 40
0.0
 40
0.0
 40
0.0
 40
0.0
 40
0.0732679280209354
 40
0.0732679280209354
 40
0.0732679280209354
 40
0.0970863674103785
 40
0.0970863674103785
 40
0.0970863674103785
 40
0.111133067097435
 40
0.111133067097435
 40
0.111133067097435
 40
0.1152015689029063
 40
0.1152015689029063
 40
0.1152015689029063
 40
0.1224084180214634
 40
0.1224084180214634
 40
0.1224084180214634
 40
0.1324202703369942
 40
0.1324202703369942
 40
0.1324202703369942
 40
0.1449493402965703
 40
0.1449493402965703
 40
0.1449493402965703
 40
0.1449493402965703
 40
0.1449493402965703
 40
0.1449493402965703
 10
21.83752559311358
 20
3.672823006344913
 30
0.0
 10
21.82408657453701
 20
3.678681624593593
 30
0.0
 10
21.81116874050648
 20
3.685705535093461
 30
0.0
 10
21.79907356554108
 20
3.69337009742611
 30
0.0
 10
21.7835376810751
 20
3.706537104557127
 30
0.0
 10
21.770410617285
 20
3.719989675062378
 30
0.0
 10
21.7670888272414
 20
3.724028383289123
 30
0.0
 10
21.76194361559231
 20
3.730863642030953
 30
0.0
 10
21.75850646335377
 20
3.7343242837768
 30
0.0
 10
21.75639100656355
 20
3.738204892156033
 30
0.0
 10
21.75214583774105
 20
3.74783779990406
 30
0.0
 10
21.75413406787261
 20
3.740611773364037
 30
0.0
 10
21.7543745961878
 20
3.740709831972026
 30
0.0
 10
21.75551844151677
 20
3.738739254868278
 30
0.0
 10
21.7563912548456
 20
3.736659507315379
 30
0.0
 10
21.75687964005918
 20
3.735302282717213
 30
0.0
 10
21.75797899485576
 20
3.732032750427379
 30
0.0
 10
21.75915246758387
 20
3.728794350086843
 30
0.0
 10
21.75984415105344
 20
3.72691571809014
 30
0.0
 10
21.76138717661997
 20
3.722681980758125
 30
0.0
 10
21.76281857892201
 20
3.718407584164878
 30
0.0
 10
21.76358992587218
 20
3.716022963074066
 30
0.0
 10
21.76434720159168
 20
3.713633393933037
 30
0.0
 10
21.7651006137114
 20
3.711242683644286
 30
0.0
  0
SPLINE
  5
B09
330
18
100
AcDbEntity
  8
SK3
100
AcDbSpline
210
0.0
220
0.0
230
1.0
 70
     8
 71
     5
 72
    30
 73
    24
 74
     0
 42
0.0000000001
 43
0.0000000001
 40
0.0
 40
0.0
 40
0.0
 40
0.0
 40
0.0
 40
0.0
 40
0.0813443605027727
 40
0.0813443605027727
 40
0.0813443605027727
 40
0.097181748050564
 40
0.097181748050564
 40
0.097181748050564
 40
0.105175565697146
 40
0.105175565697146
 40
0.105175565697146
 40
0.1113105154226268
 40
0.1113105154226268
 40
0.1113105154226268
 40
0.1224172039992789
 40
0.1224172039992789
 40
0.1224172039992789
 40
0.1323874154476171
 40
0.1323874154476171
 40
0.1323874154476171
 40
0.1448724095336163
 40
0.1448724095336163
 40
0.1448724095336163
 40
0.1448724095336163
 40
0.1448724095336163
 40
0.1448724095336163
 10
20.92257114030368
 20
-3.672805610003365
 30
0.0
 10
20.90764914925292
 20
-3.679306436123623
 30
0.0
 10
20.89336971896238
 20
-3.687243115456623
 30
0.0
 10
20.87997491794619
 20
-3.696338308352608
 30
0.0
 10
20.86495094175001
 20
-3.709561182824359
 30
0.0
 10
20.8521904309793
 20
-3.723798996187723
 30
0.0
 10
20.85002451440387
 20
-3.72674884618442
 30
0.0
 10
20.84701054520123
 20
-3.730668641994611
 30
0.0
 10
20.84453466511693
 20
-3.733176379284032
 30
0.0
 10
20.84368999263684
 20
-3.734171511194971
 30
0.0
 10
20.8420399463924
 20
-3.736755382259048
 30
0.0
 10
20.83987877777288
 20
-3.741774687147142
 30
0.0
 10
20.83918644277777
 20
-3.745632989939508
 30
0.0
 10
20.83731317527506
 20
-3.741730629762002
 30
0.0
 10
20.84062819031119
 20
-3.739019103435168
 30
0.0
 10
20.84143641049408
 20
-3.736953491880398
 30
0.0
 10
20.84258750074522
 20
-3.732934191233481
 30
0.0
 10
20.84401154312574
 20
-3.728969995455145
 30
0.0
 10
20.84471550724159
 20
-3.727100069962033
 30
0.0
 10
20.84630008024419
 20
-3.722884655622293
 30
0.0
 10
20.84772665010106
 20
-3.718624748843636
 30
0.0
 10
20.84848822589424
 20
-3.716247411769642
 30
0.0
 10
20.84923546399966
 20
-3.713866132865405
 30
0.0
 10
20.84998561741168
 20
-3.711485818212792
 30
0.0
  0
SPLINE
  5
B0A
330
18
100
AcDbEntity
  8
SK3
100
AcDbSpline
210
0.0
220
0.0
230
1.0
 70
     8
 71
     5
 72
    30
 73
    24
 74
     0
 42
0.0000000001
 43
0.0000000001
 40
0.0
 40
0.0
 40
0.0
 40
0.0
 40
0.0
 40
0.0
 40
0.0736795436340452
 40
0.0736795436340452
 40
0.0736795436340452
 40
0.097646869292334
 40
0.097646869292334
 40
0.097646869292334
 40
0.1117433125941212
 40
0.1117433125941212
 40
0.1117433125941212
 40
0.1156371948001297
 40
0.1156371948001297
 40
0.1156371948001297
 40
0.1226085678624526
 40
0.1226085678624526
 40
0.1226085678624526
 40
0.1323037003294677
 40
0.1323037003294677
 40
0.1323037003294677
 40
0.1440877077559141
 40
0.1440877077559141
 40
0.1440877077559141
 40
0.1440877077559141
 40
0.1440877077559141
 40
0.1440877077559141
 10
20.00795397038115
 20
3.672866723678509
 30
0.0
 10
19.99442634187559
 20
3.678728630485693
 30
0.0
 10
19.98142334588768
 20
3.685769620846314
 30
0.0
 10
19.96922490835629
 20
3.693451288775576
 30
0.0
 10
19.95363374904898
 20
3.706694762274536
 30
0.0
 10
19.94039259285212
 20
3.720216363391841
 30
0.0
 10
19.93707584036887
 20
3.724276007718685
 30
0.0
 10
19.93195217550247
 20
3.731160498958046
 30
0.0
 10
19.92835613184841
 20
3.73462886096928
 30
0.0
 10
19.92626114510726
 20
3.738709499639354
 30
0.0
 10
19.9224426693448
 20
3.748125005166627
 30
0.0
 10
19.92382353925271
 20
3.741066538361792
 30
0.0
 10
19.92418672886489
 20
3.741146422266751
 30
0.0
 10
19.92539519728139
 20
3.739256883342875
 30
0.0
 10
19.92624874319649
 20
3.737254284338404
 30
0.0
 10
19.92670616417008
 20
3.735940382934586
 30
0.0
 10
19.92771760243073
 20
3.73277187976862
 30
0.0
 10
19.92885210421971
 20
3.729638306316473
 30
0.0
 10
19.92953120363585
 20
3.727820558904568
 30
0.0
 10
19.93102828592391
 20
3.723789807541834
 30
0.0
 10
19.93239846985119
 20
3.719718045846433
 30
0.0
 10
19.93312467088127
 20
3.717475945679382
 30
0.0
 10
19.93383803298539
 20
3.715229734825981
 30
0.0
 10
19.93455123427719
 20
3.712983529795678
 30
0.0
  0
SPLINE
  5
B0B
330
18
100
AcDbEntity
  8
SK3
100
AcDbSpline
210
0.0
220
0.0
230
1.0
 70
     8
 71
     5
 72
    30
 73
    24
 74
     0
 42
0.0000000001
 43
0.0000000001
 40
0.0
 40
0.0
 40
0.0
 40
0.0
 40
0.0
 40
0.0
 40
0.0732565068120001
 40
0.0732565068120001
 40
0.0732565068120001
 40
0.0930175676018904
 40
0.0930175676018904
 40
0.0930175676018904
 40
0.1111922015096562
 40
0.1111922015096562
 40
0.1111922015096562
 40
0.1152673502348059
 40
0.1152673502348059
 40
0.1152673502348059
 40
0.1224650113646868
 40
0.1224650113646868
 40
0.1224650113646868
 40
0.1324626100004042
 40
0.1324626100004042
 40
0.1324626100004042
 40
0.1449710382943258
 40
0.1449710382943258
 40
0.1449710382943258
 40
0.1449710382943258
 40
0.1449710382943258
 40
0.1449710382943258
 10
19.09264037204177
 20
-3.672791848334781
 30
0.0
 10
19.07920099342565
 20
-3.678644027608924
 30
0.0
 10
19.06628239464069
 20
-3.685661488205538
 30
0.0
 10
19.05418253760332
 20
-3.693360545141786
 30
0.0
 10
19.03929958508517
 20
-3.705894359851923
 30
0.0
 10
19.02661528631063
 20
-3.718816531738582
 30
0.0
 10
19.02392676099471
 20
-3.721841272286553
 30
0.0
 10
19.01856236969332
 20
-3.728782078293761
 30
0.0
 10
19.01517687500807
 20
-3.731815110735738
 30
0.0
 10
19.01358771802793
 20
-3.733537505306514
 30
0.0
 10
19.0065572145016
 20
-3.749263917752613
 30
0.0
 10
19.00928391314391
 20
-3.740659056059314
 30
0.0
 10
19.0094708056363
 20
-3.740698904693431
 30
0.0
 10
19.01055353399026
 20
-3.738719660416278
 30
0.0
 10
19.01141973397251
 20
-3.736639413631848
 30
0.0
 10
19.01191659400019
 20
-3.735285289854231
 30
0.0
 10
19.01304592779471
 20
-3.732024941149973
 30
0.0
 10
19.0142205131251
 20
-3.728791297840472
 30
0.0
 10
19.01490713549375
 20
-3.726914699785538
 30
0.0
 10
19.01643504211259
 20
-3.722685616363434
 30
0.0
 10
19.01786415512404
 20
-3.718418151573415
 30
0.0
 10
19.01863617628956
 20
-3.716037892219616
 30
0.0
 10
19.01939420792529
 20
-3.713652523913252
 30
0.0
 10
19.02014651358453
 20
-3.711265420042536
 30
0.0
  0
LINE
  5
B0C
330
18
100
AcDbEntity
  8
SK3
 48
0.013604
100
AcDbLine
 10
21.82747999999636
 20
3.675000000000068
 30
0.0
 11
22.37165899999636
 21
3.675000000000068
 31
0.0
  0
SPLINE
  5
B0D
330
18
100
AcDbEntity
  8
SK3
100
AcDbSpline
210
0.0
220
0.0
230
1.0
 70
     8
 71
     5
 72
    30
 73
    24
 74
     0
 42
0.0000000001
 43
0.0000000001
 40
0.0
 40
0.0
 40
0.0
 40
0.0
 40
0.0
 40
0.0
 40
0.0125558360133754
 40
0.0125558360133754
 40
0.0125558360133754
 40
0.022554041634329
 40
0.022554041634329
 40
0.022554041634329
 40
0.029736047742485
 40
0.029736047742485
 40
0.029736047742485
 40
0.0337396681253791
 40
0.0337396681253791
 40
0.0337396681253791
 40
0.0484274180977004
 40
0.0484274180977004
 40
0.0484274180977004
 40
0.0717616957123359
 40
0.0717616957123359
 40
0.0717616957123359
 40
0.1455883827492028
 40
0.1455883827492028
 40
0.1455883827492028
 40
0.1455883827492028
 40
0.1455883827492028
 40
0.1455883827492028
 10
21.51993802307343
 20
-3.711640445442128
 30
0.0
 10
21.52069108130539
 20
-3.714031673226031
 30
0.0
 10
21.52143571113652
 20
-3.716425570900183
 30
0.0
 10
21.52219524224435
 20
-3.718816864501149
 30
0.0
 10
21.5236282618177
 20
-3.723098192626991
 30
0.0
 10
21.5252599185778
 20
-3.727337083301563
 30
0.0
 10
21.52597855158495
 20
-3.729213613224316
 30
0.0
 10
21.52713023982312
 20
-3.732443607501068
 30
0.0
 10
21.52800995477772
 20
-3.735700083628556
 30
0.0
 10
21.52843394500608
 20
-3.737051033123804
 30
0.0
 10
21.52934347929065
 20
-3.739115512513591
 30
0.0
 10
21.53089281047759
 20
-3.741081962268538
 30
0.0
 10
21.53161553712809
 20
-3.740964324532796
 30
0.0
 10
21.53154560850753
 20
-3.748402838166724
 30
0.0
 10
21.5284149795316
 20
-3.737985844293064
 30
0.0
 10
21.52656316033681
 20
-3.734234892147582
 30
0.0
 10
21.52256779418018
 20
-3.730862327634611
 30
0.0
 10
21.5175677386272
 20
-3.723958046216181
 30
0.0
 10
21.51440457224674
 20
-3.720056565404036
 30
0.0
 10
21.50112039612123
 20
-3.706607068313586
 30
0.0
 10
21.485737866394
 20
-3.6934273094011
 30
0.0
 10
21.47343833390413
 20
-3.685738484996363
 30
0.0
 10
21.46040539596108
 20
-3.678690997463263
 30
0.0
 10
21.44684622635244
 20
-3.67282768469056
 30
0.0
  0
SPLINE
  5
B0E
330
18
100
AcDbEntity
  8
SK3
100
AcDbSpline
210
0.0
220
0.0
230
1.0
 70
     8
 71
     5
 72
    30
 73
    24
 74
     0
 42
0.0000000001
 43
0.0000000001
 40
0.0
 40
0.0
 40
0.0
 40
0.0
 40
0.0
 40
0.0
 40
0.0126955040278476
 40
0.0126955040278476
 40
0.0126955040278476
 40
0.0227677735842997
 40
0.0227677735842997
 40
0.0227677735842997
 40
0.0300197936461346
 40
0.0300197936461346
 40
0.0300197936461346
 40
0.0341297915772303
 40
0.0341297915772303
 40
0.0341297915772303
 40
0.04920729427696
 40
0.04920729427696
 40
0.04920729427696
 40
0.0720626108983882
 40
0.0720626108983882
 40
0.0720626108983882
 40
0.1452469207157071
 40
0.1452469207157071
 40
0.1452469207157071
 40
0.1452469207157071
 40
0.1452469207157071
 40
0.1452469207157071
 10
20.60468479865949
 20
3.710928999500993
 30
0.0
 10
20.60544705863315
 20
3.713352375526767
 30
0.0
 10
20.6062160053441
 20
3.715773739595419
 30
0.0
 10
20.60699925712253
 20
3.718189810836348
 30
0.0
 10
20.60844323650834
 20
3.722507351820921
 30
0.0
 10
20.60998222760292
 20
3.726786766301414
 30
0.0
 10
20.61067167998395
 20
3.728677824713826
 30
0.0
 10
20.61185519247487
 20
3.731935990185433
 30
0.0
 10
20.6130051504561
 20
3.735219505940733
 30
0.0
 10
20.6135092002596
 20
3.736583511843662
 30
0.0
 10
20.61437917044935
 20
3.738680730177122
 30
0.0
 10
20.61544496734381
 20
3.740678910487702
 30
0.0
 10
20.61560172734141
 20
3.740636584861988
 30
0.0
 10
20.61810393747816
 20
3.748098863030178
 30
0.0
 10
20.6130349528682
 20
3.737239652354559
 30
0.0
 10
20.61092552125296
 20
3.733693012554283
 30
0.0
 10
20.60758361743365
 20
3.730313613549526
 30
0.0
 10
20.60234091401011
 20
3.723443083941106
 30
0.0
 10
20.59915806148182
 20
3.719662206699922
 30
0.0
 10
20.58616473715366
 20
3.706352056445097
 30
0.0
 10
20.5707610545555
 20
3.693344763049537
 30
0.0
 10
20.5586957205195
 20
3.685685277211745
 30
0.0
 10
20.54579194399245
 20
3.678670958387271
 30
0.0
 10
20.53236846109419
 20
3.672819342861828
 30
0.0
  0
SPLINE
  5
B0F
330
18
100
AcDbEntity
  8
SK3
100
AcDbSpline
210
0.0
220
0.0
230
1.0
 70
     8
 71
     5
 72
    30
 73
    24
 74
     0
 42
0.0000000001
 43
0.0000000001
 40
0.0
 40
0.0
 40
0.0
 40
0.0
 40
0.0
 40
0.0
 40
0.0126185865973293
 40
0.0126185865973293
 40
0.0126185865973293
 40
0.0226383976165563
 40
0.0226383976165563
 40
0.0226383976165563
 40
0.0298404370770575
 40
0.0298404370770575
 40
0.0298404370770575
 40
0.0338667922149376
 40
0.0338667922149376
 40
0.0338667922149376
 40
0.0483379495725147
 40
0.0483379495725147
 40
0.0483379495725147
 40
0.0718901614293593
 40
0.0718901614293593
 40
0.0718901614293593
 40
0.1451113102351423
 40
0.1451113102351423
 40
0.1451113102351423
 40
0.1451113102351423
 40
0.1451113102351423
 40
0.1451113102351423
 10
19.68985037371112
 20
-3.711250195781929
 30
0.0
 10
19.6906079813005
 20
-3.713657742865506
 30
0.0
 10
19.69136707116495
 20
-3.716064887462323
 30
0.0
 10
19.69214052169903
 20
-3.718467303546105
 30
0.0
 10
19.69357700029025
 20
-3.722761118060758
 30
0.0
 10
19.69514260180785
 20
-3.727011865596579
 30
0.0
 10
19.69583976937601
 20
-3.728891575652653
 30
0.0
 10
19.69700910639339
 20
-3.732131104676568
 30
0.0
 10
19.69806646654677
 20
-3.735405579854328
 30
0.0
 10
19.69854228733847
 20
-3.736763182040248
 30
0.0
 10
19.69941954780092
 20
-3.738833574112959
 30
0.0
 10
19.70063731918146
 20
-3.740788524063076
 30
0.0
 10
19.70096867687495
 20
-3.740681920204451
 30
0.0
 10
19.70258430936164
 20
-3.748061991814153
 30
0.0
 10
19.69842172524227
 20
-3.737959441634586
 30
0.0
 10
19.69634583765273
 20
-3.734107258075026
 30
0.0
 10
19.69279360164381
 20
-3.730702828437698
 30
0.0
 10
19.68764014799252
 20
-3.723805560979029
 30
0.0
 10
19.68437995913262
 20
-3.719851382597596
 30
0.0
 10
19.67125616098111
 20
-3.706455365302018
 30
0.0
 10
19.65579976709185
 20
-3.693328241502853
 30
0.0
 10
19.64369177606836
 20
-3.685678309659806
 30
0.0
 10
19.63078068212239
 20
-3.678661927137625
 30
0.0
 10
19.61734910868388
 20
-3.672809620615509
 30
0.0
  0
SPLINE
  5
B10
330
18
100
AcDbEntity
  8
SK3
100
AcDbSpline
210
0.0
220
0.0
230
1.0
 70
     8
 71
     5
 72
    33
 73
    27
 74
     0
 42
0.0000000001
 43
0.0000000001
 40
0.0
 40
0.0
 40
0.0
 40
0.0
 40
0.0
 40
0.0
 40
0.0124701884860769
 40
0.0124701884860769
 40
0.0124701884860769
 40
0.022433863658896
 40
0.022433863658896
 40
0.022433863658896
 40
0.029590680831465
 40
0.029590680831465
 40
0.029590680831465
 40
0.0335764892076845
 40
0.0335764892076845
 40
0.0335764892076845
 40
0.0453378652189426
 40
0.0453378652189426
 40
0.0453378652189426
 40
0.0595849614479005
 40
0.0595849614479005
 40
0.0595849614479005
 40
0.0715988987361053
 40
0.0715988987361053
 40
0.0715988987361053
 40
0.1454039919182289
 40
0.1454039919182289
 40
0.1454039919182289
 40
0.1454039919182289
 40
0.1454039919182289
 40
0.1454039919182289
 10
18.77498131691013
 20
3.711779598474776
 30
0.0
 10
18.7757293515105
 20
3.714152766357982
 30
0.0
 10
18.77646666776021
 20
3.716529320058953
 30
0.0
 10
18.77721896898426
 20
3.718904082306095
 30
0.0
 10
18.77864555679215
 20
3.723163741821166
 30
0.0
 10
18.78028701441655
 20
3.727384092038731
 30
0.0
 10
18.78100914360502
 20
3.72925527175812
 30
0.0
 10
18.78215342901171
 20
3.732472734498458
 30
0.0
 10
18.78298631148203
 20
3.735707396153713
 30
0.0
 10
18.78339620429836
 20
3.737050584819825
 30
0.0
 10
18.78431130426502
 20
3.739109170690084
 30
0.0
 10
18.78593909073581
 20
3.741087845424373
 30
0.0
 10
18.78675744541579
 20
3.740972360388468
 30
0.0
 10
18.7863398353746
 20
3.747233392646363
 30
0.0
 10
18.78422693154156
 20
3.740582405781423
 30
0.0
 10
18.78264037649947
 20
3.73611513074718
 30
0.0
 10
18.7798749207858
 20
3.733463610879653
 30
0.0
 10
18.77672702777818
 20
3.729446501519361
 30
0.0
 10
18.77491614109454
 20
3.727029894686608
 30
0.0
 10
18.77147081358826
 20
3.722534178509873
 30
0.0
 10
18.76792348451266
 20
3.718620411528945
 30
0.0
 10
18.76627606724393
 20
3.716913038650146
 30
0.0
 10
18.75430942148401
 20
3.705034017503861
 30
0.0
 10
18.74075872020128
 20
3.693446763285122
 30
0.0
 10
18.72844178278584
 20
3.685725074332821
 30
0.0
 10
18.71541357287383
 20
3.678678386312526
 30
0.0
 10
18.70185924893458
 20
3.672814779287988
 30
0.0
  0
SPLINE
  5
B11
330
18
100
AcDbEntity
  8
SK3
100
AcDbSpline
210
0.0
220
0.0
230
1.0
 70
     8
 71
     5
 72
    33
 73
    27
 74
     0
 42
0.0000000001
 43
0.0000000001
 40
0.0
 40
0.0
 40
0.0
 40
0.0
 40
0.0
 40
0.0
 40
0.0124805557392249
 40
0.0124805557392249
 40
0.0124805557392249
 40
0.0224681926264349
 40
0.0224681926264349
 40
0.0224681926264349
 40
0.0296595972263231
 40
0.0296595972263231
 40
0.0296595972263231
 40
0.0337294504324222
 40
0.0337294504324222
 40
0.0337294504324222
 40
0.0461532374173364
 40
0.0461532374173364
 40
0.0461532374173364
 40
0.0597167042119626
 40
0.0597167042119626
 40
0.0597167042119626
 40
0.071730494677634
 40
0.071730494677634
 40
0.071730494677634
 40
0.1449352050271465
 40
0.1449352050271465
 40
0.1449352050271465
 40
0.1449352050271465
 40
0.1449352050271465
 40
0.1449352050271465
 10
17.85987042376806
 20
-3.711366616341364
 30
0.0
 10
17.86062132023991
 20
-3.713748555958203
 30
0.0
 10
17.86137910086154
 20
-3.716128442920251
 30
0.0
 10
17.86215077143953
 20
-3.718503133444982
 30
0.0
 10
17.86357759357735
 20
-3.722763169262464
 30
0.0
 10
17.86509484249512
 20
-3.72698598633667
 30
0.0
 10
17.86577818539869
 20
-3.728861005587816
 30
0.0
 10
17.86695340503244
 20
-3.732091447413948
 30
0.0
 10
17.86810180290661
 20
-3.735346574844641
 30
0.0
 10
17.86860403123086
 20
-3.736698907151208
 30
0.0
 10
17.86946515659085
 20
-3.738777496328679
 30
0.0
 10
17.87050743578452
 20
-3.74075900403278
 30
0.0
 10
17.87064849510554
 20
-3.740723586974922
 30
0.0
 10
17.87285949131988
 20
-3.747135465803068
 30
0.0
 10
17.86929705175848
 20
-3.739786804355162
 30
0.0
 10
17.86700919550713
 20
-3.735441744303044
 30
0.0
 10
17.86470872467097
 20
-3.732845323912613
 30
0.0
 10
17.86158253451
 20
-3.728843762975713
 30
0.0
 10
17.85980315456608
 20
-3.726552026776403
 30
0.0
 10
17.85631468121489
 20
-3.722185796893312
 30
0.0
 10
17.85284989646431
 20
-3.718373996018327
 30
0.0
 10
17.85121341700086
 20
-3.716666980802186
 30
0.0
 10
17.83943977652176
 20
-3.704874116677102
 30
0.0
 10
17.82577421424218
 20
-3.693362564849167
 30
0.0
 10
17.81370310551374
 20
-3.685683740595321
 30
0.0
 10
17.80079505462458
 20
-3.67866855457845
 30
0.0
 10
17.78736686848275
 20
-3.672816711705876
 30
0.0
  0
LINE
  5
B12
330
18
100
AcDbEntity
  8
SK3
 48
0.01361
100
AcDbLine
 10
20.91250299999636
 20
-3.674999999999953
 30
0.0
 11
21.45691299999636
 21
-3.674999999999953
 31
0.0
  0
LINE
  5
B13
330
18
100
AcDbEntity
  8
SK3
 48
0.00572
100
AcDbLine
 10
21.58859099999636
 20
-3.929887999999948
 30
0.0
 11
21.51993799999636
 21
-3.71163999999993
 31
0.0
  0
LINE
  5
B14
330
18
100
AcDbEntity
  8
SK3
 48
0.00571
100
AcDbLine
 10
20.67331599999636
 20
3.929079000000058
 30
0.0
 11
20.60476999999636
 21
3.711199000000078
 31
0.0
  0
LINE
  5
B15
330
18
100
AcDbEntity
  8
SK3
 48
0.005715
100
AcDbLine
 10
19.75845399999636
 20
-3.929324999999947
 30
0.0
 11
19.68984999999636
 21
-3.711249999999948
 31
0.0
  0
LINE
  5
B16
330
18
100
AcDbEntity
  8
SK3
 48
0.005715
100
AcDbLine
 10
18.84357599999636
 20
3.929843000000062
 30
0.0
 11
18.77498099999636
 21
3.711780000000031
 31
0.0
  0
LINE
  5
B17
330
18
100
AcDbEntity
  8
SK3
 48
0.005715
100
AcDbLine
 10
17.92847299999636
 20
-3.929430999999965
 30
0.0
 11
17.85986999999636
 21
-3.711366999999937
 31
0.0
  0
ARC
  5
B18
330
18
100
AcDbEntity
  8
SK3
100
AcDbCircle
 10
17.38730499999636
 20
3.665534000000036
 30
0.0
 40
0.18015
100
AcDbArc
 50
90.01016899999992
 51
163.0400259999986
  0
LINE
  5
B19
330
18
100
AcDbEntity
  8
SK3
 48
0.0125
100
AcDbLine
 10
23.74999999999636
 20
-4.39999999999992
 30
0.0
 11
24.24999999999637
 21
-4.39999999999992
 31
0.0
  0
LINE
  5
B1A
330
18
100
AcDbEntity
  8
SK3
 48
0.0125
100
AcDbLine
 10
23.74999999999636
 20
4.400000000000034
 30
0.0
 11
24.24999999999637
 21
4.400000000000034
 31
0.0
  0
LINE
  5
B1B
330
18
100
AcDbEntity
  8
SK3
 48
0.00393
100
AcDbLine
 10
18.10343999999636
 20
3.717511000000057
 30
0.0
 11
18.14941999999636
 21
3.567187000000046
 31
0.0
  0
LINE
  5
B1C
330
18
100
AcDbEntity
  8
SK3
 48
0.011615
100
AcDbLine
 10
16.79999999999636
 20
3.675000000000068
 30
0.0
 11
17.26458999999636
 21
3.675000000000068
 31
0.0
  0
LINE
  5
B1D
330
18
100
AcDbEntity
  8
SK3
 48
0.01611
100
AcDbLine
 10
18.06757599999636
 20
3.675000000000068
 30
0.0
 11
18.71197399999636
 21
3.675000000000068
 31
0.0
  0
LINE
  5
B1E
330
18
100
AcDbEntity
  8
SK3
 48
0.013608
100
AcDbLine
 10
19.99812599999636
 20
3.675000000000068
 30
0.0
 11
20.54243799999637
 21
3.675000000000068
 31
0.0
  0
LINE
  5
B1F
330
18
100
AcDbEntity
  8
SK3
 48
0.013622
100
AcDbLine
 10
19.08254399999636
 20
-3.674999999999953
 30
0.0
 11
19.62740599999636
 21
-3.674999999999953
 31
0.0
  0
LINE
  5
B20
330
18
100
AcDbEntity
  8
SK3
 48
0.024935
100
AcDbLine
 10
16.79999999999636
 20
-3.674999999999953
 30
0.0
 11
17.79740399999636
 21
-3.674999999999953
 31
0.0
  0
LINE
  5
B21
330
18
100
AcDbEntity
  8
SK3
 48
0.003302
100
AcDbLine
 10
17.21498399999636
 20
3.718086000000083
 30
0.0
 11
17.17636399999635
 21
3.591769000000056
 31
0.0
  0
ARC
  5
B22
330
18
100
AcDbEntity
  8
SK3
100
AcDbCircle
 10
24.24999999999637
 20
-4.299999999999953
 30
0.0
 40
0.1
100
AcDbArc
 50
270.000002
 51
359.9999989999986
  0
ARC
  5
B23
330
18
100
AcDbEntity
  8
SK3
100
AcDbCircle
 10
24.24999999999637
 20
4.300000000000068
 30
0.0
 40
0.1
100
AcDbArc
 50
0.0000010000014034
 51
89.99999800000002
  0
LINE
  5
B24
330
18
100
AcDbEntity
  8
SK3
 48
0.005
100
AcDbLine
 10
16.59999999999636
 20
3.675000000000068
 30
0.0
 11
16.79999999999636
 21
3.675000000000068
 31
0.0
  0
LINE
  5
B25
330
18
100
AcDbEntity
  8
SK3
 48
0.005
100
AcDbLine
 10
16.59999999999636
 20
-3.674999999999953
 30
0.0
 11
16.79999999999636
 21
-3.674999999999953
 31
0.0
  0
ARC
  5
B26
330
18
100
AcDbEntity
  8
SK3
100
AcDbCircle
 10
16.59999999999636
 20
3.375000000000055
 30
0.0
 40
0.3
100
AcDbArc
 50
90.0000010000002
 51
155.3756809999999
  0
ARC
  5
B27
330
18
100
AcDbEntity
  8
SK3
100
AcDbCircle
 10
16.59999999999636
 20
-3.374999999999943
 30
0.0
 40
0.3
100
AcDbArc
 50
204.6243190000001
 51
269.9999989999998
  0
LINE
  5
B28
330
18
100
AcDbEntity
  8
SK3
 48
0.020025
100
AcDbLine
 10
24.34999999999636
 20
-4.285173999999925
 30
0.0
 11
25.14999999999636
 21
-4.32499999999993
 31
0.0
  0
LINE
  5
B29
102
{ACAD_REACTORS
330
CEE
102
}
330
18
100
AcDbEntity
  8
SK3
 48
0.020025
100
AcDbLine
 10
24.34999999999636
 20
4.285174000000039
 30
0.0
 11
25.14999999999636
 21
4.325000000000044
 31
0.0
  0
LINE
  5
B2A
330
18
100
AcDbEntity
  8
SK3
 48
0.005682
100
AcDbLine
 10
16.09999999999636
 20
3.500000000000055
 30
0.0
 11
16.32728199999636
 21
3.500000000000055
 31
0.0
  0
LINE
  5
B2B
330
18
100
AcDbEntity
  8
SK3
 48
0.005682
100
AcDbLine
 10
16.09999999999636
 20
-3.499999999999943
 30
0.0
 11
16.32728199999636
 21
-3.499999999999943
 31
0.0
  0
LINE
  5
B2C
330
18
100
AcDbEntity
  8
SK3
 48
0.008839
100
AcDbLine
 10
25.14999999999636
 20
-4.32499999999993
 30
0.0
 11
25.39999999999636
 21
-4.574999999999931
 31
0.0
  0
LINE
  5
B2D
330
18
100
AcDbEntity
  8
SK3
 48
0.008839
100
AcDbLine
 10
25.14999999999636
 20
4.325000000000044
 30
0.0
 11
25.39999999999636
 21
4.575000000000044
 31
0.0
  0
LINE
  5
B2E
330
18
100
AcDbEntity
  8
SK3
 48
0.102042
100
AcDbLine
 10
13.99999999999636
 20
0.0000000000000568
 30
0.0
 11
16.09999999999636
 21
3.500000000000055
 31
0.0
  0
LINE
  5
B2F
330
18
100
AcDbEntity
  8
SK3
 48
0.102042
100
AcDbLine
 10
13.99999999999636
 20
0.0000000000000568
 30
0.0
 11
16.09999999999636
 21
-3.499999999999943
 31
0.0
  0
LINE
  5
B30
330
18
100
AcDbEntity
  8
1
 48
0.190107
370
    35
100
AcDbLine
 10
5.615922999996363
 20
-5.749999999999943
 30
0.0
 11
10.99999999999636
 21
-0.3799999999999386
 31
0.0
  0
LINE
  5
B31
330
18
100
AcDbEntity
  8
1
 48
0.019
370
    35
100
AcDbLine
 10
10.99999999999636
 20
-0.3799999999999386
 30
0.0
 11
10.99999999999636
 21
0.3800000000000523
 31
0.0
  0
LINE
  5
B32
330
18
100
AcDbEntity
  8
1
 48
0.165188
370
    35
100
AcDbLine
 10
6.32166799999636
 20
5.046100000000079
 30
0.0
 11
10.99999999999636
 21
0.3800000000000523
 31
0.0
  0
LINE
  5
B33
330
18
100
AcDbEntity
  8
1
 48
0.024919
370
    35
100
AcDbLine
 10
6.32166799999636
 20
5.046100000000079
 30
0.0
 11
5.615922999996363
 21
5.750000000000056
 31
0.0
  0
LINE
  5
B34
330
18
100
AcDbEntity
  8
SK1
 48
0.032874
100
AcDbLine
 10
-7.950000000003638
 20
-2.305024999999943
 30
0.0
 11
-7.950000000003638
 21
-3.619999999999946
 31
0.0
  0
LINE
  5
B35
330
18
100
AcDbEntity
  8
SK1
 48
0.107406
100
AcDbLine
 10
-7.950000000003638
 20
3.429405000000031
 30
0.0
 11
-7.950000000003638
 21
-0.8668399999999676
 31
0.0
  0
LINE
  5
B36
330
18
100
AcDbEntity
  8
SK1
 48
0.035955
100
AcDbLine
 10
-7.950000000003638
 20
-2.305020999999953
 30
0.0
 11
-7.950000000003638
 21
-0.8668399999999676
 31
0.0
  0
SPLINE
  5
B39
330
18
100
AcDbEntity
  8
SK1
100
AcDbSpline
210
0.0
220
0.0
230
1.0
 70
     8
 71
     5
 72
    18
 73
    12
 74
     0
 42
0.0000000001
 43
0.0000000001
 40
0.0
 40
0.0
 40
0.0
 40
0.0
 40
0.0
 40
0.0
 40
5.400852995898504
 40
5.400852995898504
 40
5.400852995898504
 40
6.8657052150888
 40
6.8657052150888
 40
6.8657052150888
 40
7.180041765712547
 40
7.180041765712547
 40
7.180041765712547
 40
7.180041765712547
 40
7.180041765712547
 40
7.180041765712547
 10
-6.777649637452586
 20
-0.0016778866557843
 30
0.0
 10
-6.83774341150579
 20
0.7450288240631835
 30
0.0
 10
-6.897766089982884
 20
1.490800514797341
 30
0.0
 10
-6.962296295105402
 20
2.228967151659105
 30
0.0
 10
-7.050085387521124
 20
3.053490885106667
 30
0.0
 10
-7.150459342124874
 20
3.482082285072464
 30
0.0
 10
-7.172430169979437
 20
3.551938667557521
 30
0.0
 10
-7.199604384786932
 20
3.605453405045068
 30
0.0
 10
-7.22698764391132
 20
3.619336368167977
 30
0.0
 10
-7.231835944801299
 20
3.620542371661769
 30
0.0
 10
-7.236679277076191
 20
3.620494302433826
 30
0.0
 10
-7.241521385081789
 20
3.619197151135721
 30
0.0
  0
ARC
  5
B3E
330
18
100
AcDbEntity
  8
SK1
100
AcDbCircle
 10
-7.234517000003638
 20
3.595480000000065
 30
0.0
 40
0.030591
100
AcDbArc
 50
80.51189900000039
 51
141.7180029999997
  0
SPLINE
  5
B3F
330
18
100
AcDbEntity
  8
SK1
100
AcDbSpline
210
0.0
220
0.0
230
1.0
 70
     8
 71
     5
 72
    24
 73
    18
 74
     0
 42
0.0000000001
 43
0.0000000001
 40
0.0
 40
0.0
 40
0.0
 40
0.0
 40
0.0
 40
0.0
 40
3.013303837845158
 40
3.013303837845158
 40
3.013303837845158
 40
5.79068447511397
 40
5.79068447511397
 40
5.79068447511397
 40
7.758211377617866
 40
7.758211377617866
 40
7.758211377617866
 40
8.843086963834014
 40
8.843086963834014
 40
8.843086963834014
 40
9.430006156127472
 40
9.430006156127472
 40
9.430006156127472
 40
9.430006156127472
 40
9.430006156127472
 40
9.430006156127472
 10
-7.229500490672826
 20
3.625494096583394
 30
0.0
 10
-7.197384562092794
 20
3.617490108690219
 30
0.0
 10
-7.165408693073967
 20
3.554406169115225
 30
0.0
 10
-7.134048376216084
 20
3.438230690949808
 30
0.0
 10
-7.074682087984871
 20
3.127332606025561
 30
0.0
 10
-7.017404577968157
 20
2.676065036117676
 30
0.0
 10
-6.990409874769607
 20
2.432966061692694
 30
0.0
 10
-6.945504320851544
 20
1.988287174103163
 30
0.0
 10
-6.902000854158796
 20
1.504146516739012
 30
0.0
 10
-6.884084702665461
 20
1.297417004213571
 30
0.0
 10
-6.856514112053292
 20
0.9705189785781842
 30
0.0
 10
-6.829148691021377
 20
0.6364952553487342
 30
0.0
 10
-6.82282299927882
 20
0.5587310483950319
 30
0.0
 10
-6.807927589406761
 20
0.3747471642296318
 30
0.0
 10
-6.793165248204224
 20
0.1913801192582127
 30
0.0
 10
-6.787995220953327
 20
0.1270780470309205
 30
0.0
 10
-6.782828103372271
 20
0.0627696969981457
 30
0.0
 10
-6.777655843763026
 20
-0.0016033631628147
 30
0.0
  0
LINE
  5
B40
330
18
100
AcDbEntity
  8
SK1
 48
0.023958
100
AcDbLine
 10
-6.777656000003638
 20
-0.0016029999999319
 30
0.0
 11
-6.700000000003638
 21
-0.9567899999999552
 31
0.0
  0
LINE
  5
B42
330
18
100
AcDbEntity
  8
SK1
 48
0.004882
100
AcDbLine
 10
-6.685869000003638
 20
-1.151558999999962
 30
0.0
 11
-6.700000000003638
 21
-0.9567899999999552
 31
0.0
  0
LINE
  5
B43
330
18
100
AcDbEntity
  8
SK1
 48
0.031328
100
AcDbLine
 10
-6.700000000003638
 20
-0.9552199999999402
 30
0.0
 11
-7.950000000003638
 21
-0.8668399999999676
 31
0.0
  0
SPLINE
  5
B44
330
18
100
AcDbEntity
  8
SK1
100
AcDbSpline
210
0.0
220
0.0
230
1.0
 70
     8
 71
     5
 72
    15
 73
     9
 74
     0
 42
0.0000000001
 43
0.0000000001
 40
0.0
 40
0.0
 40
0.0
 40
0.0
 40
0.0
 40
0.0
 40
0.9129563065051547
 40
0.9129563065051547
 40
0.9129563065051547
 40
1.525791790041419
 40
1.525791790041419
 40
1.525791790041419
 40
1.525791790041419
 40
1.525791790041419
 40
1.525791790041419
 10
-6.685869416422543
 20
-1.151559408147704
 30
0.0
 10
-6.690667974568587
 20
-1.250878348093805
 30
0.0
 10
-6.701205334405307
 20
-1.349532621693241
 30
0.0
 10
-6.712947825405141
 20
-1.446789120546384
 30
0.0
 10
-6.732873573291857
 20
-1.611482109923541
 30
0.0
 10
-6.748825092306144
 20
-1.77853971617361
 30
0.0
 10
-6.754088545862893
 20
-1.845784811491228
 30
0.0
 10
-6.757788892785241
 20
-1.913628558322841
 30
0.0
 10
-6.759083821607723
 20
-1.981811486950276
 30
0.0
  0
SPLINE
  5
B47
330
18
100
AcDbEntity
  8
SK1
100
AcDbSpline
210
0.0
220
0.0
230
1.0
 70
     8
 71
     5
 72
    24
 73
    18
 74
     0
 42
0.0000000001
 43
0.0000000001
 40
0.0
 40
0.0
 40
0.0
 40
0.0
 40
0.0
 40
0.0
 40
2.173150313208684
 40
2.173150313208684
 40
2.173150313208684
 40
8.009060810274871
 40
8.009060810274871
 40
8.009060810274871
 40
12.2732484491023
 40
12.2732484491023
 40
12.2732484491023
 40
14.00924184230097
 40
14.00924184230097
 40
14.00924184230097
 40
14.61373502850047
 40
14.61373502850047
 40
14.61373502850047
 40
14.61373502850047
 40
14.61373502850047
 40
14.61373502850047
 10
-2.612032109060136
 20
-3.620274208410876
 30
0.0
 10
-2.644269636959904
 20
-3.620274071851611
 30
0.0
 10
-2.67644487721026
 20
-3.56482105922106
 30
0.0
 10
-2.707818821956639
 20
-3.45418057321541
 30
0.0
 10
-2.819037773906294
 20
-2.894961908406513
 30
0.0
 10
-2.915222309219475
 20
-1.902438030573478
 30
0.0
 10
-2.981341189769882
 20
-1.111420026286452
 30
0.0
 10
-3.090356780232013
 20
0.2815272591090547
 30
0.0
 10
-3.202679872161602
 20
1.628430404666175
 30
0.0
 10
-3.252277162007651
 20
2.175798626502114
 30
0.0
 10
-3.325966227856063
 20
2.871006838411688
 30
0.0
 10
-3.407732189190461
 20
3.337310953655388
 30
0.0
 10
-3.432131202644049
 20
3.448708251709716
 30
0.0
 10
-3.46583677111537
 20
3.55823045892606
 30
0.0
 10
-3.500174709881811
 20
3.607307343806098
 30
0.0
 10
-3.509109711219486
 20
3.61584459448602
 30
0.0
 10
-3.518025620754293
 20
3.620097491183229
 30
0.0
 10
-3.526943965165671
 20
3.620103251788634
 30
0.0
  0
SPLINE
  5
B49
330
18
100
AcDbEntity
  8
SK1
100
AcDbSpline
210
0.0
220
0.0
230
1.0
 70
     8
 71
     5
 72
    24
 73
    18
 74
     0
 42
0.0000000001
 43
0.0000000001
 40
0.0
 40
0.0
 40
0.0
 40
0.0
 40
0.0
 40
0.0
 40
2.160218837329719
 40
2.160218837329719
 40
2.160218837329719
 40
7.987606581426161
 40
7.987606581426161
 40
7.987606581426161
 40
12.23596873812041
 40
12.23596873812041
 40
12.23596873812041
 40
13.97107843159312
 40
13.97107843159312
 40
13.97107843159312
 40
14.58722788462526
 40
14.58722788462526
 40
14.58722788462526
 40
14.58722788462526
 40
14.58722788462526
 40
14.58722788462526
 10
-4.441904756380913
 20
-3.620036289767767
 30
0.0
 10
-4.474095944405242
 20
-3.620036349893381
 30
0.0
 10
-4.506324515359306
 20
-3.564856951460967
 30
0.0
 10
-4.537799797646002
 20
-3.453894263884421
 30
0.0
 10
-4.649569775344652
 20
-2.892732655789643
 30
0.0
 10
-4.745629200379705
 20
-1.899765528728663
 30
0.0
 10
-4.810913665980726
 20
-1.116583654559518
 30
0.0
 10
-4.919040488485637
 20
0.2658605438361405
 30
0.0
 10
-5.030648084079665
 20
1.60543319136019
 30
0.0
 10
-5.080258056858788
 20
2.155062547743114
 30
0.0
 10
-5.153909840187886
 20
2.855318305042884
 30
0.0
 10
-5.235983638353523
 20
3.328977022817753
 30
0.0
 10
-5.260557617462289
 20
3.442756932575036
 30
0.0
 10
-5.294694354422733
 20
3.555578222925475
 30
0.0
 10
-5.329462849764719
 20
3.606536506227428
 30
0.0
 10
-5.338643389054682
 20
3.615527748210069
 30
0.0
 10
-5.347799037154888
 20
3.619998693886656
 30
0.0
 10
-5.356953254918074
 20
3.619998664152205
 30
0.0
  0
SPLINE
  5
B4B
330
18
100
AcDbEntity
  8
SK1
100
AcDbSpline
210
0.0
220
0.0
230
1.0
 70
     8
 71
     5
 72
    21
 73
    15
 74
     0
 42
0.0000000001
 43
0.0000000001
 40
0.0
 40
0.0
 40
0.0
 40
0.0
 40
0.0
 40
0.0
 40
2.162955969740681
 40
2.162955969740681
 40
2.162955969740681
 40
7.990978203377553
 40
7.990978203377553
 40
7.990978203377553
 40
13.12008627053651
 40
13.12008627053651
 40
13.12008627053651
 40
14.55007421567695
 40
14.55007421567695
 40
14.55007421567695
 40
14.55007421567695
 40
14.55007421567695
 40
14.55007421567695
 10
-6.27197119268019
 20
-3.620019215584136
 30
0.0
 10
-6.304198235430021
 20
-3.620019400561374
 30
0.0
 10
-6.33639749972367
 20
-3.564632379519252
 30
0.0
 10
-6.3678063491848
 20
-3.453933935453278
 30
0.0
 10
-6.479402237398932
 20
-2.893109861243203
 30
0.0
 10
-6.575733257088031
 20
-1.897684675724008
 30
0.0
 10
-6.641683460437927
 20
-1.1075992450626
 30
0.0
 10
-6.760066708365662
 20
0.4061072353879355
 30
0.0
 10
-6.882092515414901
 20
1.85960686228759
 30
0.0
 10
-6.944749845024487
 20
2.532359818459894
 30
0.0
 10
-7.029706381843446
 20
3.233052077915658
 30
0.0
 10
-7.123798930693527
 20
3.548790642968298
 30
0.0
 10
-7.144679400341875
 20
3.596416522827325
 30
0.0
 10
-7.1657921940423
 20
3.620271060663696
 30
0.0
 10
-7.186928103374008
 20
3.620271082901239
 30
0.0
  0
SPLINE
  5
B50
330
18
100
AcDbEntity
  8
SK1
100
AcDbSpline
210
0.0
220
0.0
230
1.0
 70
     8
 71
     5
 72
    24
 73
    18
 74
     0
 42
0.0000000001
 43
0.0000000001
 40
0.0
 40
0.0
 40
0.0
 40
0.0
 40
0.0
 40
0.0
 40
1.342432993157671
 40
1.342432993157671
 40
1.342432993157671
 40
3.419898285479421
 40
3.419898285479421
 40
3.419898285479421
 40
9.457238396069666
 40
9.457238396069666
 40
9.457238396069666
 40
13.72891335728992
 40
13.72891335728992
 40
13.72891335728992
 40
14.78437398754517
 40
14.78437398754517
 40
14.78437398754517
 40
14.78437398754517
 40
14.78437398754517
 40
14.78437398754517
 10
-2.731077261253981
 20
-3.646797228308741
 30
0.0
 10
-2.75052459319655
 20
-3.708413061993268
 30
0.0
 10
-2.770291344421238
 20
-3.750735440780828
 30
0.0
 10
-2.790237760128923
 20
-3.771409872580135
 30
0.0
 10
-2.841125456170956
 20
-3.766383219568126
 30
0.0
 10
-2.890961509629582
 20
-3.621857038466486
 30
0.0
 10
-2.92029990822245
 20
-3.486577167377959
 30
0.0
 10
-3.030072890217049
 20
-2.827177411631793
 30
0.0
 10
-3.124067134017458
 20
-1.766586712342131
 30
0.0
 10
-3.189633485176858
 20
-0.9370733728913478
 30
0.0
 10
-3.298449946853209
 20
0.5209665671799826
 30
0.0
 10
-3.412357771161473
 20
1.905876552257835
 30
0.0
 10
-3.462284940038518
 20
2.457604686125249
 30
0.0
 10
-3.528370643720066
 20
3.066312413412504
 30
0.0
 10
-3.601230233672494
 20
3.468363421521189
 30
0.0
 10
-3.615935956632291
 20
3.538764980979522
 30
0.0
 10
-3.630886604356041
 20
3.598526058489198
 30
0.0
 10
-3.646037945769306
 20
3.646578006817377
 30
0.0
  0
SPLINE
  5
B52
330
18
100
AcDbEntity
  8
SK1
100
AcDbSpline
210
0.0
220
0.0
230
1.0
 70
     8
 71
     5
 72
    21
 73
    15
 74
     0
 42
0.0000000001
 43
0.0000000001
 40
0.0
 40
0.0
 40
0.0
 40
0.0
 40
0.0
 40
0.0
 40
1.345487581379725
 40
1.345487581379725
 40
1.345487581379725
 40
3.412636068167531
 40
3.412636068167531
 40
3.412636068167531
 40
11.15810267442827
 40
11.15810267442827
 40
11.15810267442827
 40
14.78184204170439
 40
14.78184204170439
 40
14.78184204170439
 40
14.78184204170439
 40
14.78184204170439
 40
14.78184204170439
 10
-4.560758979306584
 20
-3.646117083574607
 30
0.0
 10
-4.580215437371983
 20
-3.707853732395107
 30
0.0
 10
-4.600031563425943
 20
-3.750404875507853
 30
0.0
 10
-4.620078833134563
 20
-3.771307448332606
 30
0.0
 10
-4.671113251771181
 20
-3.766184133233308
 30
0.0
 10
-4.721257805153712
 20
-3.620497204177978
 30
0.0
 10
-4.750735029244686
 20
-3.484139573990261
 30
0.0
 10
-4.884328123966959
 20
-2.680737070927249
 30
0.0
 10
-4.993691270470655
 20
-1.293043263289007
 30
0.0
 10
-5.072927212904228
 20
-0.2422844964655155
 30
0.0
 10
-5.190885274835657
 20
1.395139852968497
 30
0.0
 10
-5.326330790801043
 20
2.765768364653864
 30
0.0
 10
-5.373434406226297
 20
3.173449394455643
 30
0.0
 10
-5.423529171858304
 20
3.480177767990538
 30
0.0
 10
-5.476005004526398
 20
3.64649750993226
 30
0.0
  0
SPLINE
  5
B54
330
18
100
AcDbEntity
  8
SK1
100
AcDbSpline
210
0.0
220
0.0
230
1.0
 70
     8
 71
     5
 72
    18
 73
    12
 74
     0
 42
0.0000000001
 43
0.0000000001
 40
0.0
 40
0.0
 40
0.0
 40
0.0
 40
0.0
 40
0.0
 40
1.441949971703479
 40
1.441949971703479
 40
1.441949971703479
 40
3.522258231952006
 40
3.522258231952006
 40
3.522258231952006
 40
5.424970924816705
 40
5.424970924816705
 40
5.424970924816705
 40
5.424970924816705
 40
5.424970924816705
 40
5.424970924816705
 10
-6.391017801443862
 20
-3.646545259041771
 30
0.0
 10
-6.411944638214076
 20
-3.712857780234571
 30
0.0
 10
-6.433264816213674
 20
-3.756886997914591
 30
0.0
 10
-6.454798668270687
 20
-3.775572194093285
 30
0.0
 10
-6.507446014303852
 20
-3.756519390319225
 30
0.0
 10
-6.55876588464261
 20
-3.590062172023863
 30
0.0
 10
-6.588090788692678
 20
-3.445264721433602
 30
0.0
 10
-6.641790765844535
 20
-3.10657257275966
 30
0.0
 10
-6.691673048667175
 20
-2.675608155097562
 30
0.0
 10
-6.714745022405896
 20
-2.454494411478719
 30
0.0
 10
-6.737165699336123
 20
-2.222399767182764
 30
0.0
 10
-6.759083821607737
 20
-1.981811486950221
 30
0.0
  0
ARC
  5
B55
330
18
100
AcDbEntity
  8
SK1
100
AcDbCircle
 10
-17.80845600000364
 20
-1.763439999999945
 30
0.0
 40
11.051559
100
AcDbArc
 50
355.3761340000002
 51
358.8677940000005
  0
ARC
  5
B56
330
18
100
AcDbEntity
  8
SK1
100
AcDbCircle
 10
-7.347012000003638
 20
-2.61855399999996
 30
0.0
 40
0.555173
100
AcDbArc
 50
337.7525809999997
 51
356.3037940000013
  0
ARC
  5
B57
330
18
100
AcDbEntity
  8
SK1
100
AcDbCircle
 10
-10.71623800000364
 20
7.685229000000048
 30
0.0
 40
11.208103
100
AcDbArc
 50
286.5226049999993
 51
290.2698389999992
  0
ARC
  5
B58
330
18
100
AcDbEntity
  8
SK1
100
AcDbCircle
 10
-7.341013000003638
 20
-2.87968799999993
 30
0.0
 40
0.260904
100
AcDbArc
 50
191.4511199999988
 51
223.8739100000004
  0
LINE
  5
B59
330
18
100
AcDbEntity
  8
SK1
 48
0.01126
100
AcDbLine
 10
-7.703173000003638
 20
-2.493809999999939
 30
0.0
 11
-7.597246000003637
 21
-2.931590999999968
 31
0.0
  0
SPLINE
  5
B5A
330
18
100
AcDbEntity
  8
SK1
100
AcDbSpline
210
0.0
220
0.0
230
1.0
 70
     8
 71
     5
 72
    24
 73
    18
 74
     0
 42
0.0000000001
 43
0.0000000001
 40
0.0
 40
0.0
 40
0.0
 40
0.0
 40
0.0
 40
0.0
 40
0.1122899603536083
 40
0.1122899603536083
 40
0.1122899603536083
 40
0.1709123737371738
 40
0.1709123737371738
 40
0.1709123737371738
 40
0.2887614436742859
 40
0.2887614436742859
 40
0.2887614436742859
 40
0.5199344421826713
 40
0.5199344421826713
 40
0.5199344421826713
 40
0.5748004317746764
 40
0.5748004317746764
 40
0.5748004317746764
 40
0.5748004317746764
 40
0.5748004317746764
 40
0.5748004317746764
 10
-7.906591700898182
 20
-2.284697105278496
 30
0.0
 10
-7.895844103672892
 20
-2.279606208536279
 30
0.0
 10
-7.884293298530262
 20
-2.275863988834315
 30
0.0
 10
-7.871430048686502
 20
-2.273865780896642
 30
0.0
 10
-7.851884517165821
 20
-2.275035114830245
 30
0.0
 10
-7.832979104613331
 20
-2.281609950015819
 30
0.0
 10
-7.826703448959204
 20
-2.284452373337273
 30
0.0
 10
-7.808452629288991
 20
-2.294566818789064
 30
0.0
 10
-7.792243233544762
 20
-2.308591571744671
 30
0.0
 10
-7.782677314392877
 20
-2.318863542895428
 30
0.0
 10
-7.756934206254963
 20
-2.351189106223273
 30
0.0
 10
-7.737830479111686
 20
-2.387767646493556
 30
0.0
 10
-7.727152928899331
 20
-2.412867023261184
 30
0.0
 10
-7.716256628532901
 20
-2.444002770367035
 30
0.0
 10
-7.707647093845184
 20
-2.475570418616711
 30
0.0
 10
-7.706076881596218
 20
-2.481640372222784
 30
0.0
 10
-7.704586291006473
 20
-2.487720850655761
 30
0.0
 10
-7.703173278871716
 20
-2.493810445669851
 30
0.0
  0
LINE
  5
B5B
330
18
100
AcDbEntity
  8
SK1
 48
0.001198
100
AcDbLine
 10
-7.906592000003638
 20
-2.284696999999936
 30
0.0
 11
-7.950000000003638
 21
-2.305027999999936
 31
0.0
  0
SPLINE
  5
B5E
330
18
100
AcDbEntity
  8
SK1
100
AcDbSpline
210
0.0
220
0.0
230
1.0
 70
     8
 71
     5
 72
    24
 73
    18
 74
     0
 42
0.0000000001
 43
0.0000000001
 40
0.0
 40
0.0
 40
0.0
 40
0.0
 40
0.0
 40
0.0
 40
2.173150477867523
 40
2.173150477867523
 40
2.173150477867523
 40
8.009116160067682
 40
8.009116160067682
 40
8.009116160067682
 40
12.27336009634124
 40
12.27336009634124
 40
12.27336009634124
 40
14.00934726570953
 40
14.00934726570953
 40
14.00934726570953
 40
14.61393736432501
 40
14.61393736432501
 40
14.61393736432501
 40
14.61393736432501
 40
14.61393736432501
 40
14.61393736432501
 10
-2.15801664449487
 20
-3.620274208412922
 30
0.0
 10
-2.190254174674432
 20
-3.620273926781123
 30
0.0
 10
-2.222429415829047
 20
-3.564820761386101
 30
0.0
 10
-2.253803360460991
 20
-3.454180131446491
 30
0.0
 10
-2.365023069070111
 20
-2.894957189078808
 30
0.0
 10
-2.461208154409596
 20
-1.902423329166481
 30
0.0
 10
-2.527327602412931
 20
-1.11139632617511
 30
0.0
 10
-2.63634430628432
 20
0.2815679886706448
 30
0.0
 10
-2.748668840036508
 20
1.628482894018872
 30
0.0
 10
-2.798267083254485
 20
2.175857149950616
 30
0.0
 10
-2.871957268755068
 20
2.871063393413976
 30
0.0
 10
-2.953724553022762
 20
3.337350586358013
 30
0.0
 10
-2.978123650532836
 20
3.448740440248343
 30
0.0
 10
-3.011830717220752
 20
3.558256124117008
 30
0.0
 10
-3.046170107381243
 20
3.607320708060909
 30
0.0
 10
-3.055106580591406
 20
3.615854905976276
 30
0.0
 10
-3.064023937048523
 20
3.620103332462746
 30
0.0
 10
-3.072943714581569
 20
3.620103256669891
 30
0.0
  0
SPLINE
  5
B60
330
18
100
AcDbEntity
  8
SK1
100
AcDbSpline
210
0.0
220
0.0
230
1.0
 70
     8
 71
     5
 72
    24
 73
    18
 74
     0
 42
0.0000000001
 43
0.0000000001
 40
0.0
 40
0.0
 40
0.0
 40
0.0
 40
0.0
 40
0.0
 40
2.160219126598382
 40
2.160219126598382
 40
2.160219126598382
 40
7.987607266394094
 40
7.987607266394094
 40
7.987607266394094
 40
12.23596706432433
 40
12.23596706432433
 40
12.23596706432433
 40
13.97107615781503
 40
13.97107615781503
 40
13.97107615781503
 40
14.58722211039464
 40
14.58722211039464
 40
14.58722211039464
 40
14.58722211039464
 40
14.58722211039464
 40
14.58722211039464
 10
-3.987889393453826
 20
-3.620036289767994
 30
0.0
 10
-4.020080585985276
 20
-3.620036065946407
 30
0.0
 10
-4.05230915862187
 20
-3.564856367657455
 30
0.0
 10
-4.083784440836623
 20
-3.453893396007116
 30
0.0
 10
-4.195554403895214
 20
-2.892730933698998
 30
0.0
 10
-4.291613813305508
 20
-1.899763445777806
 30
0.0
 10
-4.356898266702941
 20
-1.116581560259702
 30
0.0
 10
-4.465025063756858
 20
0.265862440799026
 30
0.0
 10
-4.576632647752101
 20
1.605434689528805
 30
0.0
 10
-4.626242599705499
 20
2.155063673557151
 30
0.0
 10
-4.699894354833143
 20
2.855318919432136
 30
0.0
 10
-4.781968116952619
 20
3.32897725800484
 30
0.0
 10
-4.806542088476863
 20
3.442757086677147
 30
0.0
 10
-4.840678766647432
 20
3.555578132259482
 30
0.0
 10
-4.875447200685023
 20
3.606536383186095
 30
0.0
 10
-4.884627687068771
 20
3.615527614382982
 30
0.0
 10
-4.893783282931075
 20
3.619998601589087
 30
0.0
 10
-4.902937448716315
 20
3.619998664144303
 30
0.0
  0
SPLINE
  5
B62
330
18
100
AcDbEntity
  8
SK1
100
AcDbSpline
210
0.0
220
0.0
230
1.0
 70
     8
 71
     5
 72
    21
 73
    15
 74
     0
 42
0.0000000001
 43
0.0000000001
 40
0.0
 40
0.0
 40
0.0
 40
0.0
 40
0.0
 40
0.0
 40
2.162955832895096
 40
2.162955832895096
 40
2.162955832895096
 40
7.990976954265581
 40
7.990976954265581
 40
7.990976954265581
 40
13.12008524572594
 40
13.12008524572594
 40
13.12008524572594
 40
14.55007335269119
 40
14.55007335269119
 40
14.55007335269119
 40
14.55007335269119
 40
14.55007335269119
 40
14.55007335269119
 10
-5.817955532497705
 20
-3.620019215583964
 30
0.0
 10
-5.850182573274761
 20
-3.620019524579048
 30
0.0
 10
-5.882381836800369
 20
-3.564632634269854
 30
0.0
 10
-5.913790686397162
 20
-3.453934313266016
 30
0.0
 10
-6.025386567486576
 20
-2.893110680138136
 30
0.0
 10
-6.121717583919763
 20
-1.897685825823372
 30
0.0
 10
-6.187667784913705
 20
-1.107600530890749
 30
0.0
 10
-6.306051026928487
 20
0.4061057665231261
 30
0.0
 10
-6.428076815353988
 20
1.859605419589058
 30
0.0
 10
-6.490734134661046
 20
2.532358435945468
 30
0.0
 10
-6.575690659127867
 20
3.233051054299379
 30
0.0
 10
-6.669783202492214
 20
3.548790217757299
 30
0.0
 10
-6.690663672756063
 20
3.596416239874371
 30
0.0
 10
-6.711776467873799
 20
3.620270921690234
 30
0.0
 10
-6.732912379462802
 20
3.620271082903967
 30
0.0
  0
SPLINE
  5
B64
330
18
100
AcDbEntity
  8
SK1
100
AcDbSpline
210
0.0
220
0.0
230
1.0
 70
     8
 71
     5
 72
    15
 73
     9
 74
     0
 42
0.0000000001
 43
0.0000000001
 40
0.0
 40
0.0
 40
0.0
 40
0.0
 40
0.0
 40
0.0
 40
1.561602931157263
 40
1.561602931157263
 40
1.561602931157263
 40
3.792924454252671
 40
3.792924454252671
 40
3.792924454252671
 40
3.792924454252671
 40
3.792924454252671
 40
3.792924454252671
 10
-7.647942881161892
 20
-3.620000399167337
 30
0.0
 10
-7.671229552807876
 20
-3.620000453654995
 30
0.0
 10
-7.694511634729287
 20
-3.591093422967276
 30
0.0
 10
-7.717478635699076
 20
-3.533360247578741
 30
0.0
 10
-7.772030411467472
 20
-3.332707503072184
 30
0.0
 10
-7.823187939887417
 20
-3.008805524956982
 30
0.0
 10
-7.852078937671972
 20
-2.78640368346356
 30
0.0
 10
-7.879767942439882
 20
-2.543544051824027
 30
0.0
 10
-7.906591700898188
 20
-2.284697105278496
 30
0.0
  0
SPLINE
  5
B6C
330
18
100
AcDbEntity
  8
SK1
100
AcDbSpline
210
0.0
220
0.0
230
1.0
 70
     8
 71
     5
 72
    24
 73
    18
 74
     0
 42
0.0000000001
 43
0.0000000001
 40
0.0
 40
0.0
 40
0.0
 40
0.0
 40
0.0
 40
0.0
 40
2.101186628934109
 40
2.101186628934109
 40
2.101186628934109
 40
4.269501932497368
 40
4.269501932497368
 40
4.269501932497368
 40
9.087328308177212
 40
9.087328308177212
 40
9.087328308177212
 40
14.47836046887091
 40
14.47836046887091
 40
14.47836046887091
 40
15.08399523145242
 40
15.08399523145242
 40
15.08399523145242
 40
15.08399523145242
 40
15.08399523145242
 40
15.08399523145242
 10
-2.817320037695026
 20
-3.920815536286169
 30
0.0
 10
-2.847747260952963
 20
-4.01760676266133
 30
0.0
 10
-2.879020107131608
 20
-4.063644696183358
 30
0.0
 10
-2.910337116080913
 20
-4.048097708727708
 30
0.0
 10
-2.972958060081968
 20
-3.898215519858183
 30
0.0
 10
-3.031234706209772
 20
-3.557694107366216
 30
0.0
 10
-3.059558726288258
 20
-3.346846839779913
 30
0.0
 10
-3.146442940461291
 20
-2.591145628673131
 30
0.0
 10
-3.223110644346149
 20
-1.640169516601075
 30
0.0
 10
-3.273090482611279
 20
-0.9665231189750898
 30
0.0
 10
-3.378099298652819
 20
0.5103997656236176
 30
0.0
 10
-3.485779975083122
 20
1.95520851087815
 30
0.0
 10
-3.548110981547604
 20
2.713720516619162
 30
0.0
 10
-3.622709985278986
 20
3.435073020845038
 30
0.0
 10
-3.706370026369015
 20
3.825113304477781
 30
0.0
 10
-3.714938505654479
 20
3.86098435865972
 30
0.0
 10
-3.723558929596747
 20
3.892812594281393
 30
0.0
 10
-3.73225083724693
 20
3.920500143316984
 30
0.0
  0
LINE
  5
B6E
330
18
100
AcDbEntity
  8
SK1
 48
0.000078
100
AcDbLine
 10
-4.647113000003638
 20
-3.920463999999923
 30
0.0
 11
-4.648058000003636
 21
-3.923448999999948
 31
0.0
  0
SPLINE
  5
B6F
330
18
100
AcDbEntity
  8
SK1
100
AcDbSpline
210
0.0
220
0.0
230
1.0
 70
     8
 71
     5
 72
    24
 73
    18
 74
     0
 42
0.0000000001
 43
0.0000000001
 40
0.0
 40
0.0
 40
0.0
 40
0.0
 40
0.0
 40
0.0
 40
2.101661906878652
 40
2.101661906878652
 40
2.101661906878652
 40
4.264671571051318
 40
4.264671571051318
 40
4.264671571051318
 40
9.084146706711193
 40
9.084146706711193
 40
9.084146706711193
 40
13.55373781390413
 40
13.55373781390413
 40
13.55373781390413
 40
15.10687467955681
 40
15.10687467955681
 40
15.10687467955681
 40
15.10687467955681
 40
15.10687467955681
 40
15.10687467955681
 10
-4.648057783372389
 20
-3.923449259055189
 30
0.0
 10
-4.678474981941775
 20
-4.018878501994321
 30
0.0
 10
-4.709824502864896
 20
-4.063785213208404
 30
0.0
 10
-4.741311227017368
 20
-4.046967762811561
 30
0.0
 10
-4.804307131446626
 20
-3.892460998750209
 30
0.0
 10
-4.862848952277836
 20
-3.546988495398068
 30
0.0
 10
-4.89121801458405
 20
-3.334314453819786
 30
0.0
 10
-4.978241454943264
 20
-2.573374990818023
 30
0.0
 10
-5.05462508858963
 20
-1.621828259085815
 30
0.0
 10
-5.104096568986761
 20
-0.9526535451948916
 30
0.0
 10
-5.199132893934144
 20
0.3860441047459062
 30
0.0
 10
-5.296615785263565
 20
1.69795547326123
 30
0.0
 10
-5.345624785442299
 20
2.30927753004056
 30
0.0
 10
-5.416221429168313
 20
3.078703699596473
 30
0.0
 10
-5.496331935997559
 20
3.626350854114491
 30
0.0
 10
-5.517709523945086
 20
3.74948200714374
 30
0.0
 10
-5.539719805114728
 20
3.848766897654058
 30
0.0
 10
-5.562203176824726
 20
3.920357669183146
 30
0.0
  0
SPLINE
  5
B71
330
18
100
AcDbEntity
  8
SK1
100
AcDbSpline
210
0.0
220
0.0
230
1.0
 70
     8
 71
     5
 72
    18
 73
    12
 74
     0
 42
0.0000000001
 43
0.0000000001
 40
0.0
 40
0.0
 40
0.0
 40
0.0
 40
0.0
 40
0.0
 40
1.320349325478284
 40
1.320349325478284
 40
1.320349325478284
 40
3.093362864462291
 40
3.093362864462291
 40
3.093362864462291
 40
4.590932057920861
 40
4.590932057920861
 40
4.590932057920861
 40
4.590932057920861
 40
4.590932057920861
 40
4.590932057920861
 10
-6.477242047656165
 20
-3.920488491725733
 30
0.0
 10
-6.496399832555893
 20
-3.981452977344133
 30
0.0
 10
-6.515912410762392
 20
-4.022343689170611
 30
0.0
 10
-6.535622270042543
 20
-4.040543385179204
 30
0.0
 10
-6.581862858951557
 20
-4.027577169543802
 30
0.0
 10
-6.627073991670389
 20
-3.892213548954258
 30
0.0
 10
-6.652246232358577
 20
-3.777668383634477
 30
0.0
 10
-6.696900870459642
 20
-3.515777504645313
 30
0.0
 10
-6.738647465383162
 20
-3.179306599584662
 30
0.0
 10
-6.757197767962392
 20
-3.013077877789953
 30
0.0
 10
-6.775232059218182
 20
-2.837522290982973
 30
0.0
 10
-6.792834206960478
 20
-2.654353866500399
 30
0.0
  0
ARC
  5
B74
330
18
100
AcDbEntity
  8
SK1
100
AcDbCircle
 10
-2.938221000003636
 20
-4.082098999999913
 30
0.0
 40
0.02801
100
AcDbArc
 50
273.2908470000003
 51
315.6663740000007
  0
SPLINE
  5
B75
330
18
100
AcDbEntity
  8
SK1
100
AcDbSpline
210
0.0
220
0.0
230
1.0
 70
     8
 71
     5
 72
    33
 73
    27
 74
     0
 42
0.0000000001
 43
0.0000000001
 40
0.0
 40
0.0
 40
0.0
 40
0.0
 40
0.0
 40
0.0
 40
3.130954148806756
 40
3.130954148806756
 40
3.130954148806756
 40
7.155431733176031
 40
7.155431733176031
 40
7.155431733176031
 40
10.07975041896798
 40
10.07975041896798
 40
10.07975041896798
 40
10.82353414611002
 40
10.82353414611002
 40
10.82353414611002
 40
11.56731787325208
 40
11.56731787325208
 40
11.56731787325208
 40
12.2959399758913
 40
12.2959399758913
 40
12.2959399758913
 40
12.94515801324285
 40
12.94515801324285
 40
12.94515801324285
 40
13.67195634079033
 40
13.67195634079033
 40
13.67195634079033
 40
13.67195634079033
 40
13.67195634079033
 40
13.67195634079033
 10
-2.936617179183826
 20
-4.109999995228973
 30
0.0
 10
-2.968812553476083
 20
-4.109978096257008
 30
0.0
 10
-3.001164510421122
 20
-4.047132810001244
 30
0.0
 10
-3.033195073183263
 20
-3.919818678910758
 30
0.0
 10
-3.103664894473816
 20
-3.517206152079381
 30
0.0
 10
-3.16992641671583
 20
-2.897816378151219
 30
0.0
 10
-3.206449400366671
 20
-2.494160531601949
 30
0.0
 10
-3.266618976355913
 20
-1.760490472411958
 30
0.0
 10
-3.325200057951946
 20
-0.9677524953685859
 30
0.0
 10
-3.349708685629031
 20
-0.6277115989719846
 30
0.0
 10
-3.380297468456183
 20
-0.19743434804667
 30
0.0
 10
-3.410844457494171
 20
0.2325107656525347
 30
0.0
 10
-3.417031516201745
 20
0.3195263676792592
 30
0.0
 10
-3.429449012139293
 20
0.4938762357427892
 30
0.0
 10
-3.441793591633086
 20
0.6662157540927752
 30
0.0
 10
-3.447920428427245
 20
0.7514066797040755
 30
0.0
 10
-3.459974865219336
 20
0.9182135372701624
 30
0.0
 10
-3.471979028832187
 20
1.082457935136232
 30
0.0
 10
-3.477929169215048
 20
1.163351676908064
 30
0.0
 10
-3.489263397872662
 20
1.316331737629639
 30
0.0
 10
-3.500793019432613
 20
1.469499078171053
 30
0.0
 10
-3.509656541040931
 20
1.586001396639061
 30
0.0
 10
-3.521371980909716
 20
1.738150232267684
 30
0.0
 10
-3.533162976073383
 20
1.887787092234589
 30
0.0
 10
-3.539415412556131
 20
1.966066950702611
 30
0.0
 10
-3.545693301950727
 20
2.043496085658488
 30
0.0
 10
-3.552000105789011
 20
2.12000972541034
 30
0.0
  0
ARC
  5
B77
330
18
100
AcDbEntity
  8
SK1
100
AcDbCircle
 10
-3.853317000003638
 20
4.082247000000052
 30
0.0
 40
0.027863
100
AcDbArc
 50
44.34306499999856
 51
86.640381
  0
SPLINE
  5
B78
330
18
100
AcDbEntity
  8
SK1
100
AcDbSpline
210
0.0
220
0.0
230
1.0
 70
     8
 71
     5
 72
    15
 73
     9
 74
     0
 42
0.0000000001
 43
0.0000000001
 40
0.0
 40
0.0
 40
0.0
 40
0.0
 40
0.0
 40
0.0
 40
3.203688076223081
 40
3.203688076223081
 40
3.203688076223081
 40
5.909942706825098
 40
5.909942706825098
 40
5.909942706825098
 40
5.909942706825098
 40
5.909942706825098
 40
5.909942706825098
 10
-3.833338579195181
 20
4.101773162476888
 30
0.0
 10
-3.800782463300066
 20
4.072606576826386
 30
0.0
 10
-3.768390497772002
 20
3.979074598887904
 30
0.0
 10
-3.736287601988343
 20
3.823865438828647
 30
0.0
 10
-3.678239298273743
 20
3.441860346848272
 30
0.0
 10
-3.623655175612205
 20
2.93125385723215
 30
0.0
 10
-3.599368137804964
 20
2.67711779349497
 30
0.0
 10
-3.575483672610381
 20
2.404910479903549
 30
0.0
 10
-3.552000105787597
 20
2.12000972541034
 30
0.0
  0
ARC
  5
B7A
330
18
100
AcDbEntity
  8
SK1
100
AcDbCircle
 10
-4.768490000003636
 20
-4.081811999999955
 30
0.0
 40
0.028301
100
AcDbArc
 50
273.3563
 51
315.6675190000015
  0
SPLINE
  5
B7B
330
18
100
AcDbEntity
  8
SK1
100
AcDbSpline
210
0.0
220
0.0
230
1.0
 70
     8
 71
     5
 72
    27
 73
    21
 74
     0
 42
0.0000000001
 43
0.0000000001
 40
0.0
 40
0.0
 40
0.0
 40
0.0
 40
0.0
 40
0.0
 40
0.6730076369292474
 40
0.6730076369292474
 40
0.6730076369292474
 40
1.882867820894051
 40
1.882867820894051
 40
1.882867820894051
 40
4.409130640055494
 40
4.409130640055494
 40
4.409130640055494
 40
7.150402287694483
 40
7.150402287694483
 40
7.150402287694483
 40
11.57461032236732
 40
11.57461032236732
 40
11.57461032236732
 40
13.77128258511543
 40
13.77128258511543
 40
13.77128258511543
 40
13.77128258511543
 40
13.77128258511543
 40
13.77128258511543
 10
-4.766836952446218
 20
-4.109999999956585
 30
0.0
 10
-4.773608579876999
 20
-4.10999956207894
 30
0.0
 10
-4.780312844007609
 20
-4.107236594482174
 30
0.0
 10
-4.786970780617281
 20
-4.10181685015732
 30
0.0
 10
-4.805581993787554
 20
-4.079282696496136
 30
0.0
 10
-4.824445470428829
 20
-4.035291565888996
 30
0.0
 10
-4.836916777993323
 20
-3.99702953098756
 30
0.0
 10
-4.874503929392577
 20
-3.853964033269903
 30
0.0
 10
-4.911079367842297
 20
-3.63501174423112
 30
0.0
 10
-4.935470937351823
 20
-3.455574131665912
 30
0.0
 10
-4.985010039822832
 20
-3.033570163696252
 30
0.0
 10
-5.03280023437698
 20
-2.52413393593099
 30
0.0
 10
-5.057230245650494
 20
-2.240814643140311
 30
0.0
 10
-5.119345429667362
 20
-1.4746744274193
 30
0.0
 10
-5.178992591287084
 20
-0.6467833680327431
 30
0.0
 10
-5.21518688230461
 20
-0.1271674164876231
 30
0.0
 10
-5.269646876789926
 20
0.6532627581005955
 30
0.0
 10
-5.325354562596941
 20
1.406283652133822
 30
0.0
 10
-5.34385129880944
 20
1.649250501335984
 30
0.0
 10
-5.362790092319566
 20
1.888717057250801
 30
0.0
 10
-5.382002984513601
 20
2.12000972541034
 30
0.0
  0
ARC
  5
B7D
330
18
100
AcDbEntity
  8
SK1
100
AcDbCircle
 10
-5.683526000003638
 20
4.082016000000066
 30
0.0
 40
0.028094
100
AcDbArc
 50
44.42168999999934
 51
86.67614300000009
  0
SPLINE
  5
B7E
330
18
100
AcDbEntity
  8
SK1
100
AcDbSpline
210
0.0
220
0.0
230
1.0
 70
     8
 71
     5
 72
    18
 73
    12
 74
     0
 42
0.0000000001
 43
0.0000000001
 40
0.0
 40
0.0
 40
0.0
 40
0.0
 40
0.0
 40
0.0
 40
3.194458366392669
 40
3.194458366392669
 40
3.194458366392669
 40
5.008804290304941
 40
5.008804290304941
 40
5.008804290304941
 40
5.886379463994197
 40
5.886379463994197
 40
5.886379463994197
 40
5.886379463994197
 40
5.886379463994197
 40
5.886379463994197
 10
-5.66340968332754
 20
4.10173080541989
 30
0.0
 10
-5.630697858821647
 20
4.07248507817286
 30
0.0
 10
-5.598126793641905
 20
3.978786232516995
 30
0.0
 10
-5.566088042313648
 20
3.824016539876764
 30
0.0
 10
-5.516274241589311
 20
3.492596835397705
 30
0.0
 10
-5.469632093768502
 20
3.073700033311865
 30
0.0
 10
-5.453539210157457
 20
2.917061232989055
 30
0.0
 10
-5.429126682803588
 20
2.663351827093606
 30
0.0
 10
-5.405165399173717
 20
2.393196994038361
 30
0.0
 10
-5.397397913397226
 20
2.303508925794914
 30
0.0
 10
-5.389678575220532
 20
2.212411631181793
 30
0.0
 10
-5.382002984514453
 20
2.12000972541034
 30
0.0
  0
ARC
  5
B80
330
18
100
AcDbEntity
  8
SK1
100
AcDbCircle
 10
-6.598490000003637
 20
-4.082085999999947
 30
0.0
 40
0.028024
100
AcDbArc
 50
273.3702770000002
 51
315.5326320000019
  0
SPLINE
  5
B81
330
18
100
AcDbEntity
  8
SK1
100
AcDbSpline
210
0.0
220
0.0
230
1.0
 70
     8
 71
     5
 72
    15
 73
     9
 74
     0
 42
0.0000000001
 43
0.0000000001
 40
0.0
 40
0.0
 40
0.0
 40
0.0
 40
0.0
 40
0.0
 40
3.000512300423623
 40
3.000512300423623
 40
3.000512300423623
 40
4.821326862236216
 40
4.821326862236216
 40
4.821326862236216
 40
4.821326862236216
 40
4.821326862236216
 40
4.821326862236216
 10
-6.596846098277797
 20
-4.109999988685841
 30
0.0
 10
-6.627668709887737
 20
-4.110032276225638
 30
0.0
 10
-6.658655985999597
 20
-4.052476879502761
 30
0.0
 10
-6.689227429426683
 20
-3.93592811768724
 30
0.0
 10
-6.737006918951273
 20
-3.672903411207187
 30
0.0
 10
-6.782758559428696
 20
-3.310092016595148
 30
0.0
 10
-6.799745286159261
 20
-3.160976373571712
 30
0.0
 10
-6.816641599442589
 20
-2.999473552581946
 30
0.0
 10
-6.833308937181712
 20
-2.828692179325003
 30
0.0
  0
SPLINE
  5
B82
330
18
100
AcDbEntity
  8
SK1
100
AcDbSpline
210
0.0
220
0.0
230
1.0
 70
     8
 71
     5
 72
    15
 73
     9
 74
     0
 42
0.0000000001
 43
0.0000000001
 40
0.0
 40
0.0
 40
0.0
 40
0.0
 40
0.0
 40
0.0
 40
2.877637510888915
 40
2.877637510888915
 40
2.877637510888915
 40
4.02699912019224
 40
4.02699912019224
 40
4.02699912019224
 40
4.02699912019224
 40
4.02699912019224
 40
4.02699912019224
 10
-7.528702672568043
 20
-3.060139372743094
 30
0.0
 10
-7.502265447909116
 20
-3.310114363003491
 30
0.0
 10
-7.475066798586142
 20
-3.534959809835584
 30
0.0
 10
-7.446995686349523
 20
-3.727454039414509
 30
0.0
 10
-7.406741717034357
 20
-3.937513336915401
 30
0.0
 10
-7.365677093976419
 20
-4.05386493836761
 30
0.0
 10
-7.354253261035196
 20
-4.078173105218411
 30
0.0
 10
-7.342777758817787
 20
-4.09500082728681
 30
0.0
 10
-7.331258361628044
 20
-4.103866635226721
 30
0.0
  0
ARC
  5
B83
330
18
100
AcDbEntity
  8
SK1
100
AcDbCircle
 10
-7.314289000003639
 20
-4.083888999999942
 30
0.0
 40
0.026169
100
AcDbArc
 50
229.6540160000015
 51
267.710909
  0
ARC
  5
B86
330
18
100
AcDbEntity
  8
SK1
100
AcDbCircle
 10
-6.399584000003637
 20
4.083734000000048
 30
0.0
 40
0.026324
100
AcDbArc
 50
92.27020699999988
 51
130.5222929999989
  0
SPLINE
  5
B87
330
18
100
AcDbEntity
  8
SK1
100
AcDbSpline
210
0.0
220
0.0
230
1.0
 70
     8
 71
     5
 72
    18
 73
    12
 74
     0
 42
0.0000000001
 43
0.0000000001
 40
0.0
 40
0.0
 40
0.0
 40
0.0
 40
0.0
 40
0.0
 40
2.360461994340603
 40
2.360461994340603
 40
2.360461994340603
 40
4.932968151061813
 40
4.932968151061813
 40
4.932968151061813
 40
6.376611221985752
 40
6.376611221985752
 40
6.376611221985752
 40
6.376611221985752
 40
6.376611221985752
 40
6.376611221985752
 10
-6.400625742608156
 20
4.1099999976729
 30
0.0
 10
-6.376397617292558
 20
4.109988534837498
 30
0.0
 10
-6.352194955399773
 20
4.07468832166637
 30
0.0
 10
-6.328200007581698
 20
4.002936181103962
 30
0.0
 10
-6.280652240450392
 20
3.798760641060823
 30
0.0
 10
-6.234824467300163
 20
3.480877041763448
 30
0.0
 10
-6.212053725372657
 20
3.294944135317336
 30
0.0
 10
-6.175154978155967
 20
2.951444948702771
 30
0.0
 10
-6.139289252241883
 20
2.564274726275641
 30
0.0
 10
-6.126500138711432
 20
2.420075998905133
 30
0.0
 10
-6.113826860262206
 20
2.271843461920979
 30
0.0
 10
-6.101244107838129
 20
2.12000972541034
 30
0.0
  0
ARC
  5
B89
330
18
100
AcDbEntity
  8
SK1
100
AcDbCircle
 10
-5.484329000003639
 20
-4.083923999999966
 30
0.0
 40
0.026133
100
AcDbArc
 50
229.6767910000012
 51
267.7637590000001
  0
SPLINE
  5
B8A
330
18
100
AcDbEntity
  8
SK1
100
AcDbSpline
210
0.0
220
0.0
230
1.0
 70
     8
 71
     5
 72
    30
 73
    24
 74
     0
 42
0.0000000001
 43
0.0000000001
 40
0.0
 40
0.0
 40
0.0
 40
0.0
 40
0.0
 40
0.0
 40
2.73965442001452
 40
2.73965442001452
 40
2.73965442001452
 40
6.666219738571536
 40
6.666219738571536
 40
6.666219738571536
 40
8.765277830828706
 40
8.765277830828706
 40
8.765277830828706
 40
9.390057276103666
 40
9.390057276103666
 40
9.390057276103666
 40
10.82569299952466
 40
10.82569299952466
 40
10.82569299952466
 40
11.62449625707088
 40
11.62449625707088
 40
11.62449625707088
 40
13.41374424626783
 40
13.41374424626783
 40
13.41374424626783
 40
13.41374424626783
 40
13.41374424626783
 40
13.41374424626783
 10
-5.501267057402393
 20
-4.103880481320402
 30
0.0
 10
-5.529484491569387
 20
-4.082174430040935
 30
0.0
 10
-5.557740614733751
 20
-4.012346198317686
 30
0.0
 10
-5.585501151571576
 20
-3.894722814639294
 30
0.0
 10
-5.651119510129845
 20
-3.516978687824802
 30
0.0
 10
-5.713064351954147
 20
-2.95016413662057
 30
0.0
 10
-5.748977065320309
 20
-2.563945785759812
 30
0.0
 10
-5.801837640894646
 20
-1.931194677075551
 30
0.0
 10
-5.852833588953433
 20
-1.253941174220698
 30
0.0
 10
-5.871257509598034
 20
-1.002731791043117
 30
0.0
 10
-5.894009057670442
 20
-0.6869972045678879
 30
0.0
 10
-5.916677255802728
 20
-0.3686406086265492
 30
0.0
 10
-5.925678080832233
 20
-0.241921644998115
 30
0.0
 10
-5.942710286007833
 20
-0.0017342765918329
 30
0.0
 10
-5.95936890157721
 20
0.2335160063109924
 30
0.0
 10
-5.970777054376185
 20
0.3941633624688165
 30
0.0
 10
-5.988995529660138
 20
0.6489771309595085
 30
0.0
 10
-6.007754411725564
 20
0.9071116713658398
 30
0.0
 10
-6.010976336270655
 20
0.9512150493392256
 30
0.0
 10
-6.032811726503065
 20
1.248280869230255
 30
0.0
 10
-6.054844684841192
 20
1.539872692147469
 30
0.0
 10
-6.0701930880668
 20
1.738113285819053
 30
0.0
 10
-6.085649072661638
 20
1.931827332396778
 30
0.0
 10
-6.101244107838121
 20
2.12000972541034
 30
0.0
  0
ARC
  5
B8C
330
18
100
AcDbEntity
  8
SK1
100
AcDbCircle
 10
-4.569308000003636
 20
4.084009000000037
 30
0.0
 40
0.026048
100
AcDbArc
 50
92.27490999999981
 51
130.3047999999989
  0
SPLINE
  5
B8D
330
18
100
AcDbEntity
  8
SK1
100
AcDbSpline
210
0.0
220
0.0
230
1.0
 70
     8
 71
     5
 72
    18
 73
    12
 74
     0
 42
0.0000000001
 43
0.0000000001
 40
0.0
 40
0.0
 40
0.0
 40
0.0
 40
0.0
 40
0.0
 40
2.308024034849518
 40
2.308024034849518
 40
2.308024034849518
 40
4.771499691579736
 40
4.771499691579736
 40
4.771499691579736
 40
6.181046959347028
 40
6.181046959347028
 40
6.181046959347028
 40
6.181046959347028
 40
6.181046959347028
 40
6.181046959347028
 10
-4.570340378695134
 20
4.109999999899968
 30
0.0
 10
-4.546725118232816
 20
4.110002327929066
 30
0.0
 10
-4.52310898053922
 20
4.076159769915761
 30
0.0
 10
-4.499655621047842
 20
4.009521073896507
 30
0.0
 10
-4.450449988771679
 20
3.798955544723412
 30
0.0
 10
-4.403077958299127
 20
3.468922232725843
 30
0.0
 10
-4.378473697111591
 20
3.265107413629038
 30
0.0
 10
-4.342605096515786
 20
2.929981686166626
 30
0.0
 10
-4.307940925592318
 20
2.55475430769644
 30
0.0
 10
-4.295462419618856
 20
2.413481964967218
 30
0.0
 10
-4.283123039334931
 20
2.268428637601231
 30
0.0
 10
-4.270891136062348
 20
2.12000972541034
 30
0.0
  0
ARC
  5
B8F
330
18
100
AcDbEntity
  8
SK1
100
AcDbCircle
 10
-3.654343000003634
 20
-4.084040999999955
 30
0.0
 40
0.026017
100
AcDbArc
 50
229.6811219999984
 51
267.714572
  0
SPLINE
  5
B90
330
18
100
AcDbEntity
  8
SK1
100
AcDbSpline
210
0.0
220
0.0
230
1.0
 70
     8
 71
     5
 72
    24
 73
    18
 74
     0
 42
0.0000000001
 43
0.0000000001
 40
0.0
 40
0.0
 40
0.0
 40
0.0
 40
0.0
 40
0.0
 40
1.539946997989986
 40
1.539946997989986
 40
1.539946997989986
 40
3.994516660175591
 40
3.994516660175591
 40
3.994516660175591
 40
6.65237942272599
 40
6.65237942272599
 40
6.65237942272599
 40
11.00418664064765
 40
11.00418664064765
 40
11.00418664064765
 40
13.53160466674492
 40
13.53160466674492
 40
13.53160466674492
 40
13.53160466674492
 40
13.53160466674492
 40
13.53160466674492
 10
-3.671204432535413
 20
-4.103910032407497
 30
0.0
 10
-3.68643767353021
 20
-4.092195716806486
 30
0.0
 10
-3.701567428290779
 20
-4.066502408520648
 30
0.0
 10
-3.71665014895899
 20
-4.027853304173048
 30
0.0
 10
-3.757067340063506
 20
-3.885780813729638
 30
0.0
 10
-3.796592127886121
 20
-3.656402958548709
 30
0.0
 10
-3.820589932226855
 20
-3.485409845510446
 30
0.0
 10
-3.86900691653487
 20
-3.083334883464658
 30
0.0
 10
-3.915369904308441
 20
-2.596185843907335
 30
0.0
 10
-3.938984819855341
 20
-2.324774364465667
 30
0.0
 10
-3.99960669862709
 20
-1.582409724897899
 30
0.0
 10
-4.057963523586181
 20
-0.7780828858358291
 30
0.0
 10
-4.091621838117602
 20
-0.3016014310431956
 30
0.0
 10
-4.1489255416665
 20
0.5128562969736663
 30
0.0
 10
-4.206582073980921
 20
1.300017394412917
 30
0.0
 10
-4.227371340701051
 20
1.576938149522675
 30
0.0
 10
-4.248958467659129
 20
1.853884109999683
 30
0.0
 10
-4.270891136063776
 20
2.12000972541034
 30
0.0
  0
ARC
  5
B92
330
18
100
AcDbEntity
  8
SK1
100
AcDbCircle
 10
-2.739365000003636
 20
4.083727000000067
 30
0.0
 40
0.026331
100
AcDbArc
 50
92.2592059999998
 51
130.4178479999986
  0
SPLINE
  5
B93
330
18
100
AcDbEntity
  8
SK1
100
AcDbSpline
210
0.0
220
0.0
230
1.0
 70
     8
 71
     5
 72
    15
 73
     9
 74
     0
 42
0.0000000001
 43
0.0000000001
 40
0.0
 40
0.0
 40
0.0
 40
0.0
 40
0.0
 40
0.0
 40
2.942497844375836
 40
2.942497844375836
 40
2.942497844375836
 40
6.279919037850739
 40
6.279919037850739
 40
6.279919037850739
 40
6.279919037850739
 40
6.279919037850739
 40
6.279919037850739
 10
-2.740401905577242
 20
4.109999996041779
 30
0.0
 10
-2.710193801002904
 20
4.109981352071712
 30
0.0
 10
-2.680188165618104
 20
4.055078373328853
 30
0.0
 10
-2.650734543353975
 20
3.947302926190218
 30
0.0
 10
-2.58833763291912
 20
3.609885093402908
 30
0.0
 10
-2.529591541971636
 20
3.100927890190178
 30
0.0
 10
-2.500034296428076
 20
2.803377341019768
 30
0.0
 10
-2.470243538094877
 20
2.471344396397511
 30
0.0
 10
-2.441020421671872
 20
2.12000972541034
 30
0.0
  0
ARC
  5
B95
330
18
100
AcDbEntity
  8
SK1
100
AcDbCircle
 10
-1.824745000003638
 20
-4.083873999999923
 30
0.0
 40
0.026185
100
AcDbArc
 50
229.5071629999988
 51
267.714766
  0
SPLINE
  5
B96
330
18
100
AcDbEntity
  8
SK1
100
AcDbSpline
210
0.0
220
0.0
230
1.0
 70
     8
 71
     5
 72
    21
 73
    15
 74
     0
 42
0.0000000001
 43
0.0000000001
 40
0.0
 40
0.0
 40
0.0
 40
0.0
 40
0.0
 40
0.0
 40
2.732083091501409
 40
2.732083091501409
 40
2.732083091501409
 40
5.284502079236246
 40
5.284502079236246
 40
5.284502079236246
 40
8.065389272460322
 40
8.065389272460322
 40
8.065389272460322
 40
13.43714552506839
 40
13.43714552506839
 40
13.43714552506839
 40
13.43714552506839
 40
13.43714552506839
 40
13.43714552506839
 10
-1.841775721284911
 20
-4.103819698362939
 30
0.0
 10
-1.869874859762113
 20
-4.082086850959227
 30
0.0
 10
-1.897894321027955
 20
-4.012621610322354
 30
0.0
 10
-1.925327724460252
 20
-3.896036934928417
 30
0.0
 10
-1.976884132114705
 20
-3.599807734720228
 30
0.0
 10
-2.026695157924431
 20
-3.182168016765273
 30
0.0
 10
-2.050467905213423
 20
-2.95613097526808
 30
0.0
 10
-2.099140235447584
 20
-2.446209580165201
 30
0.0
 10
-2.145643432832065
 20
-1.879213390035545
 30
0.0
 10
-2.168091724431966
 20
-1.589943873120545
 30
0.0
 10
-2.236817143692888
 20
-0.6679648821912565
 30
0.0
 10
-2.303750470181526
 20
0.2992154563805229
 30
0.0
 10
-2.348418656342579
 20
0.9390235508572571
 30
0.0
 10
-2.393984267325815
 20
1.554517956099515
 30
0.0
 10
-2.441020421669435
 20
2.12000972541034
 30
0.0
  0
SPLINE
  5
B9C
330
18
100
AcDbEntity
  8
SK1
100
AcDbSpline
210
0.0
220
0.0
230
1.0
 70
     8
 71
     5
 72
    24
 73
    18
 74
     0
 42
0.0000000001
 43
0.0000000001
 40
0.0
 40
0.0
 40
0.0
 40
0.0
 40
0.0
 40
0.0
 40
2.135423142186164
 40
2.135423142186164
 40
2.135423142186164
 40
6.837310469433409
 40
6.837310469433409
 40
6.837310469433409
 40
12.33122701178749
 40
12.33122701178749
 40
12.33122701178749
 40
14.34789648471737
 40
14.34789648471737
 40
14.34789648471737
 40
15.10279198628309
 40
15.10279198628309
 40
15.10279198628309
 40
15.10279198628309
 40
15.10279198628309
 40
15.10279198628309
 10
-1.955439673774876
 20
-3.912083234313115
 30
0.0
 10
-1.98618339569825
 20
-3.814224849185676
 30
0.0
 10
-2.015985054012126
 20
-3.664792878525588
 30
0.0
 10
-2.044556102107073
 20
-3.473582646771603
 30
0.0
 10
-2.131562493566895
 20
-2.776685346056979
 30
0.0
 10
-2.207992060243924
 20
-1.86493144172374
 30
0.0
 10
-2.257481569816731
 20
-1.213543468614544
 30
0.0
 10
-2.363002453681602
 20
0.2515337885129156
 30
0.0
 10
-2.469492229616281
 20
1.708786023461414
 30
0.0
 10
-2.530635481811948
 20
2.476351879502145
 30
0.0
 10
-2.621127197575269
 20
3.421986045638333
 30
0.0
 10
-2.726302730797293
 20
3.910536080587235
 30
0.0
 10
-2.755565320079298
 20
3.999395723566123
 30
0.0
 10
-2.796618517949589
 20
4.047014569434394
 30
0.0
 10
-2.837412392931192
 20
3.995866883112284
 30
0.0
 10
-2.848551355848133
 20
3.974522502661386
 30
0.0
 10
-2.859524315391374
 20
3.946403963182774
 30
0.0
 10
-2.870391228882538
 20
3.911815252489361
 30
0.0
  0
SPLINE
  5
B9E
330
18
100
AcDbEntity
  8
SK1
100
AcDbSpline
210
0.0
220
0.0
230
1.0
 70
     8
 71
     5
 72
    24
 73
    18
 74
     0
 42
0.0000000001
 43
0.0000000001
 40
0.0
 40
0.0
 40
0.0
 40
0.0
 40
0.0
 40
0.0
 40
2.123477453510929
 40
2.123477453510929
 40
2.123477453510929
 40
6.817209016214667
 40
6.817209016214667
 40
6.817209016214667
 40
12.28123677426226
 40
12.28123677426226
 40
12.28123677426226
 40
13.8185847044982
 40
13.8185847044982
 40
13.8185847044982
 40
15.06044485755187
 40
15.06044485755187
 40
15.06044485755187
 40
15.06044485755187
 40
15.06044485755187
 40
15.06044485755187
 10
-3.785442726718723
 20
-3.911616331422918
 30
0.0
 10
-3.816248563166779
 20
-3.813571921672859
 30
0.0
 10
-3.846123236254996
 20
-3.663873531321313
 30
0.0
 10
-3.874731941168811
 20
-3.472555715448208
 30
0.0
 10
-3.961913006929826
 20
-2.77507866032772
 30
0.0
 10
-4.038058608890761
 20
-1.865689927018308
 30
0.0
 10
-4.087094755101961
 20
-1.219192514958534
 30
0.0
 10
-4.191715870836326
 20
0.2349803821944647
 30
0.0
 10
-4.297358928435456
 20
1.681282109625158
 30
0.0
 10
-4.358975477330409
 20
2.456981728716243
 30
0.0
 10
-4.443580113735136
 20
3.347557776353596
 30
0.0
 10
-4.541436375944158
 20
3.840268050922303
 30
0.0
 10
-4.56356198780413
 20
3.925087542908896
 30
0.0
 10
-4.604405692582459
 20
4.026316322443506
 30
0.0
 10
-4.645827601600871
 20
4.028141965166979
 30
0.0
 10
-4.664276838145126
 20
4.008232821637817
 30
0.0
 10
-4.682532473584521
 20
3.968639733455916
 30
0.0
 10
-4.700479991654623
 20
3.911459932510353
 30
0.0
  0
SPLINE
  5
BA0
330
18
100
AcDbEntity
  8
SK1
100
AcDbSpline
210
0.0
220
0.0
230
1.0
 70
     8
 71
     5
 72
    24
 73
    18
 74
     0
 42
0.0000000001
 43
0.0000000001
 40
0.0
 40
0.0
 40
0.0
 40
0.0
 40
0.0
 40
0.0
 40
2.125081581792056
 40
2.125081581792056
 40
2.125081581792056
 40
6.822690108146717
 40
6.822690108146717
 40
6.822690108146717
 40
12.30204469180516
 40
12.30204469180516
 40
12.30204469180516
 40
14.32323857227727
 40
14.32323857227727
 40
14.32323857227727
 40
15.0814184485738
 40
15.0814184485738
 40
15.0814184485738
 40
15.0814184485738
 40
15.0814184485738
 40
15.0814184485738
 10
-5.615440736181201
 20
-3.911697143466141
 30
0.0
 10
-5.646202442684571
 20
-3.813791184858415
 30
0.0
 10
-5.676028075962142
 20
-3.664302599532163
 30
0.0
 10
-5.704615247155394
 20
-3.473036034607502
 30
0.0
 10
-5.791853785983484
 20
-2.774588137108706
 30
0.0
 10
-5.868331063622441
 20
-1.861494209057184
 30
0.0
 10
-5.917904699828056
 20
-1.208542484462497
 30
0.0
 10
-6.023313203626138
 20
0.2564743946408612
 30
0.0
 10
-6.129555402308746
 20
1.709037430436524
 30
0.0
 10
-6.190634309756897
 20
2.474599892078798
 30
0.0
 10
-6.280723481444152
 20
3.417751237354933
 30
0.0
 10
-6.385657242155004
 20
3.908565599633107
 30
0.0
 10
-6.414993993944378
 20
3.998588275606209
 30
0.0
 10
-6.456220232873293
 20
4.047358941641049
 30
0.0
 10
-6.497223869554273
 20
3.996372792998215
 30
0.0
 10
-6.508440610867872
 20
3.974944984533293
 30
0.0
 10
-6.519489251891577
 20
3.946647905803445
 30
0.0
 10
-6.53043078723028
 20
3.911792849622145
 30
0.0
  0
SPLINE
  5
BA2
330
18
100
AcDbEntity
  8
SK1
100
AcDbSpline
210
0.0
220
0.0
230
1.0
 70
     8
 71
     5
 72
    15
 73
     9
 74
     0
 42
0.0000000001
 43
0.0000000001
 40
0.0
 40
0.0
 40
0.0
 40
0.0
 40
0.0
 40
0.0
 40
1.776027687474973
 40
1.776027687474973
 40
1.776027687474973
 40
2.280486183886782
 40
2.280486183886782
 40
2.280486183886782
 40
2.280486183886782
 40
2.280486183886782
 40
2.280486183886782
 10
-7.445547002300092
 20
-3.911458497978685
 30
0.0
 10
-7.471272189927939
 20
-3.829587358917251
 30
0.0
 10
-7.496329526441705
 20
-3.711772760723818
 30
0.0
 10
-7.520506661156646
 20
-3.563920430463268
 30
0.0
 10
-7.550282716987644
 20
-3.346814385784908
 30
0.0
 10
-7.578729682184704
 20
-3.101579348869107
 30
0.0
 10
-7.584963904531361
 20
-3.046027550285941
 30
0.0
 10
-7.591133599839713
 20
-2.989348222616228
 30
0.0
 10
-7.59724582708678
 20
-2.931591133519418
 30
0.0
  0
SPLINE
  5
BA7
330
18
100
AcDbEntity
  8
SK1
100
AcDbSpline
210
0.0
220
0.0
230
1.0
 70
     8
 71
     5
 72
    24
 73
    18
 74
     0
 42
0.0000000001
 43
0.0000000001
 40
0.0
 40
0.0
 40
0.0
 40
0.0
 40
0.0
 40
0.0
 40
2.209037220835731
 40
2.209037220835731
 40
2.209037220835731
 40
6.882966209543937
 40
6.882966209543937
 40
6.882966209543937
 40
12.15893708425508
 40
12.15893708425508
 40
12.15893708425508
 40
14.00246432956558
 40
14.00246432956558
 40
14.00246432956558
 40
14.77455865218692
 40
14.77455865218692
 40
14.77455865218692
 40
14.77455865218692
 40
14.77455865218692
 40
14.77455865218692
 10
-2.038931796484876
 20
-3.646807498903796
 30
0.0
 10
-2.070736595459165
 20
-3.545949442326957
 30
0.0
 10
-2.101603082960123
 20
-3.393619768160191
 30
0.0
 10
-2.131262138671302
 20
-3.199523998785821
 30
0.0
 10
-2.219413880407461
 20
-2.511418733071764
 30
0.0
 10
-2.297813007278403
 20
-1.618498485779639
 30
0.0
 10
-2.348428933219635
 20
-0.9854517818118891
 30
0.0
 10
-2.454503292739835
 20
0.403942169536265
 30
0.0
 10
-2.56265194286923
 20
1.768105144568777
 30
0.0
 10
-2.62494302839919
 20
2.482589089216445
 30
0.0
 10
-2.714633549476984
 20
3.302843321259501
 30
0.0
 10
-2.816032515351558
 20
3.689117832782357
 30
0.0
 10
-2.842959379900843
 20
3.753291328210308
 30
0.0
 10
-2.881695459331986
 20
3.784258475000683
 30
0.0
 10
-2.92017406704187
 20
3.733061260635793
 30
0.0
 10
-2.931553937725502
 20
3.710726071463794
 30
0.0
 10
-2.942775274844631
 20
3.681783919614701
 30
0.0
 10
-2.953894031834209
 20
3.646523983943096
 30
0.0
  0
SPLINE
  5
BA9
330
18
100
AcDbEntity
  8
SK1
100
AcDbSpline
210
0.0
220
0.0
230
1.0
 70
     8
 71
     5
 72
    24
 73
    18
 74
     0
 42
0.0000000001
 43
0.0000000001
 40
0.0
 40
0.0
 40
0.0
 40
0.0
 40
0.0
 40
0.0
 40
2.197065980912264
 40
2.197065980912264
 40
2.197065980912264
 40
6.863318552899583
 40
6.863318552899583
 40
6.863318552899583
 40
11.22332334895346
 40
11.22332334895346
 40
11.22332334895346
 40
13.00349427732596
 40
13.00349427732596
 40
13.00349427732596
 40
14.79415659070512
 40
14.79415659070512
 40
14.79415659070512
 40
14.79415659070512
 40
14.79415659070512
 40
14.79415659070512
 10
-3.868946965250183
 20
-3.646335209608877
 30
0.0
 10
-3.900824582052685
 20
-3.545261473557558
 30
0.0
 10
-3.931771724803578
 20
-3.392631196017816
 30
0.0
 10
-3.961470116487233
 20
-3.198403616064921
 30
0.0
 10
-4.049778168917555
 20
-2.509765720890299
 30
0.0
 10
-4.127851933420362
 20
-1.619377458585801
 30
0.0
 10
-4.177960645916313
 20
-0.9914980757561123
 30
0.0
 10
-4.273682864205581
 20
0.2634325469132364
 30
0.0
 10
-4.37120975685783
 20
1.498558957126362
 30
0.0
 10
-4.420223495655959
 20
2.076778114781234
 30
0.0
 10
-4.493490569468376
 20
2.834883915560452
 30
0.0
 10
-4.575810923837688
 20
3.376701862031381
 30
0.0
 10
-4.6005608219956
 20
3.511091308448385
 30
0.0
 10
-4.651696634253728
 20
3.718899861761258
 30
0.0
 10
-4.704820800081137
 20
3.784467794644228
 30
0.0
 10
-4.73154144935199
 20
3.776449332646961
 30
0.0
 10
-4.758021142491002
 20
3.728497046310621
 30
0.0
 10
-4.783906819217293
 20
3.646419947628486
 30
0.0
  0
SPLINE
  5
BAB
330
18
100
AcDbEntity
  8
SK1
100
AcDbSpline
210
0.0
220
0.0
230
1.0
 70
     8
 71
     5
 72
    24
 73
    18
 74
     0
 42
0.0000000001
 43
0.0000000001
 40
0.0
 40
0.0
 40
0.0
 40
0.0
 40
0.0
 40
0.0
 40
2.198219013514496
 40
2.198219013514496
 40
2.198219013514496
 40
6.868030085481446
 40
6.868030085481446
 40
6.868030085481446
 40
12.1329270111118
 40
12.1329270111118
 40
12.1329270111118
 40
13.98018678531213
 40
13.98018678531213
 40
13.98018678531213
 40
14.75679641451716
 40
14.75679641451716
 40
14.75679641451716
 40
14.75679641451716
 40
14.75679641451716
 40
14.75679641451716
 10
-5.698936829386957
 20
-3.646435546868758
 30
0.0
 10
-5.730760424061322
 20
-3.545530211869731
 30
0.0
 10
-5.761651841115432
 20
-3.393144409487603
 30
0.0
 10
-5.791327394627927
 20
-3.198993376345981
 30
0.0
 10
-5.879713994039572
 20
-2.509344595021274
 30
0.0
 10
-5.958161016741057
 20
-1.615110611519411
 30
0.0
 10
-6.008792669301081
 20
-0.9813252110146775
 30
0.0
 10
-6.114790335182897
 20
0.4082860999487822
 30
0.0
 10
-6.222688941843848
 20
1.767700804053845
 30
0.0
 10
-6.284728930869063
 20
2.478766298163406
 30
0.0
 10
-6.374034060869771
 20
3.297988127233167
 30
0.0
 10
-6.475262249939183
 20
3.687196557586901
 30
0.0
 10
-6.502256614570832
 20
3.752467651321751
 30
0.0
 10
-6.541173175406182
 20
3.784656656136916
 30
0.0
 10
-6.579865839090846
 20
3.733780295202108
 30
0.0
 10
-6.591343393024268
 20
3.711371658660993
 30
0.0
 10
-6.602659921505281
 20
3.682240882160556
 30
0.0
 10
-6.613872554835044
 20
3.646685748198364
 30
0.0
  0
SPLINE
  5
BAD
330
18
100
AcDbEntity
  8
SK1
100
AcDbSpline
210
0.0
220
0.0
230
1.0
 70
     8
 71
     5
 72
    15
 73
     9
 74
     0
 42
0.0000000001
 43
0.0000000001
 40
0.0
 40
0.0
 40
0.0
 40
0.0
 40
0.0
 40
0.0
 40
2.046814395914413
 40
2.046814395914413
 40
2.046814395914413
 40
2.631640536085991
 40
2.631640536085991
 40
2.631640536085991
 40
2.631640536085991
 40
2.631640536085991
 40
2.631640536085991
 10
-7.529052673514637
 20
-3.646183689925463
 30
0.0
 10
-7.558700749691438
 20
-3.552182811467446
 30
0.0
 10
-7.587520418838823
 20
-3.413668809985551
 30
0.0
 10
-7.615256405854808
 20
-3.238658662024988
 30
0.0
 10
-7.649348345818932
 20
-2.982341298369589
 30
0.0
 10
-7.681892848813919
 20
-2.694114094008853
 30
0.0
 10
-7.689057115490284
 20
-2.628585572507971
 30
0.0
 10
-7.696147665088505
 20
-2.56179501030624
 30
0.0
 10
-7.703173278872077
 20
-2.493810445658994
 30
0.0
  0
LINE
  5
BB8
330
18
100
AcDbEntity
  8
SK1
 48
0.04975
100
AcDbLine
 10
-1.694250000003638
 20
2.120010000000035
 30
0.0
 11
-1.694250000003638
 21
4.110000000000069
 31
0.0
  0
LINE
  5
BB9
330
18
100
AcDbEntity
  8
SK1
 48
0.15575
100
AcDbLine
 10
-1.694250000003638
 20
-4.109999999999955
 30
0.0
 11
-1.694250000003638
 21
2.120010000000035
 31
0.0
  0
LINE
  5
BBD
330
18
100
AcDbEntity
  8
SK1
 48
0.161525
100
AcDbLine
 10
-1.500000000003637
 20
-4.26238799999993
 30
0.0
 11
-1.500000000003637
 21
2.198614000000076
 31
0.0
  0
LINE
  5
BC2
330
18
100
AcDbEntity
  8
SK1
 48
0.051594
100
AcDbLine
 10
-1.500000000003637
 20
2.198614000000076
 30
0.0
 11
-1.500000000003637
 21
4.262388000000044
 31
0.0
  0
LINE
  5
BC3
330
18
100
AcDbEntity
  8
SK1
 48
0.164128
100
AcDbLine
 10
-0.1895330000036388
 20
-4.33106699999996
 30
0.0
 11
-0.1895330000036388
 21
2.234040000000049
 31
0.0
  0
LINE
  5
BC6
330
18
100
AcDbEntity
  8
SK1
 48
0.052426
100
AcDbLine
 10
-0.1895330000036388
 20
2.234040000000049
 30
0.0
 11
-0.1895330000036388
 21
4.331067000000075
 31
0.0
  0
LINE
  5
BC7
330
18
100
AcDbEntity
  8
1
 48
0.269902
370
    35
100
AcDbLine
 10
-0.000000000003638
 20
-5.749999999999943
 30
0.0
 11
-0.000000000003638
 21
5.046100000000079
 31
0.0
  0
LINE
  5
BC8
330
18
100
AcDbEntity
  8
1
 48
0.017598
370
    35
100
AcDbLine
 10
-0.000000000003638
 20
5.046100000000079
 30
0.0
 11
-0.000000000003638
 21
5.750000000000056
 31
0.0
  0
ELLIPSE
  5
BD1
330
18
100
AcDbEntity
  8
1
370
    35
100
AcDbEllipse
 10
2.540871999996361
 20
0.0002510000000484
 30
0.0
 11
-0.0000787787648733
 21
-5.750310897827147
 31
0.0
210
0.0
220
0.0
230
1.0
 40
0.267963
 41
4.280717146578587
 42
5.144164129392011
  0
SPLINE
  5
BD2
330
18
100
AcDbEntity
  8
1
370
    35
100
AcDbSpline
210
0.0
220
0.0
230
1.0
 70
     8
 71
     5
 72
    24
 73
    18
 74
     0
 42
0.0000000001
 43
0.0000000001
 40
0.0
 40
0.0
 40
0.0
 40
0.0
 40
0.0
 40
0.0
 40
0.0531890077746743
 40
0.0531890077746743
 40
0.0531890077746743
 40
0.1063780155493481
 40
0.1063780155493481
 40
0.1063780155493481
 40
0.3176032040985919
 40
0.3176032040985919
 40
0.3176032040985919
 40
0.8312345385144064
 40
0.8312345385144064
 40
0.8312345385144064
 40
1.030260921413066
 40
1.030260921413066
 40
1.030260921413066
 40
1.030260921413066
 40
1.030260921413066
 40
1.030260921413066
 10
1.431159990713389
 20
-2.839454172900103
 30
0.0
 10
1.425018253122065
 20
-2.839454172900103
 30
0.0
 10
1.418876470798291
 20
-2.839452341092965
 30
0.0
 10
1.412701469466766
 20
-2.838801693747426
 30
0.0
 10
1.40050931036665
 20
-2.836940385723493
 30
0.0
 10
1.388582658464165
 20
-2.834239006960558
 30
0.0
 10
1.382681301954995
 20
-2.832657696890406
 30
0.0
 10
1.353748853286994
 20
-2.823486009488475
 30
0.0
 10
1.327262081766228
 20
-2.808822819406542
 30
0.0
 10
1.307812211811991
 20
-2.794182637686275
 30
0.0
 10
1.249092738679735
 20
-2.739575490634648
 30
0.0
 10
1.20950070806051
 20
-2.669614287973273
 30
0.0
 10
1.188294056732402
 20
-2.618489445731256
 30
0.0
 10
1.165670770117094
 20
-2.545296784021218
 30
0.0
 10
1.150752877952939
 20
-2.469982480118857
 30
0.0
 10
1.147131054599312
 20
-2.448789882852508
 30
0.0
 10
1.144020185795432
 20
-2.42750896720173
 30
0.0
 10
1.141382242826668
 20
-2.406141248263735
 30
0.0
  0
LINE
  5
BD3
330
18
100
AcDbEntity
  8
1
 48
0.11099
370
    35
100
AcDbLine
 10
1.43115999999636
 20
-2.839453999999931
 30
0.0
 11
5.870763999996361
 21
-2.839453999999931
 31
0.0
  0
SPLINE
  5
BD4
102
{ACAD_REACTORS
330
EDB
102
}
330
18
100
AcDbEntity
  8
1
370
    35
100
AcDbSpline
210
0.0
220
0.0
230
1.0
 70
     8
 71
     5
 72
    24
 73
    18
 74
     0
 42
0.0000000001
 43
0.0000000001
 40
0.0
 40
0.0
 40
0.0
 40
0.0
 40
0.0
 40
0.0
 40
0.0531890077745315
 40
0.0531890077745315
 40
0.0531890077745315
 40
0.1063780155490628
 40
0.1063780155490628
 40
0.1063780155490628
 40
0.3176032040977515
 40
0.3176032040977515
 40
0.3176032040977515
 40
0.8312345385136314
 40
0.8312345385136314
 40
0.8312345385136314
 40
1.030260921412025
 40
1.030260921412025
 40
1.030260921412025
 40
1.030260921412025
 40
1.030260921412025
 40
1.030260921412025
 10
5.870763797926012
 20
-2.839454172900103
 30
0.0
 10
5.876905535517321
 20
-2.839454172900103
 30
0.0
 10
5.883047317841075
 20
-2.839452341092965
 30
0.0
 10
5.889222319172585
 20
-2.838801693747426
 30
0.0
 10
5.901414478272672
 20
-2.836940385723493
 30
0.0
 10
5.913341130175122
 20
-2.834239006960615
 30
0.0
 10
5.919242486684278
 20
-2.832657696890406
 30
0.0
 10
5.948174935352215
 20
-2.823486009488533
 30
0.0
 10
5.974661706872924
 20
-2.808822819406656
 30
0.0
 10
5.99411157682714
 20
-2.794182637686445
 30
0.0
 10
6.052831049959433
 20
-2.73957549063499
 30
0.0
 10
6.092423080578703
 20
-2.669614287973615
 30
0.0
 10
6.113629731906707
 20
-2.618489445732051
 30
0.0
 10
6.136253018522288
 20
-2.545296784021388
 30
0.0
 10
6.151170910686477
 20
-2.4699824801188
 30
0.0
 10
6.154792734040107
 20
-2.448789882852451
 30
0.0
 10
6.157903602843968
 20
-2.427508967201673
 30
0.0
 10
6.160541545812732
 20
-2.406141248263735
 30
0.0
  0
ELLIPSE
  5
BD5
330
18
100
AcDbEntity
  8
1
370
    35
100
AcDbEllipse
 10
4.761051999996361
 20
0.0002510000000484
 30
0.0
 11
0.0000787787939771
 21
-5.750310897827148
 31
0.0
210
0.0
220
0.0
230
0.9999999999999998
 40
0.267963
 41
1.139021177781811
 42
2.002468160571045
  0
SPLINE
  5
BD6
330
18
100
AcDbEntity
  8
1
370
    35
100
AcDbSpline
210
0.0
220
0.0
230
1.0
 70
     8
 71
     5
 72
    24
 73
    18
 74
     0
 42
0.0000000001
 43
0.0000000001
 40
0.0
 40
0.0
 40
0.0
 40
0.0
 40
0.0
 40
0.0
 40
0.0531890077746797
 40
0.0531890077746797
 40
0.0531890077746797
 40
0.1063780155493603
 40
0.1063780155493603
 40
0.1063780155493603
 40
0.3176032040986304
 40
0.3176032040986304
 40
0.3176032040986304
 40
0.8312345385152221
 40
0.8312345385152221
 40
0.8312345385152221
 40
1.0302609214139
 40
1.0302609214139
 40
1.0302609214139
 40
1.0302609214139
 40
1.0302609214139
 40
1.0302609214139
 10
5.870763797926012
 20
2.839454172900218
 30
0.0
 10
5.87690553551734
 20
2.839454172900218
 30
0.0
 10
5.883047317841111
 20
2.839452341093078
 30
0.0
 10
5.889222319172637
 20
2.838801693747541
 30
0.0
 10
5.901414478272759
 20
2.836940385723607
 30
0.0
 10
5.91334113017524
 20
2.834239006960672
 30
0.0
 10
5.91924248668441
 20
2.832657696890463
 30
0.0
 10
5.948174935352418
 20
2.823486009488589
 30
0.0
 10
5.974661706873182
 20
2.8088228194066
 30
0.0
 10
5.994111576827421
 20
2.794182637686333
 30
0.0
 10
6.052831049959748
 20
2.739575490634706
 30
0.0
 10
6.092423080578945
 20
2.669614287973161
 30
0.0
 10
6.113629731906954
 20
2.618489445731484
 30
0.0
 10
6.136253018522288
 20
2.545296784021445
 30
0.0
 10
6.151170910686459
 20
2.469982480118971
 30
0.0
 10
6.154792734040092
 20
2.448789882852621
 30
0.0
 10
6.157903602843965
 20
2.427508967201845
 30
0.0
 10
6.160541545812732
 20
2.40614124826385
 30
0.0
  0
LINE
  5
BD7
330
18
100
AcDbEntity
  8
1
 48
0.11099
370
    35
100
AcDbLine
 10
1.43115999999636
 20
2.839454000000046
 30
0.0
 11
5.870763999996361
 21
2.839454000000046
 31
0.0
  0
SPLINE
  5
BD8
330
18
100
AcDbEntity
  8
1
370
    35
100
AcDbSpline
210
0.0
220
0.0
230
1.0
 70
     8
 71
     5
 72
    24
 73
    18
 74
     0
 42
0.0000000001
 43
0.0000000001
 40
0.0
 40
0.0
 40
0.0
 40
0.0
 40
0.0
 40
0.0
 40
0.0531890077742998
 40
0.0531890077742998
 40
0.0531890077742998
 40
0.1063780155485999
 40
0.1063780155485999
 40
0.1063780155485999
 40
0.3176032040963807
 40
0.3176032040963807
 40
0.3176032040963807
 40
0.8312345385103482
 40
0.8312345385103482
 40
0.8312345385103482
 40
1.030260921408305
 40
1.030260921408305
 40
1.030260921408305
 40
1.030260921408305
 40
1.030260921408305
 40
1.030260921408305
 10
1.431159990713389
 20
2.839454172900218
 30
0.0
 10
1.425018253122104
 20
2.839454172900218
 30
0.0
 10
1.418876470798377
 20
2.839452341093078
 30
0.0
 10
1.412701469466899
 20
2.838801693747541
 30
0.0
 10
1.400509310366859
 20
2.836940385723663
 30
0.0
 10
1.388582658464457
 20
2.834239006960728
 30
0.0
 10
1.382681301955329
 20
2.832657696890578
 30
0.0
 10
1.353748853287504
 20
2.823486009488816
 30
0.0
 10
1.32726208176687
 20
2.808822819406998
 30
0.0
 10
1.307812211812712
 20
2.794182637686901
 30
0.0
 10
1.249092738680495
 20
2.739575490635786
 30
0.0
 10
1.209500708061272
 20
2.669614287974751
 30
0.0
 10
1.188294056732978
 20
2.618489445733131
 30
0.0
 10
1.165670770117116
 20
2.545296784021445
 30
0.0
 10
1.150752877952896
 20
2.469982480118744
 30
0.0
 10
1.147131054599284
 20
2.448789882852451
 30
0.0
 10
1.144020185795425
 20
2.42750896720173
 30
0.0
 10
1.141382242826665
 20
2.40614124826385
 30
0.0
  0
LINE
  5
BD9
330
18
100
AcDbEntity
  8
1
 48
0.120307
370
    13
100
AcDbLine
 10
1.141381999996362
 20
2.406141000000046
 30
0.0
 11
1.141381999996362
 21
-2.406140999999934
 31
0.0
  0
LINE
  5
BDA
330
18
100
AcDbEntity
  8
1
 48
0.141973
370
    13
100
AcDbLine
 10
1.43115999999636
 20
2.839454000000046
 30
0.0
 11
1.43115999999636
 21
-2.839453999999931
 31
0.0
  0
LINE
  5
BDB
330
18
100
AcDbEntity
  8
1
 48
0.141973
370
    13
100
AcDbLine
 10
5.870763999996361
 20
2.839454000000046
 30
0.0
 11
5.870763999996361
 21
-2.839453999999931
 31
0.0
  0
LINE
  5
BDC
330
18
100
AcDbEntity
  8
1
 48
0.120307
370
    13
100
AcDbLine
 10
6.160541999996361
 20
2.406141000000046
 30
0.0
 11
6.160541999996361
 21
-2.406140999999934
 31
0.0
  0
LINE
  5
BE1
330
18
100
AcDbEntity
  8
SK1
 48
0.018336
100
AcDbLine
 10
-7.241521000003636
 20
3.619197000000041
 30
0.0
 11
-7.950000000003638
 21
3.429405000000031
 31
0.0
  0
ARC
  5
BE2
330
18
100
AcDbEntity
  8
SK1
100
AcDbCircle
 10
-7.186816000003638
 20
3.798219000000073
 30
0.0
 40
0.177934
100
AcDbArc
 50
256.1191680000008
 51
269.9637579999999
  0
ARC
  5
BE3
330
18
100
AcDbEntity
  8
SK1
100
AcDbCircle
 10
-6.275822000003638
 20
-3.782519999999919
 30
0.0
 40
0.16223
100
AcDbArc
 50
88.6426499999998
 51
143.6257060000006
  0
ARC
  5
BE5
330
18
100
AcDbEntity
  8
SK1
100
AcDbCircle
 10
-5.359647000003636
 20
3.785769000000071
 30
0.0
 40
0.165605
100
AcDbArc
 50
219.9183079999998
 51
270.9309480000001
  0
ARC
  5
BE7
330
18
100
AcDbEntity
  8
SK1
100
AcDbCircle
 10
-4.445954000003637
 20
-3.782142999999961
 30
0.0
 40
0.161815
100
AcDbArc
 50
88.56910200000015
 51
143.6560229999996
  0
ARC
  5
BE9
330
18
100
AcDbEntity
  8
SK1
100
AcDbCircle
 10
-3.529649000003636
 20
3.785903000000075
 30
0.0
 40
0.165636
100
AcDbArc
 50
219.9171540000011
 51
270.9347560000001
  0
ARC
  5
BEB
330
18
100
AcDbEntity
  8
SK1
100
AcDbCircle
 10
-2.616057000003638
 20
-3.782490999999936
 30
0.0
 40
0.161927
100
AcDbArc
 50
88.57867400000008
 51
143.6672250000004
  0
LINE
  5
BED
330
18
100
AcDbEntity
  8
SK1
 48
0.007551
100
AcDbLine
 10
-7.647943000003635
 20
-3.619999999999946
 30
0.0
 11
-7.950000000003638
 21
-3.619999999999946
 31
0.0
  0
LINE
  5
BEE
330
18
100
AcDbEntity
  8
SK1
 48
0.01135
100
AcDbLine
 10
-6.732912000003636
 20
3.620271000000058
 30
0.0
 11
-7.186928000003637
 21
3.620271000000058
 31
0.0
  0
LINE
  5
BEF
330
18
100
AcDbEntity
  8
SK1
 48
0.01135
100
AcDbLine
 10
-5.817956000003636
 20
-3.620018999999955
 30
0.0
 11
-6.271971000003638
 21
-3.620018999999955
 31
0.0
  0
LINE
  5
BF0
330
18
100
AcDbEntity
  8
SK1
 48
0.01135
100
AcDbLine
 10
-4.902937000003638
 20
3.619999000000063
 30
0.0
 11
-5.356953000003637
 21
3.619999000000063
 31
0.0
  0
LINE
  5
BF1
330
18
100
AcDbEntity
  8
SK1
 48
0.01135
100
AcDbLine
 10
-3.98788900000364
 20
-3.62003599999997
 30
0.0
 11
-4.441905000003636
 21
-3.62003599999997
 31
0.0
  0
LINE
  5
BF2
330
18
100
AcDbEntity
  8
SK1
 48
0.01135
100
AcDbLine
 10
-3.072944000003636
 20
3.620103000000028
 30
0.0
 11
-3.526944000003638
 21
3.620103000000028
 31
0.0
  0
LINE
  5
BF3
330
18
100
AcDbEntity
  8
SK1
 48
0.01135
100
AcDbLine
 10
-2.158017000003638
 20
-3.620273999999938
 30
0.0
 11
-2.612032000003636
 21
-3.620273999999938
 31
0.0
  0
LINE
  5
BF4
330
18
100
AcDbEntity
  8
SK1
 48
0.00718
100
AcDbLine
 10
-6.391018000003636
 20
-3.646544999999946
 30
0.0
 11
-6.477242000003638
 21
-3.92048799999992
 31
0.0
  0
LINE
  5
BF5
330
18
100
AcDbEntity
  8
SK1
 48
0.007178
100
AcDbLine
 10
-5.476005000003635
 20
3.646498000000065
 30
0.0
 11
-5.562203000003638
 21
3.920358000000078
 31
0.0
  0
LINE
  5
BF6
330
18
100
AcDbEntity
  8
SK1
 48
0.00719
100
AcDbLine
 10
-4.560759000003634
 20
-3.646116999999946
 30
0.0
 11
-4.647113000003638
 21
-3.920463999999923
 31
0.0
  0
LINE
  5
BF7
330
18
100
AcDbEntity
  8
SK1
 48
0.007179
100
AcDbLine
 10
-3.646038000003638
 20
3.646578000000033
 30
0.0
 11
-3.732251000003639
 21
3.92050000000006
 31
0.0
  0
LINE
  5
BF8
330
18
100
AcDbEntity
  8
SK1
 48
0.007182
100
AcDbLine
 10
-2.731077000003636
 20
-3.646796999999935
 30
0.0
 11
-2.81732000000364
 21
-3.920815999999944
 31
0.0
  0
SPLINE
  5
BF9
330
18
100
AcDbEntity
  8
SK1
100
AcDbSpline
210
0.0
220
0.0
230
1.0
 70
     8
 71
     3
 72
    17
 73
    13
 74
     0
 42
0.0000000001
 43
0.0000000001
 40
0.0
 40
0.0
 40
0.0
 40
0.0
 40
0.0236313810696715
 40
0.0450435974872212
 40
0.0753438534195901
 40
0.1031477726204113
 40
0.1182906658972991
 40
0.1334245661934682
 40
0.1521349228504425
 40
0.1710849373325011
 40
0.1903637478591534
 40
0.2101232186171866
 40
0.2101232186171866
 40
0.2101232186171866
 40
0.2101232186171866
 10
-6.578439081760411
 20
-4.101767880120745
 30
0.0
 10
-6.57256151940307
 20
-4.096513708720748
 30
0.0
 10
-6.561880143903316
 20
-4.085932182846305
 30
0.0
 10
-6.545691253326925
 20
-4.066694470153549
 30
0.0
 10
-6.530597644385405
 20
-4.044845883188712
 30
0.0
 10
-6.518560720204798
 20
-4.02357594792295
 30
0.0
 10
-6.509943344514155
 20
-4.006235691078586
 30
0.0
 10
-6.503168846818784
 20
-3.991375161678091
 30
0.0
 10
-6.496397026033211
 20
-3.975128505225483
 30
0.0
 10
-6.489639573865781
 20
-3.957389768302618
 30
0.0
 10
-6.483240527065137
 20
-3.939148103503953
 30
0.0
 10
-6.479216604548517
 20
-3.926772321869464
 30
0.0
 10
-6.477242047656165
 20
-3.920488491725733
 30
0.0
  0
SPLINE
  5
BFA
330
18
100
AcDbEntity
  8
SK1
100
AcDbSpline
210
0.0
220
0.0
230
1.0
 70
     8
 71
     3
 72
    15
 73
    11
 74
     0
 42
0.0000000001
 43
0.0000000001
 40
0.0
 40
0.0
 40
0.0
 40
0.0
 40
0.0168568872101275
 40
0.0450782012630442
 40
0.075651047413858
 40
0.1033744850070593
 40
0.1299800119346333
 40
0.156208986812469
 40
0.1828092617365594
 40
0.2102033540657639
 40
0.2102033540657639
 40
0.2102033540657639
 40
0.2102033540657639
 10
-5.663409683348977
 20
4.101730798655069
 30
0.0
 10
-5.659219370570298
 20
4.097984004939688
 30
0.0
 10
-5.648383548143081
 20
4.08755996271543
 30
0.0
 10
-5.631873526245224
 20
4.068424372324101
 30
0.0
 10
-5.615471254711322
 20
4.044641702056082
 30
0.0
 10
-5.601540033955912
 20
4.019976226110941
 30
0.0
 10
-5.589943531315778
 20
3.995739313247213
 30
0.0
 10
-5.579785296715761
 20
3.971277042664154
 30
0.0
 10
-5.570567532677188
 20
3.946167969359066
 30
0.0
 10
-5.564939584630824
 20
3.929070223130394
 30
0.0
 10
-5.562203176824726
 20
3.920357669183146
 30
0.0
  0
ARC
  5
BFB
330
18
100
AcDbEntity
  8
SK1
100
AcDbCircle
 10
-5.025965000003636
 20
-3.832190999999966
 30
0.0
 40
0.387782
100
AcDbArc
 50
315.8713279999984
 51
346.4240159999992
  0
SPLINE
  5
BFC
330
18
100
AcDbEntity
  8
SK1
100
AcDbSpline
210
0.0
220
0.0
230
1.0
 70
     8
 71
     3
 72
    16
 73
    12
 74
     0
 42
0.0000000001
 43
0.0000000001
 40
0.0
 40
0.0
 40
0.0
 40
0.0
 40
0.0236213315652242
 40
0.0448749236090152
 40
0.0669552893967041
 40
0.0873423373934067
 40
0.1031700816496539
 40
0.1297749322633489
 40
0.1560370118758774
 40
0.1826644332796401
 40
0.2100647395900231
 40
0.2100647395900231
 40
0.2100647395900231
 40
0.2100647395900231
 10
-3.833338577735123
 20
4.101773167041698
 30
0.0
 10
-3.827467191641651
 20
4.096517222060866
 30
0.0
 10
-3.816832469173717
 20
4.085968828788566
 30
0.0
 10
-3.802450959081689
 20
4.068868069715164
 30
0.0
 10
-3.790103552775621
 20
4.051559833949396
 30
0.0
 10
-3.779929397016861
 20
4.034989793279351
 30
0.0
 10
-3.769898067105692
 20
4.01660289254289
 30
0.0
 10
-3.760006554014971
 20
3.995934415744216
 30
0.0
 10
-3.749840752374645
 20
3.971454345879464
 30
0.0
 10
-3.740616870368866
 20
3.946323751254396
 30
0.0
 10
-3.734987032882486
 20
3.929214891739036
 30
0.0
 10
-3.73225083724693
 20
3.920500143316984
 30
0.0
  0
SPLINE
  5
BFD
330
18
100
AcDbEntity
  8
SK1
100
AcDbSpline
210
0.0
220
0.0
230
1.0
 70
     8
 71
     3
 72
    15
 73
    11
 74
     0
 42
0.0000000001
 43
0.0000000001
 40
0.0
 40
0.0
 40
0.0
 40
0.0
 40
0.0233283623473596
 40
0.0445476587482707
 40
0.0749659038864545
 40
0.1027802593136145
 40
0.1292783237711244
 40
0.1555166512253826
 40
0.182125821197032
 40
0.2095820434402779
 40
0.2095820434402779
 40
0.2095820434402779
 40
0.2095820434402779
 10
-2.918134721578076
 20
-4.101726793442821
 30
0.0
 10
-2.912343950611834
 20
-4.096527491159803
 30
0.0
 10
-2.901795920443333
 20
-4.086047407967043
 30
0.0
 10
-2.885696105142058
 20
-4.066900415323345
 30
0.0
 10
-2.870619685543566
 20
-4.045065155363147
 30
0.0
 10
-2.856705255397378
 20
-4.020456606169658
 30
0.0
 10
-2.845098711659566
 20
-3.996227046615445
 30
0.0
 10
-2.834940760224681
 20
-3.971796865231283
 30
0.0
 10
-2.825704522779098
 20
-3.946665991301074
 30
0.0
 10
-2.8200645450706
 20
-3.929547262336996
 30
0.0
 10
-2.817320037695026
 20
-3.920815536286169
 30
0.0
  0
LINE
  5
BFE
330
18
100
AcDbEntity
  8
SK1
 48
0.017962
100
AcDbLine
 10
-7.315333000003636
 20
-4.109999999999955
 30
0.0
 11
-6.596846000003638
 21
-4.109999999999955
 31
0.0
  0
SPLINE
  5
BFF
330
18
100
AcDbEntity
  8
SK1
100
AcDbSpline
210
0.0
220
0.0
230
1.0
 70
     8
 71
     3
 72
    17
 73
    13
 74
     0
 42
0.0000000001
 43
0.0000000001
 40
0.0
 40
0.0
 40
0.0
 40
0.0
 40
0.0249833859176044
 40
0.0492732153069351
 40
0.0731817378845434
 40
0.0972253087133155
 40
0.1237573949005165
 40
0.1521218143497865
 40
0.1720855141327097
 40
0.194031806560621
 40
0.2042119061481537
 40
0.2273508747207043
 40
0.2273508747207043
 40
0.2273508747207043
 40
0.2273508747207043
 10
-7.445547002300092
 20
-3.911458497978685
 30
0.0
 10
-7.443050438567427
 20
-3.91940388770547
 30
0.0
 10
-7.437931736945806
 20
-3.935011921855448
 30
0.0
 10
-7.429632249571606
 20
-3.957955462647987
 30
0.0
 10
-7.420618903994952
 20
-3.980292494744104
 30
0.0
 10
-7.41030232854993
 20
-4.00288685373772
 30
0.0
 10
-7.397992017554685
 20
-4.026164467425473
 30
0.0
 10
-7.384625190736837
 20
-4.047278376196287
 30
0.0
 10
-7.370495318824832
 20
-4.065984310273734
 30
0.0
 10
-7.358949129817986
 20
-4.078985864769606
 30
0.0
 10
-7.34583011214467
 20
-4.09192440911562
 30
0.0
 10
-7.337377938207204
 20
-4.099155709763181
 30
0.0
 10
-7.331258288046186
 20
-4.103862189956258
 30
0.0
  0
SPLINE
  5
C00
330
18
100
AcDbEntity
  8
SK1
100
AcDbSpline
210
0.0
220
0.0
230
1.0
 70
     8
 71
     3
 72
    16
 73
    12
 74
     0
 42
0.0000000001
 43
0.0000000001
 40
0.0
 40
0.0
 40
0.0
 40
0.0
 40
0.0250940498701754
 40
0.0495155996290682
 40
0.0735435884056407
 40
0.0975341450212161
 40
0.1239099206821474
 40
0.1521312586476414
 40
0.1720549317372618
 40
0.1939910062701017
 40
0.22663928204319
 40
0.22663928204319
 40
0.22663928204319
 40
0.22663928204319
 10
-6.53043078723028
 20
3.911792849622145
 30
0.0
 10
-6.527924961757467
 20
3.919774003269765
 30
0.0
 10
-6.522783902373816
 20
3.935459756573038
 30
0.0
 10
-6.51444343319175
 20
3.958516826646529
 30
0.0
 10
-6.505399255358692
 20
3.980912797457449
 30
0.0
 10
-6.495083885365576
 20
4.003474777334701
 30
0.0
 10
-6.482818089185816
 20
4.026642914567105
 30
0.0
 10
-6.469508600601389
 20
4.047658288957507
 30
0.0
 10
-6.45541797838555
 20
4.066314247730814
 30
0.0
 10
-6.438908647161857
 20
4.084910497351812
 30
0.0
 10
-6.425338155370929
 20
4.097109056794578
 30
0.0
 10
-6.416716734875342
 20
4.10378055565087
 30
0.0
  0
SPLINE
  5
C01
330
18
100
AcDbEntity
  8
SK1
100
AcDbSpline
210
0.0
220
0.0
230
1.0
 70
     8
 71
     3
 72
    19
 73
    15
 74
     0
 42
0.0000000001
 43
0.0000000001
 40
0.0
 40
0.0
 40
0.0
 40
0.0
 40
0.0167008329654696
 40
0.0330561498366973
 40
0.0491443603050344
 40
0.0649771488307882
 40
0.0811589057945763
 40
0.0972952621822623
 40
0.1237251748391993
 40
0.1519877279256065
 40
0.1721219097717532
 40
0.1938410611407999
 40
0.2099097970234701
 40
0.227106928253282
 40
0.227106928253282
 40
0.227106928253282
 40
0.227106928253282
 10
-5.615440736181194
 20
-3.911697143466141
 30
0.0
 10
-5.613772003005244
 20
-3.917008260542274
 30
0.0
 10
-5.610381228369127
 20
-3.927492763275266
 30
0.0
 10
-5.605045174536153
 20
-3.942981990967723
 30
0.0
 10
-5.599478951445743
 20
-3.958082243209616
 30
0.0
 10
-5.59356980735512
 20
-3.972989768045692
 30
0.0
 10
-5.587239991682012
 20
-3.987742022745123
 30
0.0
 10
-5.578935930812605
 20
-4.005480474576359
 30
0.0
 10
-5.567880342619146
 20
-4.026361551867296
 30
0.0
 10
-5.554512677811818
 20
-4.04746095493499
 30
0.0
 10
-5.540403649867303
 20
-4.066117685829964
 30
0.0
 10
-5.527558175319743
 20
-4.080565911246934
 30
0.0
 10
-5.51434140436419
 20
-4.093284204036193
 30
0.0
 10
-5.505813210106648
 20
-4.100385307394502
 30
0.0
 10
-5.5012671971547
 20
-4.103881945876992
 30
0.0
  0
SPLINE
  5
C02
330
18
100
AcDbEntity
  8
SK1
100
AcDbSpline
210
0.0
220
0.0
230
1.0
 70
     8
 71
     3
 72
    18
 73
    14
 74
     0
 42
0.0000000001
 43
0.0000000001
 40
0.0
 40
0.0
 40
0.0
 40
0.0
 40
0.0249709417736797
 40
0.0492911916490319
 40
0.0732246042821799
 40
0.0972993212508119
 40
0.1213417361562273
 40
0.1471867556240557
 40
0.1521681133558379
 40
0.1721607512183708
 40
0.1940589327048719
 40
0.2101650538986096
 40
0.2274048336015038
 40
0.2274048336015038
 40
0.2274048336015038
 40
0.2274048336015038
 10
-4.700479991654623
 20
3.911459932510353
 30
0.0
 10
-4.697986641116003
 20
3.919401974332287
 30
0.0
 10
-4.692870185190591
 20
3.935017049443898
 30
0.0
 10
-4.684571602576325
 20
3.957976164906995
 30
0.0
 10
-4.67555191665771
 20
3.980341598990776
 30
0.0
 10
-4.665574529216249
 20
4.002199301543782
 30
0.0
 10
-4.654104740936602
 20
4.024038139624963
 30
0.0
 10
-4.644482837755851
 20
4.039619114484593
 30
0.0
 10
-4.634856744686493
 20
4.053557978935316
 30
0.0
 10
-4.625429389952016
 20
4.066035599283111
 30
0.0
 10
-4.612573296884306
 20
4.080507463761762
 30
0.0
 10
-4.599293640797482
 20
4.093285311095428
 30
0.0
 10
-4.590743278331088
 20
4.10040158895174
 30
0.0
 10
-4.586184847624537
 20
4.103905407602326
 30
0.0
  0
SPLINE
  5
C03
330
18
100
AcDbEntity
  8
SK1
100
AcDbSpline
210
0.0
220
0.0
230
1.0
 70
     8
 71
     3
 72
    17
 73
    13
 74
     0
 42
0.0000000001
 43
0.0000000001
 40
0.0
 40
0.0
 40
0.0
 40
0.0
 40
0.0249975323029992
 40
0.0492994407454998
 40
0.0732203451477653
 40
0.0972226563432754
 40
0.1236561387511721
 40
0.1519135890746741
 40
0.171882375321707
 40
0.1939224354923806
 40
0.2100120785401131
 40
0.2272312591986795
 40
0.2272312591986795
 40
0.2272312591986795
 40
0.2272312591986795
 10
-3.78544272671872
 20
-3.911616331422918
 30
0.0
 10
-3.782944840833919
 20
-3.919566250090723
 30
0.0
 10
-3.777823430821861
 20
-3.935182600892915
 30
0.0
 10
-3.769518639267616
 20
-3.958137924003153
 30
0.0
 10
-3.760504915057808
 20
-3.980468800952961
 30
0.0
 10
-3.75020203848183
 20
-4.003022682323774
 30
0.0
 10
-3.737927316466056
 20
-4.026225934407363
 30
0.0
 10
-3.72459885041218
 20
-4.047284398485317
 30
0.0
 10
-3.710475734587703
 20
-4.065992656184163
 30
0.0
 10
-3.697600561033786
 20
-4.080494399817041
 30
0.0
 10
-3.684296458652247
 20
-4.093296959021188
 30
0.0
 10
-3.675756777117441
 20
-4.100406701602422
 30
0.0
 10
-3.671204557720044
 20
-4.103907347015308
 30
0.0
  0
SPLINE
  5
C04
330
18
100
AcDbEntity
  8
SK1
100
AcDbSpline
210
0.0
220
0.0
230
1.0
 70
     8
 71
     3
 72
    18
 73
    14
 74
     0
 42
0.0000000001
 43
0.0000000001
 40
0.0
 40
0.0
 40
0.0
 40
0.0
 40
0.0225258889903682
 40
0.0414899650531189
 40
0.0601107999612934
 40
0.0786043712372504
 40
0.0971992253869141
 40
0.1236520077326084
 40
0.1519596626947683
 40
0.1720791934427148
 40
0.1938001031880906
 40
0.2097282930886953
 40
0.2267933423213182
 40
0.2267933423213182
 40
0.2267933423213182
 40
0.2267933423213182
 10
-2.870391228882538
 20
3.911815252489361
 30
0.0
 10
-2.86814051958636
 20
3.918979073236357
 30
0.0
 10
-2.863846679969462
 20
3.9321267734515
 30
0.0
 10
-2.857151808490975
 20
3.951014417481245
 30
0.0
 10
-2.850438536023986
 20
3.968462817988779
 30
0.0
 10
-2.843234978654108
 20
3.985582334584819
 30
0.0
 10
-2.834311681649771
 20
4.004796752674677
 30
0.0
 10
-2.822867017264353
 20
4.026425221700036
 30
0.0
 10
-2.809493221027582
 20
4.047542039542689
 30
0.0
 10
-2.795379599365786
 20
4.066208697344676
 30
0.0
 10
-2.782569810074646
 20
4.080620193125241
 30
0.0
 10
-2.769423291611199
 20
4.093280785093099
 30
0.0
 10
-2.760972122259282
 20
4.100332033845745
 30
0.0
 10
-2.756465606883679
 20
4.103807695702868
 30
0.0
  0
SPLINE
  5
C05
330
18
100
AcDbEntity
  8
SK1
100
AcDbSpline
210
0.0
220
0.0
230
1.0
 70
     8
 71
     3
 72
    17
 73
    13
 74
     0
 42
0.0000000001
 43
0.0000000001
 40
0.0
 40
0.0
 40
0.0
 40
0.0
 40
0.0216744833909645
 40
0.0428034615353152
 40
0.0635784697065034
 40
0.0841949788884604
 40
0.0971685310932743
 40
0.1236049334827255
 40
0.151892744087281
 40
0.1720212886371045
 40
0.1937464991649862
 40
0.226399501389638
 40
0.226399501389638
 40
0.226399501389638
 40
0.226399501389638
 10
-1.955439673774868
 20
-3.912083234313115
 30
0.0
 10
-1.953274125191104
 20
-3.918976258528402
 30
0.0
 10
-1.948850054350849
 20
-3.932541914180433
 30
0.0
 10
-1.941764478570688
 20
-3.952518198503526
 30
0.0
 10
-1.934209136148594
 20
-3.971944272150551
 30
0.0
 10
-1.92704020526645
 20
-3.988593359986906
 30
0.0
 10
-1.91849299198979
 20
-4.006686778850109
 30
0.0
 10
-1.907928813318669
 20
-4.026646624019406
 30
0.0
 10
-1.894558575047604
 20
-4.047754493353237
 30
0.0
 10
-1.880444504600013
 20
-4.066418801055363
 30
0.0
 10
-1.863923392206906
 20
-4.085003074928806
 30
0.0
 10
-1.850400752298958
 20
-4.0971519429861
 30
0.0
 10
-1.841776117493551
 20
-4.103821902011531
 30
0.0
  0
LINE
  5
C06
330
18
100
AcDbEntity
  8
SK1
 48
0.006953
100
AcDbLine
 10
-7.445547000003638
 20
-3.911457999999925
 30
0.0
 11
-7.529053000003638
 21
-3.646183999999948
 31
0.0
  0
LINE
  5
C07
330
18
100
AcDbEntity
  8
SK1
 48
0.006948
100
AcDbLine
 10
-6.530431000003638
 20
3.911793000000044
 30
0.0
 11
-6.613873000003637
 21
3.646686000000044
 31
0.0
  0
LINE
  5
C08
330
18
100
AcDbEntity
  8
SK1
 48
0.006952
100
AcDbLine
 10
-5.615441000003638
 20
-3.911696999999946
 30
0.0
 11
-5.698937000003637
 21
-3.646435999999936
 31
0.0
  0
LINE
  5
C09
330
18
100
AcDbEntity
  8
SK1
 48
0.006947
100
AcDbLine
 10
-4.700480000003636
 20
3.911460000000033
 30
0.0
 11
-4.783907000003636
 21
3.646420000000034
 31
0.0
  0
LINE
  5
C0A
330
18
100
AcDbEntity
  8
SK1
 48
0.006953
100
AcDbLine
 10
-3.785443000003638
 20
-3.911615999999923
 30
0.0
 11
-3.868947000003636
 21
-3.646334999999965
 31
0.0
  0
LINE
  5
C0B
330
18
100
AcDbEntity
  8
SK1
 48
0.006953
100
AcDbLine
 10
-2.870391000003634
 20
3.911815000000046
 30
0.0
 11
-2.953894000003636
 21
3.646524000000055
 31
0.0
  0
LINE
  5
C0C
330
18
100
AcDbEntity
  8
SK1
 48
0.006953
100
AcDbLine
 10
-1.955440000003637
 20
-3.912082999999937
 30
0.0
 11
-2.038932000003639
 21
-3.646806999999966
 31
0.0
  0
ARC
  5
C0E
330
18
100
AcDbEntity
  8
SK1
100
AcDbCircle
 10
-7.645224000003636
 20
-3.785626999999919
 30
0.0
 40
0.165473
100
AcDbArc
 50
40.05496299999821
 51
90.94049099999997
  0
ARC
  5
C10
330
18
100
AcDbEntity
  8
SK1
100
AcDbCircle
 10
-6.729079000003639
 20
3.782827000000053
 30
0.0
 40
0.162292
100
AcDbArc
 50
268.648956
 51
323.6472310000001
  0
ARC
  5
C12
330
18
100
AcDbEntity
  8
SK1
100
AcDbCircle
 10
-5.815290000003638
 20
-3.785810999999966
 30
0.0
 40
0.165629
100
AcDbArc
 50
39.91261000000005
 51
90.92093999999987
  0
ARC
  5
C14
330
18
100
AcDbEntity
  8
SK1
100
AcDbCircle
 10
-4.899152000003637
 20
3.782586000000037
 30
0.0
 40
0.162355
100
AcDbArc
 50
268.666396
 51
323.6421090000017
  0
ARC
  5
C16
330
18
100
AcDbEntity
  8
SK1
100
AcDbCircle
 10
-3.985270000003636
 20
-3.785916999999926
 30
0.0
 40
0.165722
100
AcDbArc
 50
40.13631199999957
 51
90.90464300000013
  0
ARC
  5
C18
330
18
100
AcDbEntity
  8
SK1
100
AcDbCircle
 10
-3.069024000003636
 20
3.782555000000057
 30
0.0
 40
0.162176
100
AcDbArc
 50
268.6177009999999
 51
323.6641669999997
  0
ARC
  5
C1A
330
18
100
AcDbEntity
  8
SK1
100
AcDbCircle
 10
-2.155411000003638
 20
-3.786239999999962
 30
0.0
 40
0.165808
100
AcDbArc
 50
40.1775080000009
 51
90.89934799999999
  0
LINE
  5
C1B
330
18
100
AcDbEntity
  8
SK1
 48
0.017969
100
AcDbLine
 10
-3.655379000003636
 20
-4.109999999999955
 30
0.0
 11
-2.936617000003638
 21
-4.109999999999955
 31
0.0
  0
LINE
  5
C1C
330
18
100
AcDbEntity
  8
SK1
 48
0.017966
100
AcDbLine
 10
-4.570340000003638
 20
4.110000000000069
 30
0.0
 11
-3.851688000003639
 21
4.110000000000069
 31
0.0
  0
LINE
  5
C1D
330
18
100
AcDbEntity
  8
SK1
 48
0.017963
100
AcDbLine
 10
-5.485347000003637
 20
-4.109999999999955
 30
0.0
 11
-4.766837000003636
 21
-4.109999999999955
 31
0.0
  0
LINE
  5
C1E
330
18
100
AcDbEntity
  8
SK1
 48
0.017968
100
AcDbLine
 10
-6.400626000003639
 20
4.110000000000069
 30
0.0
 11
-5.681901000003637
 21
4.110000000000069
 31
0.0
  0
LINE
  5
C1F
330
18
100
AcDbEntity
  8
SK1
 48
0.026154
100
AcDbLine
 10
-2.740402000003636
 20
4.110000000000069
 30
0.0
 11
-1.694250000003638
 21
4.110000000000069
 31
0.0
  0
LINE
  5
C20
330
18
100
AcDbEntity
  8
SK1
 48
0.003288
100
AcDbLine
 10
-1.825787000003635
 20
-4.109999999999955
 30
0.0
 11
-1.694250000003638
 21
-4.109999999999955
 31
0.0
  0
ARC
  5
C21
330
18
100
AcDbEntity
  8
SK1
100
AcDbCircle
 10
-1.694250000003638
 20
-4.309999999999944
 30
0.0
 40
0.2
100
AcDbArc
 50
13.77198200000094
 51
89.99999800000002
  0
ARC
  5
C22
330
18
100
AcDbEntity
  8
SK1
100
AcDbCircle
 10
-1.694250000003638
 20
4.310000000000058
 30
0.0
 40
0.2
100
AcDbArc
 50
270.000002
 51
346.2280179999992
  0
LINE
  5
C23
330
18
100
AcDbEntity
  8
SK1
 48
0.032807
100
AcDbLine
 10
-1.500000000003637
 20
-4.26238799999993
 30
0.0
 11
-0.1895330000036388
 21
-4.33106699999996
 31
0.0
  0
LINE
  5
C24
102
{ACAD_REACTORS
330
CF1
102
}
330
18
100
AcDbEntity
  8
SK1
 48
0.032807
100
AcDbLine
 10
-1.500000000003637
 20
4.262388000000044
 30
0.0
 11
-0.1895330000036388
 21
4.331067000000075
 31
0.0
  0
ARC
  5
C25
330
18
100
AcDbEntity
  8
SK1
100
AcDbCircle
 10
-0.2000000000036373
 20
-4.53079299999996
 30
0.0
 40
0.2
100
AcDbArc
 50
0.0
 51
87.00000000000009
  0
ARC
  5
C26
330
18
100
AcDbEntity
  8
SK1
100
AcDbCircle
 10
-0.2000000000036373
 20
4.530793000000072
 30
0.0
 40
0.2
100
AcDbArc
 50
272.9999999999999
 51
0.0
  0
LINE
  5
C27
102
{ACAD_REACTORS
330
CB5
102
}
330
18
100
AcDbEntity
  8
1
 48
0.140398
370
    35
100
AcDbLine
 10
-0.000000000003638
 20
5.750000000000056
 30
0.0
 11
5.615922999996363
 21
5.750000000000056
 31
0.0
  0
LINE
  5
C28
330
18
100
AcDbEntity
  8
1
 48
0.140398
370
    35
100
AcDbLine
 10
-0.000000000003638
 20
-5.749999999999943
 30
0.0
 11
5.615922999996363
 21
-5.749999999999943
 31
0.0
  0
DIMENSION
  5
C9E
102
{ACAD_XDICTIONARY
360
CAB
102
}
102
{ACAD_REACTORS
330
CB5
102
}
330
18
100
AcDbEntity
  8
2
100
AcDbDimension
  2
*D2
 10
-0.0000000000036376
 20
11.62743196292018
 30
0.0
 11
12.69999999999636
 21
14.0639217731802
 31
0.0
 70
    32
 71
     5
 42
25.4
  3
STANDARD
100
AcDbAlignedDimension
 13
25.39999999999636
 23
5.750000000000056
 33
0.0
 14
-0.000000000003638
 24
5.750000000000056
 34
0.0
100
AcDbRotatedDimension
  0
DIMENSION
  5
CD0
102
{ACAD_XDICTIONARY
360
CDE
102
}
102
{ACAD_REACTORS
330
CE9
102
}
330
18
100
AcDbEntity
  8
SK2
100
AcDbDimension
  2
*D3
 10
31.51462423474888
 20
-5.750000000000002
 30
0.0
 11
29.02648298387045
 21
-17.75166900913563
 31
0.0
 70
    32
  1
%%c<>
 71
     5
 42
11.50000000000005
  3
STANDARD
100
AcDbAlignedDimension
 13
23.89057738577841
 23
5.750000000000056
 33
0.0
 14
23.89057738577841
 24
-5.75
 34
0.0
 50
90.0
100
AcDbRotatedDimension
1001
ACAD_DSTYLE_DIMINSPECT
1070
   396
1000
100%
1070
   395
1000

1070
   394
1070
    33
1070
   393
1070
     0
  0
MULTILEADER
  5
CEA
102
{ACAD_XDICTIONARY
360
CED
102
}
102
{ACAD_REACTORS
330
CEE
102
}
330
18
100
AcDbEntity
  8
SK6
 92
      504
310
F8010000150000000C00000016000000000000C00C00000033000000000000000C00000013000000993A0000A00000000B000000F91419571C4F3D40A245B5BFFCFC2040000000000000000000000000000000000000000000000000000000000000F03F000000000000F03F00000000000000000000000000000000543038
310
0003000000010000000000000000001040000000000000F03F0000000000000000000000000000F03F000000000000000000000000000000000000000069736F63702E736878007800000000000C00000033000000000000000C00000010000000080000000C00000016000000000000C00C00000012000000FF7F00000C00
310
000013000000010000000C00000013000000891300003C000000060000000200000000FCFFFFFFBF38405FBDFDB9683811400000000000000000371FF0FA8C8C3B40201868C27BDF244000000000000000000C00000013000000112700003C0000000600000002000000371FF0FA8C8C3B40201868C27BDF24400000000000
310
00000093AEB2F0B5E83B40201868C27BDF244000000000000000000C00000016000000000000C00C00000012000000FF7F00000C00000017000000000000000C000000130000009A3A00000C00000016000000000000C00C00000012000000FF7F00000C00000017000000FFFFFFFF0C0000003300000000000000
100
AcDbMLeader
300
CONTEXT_DATA{
 40
1.0
 10
27.90902618753769
 20
10.43649108429605
 30
0.0
 41
4.0
140
4.0
145
2.0
174
     1
175
     6
176
     0
177
     0
290
     1
304
T08
 11
0.0
 21
0.0
 31
1.0
340
10
 12
29.90902618753769
 22
12.49411582076829
 32
0.0
 13
1.0
 23
0.0
 33
0.0
 42
0.0
 43
0.0
 44
0.0
 45
1.0
170
     1
 90
-1073741824
171
     1
172
     5
 91
-1073741824
141
0.0
 92
        0
291
     0
292
     0
173
     0
293
     0
142
0.0
143
0.0
294
     0
295
     0
296
     0
110
24.74999999999636
120
4.305087000000013
130
0.0
111
1.0
121
0.0
131
0.0
112
0.0
122
1.0
132
0.0
297
     0
302
LEADER{
290
     1
291
     1
 10
27.54902618753769
 20
10.43649108429605
 30
0.0
 11
1.0
 21
0.0
 31
0.0
 90
        0
 40
0.36
304
LEADER_LINE{
 10
24.74999999999636
 20
4.305087000000042
 30
0.0
 91
        0
305
}
303
}
301
}
340
43D
 90
   279552
170
     1
 91
-1056964608
341
12
171
    -2
290
     1
291
     1
 41
0.36
 42
4.0
172
     2
343
10
173
     1
 95
        6
174
     1
175
     0
 92
-1056964608
292
     0
 93
-1056964608
 10
1.0
 20
1.0
 30
1.0
 43
0.0
176
     0
293
     0
294
     0
178
     0
179
     1
 45
1.0
1001
ACAD_MLEADERVER
1070
     2
  0
MULTILEADER
  5
CEF
102
{ACAD_XDICTIONARY
360
CF0
102
}
102
{ACAD_REACTORS
330
CF1
102
}
330
18
100
AcDbEntity
  8
SK6
 92
      564
310
34020000160000000C00000016000000000000C00C00000033000000000000000C00000013000000993A0000A00000000B000000B13A4B2DD7B12CC0B87E0BCD0D1E2440000000000000000000000000000000000000000000000000000000000000F03F000000000000F03F00000000000000000000000000000000543038
310
0003000000010000000000000000001040000000000000F03F0000000000000000000000000000F03F000000000000000000000000000000000000000069736F63702E736878007800000000000C00000033000000000000000C00000010000000080000000C00000016000000000000C00C00000012000000FF7F00000C00
310
000013000000010000000C00000013000000891300003C00000006000000020000004FB448C15308EBBFDE4B7155D92F1140000000000000000040D67E6D7B4C0EC021E571337484224000000000000000000C00000013000000112700003C000000060000000200000040D67E6D7B4C0EC021E57133748422400000000000
310
00000091A8C98DE19610C021E571337484224000000000000000000C00000016000000000000C00C00000012000000FF7F00000C00000017000000000000000C000000130000009A3A00003C000000060000000200000054715EABC7DE2FC09CB72436F36622400000000000000000407C56F0285719C09CB72436F3662240
310
00000000000000000C00000016000000000000C00C00000012000000FF7F00000C00000017000000FFFFFFFF0C0000003300000000000000
100
AcDbMLeader
300
CONTEXT_DATA{
 40
1.0
 10
-17.93511710670342
 20
12.00107430647095
 30
0.0
 41
4.0
140
4.0
145
2.0
174
     1
175
     6
176
     2
177
     0
290
     1
304
T08
 11
0.0
 21
0.0
 31
1.0
340
10
 12
-6.147344794686563
 22
14.05869904294319
 32
0.0
 13
1.0
 23
0.0
 33
0.0
 42
0.0
 43
0.0
 44
0.0
 45
1.0
170
     1
 90
-1073741824
171
     3
172
     5
 91
-1073741824
141
0.0
 92
        0
291
     0
292
     0
173
     0
293
     0
142
0.0
143
0.0
294
     0
295
     0
296
     0
110
-0.8447665000036366
120
4.296727500000031
130
0.0
111
1.0
121
0.0
131
0.0
112
0.0
122
1.0
132
0.0
297
     0
302
LEADER{
290
     1
291
     1
 10
-3.787344794686561
 20
9.258699042943193
 30
0.0
 11
-1.0
 21
0.0
 31
0.0
 90
        0
 40
0.36
304
LEADER_LINE{
 10
-0.8447665000036382
 20
4.296727500000057
 30
0.0
 91
        0
305
}
303
}
301
}
340
43D
 90
   279552
170
     1
 91
-1056964608
341
12
171
    -2
290
     1
291
     1
 41
0.36
 42
4.0
172
     2
343
10
173
     1
 95
        6
174
     1
175
     2
 92
-1056964608
292
     0
 93
-1056964608
 10
1.0
 20
1.0
 30
1.0
 43
0.0
176
     0
293
     0
294
     0
178
     0
179
     3
 45
1.0
1001
ACAD_MLEADERVER
1070
     2
  0
LINE
  5
D41
330
18
100
AcDbEntity
  8
SK4
100
AcDbLine
 10
12.39370833190443
 20
-0.0000000000000568
 30
0.0
 11
27.06385059518217
 21
-0.0000000000000568
 31
0.0
  0
LINE
  5
D42
330
18
100
AcDbEntity
  8
4
100
AcDbLine
 10
-0.000000000003638
 20
0.0
 30
0.0
 11
26.30644572366666
 21
0.0
 31
0.0
  0
INSERT
  5
EB6
330
18
100
AcDbEntity
  8
SK2
100
AcDbBlockReference
  2
CERO_POINT
 10
-0.000000000003638
 20
0.0
 30
0.0
  0
LWPOLYLINE
  5
EBB
330
18
100
AcDbEntity
  8
NOCUT
100
AcDbPolyline
 90
        5
 70
     0
 43
0.0
 10
0.0
 20
0.0
 10
-0.000000000003638
 20
5.750000000000056
 10
25.39999999999636
 20
5.750000000000111
 10
25.39999999999636
 20
-0.0000000000000568
 10
0.0
 20
0.0
  0
MULTILEADER
  5
ED9
102
{ACAD_XDICTIONARY
360
EDA
102
}
102
{ACAD_REACTORS
330
EDB
102
}
330
18
100
AcDbEntity
  8
SK6
 92
      664
310
98020000180000000C00000016000000000000C00C00000033000000000000000C00000013000000993A0000A40000000B000000D65A8664806225C06621E40FB43E26C0000000000000000000000000000000000000000000000000000000000000F03F000000000000F03F00000000000000000000000000000000543D31
310
302E30004006000000010000000000000000001040000000000000F03F0000000000000000000000000000F03F000000000000000000000000000000000000000069736F63702E736878002A400085CB890C00000033000000000000000C00000010000000080000000C00000016000000000000C00C00000012000000FF7F
310
00000C00000013000000010000000C000000140000000100000054000000070000000300000080DD9FD6FED01440FE62ECDF995B1BC000000000000000002B884A81A97B1740FDC5D8BF33B706C00000000000000000D632F52B54261A40FE62ECDF995B1BC000000000000000000C00000013000000891300003C00000006
310
000000020000002B884A81A97B1740FE62ECDF995B1BC000000000000000002B884A81A97B1740FFBA7DA94DD827C000000000000000000C00000013000000112700003C00000006000000020000002B884A81A97B1740FFBA7DA94DD827C00000000000000000BA4A40AA050B1640FFBA7DA94DD827C00000000000000000
310
0C00000016000000000000C00C00000012000000FF7F00000C00000017000000000000000C000000130000009A3A00003C000000060000000200000024DB3A7E2DAE30C084E8CAA6CEF527C00000000000000000384A13B0573CF1BF84E8CAA6CEF527C000000000000000000C00000016000000000000C00C000000120000
310
00FF7F00000C00000017000000FFFFFFFF0C0000003300000000000000
100
AcDbMLeader
300
CONTEXT_DATA{
 40
1.0
 10
-18.68038166939654
 20
-9.180092251080584
 30
0.0
 41
4.0
140
4.0
145
2.0
174
     1
175
     6
176
     2
177
     0
290
     1
304
T=10.0
 11
0.0
 21
0.0
 31
1.0
340
10
 12
3.510763797926013
 22
-7.122467514608342
 32
0.0
 13
1.0
 23
0.0
 33
0.0
 42
0.0
 43
0.0
 44
0.0
 45
1.0
170
     1
 90
-1073741824
171
     3
172
     5
 91
-1073741824
141
0.0
 92
        0
291
     0
292
     0
173
     0
293
     0
142
0.0
143
0.0
294
     0
295
     0
296
     0
110
5.870763797926012
120
-2.839454172900103
130
0.0
111
1.0
121
0.0
131
0.0
112
0.0
122
1.0
132
0.0
297
     0
302
LEADER{
290
     1
291
     1
 10
5.870763797926012
 20
-11.92246751460834
 30
0.0
 11
-1.0
 21
0.0
 31
0.0
 90
        0
 40
0.36
304
LEADER_LINE{
 10
5.870763797926012
 20
-2.839454172900103
 30
0.0
 91
        0
305
}
303
}
301
}
340
43D
 90
   279552
170
     1
 91
-1056964608
341
12
171
    -2
290
     1
291
     1
 41
0.36
 42
4.0
172
     2
343
10
173
     1
 95
        6
174
     1
175
     2
 92
-1056964608
292
     0
 93
-1056964608
 10
1.0
 20
1.0
 30
1.0
 43
0.0
176
     0
293
     0
294
     0
178
     0
179
     3
 45
1.0
1001
ACAD_MLEADERVER
1070
     2
  0
ATTDEF
  5
FC7
330
18
100
AcDbEntity
  8
SK6
100
AcDbText
 10
-3.699703046775358
 20
-30.10834142334612
 30
0.0
 40
3.5
  1

 72
     1
 11
10.30167490598055
 21
-30.10834142334612
 31
0.0
100
AcDbAttributeDefinition
  3

  2
T08T08SA-10
 70
     0
  0
ENDSEC
  0
SECTION
  2
OBJECTS
  0
DICTIONARY
  5
C
330
0
100
AcDbDictionary
281
     1
  3
ACAD_2007HEADERVARS_RT
350
FD1
  3
ACAD_CIP_PREVIOUS_PRODUCT_INFO
350
741
  3
ACAD_COLOR
350
387
  3
ACAD_GROUP
350
D
  3
ACAD_LAYOUT
350
301
  3
ACAD_MATERIAL
350
386
  3
ACAD_MLEADERSTYLE
350
43C
  3
ACAD_MLINESTYLE
350
E
  3
ACAD_PLOTSETTINGS
350
302
  3
ACAD_PLOTSTYLENAME
350
2FF
  3
ACAD_SCALELIST
350
41A
  3
ACAD_TABLESTYLE
350
388
  3
ACAD_VISUALSTYLE
350
3F2
  3
ACDB_RECOMPOSE_DATA
350
FD0
  3
AcDbVariableDictionary
350
357
  3
AcmDictionary
350
76D
  3
AEC_PROPERTY_SET_DEFS
350
5CF
  3
AMG
350
743
  3
AMGSNAPSETTINGS
350
7F6
  3
ASE_INDEX_DICTIONARY
350
C2B
  0
DICTIONARY
  5
451
330
2
100
AcDbDictionary
280
     1
281
     1
  3
ACAD_LAYERFILTERS
360
6C6
  3
ACAD_LAYERSTATES
360
EAA
  3
ACLYDICTIONARY
360
6C5
  0
DICTIONARY
  5
F34
330
F
100
AcDbDictionary
280
     1
281
     1
  3
ADSK_XREC_LAYER_RECONCILED
360
F35
  0
DICTIONARY
  5
F36
330
23
100
AcDbDictionary
280
     1
281
     1
  3
ADSK_XREC_LAYER_RECONCILED
360
F37
  0
DICTIONARY
  5
F38
330
24
100
AcDbDictionary
280
     1
281
     1
  3
ADSK_XREC_LAYER_RECONCILED
360
F39
  0
DICTIONARY
  5
F3A
330
25
100
AcDbDictionary
280
     1
281
     1
  3
ADSK_XREC_LAYER_RECONCILED
360
F3B
  0
DICTIONARY
  5
F3C
330
27
100
AcDbDictionary
280
     1
281
     1
  3
ADSK_XREC_LAYER_RECONCILED
360
F3D
  0
DICTIONARY
  5
F3E
330
29
100
AcDbDictionary
280
     1
281
     1
  3
ADSK_XREC_LAYER_RECONCILED
360
F3F
  0
DICTIONARY
  5
F40
330
2A
100
AcDbDictionary
280
     1
281
     1
  3
ADSK_XREC_LAYER_RECONCILED
360
F41
  0
DICTIONARY
  5
F42
330
2B
100
AcDbDictionary
280
     1
281
     1
  3
ADSK_XREC_LAYER_RECONCILED
360
F43
  0
DICTIONARY
  5
F44
330
2E
100
AcDbDictionary
280
     1
281
     1
  3
ADSK_XREC_LAYER_RECONCILED
360
F45
  0
DICTIONARY
  5
F46
330
376
100
AcDbDictionary
280
     1
281
     1
  3
ADSK_XREC_LAYER_RECONCILED
360
F47
  0
DICTIONARY
  5
C29
330
18
100
AcDbDictionary
280
     1
281
     1
  3
ACAD_SORTENTS
360
C2A
  0
DICTIONARY
  5
CAB
330
C9E
100
AcDbDictionary
280
     1
281
     1
  3
ACAD_DIMASSOC
360
CB5
  0
DICTIONARY
  5
CDE
330
CD0
100
AcDbDictionary
280
     1
281
     1
  3
ACAD_DIMASSOC
360
CE9
  0
DICTIONARY
  5
CED
330
CEA
100
AcDbDictionary
280
     1
281
     1
  3
ACAD_DIMASSOC
360
CEE
  3
ACAD_XREC_ROUNDTRIP
360
FCD
  0
DICTIONARY
  5
CF0
330
CEF
100
AcDbDictionary
280
     1
281
     1
  3
ACAD_DIMASSOC
360
CF1
  3
ACAD_XREC_ROUNDTRIP
360
FCE
  0
DICTIONARY
  5
EDA
330
ED9
100
AcDbDictionary
280
     1
281
     1
  3
ACAD_DIMASSOC
360
EDB
  3
ACAD_XREC_ROUNDTRIP
360
FCF
  0
DICTIONARY
  5
FD1
102
{ACAD_REACTORS
330
C
102
}
330
C
100
AcDbDictionary
281
     1
  3
DIMARCSYM
350
FD2
  3
DIMLTEX1
350
FD4
  3
DIMLTEX2
350
FD5
  3
DIMLTYPE
350
FD3
  0
XRECORD
  5
741
102
{ACAD_REACTORS
330
C
102
}
330
C
100
AcDbXrecord
280
     1
300
ACDLT
300
2012
300
ACDLT_F_S
  0
DICTIONARY
  5
387
102
{ACAD_REACTORS
330
C
102
}
330
C
100
AcDbDictionary
281
     1
  0
DICTIONARY
  5
D
102
{ACAD_REACTORS
330
C
102
}
330
C
100
AcDbDictionary
281
     1
  0
DICTIONARY
  5
301
102
{ACAD_REACTORS
330
C
102
}
330
C
100
AcDbDictionary
281
     1
  3
Layout1
350
33B
  3
Model
350
303
  0
DICTIONARY
  5
386
102
{ACAD_REACTORS
330
C
102
}
330
C
100
AcDbDictionary
281
     1
  3
ByBlock
350
3F0
  3
ByLayer
350
3EF
  3
Global
350
3F1
  0
DICTIONARY
  5
43C
102
{ACAD_REACTORS
330
C
102
}
330
C
100
AcDbDictionary
281
     1
  3
Standard
350
43D
  0
DICTIONARY
  5
E
102
{ACAD_REACTORS
330
C
102
}
330
C
100
AcDbDictionary
281
     1
  3
STANDARD
350
1B
  0
DICTIONARY
  5
302
102
{ACAD_REACTORS
330
C
102
}
330
C
100
AcDbDictionary
281
     1
  0
ACDBDICTIONARYWDFLT
  5
2FF
102
{ACAD_REACTORS
330
C
102
}
330
C
100
AcDbDictionary
281
     1
  3
Normal
350
300
100
AcDbDictionaryWithDefault
340
300
  0
DICTIONARY
  5
41A
102
{ACAD_REACTORS
330
C
102
}
330
C
100
AcDbDictionary
281
     1
  3
A0
350
41B
  3
A1
350
41C
  3
A2
350
41D
  3
A3
350
41E
  3
A4
350
41F
  3
A5
350
420
  3
A6
350
421
  3
A7
350
422
  3
A8
350
423
  3
A9
350
424
  3
B0
350
425
  3
B1
350
426
  3
B2
350
427
  3
B3
350
428
  3
B4
350
429
  3
B5
350
42A
  3
B6
350
42B
  3
B7
350
42C
  3
B8
350
42D
  3
B9
350
42E
  3
C0
350
42F
  3
C1
350
430
  3
C2
350
431
  3
C3
350
432
  3
C4
350
433
  3
C5
350
434
  3
C6
350
435
  3
C7
350
436
  3
C8
350
437
  3
C9
350
438
  3
D0
350
439
  3
D1
350
43A
  3
D2
350
43B
  0
DICTIONARY
  5
388
102
{ACAD_REACTORS
330
C
102
}
330
C
100
AcDbDictionary
281
     1
  3
Standard
350
389
  0
DICTIONARY
  5
3F2
102
{ACAD_REACTORS
330
C
102
}
330
C
100
AcDbDictionary
281
     1
  3
2dWireframe
350
3F8
  3
3D Hidden
350
3FA
  3
3dWireframe
350
3F9
  3
Basic
350
3F7
  3
Brighten
350
3FE
  3
ColorChange
350
402
  3
Conceptual
350
3FB
  3
Dim
350
3FD
  3
EdgeColorOff
350
73A
  3
Facepattern
350
401
  3
Flat
350
3F3
  3
FlatWithEdges
350
3F4
  3
Gouraud
350
3F5
  3
GouraudWithEdges
350
3F6
  3
Hidden
350
732
  3
JitterOff
350
738
  3
Linepattern
350
400
  3
OverhangOff
350
739
  3
Realistic
350
3FC
  3
Shaded
350
737
  3
Shaded with edges
350
736
  3
Shades of Gray
350
733
  3
Sketchy
350
734
  3
Thicken
350
3FF
  3
Wireframe
350
731
  3
X-Ray
350
735
  0
XRECORD
  5
FD0
102
{ACAD_REACTORS
330
C
102
}
330
C
100
AcDbXrecord
280
     1
 90
        1
330
389
  0
DICTIONARY
  5
357
102
{ACAD_REACTORS
330
C
102
}
330
C
100
AcDbDictionary
281
     1
  3
CANNOSCALE
350
449
  3
CMLEADERSTYLE
350
447
  3
CTABLESTYLE
350
38E
  3
DIMASSOC
350
359
  3
HIDETEXT
350
358
  3
INDEXCTL
350
F4B
  3
LAYEREVAL
350
7AE
  3
LAYERNOTIFY
350
7AF
  3
LIGHTINGUNITS
350
44A
  3
MSLTSCALE
350
448
  3
SOLIDHIST
350
F4D
  3
SORTENTS
350
F4A
  3
XCLIPFRAME
350
FC9
  0
DICTIONARY
  5
76D
102
{ACAD_REACTORS
330
C
102
}
330
C
100
AcDbDictionary
281
     1
  3
AcmStdDictionary
350
76F
  0
DICTIONARY
  5
5CF
102
{ACAD_REACTORS
330
C
102
}
330
C
100
AcDbDictionary
281
     1
  0
DICTIONARY
  5
743
102
{ACAD_REACTORS
330
C
102
}
330
C
100
AcDbDictionary
281
     1
  0
DICTIONARY
  5
7F6
102
{ACAD_REACTORS
330
C
102
}
330
C
100
AcDbDictionary
281
     1
  0
DICTIONARY
  5
C2B
102
{ACAD_REACTORS
330
C
102
}
330
C
100
AcDbDictionary
281
     1
  3
ASEBlockHierarchyIndexRecord
350
C2C
1001
DCO15
1040
1780749175.381
  0
DICTIONARY
  5
6C6
102
{ACAD_REACTORS
330
451
102
}
330
451
100
AcDbDictionary
281
     1
  0
DICTIONARY
  5
EAA
102
{ACAD_REACTORS
330
451
102
}
330
451
100
AcDbDictionary
281
     1
  0
DICTIONARY
  5
6C5
102
{ACAD_REACTORS
330
451
102
}
330
451
100
AcDbDictionary
281
     1
1001
ACAD
1000
<All
  0
XRECORD
  5
F35
102
{ACAD_REACTORS
330
F34
102
}
330
F34
100
AcDbXrecord
280
     1
290
     1
  0
XRECORD
  5
F37
102
{ACAD_REACTORS
330
F36
102
}
330
F36
100
AcDbXrecord
280
     1
290
     1
  0
XRECORD
  5
F39
102
{ACAD_REACTORS
330
F38
102
}
330
F38
100
AcDbXrecord
280
     1
290
     1
  0
XRECORD
  5
F3B
102
{ACAD_REACTORS
330
F3A
102
}
330
F3A
100
AcDbXrecord
280
     1
290
     1
  0
XRECORD
  5
F3D
102
{ACAD_REACTORS
330
F3C
102
}
330
F3C
100
AcDbXrecord
280
     1
290
     1
  0
XRECORD
  5
F3F
102
{ACAD_REACTORS
330
F3E
102
}
330
F3E
100
AcDbXrecord
280
     1
290
     1
  0
XRECORD
  5
F41
102
{ACAD_REACTORS
330
F40
102
}
330
F40
100
AcDbXrecord
280
     1
290
     1
  0
XRECORD
  5
F43
102
{ACAD_REACTORS
330
F42
102
}
330
F42
100
AcDbXrecord
280
     1
290
     1
  0
XRECORD
  5
F45
102
{ACAD_REACTORS
330
F44
102
}
330
F44
100
AcDbXrecord
280
     1
290
     1
  0
XRECORD
  5
F47
102
{ACAD_REACTORS
330
F46
102
}
330
F46
100
AcDbXrecord
280
     1
290
     1
  0
SORTENTSTABLE
  5
C2A
102
{ACAD_REACTORS
330
C29
102
}
330
C29
100
AcDbSortentsTable
330
18
331
AC9
  5
AC9
331
AF8
  5
AF8
331
A92
  5
A92
331
BF4
  5
BF4
331
A9A
  5
A9A
331
AD1
  5
AD1
331
A5B
  5
A5B
331
B00
  5
B00
331
BAD
  5
BAD
331
BBD
  5
BBD
331
BFC
  5
BFC
331
B08
  5
B08
331
B3F
  5
B3F
331
A63
  5
A63
331
AA2
  5
AA2
331
AD9
  5
AD9
331
B7E
  5
B7E
331
B86
  5
B86
331
B10
  5
B10
331
B47
  5
B47
331
C04
  5
C04
331
A6B
  5
A6B
331
AAA
  5
AAA
331
AE1
  5
AE1
331
C0C
  5
C0C
331
A3E
  5
A3E
331
A46
  5
A46
331
A4E
  5
A4E
331
B18
  5
B18
331
A73
  5
A73
331
AB2
  5
AB2
331
C14
  5
C14
331
B57
  5
B57
331
B96
  5
B96
331
ABA
  5
ABA
331
A7B
  5
A7B
331
B20
  5
B20
331
BD5
  5
BD5
331
C1C
  5
C1C
331
B28
  5
B28
331
AE9
  5
AE9
331
B9E
  5
B9E
331
A83
  5
A83
331
BE5
  5
BE5
331
C24
  5
C24
331
A8B
  5
A8B
331
AF1
  5
AF1
331
BED
  5
BED
331
B6F
  5
B6F
331
EB6
  5
EB6
331
AF9
  5
AF9
331
B30
  5
B30
331
A54
  5
A54
331
A93
  5
A93
331
ACA
  5
ACA
331
B77
  5
B77
331
AD2
  5
AD2
331
B01
  5
B01
331
A9B
  5
A9B
331
BF5
  5
BF5
331
BFD
  5
BFD
331
ADA
  5
ADA
331
B09
  5
B09
331
A64
  5
A64
331
AA3
  5
AA3
331
B40
  5
B40
331
C05
  5
C05
331
B87
  5
B87
331
AAB
  5
AAB
331
AE2
  5
AE2
331
A6C
  5
A6C
331
B11
  5
B11
331
BC6
  5
BC6
331
B8F
  5
B8F
331
CD0
  5
CD0
331
A47
  5
A47
331
A4F
  5
A4F
331
C28
  5
C28
331
B19
  5
B19
331
A74
  5
A74
331
AB3
  5
AB3
331
B50
  5
B50
331
BD6
  5
BD6
331
CEA
  5
CEA
331
B21
  5
B21
331
ABB
  5
ABB
331
B58
  5
B58
331
AEA
  5
AEA
331
B29
  5
B29
331
A84
  5
A84
331
AC3
  5
AC3
331
B60
  5
B60
331
C1D
  5
C1D
331
FC7
  5
FC5
331
C25
  5
C25
331
AF2
  5
AF2
331
BA7
  5
BA7
331
A8C
  5
A8C
331
BEE
  5
BEE
331
B31
  5
B31
331
ACB
  5
ACB
331
A55
  5
A55
331
AFA
  5
AFA
331
BF6
  5
BF6
331
B39
  5
B39
331
B78
  5
B78
331
A9C
  5
A9C
331
AD3
  5
AD3
331
A5D
  5
A5D
331
B02
  5
B02
331
BFE
  5
BFE
331
D41
  5
D41
331
B0A
  5
B0A
331
A65
  5
A65
331
ADB
  5
ADB
331
B80
  5
B80
331
BC7
  5
BC7
331
AE3
  5
AE3
331
B12
  5
B12
331
A6D
  5
A6D
331
AAC
  5
AAC
331
B49
  5
B49
331
C06
  5
C06
331
C0E
  5
C0E
331
A48
  5
A48
331
B90
  5
B90
331
B1A
  5
B1A
331
A75
  5
A75
331
AB4
  5
AB4
331
C16
  5
C16
331
B59
  5
B59
331
ABC
  5
ABC
331
B22
  5
B22
331
BD7
  5
BD7
331
C1E
  5
C1E
331
B2A
  5
B2A
331
A85
  5
A85
331
AC4
  5
AC4
331
AEB
  5
AEB
331
BA0
  5
BA0
331
BE7
  5
BE7
331
C26
  5
C26
331
A8D
  5
A8D
331
AF3
  5
AF3
331
BEF
  5
BEF
331
ED9
  5
FC7
331
AFB
  5
AFB
331
B32
  5
B32
331
A56
  5
A56
331
A95
  5
A95
331
ACC
  5
ACC
331
B71
  5
B71
331
AD4
  5
AD4
331
A5E
  5
A5E
331
B03
  5
B03
331
BB8
  5
BB8
331
BF7
  5
BF7
331
BFF
  5
BFF
331
D42
  5
D42
331
B42
  5
B42
331
B81
  5
B81
331
ADC
  5
ADC
331
B0B
  5
B0B
331
AA5
  5
AA5
331
C07
  5
C07
331
B89
  5
B89
331
AAD
  5
AAD
331
AE4
  5
AE4
331
B13
  5
B13
331
BC8
  5
BC8
331
A49
  5
A49
331
A76
  5
A76
331
B1B
  5
B1B
331
B52
  5
B52
331
BD8
  5
BD8
331
B23
  5
B23
331
A7E
  5
A7E
331
ABD
  5
ABD
331
B5A
  5
B5A
331
C1F
  5
C1F
331
AEC
  5
AEC
331
B2B
  5
B2B
331
A86
  5
A86
331
AC5
  5
AC5
331
B62
  5
B62
331
C27
  5
C27
331
AF4
  5
AF4
331
A8E
  5
A8E
331
BF0
  5
BF0
331
B33
  5
B33
331
ACD
  5
ACD
331
A57
  5
A57
331
AFC
  5
AFC
331
BA9
  5
BA9
331
BB9
  5
BB9
331
BF8
  5
BF8
331
B7A
  5
B7A
331
AD5
  5
AD5
331
A5F
  5
A5F
331
B04
  5
B04
331
C00
  5
C00
331
B0C
  5
B0C
331
B43
  5
B43
331
AA6
  5
AA6
331
ADD
  5
ADD
331
B82
  5
B82
331
B8A
  5
B8A
331
AE5
  5
AE5
331
B14
  5
B14
331
A6F
  5
A6F
331
AAE
  5
AAE
331
B4B
  5
B4B
331
C08
  5
C08
331
A42
  5
A42
331
A4A
  5
A4A
331
C10
  5
C10
331
B92
  5
B92
331
B1C
  5
B1C
331
BD1
  5
BD1
331
A77
  5
A77
331
AB6
  5
AB6
331
C18
  5
C18
331
B5B
  5
B5B
331
ABE
  5
ABE
331
A7F
  5
A7F
331
B24
  5
B24
331
BD9
  5
BD9
331
BE1
  5
BE1
331
C20
  5
C20
331
B2C
  5
B2C
331
A87
  5
A87
331
AC6
  5
AC6
331
AED
  5
AED
331
BA2
  5
BA2
331
AF5
  5
AF5
331
A8F
  5
A8F
331
BE9
  5
BE9
331
A50
  5
A50
331
AFD
  5
AFD
331
B34
  5
B34
331
BF1
  5
BF1
331
A58
  5
A58
331
A97
  5
A97
331
ACE
  5
ACE
331
B7B
  5
B7B
331
AD6
  5
AD6
331
B05
  5
B05
331
A60
  5
A60
331
A9F
  5
A9F
331
BF9
  5
BF9
331
C01
  5
C01
331
B44
  5
B44
331
B83
  5
B83
331
AA7
  5
AA7
331
ADE
  5
ADE
331
B0D
  5
B0D
331
BC2
  5
BC2
331
C09
  5
C09
331
AAF
  5
AAF
331
AE6
  5
AE6
331
B15
  5
B15
331
A43
  5
A43
331
A4B
  5
A4B
331
BD2
  5
BD2
331
B1D
  5
B1D
331
A78
  5
A78
331
AB7
  5
AB7
331
B54
  5
B54
331
B93
  5
B93
331
B25
  5
B25
331
BDA
  5
BDA
331
A80
  5
A80
331
ABF
  5
ABF
331
C21
  5
C21
331
B64
  5
B64
331
AEE
  5
AEE
331
B2D
  5
B2D
331
BE2
  5
BE2
331
A88
  5
A88
331
AC7
  5
AC7
331
B6C
  5
B6C
331
AF6
  5
AF6
331
A51
  5
A51
331
A90
  5
A90
331
BF2
  5
BF2
331
B35
  5
B35
331
B74
  5
B74
331
A98
  5
A98
331
ACF
  5
ACF
331
A59
  5
A59
331
AFE
  5
AFE
331
BAB
  5
BAB
331
B06
  5
B06
331
BFA
  5
BFA
331
AA0
  5
AA0
331
AD7
  5
AD7
331
A61
  5
A61
331
B0E
  5
B0E
331
BC3
  5
BC3
331
C02
  5
C02
331
AA8
  5
AA8
331
ADF
  5
ADF
331
B8C
  5
B8C
331
AE7
  5
AE7
331
B16
  5
B16
331
C0A
  5
C0A
331
A44
  5
A44
331
A4C
  5
A4C
331
A71
  5
A71
331
AB0
  5
AB0
331
C12
  5
C12
331
B55
  5
B55
331
AB8
  5
AB8
331
A79
  5
A79
331
B1E
  5
B1E
331
BD3
  5
BD3
331
BDB
  5
BDB
331
C1A
  5
C1A
331
B9C
  5
B9C
331
CEF
  5
CEF
331
AC0
  5
AC0
331
A81
  5
A81
331
B26
  5
B26
331
B2E
  5
B2E
331
BE3
  5
BE3
331
C22
  5
C22
331
AEF
  5
AEF
331
AF7
  5
AF7
331
BEB
  5
BEB
331
A91
  5
A91
331
AC8
  5
AC8
331
B75
  5
B75
331
AFF
  5
AFF
331
B36
  5
B36
331
BF3
  5
BF3
331
A99
  5
A99
331
AD0
  5
AD0
331
B7D
  5
B7D
331
AD8
  5
AD8
331
A62
  5
A62
331
B07
  5
B07
331
B3E
  5
B3E
331
BFB
  5
BFB
331
C03
  5
C03
331
AA9
  5
AA9
331
AE0
  5
AE0
331
A6A
  5
A6A
331
B0F
  5
B0F
331
C0B
  5
C0B
331
B17
  5
B17
331
B8D
  5
B8D
331
C9E
  5
C9E
331
A45
  5
A45
331
EBB
  5
FC6
331
A4D
  5
A4D
331
AB1
  5
AB1
331
A72
  5
A72
331
BD4
  5
BD4
331
B1F
  5
B1F
331
A7A
  5
A7A
331
AB9
  5
AB9
331
B56
  5
B56
331
B95
  5
B95
331
BDC
  5
BDC
331
AE8
  5
AE8
331
B27
  5
B27
331
A82
  5
A82
331
AC1
  5
AC1
331
B5E
  5
B5E
331
C1B
  5
C1B
331
C23
  5
C23
331
AF0
  5
AF0
331
A8A
  5
A8A
331
B2F
  5
B2F
331
B6E
  5
B6E
  0
DIMASSOC
  5
CB5
102
{ACAD_REACTORS
330
CAB
102
}
330
CAB
100
AcDbDimAssoc
330
C9E
 90
        3
 70
     0
 71
     0
  1
AcDbOsnapPointRef
 72
     1
331
AE5
 73
     2
 91
        0
 40
1.0
 10
0.0
 20
0.0
 30
2.000000000000000E+50
 75
     0
  1
AcDbOsnapPointRef
 72
    13
331
C27
 73
     2
 91
        0
 40
0.0
 10
0.0
 20
0.0
 30
2.000000000000000E+50
 75
     0
  0
DIMASSOC
  5
CE9
102
{ACAD_REACTORS
330
CDE
102
}
330
CDE
100
AcDbDimAssoc
330
CD0
 90
        3
 70
     0
 71
     0
  1
AcDbOsnapPointRef
 72
    10
331
AE5
 73
     2
 91
        0
 40
0.9236508541113835
 10
0.0
 20
0.0
 30
0.0
 75
     0
  1
AcDbOsnapPointRef
 72
     8
331
AE6
 73
     2
 91
        0
 40
0.9236508541113835
 10
0.0
 20
0.0
 30
0.0
 75
     1
  1
AcDbOsnapPointRef
 72
    10
331
AE5
 73
     2
 91
        0
 40
0.9236508541113835
 10
0.0
 20
0.0
 30
0.0
 75
     0
  0
DIMASSOC
  5
CEE
102
{ACAD_REACTORS
330
CED
102
}
330
CED
100
AcDbDimAssoc
330
CEA
 90
        1
 70
     0
 71
     0
  1
AcDbOsnapPointRef
 72
     2
331
B29
 73
     2
 91
        0
 40
0.4999999999999984
 10
0.0
 20
0.0
 30
0.0
 75
     0
  0
XRECORD
  5
FCD
102
{ACAD_REACTORS
330
CED
102
}
330
CED
100
AcDbXrecord
280
     1
102
ACAD_ROUNDTRIP_2012_MLEADER
295
     1
  0
DIMASSOC
  5
CF1
102
{ACAD_REACTORS
330
CF0
102
}
330
CF0
100
AcDbDimAssoc
330
CEF
 90
        1
 70
     0
 71
     0
  1
AcDbOsnapPointRef
 72
     2
331
C24
 73
     2
 91
        0
 40
0.5000000000000002
 10
0.0
 20
0.0
 30
0.0
 75
     0
  0
XRECORD
  5
FCE
102
{ACAD_REACTORS
330
CF0
102
}
330
CF0
100
AcDbXrecord
280
     1
102
ACAD_ROUNDTRIP_2012_MLEADER
295
     1
  0
DIMASSOC
  5
EDB
102
{ACAD_REACTORS
330
EDA
102
}
330
EDA
100
AcDbDimAssoc
330
ED9
 90
        1
 70
     0
 71
     0
  1
AcDbOsnapPointRef
 72
     0
331
BD4
 73
     2
 91
        0
 40
0.0
 10
5.870763797926012
 20
-2.839454172900103
 30
0.0
 75
     0
  0
XRECORD
  5
FCF
102
{ACAD_REACTORS
330
EDA
102
}
330
EDA
100
AcDbXrecord
280
     1
102
ACAD_ROUNDTRIP_2012_MLEADER
295
     1
  0
XRECORD
  5
FD2
102
{ACAD_REACTORS
330
FD1
102
}
330
FD1
100
AcDbXrecord
280
     1
 70
     1
  0
XRECORD
  5
FD4
102
{ACAD_REACTORS
330
FD1
102
}
330
FD1
100
AcDbXrecord
280
     1
340
12
  0
XRECORD
  5
FD5
102
{ACAD_REACTORS
330
FD1
102
}
330
FD1
100
AcDbXrecord
280
     1
340
12
  0
XRECORD
  5
FD3
102
{ACAD_REACTORS
330
FD1
102
}
330
FD1
100
AcDbXrecord
280
     1
340
12
  0
LAYOUT
  5
33B
102
{ACAD_REACTORS
330
301
102
}
330
301
100
AcDbPlotSettings
  1

  2
Lexmark Optra PS2
  4

  6

 40
0.0
 41
0.0
 42
0.0
 43
0.0
 44
0.0
 45
0.0
 46
0.0
 47
0.0
 48
0.0
 49
0.0
140
0.0
141
0.0
142
1.0
143
1.0
 70
   688
 72
     0
 73
     0
 74
     5
  7
monochrome.ctb
 75
    16
147
1.0
 76
     0
 77
     2
 78
   300
148
0.0
149
0.0
100
AcDbLayout
  1
Layout1
 70
     1
 71
     1
 10
0.0
 20
0.0
 11
12.0
 21
9.0
 12
0.0
 22
0.0
 32
0.0
 14
0.0
 24
0.0
 34
0.0
 15
0.0
 25
0.0
 35
0.0
146
0.0
 13
0.0
 23
0.0
 33
0.0
 16
1.0
 26
0.0
 36
0.0
 17
0.0
 27
1.0
 37
0.0
 76
     0
330
338
  0
LAYOUT
  5
303
102
{ACAD_REACTORS
330
301
102
}
330
301
100
AcDbPlotSettings
  1

  2
Default Windows System Printer.pc3
  4
A4
  6

 40
6.805083274841307
 41
5.535083293914794
 42
6.974411010742187
 43
7.14373779296875
 44
209.9733276367186
 45
296.9259948730469
 46
67.83299579489725
 47
0.0
 48
0.0
 49
0.0
140
0.0
141
0.0
142
1.0
143
0.3604333568168785
 70
  3764
 72
     1
 73
     1
 74
     1
  7
monochrome.ctb
 75
     0
147
2.774437995504559
 76
     1
 77
     2
 78
   300
148
-82.35087775247029
149
-53.69369632994493
100
AcDbLayout
  1
Model
 70
     1
 71
     0
 10
0.0
 20
0.0
 11
12.0
 21
9.0
 12
0.0
 22
0.0
 32
0.0
 14
0.0
 24
0.0
 34
0.0
 15
0.0
 25
0.0
 35
0.0
146
0.0
 13
0.0
 23
0.0
 33
0.0
 16
1.0
 26
0.0
 36
0.0
 17
0.0
 27
1.0
 37
0.0
 76
     0
330
18
331
3ED
1001
ACAD_PSEXT
1000
Default Windows System Printer.pc3
1000
Lexmark Optra Rx
1000
Lexmark Rx
1000
Erstellt von Lexmark Benutzerdefinierte Installation,Nov 13,2005,10:03
1070
     0
  0
MATERIAL
  5
3F0
102
{ACAD_XDICTIONARY
360
F5B
102
}
102
{ACAD_REACTORS
330
386
102
}
330
386
100
AcDbMaterial
  1
ByBlock
 73
     1
 78
     1
172
     1
176
     1
270
     1
274
     1
  0
MATERIAL
  5
3EF
102
{ACAD_XDICTIONARY
360
F59
102
}
102
{ACAD_REACTORS
330
386
102
}
330
386
100
AcDbMaterial
  1
ByLayer
 73
     1
 78
     1
172
     1
176
     1
270
     1
274
     1
  0
MATERIAL
  5
3F1
102
{ACAD_XDICTIONARY
360
F5D
102
}
102
{ACAD_REACTORS
330
386
102
}
330
386
100
AcDbMaterial
  1
Global
 73
     1
 78
     1
172
     1
176
     1
270
     1
274
     1
  0
MLEADERSTYLE
  5
43D
102
{ACAD_XDICTIONARY
360
FCB
102
}
102
{ACAD_REACTORS
330
43C
330
CEA
330
CEF
330
ED9
102
}
330
43C
100
AcDbMLeaderStyle
170
     2
171
     1
172
     0
 90
        2
 40
0.0
 41
0.0
173
     1
 91
-1056964608
340
12
 92
       -2
290
     1
 42
2.0
291
     1
 43
0.36
  3
Standard
 44
4.0
300

342
10
174
     1
178
     6
175
     1
176
     0
 93
-1056964608
 45
4.0
292
     0
297
     0
 46
4.0
 94
-1056964608
 47
1.0
 49
1.0
140
1.0
293
     1
141
0.0
294
     1
177
     0
142
1.0
295
     0
296
     0
143
0.125
1001
ACAD_MLEADERVER
1070
     2
  0
MLINESTYLE
  5
1B
102
{ACAD_REACTORS
330
E
102
}
330
E
100
AcDbMlineStyle
  2
STANDARD
 70
     0
  3

 62
     0
 51
90.0
 52
90.0
 71
     2
 49
0.5
 62
   256
  6
BYLAYER
 49
-0.5
 62
   256
  6
BYLAYER
  0
ACDBPLACEHOLDER
  5
300
102
{ACAD_REACTORS
330
2FF
102
}
330
2FF
  0
SCALE
  5
41B
102
{ACAD_REACTORS
330
41A
102
}
330
41A
100
AcDbScale
 70
     0
300
1:1
140
1.0
141
1.0
290
     1
  0
SCALE
  5
41C
102
{ACAD_REACTORS
330
41A
102
}
330
41A
100
AcDbScale
 70
     0
300
1:2
140
1.0
141
2.0
290
     0
  0
SCALE
  5
41D
102
{ACAD_REACTORS
330
41A
102
}
330
41A
100
AcDbScale
 70
     0
300
1:4
140
1.0
141
4.0
290
     0
  0
SCALE
  5
41E
102
{ACAD_REACTORS
330
41A
102
}
330
41A
100
AcDbScale
 70
     0
300
1:5
140
1.0
141
5.0
290
     0
  0
SCALE
  5
41F
102
{ACAD_REACTORS
330
41A
102
}
330
41A
100
AcDbScale
 70
     0
300
1:8
140
1.0
141
8.0
290
     0
  0
SCALE
  5
420
102
{ACAD_REACTORS
330
41A
102
}
330
41A
100
AcDbScale
 70
     0
300
1:10
140
1.0
141
10.0
290
     0
  0
SCALE
  5
421
102
{ACAD_REACTORS
330
41A
102
}
330
41A
100
AcDbScale
 70
     0
300
1:16
140
1.0
141
16.0
290
     0
  0
SCALE
  5
422
102
{ACAD_REACTORS
330
41A
102
}
330
41A
100
AcDbScale
 70
     0
300
1:20
140
1.0
141
20.0
290
     0
  0
SCALE
  5
423
102
{ACAD_REACTORS
330
41A
102
}
330
41A
100
AcDbScale
 70
     0
300
1:30
140
1.0
141
30.0
290
     0
  0
SCALE
  5
424
102
{ACAD_REACTORS
330
41A
102
}
330
41A
100
AcDbScale
 70
     0
300
1:40
140
1.0
141
40.0
290
     0
  0
SCALE
  5
425
102
{ACAD_REACTORS
330
41A
102
}
330
41A
100
AcDbScale
 70
     0
300
1:50
140
1.0
141
50.0
290
     0
  0
SCALE
  5
426
102
{ACAD_REACTORS
330
41A
102
}
330
41A
100
AcDbScale
 70
     0
300
1:100
140
1.0
141
100.0
290
     0
  0
SCALE
  5
427
102
{ACAD_REACTORS
330
41A
102
}
330
41A
100
AcDbScale
 70
     0
300
2:1
140
2.0
141
1.0
290
     0
  0
SCALE
  5
428
102
{ACAD_REACTORS
330
41A
102
}
330
41A
100
AcDbScale
 70
     0
300
4:1
140
4.0
141
1.0
290
     0
  0
SCALE
  5
429
102
{ACAD_REACTORS
330
41A
102
}
330
41A
100
AcDbScale
 70
     0
300
8:1
140
8.0
141
1.0
290
     0
  0
SCALE
  5
42A
102
{ACAD_REACTORS
330
41A
102
}
330
41A
100
AcDbScale
 70
     0
300
10:1
140
10.0
141
1.0
290
     0
  0
SCALE
  5
42B
102
{ACAD_REACTORS
330
41A
102
}
330
41A
100
AcDbScale
 70
     0
300
100:1
140
100.0
141
1.0
290
     0
  0
SCALE
  5
42C
102
{ACAD_REACTORS
330
41A
102
}
330
41A
100
AcDbScale
 70
     0
300
1/128" = 1'-0"
140
0.0078125
141
12.0
290
     0
  0
SCALE
  5
42D
102
{ACAD_REACTORS
330
41A
102
}
330
41A
100
AcDbScale
 70
     0
300
1/64" = 1'-0"
140
0.015625
141
12.0
290
     0
  0
SCALE
  5
42E
102
{ACAD_REACTORS
330
41A
102
}
330
41A
100
AcDbScale
 70
     0
300
1/32" = 1'-0"
140
0.03125
141
12.0
290
     0
  0
SCALE
  5
42F
102
{ACAD_REACTORS
330
41A
102
}
330
41A
100
AcDbScale
 70
     0
300
1/16" = 1'-0"
140
0.0625
141
12.0
290
     0
  0
SCALE
  5
430
102
{ACAD_REACTORS
330
41A
102
}
330
41A
100
AcDbScale
 70
     0
300
3/32" = 1'-0"
140
0.09375
141
12.0
290
     0
  0
SCALE
  5
431
102
{ACAD_REACTORS
330
41A
102
}
330
41A
100
AcDbScale
 70
     0
300
1/8" = 1'-0"
140
0.125
141
12.0
290
     0
  0
SCALE
  5
432
102
{ACAD_REACTORS
330
41A
102
}
330
41A
100
AcDbScale
 70
     0
300
3/16" = 1'-0"
140
0.1875
141
12.0
290
     0
  0
SCALE
  5
433
102
{ACAD_REACTORS
330
41A
102
}
330
41A
100
AcDbScale
 70
     0
300
1/4" = 1'-0"
140
0.25
141
12.0
290
     0
  0
SCALE
  5
434
102
{ACAD_REACTORS
330
41A
102
}
330
41A
100
AcDbScale
 70
     0
300
3/8" = 1'-0"
140
0.375
141
12.0
290
     0
  0
SCALE
  5
435
102
{ACAD_REACTORS
330
41A
102
}
330
41A
100
AcDbScale
 70
     0
300
1/2" = 1'-0"
140
0.5
141
12.0
290
     0
  0
SCALE
  5
436
102
{ACAD_REACTORS
330
41A
102
}
330
41A
100
AcDbScale
 70
     0
300
3/4" = 1'-0"
140
0.75
141
12.0
290
     0
  0
SCALE
  5
437
102
{ACAD_REACTORS
330
41A
102
}
330
41A
100
AcDbScale
 70
     0
300
1" = 1'-0"
140
1.0
141
12.0
290
     0
  0
SCALE
  5
438
102
{ACAD_REACTORS
330
41A
102
}
330
41A
100
AcDbScale
 70
     0
300
1-1/2" = 1'-0"
140
1.5
141
12.0
290
     0
  0
SCALE
  5
439
102
{ACAD_REACTORS
330
41A
102
}
330
41A
100
AcDbScale
 70
     0
300
3" = 1'-0"
140
3.0
141
12.0
290
     0
  0
SCALE
  5
43A
102
{ACAD_REACTORS
330
41A
102
}
330
41A
100
AcDbScale
 70
     0
300
6" = 1'-0"
140
6.0
141
12.0
290
     0
  0
SCALE
  5
43B
102
{ACAD_REACTORS
330
41A
102
}
330
41A
100
AcDbScale
 70
     0
300
1'-0" = 1'-0"
140
12.0
141
12.0
290
     0
  0
TABLESTYLE
  5
389
102
{ACAD_XDICTIONARY
360
444
102
}
102
{ACAD_REACTORS
330
388
102
}
330
388
100
AcDbTableStyle
  3
Standard
 70
     0
 71
     0
 40
1.5
 41
1.5
280
     0
281
     0
  7
STANDARD
140
4.5
170
     2
 62
     0
 63
     7
283
     0
274
    -2
284
     1
 64
     0
275
    -2
285
     1
 65
     0
276
    -2
286
     1
 66
     0
277
    -2
287
     1
 67
     0
278
    -2
288
     1
 68
     0
279
    -2
289
     1
 69
     0
  7
STANDARD
140
6.0
170
     5
 62
     0
 63
     7
283
     0
274
    -2
284
     1
 64
     0
275
    -2
285
     1
 65
     0
276
    -2
286
     1
 66
     0
277
    -2
287
     1
 67
     0
278
    -2
288
     1
 68
     0
279
    -2
289
     1
 69
     0
  7
STANDARD
140
4.5
170
     5
 62
     0
 63
     7
283
     0
274
    -2
284
     1
 64
     0
275
    -2
285
     1
 65
     0
276
    -2
286
     1
 66
     0
277
    -2
287
     1
 67
     0
278
    -2
288
     1
 68
     0
279
    -2
289
     1
 69
     0
  0
VISUALSTYLE
  5
3F8
102
{ACAD_XDICTIONARY
360
FE1
102
}
102
{ACAD_REACTORS
330
3F2
102
}
330
3F2
100
AcDbVisualStyle
  2

 70
     4
 71
     0
 72
     2
 73
     0
 90
        0
 40
-0.6
 41
-30.0
 62
     5
 63
     7
 74
     1
 91
        4
 64
     7
 65
   257
 75
     1
175
     1
 42
1.0
 92
        0
 66
   257
 43
1.0
 76
     1
 77
     6
 78
     2
 67
     7
 79
     5
170
     0
171
     0
290
     0
174
     0
 93
        1
 44
0.0
173
     0
291
     0
 45
0.0
1001
ACAD
1000
AcDbSavedByObjectVersion
1070
     0
  0
VISUALSTYLE
  5
3FA
102
{ACAD_XDICTIONARY
360
FE5
102
}
102
{ACAD_REACTORS
330
3F2
102
}
330
3F2
100
AcDbVisualStyle
  2

 70
     6
 71
     1
 72
     2
 73
     2
 90
        0
 40
-0.6
 41
-30.0
 62
     5
 63
     7
 74
     2
 91
        2
 64
     7
 65
   257
 75
     2
175
     1
 42
40.0
 92
        0
 66
   257
 43
1.0
 76
     1
 77
     6
 78
     2
 67
     7
 79
     3
170
     0
171
     0
290
     0
174
     0
 93
        1
 44
0.0
173
     0
291
     0
 45
0.0
1001
ACAD
1000
AcDbSavedByObjectVersion
1070
     0
  0
VISUALSTYLE
  5
3F9
102
{ACAD_XDICTIONARY
360
FE3
102
}
102
{ACAD_REACTORS
330
3F2
102
}
330
3F2
100
AcDbVisualStyle
  2

 70
     5
 71
     0
 72
     2
 73
     0
 90
        0
 40
-0.6
 41
-30.0
 62
     5
 63
     7
 74
     1
 91
        4
 64
     7
 65
   257
 75
     1
175
     1
 42
1.0
 92
        0
 66
   257
 43
1.0
 76
     1
 77
     6
 78
     2
 67
     7
 79
     5
170
     0
171
     0
290
     0
174
     0
 93
        1
 44
0.0
173
     0
291
     0
 45
0.0
1001
ACAD
1000
AcDbSavedByObjectVersion
1070
     0
  0
VISUALSTYLE
  5
3F7
102
{ACAD_XDICTIONARY
360
FDF
102
}
102
{ACAD_REACTORS
330
3F2
102
}
330
3F2
100
AcDbVisualStyle
  2

 70
     7
 71
     1
 72
     0
 73
     1
 90
        0
 40
-0.6
 41
-30.0
 62
     5
 63
     7
 74
     0
 91
        4
 64
     7
 65
   257
 75
     1
175
     1
 42
1.0
 92
        8
 66
     7
 43
1.0
 76
     1
 77
     6
 78
     2
 67
     7
 79
     5
170
     0
171
     0
290
     0
174
     0
 93
        1
 44
0.0
173
     0
291
     1
 45
0.0
1001
ACAD
1000
AcDbSavedByObjectVersion
1070
     0
  0
VISUALSTYLE
  5
3FE
102
{ACAD_XDICTIONARY
360
FED
102
}
102
{ACAD_REACTORS
330
3F2
102
}
330
3F2
100
AcDbVisualStyle
  2

 70
    12
 71
     2
 72
     2
 73
     0
 90
        0
 40
-0.6
 41
-30.0
 62
     5
 63
     7
 74
     1
 91
        4
 64
     7
 65
   257
 75
     1
175
     1
 42
1.0
 92
        8
 66
     7
 43
1.0
 76
     1
 77
     6
 78
     2
 67
     7
 79
     5
170
     0
171
     0
290
     0
174
     0
 93
        1
 44
50.0
173
     0
291
     1
 45
0.0
1001
ACAD
1000
AcDbSavedByObjectVersion
1070
     0
  0
VISUALSTYLE
  5
402
102
{ACAD_XDICTIONARY
360
FF5
102
}
102
{ACAD_REACTORS
330
3F2
102
}
330
3F2
100
AcDbVisualStyle
  2

 70
    16
 71
     2
 72
     2
 73
     3
 90
        0
 40
-0.6
 41
-30.0
 62
     5
 63
     8
 74
     1
 91
        4
 64
     7
 65
   257
 75
     1
175
     1
 42
1.0
 92
        8
 66
     8
 43
1.0
 76
     1
 77
     6
 78
     2
 67
     7
 79
     5
170
     0
171
     0
290
     0
174
     0
 93
        1
 44
0.0
173
     0
291
     1
 45
0.0
1001
ACAD
1000
AcDbSavedByObjectVersion
1070
     0
  0
VISUALSTYLE
  5
3FB
102
{ACAD_XDICTIONARY
360
FE7
102
}
102
{ACAD_REACTORS
330
3F2
102
}
330
3F2
100
AcDbVisualStyle
  2

 70
     9
 71
     3
 72
     2
 73
     0
 90
        0
 40
-0.6
 41
-30.0
 62
     5
 63
     7
 74
     2
 91
        2
 64
     7
 65
   257
 75
     1
175
     1
 42
40.0
 92
        8
 66
     7
 43
1.0
 76
     1
 77
     6
 78
     2
 67
     7
 79
     3
170
     0
171
     0
290
     0
174
     0
 93
        1
 44
0.0
173
     0
291
     0
 45
0.0
1001
ACAD
1000
AcDbSavedByObjectVersion
1070
     0
  0
VISUALSTYLE
  5
3FD
102
{ACAD_XDICTIONARY
360
FEB
102
}
102
{ACAD_REACTORS
330
3F2
102
}
330
3F2
100
AcDbVisualStyle
  2

 70
    11
 71
     2
 72
     2
 73
     0
 90
        0
 40
-0.6
 41
-30.0
 62
     5
 63
     7
 74
     1
 91
        4
 64
     7
 65
   257
 75
     1
175
     1
 42
1.0
 92
        8
 66
     7
 43
1.0
 76
     1
 77
     6
 78
     2
 67
     7
 79
     5
170
     0
171
     0
290
     0
174
     0
 93
        1
 44
-50.0
173
     0
291
     1
 45
0.0
1001
ACAD
1000
AcDbSavedByObjectVersion
1070
     0
  0
VISUALSTYLE
  5
73A
102
{ACAD_XDICTIONARY
360
1009
102
}
102
{ACAD_REACTORS
330
3F2
102
}
330
3F2
100
AcDbVisualStyle
  2

 70
    22
 71
     2
 72
     2
 73
     0
 90
        0
 40
-0.6
 41
-30.0
 62
     5
 63
     7
 74
     1
 91
        4
 64
     7
 65
   257
 75
     1
175
     1
 42
1.0
 92
        8
 66
     7
 43
1.0
 76
     1
 77
     6
 78
     2
 67
     7
 79
     5
170
     0
171
     0
290
     0
174
     0
 93
        1
 44
0.0
173
     0
291
     1
 45
0.0
1001
ACAD
1000
AcDbSavedByObjectVersion
1070
     0
  0
VISUALSTYLE
  5
401
102
{ACAD_XDICTIONARY
360
FF3
102
}
102
{ACAD_REACTORS
330
3F2
102
}
330
3F2
100
AcDbVisualStyle
  2

 70
    15
 71
     2
 72
     2
 73
     0
 90
        0
 40
-0.6
 41
-30.0
 62
     5
 63
     7
 74
     1
 91
        4
 64
     7
 65
   257
 75
     1
175
     1
 42
1.0
 92
        8
 66
     7
 43
1.0
 76
     1
 77
     6
 78
     2
 67
     7
 79
     5
170
     0
171
     0
290
     0
174
     0
 93
        1
 44
0.0
173
     0
291
     1
 45
0.0
1001
ACAD
1000
AcDbSavedByObjectVersion
1070
     0
  0
VISUALSTYLE
  5
3F3
102
{ACAD_XDICTIONARY
360
FD7
102
}
102
{ACAD_REACTORS
330
3F2
102
}
330
3F2
100
AcDbVisualStyle
  2

 70
     0
 71
     2
 72
     1
 73
     1
 90
        2
 40
-0.6
 41
30.0
 62
     5
 63
     7
 74
     0
 91
        4
 64
     7
 65
   257
 75
     1
175
     1
 42
1.0
 92
        8
 66
     7
 43
1.0
 76
     1
 77
     6
 78
     2
 67
     7
 79
     5
170
     0
171
     0
290
     0
174
     0
 93
       13
 44
0.0
173
     0
291
     1
 45
0.0
1001
ACAD
1000
AcDbSavedByObjectVersion
1070
     0
  0
VISUALSTYLE
  5
3F4
102
{ACAD_XDICTIONARY
360
FD9
102
}
102
{ACAD_REACTORS
330
3F2
102
}
330
3F2
100
AcDbVisualStyle
  2

 70
     1
 71
     2
 72
     1
 73
     1
 90
        2
 40
-0.6
 41
30.0
 62
     5
 63
     7
 74
     1
 91
        4
 64
     7
 65
   257
 75
     1
175
     1
 42
1.0
 92
        0
 66
   257
 43
1.0
 76
     1
 77
     6
 78
     2
 67
     7
 79
     5
170
     0
171
     0
290
     0
174
     0
 93
       13
 44
0.0
173
     0
291
     1
 45
0.0
1001
ACAD
1000
AcDbSavedByObjectVersion
1070
     0
  0
VISUALSTYLE
  5
3F5
102
{ACAD_XDICTIONARY
360
FDB
102
}
102
{ACAD_REACTORS
330
3F2
102
}
330
3F2
100
AcDbVisualStyle
  2

 70
     2
 71
     2
 72
     2
 73
     1
 90
        2
 40
-0.6
 41
30.0
 62
     5
 63
     7
 74
     0
 91
        4
 64
     7
 65
   257
 75
     1
175
     1
 42
1.0
 92
        0
 66
     7
 43
1.0
 76
     1
 77
     6
 78
     2
 67
     7
 79
     5
170
     0
171
     0
290
     0
174
     0
 93
       13
 44
0.0
173
     0
291
     1
 45
0.0
1001
ACAD
1000
AcDbSavedByObjectVersion
1070
     0
  0
VISUALSTYLE
  5
3F6
102
{ACAD_XDICTIONARY
360
FDD
102
}
102
{ACAD_REACTORS
330
3F2
102
}
330
3F2
100
AcDbVisualStyle
  2

 70
     3
 71
     2
 72
     2
 73
     1
 90
        2
 40
-0.6
 41
30.0
 62
     5
 63
     7
 74
     1
 91
        4
 64
     7
 65
   257
 75
     1
175
     1
 42
1.0
 92
        0
 66
   257
 43
1.0
 76
     1
 77
     6
 78
     2
 67
     7
 79
     5
170
     0
171
     0
290
     0
174
     0
 93
       13
 44
0.0
173
     0
291
     1
 45
0.0
1001
ACAD
1000
AcDbSavedByObjectVersion
1070
     0
  0
VISUALSTYLE
  5
732
102
{ACAD_XDICTIONARY
360
FF9
102
}
102
{ACAD_REACTORS
330
3F2
102
}
330
3F2
100
AcDbVisualStyle
  2

 70
     6
 71
     1
 72
     2
 73
     2
 90
        0
 40
-0.6
 41
-30.0
 62
     5
 63
     7
 74
     2
 91
        2
 64
     7
 65
   257
 75
     2
175
     1
 42
40.0
 92
        0
 66
   257
 43
1.0
 76
     1
 77
     6
 78
     2
 67
     7
 79
     3
170
     0
171
     0
290
     0
174
     0
 93
        1
 44
0.0
173
     0
291
     0
 45
0.0
1001
ACAD
1000
AcDbSavedByObjectVersion
1070
     0
  0
VISUALSTYLE
  5
738
102
{ACAD_XDICTIONARY
360
1005
102
}
102
{ACAD_REACTORS
330
3F2
102
}
330
3F2
100
AcDbVisualStyle
  2

 70
    20
 71
     2
 72
     2
 73
     0
 90
        0
 40
-0.6
 41
-30.0
 62
     5
 63
     7
 74
     1
 91
        4
 64
     7
 65
   257
 75
     1
175
     1
 42
1.0
 92
       10
 66
     7
 43
1.0
 76
     1
 77
     6
 78
     2
 67
     7
 79
     5
170
     0
171
     0
290
     0
174
     0
 93
        1
 44
0.0
173
     0
291
     1
 45
0.0
1001
ACAD
1000
AcDbSavedByObjectVersion
1070
     0
  0
VISUALSTYLE
  5
400
102
{ACAD_XDICTIONARY
360
FF1
102
}
102
{ACAD_REACTORS
330
3F2
102
}
330
3F2
100
AcDbVisualStyle
  2

 70
    14
 71
     2
 72
     2
 73
     0
 90
        0
 40
-0.6
 41
-30.0
 62
     5
 63
     7
 74
     1
 91
        4
 64
     7
 65
   257
 75
     7
175
     7
 42
1.0
 92
        8
 66
     7
 43
1.0
 76
     1
 77
     6
 78
     2
 67
     7
 79
     5
170
     0
171
     0
290
     0
174
     0
 93
        1
 44
0.0
173
     0
291
     1
 45
0.0
1001
ACAD
1000
AcDbSavedByObjectVersion
1070
     0
  0
VISUALSTYLE
  5
739
102
{ACAD_XDICTIONARY
360
1007
102
}
102
{ACAD_REACTORS
330
3F2
102
}
330
3F2
100
AcDbVisualStyle
  2

 70
    21
 71
     2
 72
     2
 73
     0
 90
        0
 40
-0.6
 41
-30.0
 62
     5
 63
     7
 74
     1
 91
        4
 64
     7
 65
   257
 75
     1
175
     1
 42
1.0
 92
        9
 66
     7
 43
1.0
 76
     1
 77
     6
 78
     2
 67
     7
 79
     5
170
     0
171
     0
290
     0
174
     0
 93
        1
 44
0.0
173
     0
291
     1
 45
0.0
1001
ACAD
1000
AcDbSavedByObjectVersion
1070
     0
  0
VISUALSTYLE
  5
3FC
102
{ACAD_XDICTIONARY
360
FE9
102
}
102
{ACAD_REACTORS
330
3F2
102
}
330
3F2
100
AcDbVisualStyle
  2

 70
     8
 71
     2
 72
     2
 73
     0
 90
        0
 40
-0.6
 41
-30.0
 62
     5
 63
     7
 74
     1
 91
        0
 64
     7
 65
   257
 75
     1
175
     1
 42
1.0
 92
        8
 66
     8
 43
1.0
 76
     1
 77
     6
 78
     2
 67
     7
 79
     5
170
     0
171
     0
290
     0
174
     0
 93
       13
 44
0.0
173
     0
291
     0
 45
0.0
1001
ACAD
1000
AcDbSavedByObjectVersion
1070
     0
  0
VISUALSTYLE
  5
737
102
{ACAD_XDICTIONARY
360
1003
102
}
102
{ACAD_REACTORS
330
3F2
102
}
330
3F2
100
AcDbVisualStyle
  2

 70
    27
 71
     2
 72
     2
 73
     1
 90
        2
 40
-0.6
 41
30.0
 62
     5
 63
     7
 74
     0
 91
        4
 64
     7
 65
   257
 75
     1
175
     1
 42
1.0
 92
        8
 66
   257
 43
1.0
 76
     1
 77
     6
 78
     2
 67
     8
 79
     3
170
     0
171
     0
290
     0
174
     0
 93
        5
 44
0.0
173
     0
291
     0
 45
0.0
1001
ACAD
1000
AcDbSavedByObjectVersion
1070
     0
  0
VISUALSTYLE
  5
736
102
{ACAD_XDICTIONARY
360
1001
102
}
102
{ACAD_REACTORS
330
3F2
102
}
330
3F2
100
AcDbVisualStyle
  2

 70
    26
 71
     2
 72
     2
 73
     1
 90
        2
 40
-0.6
 41
30.0
 62
     5
 63
     7
 74
     1
 91
       10
 64
     7
 65
   257
 75
     2
175
     1
 42
1.0
 92
        8
 66
   257
 43
1.0
 76
     1
 77
     6
 78
     2
 67
     7
 79
     3
170
     0
171
     0
290
     0
174
     0
 93
        5
 44
0.0
173
     0
291
     0
 45
0.0
1001
ACAD
1000
AcDbSavedByObjectVersion
1070
     0
  0
VISUALSTYLE
  5
733
102
{ACAD_XDICTIONARY
360
FFB
102
}
102
{ACAD_REACTORS
330
3F2
102
}
330
3F2
100
AcDbVisualStyle
  2

 70
    23
 71
     2
 72
     2
 73
     3
 90
        0
 40
-0.6
 41
-30.0
 62
     5
 63
     7
 74
     2
 91
        2
 64
     7
 65
     7
 75
     1
175
     1
 42
40.0
 92
        8
 66
     7
 43
1.0
 76
     1
 77
     6
 78
     2
 67
     7
 79
     3
170
     0
171
     0
290
     0
174
     0
 93
        1
 44
0.0
173
     0
291
     0
 45
0.0
1001
ACAD
1000
AcDbSavedByObjectVersion
1070
     0
  0
VISUALSTYLE
  5
734
102
{ACAD_XDICTIONARY
360
FFD
102
}
102
{ACAD_REACTORS
330
3F2
102
}
330
3F2
100
AcDbVisualStyle
  2

 70
    24
 71
     1
 72
     2
 73
     2
 90
        0
 40
-0.6
 41
-30.0
 62
     5
 63
     7
 74
     2
 91
        2
 64
     7
 65
     7
 75
     1
175
     1
 42
40.0
 92
       11
 66
     7
 43
1.0
 76
     1
 77
     6
 78
     2
 67
     7
 79
     6
170
     0
171
     0
290
     0
174
     0
 93
        1
 44
0.0
173
     0
291
     0
 45
0.0
1001
ACAD
1000
AcDbSavedByObjectVersion
1070
     0
  0
VISUALSTYLE
  5
3FF
102
{ACAD_XDICTIONARY
360
FEF
102
}
102
{ACAD_REACTORS
330
3F2
102
}
330
3F2
100
AcDbVisualStyle
  2

 70
    13
 71
     2
 72
     2
 73
     0
 90
        0
 40
-0.6
 41
-30.0
 62
     5
 63
     7
 74
     1
 91
        4
 64
     7
 65
   257
 75
     1
175
     1
 42
1.0
 92
       12
 66
     7
 43
1.0
 76
     1
 77
     6
 78
     2
 67
     7
 79
     5
170
     0
171
     0
290
     0
174
     0
 93
        1
 44
0.0
173
     0
291
     1
 45
0.0
1001
ACAD
1000
AcDbSavedByObjectVersion
1070
     0
  0
VISUALSTYLE
  5
731
102
{ACAD_XDICTIONARY
360
FF7
102
}
102
{ACAD_REACTORS
330
3F2
102
}
330
3F2
100
AcDbVisualStyle
  2

 70
     5
 71
     0
 72
     2
 73
     0
 90
        0
 40
-0.6
 41
-30.0
 62
     5
 63
     7
 74
     1
 91
        4
 64
     7
 65
   257
 75
     1
175
     1
 42
1.0
 92
        0
 66
   257
 43
1.0
 76
     1
 77
     6
 78
     2
 67
     7
 79
     3
170
     0
171
     0
290
     0
174
     0
 93
        1
 44
0.0
173
     0
291
     0
 45
0.0
1001
ACAD
1000
AcDbSavedByObjectVersion
1070
     0
  0
VISUALSTYLE
  5
735
102
{ACAD_XDICTIONARY
360
FFF
102
}
102
{ACAD_REACTORS
330
3F2
102
}
330
3F2
100
AcDbVisualStyle
  2

 70
    25
 71
     2
 72
     2
 73
     1
 90
        1
 40
0.5
 41
-30.0
 62
     5
 63
     7
 74
     1
 91
        0
 64
     7
 65
   257
 75
     1
175
     1
 42
1.0
 92
        8
 66
     7
 43
1.0
 76
     1
 77
     6
 78
     2
 67
     7
 79
     3
170
     0
171
     0
290
     0
174
     0
 93
       13
 44
0.0
173
     0
291
     0
 45
0.0
1001
ACAD
1000
AcDbSavedByObjectVersion
1070
     0
  0
DICTIONARYVAR
  5
449
102
{ACAD_REACTORS
330
357
102
}
330
357
100
DictionaryVariables
280
     0
  1
1:1
  0
DICTIONARYVAR
  5
447
102
{ACAD_REACTORS
330
357
102
}
330
357
100
DictionaryVariables
280
     0
  1
STANDARD
  0
DICTIONARYVAR
  5
38E
102
{ACAD_REACTORS
330
357
102
}
330
357
100
DictionaryVariables
280
     0
  1
STANDARD
  0
DICTIONARYVAR
  5
359
102
{ACAD_REACTORS
330
357
102
}
330
357
100
DictionaryVariables
280
     0
  1
2
  0
DICTIONARYVAR
  5
358
102
{ACAD_REACTORS
330
357
102
}
330
357
100
DictionaryVariables
280
     0
  1
1
  0
DICTIONARYVAR
  5
F4B
102
{ACAD_REACTORS
330
357
102
}
330
357
100
DictionaryVariables
280
     0
  1
0
  0
DICTIONARYVAR
  5
7AE
102
{ACAD_REACTORS
330
357
102
}
330
357
100
DictionaryVariables
280
     0
  1
1
  0
DICTIONARYVAR
  5
7AF
102
{ACAD_REACTORS
330
357
102
}
330
357
100
DictionaryVariables
280
     0
  1
15
  0
DICTIONARYVAR
  5
44A
102
{ACAD_REACTORS
330
357
102
}
330
357
100
DictionaryVariables
280
     0
  1
0
  0
DICTIONARYVAR
  5
448
102
{ACAD_REACTORS
330
357
102
}
330
357
100
DictionaryVariables
280
     0
  1
0
  0
DICTIONARYVAR
  5
F4D
102
{ACAD_REACTORS
330
357
102
}
330
357
100
DictionaryVariables
280
     0
  1
1
  0
DICTIONARYVAR
  5
F4A
102
{ACAD_REACTORS
330
357
102
}
330
357
100
DictionaryVariables
280
     0
  1
127
  0
DICTIONARYVAR
  5
FC9
102
{ACAD_REACTORS
330
357
102
}
330
357
100
DictionaryVariables
280
     0
  1
2
  0
DICTIONARY
  5
76F
102
{ACAD_REACTORS
330
76D
102
}
330
76D
100
AcDbDictionary
281
     1
  0
XRECORD
  5
C2C
102
{ACAD_REACTORS
330
C2B
102
}
330
C2B
100
AcDbXrecord
280
     1
330
EB6
330
EB7
330
A3A
330
EAC
330
EAD
  0
DICTIONARY
  5
F5B
330
3F0
100
AcDbDictionary
280
     1
281
     1
  3
ACAD_XREC_ROUNDTRIP
360
F5C
  0
DICTIONARY
  5
F59
330
3EF
100
AcDbDictionary
280
     1
281
     1
  3
ACAD_XREC_ROUNDTRIP
360
F5A
  0
DICTIONARY
  5
F5D
330
3F1
100
AcDbDictionary
280
     1
281
     1
  3
ACAD_XREC_ROUNDTRIP
360
F5E
  0
DICTIONARY
  5
FCB
330
43D
100
AcDbDictionary
280
     1
281
     1
  3
ACAD_XREC_ROUNDTRIP
360
FCC
  0
DICTIONARY
  5
444
330
389
100
AcDbDictionary
280
     1
281
     1
  3
ACAD_ROUNDTRIP_2008_TABLESTYLE_CELLSTYLEMAP
360
FCA
  3
ACAD_XREC_ROUNDTRIP
360
FD6
  0
DICTIONARY
  5
FE1
330
3F8
100
AcDbDictionary
280
     1
281
     1
  3
ACAD_XREC_ROUNDTRIP
360
FE2
  0
DICTIONARY
  5
FE5
330
3FA
100
AcDbDictionary
280
     1
281
     1
  3
ACAD_XREC_ROUNDTRIP
360
FE6
  0
DICTIONARY
  5
FE3
330
3F9
100
AcDbDictionary
280
     1
281
     1
  3
ACAD_XREC_ROUNDTRIP
360
FE4
  0
DICTIONARY
  5
FDF
330
3F7
100
AcDbDictionary
280
     1
281
     1
  3
ACAD_XREC_ROUNDTRIP
360
FE0
  0
DICTIONARY
  5
FED
330
3FE
100
AcDbDictionary
280
     1
281
     1
  3
ACAD_XREC_ROUNDTRIP
360
FEE
  0
DICTIONARY
  5
FF5
330
402
100
AcDbDictionary
280
     1
281
     1
  3
ACAD_XREC_ROUNDTRIP
360
FF6
  0
DICTIONARY
  5
FE7
330
3FB
100
AcDbDictionary
280
     1
281
     1
  3
ACAD_XREC_ROUNDTRIP
360
FE8
  0
DICTIONARY
  5
FEB
330
3FD
100
AcDbDictionary
280
     1
281
     1
  3
ACAD_XREC_ROUNDTRIP
360
FEC
  0
DICTIONARY
  5
1009
330
73A
100
AcDbDictionary
280
     1
281
     1
  3
ACAD_XREC_ROUNDTRIP
360
100A
  0
DICTIONARY
  5
FF3
330
401
100
AcDbDictionary
280
     1
281
     1
  3
ACAD_XREC_ROUNDTRIP
360
FF4
  0
DICTIONARY
  5
FD7
330
3F3
100
AcDbDictionary
280
     1
281
     1
  3
ACAD_XREC_ROUNDTRIP
360
FD8
  0
DICTIONARY
  5
FD9
330
3F4
100
AcDbDictionary
280
     1
281
     1
  3
ACAD_XREC_ROUNDTRIP
360
FDA
  0
DICTIONARY
  5
FDB
330
3F5
100
AcDbDictionary
280
     1
281
     1
  3
ACAD_XREC_ROUNDTRIP
360
FDC
  0
DICTIONARY
  5
FDD
330
3F6
100
AcDbDictionary
280
     1
281
     1
  3
ACAD_XREC_ROUNDTRIP
360
FDE
  0
DICTIONARY
  5
FF9
330
732
100
AcDbDictionary
280
     1
281
     1
  3
ACAD_XREC_ROUNDTRIP
360
FFA
  0
DICTIONARY
  5
1005
330
738
100
AcDbDictionary
280
     1
281
     1
  3
ACAD_XREC_ROUNDTRIP
360
1006
  0
DICTIONARY
  5
FF1
330
400
100
AcDbDictionary
280
     1
281
     1
  3
ACAD_XREC_ROUNDTRIP
360
FF2
  0
DICTIONARY
  5
1007
330
739
100
AcDbDictionary
280
     1
281
     1
  3
ACAD_XREC_ROUNDTRIP
360
1008
  0
DICTIONARY
  5
FE9
330
3FC
100
AcDbDictionary
280
     1
281
     1
  3
ACAD_XREC_ROUNDTRIP
360
FEA
  0
DICTIONARY
  5
1003
330
737
100
AcDbDictionary
280
     1
281
     1
  3
ACAD_XREC_ROUNDTRIP
360
1004
  0
DICTIONARY
  5
1001
330
736
100
AcDbDictionary
280
     1
281
     1
  3
ACAD_XREC_ROUNDTRIP
360
1002
  0
DICTIONARY
  5
FFB
330
733
100
AcDbDictionary
280
     1
281
     1
  3
ACAD_XREC_ROUNDTRIP
360
FFC
  0
DICTIONARY
  5
FFD
330
734
100
AcDbDictionary
280
     1
281
     1
  3
ACAD_XREC_ROUNDTRIP
360
FFE
  0
DICTIONARY
  5
FEF
330
3FF
100
AcDbDictionary
280
     1
281
     1
  3
ACAD_XREC_ROUNDTRIP
360
FF0
  0
DICTIONARY
  5
FF7
330
731
100
AcDbDictionary
280
     1
281
     1
  3
ACAD_XREC_ROUNDTRIP
360
FF8
  0
DICTIONARY
  5
FFF
330
735
100
AcDbDictionary
280
     1
281
     1
  3
ACAD_XREC_ROUNDTRIP
360
1000
  0
XRECORD
  5
F5C
102
{ACAD_REACTORS
330
F5B
102
}
330
F5B
100
AcDbXrecord
280
     1
102
MATERIAL
148
0.0
149
0.0
149
0.0
 93
        0
 94
      127
282
     0
 72
     1
 77
     1
171
     1
175
     1
179
     1
273
     0
  0
XRECORD
  5
F5A
102
{ACAD_REACTORS
330
F59
102
}
330
F59
100
AcDbXrecord
280
     1
102
MATERIAL
148
0.0
149
0.0
149
0.0
 93
        0
 94
      127
282
     0
 72
     1
 77
     1
171
     1
175
     1
179
     1
273
     0
  0
XRECORD
  5
F5E
102
{ACAD_REACTORS
330
F5D
102
}
330
F5D
100
AcDbXrecord
280
     1
102
MATERIAL
148
0.0
149
0.0
149
0.0
 93
        0
 94
      127
282
     0
 72
     1
 77
     1
171
     1
175
     1
179
     1
273
     0
  0
XRECORD
  5
FCC
102
{ACAD_REACTORS
330
FCB
102
}
330
FCB
100
AcDbXrecord
280
     1
102
ACAD_ROUNDTRIP_2012_MLEADER_STYLE
298
     1
  0
CELLSTYLEMAP
  5
FCA
102
{ACAD_REACTORS
330
444
102
}
330
444
100
AcDbCellStyleMap
 90
        3
300
CELLSTYLE
  1
TABLEFORMAT_BEGIN
 90
        5
170
     1
 91
        0
 92
    32768
 62
   257
 93
        1
300
CONTENTFORMAT
  1
CONTENTFORMAT_BEGIN
 90
        0
 91
        0
 92
        4
 93
        0
300

 40
0.0
140
1.0
 94
        5
 62
     0
340
10
144
6.0
309
CONTENTFORMAT_END
171
     1
301
MARGIN
  1
CELLMARGIN_BEGIN
 40
1.5
 40
1.5
 40
1.5
 40
1.5
 40
0.18
 40
0.18
309
CELLMARGIN_END
 94
        6
 95
        1
302
GRIDFORMAT
  1
GRIDFORMAT_BEGIN
 90
        0
 91
        1
 62
     0
 92
       -2
340
0
 93
        0
 40
0.045
309
GRIDFORMAT_END
 95
        2
302
GRIDFORMAT
  1
GRIDFORMAT_BEGIN
 90
        0
 91
        1
 62
     0
 92
       -2
340
0
 93
        0
 40
0.045
309
GRIDFORMAT_END
 95
        4
302
GRIDFORMAT
  1
GRIDFORMAT_BEGIN
 90
        0
 91
        1
 62
     0
 92
       -2
340
0
 93
        0
 40
0.045
309
GRIDFORMAT_END
 95
        8
302
GRIDFORMAT
  1
GRIDFORMAT_BEGIN
 90
        0
 91
        1
 62
     0
 92
       -2
340
0
 93
        0
 40
0.045
309
GRIDFORMAT_END
 95
       16
302
GRIDFORMAT
  1
GRIDFORMAT_BEGIN
 90
        0
 91
        1
 62
     0
 92
       -2
340
0
 93
        0
 40
0.045
309
GRIDFORMAT_END
 95
       32
302
GRIDFORMAT
  1
GRIDFORMAT_BEGIN
 90
        0
 91
        1
 62
     0
 92
       -2
340
0
 93
        0
 40
0.045
309
GRIDFORMAT_END
309
TABLEFORMAT_END
  1
CELLSTYLE_BEGIN
 90
        1
 91
        1
300
_TITLE
309
CELLSTYLE_END
300
CELLSTYLE
  1
TABLEFORMAT_BEGIN
 90
        5
170
     1
 91
        0
 92
        0
 62
   257
 93
        1
300
CONTENTFORMAT
  1
CONTENTFORMAT_BEGIN
 90
        0
 91
        0
 92
        4
 93
        0
300

 40
0.0
140
1.0
 94
        5
 62
     0
340
10
144
4.5
309
CONTENTFORMAT_END
171
     1
301
MARGIN
  1
CELLMARGIN_BEGIN
 40
1.5
 40
1.5
 40
1.5
 40
1.5
 40
0.18
 40
0.18
309
CELLMARGIN_END
 94
        6
 95
        1
302
GRIDFORMAT
  1
GRIDFORMAT_BEGIN
 90
        0
 91
        1
 62
     0
 92
       -2
340
0
 93
        0
 40
0.045
309
GRIDFORMAT_END
 95
        2
302
GRIDFORMAT
  1
GRIDFORMAT_BEGIN
 90
        0
 91
        1
 62
     0
 92
       -2
340
0
 93
        0
 40
0.045
309
GRIDFORMAT_END
 95
        4
302
GRIDFORMAT
  1
GRIDFORMAT_BEGIN
 90
        0
 91
        1
 62
     0
 92
       -2
340
0
 93
        0
 40
0.045
309
GRIDFORMAT_END
 95
        8
302
GRIDFORMAT
  1
GRIDFORMAT_BEGIN
 90
        0
 91
        1
 62
     0
 92
       -2
340
0
 93
        0
 40
0.045
309
GRIDFORMAT_END
 95
       16
302
GRIDFORMAT
  1
GRIDFORMAT_BEGIN
 90
        0
 91
        1
 62
     0
 92
       -2
340
0
 93
        0
 40
0.045
309
GRIDFORMAT_END
 95
       32
302
GRIDFORMAT
  1
GRIDFORMAT_BEGIN
 90
        0
 91
        1
 62
     0
 92
       -2
340
0
 93
        0
 40
0.045
309
GRIDFORMAT_END
309
TABLEFORMAT_END
  1
CELLSTYLE_BEGIN
 90
        2
 91
        1
300
_HEADER
309
CELLSTYLE_END
300
CELLSTYLE
  1
TABLEFORMAT_BEGIN
 90
        5
170
     1
 91
        0
 92
        0
 62
   257
 93
        1
300
CONTENTFORMAT
  1
CONTENTFORMAT_BEGIN
 90
        0
 91
        0
 92
        4
 93
        0
300

 40
0.0
140
1.0
 94
        2
 62
     0
340
10
144
4.5
309
CONTENTFORMAT_END
171
     1
301
MARGIN
  1
CELLMARGIN_BEGIN
 40
1.5
 40
1.5
 40
1.5
 40
1.5
 40
0.18
 40
0.18
309
CELLMARGIN_END
 94
        6
 95
        1
302
GRIDFORMAT
  1
GRIDFORMAT_BEGIN
 90
        0
 91
        1
 62
     0
 92
       -2
340
0
 93
        0
 40
0.045
309
GRIDFORMAT_END
 95
        2
302
GRIDFORMAT
  1
GRIDFORMAT_BEGIN
 90
        0
 91
        1
 62
     0
 92
       -2
340
0
 93
        0
 40
0.045
309
GRIDFORMAT_END
 95
        4
302
GRIDFORMAT
  1
GRIDFORMAT_BEGIN
 90
        0
 91
        1
 62
     0
 92
       -2
340
0
 93
        0
 40
0.045
309
GRIDFORMAT_END
 95
        8
302
GRIDFORMAT
  1
GRIDFORMAT_BEGIN
 90
        0
 91
        1
 62
     0
 92
       -2
340
0
 93
        0
 40
0.045
309
GRIDFORMAT_END
 95
       16
302
GRIDFORMAT
  1
GRIDFORMAT_BEGIN
 90
        0
 91
        1
 62
     0
 92
       -2
340
0
 93
        0
 40
0.045
309
GRIDFORMAT_END
 95
       32
302
GRIDFORMAT
  1
GRIDFORMAT_BEGIN
 90
        0
 91
        1
 62
     0
 92
       -2
340
0
 93
        0
 40
0.045
309
GRIDFORMAT_END
309
TABLEFORMAT_END
  1
CELLSTYLE_BEGIN
 90
        3
 91
        2
300
_DATA
309
CELLSTYLE_END
  0
XRECORD
  5
FD6
102
{ACAD_REACTORS
330
444
102
}
330
444
100
AcDbXrecord
280
     1
102
ACAD_ROUNDTRIP_PRE2007_TABLESTYLE
 90
        4
 91
        0
  1

 92
        4
 93
        0
  2

 94
        4
 95
        0
  3

  0
XRECORD
  5
FE2
102
{ACAD_REACTORS
330
FE1
102
}
330
FE1
100
AcDbXrecord
280
     1
102
RTVSPropertyOp0
 70
     1
102
RTVSPropertyOp1
 70
     1
102
RTVSPropertyOp2
 70
     1
102
RTVSPropertyOp3
 70
     1
102
RTVSPropertyOp4
 70
     1
102
RTVSPropertyOp5
 70
     1
102
RTVSPropertyOp6
 70
     1
102
RTVSPropertyOp7
 70
     1
102
RTVSPropertyOp8
 70
     1
102
RTVSPropertyOp9
 70
     1
102
RTVSPropertyOp10
 70
     1
102
RTVSPropertyOp11
 70
     1
102
RTVSPropertyOp12
 70
     1
102
RTVSPropertyOp13
 70
     1
102
RTVSPropertyOp14
 70
     1
102
RTVSPropertyOp15
 70
     1
102
RTVSPropertyOp16
 70
     1
102
RTVSPropertyOp17
 70
     1
102
RTVSPropertyOp18
 70
     1
102
RTVSPropertyOp19
 70
     1
102
RTVSPropertyOp20
 70
     1
102
RTVSPropertyOp21
 70
     1
102
RTVSPropertyOp22
 70
     1
102
RTVSPropertyOp23
 70
     1
102
RTVSPropertyOp24
 70
     1
102
RTVSPropertyOp25
 70
     1
102
RTVSPropertyOp26
 70
     1
102
RTVSPropertyOp27
 70
     1
102
RTVSPropertyOp28
 70
     1
102
RTVSPropertyOp29
 70
     1
102
RTVSPropertyOp30
 70
     1
102
RTVSPropertyOp31
 70
     1
102
RTVSPropertyOp32
 70
     1
  0
XRECORD
  5
FE6
102
{ACAD_REACTORS
330
FE5
102
}
330
FE5
100
AcDbXrecord
280
     1
102
RTVSPropertyOp0
 70
     1
102
RTVSPropertyOp1
 70
     1
102
RTVSPropertyOp2
 70
     1
102
RTVSPropertyOp3
 70
     1
102
RTVSPropertyOp4
 70
     1
102
RTVSPropertyOp5
 70
     1
102
RTVSPropertyOp6
 70
     1
102
RTVSPropertyOp7
 70
     1
102
RTVSPropertyOp8
 70
     1
102
RTVSPropertyOp9
 70
     1
102
RTVSPropertyOp10
 70
     1
102
RTVSPropertyOp11
 70
     1
102
RTVSPropertyOp12
 70
     1
102
RTVSPropertyOp13
 70
     1
102
RTVSPropertyOp14
 70
     1
102
RTVSPropertyOp15
 70
     1
102
RTVSPropertyOp16
 70
     1
102
RTVSPropertyOp17
 70
     1
102
RTVSPropertyOp18
 70
     1
102
RTVSPropertyOp19
 70
     1
102
RTVSPropertyOp20
 70
     1
102
RTVSPropertyOp21
 70
     1
102
RTVSPropertyOp22
 70
     1
102
RTVSPropertyOp23
 70
     1
102
RTVSPropertyOp24
 70
     1
102
RTVSPropertyOp25
 70
     1
102
RTVSPropertyOp26
 70
     1
102
RTVSPropertyOp27
 70
     1
102
RTVSPropertyOp28
 70
     1
102
RTVSPropertyOp29
 70
     1
102
RTVSPropertyOp30
 70
     1
102
RTVSPropertyOp31
 70
     1
102
RTVSPropertyOp32
 70
     1
  0
XRECORD
  5
FE4
102
{ACAD_REACTORS
330
FE3
102
}
330
FE3
100
AcDbXrecord
280
     1
102
RTVSPropertyOp0
 70
     1
102
RTVSPropertyOp1
 70
     1
102
RTVSPropertyOp2
 70
     1
102
RTVSPropertyOp3
 70
     1
102
RTVSPropertyOp4
 70
     1
102
RTVSPropertyOp5
 70
     1
102
RTVSPropertyOp6
 70
     1
102
RTVSPropertyOp7
 70
     1
102
RTVSPropertyOp8
 70
     1
102
RTVSPropertyOp9
 70
     1
102
RTVSPropertyOp10
 70
     1
102
RTVSPropertyOp11
 70
     1
102
RTVSPropertyOp12
 70
     1
102
RTVSPropertyOp13
 70
     1
102
RTVSPropertyOp14
 70
     1
102
RTVSPropertyOp15
 70
     1
102
RTVSPropertyOp16
 70
     1
102
RTVSPropertyOp17
 70
     1
102
RTVSPropertyOp18
 70
     1
102
RTVSPropertyOp19
 70
     1
102
RTVSPropertyOp20
 70
     1
102
RTVSPropertyOp21
 70
     1
102
RTVSPropertyOp22
 70
     1
102
RTVSPropertyOp23
 70
     1
102
RTVSPropertyOp24
 70
     1
102
RTVSPropertyOp25
 70
     1
102
RTVSPropertyOp26
 70
     1
102
RTVSPropertyOp27
 70
     1
102
RTVSPropertyOp28
 70
     1
102
RTVSPropertyOp29
 70
     1
102
RTVSPropertyOp30
 70
     1
102
RTVSPropertyOp31
 70
     1
102
RTVSPropertyOp32
 70
     1
  0
XRECORD
  5
FE0
102
{ACAD_REACTORS
330
FDF
102
}
330
FDF
100
AcDbXrecord
280
     1
102
RTVSPropertyOp0
 70
     1
102
RTVSPropertyOp1
 70
     1
102
RTVSPropertyOp2
 70
     1
102
RTVSPropertyOp3
 70
     1
102
RTVSPropertyOp4
 70
     1
102
RTVSPropertyOp5
 70
     1
102
RTVSPropertyOp6
 70
     1
102
RTVSPropertyOp7
 70
     1
102
RTVSPropertyOp8
 70
     1
102
RTVSPropertyOp9
 70
     1
102
RTVSPropertyOp10
 70
     1
102
RTVSPropertyOp11
 70
     1
102
RTVSPropertyOp12
 70
     1
102
RTVSPropertyOp13
 70
     1
102
RTVSPropertyOp14
 70
     1
102
RTVSPropertyOp15
 70
     1
102
RTVSPropertyOp16
 70
     1
102
RTVSPropertyOp17
 70
     1
102
RTVSPropertyOp18
 70
     1
102
RTVSPropertyOp19
 70
     1
102
RTVSPropertyOp20
 70
     1
102
RTVSPropertyOp21
 70
     1
102
RTVSPropertyOp22
 70
     1
102
RTVSPropertyOp23
 70
     1
102
RTVSPropertyOp24
 70
     1
102
RTVSPropertyOp25
 70
     1
102
RTVSPropertyOp26
 70
     1
102
RTVSPropertyOp27
 70
     1
102
RTVSPropertyOp28
 70
     1
102
RTVSPropertyOp29
 70
     1
102
RTVSPropertyOp30
 70
     1
102
RTVSPropertyOp31
 70
     1
102
RTVSPropertyOp32
 70
     1
  0
XRECORD
  5
FEE
102
{ACAD_REACTORS
330
FED
102
}
330
FED
100
AcDbXrecord
280
     1
102
RTVSPropertyOp0
 70
     1
102
RTVSPropertyOp1
 70
     1
102
RTVSPropertyOp2
 70
     1
102
RTVSPropertyOp3
 70
     1
102
RTVSPropertyOp4
 70
     1
102
RTVSPropertyOp5
 70
     1
102
RTVSPropertyOp6
 70
     1
102
RTVSPropertyOp7
 70
     1
102
RTVSPropertyOp8
 70
     1
102
RTVSPropertyOp9
 70
     1
102
RTVSPropertyOp10
 70
     1
102
RTVSPropertyOp11
 70
     1
102
RTVSPropertyOp12
 70
     1
102
RTVSPropertyOp13
 70
     1
102
RTVSPropertyOp14
 70
     1
102
RTVSPropertyOp15
 70
     1
102
RTVSPropertyOp16
 70
     1
102
RTVSPropertyOp17
 70
     1
102
RTVSPropertyOp18
 70
     1
102
RTVSPropertyOp19
 70
     1
102
RTVSPropertyOp20
 70
     1
102
RTVSPropertyOp21
 70
     1
102
RTVSPropertyOp22
 70
     1
102
RTVSPropertyOp23
 70
     1
102
RTVSPropertyOp24
 70
     1
102
RTVSPropertyOp25
 70
     1
102
RTVSPropertyOp26
 70
     1
102
RTVSPropertyOp27
 70
     1
102
RTVSPropertyOp28
 70
     1
102
RTVSPropertyOp29
 70
     1
102
RTVSPropertyOp30
 70
     1
102
RTVSPropertyOp31
 70
     1
102
RTVSPropertyOp32
 70
     1
  0
XRECORD
  5
FF6
102
{ACAD_REACTORS
330
FF5
102
}
330
FF5
100
AcDbXrecord
280
     1
102
RTVSPropertyOp0
 70
     1
102
RTVSPropertyOp1
 70
     1
102
RTVSPropertyOp2
 70
     1
102
RTVSPropertyOp3
 70
     1
102
RTVSPropertyOp4
 70
     1
102
RTVSPropertyOp5
 70
     1
102
RTVSPropertyOp6
 70
     1
102
RTVSPropertyOp7
 70
     1
102
RTVSPropertyOp8
 70
     1
102
RTVSPropertyOp9
 70
     1
102
RTVSPropertyOp10
 70
     1
102
RTVSPropertyOp11
 70
     1
102
RTVSPropertyOp12
 70
     1
102
RTVSPropertyOp13
 70
     1
102
RTVSPropertyOp14
 70
     1
102
RTVSPropertyOp15
 70
     1
102
RTVSPropertyOp16
 70
     1
102
RTVSPropertyOp17
 70
     1
102
RTVSPropertyOp18
 70
     1
102
RTVSPropertyOp19
 70
     1
102
RTVSPropertyOp20
 70
     1
102
RTVSPropertyOp21
 70
     1
102
RTVSPropertyOp22
 70
     1
102
RTVSPropertyOp23
 70
     1
102
RTVSPropertyOp24
 70
     1
102
RTVSPropertyOp25
 70
     1
102
RTVSPropertyOp26
 70
     1
102
RTVSPropertyOp27
 70
     1
102
RTVSPropertyOp28
 70
     1
102
RTVSPropertyOp29
 70
     1
102
RTVSPropertyOp30
 70
     1
102
RTVSPropertyOp31
 70
     1
102
RTVSPropertyOp32
 70
     1
  0
XRECORD
  5
FE8
102
{ACAD_REACTORS
330
FE7
102
}
330
FE7
100
AcDbXrecord
280
     1
102
RTVSPropertyOp0
 70
     1
102
RTVSPropertyOp1
 70
     1
102
RTVSPropertyOp2
 70
     1
102
RTVSPropertyOp3
 70
     1
102
RTVSPropertyOp4
 70
     1
102
RTVSPropertyOp5
 70
     1
102
RTVSPropertyOp6
 70
     1
102
RTVSPropertyOp7
 70
     1
102
RTVSPropertyOp8
 70
     1
102
RTVSPropertyOp9
 70
     1
102
RTVSPropertyOp10
 70
     1
102
RTVSPropertyOp11
 70
     1
102
RTVSPropertyOp12
 70
     1
102
RTVSPropertyOp13
 70
     1
102
RTVSPropertyOp14
 70
     1
102
RTVSPropertyOp15
 70
     1
102
RTVSPropertyOp16
 70
     1
102
RTVSPropertyOp17
 70
     1
102
RTVSPropertyOp18
 70
     1
102
RTVSPropertyOp19
 70
     1
102
RTVSPropertyOp20
 70
     1
102
RTVSPropertyOp21
 70
     1
102
RTVSPropertyOp22
 70
     1
102
RTVSPropertyOp23
 70
     1
102
RTVSPropertyOp24
 70
     1
102
RTVSPropertyOp25
 70
     1
102
RTVSPropertyOp26
 70
     1
102
RTVSPropertyOp27
 70
     1
102
RTVSPropertyOp28
 70
     1
102
RTVSPropertyOp29
 70
     1
102
RTVSPropertyOp30
 70
     1
102
RTVSPropertyOp31
 70
     1
102
RTVSPropertyOp32
 70
     1
  0
XRECORD
  5
FEC
102
{ACAD_REACTORS
330
FEB
102
}
330
FEB
100
AcDbXrecord
280
     1
102
RTVSPropertyOp0
 70
     1
102
RTVSPropertyOp1
 70
     1
102
RTVSPropertyOp2
 70
     1
102
RTVSPropertyOp3
 70
     1
102
RTVSPropertyOp4
 70
     1
102
RTVSPropertyOp5
 70
     1
102
RTVSPropertyOp6
 70
     1
102
RTVSPropertyOp7
 70
     1
102
RTVSPropertyOp8
 70
     1
102
RTVSPropertyOp9
 70
     1
102
RTVSPropertyOp10
 70
     1
102
RTVSPropertyOp11
 70
     1
102
RTVSPropertyOp12
 70
     1
102
RTVSPropertyOp13
 70
     1
102
RTVSPropertyOp14
 70
     1
102
RTVSPropertyOp15
 70
     1
102
RTVSPropertyOp16
 70
     1
102
RTVSPropertyOp17
 70
     1
102
RTVSPropertyOp18
 70
     1
102
RTVSPropertyOp19
 70
     1
102
RTVSPropertyOp20
 70
     1
102
RTVSPropertyOp21
 70
     1
102
RTVSPropertyOp22
 70
     1
102
RTVSPropertyOp23
 70
     1
102
RTVSPropertyOp24
 70
     1
102
RTVSPropertyOp25
 70
     1
102
RTVSPropertyOp26
 70
     1
102
RTVSPropertyOp27
 70
     1
102
RTVSPropertyOp28
 70
     1
102
RTVSPropertyOp29
 70
     1
102
RTVSPropertyOp30
 70
     1
102
RTVSPropertyOp31
 70
     1
102
RTVSPropertyOp32
 70
     1
  0
XRECORD
  5
100A
102
{ACAD_REACTORS
330
1009
102
}
330
1009
100
AcDbXrecord
280
     1
102
RTVSPropertyOp0
 70
     0
102
RTVSPropertyOp1
 70
     0
102
RTVSPropertyOp2
 70
     0
102
RTVSPropertyOp3
 70
     0
102
RTVSPropertyOp4
 70
     0
102
RTVSPropertyOp5
 70
     0
102
RTVSPropertyOp6
 70
     0
102
RTVSPropertyOp7
 70
     0
102
RTVSPropertyOp8
 70
     0
102
RTVSPropertyOp9
 70
     0
102
RTVSPropertyOp10
 70
     0
102
RTVSPropertyOp11
 70
     0
102
RTVSPropertyOp12
 70
     0
102
RTVSPropertyOp13
 70
     0
102
RTVSPropertyOp14
 70
     2
102
RTVSPropertyOp15
 70
     0
102
RTVSPropertyOp16
 70
     0
102
RTVSPropertyOp17
 70
     0
102
RTVSPropertyOp18
 70
     0
102
RTVSPropertyOp19
 70
     0
102
RTVSPropertyOp20
 70
     0
102
RTVSPropertyOp21
 70
     0
102
RTVSPropertyOp22
 70
     0
102
RTVSPropertyOp23
 70
     0
102
RTVSPropertyOp24
 70
     0
102
RTVSPropertyOp25
 70
     0
102
RTVSPropertyOp26
 70
     0
102
RTVSPropertyOp27
 70
     0
102
RTVSPropertyOp28
 70
     1
102
RTVSPropertyOp29
 70
     1
102
RTVSPropertyOp30
 70
     1
102
RTVSPropertyOp31
 70
     1
102
RTVSPropertyOp32
 70
     1
  0
XRECORD
  5
FF4
102
{ACAD_REACTORS
330
FF3
102
}
330
FF3
100
AcDbXrecord
280
     1
102
RTVSPropertyOp0
 70
     1
102
RTVSPropertyOp1
 70
     1
102
RTVSPropertyOp2
 70
     1
102
RTVSPropertyOp3
 70
     1
102
RTVSPropertyOp4
 70
     1
102
RTVSPropertyOp5
 70
     1
102
RTVSPropertyOp6
 70
     1
102
RTVSPropertyOp7
 70
     1
102
RTVSPropertyOp8
 70
     1
102
RTVSPropertyOp9
 70
     1
102
RTVSPropertyOp10
 70
     1
102
RTVSPropertyOp11
 70
     1
102
RTVSPropertyOp12
 70
     1
102
RTVSPropertyOp13
 70
     1
102
RTVSPropertyOp14
 70
     1
102
RTVSPropertyOp15
 70
     1
102
RTVSPropertyOp16
 70
     1
102
RTVSPropertyOp17
 70
     1
102
RTVSPropertyOp18
 70
     1
102
RTVSPropertyOp19
 70
     1
102
RTVSPropertyOp20
 70
     1
102
RTVSPropertyOp21
 70
     1
102
RTVSPropertyOp22
 70
     1
102
RTVSPropertyOp23
 70
     1
102
RTVSPropertyOp24
 70
     1
102
RTVSPropertyOp25
 70
     1
102
RTVSPropertyOp26
 70
     1
102
RTVSPropertyOp27
 70
     1
102
RTVSPropertyOp28
 70
     1
102
RTVSPropertyOp29
 70
     1
102
RTVSPropertyOp30
 70
     1
102
RTVSPropertyOp31
 70
     1
102
RTVSPropertyOp32
 70
     1
  0
XRECORD
  5
FD8
102
{ACAD_REACTORS
330
FD7
102
}
330
FD7
100
AcDbXrecord
280
     1
102
RTVSPropertyOp0
 70
     1
102
RTVSPropertyOp1
 70
     1
102
RTVSPropertyOp2
 70
     1
102
RTVSPropertyOp3
 70
     1
102
RTVSPropertyOp4
 70
     1
102
RTVSPropertyOp5
 70
     1
102
RTVSPropertyOp6
 70
     1
102
RTVSPropertyOp7
 70
     1
102
RTVSPropertyOp8
 70
     1
102
RTVSPropertyOp9
 70
     1
102
RTVSPropertyOp10
 70
     1
102
RTVSPropertyOp11
 70
     1
102
RTVSPropertyOp12
 70
     1
102
RTVSPropertyOp13
 70
     1
102
RTVSPropertyOp14
 70
     1
102
RTVSPropertyOp15
 70
     1
102
RTVSPropertyOp16
 70
     1
102
RTVSPropertyOp17
 70
     1
102
RTVSPropertyOp18
 70
     1
102
RTVSPropertyOp19
 70
     1
102
RTVSPropertyOp20
 70
     1
102
RTVSPropertyOp21
 70
     1
102
RTVSPropertyOp22
 70
     1
102
RTVSPropertyOp23
 70
     1
102
RTVSPropertyOp24
 70
     1
102
RTVSPropertyOp25
 70
     1
102
RTVSPropertyOp26
 70
     1
102
RTVSPropertyOp27
 70
     1
102
RTVSPropertyOp28
 70
     1
102
RTVSPropertyOp29
 70
     1
102
RTVSPropertyOp30
 70
     1
102
RTVSPropertyOp31
 70
     1
102
RTVSPropertyOp32
 70
     1
  0
XRECORD
  5
FDA
102
{ACAD_REACTORS
330
FD9
102
}
330
FD9
100
AcDbXrecord
280
     1
102
RTVSPropertyOp0
 70
     1
102
RTVSPropertyOp1
 70
     1
102
RTVSPropertyOp2
 70
     1
102
RTVSPropertyOp3
 70
     1
102
RTVSPropertyOp4
 70
     1
102
RTVSPropertyOp5
 70
     1
102
RTVSPropertyOp6
 70
     1
102
RTVSPropertyOp7
 70
     1
102
RTVSPropertyOp8
 70
     1
102
RTVSPropertyOp9
 70
     1
102
RTVSPropertyOp10
 70
     1
102
RTVSPropertyOp11
 70
     1
102
RTVSPropertyOp12
 70
     1
102
RTVSPropertyOp13
 70
     1
102
RTVSPropertyOp14
 70
     1
102
RTVSPropertyOp15
 70
     1
102
RTVSPropertyOp16
 70
     1
102
RTVSPropertyOp17
 70
     1
102
RTVSPropertyOp18
 70
     1
102
RTVSPropertyOp19
 70
     1
102
RTVSPropertyOp20
 70
     1
102
RTVSPropertyOp21
 70
     1
102
RTVSPropertyOp22
 70
     1
102
RTVSPropertyOp23
 70
     1
102
RTVSPropertyOp24
 70
     1
102
RTVSPropertyOp25
 70
     1
102
RTVSPropertyOp26
 70
     1
102
RTVSPropertyOp27
 70
     1
102
RTVSPropertyOp28
 70
     1
102
RTVSPropertyOp29
 70
     1
102
RTVSPropertyOp30
 70
     1
102
RTVSPropertyOp31
 70
     1
102
RTVSPropertyOp32
 70
     1
  0
XRECORD
  5
FDC
102
{ACAD_REACTORS
330
FDB
102
}
330
FDB
100
AcDbXrecord
280
     1
102
RTVSPropertyOp0
 70
     1
102
RTVSPropertyOp1
 70
     1
102
RTVSPropertyOp2
 70
     1
102
RTVSPropertyOp3
 70
     1
102
RTVSPropertyOp4
 70
     1
102
RTVSPropertyOp5
 70
     1
102
RTVSPropertyOp6
 70
     1
102
RTVSPropertyOp7
 70
     1
102
RTVSPropertyOp8
 70
     1
102
RTVSPropertyOp9
 70
     1
102
RTVSPropertyOp10
 70
     1
102
RTVSPropertyOp11
 70
     1
102
RTVSPropertyOp12
 70
     1
102
RTVSPropertyOp13
 70
     1
102
RTVSPropertyOp14
 70
     1
102
RTVSPropertyOp15
 70
     1
102
RTVSPropertyOp16
 70
     1
102
RTVSPropertyOp17
 70
     1
102
RTVSPropertyOp18
 70
     1
102
RTVSPropertyOp19
 70
     1
102
RTVSPropertyOp20
 70
     1
102
RTVSPropertyOp21
 70
     1
102
RTVSPropertyOp22
 70
     1
102
RTVSPropertyOp23
 70
     1
102
RTVSPropertyOp24
 70
     1
102
RTVSPropertyOp25
 70
     1
102
RTVSPropertyOp26
 70
     1
102
RTVSPropertyOp27
 70
     1
102
RTVSPropertyOp28
 70
     1
102
RTVSPropertyOp29
 70
     1
102
RTVSPropertyOp30
 70
     1
102
RTVSPropertyOp31
 70
     1
102
RTVSPropertyOp32
 70
     1
  0
XRECORD
  5
FDE
102
{ACAD_REACTORS
330
FDD
102
}
330
FDD
100
AcDbXrecord
280
     1
102
RTVSPropertyOp0
 70
     1
102
RTVSPropertyOp1
 70
     1
102
RTVSPropertyOp2
 70
     1
102
RTVSPropertyOp3
 70
     1
102
RTVSPropertyOp4
 70
     1
102
RTVSPropertyOp5
 70
     1
102
RTVSPropertyOp6
 70
     1
102
RTVSPropertyOp7
 70
     1
102
RTVSPropertyOp8
 70
     1
102
RTVSPropertyOp9
 70
     1
102
RTVSPropertyOp10
 70
     1
102
RTVSPropertyOp11
 70
     1
102
RTVSPropertyOp12
 70
     1
102
RTVSPropertyOp13
 70
     1
102
RTVSPropertyOp14
 70
     1
102
RTVSPropertyOp15
 70
     1
102
RTVSPropertyOp16
 70
     1
102
RTVSPropertyOp17
 70
     1
102
RTVSPropertyOp18
 70
     1
102
RTVSPropertyOp19
 70
     1
102
RTVSPropertyOp20
 70
     1
102
RTVSPropertyOp21
 70
     1
102
RTVSPropertyOp22
 70
     1
102
RTVSPropertyOp23
 70
     1
102
RTVSPropertyOp24
 70
     1
102
RTVSPropertyOp25
 70
     1
102
RTVSPropertyOp26
 70
     1
102
RTVSPropertyOp27
 70
     1
102
RTVSPropertyOp28
 70
     1
102
RTVSPropertyOp29
 70
     1
102
RTVSPropertyOp30
 70
     1
102
RTVSPropertyOp31
 70
     1
102
RTVSPropertyOp32
 70
     1
  0
XRECORD
  5
FFA
102
{ACAD_REACTORS
330
FF9
102
}
330
FF9
100
AcDbXrecord
280
     1
102
RTVSPropertyOp0
 70
     1
102
RTVSPropertyOp1
 70
     1
102
RTVSPropertyOp2
 70
     1
102
RTVSPropertyOp3
 70
     1
102
RTVSPropertyOp4
 70
     1
102
RTVSPropertyOp5
 70
     1
102
RTVSPropertyOp6
 70
     1
102
RTVSPropertyOp7
 70
     1
102
RTVSPropertyOp8
 70
     1
102
RTVSPropertyOp9
 70
     1
102
RTVSPropertyOp10
 70
     1
102
RTVSPropertyOp11
 70
     1
102
RTVSPropertyOp12
 70
     1
102
RTVSPropertyOp13
 70
     1
102
RTVSPropertyOp14
 70
     1
102
RTVSPropertyOp15
 70
     1
102
RTVSPropertyOp16
 70
     1
102
RTVSPropertyOp17
 70
     1
102
RTVSPropertyOp18
 70
     1
102
RTVSPropertyOp19
 70
     1
102
RTVSPropertyOp20
 70
     1
102
RTVSPropertyOp21
 70
     1
102
RTVSPropertyOp22
 70
     1
102
RTVSPropertyOp23
 70
     1
102
RTVSPropertyOp24
 70
     1
102
RTVSPropertyOp25
 70
     1
102
RTVSPropertyOp26
 70
     1
102
RTVSPropertyOp27
 70
     1
102
RTVSPropertyOp28
 70
     1
102
RTVSPropertyOp29
 70
     1
102
RTVSPropertyOp30
 70
     1
102
RTVSPropertyOp31
 70
     1
102
RTVSPropertyOp32
 70
     1
  0
XRECORD
  5
1006
102
{ACAD_REACTORS
330
1005
102
}
330
1005
100
AcDbXrecord
280
     1
102
RTVSPropertyOp0
 70
     0
102
RTVSPropertyOp1
 70
     0
102
RTVSPropertyOp2
 70
     0
102
RTVSPropertyOp3
 70
     0
102
RTVSPropertyOp4
 70
     0
102
RTVSPropertyOp5
 70
     0
102
RTVSPropertyOp6
 70
     0
102
RTVSPropertyOp7
 70
     0
102
RTVSPropertyOp8
 70
     0
102
RTVSPropertyOp9
 70
     0
102
RTVSPropertyOp10
 70
     0
102
RTVSPropertyOp11
 70
     0
102
RTVSPropertyOp12
 70
     0
102
RTVSPropertyOp13
 70
     0
102
RTVSPropertyOp14
 70
     2
102
RTVSPropertyOp15
 70
     0
102
RTVSPropertyOp16
 70
     0
102
RTVSPropertyOp17
 70
     0
102
RTVSPropertyOp18
 70
     0
102
RTVSPropertyOp19
 70
     0
102
RTVSPropertyOp20
 70
     0
102
RTVSPropertyOp21
 70
     0
102
RTVSPropertyOp22
 70
     0
102
RTVSPropertyOp23
 70
     0
102
RTVSPropertyOp24
 70
     0
102
RTVSPropertyOp25
 70
     0
102
RTVSPropertyOp26
 70
     0
102
RTVSPropertyOp27
 70
     0
102
RTVSPropertyOp28
 70
     1
102
RTVSPropertyOp29
 70
     1
102
RTVSPropertyOp30
 70
     1
102
RTVSPropertyOp31
 70
     1
102
RTVSPropertyOp32
 70
     1
  0
XRECORD
  5
FF2
102
{ACAD_REACTORS
330
FF1
102
}
330
FF1
100
AcDbXrecord
280
     1
102
RTVSPropertyOp0
 70
     1
102
RTVSPropertyOp1
 70
     1
102
RTVSPropertyOp2
 70
     1
102
RTVSPropertyOp3
 70
     1
102
RTVSPropertyOp4
 70
     1
102
RTVSPropertyOp5
 70
     1
102
RTVSPropertyOp6
 70
     1
102
RTVSPropertyOp7
 70
     1
102
RTVSPropertyOp8
 70
     1
102
RTVSPropertyOp9
 70
     1
102
RTVSPropertyOp10
 70
     1
102
RTVSPropertyOp11
 70
     1
102
RTVSPropertyOp12
 70
     1
102
RTVSPropertyOp13
 70
     1
102
RTVSPropertyOp14
 70
     1
102
RTVSPropertyOp15
 70
     1
102
RTVSPropertyOp16
 70
     1
102
RTVSPropertyOp17
 70
     1
102
RTVSPropertyOp18
 70
     1
102
RTVSPropertyOp19
 70
     1
102
RTVSPropertyOp20
 70
     1
102
RTVSPropertyOp21
 70
     1
102
RTVSPropertyOp22
 70
     1
102
RTVSPropertyOp23
 70
     1
102
RTVSPropertyOp24
 70
     1
102
RTVSPropertyOp25
 70
     1
102
RTVSPropertyOp26
 70
     1
102
RTVSPropertyOp27
 70
     1
102
RTVSPropertyOp28
 70
     1
102
RTVSPropertyOp29
 70
     1
102
RTVSPropertyOp30
 70
     1
102
RTVSPropertyOp31
 70
     1
102
RTVSPropertyOp32
 70
     1
  0
XRECORD
  5
1008
102
{ACAD_REACTORS
330
1007
102
}
330
1007
100
AcDbXrecord
280
     1
102
RTVSPropertyOp0
 70
     0
102
RTVSPropertyOp1
 70
     0
102
RTVSPropertyOp2
 70
     0
102
RTVSPropertyOp3
 70
     0
102
RTVSPropertyOp4
 70
     0
102
RTVSPropertyOp5
 70
     0
102
RTVSPropertyOp6
 70
     0
102
RTVSPropertyOp7
 70
     0
102
RTVSPropertyOp8
 70
     0
102
RTVSPropertyOp9
 70
     0
102
RTVSPropertyOp10
 70
     0
102
RTVSPropertyOp11
 70
     0
102
RTVSPropertyOp12
 70
     0
102
RTVSPropertyOp13
 70
     0
102
RTVSPropertyOp14
 70
     2
102
RTVSPropertyOp15
 70
     0
102
RTVSPropertyOp16
 70
     0
102
RTVSPropertyOp17
 70
     0
102
RTVSPropertyOp18
 70
     0
102
RTVSPropertyOp19
 70
     0
102
RTVSPropertyOp20
 70
     0
102
RTVSPropertyOp21
 70
     0
102
RTVSPropertyOp22
 70
     0
102
RTVSPropertyOp23
 70
     0
102
RTVSPropertyOp24
 70
     0
102
RTVSPropertyOp25
 70
     0
102
RTVSPropertyOp26
 70
     0
102
RTVSPropertyOp27
 70
     0
102
RTVSPropertyOp28
 70
     1
102
RTVSPropertyOp29
 70
     1
102
RTVSPropertyOp30
 70
     1
102
RTVSPropertyOp31
 70
     1
102
RTVSPropertyOp32
 70
     1
  0
XRECORD
  5
FEA
102
{ACAD_REACTORS
330
FE9
102
}
330
FE9
100
AcDbXrecord
280
     1
102
RTVSPropertyOp0
 70
     1
102
RTVSPropertyOp1
 70
     1
102
RTVSPropertyOp2
 70
     1
102
RTVSPropertyOp3
 70
     1
102
RTVSPropertyOp4
 70
     1
102
RTVSPropertyOp5
 70
     1
102
RTVSPropertyOp6
 70
     1
102
RTVSPropertyOp7
 70
     1
102
RTVSPropertyOp8
 70
     1
102
RTVSPropertyOp9
 70
     1
102
RTVSPropertyOp10
 70
     1
102
RTVSPropertyOp11
 70
     1
102
RTVSPropertyOp12
 70
     1
102
RTVSPropertyOp13
 70
     1
102
RTVSPropertyOp14
 70
     1
102
RTVSPropertyOp15
 70
     1
102
RTVSPropertyOp16
 70
     1
102
RTVSPropertyOp17
 70
     1
102
RTVSPropertyOp18
 70
     1
102
RTVSPropertyOp19
 70
     1
102
RTVSPropertyOp20
 70
     1
102
RTVSPropertyOp21
 70
     1
102
RTVSPropertyOp22
 70
     1
102
RTVSPropertyOp23
 70
     1
102
RTVSPropertyOp24
 70
     1
102
RTVSPropertyOp25
 70
     1
102
RTVSPropertyOp26
 70
     1
102
RTVSPropertyOp27
 70
     1
102
RTVSPropertyOp28
 70
     1
102
RTVSPropertyOp29
 70
     1
102
RTVSPropertyOp30
 70
     1
102
RTVSPropertyOp31
 70
     1
102
RTVSPropertyOp32
 70
     1
  0
XRECORD
  5
1004
102
{ACAD_REACTORS
330
1003
102
}
330
1003
100
AcDbXrecord
280
     1
102
RTVSPropertyOp0
 70
     1
102
RTVSPropertyOp1
 70
     1
102
RTVSPropertyOp2
 70
     1
102
RTVSPropertyOp3
 70
     1
102
RTVSPropertyOp4
 70
     1
102
RTVSPropertyOp5
 70
     1
102
RTVSPropertyOp6
 70
     1
102
RTVSPropertyOp7
 70
     1
102
RTVSPropertyOp8
 70
     1
102
RTVSPropertyOp9
 70
     1
102
RTVSPropertyOp10
 70
     1
102
RTVSPropertyOp11
 70
     1
102
RTVSPropertyOp12
 70
     1
102
RTVSPropertyOp13
 70
     1
102
RTVSPropertyOp14
 70
     1
102
RTVSPropertyOp15
 70
     1
102
RTVSPropertyOp16
 70
     1
102
RTVSPropertyOp17
 70
     1
102
RTVSPropertyOp18
 70
     1
102
RTVSPropertyOp19
 70
     1
102
RTVSPropertyOp20
 70
     1
102
RTVSPropertyOp21
 70
     1
102
RTVSPropertyOp22
 70
     1
102
RTVSPropertyOp23
 70
     1
102
RTVSPropertyOp24
 70
     1
102
RTVSPropertyOp25
 70
     1
102
RTVSPropertyOp26
 70
     1
102
RTVSPropertyOp27
 70
     1
102
RTVSPropertyOp28
 70
     1
102
RTVSPropertyOp29
 70
     1
102
RTVSPropertyOp30
 70
     1
102
RTVSPropertyOp31
 70
     1
102
RTVSPropertyOp32
 70
     1
  0
XRECORD
  5
1002
102
{ACAD_REACTORS
330
1001
102
}
330
1001
100
AcDbXrecord
280
     1
102
RTVSPropertyOp0
 70
     1
102
RTVSPropertyOp1
 70
     1
102
RTVSPropertyOp2
 70
     1
102
RTVSPropertyOp3
 70
     1
102
RTVSPropertyOp4
 70
     1
102
RTVSPropertyOp5
 70
     1
102
RTVSPropertyOp6
 70
     1
102
RTVSPropertyOp7
 70
     1
102
RTVSPropertyOp8
 70
     1
102
RTVSPropertyOp9
 70
     1
102
RTVSPropertyOp10
 70
     1
102
RTVSPropertyOp11
 70
     1
102
RTVSPropertyOp12
 70
     1
102
RTVSPropertyOp13
 70
     1
102
RTVSPropertyOp14
 70
     1
102
RTVSPropertyOp15
 70
     1
102
RTVSPropertyOp16
 70
     1
102
RTVSPropertyOp17
 70
     1
102
RTVSPropertyOp18
 70
     1
102
RTVSPropertyOp19
 70
     1
102
RTVSPropertyOp20
 70
     1
102
RTVSPropertyOp21
 70
     1
102
RTVSPropertyOp22
 70
     1
102
RTVSPropertyOp23
 70
     1
102
RTVSPropertyOp24
 70
     1
102
RTVSPropertyOp25
 70
     1
102
RTVSPropertyOp26
 70
     1
102
RTVSPropertyOp27
 70
     1
102
RTVSPropertyOp28
 70
     1
102
RTVSPropertyOp29
 70
     1
102
RTVSPropertyOp30
 70
     1
102
RTVSPropertyOp31
 70
     1
102
RTVSPropertyOp32
 70
     1
  0
XRECORD
  5
FFC
102
{ACAD_REACTORS
330
FFB
102
}
330
FFB
100
AcDbXrecord
280
     1
102
RTVSPropertyOp0
 70
     1
102
RTVSPropertyOp1
 70
     1
102
RTVSPropertyOp2
 70
     1
102
RTVSPropertyOp3
 70
     1
102
RTVSPropertyOp4
 70
     1
102
RTVSPropertyOp5
 70
     1
102
RTVSPropertyOp6
 70
     1
102
RTVSPropertyOp7
 70
     1
102
RTVSPropertyOp8
 70
     1
102
RTVSPropertyOp9
 70
     1
102
RTVSPropertyOp10
 70
     1
102
RTVSPropertyOp11
 70
     1
102
RTVSPropertyOp12
 70
     1
102
RTVSPropertyOp13
 70
     1
102
RTVSPropertyOp14
 70
     1
102
RTVSPropertyOp15
 70
     1
102
RTVSPropertyOp16
 70
     1
102
RTVSPropertyOp17
 70
     1
102
RTVSPropertyOp18
 70
     1
102
RTVSPropertyOp19
 70
     1
102
RTVSPropertyOp20
 70
     1
102
RTVSPropertyOp21
 70
     1
102
RTVSPropertyOp22
 70
     1
102
RTVSPropertyOp23
 70
     1
102
RTVSPropertyOp24
 70
     1
102
RTVSPropertyOp25
 70
     1
102
RTVSPropertyOp26
 70
     1
102
RTVSPropertyOp27
 70
     1
102
RTVSPropertyOp28
 70
     1
102
RTVSPropertyOp29
 70
     1
102
RTVSPropertyOp30
 70
     1
102
RTVSPropertyOp31
 70
     1
102
RTVSPropertyOp32
 70
     1
  0
XRECORD
  5
FFE
102
{ACAD_REACTORS
330
FFD
102
}
330
FFD
100
AcDbXrecord
280
     1
102
RTVSPropertyOp0
 70
     1
102
RTVSPropertyOp1
 70
     1
102
RTVSPropertyOp2
 70
     1
102
RTVSPropertyOp3
 70
     1
102
RTVSPropertyOp4
 70
     1
102
RTVSPropertyOp5
 70
     1
102
RTVSPropertyOp6
 70
     1
102
RTVSPropertyOp7
 70
     1
102
RTVSPropertyOp8
 70
     1
102
RTVSPropertyOp9
 70
     1
102
RTVSPropertyOp10
 70
     1
102
RTVSPropertyOp11
 70
     1
102
RTVSPropertyOp12
 70
     1
102
RTVSPropertyOp13
 70
     1
102
RTVSPropertyOp14
 70
     1
102
RTVSPropertyOp15
 70
     1
102
RTVSPropertyOp16
 70
     1
102
RTVSPropertyOp17
 70
     1
102
RTVSPropertyOp18
 70
     1
102
RTVSPropertyOp19
 70
     1
102
RTVSPropertyOp20
 70
     1
102
RTVSPropertyOp21
 70
     1
102
RTVSPropertyOp22
 70
     1
102
RTVSPropertyOp23
 70
     1
102
RTVSPropertyOp24
 70
     1
102
RTVSPropertyOp25
 70
     1
102
RTVSPropertyOp26
 70
     1
102
RTVSPropertyOp27
 70
     1
102
RTVSPropertyOp28
 70
     1
102
RTVSPropertyOp29
 70
     1
102
RTVSPropertyOp30
 70
     1
102
RTVSPropertyOp31
 70
     1
102
RTVSPropertyOp32
 70
     1
  0
XRECORD
  5
FF0
102
{ACAD_REACTORS
330
FEF
102
}
330
FEF
100
AcDbXrecord
280
     1
102
RTVSPropertyOp0
 70
     1
102
RTVSPropertyOp1
 70
     1
102
RTVSPropertyOp2
 70
     1
102
RTVSPropertyOp3
 70
     1
102
RTVSPropertyOp4
 70
     1
102
RTVSPropertyOp5
 70
     1
102
RTVSPropertyOp6
 70
     1
102
RTVSPropertyOp7
 70
     1
102
RTVSPropertyOp8
 70
     1
102
RTVSPropertyOp9
 70
     1
102
RTVSPropertyOp10
 70
     1
102
RTVSPropertyOp11
 70
     1
102
RTVSPropertyOp12
 70
     1
102
RTVSPropertyOp13
 70
     1
102
RTVSPropertyOp14
 70
     1
102
RTVSPropertyOp15
 70
     1
102
RTVSPropertyOp16
 70
     1
102
RTVSPropertyOp17
 70
     1
102
RTVSPropertyOp18
 70
     1
102
RTVSPropertyOp19
 70
     1
102
RTVSPropertyOp20
 70
     1
102
RTVSPropertyOp21
 70
     1
102
RTVSPropertyOp22
 70
     1
102
RTVSPropertyOp23
 70
     1
102
RTVSPropertyOp24
 70
     1
102
RTVSPropertyOp25
 70
     1
102
RTVSPropertyOp26
 70
     1
102
RTVSPropertyOp27
 70
     1
102
RTVSPropertyOp28
 70
     1
102
RTVSPropertyOp29
 70
     1
102
RTVSPropertyOp30
 70
     1
102
RTVSPropertyOp31
 70
     1
102
RTVSPropertyOp32
 70
     1
  0
XRECORD
  5
FF8
102
{ACAD_REACTORS
330
FF7
102
}
330
FF7
100
AcDbXrecord
280
     1
102
RTVSPropertyOp0
 70
     1
102
RTVSPropertyOp1
 70
     1
102
RTVSPropertyOp2
 70
     1
102
RTVSPropertyOp3
 70
     1
102
RTVSPropertyOp4
 70
     1
102
RTVSPropertyOp5
 70
     1
102
RTVSPropertyOp6
 70
     1
102
RTVSPropertyOp7
 70
     1
102
RTVSPropertyOp8
 70
     1
102
RTVSPropertyOp9
 70
     1
102
RTVSPropertyOp10
 70
     1
102
RTVSPropertyOp11
 70
     1
102
RTVSPropertyOp12
 70
     1
102
RTVSPropertyOp13
 70
     1
102
RTVSPropertyOp14
 70
     1
102
RTVSPropertyOp15
 70
     1
102
RTVSPropertyOp16
 70
     1
102
RTVSPropertyOp17
 70
     1
102
RTVSPropertyOp18
 70
     1
102
RTVSPropertyOp19
 70
     1
102
RTVSPropertyOp20
 70
     1
102
RTVSPropertyOp21
 70
     1
102
RTVSPropertyOp22
 70
     1
102
RTVSPropertyOp23
 70
     1
102
RTVSPropertyOp24
 70
     1
102
RTVSPropertyOp25
 70
     1
102
RTVSPropertyOp26
 70
     1
102
RTVSPropertyOp27
 70
     1
102
RTVSPropertyOp28
 70
     1
102
RTVSPropertyOp29
 70
     1
102
RTVSPropertyOp30
 70
     1
102
RTVSPropertyOp31
 70
     1
102
RTVSPropertyOp32
 70
     1
  0
XRECORD
  5
1000
102
{ACAD_REACTORS
330
FFF
102
}
330
FFF
100
AcDbXrecord
280
     1
102
RTVSPropertyOp0
 70
     1
102
RTVSPropertyOp1
 70
     1
102
RTVSPropertyOp2
 70
     1
102
RTVSPropertyOp3
 70
     1
102
RTVSPropertyOp4
 70
     1
102
RTVSPropertyOp5
 70
     1
102
RTVSPropertyOp6
 70
     1
102
RTVSPropertyOp7
 70
     1
102
RTVSPropertyOp8
 70
     1
102
RTVSPropertyOp9
 70
     1
102
RTVSPropertyOp10
 70
     1
102
RTVSPropertyOp11
 70
     1
102
RTVSPropertyOp12
 70
     1
102
RTVSPropertyOp13
 70
     1
102
RTVSPropertyOp14
 70
     1
102
RTVSPropertyOp15
 70
     1
102
RTVSPropertyOp16
 70
     1
102
RTVSPropertyOp17
 70
     1
102
RTVSPropertyOp18
 70
     1
102
RTVSPropertyOp19
 70
     1
102
RTVSPropertyOp20
 70
     1
102
RTVSPropertyOp21
 70
     1
102
RTVSPropertyOp22
 70
     1
102
RTVSPropertyOp23
 70
     1
102
RTVSPropertyOp24
 70
     1
102
RTVSPropertyOp25
 70
     1
102
RTVSPropertyOp26
 70
     1
102
RTVSPropertyOp27
 70
     1
102
RTVSPropertyOp28
 70
     1
102
RTVSPropertyOp29
 70
     1
102
RTVSPropertyOp30
 70
     1
102
RTVSPropertyOp31
 70
     1
102
RTVSPropertyOp32
 70
     1
  0
ENDSEC
  0
EOF
