  0
SECTION
  2
HEADER
  9
$ACADVER
  1
AC1018
  9
$ACADMAINTVER
 70
   104
  9
$DWGCODEPAGE
  3
ANSI_1252
  9
$LASTSAVEDBY
  1
kamerka
  9
$INSBASE
 10
0.0
 20
0.0
 30
0.0
  9
$EXTMIN
 10
-18.52429021164335
 20
-28.84719732083283
 30
-0.0015258207003583
  9
$EXTMAX
 10
40.87588605735891
 20
14.71969676054982
 30
0.0000000349246037
  9
$LIMMIN
 10
-170.0
 20
-170.0
  9
$LIMMAX
 10
519.0
 20
260.0
  9
$ORTHOMODE
 70
     1
  9
$REGENMODE
 70
     1
  9
$FILLMODE
 70
     1
  9
$QTEXTMODE
 70
     0
  9
$MIRRTEXT
 70
     0
  9
$LTSCALE
 40
0.5
  9
$ATTMODE
 70
     1
  9
$TEXTSIZE
 40
5.0
  9
$TRACEWID
 40
1.0
  9
$TEXTSTYLE
  7
STANDARD
  9
$CLAYER
  8
0
  9
$CELTYPE
  6
BYLAYER
  9
$CECOLOR
 62
   256
  9
$CELTSCALE
 40
1.0
  9
$DISPSILH
 70
     0
  9
$DIMSCALE
 40
1.0
  9
$DIMASZ
 40
2.5
  9
$DIMEXO
 40
0.0
  9
$DIMDLI
 40
3.75
  9
$DIMRND
 40
0.0
  9
$DIMDLE
 40
0.0
  9
$DIMEXE
 40
1.25
  9
$DIMTP
 40
0.0
  9
$DIMTM
 40
0.0
  9
$DIMTXT
 40
3.5
  9
$DIMCEN
 40
0.0
  9
$DIMTSZ
 40
0.0
  9
$DIMTOL
 70
     0
  9
$DIMLIM
 70
     0
  9
$DIMTIH
 70
     0
  9
$DIMTOH
 70
     0
  9
$DIMSE1
 70
     0
  9
$DIMSE2
 70
     0
  9
$DIMTAD
 70
     1
  9
$DIMZIN
 70
     1
  9
$DIMBLK
  1

  9
$DIMASO
 70
     1
  9
$DIMSHO
 70
     1
  9
$DIMPOST
  1

  9
$DIMAPOST
  1

  9
$DIMALT
 70
     0
  9
$DIMALTD
 70
     3
  9
$DIMALTF
 40
0.039370078
  9
$DIMLFAC
 40
1.0
  9
$DIMTOFL
 70
     0
  9
$DIMTVP
 40
0.0
  9
$DIMTIX
 70
     0
  9
$DIMSOXD
 70
     0
  9
$DIMSAH
 70
     0
  9
$DIMBLK1
  1

  9
$DIMBLK2
  1

  9
$DIMSTYLE
  2
STANDARD
  9
$DIMCLRD
 70
     0
  9
$DIMCLRE
 70
     0
  9
$DIMCLRT
 70
     0
  9
$DIMTFAC
 40
1.0
  9
$DIMGAP
 40
0.625
  9
$DIMJUST
 70
     0
  9
$DIMSD1
 70
     0
  9
$DIMSD2
 70
     0
  9
$DIMTOLJ
 70
     0
  9
$DIMTZIN
 70
     8
  9
$DIMALTZ
 70
     0
  9
$DIMALTTZ
 70
     0
  9
$DIMUPT
 70
     0
  9
$DIMDEC
 70
     2
  9
$DIMTDEC
 70
     2
  9
$DIMALTU
 70
     2
  9
$DIMALTTD
 70
     3
  9
$DIMTXSTY
  7
STANDARD
  9
$DIMAUNIT
 70
     0
  9
$DIMADEC
 70
     2
  9
$DIMALTRND
 40
0.0
  9
$DIMAZIN
 70
     0
  9
$DIMDSEP
 70
    46
  9
$DIMATFIT
 70
     3
  9
$DIMFRAC
 70
     0
  9
$DIMLDRBLK
  1

  9
$DIMLUNIT
 70
     2
  9
$DIMLWD
 70
    -2
  9
$DIMLWE
 70
    -2
  9
$DIMTMOVE
 70
     0
  9
$LUNITS
 70
     2
  9
$LUPREC
 70
     4
  9
$SKETCHINC
 40
1.0
  9
$FILLETRAD
 40
0.0
  9
$AUNITS
 70
     0
  9
$AUPREC
 70
     0
  9
$MENU
  1
c:\tdm21\cad\caduti13\tdm13
  9
$ELEVATION
 40
0.0
  9
$PELEVATION
 40
0.0
  9
$THICKNESS
 40
0.0
  9
$LIMCHECK
 70
     0
  9
$CHAMFERA
 40
0.0
  9
$CHAMFERB
 40
0.0
  9
$CHAMFERC
 40
0.0
  9
$CHAMFERD
 40
0.0
  9
$SKPOLY
 70
     0
  9
$TDCREATE
 40
2455806.554958843
  9
$TDUCREATE
 40
2455806.471625510
  9
$TDUPDATE
 40
2456538.325480232
  9
$TDUUPDATE
 40
2456538.242146898
  9
$TDINDWG
 40
0.0365544907
  9
$TDUSRTIMER
 40
0.0365532176
  9
$USRTIMER
 70
     1
  9
$ANGBASE
 50
0.0
  9
$ANGDIR
 70
     0
  9
$PDMODE
 70
     3
  9
$PDSIZE
 40
0.0
  9
$PLINEWID
 40
0.0
  9
$SPLFRAME
 70
     0
  9
$SPLINETYPE
 70
     6
  9
$SPLINESEGS
 70
     8
  9
$HANDSEED
  5
C74
  9
$SURFTAB1
 70
     6
  9
$SURFTAB2
 70
     6
  9
$SURFTYPE
 70
     6
  9
$SURFU
 70
     6
  9
$SURFV
 70
     6
  9
$UCSBASE
  2

  9
$UCSNAME
  2

  9
$UCSORG
 10
0.0
 20
0.0
 30
0.0
  9
$UCSXDIR
 10
1.0
 20
0.0
 30
0.0
  9
$UCSYDIR
 10
0.0
 20
1.0
 30
0.0
  9
$UCSORTHOREF
  2

  9
$UCSORTHOVIEW
 70
     0
  9
$UCSORGTOP
 10
0.0
 20
0.0
 30
0.0
  9
$UCSORGBOTTOM
 10
0.0
 20
0.0
 30
0.0
  9
$UCSORGLEFT
 10
0.0
 20
0.0
 30
0.0
  9
$UCSORGRIGHT
 10
0.0
 20
0.0
 30
0.0
  9
$UCSORGFRONT
 10
0.0
 20
0.0
 30
0.0
  9
$UCSORGBACK
 10
0.0
 20
0.0
 30
0.0
  9
$PUCSBASE
  2

  9
$PUCSNAME
  2

  9
$PUCSORG
 10
0.0
 20
0.0
 30
0.0
  9
$PUCSXDIR
 10
1.0
 20
0.0
 30
0.0
  9
$PUCSYDIR
 10
0.0
 20
1.0
 30
0.0
  9
$PUCSORTHOREF
  2

  9
$PUCSORTHOVIEW
 70
     0
  9
$PUCSORGTOP
 10
0.0
 20
0.0
 30
0.0
  9
$PUCSORGBOTTOM
 10
0.0
 20
0.0
 30
0.0
  9
$PUCSORGLEFT
 10
0.0
 20
0.0
 30
0.0
  9
$PUCSORGRIGHT
 10
0.0
 20
0.0
 30
0.0
  9
$PUCSORGFRONT
 10
0.0
 20
0.0
 30
0.0
  9
$PUCSORGBACK
 10
0.0
 20
0.0
 30
0.0
  9
$USERI1
 70
     0
  9
$USERI2
 70
     0
  9
$USERI3
 70
     0
  9
$USERI4
 70
     0
  9
$USERI5
 70
     0
  9
$USERR1
 40
0.0
  9
$USERR2
 40
0.0
  9
$USERR3
 40
0.0
  9
$USERR4
 40
0.0
  9
$USERR5
 40
0.0
  9
$WORLDVIEW
 70
     1
  9
$SHADEDGE
 70
     3
  9
$SHADEDIF
 70
    70
  9
$TILEMODE
 70
     1
  9
$MAXACTVP
 70
    64
  9
$PINSBASE
 10
0.0
 20
0.0
 30
0.0
  9
$PLIMCHECK
 70
     0
  9
$PEXTMIN
 10
0.0
 20
0.0
 30
0.0
  9
$PEXTMAX
 10
0.0
 20
0.0
 30
0.0
  9
$PLIMMIN
 10
0.0
 20
0.0
  9
$PLIMMAX
 10
12.0
 20
9.0
  9
$UNITMODE
 70
     0
  9
$VISRETAIN
 70
     0
  9
$PLINEGEN
 70
     0
  9
$PSLTSCALE
 70
     1
  9
$TREEDEPTH
 70
  3020
  9
$CMLSTYLE
  2
STANDARD
  9
$CMLJUST
 70
     0
  9
$CMLSCALE
 40
20.0
  9
$PROXYGRAPHICS
 70
     1
  9
$MEASUREMENT
 70
     1
  9
$CELWEIGHT
370
    -1
  9
$ENDCAPS
280
     0
  9
$JOINSTYLE
280
     0
  9
$LWDISPLAY
290
     0
  9
$INSUNITS
 70
     4
  9
$HYPERLINKBASE
  1

  9
$STYLESHEET
  1
MONOCHROME.CTB
  9
$XEDIT
290
     1
  9
$CEPSNTYPE
380
     0
  9
$PSTYLEMODE
290
     1
  9
$FINGERPRINTGUID
  2
{B3E50878-DCBE-450A-82B4-5906D72769A7}
  9
$VERSIONGUID
  2
{9D9F2A43-9951-4807-895F-B3BDC3F704C1}
  9
$EXTNAMES
290
     1
  9
$PSVPSCALE
 40
0.0
  9
$OLESTARTUP
290
     0
  9
$SORTENTS
280
   127
  9
$INDEXCTL
280
     0
  9
$HIDETEXT
280
     1
  9
$XCLIPFRAME
290
     0
  9
$HALOGAP
280
     0
  9
$OBSCOLOR
 70
   257
  9
$OBSLTYPE
280
     0
  9
$INTERSECTIONDISPLAY
280
     0
  9
$INTERSECTIONCOLOR
 70
   257
  9
$DIMASSOC
280
     2
  9
$PROJECTNAME
  1

  0
ENDSEC
  0
SECTION
  2
CLASSES
  0
CLASS
  1
ACDBDICTIONARYWDFLT
  2
AcDbDictionaryWithDefault
  3
ObjectDBX Classes
 90
        0
 91
        1
280
     0
281
     0
  0
CLASS
  1
DICTIONARYVAR
  2
AcDbDictionaryVar
  3
ObjectDBX Classes
 90
        0
 91
       10
280
     0
281
     0
  0
CLASS
  1
TABLESTYLE
  2
AcDbTableStyle
  3
ObjectDBX Classes
 90
     4095
 91
        1
280
     0
281
     0
  0
CLASS
  1
MATERIAL
  2
AcDbMaterial
  3
ObjectDBX Classes
 90
     1153
 91
        3
280
     0
281
     0
  0
CLASS
  1
VISUALSTYLE
  2
AcDbVisualStyle
  3
ObjectDBX Classes
 90
     4095
 91
       26
280
     0
281
     0
  0
CLASS
  1
SCALE
  2
AcDbScale
  3
ObjectDBX Classes
 90
     1153
 91
       33
280
     0
281
     0
  0
CLASS
  1
MLEADERSTYLE
  2
AcDbMLeaderStyle
  3
ACDB_MLEADERSTYLE_CLASS
 90
     4095
 91
        1
280
     0
281
     0
  0
CLASS
  1
CELLSTYLEMAP
  2
AcDbCellStyleMap
  3
ObjectDBX Classes
 90
     1152
 91
        2
280
     0
281
     0
  0
CLASS
  1
DIMASSOC
  2
AcDbDimAssoc
  3
"AcDbDimAssoc|Product Desc:     AcDim ARX App For Dimension|Company:          Autodesk, Inc.|WEB Address:      www.autodesk.com"
 90
        0
 91
        3
280
     0
281
     0
  0
CLASS
  1
SORTENTSTABLE
  2
AcDbSortentsTable
  3
ObjectDBX Classes
 90
        0
 91
        2
280
     0
281
     0
  0
CLASS
  1
MULTILEADER
  2
AcDbMLeader
  3
ACDB_MLEADER_CLASS
 90
     1025
 91
        2
280
     0
281
     1
  0
CLASS
  1
AEC_REFEDIT_STATUS_TRACKER
  2
AecDbRefEditStatusTracker
  3
AecArchBase60|Product Desc: Autodesk Architectural Desktop 2007 |Company: Autodesk,Inc. |WEB Address: www.autodesk.com
 90
      129
 91
        0
280
     0
281
     0
  0
CLASS
  1
NPOCOLLECTION
  2
AcDbImpNonPersistentObjectsCollection
  3
ObjectDBX Classes
 90
     1153
 91
        0
280
     0
281
     0
  0
ENDSEC
  0
SECTION
  2
TABLES
  0
TABLE
  2
VPORT
  5
8
330
0
100
AcDbSymbolTable
 70
     1
  0
VPORT
  5
3ED
330
8
100
AcDbSymbolTableRecord
100
AcDbViewportTableRecord
  2
*Active
 70
     0
 10
0.0
 20
0.0
 11
1.0
 21
1.0
 12
11.17579792285778
 22
-7.063750280141505
 13
0.0
 23
0.0
 14
5.0
 24
5.0
 15
5.0
 25
5.0
 16
0.0
 26
0.0
 36
1.0
 17
0.0
 27
0.0
 37
0.0
 40
43.97342808525247
 41
1.922118380062305
 42
50.0
 43
0.0
 44
0.0
 50
0.0
 51
0.0
 71
     0
 72
  2000
 73
     1
 74
     3
 75
     0
 76
     0
 77
     0
 78
     0
281
     0
 65
     1
110
0.0
120
0.0
130
0.0
111
1.0
121
0.0
131
0.0
112
0.0
122
1.0
132
0.0
 79
     0
146
0.0
1001
ACAD_NAV_VCDISPLAY
1070
     3
  0
ENDTAB
  0
TABLE
  2
LTYPE
  5
5
330
0
100
AcDbSymbolTable
 70
     3
  0
LTYPE
  5
12
330
5
100
AcDbSymbolTableRecord
100
AcDbLinetypeTableRecord
  2
BYBLOCK
 70
     0
  3

 72
    65
 73
     0
 40
0.0
  0
LTYPE
  5
13
330
5
100
AcDbSymbolTableRecord
100
AcDbLinetypeTableRecord
  2
BYLAYER
 70
     0
  3

 72
    65
 73
     0
 40
0.0
  0
LTYPE
  5
14
330
5
100
AcDbSymbolTableRecord
100
AcDbLinetypeTableRecord
  2
CONTINUOUS
 70
     0
  3
Solid line
 72
    65
 73
     0
 40
0.0
  0
LTYPE
  5
697
330
5
100
AcDbSymbolTableRecord
100
AcDbLinetypeTableRecord
  2
ACAD_ISO02W100
 70
     0
  3
ISO dash __ __ __ __ __ __ __ __ __ __ __ __ __
 72
    65
 73
     2
 40
15.0
 49
12.0
 74
     0
 49
-3.0
 74
     0
  0
LTYPE
  5
6A7
330
5
100
AcDbSymbolTableRecord
100
AcDbLinetypeTableRecord
  2
CENTER2
 70
     0
  3
Center (.5x) ___ _ ___ _ ___ _ ___ _ ___ _ ___
 72
    65
 73
     4
 40
28.575
 49
19.05
 74
     0
 49
-3.174999999999998
 74
     0
 49
3.174999999999998
 74
     0
 49
-3.174999999999998
 74
     0
  0
ENDTAB
  0
TABLE
  2
LAYER
  5
2
102
{ACAD_XDICTIONARY
360
451
102
}
330
0
100
AcDbSymbolTable
 70
    13
  0
LAYER
  5
F
102
{ACAD_XDICTIONARY
360
BCC
102
}
330
2
100
AcDbSymbolTableRecord
100
AcDbLayerTableRecord
  2
0
 70
     0
 62
     7
  6
CONTINUOUS
370
    -3
390
300
  0
LAYER
  5
23
102
{ACAD_XDICTIONARY
360
BCE
102
}
330
2
100
AcDbSymbolTableRecord
100
AcDbLayerTableRecord
  2
1
 70
     0
 62
     4
  6
CONTINUOUS
370
    50
390
300
  0
LAYER
  5
24
102
{ACAD_XDICTIONARY
360
BD0
102
}
330
2
100
AcDbSymbolTableRecord
100
AcDbLayerTableRecord
  2
SK1
 70
     0
 62
     4
  6
CONTINUOUS
370
    50
390
300
  0
LAYER
  5
25
102
{ACAD_XDICTIONARY
360
BD2
102
}
330
2
100
AcDbSymbolTableRecord
100
AcDbLayerTableRecord
  2
2
 70
     0
 62
     7
  6
CONTINUOUS
370
    25
390
300
  0
LAYER
  5
27
102
{ACAD_XDICTIONARY
360
BD4
102
}
330
2
100
AcDbSymbolTableRecord
100
AcDbLayerTableRecord
  2
SK2
 70
     0
 62
     7
  6
CONTINUOUS
370
    25
390
300
  0
LAYER
  5
28
102
{ACAD_XDICTIONARY
360
BD6
102
}
330
2
100
AcDbSymbolTableRecord
100
AcDbLayerTableRecord
  2
3
 70
     0
 62
     1
  6
ACAD_ISO02W100
370
    35
390
300
  0
LAYER
  5
29
102
{ACAD_XDICTIONARY
360
BD8
102
}
330
2
100
AcDbSymbolTableRecord
100
AcDbLayerTableRecord
  2
SK3
 70
     0
 62
     1
  6
ACAD_ISO02W100
370
    35
390
300
  0
LAYER
  5
2A
102
{ACAD_XDICTIONARY
360
BDA
102
}
330
2
100
AcDbSymbolTableRecord
100
AcDbLayerTableRecord
  2
4
 70
     0
 62
     2
  6
CENTER2
370
    25
390
300
  0
LAYER
  5
2B
102
{ACAD_XDICTIONARY
360
BDC
102
}
330
2
100
AcDbSymbolTableRecord
100
AcDbLayerTableRecord
  2
SK4
 70
     0
 62
     2
  6
CENTER2
370
    25
390
300
  0
LAYER
  5
2E
102
{ACAD_XDICTIONARY
360
BDE
102
}
330
2
100
AcDbSymbolTableRecord
100
AcDbLayerTableRecord
  2
SK6
 70
     0
 62
     5
  6
CONTINUOUS
370
    -3
390
300
  0
LAYER
  5
2F
330
2
100
AcDbSymbolTableRecord
100
AcDbLayerTableRecord
  2
DEFPOINTS
 70
     0
 62
     7
  6
CONTINUOUS
290
     0
370
    25
390
300
  0
LAYER
  5
376
102
{ACAD_XDICTIONARY
360
BE0
102
}
330
2
100
AcDbSymbolTableRecord
100
AcDbLayerTableRecord
  2
NOCUT
 70
     0
 62
     7
  6
CONTINUOUS
370
    -3
390
300
  0
ENDTAB
  0
TABLE
  2
STYLE
  5
3
330
0
100
AcDbSymbolTable
 70
     1
  0
STYLE
  5
10
330
3
100
AcDbSymbolTableRecord
100
AcDbTextStyleTableRecord
  2
STANDARD
 70
     0
 40
0.0
 41
1.0
 50
0.0
 71
     0
 42
5.0
  3
isocp.shx
  4

  0
ENDTAB
  0
TABLE
  2
VIEW
  5
6
330
0
100
AcDbSymbolTable
 70
     0
  0
ENDTAB
  0
TABLE
  2
UCS
  5
7
330
0
100
AcDbSymbolTable
 70
     0
  0
ENDTAB
  0
TABLE
  2
APPID
  5
9
330
0
100
AcDbSymbolTable
 70
    15
  0
APPID
  5
11
330
9
100
AcDbSymbolTableRecord
100
AcDbRegAppTableRecord
  2
ACAD
 70
     0
  0
APPID
  5
3A6
330
9
100
AcDbSymbolTableRecord
100
AcDbRegAppTableRecord
  2
ACAD_PSEXT
 70
     0
  0
APPID
  5
3A8
330
9
100
AcDbSymbolTableRecord
100
AcDbRegAppTableRecord
  2
ACAD_EXEMPT_FROM_CAD_STANDARDS
 70
     0
  0
APPID
  5
43E
330
9
100
AcDbSymbolTableRecord
100
AcDbRegAppTableRecord
  2
ACAD_MLEADERVER
 70
     0
  0
APPID
  5
460
330
9
100
AcDbSymbolTableRecord
100
AcDbRegAppTableRecord
  2
ACAD_DSTYLE_DIMJAG
 70
     0
  0
APPID
  5
461
330
9
100
AcDbSymbolTableRecord
100
AcDbRegAppTableRecord
  2
ACAD_DSTYLE_DIMBREAK
 70
     0
  0
APPID
  5
462
330
9
100
AcDbSymbolTableRecord
100
AcDbRegAppTableRecord
  2
ACAD_DSTYLE_DIMTALN
 70
     0
  0
APPID
  5
47A
330
9
100
AcDbSymbolTableRecord
100
AcDbRegAppTableRecord
  2
AcAecLayerStandard
 70
     0
  0
APPID
  5
4AB
330
9
100
AcDbSymbolTableRecord
100
AcDbRegAppTableRecord
  2
DCO15
 70
     0
  0
APPID
  5
4B9
330
9
100
AcDbSymbolTableRecord
100
AcDbRegAppTableRecord
  2
AcadAnnoPO
 70
     0
  0
APPID
  5
55F
330
9
100
AcDbSymbolTableRecord
100
AcDbRegAppTableRecord
  2
ACAD_DSTYLE_DIMRADIAL_EXTENSION
 70
     0
  0
APPID
  5
701
330
9
100
AcDbSymbolTableRecord
100
AcDbRegAppTableRecord
  2
AcadAnnotative
 70
     0
  0
APPID
  5
702
330
9
100
AcDbSymbolTableRecord
100
AcDbRegAppTableRecord
  2
AcDbDynamicBlockGUID
 70
     0
  0
APPID
  5
703
330
9
100
AcDbSymbolTableRecord
100
AcDbRegAppTableRecord
  2
AcDbBlockRepETag
 70
     0
  0
APPID
  5
C3C
330
9
100
AcDbSymbolTableRecord
100
AcDbRegAppTableRecord
  2
ACAD_NAV_VCDISPLAY
 70
     0
  0
ENDTAB
  0
TABLE
  2
DIMSTYLE
  5
A
330
0
100
AcDbSymbolTable
 70
     1
100
AcDbDimStyleTable
 71
     1
340
3F
  0
DIMSTYLE
105
3F
102
{ACAD_REACTORS
330
90A
330
90B
330
B62
102
}
330
A
100
AcDbSymbolTableRecord
100
AcDbDimStyleTableRecord
  2
STANDARD
 70
     0
 41
2.5
 42
0.0
 43
3.75
 44
1.25
 73
     0
 74
     0
 77
     1
 78
     1
140
3.5
141
0.0
143
0.039370078
147
0.625
171
     3
179
     2
271
     2
272
     2
274
     3
283
     0
284
     8
340
10
1001
ACAD_DSTYLE_DIMJAG
1070
   388
1040
1.5
1001
ACAD_DSTYLE_DIMTALN
1070
   392
1070
     0
  0
ENDTAB
  0
TABLE
  2
BLOCK_RECORD
  5
1
330
0
100
AcDbSymbolTable
 70
     5
  0
BLOCK_RECORD
  5
18
102
{ACAD_XDICTIONARY
360
B4D
102
}
330
1
100
AcDbSymbolTableRecord
100
AcDbBlockTableRecord
  2
*MODEL_SPACE
340
303
  0
BLOCK_RECORD
  5
338
330
1
100
AcDbSymbolTableRecord
100
AcDbBlockTableRecord
  2
*Paper_Space
340
33B
  0
BLOCK_RECORD
  5
51F
330
1
100
AcDbSymbolTableRecord
100
AcDbBlockTableRecord
  2
CERO_POINT
340
0
310
2800000020000000200000000100080000000000000400000000000000000000000000000000000000000000000080000080000000808000800000008000800080800000C0C0C000C0DCC000F0CAA6000020400000206000002080000020A0000020C0000020E00000400000004020000040400000406000004080000040A0
310
000040C0000040E00000600000006020000060400000606000006080000060A0000060C0000060E00000800000008020000080400000806000008080000080A0000080C0000080E00000A0000000A0200000A0400000A0600000A0800000A0A00000A0C00000A0E00000C0000000C0200000C0400000C0600000C0800000C0
310
A00000C0C00000C0E00000E0000000E0200000E0400000E0600000E0800000E0A00000E0C00000E0E00040000000400020004000400040006000400080004000A0004000C0004000E00040200000402020004020400040206000402080004020A0004020C0004020E000404000004040200040404000404060004040800040
310
40A0004040C0004040E00040600000406020004060400040606000406080004060A0004060C0004060E00040800000408020004080400040806000408080004080A0004080C0004080E00040A0000040A0200040A0400040A0600040A0800040A0A00040A0C00040A0E00040C0000040C0200040C0400040C0600040C08000
310
40C0A00040C0C00040C0E00040E0000040E0200040E0400040E0600040E0800040E0A00040E0C00040E0E00080000000800020008000400080006000800080008000A0008000C0008000E00080200000802020008020400080206000802080008020A0008020C0008020E00080400000804020008040400080406000804080
310
008040A0008040C0008040E00080600000806020008060400080606000806080008060A0008060C0008060E00080800000808020008080400080806000808080008080A0008080C0008080E00080A0000080A0200080A0400080A0600080A0800080A0A00080A0C00080A0E00080C0000080C0200080C0400080C0600080C0
310
800080C0A00080C0C00080C0E00080E0000080E0200080E0400080E0600080E0800080E0A00080E0C00080E0E000C0000000C0002000C0004000C0006000C0008000C000A000C000C000C000E000C0200000C0202000C0204000C0206000C0208000C020A000C020C000C020E000C0400000C0402000C0404000C0406000C0
310
408000C040A000C040C000C040E000C0600000C0602000C0604000C0606000C0608000C060A000C060C000C060E000C0800000C0802000C0804000C0806000C0808000C080A000C080C000C080E000C0A00000C0A02000C0A04000C0A06000C0A08000C0A0A000C0A0C000C0A0E000C0C00000C0C02000C0C04000C0C06000
310
C0C08000C0C0A000F0FBFF00A4A0A000808080000000FF0000FF000000FFFF00FF000000FF00FF00FFFF0000FFFFFF00000000000000000000000000000000000000000000000000000000000000000000000000000000000000000000000000FF0000000000000000000000000000000000000000000000000000000000FF
310
FFFFFFFF000000000000000000000000000000000000000000FFFFFFFFFFFF0000FF0000FFFF00FF00000000000000000000000000000000FF00000000000000FFFFFF0000FFFFFFFF000000000000000000000000000000FF0000000000000000FF00FF0000FF00FFFF00000000000000000000000000FF00000000000000
310
0000FFFF00FF0000FF0000FFFF00000000000000000000FF000000000000000000FFFF00FF00FF0000FF0000FF000000000000000000FF0000000000000000000000FF0000FF00FF0000FF0000FF0000000000000000FF00000000000000000000FFFFFF0000FFFFFF0000FF00FFFF000000000000FF000000000000000000
310
000000FF00FF000000FFFF0000FF00FF0000000000FF00000000000000000000000000FFFF00FFFF0000FFFF0000FFFF0000000000FF000000000000000000000000FFFF00FF0000FF0000FFFF0000FF0000000000FF00000000000000000000000000FF0000FF0000FF0000FFFF0000FF00000000FF000000000000000000
310
000000FFFFFF0000FF0000FF0000FFFF00FF00000000FF00FF00000000FF0000FF00FF00FFFFFF0000FF0000FF0000FFFF00FF0000FFFFFFFFFFFFFFFFFFFFFFFFFFFFFFFFFFFFFFFFFFFFFFFFFFFFFFFFFFFF000000FF00FF00FF00FF0000FF0000FFFFFF00000000000000000000000000FF000000FF0000FF00FF00FF00
310
00FF0000FFFF000000000000000000000000FF00000000FFFF0000FF00FF00FF00FF000000FF000000000000000000000000FF00000000FF00FF0000FF00FF00FF00FF0000FF0000000000000000000000FF000000000000FF00FF0000FFFF0000FF00FF00FF0000000000000000000000FF000000000000FFFF00FF00FF00
310
FF0000FF00FFFF00000000000000000000FF0000000000000000FF0000FF00FF00FF0000FF00FF00000000000000000000FF000000000000000000FF0000FF00FF00FF0000FFFF000000000000000000FF0000000000000000000000FF0000FF00FF00FF0000FF000000000000000000FF000000000000000000000000FF00
310
00FF00FF00FF00FF00000000000000FFFF00000000000000000000000000FFFF0000FF00FF00FFFF0000000000FFFF00000000000000000000000000000000FFFFFFFFFF00FF00FF000000FFFF0000000000000000000000000000000000000000000000FFFFFFFFFFFFFF0000000000000000000000000000000000000000
310
0000000000000000FF0000000000000000000000000000000000000000000000000000000000000000000000000000000000000000000000
102
{BLKREFS
331
909
102
}
1001
ACAD
1000
DesignCenter Data
1002
{
1070
     1
1070
     4
1002
}
  0
BLOCK_RECORD
  5
951
330
1
100
AcDbSymbolTableRecord
100
AcDbBlockTableRecord
  2
*D2
340
0
  0
BLOCK_RECORD
  5
966
330
1
100
AcDbSymbolTableRecord
100
AcDbBlockTableRecord
  2
*D3
340
0
  0
BLOCK_RECORD
  5
B63
330
1
100
AcDbSymbolTableRecord
100
AcDbBlockTableRecord
  2
*D4
340
0
  0
ENDTAB
  0
ENDSEC
  0
SECTION
  2
BLOCKS
  0
BLOCK
  5
32
330
18
100
AcDbEntity
  8
0
100
AcDbBlockBegin
  2
*MODEL_SPACE
 70
     0
 10
0.0
 20
0.0
 30
0.0
  3
*MODEL_SPACE
  1

  0
ENDBLK
  5
33
330
18
100
AcDbEntity
  8
0
100
AcDbBlockEnd
  0
BLOCK
  5
339
330
338
100
AcDbEntity
 67
     1
  8
0
100
AcDbBlockBegin
  2
*Paper_Space
 70
     0
 10
0.0
 20
0.0
 30
0.0
  3
*Paper_Space
  1

  0
ENDBLK
  5
33A
330
338
100
AcDbEntity
 67
     1
  8
0
100
AcDbBlockEnd
  0
BLOCK
  5
520
330
51F
100
AcDbEntity
  8
0
100
AcDbBlockBegin
  2
CERO_POINT
 70
     0
 10
0.0
 20
0.0
 30
0.0
  3
CERO_POINT
  1

  0
CIRCLE
  5
521
102
{ACAD_REACTORS
330
526
102
}
330
51F
100
AcDbEntity
  8
SK2
100
AcDbCircle
 10
0.0
 20
0.0
 30
0.0
 40
2.5
  0
LINE
  5
522
330
51F
100
AcDbEntity
  8
SK2
100
AcDbLine
 10
0.0900000000037835
 20
0.0
 30
0.0
 11
-0.0899999999965076
 21
0.0
 31
0.0
  0
LINE
  5
523
330
51F
100
AcDbEntity
  8
SK2
100
AcDbLine
 10
0.0
 20
0.0899999999999182
 30
0.0
 11
0.0
 21
-0.0899999999999182
 31
0.0
  0
LINE
  5
524
102
{ACAD_REACTORS
330
526
102
}
330
51F
100
AcDbEntity
  8
SK2
100
AcDbLine
 10
0.0
 20
-2.5
 30
0.0
 11
0.0
 21
2.5
 31
0.0
  0
LINE
  5
525
102
{ACAD_REACTORS
330
526
102
}
330
51F
100
AcDbEntity
  8
SK2
100
AcDbLine
 10
2.5
 20
0.0
 30
0.0
 11
-2.5
 21
0.0
 31
0.0
  0
HATCH
  5
526
330
51F
100
AcDbEntity
  8
SK2
100
AcDbHatch
 10
0.0
 20
0.0
 30
0.0
210
0.0
220
0.0
230
1.0
  2
ANSI31
 70
     0
 71
     1
 91
        2
 92
        7
 72
     1
 73
     1
 93
        3
 10
0.0
 20
-2.5
 42
0.4142135623730951
 10
2.5
 20
0.0
 42
0.0
 10
0.0
 20
0.0
 42
0.0
 97
        3
330
521
330
525
330
524
 92
        7
 72
     1
 73
     1
 93
        3
 10
0.0
 20
0.0
 42
0.0
 10
0.0
 20
2.5
 42
0.4142135623730951
 10
-2.5
 20
0.0
 42
0.0
 97
        3
330
525
330
524
330
521
 75
     0
 76
     1
 52
180.0
 41
0.1
 77
     0
 78
     1
 53
225.0
 43
5.170976743218488
 44
0.0
 45
0.2245064030267288
 46
-0.2245064030267289
 79
     0
 47
0.0243816376539857
 98
        2
 10
0.8789156907296272
 20
-1.044463114528752
 10
-0.8545028512526187
 20
0.7841600866017872
  0
ENDBLK
  5
527
330
51F
100
AcDbEntity
  8
0
100
AcDbBlockEnd
  0
BLOCK
  5
952
330
951
100
AcDbEntity
  8
0
100
AcDbBlockBegin
  2
*D2
 70
     1
 10
0.0
 20
0.0
 30
0.0
  3
*D2
  1

  0
LINE
  5
A9A
330
951
100
AcDbEntity
  8
2
 62
     0
440
 16777216
370
    -2
100
AcDbLine
 10
-0.0000000000066933
 20
4.649999997999998
 30
0.0
 11
-0.0000000000066929
 21
11.77492173515747
 31
0.0
  0
LINE
  5
A9B
330
951
100
AcDbEntity
  8
2
 62
     0
440
 16777216
370
    -2
100
AcDbLine
 10
25.40118420049662
 20
4.649999997999998
 30
0.0
 11
25.40118420049662
 21
11.77492173515747
 31
0.0
  0
LINE
  5
A9C
330
951
100
AcDbEntity
  8
2
 62
     0
440
 16777216
370
    -2
100
AcDbLine
 10
2.499999999993306
 20
10.52492173515747
 30
0.0
 11
22.90118420049662
 21
10.52492173515747
 31
0.0
  0
SOLID
  5
A9D
330
951
100
AcDbEntity
  8
2
 62
     0
440
 16777216
100
AcDbTrace
 10
2.499999999993306
 20
10.94158840182414
 30
0.0
 11
2.499999999993306
 21
10.10825506849081
 31
0.0
 12
-0.000000000006693
 22
10.52492173515747
 32
0.0
 13
-0.000000000006693
 23
10.52492173515747
 33
0.0
  0
SOLID
  5
A9E
330
951
100
AcDbEntity
  8
2
 62
     0
440
 16777216
100
AcDbTrace
 10
22.90118420049662
 20
10.94158840182414
 30
0.0
 11
22.90118420049662
 21
10.10825506849081
 31
0.0
 12
25.40118420049662
 22
10.52492173515747
 32
0.0
 13
25.40118420049662
 23
10.52492173515747
 33
0.0
  0
MTEXT
  5
A9F
330
951
100
AcDbEntity
  8
2
 62
     0
440
 16777216
100
AcDbMText
 10
12.70059210024496
 20
12.96141154541749
 30
0.0
 40
3.5
 41
0.0
 71
     5
 72
     1
  1
25.40
 73
     1
 44
1.0
  0
POINT
  5
AA0
330
951
100
AcDbEntity
  8
DEFPOINTS
 62
     0
440
 16777216
100
AcDbPoint
 10
-0.0000000000066933
 20
4.649999997999998
 30
0.0
  0
POINT
  5
AA1
330
951
100
AcDbEntity
  8
DEFPOINTS
 62
     0
440
 16777216
100
AcDbPoint
 10
25.40118420049662
 20
4.649999997999998
 30
0.0
  0
POINT
  5
AA2
330
951
100
AcDbEntity
  8
DEFPOINTS
 62
     0
440
 16777216
100
AcDbPoint
 10
25.40118420049662
 20
10.52492173515747
 30
0.0
  0
ENDBLK
  5
953
330
951
100
AcDbEntity
  8
0
100
AcDbBlockEnd
  0
BLOCK
  5
967
330
966
100
AcDbEntity
  8
0
100
AcDbBlockBegin
  2
*D3
 70
     1
 10
0.0
 20
0.0
 30
0.0
  3
*D3
  1

  0
LINE
  5
AA3
330
966
100
AcDbEntity
  8
SK2
 62
     0
440
 16777216
370
    -2
100
AcDbLine
 10
25.40118420049662
 20
4.649999997999998
 30
0.0
 11
35.09760912178449
 21
4.649999997999993
 31
0.0
  0
LINE
  5
AA4
330
966
100
AcDbEntity
  8
SK2
 62
     0
440
 16777216
370
    -2
100
AcDbLine
 10
25.40118420049662
 20
-4.649999997999998
 30
0.0
 11
35.09760912178449
 21
-4.649999998000001
 31
0.0
  0
LINE
  5
AA5
330
966
100
AcDbEntity
  8
SK2
 62
     0
440
 16777216
370
    -2
100
AcDbLine
 10
33.84760912178449
 20
2.149999997999994
 30
0.0
 11
33.84760912178449
 21
-2.149999998000001
 31
0.0
  0
LINE
  5
AA6
330
966
100
AcDbEntity
  8
SK2
 62
     0
440
 16777216
370
    -2
100
AcDbLine
 10
33.84760912178449
 20
-4.649999998000001
 30
0.0
 11
33.84760912178448
 21
-23.12066057424737
 31
0.0
  0
SOLID
  5
AA7
330
966
100
AcDbEntity
  8
SK2
 62
     0
440
 16777216
100
AcDbTrace
 10
33.43094245511782
 20
2.149999997999994
 30
0.0
 11
34.26427578845114
 21
2.149999997999994
 31
0.0
 12
33.84760912178449
 22
4.649999997999995
 32
0.0
 13
33.84760912178449
 23
4.649999997999995
 33
0.0
  0
SOLID
  5
AA8
330
966
100
AcDbEntity
  8
SK2
 62
     0
440
 16777216
100
AcDbTrace
 10
33.43094245511782
 20
-2.149999998000001
 30
0.0
 11
34.26427578845114
 21
-2.149999998000001
 31
0.0
 12
33.84760912178449
 22
-4.649999998000001
 32
0.0
 13
33.84760912178449
 23
-4.649999998000001
 33
0.0
  0
MTEXT
  5
AA9
330
966
100
AcDbEntity
  8
SK2
 62
     0
440
 16777216
100
AcDbMText
 10
31.35946787090606
 20
-15.13533028612368
 30
0.0
 40
3.5
 41
0.0
 71
     5
 72
     1
  1
%%C9.30
 11
0.0000000000000001
 21
1.0
 31
0.0
 73
     1
 44
1.0
  0
POINT
  5
AAA
330
966
100
AcDbEntity
  8
DEFPOINTS
 62
     0
440
 16777216
100
AcDbPoint
 10
25.40118420049662
 20
4.649999997999998
 30
0.0
  0
POINT
  5
AAB
330
966
100
AcDbEntity
  8
DEFPOINTS
 62
     0
440
 16777216
100
AcDbPoint
 10
25.40118420049662
 20
-4.649999997999998
 30
0.0
  0
POINT
  5
AAC
330
966
100
AcDbEntity
  8
DEFPOINTS
 62
     0
440
 16777216
100
AcDbPoint
 10
33.84760912178449
 20
-4.649999998000001
 30
0.0
  0
ENDBLK
  5
968
330
966
100
AcDbEntity
  8
0
100
AcDbBlockEnd
  0
BLOCK
  5
B64
330
B63
100
AcDbEntity
  8
0
100
AcDbBlockBegin
  2
*D4
 70
     1
 10
0.0
 20
0.0
 30
0.0
  3
*D4
  1

  0
LINE
  5
C06
330
B63
100
AcDbEntity
  8
2
 62
     0
440
 16777216
370
    -2
100
AcDbLine
 10
3.102892271080941
 20
3.976973682499985
 30
0.0
 11
4.352892271080942
 21
3.976973682499985
 31
0.0
  0
LINE
  5
C07
330
B63
100
AcDbEntity
  8
2
 62
     0
440
 16777216
370
    -2
100
AcDbLine
 10
3.102892271080941
 20
-3.976973682499984
 30
0.0
 11
1.852892271080941
 21
-3.976973682499984
 31
0.0
  0
LINE
  5
C08
330
B63
100
AcDbEntity
  8
2
 62
     0
440
 16777216
370
    -2
100
AcDbLine
 10
3.102892271080942
 20
1.476973682499985
 30
0.0
 11
3.102892271080941
 21
-1.476973682499984
 31
0.0
  0
LINE
  5
C09
330
B63
100
AcDbEntity
  8
2
 62
     0
440
 16777216
370
    -2
100
AcDbLine
 10
3.102892271080941
 20
-3.976973682499984
 30
0.0
 11
3.102892271080938
 21
-16.20518872115072
 31
0.0
  0
SOLID
  5
C0A
330
B63
100
AcDbEntity
  8
2
 62
     0
440
 16777216
100
AcDbTrace
 10
2.686225604414275
 20
1.476973682499985
 30
0.0
 11
3.519558937747608
 21
1.476973682499985
 31
0.0
 12
3.102892271080942
 22
3.976973682499985
 32
0.0
 13
3.102892271080942
 23
3.976973682499985
 33
0.0
  0
SOLID
  5
C0B
330
B63
100
AcDbEntity
  8
2
 62
     0
440
 16777216
100
AcDbTrace
 10
2.686225604414274
 20
-1.476973682499984
 30
0.0
 11
3.519558937747607
 21
-1.476973682499984
 31
0.0
 12
3.102892271080941
 22
-3.976973682499984
 32
0.0
 13
3.102892271080941
 23
-3.976973682499984
 33
0.0
  0
MTEXT
  5
C0C
330
B63
100
AcDbEntity
  8
2
 62
     0
440
 16777216
100
AcDbMText
 10
0.6664024608209277
 20
-11.34108120182535
 30
0.0
 40
3.5
 41
0.0
 71
     5
 72
     1
  1
8.0
 11
0.0000000000000001
 21
1.0
 31
0.0
 73
     1
 44
1.0
  0
POINT
  5
C0D
330
B63
100
AcDbEntity
  8
DEFPOINTS
 62
     0
440
 16777216
100
AcDbPoint
 10
3.102892271080941
 20
3.976973682499985
 30
0.0
  0
POINT
  5
C0E
330
B63
100
AcDbEntity
  8
DEFPOINTS
 62
     0
440
 16777216
100
AcDbPoint
 10
3.102892271080941
 20
-3.976973682499984
 30
0.0
  0
POINT
  5
C0F
330
B63
100
AcDbEntity
  8
DEFPOINTS
 62
     0
440
 16777216
100
AcDbPoint
 10
3.102892271080941
 20
-3.976973682499984
 30
0.0
  0
ENDBLK
  5
B65
330
B63
100
AcDbEntity
  8
0
100
AcDbBlockEnd
  0
ENDSEC
  0
SECTION
  2
ENTITIES
  0
LINE
  5
855
330
18
100
AcDbEntity
  8
1
100
AcDbLine
 10
25.40118420049662
 20
4.649999997999998
 30
0.0
 11
25.40118420049662
 21
-4.649999997999998
 31
0.0
  0
LINE
  5
856
330
18
100
AcDbEntity
  8
1
100
AcDbLine
 10
-0.0000000000066933
 20
4.649999997999998
 30
0.0
 11
-0.0000000000033396
 21
-4.649999997999998
 31
0.0
  0
LINE
  5
857
330
18
100
AcDbEntity
  8
1
100
AcDbLine
 10
25.40118420049662
 20
4.649999997999998
 30
0.0
 11
5.777495068668574
 21
4.649999997999997
 31
0.0
  0
LINE
  5
858
330
18
100
AcDbEntity
  8
1
100
AcDbLine
 10
0.4282894734933082
 20
4.649999997999998
 30
0.0
 11
-0.0000000000066933
 21
4.649999997999998
 31
0.0
  0
LINE
  5
859
330
18
100
AcDbEntity
  8
1
100
AcDbLine
 10
25.40118420049662
 20
-4.649999997999998
 30
0.0
 11
5.777495068668574
 21
-4.649999997999997
 31
0.0
  0
LINE
  5
85A
330
18
100
AcDbEntity
  8
4
100
AcDbLine
 10
26.26107133900273
 20
0.0
 30
0.0
 11
-0.0000000000033396
 21
0.0
 31
0.0
  0
ARC
  5
85B
330
18
100
AcDbEntity
  8
1
100
AcDbCircle
 10
0.7494712190809452
 20
4.160526313999979
 30
0.0
 40
0.1835526315
100
AcDbArc
 50
195.0000000000011
 51
270.0
  0
LINE
  5
85C
330
18
100
AcDbEntity
  8
3
100
AcDbLine
 10
12.67743286526699
 20
0.5506578944999774
 30
0.0
 11
12.67743286526699
 21
-0.5506578945000343
 31
0.0
  0
LINE
  5
85D
330
18
100
AcDbEntity
  8
3
100
AcDbLine
 10
12.83871597375022
 20
-0.3893738682535854
 30
0.0
 11
8.578090667196264
 21
-4.649999997999998
 31
0.0
  0
LINE
  5
85E
330
18
100
AcDbEntity
  8
3
100
AcDbLine
 10
12.83871597375022
 20
0.3893747860167309
 30
0.0
 11
8.578090761766901
 21
4.649999998000055
 31
0.0
  0
ARC
  5
85F
330
18
100
AcDbEntity
  8
3
100
AcDbCircle
 10
12.44934210549665
 20
0.0
 30
0.0
 40
0.5506578945000002
100
AcDbArc
 50
315.0
 51
45.0
  0
LINE
  5
860
330
18
100
AcDbEntity
  8
1
100
AcDbLine
 10
0.4282894734933082
 20
-4.649999997999998
 30
0.0
 11
-0.0000000000033396
 21
-4.649999997999998
 31
0.0
  0
LINE
  5
861
330
18
100
AcDbEntity
  8
SK3
100
AcDbLine
 10
23.13803925122257
 20
2.792172057103698
 30
0.0
 11
22.7736061610304
 21
2.792172057103698
 31
0.0
  0
LWPOLYLINE
  5
862
102
{ACAD_REACTORS
330
A86
102
}
330
18
100
AcDbEntity
  8
SK3
100
AcDbPolyline
 90
       20
 70
     0
 43
0.0
 10
23.21861604071391
 20
2.719150556708029
 10
23.21524532256193
 20
2.718635697610806
 10
23.21180019118101
 20
2.716789445066921
 10
23.20469205184811
 20
2.709124212101527
 10
23.19813430225328
 20
2.697876417918051
 10
23.19137141348686
 20
2.682499695115267
 10
23.18266841765366
 20
2.657604112519209
 10
23.17368989175669
 20
2.626440388570415
 10
23.1613929380848
 20
2.575600734279305
 10
23.14870514736385
 20
2.514161552402413
 10
23.13518473294665
 20
2.439500949802776
 10
23.12136331366664
 20
2.354084618875559
 10
23.09670236737789
 20
2.180399449913579
 10
23.07163650586166
 20
1.97745379265001
 10
23.04649153839038
 20
1.747884959179031
 10
23.02777560573965
 20
1.560004293624274
 10
23.00933453276325
 20
1.360172595353502
 10
22.97382266284514
 20
0.9306399968902494
 10
22.94104866343873
 20
0.4722712666468283
 10
22.91210392856779
 20
-0.0003124014834839
  0
LWPOLYLINE
  5
863
330
18
100
AcDbEntity
  8
SK3
100
AcDbPolyline
 90
       13
 70
     0
 43
0.0
 10
22.91210392856779
 20
-0.0003124014834839
 10
22.88252366449872
 20
-0.4823592870827156
 10
22.84892575645891
 20
-0.9499941402968373
 10
22.83067708525447
 20
-1.177083873583682
 10
22.81185187912349
 20
-1.394357764551101
 10
22.79326063891038
 20
-1.593296504075111
 10
22.77441532109593
 20
-1.779910133570409
 10
22.74548198284562
 20
-2.0378599043853
 10
22.71677992895538
 20
-2.259502723395029
 10
22.70198041146854
 20
-2.359962593568639
 10
22.68745173131931
 20
-2.448895117158372
 10
22.67458092427866
 20
-2.519155953801088
 10
22.66204397118385
 20
-2.579306647156101
  0
LWPOLYLINE
  5
864
330
18
100
AcDbEntity
  8
SK3
100
AcDbPolyline
 90
       13
 70
     0
 43
0.0
 10
23.87970048463977
 20
2.574798278108288
 10
23.86730431332934
 20
2.514884902618404
 10
23.85457026573637
 20
2.44491970772293
 10
23.83998929521009
 20
2.355131767195643
 10
23.82513212423059
 20
2.253685754141826
 10
23.7965078355165
 20
2.031587740695897
 10
23.76767371490472
 20
1.773682215584641
 10
23.74897789393749
 20
1.588138527650811
 10
23.73054285446612
 20
1.390600902076187
 10
23.71174781586036
 20
1.173439636536215
 10
23.69353668646512
 20
0.9465402938531042
 10
23.6601177724083
 20
0.4808797375676477
 10
23.63061326234704
 20
-0.0001548599628336
  0
LWPOLYLINE
  5
865
330
18
100
AcDbEntity
  8
SK3
100
AcDbPolyline
 90
       20
 70
     0
 43
0.0
 10
23.63061326234704
 20
-0.0001548599628336
 10
23.60169601344349
 20
-0.4721251217468422
 10
23.56892670676324
 20
-0.9303999974673615
 10
23.53340411061394
 20
-1.360106226798051
 10
23.5149543225747
 20
-1.560062617506331
 10
23.49622833408223
 20
-1.748067305109258
 10
23.47106995882196
 20
-1.977776920364703
 10
23.44599203029564
 20
-2.180811069035597
 10
23.42132169855459
 20
-2.354521712796667
 10
23.40750832394796
 20
-2.439857596989895
 10
23.39399729498307
 20
-2.514435071297838
 10
23.38130011880982
 20
-2.575889001742608
 10
23.36899646124341
 20
-2.626711896297479
 10
23.36002665040933
 20
-2.657809251690764
 10
23.3513343808073
 20
-2.68264248806804
 10
23.34457283281979
 20
-2.697987702566706
 10
23.33801910556166
 20
-2.709201306888246
 10
23.33092102207048
 20
-2.716824975707821
 10
23.32748058341575
 20
-2.718652457347103
 10
23.32411656915822
 20
-2.719150556708086
  0
LINE
  5
866
330
18
100
AcDbEntity
  8
SK3
100
AcDbLine
 10
25.2335875085149
 20
-2.890809808753657
 30
0.0
 11
24.69720019491937
 21
-2.864106856201828
 31
0.0
  0
LINE
  5
867
330
18
100
AcDbEntity
  8
SK3
100
AcDbLine
 10
25.2335875085149
 20
2.890809808753657
 30
0.0
 11
24.69727594892716
 21
2.86411087853844
 31
0.0
  0
LINE
  5
868
330
18
100
AcDbEntity
  8
SK3
100
AcDbLine
 10
23.88809577171567
 20
2.716838383496734
 30
0.0
 11
23.8403821434275
 21
2.560774401214529
 31
0.0
  0
LINE
  5
869
330
18
100
AcDbEntity
  8
SK3
100
AcDbLine
 10
23.298075290993
 20
2.560774401214529
 30
0.0
 11
23.25343606872015
 21
2.706782541754478
 31
0.0
  0
LINE
  5
86A
330
18
100
AcDbEntity
  8
SK3
100
AcDbLine
 10
21.91122655866557
 20
2.792172057103698
 30
0.0
 11
21.54679346847341
 21
2.792172057103698
 31
0.0
  0
LINE
  5
86B
330
18
100
AcDbEntity
  8
SK3
100
AcDbLine
 10
24.22800333428786
 20
2.792172057103698
 30
0.0
 11
24.00041885358736
 21
2.792172057103698
 31
0.0
  0
LINE
  5
86C
330
18
100
AcDbEntity
  8
SK3
100
AcDbLine
 10
22.65820867314333
 20
2.706782541754478
 30
0.0
 11
22.61356945087051
 21
2.560774401214529
 31
0.0
  0
LINE
  5
86D
330
18
100
AcDbEntity
  8
SK3
100
AcDbLine
 10
21.43139598058637
 20
2.706782541754478
 30
0.0
 11
21.38675675831352
 21
2.560774401214529
 31
0.0
  0
LINE
  5
86E
330
18
100
AcDbEntity
  8
SK3
100
AcDbLine
 10
17.99838500506611
 20
2.706782541754478
 30
0.0
 11
17.95374578279329
 21
2.560774401214529
 31
0.0
  0
LINE
  5
86F
330
18
100
AcDbEntity
  8
SK3
100
AcDbLine
 10
22.07126326882546
 20
2.560774401214529
 30
0.0
 11
22.02662404655261
 21
2.706782541754478
 31
0.0
  0
LINE
  5
870
330
18
100
AcDbEntity
  8
SK3
100
AcDbLine
 10
18.63825229330523
 20
2.560774401214529
 30
0.0
 11
18.59361307103238
 21
2.706782541754478
 31
0.0
  0
LINE
  5
871
330
18
100
AcDbEntity
  8
SK3
100
AcDbLine
 10
22.52400743158772
 20
2.460329279608798
 30
0.0
 11
22.16082461771883
 21
2.460329279608798
 31
0.0
  0
LINE
  5
872
330
18
100
AcDbEntity
  8
SK3
100
AcDbLine
 10
21.29719473903073
 20
2.460329279608798
 30
0.0
 11
20.93401192516184
 21
2.460329279608798
 31
0.0
  0
LINE
  5
873
330
18
100
AcDbEntity
  8
SK3
100
AcDbLine
 10
23.75082012414468
 20
2.460329279608798
 30
0.0
 11
23.38763731027579
 21
2.460329279608798
 31
0.0
  0
LWPOLYLINE
  5
874
330
18
100
AcDbEntity
  8
SK3
100
AcDbPolyline
 90
       13
 70
     0
 43
0.0
 10
22.65288779208278
 20
2.574798278108288
 10
22.64049162077235
 20
2.514884902618404
 10
22.62775757317941
 20
2.44491970772293
 10
22.6131766026531
 20
2.355131767195643
 10
22.59831876128417
 20
2.253685754141826
 10
22.56969514295953
 20
2.031587740695897
 10
22.54086102234776
 20
1.773682215584641
 10
22.5221652013805
 20
1.588138527650811
 10
22.50373016190913
 20
1.390600902076187
 10
22.48493579369283
 20
1.173439636536215
 10
22.46672399390813
 20
0.9465402938531042
 10
22.43330507985131
 20
0.4808797375676477
 10
22.40380124017951
 20
-0.0001548599628336
  0
LWPOLYLINE
  5
875
330
18
100
AcDbEntity
  8
SK3
100
AcDbPolyline
 90
       20
 70
     0
 43
0.0
 10
22.40380124017951
 20
-0.0001548599628336
 10
22.37488265049707
 20
-0.4721251217468422
 10
22.34211334381682
 20
-0.9303999974673615
 10
22.30659141805695
 20
-1.360106226798051
 10
22.28814163001771
 20
-1.560062617506331
 10
22.26941564152524
 20
-1.748067305109258
 10
22.24425726626499
 20
-1.977776920364703
 10
22.21917933773868
 20
-2.180811069035597
 10
22.19450900599763
 20
-2.354521712796667
 10
22.18069630178046
 20
-2.439857596989895
 10
22.16718527281553
 20
-2.514435071297838
 10
22.15448742625283
 20
-2.575889001742608
 10
22.14218376868645
 20
-2.626711896297479
 10
22.13321395785236
 20
-2.657809251690764
 10
22.12452101786089
 20
-2.68264248806804
 10
22.11776014026283
 20
-2.697987702566706
 10
22.11120641300467
 20
-2.709201306888246
 10
22.10410832951352
 20
-2.716824975707821
 10
22.10066789085876
 20
-2.718652457347103
 10
22.09730387660123
 20
-2.719150556708086
  0
LWPOLYLINE
  5
876
330
18
100
AcDbEntity
  8
SK3
100
AcDbPolyline
 90
       13
 70
     0
 43
0.0
 10
21.42607509952582
 20
2.574798278108288
 10
21.41367892821539
 20
2.514884902618404
 10
21.40094488062242
 20
2.44491970772293
 10
21.38636391009614
 20
2.355131767195643
 10
21.37150606872721
 20
2.253685754141826
 10
21.34288245040254
 20
2.031587740695897
 10
21.31404832979077
 20
1.773682215584641
 10
21.29535250882354
 20
1.588138527650811
 10
21.27691746935217
 20
1.390600902076187
 10
21.25812310113587
 20
1.173439636536215
 10
21.23991063096172
 20
0.9465402938531042
 10
21.20649238729436
 20
0.4808797375676477
 10
21.17698854762251
 20
-0.0001548599628336
  0
LWPOLYLINE
  5
877
330
18
100
AcDbEntity
  8
SK3
100
AcDbPolyline
 90
       20
 70
     0
 43
0.0
 10
21.17698854762251
 20
-0.0001548599628336
 10
21.14806995794011
 20
-0.4721251217468422
 10
21.11530065125986
 20
-0.9303999974673615
 10
21.07977872549999
 20
-1.360106226798051
 10
21.06132893746075
 20
-1.560062617506331
 10
21.04260294896828
 20
-1.748067305109258
 10
21.017444573708
 20
-1.977776920364703
 10
20.99236664518169
 20
-2.180811069035597
 10
20.96769631344067
 20
-2.354521712796667
 10
20.95388360922347
 20
-2.439857596989895
 10
20.94037190986911
 20
-2.514435071297838
 10
20.92767473369587
 20
-2.575889001742608
 10
20.91537107612949
 20
-2.626711896297479
 10
20.90640126529537
 20
-2.657809251690764
 10
20.89770899569336
 20
-2.68264248806804
 10
20.89094744770584
 20
-2.697987702566706
 10
20.88439372044768
 20
-2.709201306888246
 10
20.87729563695653
 20
-2.716824975707821
 10
20.8738551983018
 20
-2.718652457347103
 10
20.87049118404427
 20
-2.719150556708086
  0
LWPOLYLINE
  5
878
330
18
100
AcDbEntity
  8
SK3
100
AcDbPolyline
 90
       18
 70
     0
 43
0.0
 10
17.93238315259602
 20
2.426795728956107
 10
17.92530719195672
 20
2.416642680743676
 10
17.91797715371602
 20
2.402075118006337
 10
17.91041113838916
 20
2.383143990342375
 10
17.90262523532284
 20
2.359902928907615
 10
17.88646080491686
 20
2.300735026485539
 10
17.87520295489166
 20
2.251661848393836
 10
17.86367828986557
 20
2.19532835256416
 10
17.84918514035716
 20
2.116314240879545
 10
17.83442249429007
 20
2.027006969587545
 10
17.81025562502559
 20
1.86261138722716
 10
17.78587892386342
 20
1.674703235704953
 10
17.76158870294024
 20
1.465576587717065
 10
17.74360215401057
 20
1.296326715352904
 10
17.72595079980563
 20
1.11773161406296
 10
17.69212630013189
 20
0.7375524164812646
 10
17.66105643070607
 20
0.3359274604106304
 10
17.63365627312673
 20
-0.0750004900505701
  0
LWPOLYLINE
  5
879
330
18
100
AcDbEntity
  8
SK3
100
AcDbPolyline
 90
       18
 70
     0
 43
0.0
 10
18.65640375803947
 20
2.426795728956107
 10
18.64937137271438
 20
2.416723127477609
 10
18.64209228407189
 20
2.402301709640311
 10
18.63458258145876
 20
2.38357907309512
 10
18.62685701344289
 20
2.360608178608515
 10
18.61082599053735
 20
2.302158263286798
 10
18.59973640826398
 20
2.254035027045005
 10
18.58838671488421
 20
2.198839182111099
 10
18.57394183341616
 20
2.120484733644842
 10
18.55922276266328
 20
2.031852544528419
 10
18.53524360244465
 20
1.86948891258936
 10
18.51103919137101
 20
1.683854051690389
 10
18.48689913768452
 20
1.477184381034873
 10
18.46900979522503
 20
1.309859867169619
 10
18.45144022853292
 20
1.133227666187792
 10
18.41773639896009
 20
0.7569702468856008
 10
18.38673490925812
 20
0.3590384662921906
 10
18.35937095270903
 20
-0.0487098270101001
  0
LWPOLYLINE
  5
87A
330
18
100
AcDbEntity
  8
SK3
100
AcDbPolyline
 90
       20
 70
     0
 43
0.0
 10
21.9918040185464
 20
2.719150556708029
 10
21.98843263000494
 20
2.718635697610806
 10
21.98498682823457
 20
2.716789445066921
 10
21.97787935929115
 20
2.709124212101527
 10
21.97132160969629
 20
2.697876417918051
 10
21.9645587209299
 20
2.682499695115267
 10
21.95585572509668
 20
2.657604112519209
 10
21.94687652881028
 20
2.626440388570415
 10
21.93458024552784
 20
2.575600734279305
 10
21.92189245480687
 20
2.514161552402413
 10
21.90837204038967
 20
2.439500949802776
 10
21.89455062110964
 20
2.354084618875559
 10
21.86988900443147
 20
2.180399449913579
 10
21.84482381330467
 20
1.97745379265001
 10
21.8196788458334
 20
1.747884959179031
 10
21.80096291318269
 20
1.560004293624274
 10
21.78252184020626
 20
1.360172595353502
 10
21.74700997028815
 20
0.9306399968902494
 10
21.71423597088175
 20
0.4722712666468283
 10
21.6852912360108
 20
-0.0003124014834839
  0
LWPOLYLINE
  5
87B
330
18
100
AcDbEntity
  8
SK3
100
AcDbPolyline
 90
       13
 70
     0
 43
0.0
 10
21.6852912360108
 20
-0.0003124014834839
 10
21.65571097194173
 20
-0.4823592870827156
 10
21.62211306390192
 20
-0.9499941402968373
 10
21.6038643926975
 20
-1.177083873583682
 10
21.5850391865665
 20
-1.394357764551101
 10
21.56644794635342
 20
-1.593296504075111
 10
21.54760262853894
 20
-1.779910133570409
 10
21.51866996067808
 20
-2.0378599043853
 10
21.48996723639839
 20
-2.259502723395029
 10
21.47516771891158
 20
-2.359962593568639
 10
21.46063903876235
 20
-2.448895117158372
 10
21.44776890211115
 20
-2.519155953801088
 10
21.43523127862686
 20
-2.579306647156101
  0
LINE
  5
87C
330
18
100
AcDbEntity
  8
SK3
100
AcDbLine
 10
23.27161501942184
 20
-2.706782541754478
 30
0.0
 11
23.22697579714899
 21
-2.560774401214586
 31
0.0
  0
LINE
  5
87D
330
18
100
AcDbEntity
  8
SK3
100
AcDbLine
 10
22.68466894471452
 20
-2.560774401214586
 30
0.0
 11
22.64003039283112
 21
-2.706782541754478
 31
0.0
  0
LINE
  5
87E
330
18
100
AcDbEntity
  8
SK3
100
AcDbLine
 10
22.52463290494405
 20
-2.792172057103698
 30
0.0
 11
22.16019981475192
 21
-2.792172057103698
 31
0.0
  0
LINE
  5
87F
330
18
100
AcDbEntity
  8
SK3
100
AcDbLine
 10
24.22800333428786
 20
-2.792172057103698
 30
0.0
 11
23.38701250730888
 21
-2.792172057103698
 31
0.0
  0
LINE
  5
880
330
18
100
AcDbEntity
  8
SK3
100
AcDbLine
 10
21.45785692254698
 20
-2.560774401214586
 30
0.0
 11
21.41321770027413
 21
-2.706782541754478
 31
0.0
  0
LINE
  5
881
330
18
100
AcDbEntity
  8
SK3
100
AcDbLine
 10
21.91060108530921
 20
-2.460329279608798
 30
0.0
 11
21.54741827144032
 21
-2.460329279608798
 31
0.0
  0
LINE
  5
882
330
18
100
AcDbEntity
  8
SK3
100
AcDbLine
 10
22.04480232686485
 20
-2.706782541754478
 30
0.0
 11
22.00016310459201
 21
-2.560774401214586
 31
0.0
  0
LINE
  5
883
330
18
100
AcDbEntity
  8
SK3
100
AcDbLine
 10
18.36436366048276
 20
-2.706782683065283
 30
0.0
 11
18.31972443820992
 21
-2.560774542525335
 31
0.0
  0
LWPOLYLINE
  5
884
330
18
100
AcDbEntity
  8
SK3
100
AcDbPolyline
 90
       17
 70
     0
 43
0.0
 10
17.70702436486779
 20
-0.3967170349109779
 10
17.7201452271731
 20
-0.7901887144970488
 10
17.72761604719817
 20
-0.9668698539087472
 10
17.73559301125757
 20
-1.127702316345164
 10
17.74687633608185
 20
-1.314700078994974
 10
17.75871139142306
 20
-1.467285410423869
 10
17.7708843230468
 20
-1.58267887597418
 10
17.77717860958802
 20
-1.626655083081459
 10
17.78346887379253
 20
-1.660042488834164
 10
17.78744428322797
 20
-1.67564513288147
 10
17.79139622903268
 20
-1.686862089150223
 10
17.79531599614383
 20
-1.69365849738915
 10
17.79797207914268
 20
-1.695744749355924
 10
17.79929274635818
 20
-1.696005530851778
 10
17.80126235056075
 20
-1.695416928915108
 10
17.80321720619544
 20
-1.693649782326303
 10
17.80707864942448
 20
-1.686573821686976
  0
LINE
  5
885
330
18
100
AcDbEntity
  8
SK3
100
AcDbLine
 10
24.69727594892716
 20
2.88267463278413
 30
0.0
 11
24.69727594892716
 21
-2.882674632784187
 31
0.0
  0
LINE
  5
886
330
18
100
AcDbEntity
  8
SK3
100
AcDbLine
 10
24.22800333428786
 20
2.88267463278413
 30
0.0
 11
24.22800333428786
 21
-2.882674632784187
 31
0.0
  0
LINE
  5
887
330
18
100
AcDbEntity
  8
SK3
100
AcDbLine
 10
24.63023700397868
 20
-2.949713577732608
 30
0.0
 11
24.29504227923634
 21
-2.949713577732608
 31
0.0
  0
ARC
  5
888
330
18
100
AcDbEntity
  8
SK3
100
AcDbCircle
 10
24.29504227923634
 20
-2.882674632784187
 30
0.0
 40
0.0670389449484687
100
AcDbArc
 50
180.0
 51
270.0000030000002
  0
ARC
  5
889
330
18
100
AcDbEntity
  8
SK3
100
AcDbCircle
 10
24.63023700397868
 20
-2.882674632784187
 30
0.0
 40
0.0670389449484687
100
AcDbArc
 50
270.0000030000002
 51
0.000008999999603
  0
LINE
  5
88A
330
18
100
AcDbEntity
  8
SK3
100
AcDbLine
 10
24.63023700397868
 20
2.949713577732608
 30
0.0
 11
24.29504227923634
 21
2.949713577732608
 31
0.0
  0
ARC
  5
88B
330
18
100
AcDbEntity
  8
SK3
100
AcDbCircle
 10
24.29504227923634
 20
2.88267463278413
 30
0.0
 40
0.0670389449484687
100
AcDbArc
 50
89.99999699999987
 51
180.0
  0
ARC
  5
88C
330
18
100
AcDbEntity
  8
SK3
100
AcDbCircle
 10
24.63023700397868
 20
2.88267463278413
 30
0.0
 40
0.0670389449484687
100
AcDbArc
 50
0.000008999999603
 51
89.99999699999987
  0
ARC
  5
88D
330
18
100
AcDbEntity
  8
SK3
100
AcDbCircle
 10
23.38701250730888
 20
-2.671501956196493
 30
0.0
 40
0.1206701009072436
100
AcDbArc
 50
196.9999989999994
 51
270.0000030000002
  0
ARC
  5
88E
330
18
100
AcDbEntity
  8
SK3
100
AcDbCircle
 10
22.52463290494405
 20
-2.671501956196493
 30
0.0
 40
0.1206701009072436
100
AcDbArc
 50
270.0000030000002
 51
343.0000059999985
  0
ARC
  5
88F
330
18
100
AcDbEntity
  8
SK3
100
AcDbCircle
 10
22.16019981475192
 20
-2.671501956196493
 30
0.0
 40
0.1206701009072436
100
AcDbArc
 50
196.9999989999994
 51
270.0000030000002
  0
ARC
  5
890
330
18
100
AcDbEntity
  8
SK3
100
AcDbCircle
 10
21.29782021238709
 20
-2.671501956196493
 30
0.0
 40
0.1206701009072436
100
AcDbArc
 50
270.0000030000002
 51
343.0000059999985
  0
ARC
  5
891
330
18
100
AcDbEntity
  8
SK3
100
AcDbCircle
 10
18.47976114836983
 20
-2.671502097507186
 30
0.0
 40
0.1206701009072436
100
AcDbArc
 50
196.9999989999994
 51
270.0000030000002
  0
ARC
  5
892
330
18
100
AcDbEntity
  8
SK3
100
AcDbCircle
 10
18.11378249295318
 20
2.671501956196493
 30
0.0
 40
0.1206701009072436
100
AcDbArc
 50
89.99999699999987
 51
162.9999969999978
  0
ARC
  5
893
330
18
100
AcDbEntity
  8
SK3
100
AcDbCircle
 10
18.47821558314534
 20
2.671501956196493
 30
0.0
 40
0.1206701009072436
100
AcDbArc
 50
17.00000800000033
 51
89.99999699999987
  0
ARC
  5
894
330
18
100
AcDbEntity
  8
SK3
100
AcDbCircle
 10
21.54679346847341
 20
2.671501956196493
 30
0.0
 40
0.1206701009072436
100
AcDbArc
 50
89.99999699999987
 51
162.9999969999978
  0
ARC
  5
895
330
18
100
AcDbEntity
  8
SK3
100
AcDbCircle
 10
21.91122655866557
 20
2.671501956196493
 30
0.0
 40
0.1206701009072436
100
AcDbArc
 50
17.00000800000033
 51
89.99999699999987
  0
ARC
  5
896
330
18
100
AcDbEntity
  8
SK3
100
AcDbCircle
 10
22.7736061610304
 20
2.671501956196493
 30
0.0
 40
0.1206701009072436
100
AcDbArc
 50
89.99999699999987
 51
162.9999969999978
  0
ARC
  5
897
330
18
100
AcDbEntity
  8
SK3
100
AcDbCircle
 10
23.13803925122257
 20
2.671501956196493
 30
0.0
 40
0.1206701009072436
100
AcDbArc
 50
17.00000800000033
 51
89.99999699999987
  0
ARC
  5
898
330
18
100
AcDbEntity
  8
SK3
100
AcDbCircle
 10
23.45193905510202
 20
2.607814958495396
 30
0.0
 40
0.1608934678763249
100
AcDbArc
 50
196.9999989999994
 51
246.4435340000022
  0
ARC
  5
899
330
18
100
AcDbEntity
  8
SK3
100
AcDbCircle
 10
22.22512636254506
 20
2.607814958495396
 30
0.0
 40
0.1608934678763249
100
AcDbArc
 50
196.9999989999994
 51
246.4435340000022
  0
ARC
  5
89A
330
18
100
AcDbEntity
  8
SK3
100
AcDbCircle
 10
18.79211538702479
 20
2.607814958495396
 30
0.0
 40
0.1608934678763249
100
AcDbArc
 50
196.9999989999994
 51
246.4435340000022
  0
ARC
  5
89B
330
18
100
AcDbEntity
  8
SK3
100
AcDbCircle
 10
21.23289366459396
 20
2.607814958495396
 30
0.0
 40
0.1608934678763249
100
AcDbArc
 50
293.5564640000028
 51
343.0000059999985
  0
ARC
  5
89C
330
18
100
AcDbEntity
  8
SK3
100
AcDbCircle
 10
22.45970635715092
 20
2.607814958495396
 30
0.0
 40
0.1608934678763249
100
AcDbArc
 50
293.5564640000028
 51
343.0000059999985
  0
ARC
  5
89D
330
18
100
AcDbEntity
  8
SK3
100
AcDbCircle
 10
23.68651904970791
 20
2.607814958495396
 30
0.0
 40
0.1608934678763249
100
AcDbArc
 50
293.5564640000028
 51
343.0000059999985
  0
ARC
  5
89E
330
18
100
AcDbEntity
  8
SK3
100
AcDbCircle
 10
22.83853270882354
 20
-2.607814958495396
 30
0.0
 40
0.1608934678763249
100
AcDbArc
 50
113.556472999999
 51
162.9999969999978
  0
ARC
  5
89F
330
18
100
AcDbEntity
  8
SK3
100
AcDbCircle
 10
21.61172001626654
 20
-2.607814958495396
 30
0.0
 40
0.1608934678763249
100
AcDbArc
 50
113.556472999999
 51
162.9999969999978
  0
ARC
  5
8A0
330
18
100
AcDbEntity
  8
SK3
100
AcDbCircle
 10
23.0731127034294
 20
-2.607814958495396
 30
0.0
 40
0.1608934678763249
100
AcDbArc
 50
17.00000800000033
 51
66.44352199999755
  0
ARC
  5
8A1
330
18
100
AcDbEntity
  8
SK3
100
AcDbCircle
 10
21.84630001087244
 20
-2.607814958495396
 30
0.0
 40
0.1608934678763249
100
AcDbArc
 50
17.00000800000033
 51
66.44352199999755
  0
ARC
  5
8A2
330
18
100
AcDbEntity
  8
SK3
100
AcDbCircle
 10
18.16586134449035
 20
-2.607815099806146
 30
0.0
 40
0.1608934678763249
100
AcDbArc
 50
17.00000800000033
 51
66.44352199999755
  0
ARC
  5
8A3
330
18
100
AcDbEntity
  8
SK3
100
AcDbCircle
 10
17.79988268907371
 20
2.607814958495396
 30
0.0
 40
0.1608934678763249
100
AcDbArc
 50
293.5564640000028
 51
343.0000059999985
  0
LINE
  5
8A4
330
18
100
AcDbEntity
  8
SK3
100
AcDbLine
 10
18.18732019322495
 20
-1.686573821686976
 30
0.0
 11
17.79127086620563
 21
-1.686573821686976
 31
0.0
  0
LWPOLYLINE
  5
8A5
330
18
100
AcDbEntity
  8
SK3
100
AcDbPolyline
 90
       10
 70
     0
 43
0.0
 10
17.70702436486779
 20
-0.3967170349109779
 10
17.70158750643246
 20
-0.3474447511528069
 10
17.69500227087017
 20
-0.3001655352279045
 10
17.68762396458915
 20
-0.2568684326329276
 10
17.67928163827977
 20
-0.2160805977473501
 10
17.67054110063738
 20
-0.1800062710811403
 10
17.66104637486434
 20
-0.1466899266101223
 10
17.65155969376468
 20
-0.1182774809620355
 10
17.6415253044848
 20
-0.0926210063408348
 10
17.63363213910655
 20
-0.0751888694858849
  0
LWPOLYLINE
  5
8A6
330
18
100
AcDbEntity
  8
SK3
100
AcDbPolyline
 90
        7
 70
     0
 43
0.0
 10
18.35935419297281
 20
-0.0488398825633567
 10
18.34145814661882
 20
-0.0826415889957844
 10
18.32335830187217
 20
-0.1287603607836445
 10
18.30584370711493
 20
-0.1885718370772338
 10
18.28991525379517
 20
-0.26256540217463
 10
18.27668712917794
 20
-0.3500022869025656
 10
18.27156669456279
 20
-0.3967170349109779
  0
LWPOLYLINE
  5
8A7
330
18
100
AcDbEntity
  8
SK3
100
AcDbPolyline
 90
       11
 70
     0
 43
0.0
 10
18.27156669456279
 20
-0.3967170349109779
 10
18.25813007882677
 20
-0.7982514884060379
 10
18.2499600426059
 20
-0.9888217564321164
 10
18.24120475639562
 20
-1.160411958364419
 10
18.23309170327796
 20
-1.294176105998985
 10
18.22468166763419
 20
-1.410386105898793
 10
18.21234918332145
 20
-1.543440981495848
 10
18.20609109781053
 20
-1.594979181593373
 10
18.19981155983718
 20
-1.636157183138493
 10
18.19146252963331
 20
-1.674563124309996
 10
18.18732019322495
 20
-1.686573821686976
  0
ARC
  5
8A8
330
18
100
AcDbEntity
  8
SK3
100
AcDbCircle
 10
24.00041885358736
 20
2.671501956196493
 30
0.0
 40
0.1206701009072436
100
AcDbArc
 50
89.99999699999987
 51
162.9999969999978
  0
LINE
  5
8A9
330
18
100
AcDbEntity
  8
SK3
100
AcDbLine
 10
21.29782021238709
 20
-2.792172057103698
 30
0.0
 11
20.93338712219493
 21
-2.792172057103698
 31
0.0
  0
LINE
  5
8AA
330
18
100
AcDbEntity
  8
SK3
100
AcDbLine
 10
18.47821558314534
 20
2.792172057103698
 30
0.0
 11
18.11378249295318
 21
2.792172057103698
 31
0.0
  0
LINE
  5
8AB
330
18
100
AcDbEntity
  8
SK3
100
AcDbLine
 10
17.86418376351049
 20
2.460329279608798
 30
0.0
 11
17.29555876206812
 21
2.460329279608798
 31
0.0
  0
LINE
  5
8AC
330
18
100
AcDbEntity
  8
SK3
100
AcDbLine
 10
18.47759078017843
 20
-2.460329279608798
 30
0.0
 11
17.29555876206812
 21
-2.460329279608798
 31
0.0
  0
LWPOLYLINE
  5
8AD
330
18
100
AcDbEntity
  8
SK3
100
AcDbPolyline
 90
       14
 70
     0
 43
0.0
 10
17.75022426099258
 20
-1.362128791767133
 10
17.75807921417221
 20
-1.460173248754244
 10
17.76608768653574
 20
-1.54203450443083
 10
17.77242755955952
 20
-1.594439518086517
 10
17.77878955543512
 20
-1.636213495852246
 10
17.78418149777734
 20
-1.663154436658714
 10
17.78954461337321
 20
-1.682145899373153
 10
17.792340807767
 20
-1.688900743466149
 10
17.79512091281403
 20
-1.693423861081839
 10
17.7978802357881
 20
-1.695707207546718
 10
17.7994355393109
 20
-1.696002178904506
 10
17.80098279816032
 20
-1.695572459267395
 10
17.80303284909684
 20
-1.69386765889743
 10
17.80707864942448
 20
-1.686573821686976
  0
LINE
  5
8AE
330
18
100
AcDbEntity
  8
SK3
100
AcDbLine
 10
23.1374137778662
 20
-2.460329279608798
 30
0.0
 11
22.77423096399731
 21
-2.460329279608798
 31
0.0
  0
LINE
  5
8AF
330
18
100
AcDbEntity
  8
SK3
100
AcDbLine
 10
16.96036403732579
 20
2.346363073196356
 30
0.0
 11
16.96036403732579
 21
-2.346363073196414
 31
0.0
  0
LINE
  5
8B0
330
18
100
AcDbEntity
  8
SK3
100
AcDbLine
 10
17.11430556661095
 20
-2.346363073196414
 30
0.0
 11
16.96036403732579
 21
-2.346363073196414
 31
0.0
  0
LINE
  5
8B1
330
18
100
AcDbEntity
  8
SK3
100
AcDbLine
 10
17.11430556661095
 20
2.346363073196356
 30
0.0
 11
16.96036403732579
 21
2.346363073196356
 31
0.0
  0
LINE
  5
8B2
330
18
100
AcDbEntity
  8
SK3
100
AcDbLine
 10
16.96036403732579
 20
2.346363073196356
 30
0.0
 11
15.55052698038609
 21
0.0
 31
0.0
  0
LINE
  5
8B3
330
18
100
AcDbEntity
  8
SK3
100
AcDbLine
 10
16.96036403732579
 20
-2.346363073196414
 30
0.0
 11
15.55052698038609
 21
0.0
 31
0.0
  0
LINE
  5
8B4
330
18
100
AcDbEntity
  8
SK3
100
AcDbLine
 10
25.40118487088607
 20
3.058407171124826
 30
0.0
 11
25.2335875085149
 21
2.890809808753657
 31
0.0
  0
LINE
  5
8B5
330
18
100
AcDbEntity
  8
SK3
100
AcDbLine
 10
25.40118487088607
 20
-3.058407171124826
 30
0.0
 11
25.2335875085149
 21
-2.890809808753657
 31
0.0
  0
ARC
  5
8B6
330
18
100
AcDbEntity
  8
SK3
100
AcDbCircle
 10
17.29555876206812
 20
-2.25921244476342
 30
0.0
 40
0.201116834845406
100
AcDbArc
 50
205.6792880000028
 51
270.0000030000002
  0
ARC
  5
8B7
330
18
100
AcDbEntity
  8
SK3
100
AcDbCircle
 10
17.29555876206812
 20
2.25921244476342
 30
0.0
 40
0.201116834845406
100
AcDbArc
 50
89.99999699999987
 51
154.3207119999971
  0
LINE
  5
8B8
330
18
100
AcDbEntity
  8
SK1
100
AcDbLine
 10
-1.040684809389957
 20
2.932638041899848
 30
0.0
 11
-1.040684809389957
 21
-2.932638041899848
 31
0.0
  0
LINE
  5
8B9
330
18
100
AcDbEntity
  8
SK1
100
AcDbLine
 10
-1.942944594783043
 20
-2.833964367241605
 30
0.0
 11
-2.388134194773058
 21
-2.833964367241605
 31
0.0
  0
LWPOLYLINE
  5
8BA
330
18
100
AcDbEntity
  8
SK1
100
AcDbPolyline
 90
       20
 70
     0
 43
0.0
 10
-1.906506432499142
 20
-2.796782203120186
 10
-1.909973384527958
 20
-2.796252644815126
 10
-1.91351756380962
 20
-2.794353681830272
 10
-1.920828640253873
 20
-2.78646960675121
 10
-1.927574302882759
 20
-2.774900688465663
 10
-1.934530271869789
 20
-2.759084960803534
 10
-1.9434810483786
 20
-2.733478610258088
 10
-1.95271591085317
 20
-2.701425163159342
 10
-1.965363942091201
 20
-2.649134038645001
 10
-1.978414658290418
 20
-2.585940770429715
 10
-1.992321080032154
 20
-2.509148610426051
 10
-2.006535721256156
 20
-2.421293646454386
 10
-2.031901426165575
 20
-2.242649772432628
 10
-2.057682917088
 20
-2.03391002426565
 10
-2.083545772437516
 20
-1.797787009209059
 10
-2.102796044263469
 20
-1.604542357699243
 10
-2.121762919652695
 20
-1.399005471937528
 10
-2.158289341654124
 20
-0.9572097338977414
 10
-2.191998347985347
 20
-0.4857545935970508
 10
-2.22177014348034
 20
0.0003213205340558
  0
LWPOLYLINE
  5
8BB
330
18
100
AcDbEntity
  8
SK1
100
AcDbPolyline
 90
       13
 70
     0
 43
0.0
 10
-2.22177014348034
 20
0.0003213205340558
 10
-2.252194233450111
 20
0.4961306266379212
 10
-2.286751360504395
 20
0.9771164373727287
 10
-2.305521720116316
 20
1.210689574027866
 10
-2.324883695647258
 20
1.434166626433523
 10
-2.344006404600222
 20
1.638785059509756
 10
-2.363389066002454
 20
1.830726501128139
 10
-2.393149139503705
 20
2.096040728225431
 10
-2.422670635956038
 20
2.32401144140516
 10
-2.437892679112066
 20
2.427339437104477
 10
-2.452836842063689
 20
2.518810980907288
 10
-2.466073731104556
 20
2.591077761800988
 10
-2.478969303269082
 20
2.652945755195332
  0
LWPOLYLINE
  5
8BC
330
18
100
AcDbEntity
  8
SK1
100
AcDbPolyline
 90
       13
 70
     0
 43
0.0
 10
-1.226549431551304
 20
-2.648308672380379
 10
-1.239298134029624
 20
-2.58668477226729
 10
-1.252396427732819
 20
-2.514722073681582
 10
-1.267392994891735
 20
-2.422370690819775
 10
-1.282675716603562
 20
-2.31802839789799
 10
-1.312116538157837
 20
-2.089589494498
 10
-1.341773871831676
 20
-1.824320776317563
 10
-1.36100414731537
 20
-1.633479823052026
 10
-1.379964127414168
 20
-1.430302505675911
 10
-1.399295763667183
 20
-1.206941294149487
 10
-1.418027509652715
 20
-0.9735639837425653
 10
-1.452401221981516
 20
-0.494608836039788
 10
-1.482747395169424
 20
0.000159281208937
  0
LWPOLYLINE
  5
8BD
330
18
100
AcDbEntity
  8
SK1
100
AcDbPolyline
 90
       20
 70
     0
 43
0.0
 10
-1.482747395169424
 20
0.000159281208937
 10
-1.512490919973643
 20
0.4856042762656331
 10
-1.546195099601574
 20
0.9569628825003062
 10
-1.582731864538643
 20
1.398937208562244
 10
-1.601708393334475
 20
1.604602346725926
 10
-1.620969008096068
 20
1.797974561108786
 10
-1.646845654026449
 20
2.034242377264433
 10
-1.672639556471651
 20
2.24307314326512
 10
-1.698014914787663
 20
2.421743219390521
 10
-1.71222128166316
 20
2.509515439876905
 10
-1.726118739527336
 20
2.586222098279335
 10
-1.739178419604114
 20
2.649430536133478
 10
-1.751832656603524
 20
2.701704422421811
 10
-1.761059934258624
 20
2.733689606145275
 10
-1.769999678302738
 20
2.759231830489681
 10
-1.77695426823169
 20
2.775015150286832
 10
-1.783695793686304
 20
2.786548902591106
 10
-1.790995837665875
 20
2.794390226869551
 10
-1.794533811186155
 20
2.796269883041134
 10
-1.797995246982637
 20
2.796782203120186
  0
LINE
  5
8BE
330
18
100
AcDbEntity
  8
SK1
100
AcDbLine
 10
-1.1953847873892
 20
-2.759927565294219
 30
0.0
 11
-1.240244167876809
 21
-2.61319854303349
 31
0.0
  0
ARC
  5
8BF
330
18
100
AcDbEntity
  8
SK1
100
AcDbCircle
 10
-1.10963840323147
 20
-2.902917271554088
 30
0.0
 40
0.0689529043124481
100
AcDbArc
 50
0.000008999999603
 51
89.99999699999987
  0
LINE
  5
8C0
330
18
100
AcDbEntity
  8
SK1
100
AcDbLine
 10
-1.10963840323147
 20
-2.833964367241605
 30
0.0
 11
-1.126296045855268
 21
-2.833964367241605
 31
0.0
  0
LINE
  5
8C1
330
18
100
AcDbEntity
  8
SK1
100
AcDbLine
 10
-1.398500047151429
 20
-2.496095136110624
 30
0.0
 11
-1.670739214428792
 21
-2.496095136110624
 31
0.0
  0
ARC
  5
8C2
330
18
100
AcDbEntity
  8
SK1
100
AcDbCircle
 10
-1.398500047151429
 20
-2.661582106460513
 30
0.0
 40
0.1654869703498754
100
AcDbArc
 50
17.00000800000033
 51
89.99999699999987
  0
ARC
  5
8C3
330
18
100
AcDbEntity
  8
SK1
100
AcDbCircle
 10
-1.076693395080027
 20
-2.720192075126078
 30
0.0
 40
0.1241152277624066
100
AcDbArc
 50
196.9999989999994
 51
246.4435340000022
  0
LINE
  5
8C4
330
18
100
AcDbEntity
  8
SK1
100
AcDbLine
 10
-1.828995093703426
 20
-2.61319854303349
 30
0.0
 11
-1.87385447419102
 21
-2.759927565294219
 31
0.0
  0
ARC
  5
8C5
330
18
100
AcDbEntity
  8
SK1
100
AcDbCircle
 10
-1.992547245558299
 20
-2.720192075126078
 30
0.0
 40
0.1241152277624066
100
AcDbArc
 50
293.5564640000028
 51
343.0000059999985
  0
ARC
  5
8C6
330
18
100
AcDbEntity
  8
SK1
100
AcDbCircle
 10
-1.670739214428792
 20
-2.661582106460513
 30
0.0
 40
0.1654869703498754
100
AcDbArc
 50
89.99999699999987
 51
162.9999969999978
  0
ARC
  5
8C7
330
18
100
AcDbEntity
  8
SK1
100
AcDbCircle
 10
-2.33853154399783
 20
-2.720192075126078
 30
0.0
 40
0.1241152277624066
100
AcDbArc
 50
196.9999989999994
 51
246.4435340000022
  0
ARC
  5
8C8
330
18
100
AcDbEntity
  8
SK1
100
AcDbCircle
 10
-4.810369003386553
 20
-2.720192075126078
 30
0.0
 40
0.1241152277624066
100
AcDbArc
 50
196.9999989999994
 51
246.4435340000022
  0
ARC
  5
8C9
330
18
100
AcDbEntity
  8
SK1
100
AcDbCircle
 10
-6.072208531362448
 20
-2.720192075126078
 30
0.0
 40
0.1241152277624066
100
AcDbArc
 50
196.9999989999994
 51
246.4435340000022
  0
LINE
  5
8CA
330
18
100
AcDbEntity
  8
SK1
100
AcDbLine
 10
-3.204781364642768
 20
-2.833964367241605
 30
0.0
 11
-3.649972343690876
 21
-2.833964367241605
 31
0.0
  0
LINE
  5
8CB
330
18
100
AcDbEntity
  8
SK1
100
AcDbLine
 10
-5.676620892618628
 20
-2.833964367241605
 30
0.0
 11
-6.121809113550553
 21
-2.833964367241605
 31
0.0
  0
ARC
  5
8CC
330
18
100
AcDbEntity
  8
SK1
100
AcDbCircle
 10
-3.25438401541801
 20
-2.720192075126078
 30
0.0
 40
0.1241152277624066
100
AcDbArc
 50
293.5564640000028
 51
343.0000059999985
  0
ARC
  5
8CD
330
18
100
AcDbEntity
  8
SK1
100
AcDbCircle
 10
-5.72622354339387
 20
-2.720192075126078
 30
0.0
 40
0.1241152277624066
100
AcDbArc
 50
293.5564640000028
 51
343.0000059999985
  0
LINE
  5
8CE
330
18
100
AcDbEntity
  8
SK1
100
AcDbLine
 10
-2.457222936307018
 20
-2.759927565294219
 30
0.0
 11
-2.502082316794613
 21
-2.61319854303349
 31
0.0
  0
LINE
  5
8CF
330
18
100
AcDbEntity
  8
SK1
100
AcDbLine
 10
-4.929061085224772
 20
-2.759927565294219
 30
0.0
 11
-4.973920465712381
 21
-2.61319854303349
 31
0.0
  0
LINE
  5
8D0
330
18
100
AcDbEntity
  8
SK1
100
AcDbLine
 10
-6.190900613200668
 20
-2.759927565294219
 30
0.0
 11
-6.235758614630171
 21
-2.61319854303349
 31
0.0
  0
LINE
  5
8D1
330
18
100
AcDbEntity
  8
SK1
100
AcDbLine
 10
-3.090833242621228
 20
-2.61319854303349
 30
0.0
 11
-3.135692623108823
 21
-2.759927565294219
 31
0.0
  0
LINE
  5
8D2
330
18
100
AcDbEntity
  8
SK1
100
AcDbLine
 10
-5.562671391539011
 20
-2.61319854303349
 30
0.0
 11
-5.607530772026606
 21
-2.759927565294219
 31
0.0
  0
ARC
  5
8D3
330
18
100
AcDbEntity
  8
SK1
100
AcDbCircle
 10
-2.660338196069232
 20
-2.661582106460513
 30
0.0
 40
0.1654869703498754
100
AcDbArc
 50
17.00000800000033
 51
89.99999699999987
  0
ARC
  5
8D4
330
18
100
AcDbEntity
  8
SK1
100
AcDbCircle
 10
-5.132176344987016
 20
-2.661582106460513
 30
0.0
 40
0.1654869703498754
100
AcDbArc
 50
17.00000800000033
 51
89.99999699999987
  0
ARC
  5
8D5
330
18
100
AcDbEntity
  8
SK1
100
AcDbCircle
 10
-6.394015872962897
 20
-2.661582106460513
 30
0.0
 40
0.1654869703498754
100
AcDbArc
 50
17.00000800000033
 51
89.99999699999987
  0
ARC
  5
8D6
330
18
100
AcDbEntity
  8
SK1
100
AcDbCircle
 10
-2.932577363346609
 20
-2.661582106460513
 30
0.0
 40
0.1654869703498754
100
AcDbArc
 50
89.99999699999987
 51
162.9999969999978
  0
ARC
  5
8D7
330
18
100
AcDbEntity
  8
SK1
100
AcDbCircle
 10
-5.404415512264377
 20
-2.661582106460513
 30
0.0
 40
0.1654869703498754
100
AcDbArc
 50
89.99999699999987
 51
162.9999969999978
  0
LINE
  5
8D8
330
18
100
AcDbEntity
  8
SK1
100
AcDbLine
 10
-2.660338196069232
 20
-2.496095136110624
 30
0.0
 11
-2.932577363346609
 21
-2.496095136110624
 31
0.0
  0
LINE
  5
8D9
330
18
100
AcDbEntity
  8
SK1
100
AcDbLine
 10
-5.132176344987016
 20
-2.496095136110624
 30
0.0
 11
-5.404415512264377
 21
-2.496095136110624
 31
0.0
  0
LINE
  5
8DA
330
18
100
AcDbEntity
  8
SK1
100
AcDbLine
 10
-6.394015872962897
 20
-2.496095136110624
 30
0.0
 11
-6.514169756372567
 21
-2.496095136110624
 31
0.0
  0
LWPOLYLINE
  5
8DB
330
18
100
AcDbEntity
  8
SK1
100
AcDbPolyline
 90
       13
 70
     0
 43
0.0
 10
-2.488386890940062
 20
-2.648308672380379
 10
-2.501137662005517
 20
-2.58668477226729
 10
-2.514234576650621
 20
-2.514722073681582
 10
-2.529231143809539
 20
-2.422370690819775
 10
-2.54451317599232
 20
-2.31802839789799
 10
-2.573954687075641
 20
-2.089589494498
 10
-2.603612020749465
 20
-1.824320776317563
 10
-2.622840917175082
 20
-1.633479823052026
 10
-2.641803655390035
 20
-1.430302505675911
 10
-2.661133912584985
 20
-1.206941294149487
 10
-2.679865658570519
 20
-0.9735639837425653
 10
-2.714239370899306
 20
-0.494608836039788
 10
-2.744585544087228
 20
0.000159281208937
  0
LWPOLYLINE
  5
8DC
330
18
100
AcDbEntity
  8
SK1
100
AcDbPolyline
 90
       20
 70
     0
 43
0.0
 10
-2.744585544087228
 20
0.000159281208937
 10
-2.7743283793624
 20
0.4856042762656331
 10
-2.808033248519365
 20
0.9569628825003062
 10
-2.844570013456446
 20
1.398937208562244
 10
-2.863546542252279
 20
1.604602346725926
 10
-2.88280715701387
 20
1.797974561108786
 10
-2.908683113415207
 20
2.034242377264433
 10
-2.934477705389453
 20
2.24307314326512
 10
-2.959853063705466
 20
2.421743219390521
 10
-2.974060809639055
 20
2.509515439876905
 10
-2.98795688844514
 20
2.586222098279335
 10
-3.001016568521932
 20
2.649430536133478
 10
-3.013670805521343
 20
2.701704422421811
 10
-3.022898083176428
 20
2.733689606145275
 10
-3.031838516749573
 20
2.759231830489681
 10
-3.038792417149479
 20
2.775015150286832
 10
-3.045533942604122
 20
2.786548902591106
 10
-3.052833986583677
 20
2.794390226869551
 10
-3.056371960103958
 20
2.796269883041134
 10
-3.05983339590044
 20
2.796782203120186
  0
LWPOLYLINE
  5
8DD
330
18
100
AcDbEntity
  8
SK1
100
AcDbPolyline
 90
       13
 70
     0
 43
0.0
 10
-4.960225039857846
 20
-2.648308672380379
 10
-4.97297443186521
 20
-2.58668477226729
 10
-4.986072725568405
 20
-2.514722073681582
 10
-5.001069292727321
 20
-2.422370690819775
 10
-5.016351324910103
 20
-2.31802839789799
 10
-5.045792835993424
 20
-2.089589494498
 10
-5.075450169667262
 20
-1.824320776317563
 10
-5.094680445150941
 20
-1.633479823052026
 10
-5.113640425249754
 20
-1.430302505675911
 10
-5.132973440560873
 20
-1.206941294149487
 10
-5.151703807488289
 20
-0.9735639837425653
 10
-5.186077519817088
 20
-0.494608836039788
 10
-5.216423693004998
 20
0.000159281208937
  0
LWPOLYLINE
  5
8DE
330
18
100
AcDbEntity
  8
SK1
100
AcDbPolyline
 90
       20
 70
     0
 43
0.0
 10
-5.216423693004998
 20
0.000159281208937
 10
-5.24616721780923
 20
0.4856042762656331
 10
-5.279872776495223
 20
0.9569628825003062
 10
-5.31640816237423
 20
1.398937208562244
 10
-5.335384691170061
 20
1.604602346725926
 10
-5.354645305931639
 20
1.797974561108786
 10
-5.380522641391066
 20
2.034242377264433
 10
-5.406315854307222
 20
2.24307314326512
 10
-5.431691212623249
 20
2.421743219390521
 10
-5.445897579498747
 20
2.509515439876905
 10
-5.459795037362922
 20
2.586222098279335
 10
-5.472854717439686
 20
2.649430536133478
 10
-5.485510333497201
 20
2.701704422421811
 10
-5.49473623209421
 20
2.733689606145275
 10
-5.503675286609264
 20
2.759231830489681
 10
-5.510629876538231
 20
2.775015150286832
 10
-5.517372091521905
 20
2.786548902591106
 10
-5.524672135501461
 20
2.794390226869551
 10
-5.528211488079833
 20
2.796269883041134
 10
-5.531671544818209
 20
2.796782203120186
  0
LWPOLYLINE
  5
8DF
330
18
100
AcDbEntity
  8
SK1
100
AcDbPolyline
 90
       11
 70
     0
 43
0.0
 10
-6.222064567833726
 20
-2.648308672380379
 10
-6.233067382774861
 20
-2.595565906342699
 10
-6.244332908281434
 20
-2.535130064770953
 10
-6.267509358478932
 20
-2.391990730708755
 10
-6.291305695286197
 20
-2.220674481828325
 10
-6.308516340202602
 20
-2.082246010188725
 10
-6.325800075197547
 20
-1.931313618881176
 10
-6.344789015516155
 20
-1.751736122534964
 10
-6.363606263103022
 20
-1.5593630357356
 10
-6.398539873014825
 20
-1.161831614619188
 10
-6.431413859674831
 20
-0.7333941227319089
  0
LWPOLYLINE
  5
8E0
330
18
100
AcDbEntity
  8
SK1
100
AcDbPolyline
 90
       20
 70
     0
 43
0.0
 10
-3.168345960475008
 20
-2.796782203120186
 10
-3.171812222974792
 20
-2.796252644815126
 10
-3.175355712727437
 20
-2.794353681830272
 10
-3.182666789171676
 20
-2.78646960675121
 10
-3.189412451800578
 20
-2.774900688465663
 10
-3.196368420787606
 20
-2.759084960803534
 10
-3.205319197296403
 20
-2.733478610258088
 10
-3.214554059770974
 20
-2.701425163159342
 10
-3.227202091009004
 20
-2.649134038645001
 10
-3.240251428150116
 20
-2.585940770429715
 10
-3.254157849891868
 20
-2.509148610426051
 10
-3.268375249232049
 20
-2.421293646454386
 10
-3.293739575083363
 20
-2.242649772432628
 10
-3.319521066005805
 20
-2.03391002426565
 10
-3.345383921355319
 20
-1.797787009209059
 10
-3.364634193181259
 20
-1.604542357699243
 10
-3.383602447628574
 20
-1.399005471937528
 10
-3.420127490571913
 20
-0.9572097338977414
 10
-3.45383649690315
 20
-0.4857545935970508
 10
-3.483608292398129
 20
0.0003213205340558
  0
LWPOLYLINE
  5
8E1
330
18
100
AcDbEntity
  8
SK1
100
AcDbPolyline
 90
       13
 70
     0
 43
0.0
 10
-4.69360829239811
 20
0.0003213205340558
 10
-4.724033761425984
 20
0.4961306266379212
 10
-4.758590888480242
 20
0.9771164373727287
 10
-4.777359869034099
 20
1.210689574027866
 10
-4.796723223623118
 20
1.434166626433523
 10
-4.815844553518005
 20
1.638785059509756
 10
-4.835227214920236
 20
1.830726501128139
 10
-4.864987288421488
 20
2.096040728225431
 10
-4.894508784873821
 20
2.32401144140516
 10
-4.909730828029835
 20
2.427339437104477
 10
-4.924673611923394
 20
2.518810980907288
 10
-4.937911880022325
 20
2.591077761800988
 10
-4.965596019409929
 20
2.723895610509714
  0
LWPOLYLINE
  5
8E2
330
18
100
AcDbEntity
  8
SK1
100
AcDbPolyline
 90
       18
 70
     0
 43
0.0
 10
-5.640182730334713
 20
-2.796782203120186
 10
-5.646915981440826
 20
-2.794430219554101
 10
-5.653920906989937
 20
-2.787110868761373
 10
-5.660186657404793
 20
-2.776795514276159
 10
-5.666635822545146
 20
-2.762809796694455
 10
-5.675358364940662
 20
-2.738943127924811
 10
-5.684356718953437
 20
-2.708879661644573
 10
-5.696122153016276
 20
-2.662004787763976
 10
-5.708251658413884
 20
-2.605502019854155
 10
-5.721780907769016
 20
-2.533510361048683
 10
-5.73562871954209
 20
-2.450743431886279
 10
-5.759842221420456
 20
-2.285532273153648
 10
-5.784519776344822
 20
-2.091967680167725
 10
-5.809366265884776
 20
-1.872385777326655
 10
-5.827928387725691
 20
-1.692209080242036
 10
-5.846288477556967
 20
-1.5001228375246
 10
-5.881887482995394
 20
-1.08567726898036
 10
-5.915111750409308
 20
-0.6409751660238499
  0
ARC
  5
8E3
330
18
100
AcDbEntity
  8
SK1
100
AcDbCircle
 10
-1.707611780009884
 20
2.72019207512602
 30
0.0
 40
0.1241152277624066
100
AcDbArc
 50
113.556472999999
 51
162.9999969999978
  0
LINE
  5
8E4
330
18
100
AcDbEntity
  8
SK1
100
AcDbLine
 10
-1.826304551377148
 20
2.759927565294219
 30
0.0
 11
-1.871163931864757
 21
2.61319854303349
 31
0.0
  0
ARC
  5
8E5
330
18
100
AcDbEntity
  8
SK1
100
AcDbCircle
 10
-2.02941981113939
 20
2.661582106460513
 30
0.0
 40
0.1654869703498754
100
AcDbArc
 50
270.0000030000002
 51
343.0000059999985
  0
LINE
  5
8E6
102
{ACAD_REACTORS
330
A8C
102
}
330
18
100
AcDbEntity
  8
SK1
100
AcDbLine
 10
-2.02941981113939
 20
2.496095136110624
 30
0.0
 11
-2.301657599358648
 21
2.496095136110624
 31
0.0
  0
ARC
  5
8E7
330
18
100
AcDbEntity
  8
SK1
100
AcDbCircle
 10
-2.301657599358648
 20
2.661582106460513
 30
0.0
 40
0.1654869703498754
100
AcDbArc
 50
196.9999989999994
 51
270.0000030000002
  0
LINE
  5
8E8
330
18
100
AcDbEntity
  8
SK1
100
AcDbLine
 10
-2.459914857691372
 20
2.61319854303349
 30
0.0
 11
-2.504774238178967
 21
2.759927565294219
 31
0.0
  0
ARC
  5
8E9
330
18
100
AcDbEntity
  8
SK1
100
AcDbCircle
 10
-2.623465630488154
 20
2.72019207512602
 30
0.0
 40
0.1241152277624066
100
AcDbArc
 50
17.00000800000033
 51
66.44352199999755
  0
LINE
  5
8EA
330
18
100
AcDbEntity
  8
SK1
100
AcDbLine
 10
-2.573862979712898
 20
2.833964367241605
 30
0.0
 11
-3.019052579702914
 21
2.833964367241605
 31
0.0
  0
LINE
  5
8EB
330
18
100
AcDbEntity
  8
SK1
100
AcDbLine
 10
-1.10963840323147
 20
2.833964367241605
 30
0.0
 11
-1.757214430785126
 21
2.833964367241605
 31
0.0
  0
ARC
  5
8EC
330
18
100
AcDbEntity
  8
SK1
100
AcDbCircle
 10
-1.10963840323147
 20
2.902917271554031
 30
0.0
 40
0.0689529043124481
100
AcDbArc
 50
270.0000030000002
 51
0.000008999999603
  0
LINE
  5
8ED
330
18
100
AcDbEntity
  8
SK1
100
AcDbLine
 10
-5.045701128630681
 20
2.833964367241605
 30
0.0
 11
-5.490890728620711
 21
2.833964367241605
 31
0.0
  0
ARC
  5
8EE
330
18
100
AcDbEntity
  8
SK1
100
AcDbCircle
 10
-5.095303779405938
 20
2.72019207512602
 30
0.0
 40
0.1241152277624066
100
AcDbArc
 50
17.00000800000033
 51
66.44352199999755
  0
LINE
  5
8EF
330
18
100
AcDbEntity
  8
SK1
100
AcDbLine
 10
-4.931751627551065
 20
2.61319854303349
 30
0.0
 11
-4.976612387096721
 21
2.759927565294219
 31
0.0
  0
ARC
  5
8F0
330
18
100
AcDbEntity
  8
SK1
100
AcDbCircle
 10
-4.773497127334521
 20
2.661582106460513
 30
0.0
 40
0.1654869703498754
100
AcDbArc
 50
196.9999989999994
 51
270.0000030000002
  0
LINE
  5
8F1
330
18
100
AcDbEntity
  8
SK1
100
AcDbLine
 10
-3.291257960057179
 20
2.496095136110624
 30
0.0
 11
-3.563497127334542
 21
2.496095136110624
 31
0.0
  0
LINE
  5
8F2
330
18
100
AcDbEntity
  8
SK1
100
AcDbLine
 10
-5.763096108974949
 20
2.496095136110624
 30
0.0
 11
-6.023749809269745
 21
2.496095136110624
 31
0.0
  0
ARC
  5
8F3
330
18
100
AcDbEntity
  8
SK1
100
AcDbCircle
 10
-3.291257960057179
 20
2.661582106460513
 30
0.0
 40
0.1654869703498754
100
AcDbArc
 50
270.0000030000002
 51
343.0000059999985
  0
ARC
  5
8F4
330
18
100
AcDbEntity
  8
SK1
100
AcDbCircle
 10
-5.763096108974949
 20
2.661582106460513
 30
0.0
 40
0.1654869703498754
100
AcDbArc
 50
270.0000030000002
 51
343.0000059999985
  0
LINE
  5
8F5
330
18
100
AcDbEntity
  8
SK1
100
AcDbLine
 10
-3.088141321236875
 20
2.759927565294219
 30
0.0
 11
-3.13300208078256
 21
2.61319854303349
 31
0.0
  0
LINE
  5
8F6
330
18
100
AcDbEntity
  8
SK1
100
AcDbLine
 10
-5.559980849212749
 20
2.759927565294219
 30
0.0
 11
-5.604840229700329
 21
2.61319854303349
 31
0.0
  0
ARC
  5
8F7
330
18
100
AcDbEntity
  8
SK1
100
AcDbCircle
 10
-2.969449928927686
 20
2.72019207512602
 30
0.0
 40
0.1241152277624066
100
AcDbArc
 50
113.556472999999
 51
162.9999969999978
  0
ARC
  5
8F8
330
18
100
AcDbEntity
  8
SK1
100
AcDbCircle
 10
-5.441287388316411
 20
2.72019207512602
 30
0.0
 40
0.1241152277624066
100
AcDbArc
 50
113.556472999999
 51
162.9999969999978
  0
LINE
  5
8F9
330
18
100
AcDbEntity
  8
SK1
100
AcDbLine
 10
-6.698146448013815
 20
2.315390949307981
 30
0.0
 11
-6.698146448013815
 21
-2.446798636230481
 31
0.0
  0
LWPOLYLINE
  5
8FA
330
18
100
AcDbEntity
  8
SK1
100
AcDbPolyline
 90
        5
 70
     0
 43
0.0
 10
-6.698120245910175
 20
0.1721057596348032
 10
-6.655950718219799
 20
-0.0139657212394582
 10
-6.617957667943656
 20
-0.2008632579074288
 10
-6.583629464531695
 20
-0.3878125092535924
 10
-6.550389337949794
 20
-0.574963792609367
  0
LWPOLYLINE
  5
8FB
330
18
100
AcDbEntity
  8
SK1
100
AcDbPolyline
 90
       11
 70
     0
 43
0.0
 10
-6.550389337949794
 20
-0.574963792609367
 10
-6.540944169117082
 20
-0.6137691080983247
 10
-6.527581785790374
 20
-0.6492371030185497
 10
-6.51114479246037
 20
-0.6801342099119552
 10
-6.501543790063905
 20
-0.6941440610100928
 10
-6.491443568640221
 20
-0.7063666528285353
 10
-6.482029428614437
 20
-0.7156918436077718
 10
-6.472400155527211
 20
-0.7232932117792075
 10
-6.458653704523483
 20
-0.7308201108139089
 10
-6.444910011635911
 20
-0.7343084382430334
 10
-6.431413859674831
 20
-0.7333941227319089
  0
LWPOLYLINE
  5
8FC
330
18
100
AcDbEntity
  8
SK1
100
AcDbPolyline
 90
       11
 70
     0
 43
0.0
 10
-5.955495397877982
 20
-0.6058843434901747
 10
-5.950305312770383
 20
-0.6053603014174202
 10
-5.945110400959477
 20
-0.6028793759202245
 10
-5.939960308536385
 20
-0.5985615450521779
 10
-5.93489916535985
 20
-0.5925267868668131
 10
-5.925232657704285
 20
-0.5757877798158689
 10
-5.918806936551405
 20
-0.5602919936297896
 10
-5.912983174253183
 20
-0.5423380364048854
 10
-5.907522793760675
 20
-0.5206144239012362
 10
-5.903069815200197
 20
-0.4969097944567126
 10
-5.897866629040762
 20
-0.4473685117663422
  0
LWPOLYLINE
  5
8FD
330
18
100
AcDbEntity
  8
SK1
100
AcDbPolyline
 90
       16
 70
     0
 43
0.0
 10
-5.897866629040762
 20
-0.4473685117663422
 10
-5.886943109939578
 20
-0.2603096253022841
 10
-5.876269200352012
 20
-0.0733624425432709
 10
-5.862738571938791
 20
0.1130786258981402
 10
-5.854563515603516
 20
0.2023154060721595
 10
-5.845583778874896
 20
0.2867441002285318
 10
-5.832579261121551
 20
0.3893722239490671
 10
-5.818709384419121
 20
0.4778932729763598
 10
-5.80436580126404
 20
0.5497304772762277
 10
-5.79616454282511
 20
0.5823010711572465
 10
-5.788039132580946
 20
0.6084542182339307
 10
-5.781978861820918
 20
0.6238451960054478
 10
-5.776060634043786
 20
0.6352720713081226
 10
-5.771610413599447
 20
0.6413282048938527
 10
-5.767293961789491
 20
0.6449282360280222
 10
-5.763127137781893
 20
0.6460445835488713
  0
LINE
  5
8FE
330
18
100
AcDbEntity
  8
SK1
100
AcDbLine
 10
-0.065343909303266
 20
-2.990296460485978
 30
0.0
 11
-1.034150142648271
 21
-2.939523678924501
 31
0.0
  0
LINE
  5
8FF
330
18
100
AcDbEntity
  8
SK1
100
AcDbLine
 10
-0.065343909303266
 20
2.990296460485922
 30
0.0
 11
-1.034150142648271
 21
2.939523678924501
 31
0.0
  0
ARC
  5
900
330
18
100
AcDbEntity
  8
SK1
100
AcDbCircle
 10
-0.068952904314969
 20
3.059154899319423
 30
0.0
 40
0.0689529043124481
100
AcDbArc
 50
272.999999
 51
0.4377690000015681
  0
ARC
  5
901
330
18
100
AcDbEntity
  8
SK1
100
AcDbCircle
 10
-0.068952904314969
 20
-3.05915489931948
 30
0.0
 40
0.0689529043124481
100
AcDbArc
 50
359.5622309999985
 51
86.99998700000056
  0
LWPOLYLINE
  5
902
330
18
100
AcDbEntity
  8
SK1
100
AcDbPolyline
 90
       16
 70
     0
 43
0.0
 10
-5.767246384285512
 20
0.6445765762160251
 10
-5.802790227400508
 20
1.058569124178972
 10
-5.821499908456629
 20
1.253898221986218
 10
-5.840638476577608
 20
1.439416011038814
 10
-5.866579248708987
 20
1.669108478239309
 10
-5.892684818281692
 20
1.875841007361714
 10
-5.918609731245084
 20
2.056887890098721
 10
-5.934091726850353
 20
2.153100635602072
 10
-5.949303427070717
 20
2.238500876180125
 10
-5.962050060961914
 20
2.302670517520424
 10
-5.974496749719363
 20
2.358348608694654
 10
-5.991857022438111
 20
2.423373266048486
 10
-6.000216183027887
 20
2.448863086185609
 10
-6.008338835155924
 20
2.469580675815335
 10
-6.016206361537952
 20
2.485466735439841
 10
-6.023800144889889
 20
2.496467481793898
  0
LINE
  5
903
330
18
100
AcDbEntity
  8
SK1
100
AcDbLine
 10
-6.023749809269745
 20
2.496095136110624
 30
0.0
 11
-6.698146448013815
 21
2.315390949307981
 31
0.0
  0
LINE
  5
904
330
18
100
AcDbEntity
  8
SK1
100
AcDbLine
 10
-5.955495397877982
 20
-0.6058719319673857
 30
0.0
 11
-6.431413859674831
 21
-0.7333941227319089
 31
0.0
  0
LINE
  5
905
330
18
100
AcDbEntity
  8
SK1
100
AcDbLine
 10
-5.767283618853852
 20
0.6448613517108585
 30
0.0
 11
-6.698146448013815
 21
0.395436631883399
 31
0.0
  0
LWPOLYLINE
  5
906
330
18
100
AcDbEntity
  8
SK1
100
AcDbPolyline
 90
       14
 70
     0
 43
0.0
 10
-6.512068071849099
 20
-2.509010704617423
 10
-6.521450493538908
 20
-2.494027238510283
 10
-6.531114243078307
 20
-2.471366556037081
 10
-6.540247055254467
 20
-2.443748849272765
 10
-6.549568798388477
 20
-2.409761962737205
 10
-6.560677111273206
 20
-2.362066549295263
 10
-6.571968838883421
 20
-2.305969913991816
 10
-6.593267011967455
 20
-2.180365303496273
 10
-6.614806520216574
 20
-2.028104189722512
 10
-6.636328100710571
 20
-1.851031752390099
 10
-6.651454988858644
 20
-1.711409016447873
 10
-6.666345368544909
 20
-1.561222695564936
 10
-6.682516893193322
 20
-1.382876008560741
 10
-6.698146448013815
 20
-1.194039516223596
  0
LINE
  5
907
330
18
100
AcDbEntity
  8
SK1
100
AcDbLine
 10
-6.514169756372567
 20
-2.496095136110624
 30
0.0
 11
-6.698146448013815
 21
-2.446798636230481
 31
0.0
  0
LINE
  5
908
330
18
100
AcDbEntity
  8
SK4
100
AcDbLine
 10
-0.0000000000033396
 20
0.0
 30
0.0
 11
-6.53190369144174
 21
0.0
 31
0.0
  0
INSERT
  5
909
330
18
100
AcDbEntity
  8
SK2
100
AcDbBlockReference
  2
CERO_POINT
 10
-0.0000000000033396
 20
0.0
 30
0.0
 41
0.9177631575000047
 42
0.9177631575000047
 43
0.9177631575000047
  0
DIMENSION
  5
90A
330
18
100
AcDbEntity
  8
2
100
AcDbDimension
  2
*D2
 10
25.40118420049662
 20
10.52492173515747
 30
0.0
 11
12.70059210024496
 21
12.96141154541749
 31
0.0
 70
    32
 71
     5
 42
25.40118420050331
  3
STANDARD
100
AcDbAlignedDimension
 13
-0.0000000000066933
 23
4.649999997999998
 33
0.0
 14
25.40118420049662
 24
4.649999997999998
 34
0.0
100
AcDbRotatedDimension
  0
DIMENSION
  5
90B
330
18
100
AcDbEntity
  8
SK2
100
AcDbDimension
  2
*D3
 10
33.84760912178449
 20
-4.649999998000001
 30
0.0
 11
31.35946787090606
 21
-15.13533028612368
 31
0.0
 70
    32
 71
     5
 42
9.299999995999996
  3
STANDARD
100
AcDbAlignedDimension
 13
25.40118420049662
 23
4.649999997999998
 33
0.0
 14
25.40118420049662
 24
-4.649999997999998
 34
0.0
 50
90.0
100
AcDbRotatedDimension
1001
ACAD
1000
DSTYLE
1002
{
1070
     3
1000
%%C<>
1002
}
  0
LINE
  5
90E
330
18
100
AcDbEntity
  8
SK3
100
AcDbLine
 10
20.68441362272965
 20
2.792172055206094
 30
0.0
 11
20.31998053253746
 21
2.792172055206094
 31
0.0
  0
LINE
  5
90F
330
18
100
AcDbEntity
  8
SK3
100
AcDbLine
 10
20.20458304465042
 20
2.706782539856873
 30
0.0
 11
20.1599438223776
 21
2.560774399316925
 31
0.0
  0
LINE
  5
910
330
18
100
AcDbEntity
  8
SK3
100
AcDbLine
 10
20.84445033288954
 20
2.560774399316925
 30
0.0
 11
20.79981111061669
 21
2.706782539856873
 31
0.0
  0
LINE
  5
911
330
18
100
AcDbEntity
  8
SK3
100
AcDbLine
 10
20.07038180309478
 20
2.460329277711196
 30
0.0
 11
19.70719898922591
 21
2.460329277711196
 31
0.0
  0
LWPOLYLINE
  5
912
330
18
100
AcDbEntity
  8
SK3
100
AcDbPolyline
 90
       13
 70
     0
 43
0.0
 10
20.19926216358987
 20
2.574798276210684
 10
20.18686599227944
 20
2.514884900720744
 10
20.17413194468646
 20
2.444919705825326
 10
20.15955097416018
 20
2.355131765297982
 10
20.14469313279126
 20
2.253685752244222
 10
20.11606951446662
 20
2.031587738798293
 10
20.08723539385481
 20
1.773682213687038
 10
20.06853957288759
 20
1.58813852575315
 10
20.05010453341622
 20
1.390600900178525
 10
20.03131016519991
 20
1.173439634638612
 10
20.01309769502576
 20
0.9465402919554437
 10
19.97967945135839
 20
0.480879735670044
 10
19.95017561168659
 20
-0.0001548618604943
  0
LWPOLYLINE
  5
913
330
18
100
AcDbEntity
  8
SK3
100
AcDbPolyline
 90
       20
 70
     0
 43
0.0
 10
19.95017561168659
 20
-0.0001548618604943
 10
19.92125702200415
 20
-0.4721251236444461
 10
19.8884877153239
 20
-0.9303999993649654
 10
19.85296578956407
 20
-1.360106228695656
 10
19.83451600152479
 20
-1.560062619403993
 10
19.81579001303233
 20
-1.748067307006919
 10
19.79063163777208
 20
-1.977776922262363
 10
19.76555370924574
 20
-2.180811070933259
 10
19.74088337750471
 20
-2.354521714694327
 10
19.72707067328751
 20
-2.439857598887556
 10
19.71355897393316
 20
-2.514435073195443
 10
19.70086179775991
 20
-2.575889003640269
 10
19.68855814019353
 20
-2.626711898195138
 10
19.67958832935942
 20
-2.657809253588424
 10
19.67089605975739
 20
-2.682642489965701
 10
19.66413451176991
 20
-2.697987704464366
 10
19.65758078451175
 20
-2.709201308785849
 10
19.65048270102061
 20
-2.716824977605425
 10
19.64704226236584
 20
-2.718652459244707
 10
19.64367824810831
 20
-2.719150558605747
  0
LWPOLYLINE
  5
914
330
18
100
AcDbEntity
  8
SK3
100
AcDbPolyline
 90
       20
 70
     0
 43
0.0
 10
20.76499108261045
 20
2.719150554810425
 10
20.76161969406898
 20
2.718635695713202
 10
20.75817389229865
 20
2.716789443169318
 10
20.7510664233552
 20
2.709124210203923
 10
20.74450867376034
 20
2.697876416020449
 10
20.73774578499395
 20
2.682499693217606
 10
20.72904278916074
 20
2.657604110621548
 10
20.72006359287435
 20
2.62644038667281
 10
20.70776730959189
 20
2.575600732381701
 10
20.69507951887095
 20
2.514161550504752
 10
20.68155910445374
 20
2.439500947905115
 10
20.66773768517369
 20
2.354084616977957
 10
20.64307606849552
 20
2.180399448015974
 10
20.61801087736872
 20
1.977453790752349
 10
20.59286590989747
 20
1.74788495728137
 10
20.57414997724674
 20
1.560004291726669
 10
20.55570890427032
 20
1.360172593455899
 10
20.52019703435222
 20
0.9306399949925888
 10
20.48742303494582
 20
0.4722712647491676
 10
20.45847830007487
 20
-0.0003124033810877
  0
LWPOLYLINE
  5
915
330
18
100
AcDbEntity
  8
SK3
100
AcDbPolyline
 90
       13
 70
     0
 43
0.0
 10
20.45847830007487
 20
-0.0003124033810877
 10
20.4288980360058
 20
-0.4823592889803196
 10
20.395300127966
 20
-0.949994142194498
 10
20.37705145676155
 20
-1.177083875481343
 10
20.35822625063058
 20
-1.394357766448762
 10
20.33963501041747
 20
-1.593296505972715
 10
20.32078969260298
 20
-1.779910135468014
 10
20.29185702474213
 20
-2.037859906282959
 10
20.26315430046246
 20
-2.259502725292634
 10
20.24835478297562
 20
-2.359962595466298
 10
20.2338261028264
 20
-2.448895119056031
 10
20.2209559661752
 20
-2.519155955698693
 10
20.20841834269091
 20
-2.579306649053704
  0
LINE
  5
916
330
18
100
AcDbEntity
  8
SK3
100
AcDbLine
 10
20.23104398661103
 20
-2.560774403112191
 30
0.0
 11
20.18640476433821
 21
-2.706782543652137
 31
0.0
  0
LINE
  5
917
330
18
100
AcDbEntity
  8
SK3
100
AcDbLine
 10
20.68378814937326
 20
-2.46032928150646
 30
0.0
 11
20.3206053355044
 21
-2.46032928150646
 31
0.0
  0
LINE
  5
918
330
18
100
AcDbEntity
  8
SK3
100
AcDbLine
 10
20.8179893909289
 20
-2.706782543652137
 30
0.0
 11
20.77335016865608
 21
-2.560774403112191
 31
0.0
  0
ARC
  5
919
330
18
100
AcDbEntity
  8
SK3
100
AcDbCircle
 10
20.07100727645114
 20
-2.671501958094154
 30
0.0
 40
0.1206701009072436
100
AcDbArc
 50
270.0000030000002
 51
343.0000059999985
  0
ARC
  5
91A
330
18
100
AcDbEntity
  8
SK3
100
AcDbCircle
 10
20.31998053253746
 20
2.671501954298832
 30
0.0
 40
0.1206701009072436
100
AcDbArc
 50
89.99999699999987
 51
162.9999969999978
  0
ARC
  5
91B
330
18
100
AcDbEntity
  8
SK3
100
AcDbCircle
 10
20.68441362272965
 20
2.671501954298832
 30
0.0
 40
0.1206701009072436
100
AcDbArc
 50
17.00000800000033
 51
89.99999699999987
  0
ARC
  5
91C
330
18
100
AcDbEntity
  8
SK3
100
AcDbCircle
 10
20.00608072865801
 20
2.607814956597791
 30
0.0
 40
0.1608934678763249
100
AcDbArc
 50
293.5564640000028
 51
343.0000059999985
  0
ARC
  5
91D
330
18
100
AcDbEntity
  8
SK3
100
AcDbCircle
 10
20.38490708033062
 20
-2.607814960393056
 30
0.0
 40
0.1608934678763249
100
AcDbArc
 50
113.556472999999
 51
162.9999969999978
  0
ARC
  5
91E
330
18
100
AcDbEntity
  8
SK3
100
AcDbCircle
 10
20.61948707493649
 20
-2.607814960393056
 30
0.0
 40
0.1608934678763249
100
AcDbArc
 50
17.00000800000033
 51
66.44352199999755
  0
LINE
  5
91F
330
18
100
AcDbEntity
  8
SK3
100
AcDbLine
 10
20.07100727645114
 20
-2.792172059001358
 30
0.0
 11
19.70657418625897
 21
-2.792172059001358
 31
0.0
  0
ARC
  5
920
330
18
100
AcDbEntity
  8
SK3
100
AcDbCircle
 10
20.99831352224406
 20
2.607815094113276
 30
0.0
 40
0.1608934678763249
100
AcDbArc
 50
196.9999989999994
 51
246.4435340000022
  0
ARC
  5
921
330
18
100
AcDbEntity
  8
SK3
100
AcDbCircle
 10
20.93338711587664
 20
-2.671501956196493
 30
0.0
 40
0.1206701009072436
100
AcDbArc
 50
196.9999989999994
 51
270.0000030000002
  0
LINE
  5
922
330
18
100
AcDbEntity
  8
SK3
100
AcDbLine
 10
19.45760059115874
 20
2.792171915793004
 30
0.0
 11
19.09316750096657
 21
2.792171915793004
 31
0.0
  0
LINE
  5
923
330
18
100
AcDbEntity
  8
SK3
100
AcDbLine
 10
18.97777001307953
 20
2.706782400443727
 30
0.0
 11
18.93313079080668
 21
2.560774259903837
 31
0.0
  0
LINE
  5
924
330
18
100
AcDbEntity
  8
SK3
100
AcDbLine
 10
19.61763730131862
 20
2.560774259903837
 30
0.0
 11
19.57299807904577
 21
2.706782400443727
 31
0.0
  0
LINE
  5
925
330
18
100
AcDbEntity
  8
SK3
100
AcDbLine
 10
18.84356877152389
 20
2.460329138298049
 30
0.0
 11
18.480385957655
 21
2.460329138298049
 31
0.0
  0
LWPOLYLINE
  5
926
330
18
100
AcDbEntity
  8
SK3
100
AcDbPolyline
 90
       13
 70
     0
 43
0.0
 10
18.97244913201898
 20
2.574798136797595
 10
18.96005296070855
 20
2.514884761307654
 10
18.94731891311558
 20
2.444919566412181
 10
18.9327379425893
 20
2.355131625884951
 10
18.91788010122034
 20
2.253685612831134
 10
18.8892564828957
 20
2.031587599385204
 10
18.86042236228393
 20
1.773682074273948
 10
18.8417265413167
 20
1.588138386340061
 10
18.82329150184533
 20
1.390600760765436
 10
18.80449713362903
 20
1.173439495225521
 10
18.78628466345488
 20
0.9465401525423542
 10
18.75286641978751
 20
0.480879596256898
 10
18.72336258011567
 20
-0.0001550012735265
  0
LWPOLYLINE
  5
927
330
18
100
AcDbEntity
  8
SK3
100
AcDbPolyline
 90
       20
 70
     0
 43
0.0
 10
18.72336258011567
 20
-0.0001550012735265
 10
18.69444399043327
 20
-0.472125263057592
 10
18.66167468375299
 20
-0.9304001387781111
 10
18.62615275799315
 20
-1.360106368108745
 10
18.6077029699539
 20
-1.560062758817081
 10
18.58897698146144
 20
-1.748067446420009
 10
18.56381860620119
 20
-1.977777061675396
 10
18.53874067767485
 20
-2.180811210346405
 10
18.51407034593383
 20
-2.35452185410736
 10
18.50025764171663
 20
-2.439857738300587
 10
18.48674594236227
 20
-2.514435212608531
 10
18.47404876618903
 20
-2.575889143053358
 10
18.46174510862265
 20
-2.626712037608228
 10
18.45277529778853
 20
-2.657809393001513
 10
18.44408302818651
 20
-2.682642629378733
 10
18.437321480199
 20
-2.697987843877513
 10
18.43076775294084
 20
-2.709201448198996
 10
18.42366966944969
 20
-2.716825117018514
 10
18.42022923079496
 20
-2.718652598657854
 10
18.41686521653746
 20
-2.719150698018779
  0
LWPOLYLINE
  5
928
330
18
100
AcDbEntity
  8
SK3
100
AcDbPolyline
 90
       20
 70
     0
 43
0.0
 10
19.53817805103956
 20
2.719150415397336
 10
19.5348066624981
 20
2.718635556300114
 10
19.53136086072776
 20
2.716789303756229
 10
19.5242533917843
 20
2.709124070790778
 10
19.51769564218945
 20
2.697876276607359
 10
19.51093275342306
 20
2.682499553804517
 10
19.50222975758983
 20
2.657603971208458
 10
19.49325056130344
 20
2.626440247259721
 10
19.480954278021
 20
2.575600592968611
 10
19.46826648730005
 20
2.514161411091663
 10
19.45474607288282
 20
2.439500808492026
 10
19.4409246536028
 20
2.354084477564867
 10
19.41626303692463
 20
2.180399308602885
 10
19.39119784579783
 20
1.97745365133926
 10
19.36605287832655
 20
1.747884817868281
 10
19.34733694567585
 20
1.560004152313524
 10
19.32889587269942
 20
1.360172454042752
 10
19.29338400278133
 20
0.9306398555795
 10
19.2606100033749
 20
0.4722711253360786
 10
19.23166526850396
 20
-0.0003125427942337
  0
LWPOLYLINE
  5
929
330
18
100
AcDbEntity
  8
SK3
100
AcDbPolyline
 90
       13
 70
     0
 43
0.0
 10
19.23166526850396
 20
-0.0003125427942337
 10
19.20208500443489
 20
-0.4823594283934085
 10
19.16848709639508
 20
-0.9499942816075872
 10
19.15023842519066
 20
-1.177084014894432
 10
19.13141321905967
 20
-1.394357905861852
 10
19.11282197884655
 20
-1.593296645385861
 10
19.0939766610321
 20
-1.779910274881103
 10
19.06504399317124
 20
-2.037860045695991
 10
19.03634126889155
 20
-2.259502864705723
 10
19.02154175140474
 20
-2.359962734879388
 10
19.00701307125548
 20
-2.448895258469121
 10
18.99414293460428
 20
-2.519156095111839
 10
18.98160531112002
 20
-2.579306788466851
  0
ARC
  5
92A
330
18
100
AcDbEntity
  8
SK3
100
AcDbCircle
 10
18.84419424488025
 20
-2.671502097507186
 30
0.0
 40
0.1206701009072436
100
AcDbArc
 50
270.0000030000002
 51
343.0000059999985
  0
ARC
  5
92B
330
18
100
AcDbEntity
  8
SK3
100
AcDbCircle
 10
19.09316750096657
 20
2.671501814885743
 30
0.0
 40
0.1206701009072436
100
AcDbArc
 50
89.99999699999987
 51
162.9999969999978
  0
ARC
  5
92C
330
18
100
AcDbEntity
  8
SK3
100
AcDbCircle
 10
19.45760059115874
 20
2.671501814885743
 30
0.0
 40
0.1206701009072436
100
AcDbArc
 50
17.00000800000033
 51
89.99999699999987
  0
ARC
  5
92D
330
18
100
AcDbEntity
  8
SK3
100
AcDbCircle
 10
18.77926769708712
 20
2.607814817184646
 30
0.0
 40
0.1608934678763249
100
AcDbArc
 50
293.5564640000028
 51
343.0000059999985
  0
LINE
  5
92E
330
18
100
AcDbEntity
  8
SK3
100
AcDbLine
 10
18.84419424488025
 20
-2.792172198414448
 30
0.0
 11
18.47976115468808
 21
-2.792172198414448
 31
0.0
  0
ARC
  5
92F
330
18
100
AcDbEntity
  8
SK3
100
AcDbCircle
 10
19.77150049067315
 20
2.60781495470013
 30
0.0
 40
0.1608934678763249
100
AcDbArc
 50
196.9999989999994
 51
246.4435340000022
  0
LINE
  5
930
330
18
100
AcDbEntity
  8
SK3
100
AcDbLine
 10
19.00423095504014
 20
-2.560774542525279
 30
0.0
 11
18.95959173276729
 21
-2.706782683065283
 31
0.0
  0
LINE
  5
931
330
18
100
AcDbEntity
  8
SK3
100
AcDbLine
 10
19.45697521343733
 20
-2.46032928150646
 30
0.0
 11
19.09379239956844
 21
-2.46032928150646
 31
0.0
  0
LINE
  5
932
330
18
100
AcDbEntity
  8
SK3
100
AcDbLine
 10
19.59117645499297
 20
-2.706782543652137
 30
0.0
 11
19.54653723272013
 21
-2.560774403112191
 31
0.0
  0
ARC
  5
933
330
18
100
AcDbEntity
  8
SK3
100
AcDbCircle
 10
19.15809414439467
 20
-2.607814960393056
 30
0.0
 40
0.1608934678763249
100
AcDbArc
 50
113.556472999999
 51
162.9999969999978
  0
ARC
  5
934
330
18
100
AcDbEntity
  8
SK3
100
AcDbCircle
 10
19.39267413900056
 20
-2.607814960393056
 30
0.0
 40
0.1608934678763249
100
AcDbArc
 50
17.00000800000033
 51
66.44352199999755
  0
ARC
  5
935
330
18
100
AcDbEntity
  8
SK3
100
AcDbCircle
 10
19.70657417994071
 20
-2.671501956196493
 30
0.0
 40
0.1206701009072436
100
AcDbArc
 50
196.9999989999994
 51
270.0000030000002
  0
LINE
  5
936
330
18
100
AcDbEntity
  8
1
100
AcDbLine
 10
0.4282894734933082
 20
4.649999997999998
 30
0.0
 11
0.5721729918317589
 21
4.113019397189093
 31
0.0
  0
LINE
  5
937
330
18
100
AcDbEntity
  8
1
100
AcDbLine
 10
0.7494712190809452
 20
3.976973682499988
 30
0.0
 11
5.456313323080938
 21
3.976973682499988
 31
0.0
  0
ARC
  5
938
330
18
100
AcDbEntity
  8
1
100
AcDbCircle
 10
5.456313323080938
 20
4.160526313999979
 30
0.0
 40
0.1835526315
100
AcDbArc
 50
270.0
 51
344.9999999999989
  0
LINE
  5
939
330
18
100
AcDbEntity
  8
1
100
AcDbLine
 10
5.777495068668574
 20
4.649999997999998
 30
0.0
 11
5.63361155033011
 21
4.113019397189093
 31
0.0
  0
ARC
  5
93A
330
18
100
AcDbEntity
  8
1
100
AcDbCircle
 10
0.7494712190809452
 20
-4.160526313999979
 30
0.0
 40
0.1835526315
100
AcDbArc
 50
90.0
 51
164.9999999999988
  0
LINE
  5
93B
330
18
100
AcDbEntity
  8
1
100
AcDbLine
 10
0.4282894734933082
 20
-4.649999997999998
 30
0.0
 11
0.5721729918317635
 21
-4.113019397189076
 31
0.0
  0
LINE
  5
93C
102
{ACAD_REACTORS
330
B7B
102
}
330
18
100
AcDbEntity
  8
1
100
AcDbLine
 10
0.7494712190809452
 20
-3.976973682499988
 30
0.0
 11
5.456313323080936
 21
-3.976973682499979
 31
0.0
  0
LWPOLYLINE
  5
A07
330
18
100
AcDbEntity
  8
SK1
100
AcDbPolyline
 90
       20
 70
     0
 43
0.0
 10
-3.168345969139919
 20
-2.796782203120186
 10
-3.171812921168736
 20
-2.796252644815126
 10
-3.175357100450397
 20
-2.794353681830272
 10
-3.182668176894651
 20
-2.78646960675121
 10
-3.189413839523538
 20
-2.774900688465663
 10
-3.196369808510566
 20
-2.759084960803534
 10
-3.205320585019378
 20
-2.733478610258088
 10
-3.21455544749395
 20
-2.701425163159342
 10
-3.227203478731978
 20
-2.649134038645001
 10
-3.240254194931196
 20
-2.585940770429715
 10
-3.254160616672932
 20
-2.509148610426051
 10
-3.268375257896933
 20
-2.421293646454386
 10
-3.293740962806352
 20
-2.242649772432628
 10
-3.319522453728779
 20
-2.03391002426565
 10
-3.345385309078294
 20
-1.797787009209059
 10
-3.364635580904247
 20
-1.604542357699243
 10
-3.383602456293473
 20
-1.399005471937528
 10
-3.420128878294903
 20
-0.9572097338977414
 10
-3.453837884626125
 20
-0.4857545935970508
 10
-3.483609680121118
 20
0.0003213205340558
  0
LWPOLYLINE
  5
A08
330
18
100
AcDbEntity
  8
SK1
100
AcDbPolyline
 90
       13
 70
     0
 43
0.0
 10
-3.483609680121118
 20
0.0003213205340558
 10
-3.51403377009089
 20
0.4961306266379212
 10
-3.548590897145173
 20
0.9771164373727287
 10
-3.567361256757095
 20
1.210689574027866
 10
-3.586723232288036
 20
1.434166626433523
 10
-3.605845941241
 20
1.638785059509756
 10
-3.625228602643231
 20
1.830726501128139
 10
-3.654988676144482
 20
2.096040728225431
 10
-3.684510172596816
 20
2.32401144140516
 10
-3.699732215752845
 20
2.427339437104477
 10
-3.714676378704466
 20
2.518810980907288
 10
-3.727913267745336
 20
2.591077761800988
 10
-3.7555966816129
 20
2.723892129743716
  0
LINE
  5
A09
330
18
100
AcDbEntity
  8
SK1
100
AcDbLine
 10
-4.466620901283548
 20
-2.833964367241605
 30
0.0
 11
-4.859971980205386
 21
-2.833964367241605
 31
0.0
  0
ARC
  5
A0A
330
18
100
AcDbEntity
  8
SK1
100
AcDbCircle
 10
-4.516223552058789
 20
-2.720192075126078
 30
0.0
 40
0.1241152277624066
100
AcDbArc
 50
293.5564640000028
 51
343.0000059999985
  0
LINE
  5
A0B
330
18
100
AcDbEntity
  8
SK1
100
AcDbLine
 10
-3.719062472947796
 20
-2.759927565294219
 30
0.0
 11
-3.763921853435391
 21
-2.61319854303349
 31
0.0
  0
LINE
  5
A0C
330
18
100
AcDbEntity
  8
SK1
100
AcDbLine
 10
-4.352672779262007
 20
-2.61319854303349
 30
0.0
 11
-4.397532159749601
 21
-2.759927565294219
 31
0.0
  0
ARC
  5
A0D
330
18
100
AcDbEntity
  8
SK1
100
AcDbCircle
 10
-3.92217773271001
 20
-2.661582106460513
 30
0.0
 40
0.1654869703498754
100
AcDbArc
 50
17.00000800000033
 51
89.99999699999987
  0
ARC
  5
A0E
330
18
100
AcDbEntity
  8
SK1
100
AcDbCircle
 10
-4.194416899987388
 20
-2.661582106460513
 30
0.0
 40
0.1654869703498754
100
AcDbArc
 50
89.99999699999987
 51
162.9999969999978
  0
LINE
  5
A0F
330
18
100
AcDbEntity
  8
SK1
100
AcDbLine
 10
-3.92217773271001
 20
-2.496095136110624
 30
0.0
 11
-4.194416899987388
 21
-2.496095136110624
 31
0.0
  0
LWPOLYLINE
  5
A10
330
18
100
AcDbEntity
  8
SK1
100
AcDbPolyline
 90
       13
 70
     0
 43
0.0
 10
-3.750226427580841
 20
-2.648308672380379
 10
-3.762977198646296
 20
-2.58668477226729
 10
-3.7760741132914
 20
-2.514722073681582
 10
-3.791070680450316
 20
-2.422370690819775
 10
-3.806352712633098
 20
-2.31802839789799
 10
-3.835794223716418
 20
-2.089589494498
 10
-3.865451557390243
 20
-1.824320776317563
 10
-3.88468045381586
 20
-1.633479823052026
 10
-3.903643192030813
 20
-1.430302505675911
 10
-3.922973449225763
 20
-1.206941294149487
 10
-3.941705195211298
 20
-0.9735639837425653
 10
-3.976078907540084
 20
-0.494608836039788
 10
-4.006425080728006
 20
0.000159281208937
  0
LWPOLYLINE
  5
A11
330
18
100
AcDbEntity
  8
SK1
100
AcDbPolyline
 90
       20
 70
     0
 43
0.0
 10
-4.006425080728006
 20
0.000159281208937
 10
-4.036167916003178
 20
0.4856042762656331
 10
-4.069872785160142
 20
0.9569628825003062
 10
-4.106409550097225
 20
1.398937208562244
 10
-4.125386078893058
 20
1.604602346725926
 10
-4.144646693654649
 20
1.797974561108786
 10
-4.170522650055985
 20
2.034242377264433
 10
-4.196317242030231
 20
2.24307314326512
 10
-4.221692600346242
 20
2.421743219390521
 10
-4.235900346279834
 20
2.509515439876905
 10
-4.249796425085917
 20
2.586222098279335
 10
-4.26285610516271
 20
2.649430536133478
 10
-4.27551034216212
 20
2.701704422421811
 10
-4.284737619817207
 20
2.733689606145275
 10
-4.29367805339035
 20
2.759231830489681
 10
-4.300631953790258
 20
2.775015150286832
 10
-4.307373479244901
 20
2.786548902591106
 10
-4.314673523224456
 20
2.794390226869551
 10
-4.318211496744736
 20
2.796269883041134
 10
-4.321672932541217
 20
2.796782203120186
  0
LWPOLYLINE
  5
A12
330
18
100
AcDbEntity
  8
SK1
100
AcDbPolyline
 90
       20
 70
     0
 43
0.0
 10
-4.419820854262424
 20
-2.798365661586558
 10
-4.433651759615571
 20
-2.796252644815126
 10
-4.437195249368214
 20
-2.794353681830272
 10
-4.444506325812453
 20
-2.78646960675121
 10
-4.451251988441356
 20
-2.774900688465663
 10
-4.458207957428385
 20
-2.759084960803534
 10
-4.467158733937181
 20
-2.733478610258088
 10
-4.476393596411752
 20
-2.701425163159342
 10
-4.489041627649783
 20
-2.649134038645001
 10
-4.502090964790894
 20
-2.585940770429715
 10
-4.515997386532646
 20
-2.509148610426051
 10
-4.530214785872828
 20
-2.421293646454386
 10
-4.555579111724141
 20
-2.242649772432628
 10
-4.581360602646582
 20
-2.03391002426565
 10
-4.607223457996098
 20
-1.797787009209059
 10
-4.626473729822038
 20
-1.604542357699243
 10
-4.645441984269353
 20
-1.399005471937528
 10
-4.68196702721269
 20
-0.9572097338977414
 10
-4.715676033543927
 20
-0.4857545935970508
 10
-4.745447829038909
 20
0.0003213205340558
  0
ARC
  5
A13
330
18
100
AcDbEntity
  8
SK1
100
AcDbCircle
 10
-3.563497135999426
 20
2.661582106460513
 30
0.0
 40
0.1654869703498754
100
AcDbArc
 50
196.9999989999994
 51
270.0000030000002
  0
LINE
  5
A14
330
18
100
AcDbEntity
  8
SK1
100
AcDbLine
 10
-3.721754394332151
 20
2.61319854303349
 30
0.0
 11
-3.766613774819744
 21
2.759927565294219
 31
0.0
  0
ARC
  5
A15
330
18
100
AcDbEntity
  8
SK1
100
AcDbCircle
 10
-3.885305167128933
 20
2.72019207512602
 30
0.0
 40
0.1241152277624066
100
AcDbArc
 50
17.00000800000033
 51
66.44352199999755
  0
LINE
  5
A16
330
18
100
AcDbEntity
  8
SK1
100
AcDbLine
 10
-3.835702516353677
 20
2.833964367241605
 30
0.0
 11
-4.280892116343693
 21
2.833964367241605
 31
0.0
  0
LINE
  5
A17
330
18
100
AcDbEntity
  8
SK1
100
AcDbLine
 10
-4.553097496697958
 20
2.496095136110624
 30
0.0
 11
-4.773497127334521
 21
2.496095136110624
 31
0.0
  0
ARC
  5
A18
330
18
100
AcDbEntity
  8
SK1
100
AcDbCircle
 10
-4.553097496697958
 20
2.661582106460513
 30
0.0
 40
0.1654869703498754
100
AcDbArc
 50
270.0000030000002
 51
343.0000059999985
  0
LINE
  5
A19
330
18
100
AcDbEntity
  8
SK1
100
AcDbLine
 10
-4.349980857877652
 20
2.759927565294219
 30
0.0
 11
-4.394841617423337
 21
2.61319854303349
 31
0.0
  0
ARC
  5
A1A
330
18
100
AcDbEntity
  8
SK1
100
AcDbCircle
 10
-4.231289465568464
 20
2.72019207512602
 30
0.0
 40
0.1241152277624066
100
AcDbArc
 50
113.556472999999
 51
162.9999969999978
  0
ARC
  5
A1B
330
18
100
AcDbEntity
  8
SK1
100
AcDbCircle
 10
-3.600369363514416
 20
-2.72019207658991
 30
0.0
 40
0.1241152277624066
100
AcDbArc
 50
196.9999989999994
 51
246.4435340000022
  0
MULTILEADER
  5
A83
102
{ACAD_XDICTIONARY
360
A85
102
}
102
{ACAD_REACTORS
330
A86
102
}
330
18
100
AcDbEntity
  8
SK6
 92
      600
310
58020000170000000C00000016000000000000C00C00000033000000000000000C00000013000000993A0000A00000000B00000068CEAC547553404004C6ADD1E4CD2540000000000000000000000000000000000000000000000000000000000000F03F000000000000F03F00000000000000000000000000000000543036
310
0003000000010000000000000000001040000000000000F03F0000000000000000000000000000F03F000000000000000000000000000000000000000069736F63702E736878007800000000000C00000033000000000000000C00000010000000090000000C00000016000000000000C00C00000012000000FF7F00000C00
310
000013000000010000000C0000001400000001000000540000000700000003000000E71CAA0C44043A40CE27F2882D6014400000000000000000AD3B8493E91B3740BEBAAECA4F23024000000000000000006C4C03EB56F13840741E60695D89174000000000000000000C00000013000000891300003C0000000600000002
310
000000AAB4D67BCD7A394022232979C5F4154000000000000000000EA7304D5BE43E40809860D463B0294000000000000000000C00000013000000112700003C00000006000000020000000EA7304D5BE43E40809860D463B0294000000000000000006A36F34284403F40809860D463B0294000000000000000000C000000
310
16000000000000C00C00000012000000FF7F00000C00000017000000000000000C000000130000009A3A00000C00000016000000000000C00C00000012000000FF7F00000C00000017000000FFFFFFFF0C0000003300000000000000
100
AcDbMLeader
300
CONTEXT_DATA{
 40
1.0
 10
31.25201815069014
 20
12.84451163939616
 30
0.0
 41
4.0
140
4.0
145
2.0
174
     1
175
     6
176
     0
177
     0
290
     1
304
T06
 11
0.0
 21
0.0
 31
1.0
340
10
 12
33.25201815069014
 22
14.9021363758684
 32
0.0
 13
1.0
 23
0.0
 33
0.0
 42
0.0
 43
0.0
 44
0.0
 45
1.0
170
     1
 90
-1073741824
171
     1
172
     5
 91
-1073741824
141
0.0
 92
 16325760
291
     0
292
     0
173
     0
293
     0
142
0.0
143
0.0
294
     0
295
     0
296
     0
110
23.10903284052226
120
2.267242034394597
130
0.0
111
1.0
121
0.0
131
0.0
112
0.0
122
1.0
132
0.0
297
     0
302
LEADER{
290
     1
291
     1
 10
30.89201815069014
 20
12.84451163939616
 30
0.0
 11
1.0
 21
0.0
 31
0.0
 90
        0
 40
0.36
304
LEADER_LINE{
 10
23.10903284052226
 20
2.267242034394569
 30
0.0
 91
        0
305
}
303
}
301
}
340
43D
 90
   279552
170
     1
 91
-1056964608
341
12
171
    -2
290
     1
291
     1
 41
0.36
 42
4.0
172
     2
343
10
173
     1
 95
        6
174
     1
175
     0
 92
-1056964608
292
     0
 93
-1056964608
 10
1.0
 20
1.0
 30
1.0
 43
0.0
176
     0
293
     0
294
     0
178
     0
179
     1
 45
1.0
1001
ACAD_MLEADERVER
1070
     2
  0
MULTILEADER
  5
A8A
102
{ACAD_XDICTIONARY
360
A8B
102
}
102
{ACAD_REACTORS
330
A8C
102
}
330
18
100
AcDbEntity
  8
SK6
 92
      660
310
94020000180000000C00000016000000000000C00C00000033000000000000000C00000013000000993A0000A00000000B000000745320A0541531C088E274CE555B2440000000000000000000000000000000000000000000000000000000000000F03F000000000000F03F00000000000000000000000000000000543036
310
0003000000010000000000000000001040000000000000F03F0000000000000000000000000000F03F000000000000000000000000000000000000000069736F63702E736878007800000000000C00000033000000000000000C00000010000000090000000C00000016000000000000C00C00000012000000FF7F00000C00
310
000013000000010000000C000000140000000100000054000000070000000300000049A9050993100CC0F65E2B9F524A194000000000000000003E22EAF4055301C0FF650ABA00F803400000000000000000EEFAB72AC8B412C0BEEC1D00A6B8164000000000000000000C00000013000000891300003C0000000600000002
310
000000C9679DD7885E10C0DAA5A44F7C01184000000000000000008F901DE3B14C19C07C87DAD35320244000000000000000000C00000013000000112700003C00000006000000020000008F901DE3B14C19C07C87DAD353202440000000000000000000CE27BA55BD1AC07C87DAD35320244000000000000000000C000000
310
16000000000000C00C00000012000000FF7F00000C00000017000000000000000C000000130000009A3A00003C0000000600000002000000392F96F2138332C06C1B8E373BA422400000000000000000BFD132B55C6D21C06C1B8E373BA4224000000000000000000C00000016000000000000C00C00000012000000FF7F00
310
000C00000017000000FFFFFFFF0C0000003300000000000000
100
AcDbMLeader
300
CONTEXT_DATA{
 40
1.0
 10
-20.51202312628377
 20
12.12076428994852
 30
0.0
 41
4.0
140
4.0
145
2.0
174
     1
175
     6
176
     2
177
     0
290
     1
304
T06
 11
0.0
 21
0.0
 31
1.0
340
10
 12
-8.684897335700497
 22
14.17838902642076
 32
0.0
 13
1.0
 23
0.0
 33
0.0
 42
0.0
 43
0.0
 44
0.0
 45
1.0
170
     1
 90
-1073741824
171
     3
172
     5
 91
-1073741824
141
0.0
 92
 16325760
291
     0
292
     0
173
     0
293
     0
142
0.0
143
0.0
294
     0
295
     0
296
     0
110
-2.165538705249018
120
2.496095136110624
130
0.0
111
1.0
121
0.0
131
0.0
112
0.0
122
1.0
132
0.0
297
     0
302
LEADER{
290
     1
291
     1
 10
-6.324897335700497
 20
10.06313955347627
 30
0.0
 11
-1.0
 21
0.0
 31
0.0
 90
        0
 40
0.36
304
LEADER_LINE{
 10
-2.165538705249018
 20
2.496095136110624
 30
0.0
 91
        0
305
}
303
}
301
}
340
43D
 90
   279552
170
     1
 91
-1056964608
341
12
171
    -2
290
     1
291
     1
 41
0.36
 42
4.0
172
     2
343
10
173
     1
 95
        6
174
     1
175
     2
 92
-1056964608
292
     0
 93
-1056964608
 10
1.0
 20
1.0
 30
1.0
 43
0.0
176
     0
293
     0
294
     0
178
     0
179
     3
 45
1.0
1001
ACAD_MLEADERVER
1070
     2
  0
ARC
  5
B36
330
18
100
AcDbEntity
  8
1
100
AcDbCircle
 10
5.456313323080938
 20
-4.160526313999979
 30
0.0
 40
0.1835526315
100
AcDbArc
 50
15.00000000000117
 51
90.00000000000005
  0
LINE
  5
B37
330
18
100
AcDbEntity
  8
1
100
AcDbLine
 10
5.777495068668574
 20
-4.649999997999998
 30
0.0
 11
5.63361155033011
 21
-4.113019397189093
 31
0.0
  0
LWPOLYLINE
  5
B61
102
{ACAD_REACTORS
330
B7B
102
}
330
18
100
AcDbEntity
  8
NOCUT
100
AcDbPolyline
 90
       10
 70
     1
 43
0.0
 10
0.5721729918317753
 20
4.113019397189095
 10
0.4282894734933082
 20
4.649999998
 10
-0.0000000000066933
 20
4.649999998
 10
-0.0000000000033396
 20
0.0000000000000018
 10
25.40118420049662
 20
0.0
 10
25.40118420049662
 20
4.649999998
 10
5.777495068668574
 20
4.649999998
 10
5.633611550330108
 20
4.113019397189095
 42
-0.3394542588633749
 10
5.456313323080936
 20
3.976973682499981
 10
0.7494712190809448
 20
3.976973682499988
 42
-0.339454258863372
  0
DIMENSION
  5
B62
102
{ACAD_XDICTIONARY
360
B70
102
}
102
{ACAD_REACTORS
330
B7B
102
}
330
18
100
AcDbEntity
  8
2
100
AcDbDimension
  2
*D4
 10
3.102892271080941
 20
-3.976973682499984
 30
0.0
 11
3.102892271080941
 21
-11.34108120182535
 31
0.0
 70
   160
 71
     5
 42
7.95394736499997
  3
STANDARD
100
AcDbAlignedDimension
 13
3.102892271080941
 23
3.976973682499985
 33
0.0
 14
3.102892271080941
 24
-3.976973682499984
 34
0.0
 50
90.0
100
AcDbRotatedDimension
1001
ACAD
1000
DSTYLE
1002
{
1070
   271
1070
     1
1002
}
  0
ATTDEF
  5
C39
330
18
100
AcDbEntity
  8
SK6
100
AcDbText
 10
-5.577809305249655
 20
-28.99004452457366
 30
0.0
 40
3.5
  1

 72
     1
 11
8.423568647506243
 21
-28.99004452457366
 31
0.0
100
AcDbAttributeDefinition
  3

  2
T06T06SA-10
 70
     0
  0
ENDSEC
  0
SECTION
  2
OBJECTS
  0
DICTIONARY
  5
C
330
0
100
AcDbDictionary
281
     1
  3
ACAD_CIP_PREVIOUS_PRODUCT_INFO
350
C04
  3
ACAD_COLOR
350
387
  3
ACAD_GROUP
350
D
  3
ACAD_LAYOUT
350
301
  3
ACAD_MATERIAL
350
386
  3
ACAD_MLEADERSTYLE
350
43C
  3
ACAD_MLINESTYLE
350
E
  3
ACAD_PLOTSETTINGS
350
302
  3
ACAD_PLOTSTYLENAME
350
2FF
  3
ACAD_SCALELIST
350
41A
  3
ACAD_TABLESTYLE
350
388
  3
ACAD_VISUALSTYLE
350
3F2
  3
ACDB_RECOMPOSE_DATA
350
C3E
  3
AcDbVariableDictionary
350
357
  3
AEC_PROPERTY_SET_DEFS
350
5CF
  3
ASE_INDEX_DICTIONARY
350
69C
  0
DICTIONARY
  5
451
330
2
100
AcDbDictionary
280
     1
281
     1
  3
ACAD_LAYERFILTERS
360
6C6
  3
ACLYDICTIONARY
360
6C5
  0
DICTIONARY
  5
BCC
330
F
100
AcDbDictionary
280
     1
281
     1
  3
ADSK_XREC_LAYER_RECONCILED
360
BCD
  0
DICTIONARY
  5
BCE
330
23
100
AcDbDictionary
280
     1
281
     1
  3
ADSK_XREC_LAYER_RECONCILED
360
BCF
  0
DICTIONARY
  5
BD0
330
24
100
AcDbDictionary
280
     1
281
     1
  3
ADSK_XREC_LAYER_RECONCILED
360
BD1
  0
DICTIONARY
  5
BD2
330
25
100
AcDbDictionary
280
     1
281
     1
  3
ADSK_XREC_LAYER_RECONCILED
360
BD3
  0
DICTIONARY
  5
BD4
330
27
100
AcDbDictionary
280
     1
281
     1
  3
ADSK_XREC_LAYER_RECONCILED
360
BD5
  0
DICTIONARY
  5
BD6
330
28
100
AcDbDictionary
280
     1
281
     1
  3
ADSK_XREC_LAYER_RECONCILED
360
BD7
  0
DICTIONARY
  5
BD8
330
29
100
AcDbDictionary
280
     1
281
     1
  3
ADSK_XREC_LAYER_RECONCILED
360
BD9
  0
DICTIONARY
  5
BDA
330
2A
100
AcDbDictionary
280
     1
281
     1
  3
ADSK_XREC_LAYER_RECONCILED
360
BDB
  0
DICTIONARY
  5
BDC
330
2B
100
AcDbDictionary
280
     1
281
     1
  3
ADSK_XREC_LAYER_RECONCILED
360
BDD
  0
DICTIONARY
  5
BDE
330
2E
100
AcDbDictionary
280
     1
281
     1
  3
ADSK_XREC_LAYER_RECONCILED
360
BDF
  0
DICTIONARY
  5
BE0
330
376
100
AcDbDictionary
280
     1
281
     1
  3
ADSK_XREC_LAYER_RECONCILED
360
BE1
  0
DICTIONARY
  5
B4D
330
18
100
AcDbDictionary
280
     1
281
     1
  3
ACAD_SORTENTS
360
B4E
  0
DICTIONARY
  5
A85
330
A83
100
AcDbDictionary
280
     1
281
     1
  3
ACAD_DIMASSOC
360
A86
  0
DICTIONARY
  5
A8B
330
A8A
100
AcDbDictionary
280
     1
281
     1
  3
ACAD_DIMASSOC
360
A8C
  0
DICTIONARY
  5
B70
330
B62
100
AcDbDictionary
280
     1
281
     1
  3
ACAD_DIMASSOC
360
B7B
  0
XRECORD
  5
C04
102
{ACAD_REACTORS
330
C
102
}
330
C
100
AcDbXrecord
280
     1
300
ACDLT
300
2012
300
ACDLT_F_S
  0
DICTIONARY
  5
387
102
{ACAD_REACTORS
330
C
102
}
330
C
100
AcDbDictionary
281
     1
  0
DICTIONARY
  5
D
102
{ACAD_REACTORS
330
C
102
}
330
C
100
AcDbDictionary
281
     1
  0
DICTIONARY
  5
301
102
{ACAD_REACTORS
330
C
102
}
330
C
100
AcDbDictionary
281
     1
  3
Layout1
350
33B
  3
Model
350
303
  0
DICTIONARY
  5
386
102
{ACAD_REACTORS
330
C
102
}
330
C
100
AcDbDictionary
281
     1
  3
ByBlock
350
3F0
  3
ByLayer
350
3EF
  3
Global
350
3F1
  0
DICTIONARY
  5
43C
102
{ACAD_REACTORS
330
C
102
}
330
C
100
AcDbDictionary
281
     1
  3
Standard
350
43D
  0
DICTIONARY
  5
E
102
{ACAD_REACTORS
330
C
102
}
330
C
100
AcDbDictionary
281
     1
  3
STANDARD
350
1B
  0
DICTIONARY
  5
302
102
{ACAD_REACTORS
330
C
102
}
330
C
100
AcDbDictionary
281
     1
  0
ACDBDICTIONARYWDFLT
  5
2FF
102
{ACAD_REACTORS
330
C
102
}
330
C
100
AcDbDictionary
281
     1
  3
Normal
350
300
100
AcDbDictionaryWithDefault
340
300
  0
DICTIONARY
  5
41A
102
{ACAD_REACTORS
330
C
102
}
330
C
100
AcDbDictionary
281
     1
  3
A0
350
41B
  3
A1
350
41C
  3
A2
350
41D
  3
A3
350
41E
  3
A4
350
41F
  3
A5
350
420
  3
A6
350
421
  3
A7
350
422
  3
A8
350
423
  3
A9
350
424
  3
B0
350
425
  3
B1
350
426
  3
B2
350
427
  3
B3
350
428
  3
B4
350
429
  3
B5
350
42A
  3
B6
350
42B
  3
B7
350
42C
  3
B8
350
42D
  3
B9
350
42E
  3
C0
350
42F
  3
C1
350
430
  3
C2
350
431
  3
C3
350
432
  3
C4
350
433
  3
C5
350
434
  3
C6
350
435
  3
C7
350
436
  3
C8
350
437
  3
C9
350
438
  3
D0
350
439
  3
D1
350
43A
  3
D2
350
43B
  0
DICTIONARY
  5
388
102
{ACAD_REACTORS
330
C
102
}
330
C
100
AcDbDictionary
281
     1
  3
Standard
350
389
  0
DICTIONARY
  5
3F2
102
{ACAD_REACTORS
330
C
102
}
330
C
100
AcDbDictionary
281
     1
  3
2dWireframe
350
3F8
  3
3D Hidden
350
3FA
  3
3dWireframe
350
3F9
  3
Basic
350
3F7
  3
Brighten
350
3FE
  3
ColorChange
350
402
  3
Conceptual
350
3FB
  3
Dim
350
3FD
  3
EdgeColorOff
350
C02
  3
Facepattern
350
401
  3
Flat
350
3F3
  3
FlatWithEdges
350
3F4
  3
Gouraud
350
3F5
  3
GouraudWithEdges
350
3F6
  3
Hidden
350
BFA
  3
JitterOff
350
C00
  3
Linepattern
350
400
  3
OverhangOff
350
C01
  3
Realistic
350
3FC
  3
Shaded
350
BFF
  3
Shaded with edges
350
BFE
  3
Shades of Gray
350
BFB
  3
Sketchy
350
BFC
  3
Thicken
350
3FF
  3
Wireframe
350
BF9
  3
X-Ray
350
BFD
  0
XRECORD
  5
C3E
102
{ACAD_REACTORS
330
C
102
}
330
C
100
AcDbXrecord
280
     1
 90
        1
330
389
  0
DICTIONARY
  5
357
102
{ACAD_REACTORS
330
C
102
}
330
C
100
AcDbDictionary
281
     1
  3
CANNOSCALE
350
449
  3
CMLEADERSTYLE
350
447
  3
CTABLESTYLE
350
38E
  3
DIMASSOC
350
359
  3
HIDETEXT
350
358
  3
INDEXCTL
350
BE8
  3
LIGHTINGUNITS
350
44A
  3
MSLTSCALE
350
448
  3
SORTENTS
350
BE7
  3
XCLIPFRAME
350
C3B
  0
DICTIONARY
  5
5CF
102
{ACAD_REACTORS
330
C
102
}
330
C
100
AcDbDictionary
281
     1
  0
DICTIONARY
  5
69C
102
{ACAD_REACTORS
330
C
102
}
330
C
100
AcDbDictionary
281
     1
  3
ASEBlockHierarchyIndexRecord
350
69D
1001
DCO15
1040
1680501600.633
  0
DICTIONARY
  5
6C6
102
{ACAD_REACTORS
330
451
102
}
330
451
100
AcDbDictionary
281
     1
  0
DICTIONARY
  5
6C5
102
{ACAD_REACTORS
330
451
102
}
330
451
100
AcDbDictionary
281
     1
1001
ACAD
1000
<All
  0
XRECORD
  5
BCD
102
{ACAD_REACTORS
330
BCC
102
}
330
BCC
100
AcDbXrecord
280
     1
290
     1
  0
XRECORD
  5
BCF
102
{ACAD_REACTORS
330
BCE
102
}
330
BCE
100
AcDbXrecord
280
     1
290
     1
  0
XRECORD
  5
BD1
102
{ACAD_REACTORS
330
BD0
102
}
330
BD0
100
AcDbXrecord
280
     1
290
     1
  0
XRECORD
  5
BD3
102
{ACAD_REACTORS
330
BD2
102
}
330
BD2
100
AcDbXrecord
280
     1
290
     1
  0
XRECORD
  5
BD5
102
{ACAD_REACTORS
330
BD4
102
}
330
BD4
100
AcDbXrecord
280
     1
290
     1
  0
XRECORD
  5
BD7
102
{ACAD_REACTORS
330
BD6
102
}
330
BD6
100
AcDbXrecord
280
     1
290
     1
  0
XRECORD
  5
BD9
102
{ACAD_REACTORS
330
BD8
102
}
330
BD8
100
AcDbXrecord
280
     1
290
     1
  0
XRECORD
  5
BDB
102
{ACAD_REACTORS
330
BDA
102
}
330
BDA
100
AcDbXrecord
280
     1
290
     1
  0
XRECORD
  5
BDD
102
{ACAD_REACTORS
330
BDC
102
}
330
BDC
100
AcDbXrecord
280
     1
290
     1
  0
XRECORD
  5
BDF
102
{ACAD_REACTORS
330
BDE
102
}
330
BDE
100
AcDbXrecord
280
     1
290
     1
  0
XRECORD
  5
BE1
102
{ACAD_REACTORS
330
BE0
102
}
330
BE0
100
AcDbXrecord
280
     1
290
     1
  0
SORTENTSTABLE
  5
B4E
102
{ACAD_REACTORS
330
B4D
102
}
330
B4D
100
AcDbSortentsTable
330
18
331
8F5
  5
8F5
331
93C
  5
93C
331
887
  5
887
331
8C6
  5
8C6
331
8FD
  5
8FD
331
88F
  5
88F
331
8CE
  5
8CE
331
8D6
  5
8D6
331
905
  5
905
331
897
  5
897
331
A0C
  5
A0C
331
89F
  5
89F
331
8DE
  5
8DE
331
915
  5
915
331
85C
  5
85C
331
864
  5
864
331
908
  5
908
331
A14
  5
A14
331
8A7
  5
8A7
331
8E6
  5
8E6
331
91D
  5
91D
331
925
  5
925
331
8AF
  5
8AF
331
8EE
  5
8EE
331
92D
  5
92D
331
8B7
  5
8B7
331
935
  5
935
331
8BF
  5
8BF
331
86C
  5
86C
331
874
  5
874
331
87C
  5
87C
331
880
  5
880
331
8C7
  5
8C7
331
8F6
  5
8F6
331
888
  5
888
331
890
  5
890
331
8CF
  5
8CF
331
8FE
  5
8FE
331
906
  5
906
331
898
  5
898
331
8D7
  5
8D7
331
916
  5
916
331
A0D
  5
A0D
331
8DF
  5
8DF
331
85D
  5
85D
331
909
  5
909
331
865
  5
865
331
8A0
  5
8A0
331
8E7
  5
8E7
331
91E
  5
91E
331
8A8
  5
8A8
331
A15
  5
A15
331
8B0
  5
8B0
331
926
  5
926
331
8B8
  5
8B8
331
8EF
  5
8EF
331
92E
  5
92E
331
936
  5
936
331
B61
  5
B5A
331
86D
  5
86D
331
875
  5
875
331
87D
  5
87D
331
881
  5
881
331
8C0
  5
8C0
331
8F7
  5
8F7
331
889
  5
889
331
8C8
  5
8C8
331
8FF
  5
8FF
331
891
  5
891
331
8D0
  5
8D0
331
8D8
  5
8D8
331
907
  5
907
331
899
  5
899
331
A0E
  5
A0E
331
917
  5
917
331
85E
  5
85E
331
866
  5
866
331
90A
  5
90A
331
8A1
  5
8A1
331
8E0
  5
8E0
331
91F
  5
91F
331
8A9
  5
8A9
331
A16
  5
A16
331
927
  5
927
331
8B1
  5
8B1
331
8E8
  5
8E8
331
92F
  5
92F
331
8B9
  5
8B9
331
B36
  5
B36
331
937
  5
937
331
B62
  5
B62
331
86E
  5
86E
331
876
  5
876
331
87E
  5
87E
331
8C1
  5
8C1
331
8F0
  5
8F0
331
882
  5
882
331
8C9
  5
8C9
331
8F8
  5
8F8
331
88A
  5
88A
331
892
  5
892
331
8D1
  5
8D1
331
900
  5
900
331
910
  5
910
331
A07
  5
A07
331
89A
  5
89A
331
8D9
  5
8D9
331
A0F
  5
A0F
331
85F
  5
85F
331
90B
  5
90B
331
867
  5
867
331
918
  5
918
331
8A2
  5
8A2
331
8E1
  5
8E1
331
920
  5
920
331
8AA
  5
8AA
331
A17
  5
A17
331
8B2
  5
8B2
331
8E9
  5
8E9
331
928
  5
928
331
930
  5
930
331
8BA
  5
8BA
331
B37
  5
B37
331
86F
  5
86F
331
877
  5
877
331
855
  5
855
331
87F
  5
87F
331
938
  5
938
331
883
  5
883
331
8C2
  5
8C2
331
8F1
  5
8F1
331
8F9
  5
8F9
331
88B
  5
88B
331
8CA
  5
8CA
331
8D2
  5
8D2
331
901
  5
901
331
893
  5
893
331
8DA
  5
8DA
331
911
  5
911
331
89B
  5
89B
331
A08
  5
A08
331
858
  5
858
331
860
  5
860
331
A10
  5
A10
331
8A3
  5
8A3
331
8E2
  5
8E2
331
919
  5
919
331
921
  5
921
331
A18
  5
A18
331
8AB
  5
8AB
331
A8A
  5
A8A
331
929
  5
929
331
8B3
  5
8B3
331
8EA
  5
8EA
331
931
  5
931
331
8BB
  5
8BB
331
868
  5
868
331
870
  5
870
331
878
  5
878
331
856
  5
856
331
8C3
  5
8C3
331
8F2
  5
8F2
331
884
  5
884
331
939
  5
939
331
8CB
  5
8CB
331
8FA
  5
8FA
331
88C
  5
88C
331
894
  5
894
331
8D3
  5
8D3
331
902
  5
902
331
912
  5
912
331
A09
  5
A09
331
89C
  5
89C
331
8DB
  5
8DB
331
859
  5
859
331
861
  5
861
331
8E3
  5
8E3
331
91A
  5
91A
331
8A4
  5
8A4
331
A11
  5
A11
331
922
  5
922
331
8AC
  5
8AC
331
A19
  5
A19
331
8B4
  5
8B4
331
8EB
  5
8EB
331
92A
  5
92A
331
932
  5
932
331
8BC
  5
8BC
331
869
  5
869
331
871
  5
871
331
879
  5
879
331
857
  5
857
331
93A
  5
93A
331
885
  5
885
331
8C4
  5
8C4
331
8F3
  5
8F3
331
8FB
  5
8FB
331
88D
  5
88D
331
8CC
  5
8CC
331
8D4
  5
8D4
331
903
  5
903
331
895
  5
895
331
A0A
  5
A0A
331
8DC
  5
8DC
331
913
  5
913
331
89D
  5
89D
331
85A
  5
85A
331
862
  5
862
331
90E
  5
90E
331
A12
  5
A12
331
8A5
  5
8A5
331
8E4
  5
8E4
331
91B
  5
91B
331
923
  5
923
331
8AD
  5
8AD
331
A1A
  5
A1A
331
8EC
  5
8EC
331
92B
  5
92B
331
8B5
  5
8B5
331
933
  5
933
331
8BD
  5
8BD
331
86A
  5
86A
331
872
  5
872
331
87A
  5
87A
331
8C5
  5
8C5
331
8F4
  5
8F4
331
C39
  5
C39
331
886
  5
886
331
93B
  5
93B
331
88E
  5
88E
331
8CD
  5
8CD
331
8FC
  5
8FC
331
896
  5
896
331
8D5
  5
8D5
331
904
  5
904
331
914
  5
914
331
A0B
  5
A0B
331
89E
  5
89E
331
8DD
  5
8DD
331
85B
  5
85B
331
863
  5
863
331
90F
  5
90F
331
A83
  5
A83
331
8E5
  5
8E5
331
91C
  5
91C
331
8A6
  5
8A6
331
A13
  5
A13
331
A1B
  5
A1B
331
924
  5
924
331
8AE
  5
8AE
331
8B6
  5
8B6
331
8ED
  5
8ED
331
92C
  5
92C
331
934
  5
934
331
8BE
  5
8BE
331
86B
  5
86B
331
873
  5
873
331
87B
  5
87B
  0
DIMASSOC
  5
A86
102
{ACAD_REACTORS
330
A85
102
}
330
A85
100
AcDbDimAssoc
330
A83
 90
        1
 70
     0
 71
     0
  1
AcDbOsnapPointRef
 72
     2
331
862
 73
     2
 91
       12
 40
0.4999999999998396
 10
0.0
 20
0.0
 30
0.0
 75
     0
  0
DIMASSOC
  5
A8C
102
{ACAD_REACTORS
330
A8B
102
}
330
A8B
100
AcDbDimAssoc
330
A8A
 90
        1
 70
     0
 71
     0
  1
AcDbOsnapPointRef
 72
     2
331
8E6
 73
     2
 91
        0
 40
0.5
 10
0.0
 20
0.0
 30
0.0
 75
     0
  0
DIMASSOC
  5
B7B
102
{ACAD_REACTORS
330
B70
102
}
330
B70
100
AcDbDimAssoc
330
B62
 90
        3
 70
     0
 71
     0
  1
AcDbOsnapPointRef
 72
     2
331
B61
 73
     2
 91
        9
 40
0.5
 10
0.0
 20
0.0
 30
0.0
 75
     0
  1
AcDbOsnapPointRef
 72
     2
331
93C
 73
     2
 91
        0
 40
0.5
 10
0.0
 20
0.0
 30
0.0
 75
     0
  0
LAYOUT
  5
33B
102
{ACAD_REACTORS
330
301
102
}
330
301
100
AcDbPlotSettings
  1

  2
Lexmark Optra PS2
  4

  6

 40
0.0
 41
0.0
 42
0.0
 43
0.0
 44
0.0
 45
0.0
 46
0.0
 47
0.0
 48
0.0
 49
0.0
140
0.0
141
0.0
142
1.0
143
1.0
 70
   688
 72
     0
 73
     0
 74
     5
  7
monochrome.ctb
 75
    16
147
1.0
 76
     0
 77
     2
 78
   300
148
0.0
149
0.0
100
AcDbLayout
  1
Layout1
 70
     1
 71
     1
 10
0.0
 20
0.0
 11
12.0
 21
9.0
 12
0.0
 22
0.0
 32
0.0
 14
0.0
 24
0.0
 34
0.0
 15
0.0
 25
0.0
 35
0.0
146
0.0
 13
0.0
 23
0.0
 33
0.0
 16
1.0
 26
0.0
 36
0.0
 17
0.0
 27
1.0
 37
0.0
 76
     0
330
338
  0
LAYOUT
  5
303
102
{ACAD_REACTORS
330
301
102
}
330
301
100
AcDbPlotSettings
  1

  2
Default Windows System Printer.pc3
  4
A4
  6

 40
6.805083274841307
 41
5.535083293914794
 42
6.974411010742187
 43
7.14373779296875
 44
209.9733276367186
 45
296.9259948730469
 46
67.83299579489725
 47
0.0
 48
0.0
 49
0.0
140
0.0
141
0.0
142
1.0
143
0.3604333568168785
 70
  3764
 72
     1
 73
     1
 74
     1
  7
monochrome.ctb
 75
     0
147
2.774437995504559
 76
     1
 77
     2
 78
   300
148
-82.35087775247029
149
-53.69369632994493
100
AcDbLayout
  1
Model
 70
     1
 71
     0
 10
0.0
 20
0.0
 11
12.0
 21
9.0
 12
0.0
 22
0.0
 32
0.0
 14
0.0
 24
0.0
 34
0.0
 15
0.0
 25
0.0
 35
0.0
146
0.0
 13
0.0
 23
0.0
 33
0.0
 16
1.0
 26
0.0
 36
0.0
 17
0.0
 27
1.0
 37
0.0
 76
     0
330
18
331
3ED
1001
ACAD_PSEXT
1000
Default Windows System Printer.pc3
1000
Lexmark Optra Rx
1000
Lexmark Rx
1000
Erstellt von Lexmark Benutzerdefinierte Installation,Nov 13,2005,10:03
1070
     0
  0
MATERIAL
  5
3F0
102
{ACAD_XDICTIONARY
360
BF2
102
}
102
{ACAD_REACTORS
330
386
102
}
330
386
100
AcDbMaterial
  1
ByBlock
 73
     1
 78
     1
172
     1
176
     1
270
     1
274
     1
  0
MATERIAL
  5
3EF
102
{ACAD_XDICTIONARY
360
BF0
102
}
102
{ACAD_REACTORS
330
386
102
}
330
386
100
AcDbMaterial
  1
ByLayer
 73
     1
 78
     1
172
     1
176
     1
270
     1
274
     1
  0
MATERIAL
  5
3F1
102
{ACAD_XDICTIONARY
360
BF4
102
}
102
{ACAD_REACTORS
330
386
102
}
330
386
100
AcDbMaterial
  1
Global
 73
     1
 78
     1
172
     1
176
     1
270
     1
274
     1
  0
MLEADERSTYLE
  5
43D
102
{ACAD_REACTORS
330
43C
330
A83
330
A8A
102
}
330
43C
100
AcDbMLeaderStyle
170
     2
171
     1
172
     0
 90
        2
 40
0.0
 41
0.0
173
     1
 91
-1056964608
340
12
 92
       -2
290
     1
 42
2.0
291
     1
 43
0.36
  3
Standard
 44
4.0
300

342
10
174
     1
178
     6
175
     1
176
     0
 93
-1056964608
 45
4.0
292
     0
297
     0
 46
4.0
 94
-1056964608
 47
1.0
 49
1.0
140
1.0
293
     1
141
0.0
294
     1
177
     0
142
1.0
295
     0
296
     0
143
0.125
1001
ACAD_MLEADERVER
1070
     2
  0
MLINESTYLE
  5
1B
102
{ACAD_REACTORS
330
E
102
}
330
E
100
AcDbMlineStyle
  2
STANDARD
 70
     0
  3

 62
     0
 51
90.0
 52
90.0
 71
     2
 49
0.5
 62
   256
  6
BYLAYER
 49
-0.5
 62
   256
  6
BYLAYER
  0
ACDBPLACEHOLDER
  5
300
102
{ACAD_REACTORS
330
2FF
102
}
330
2FF
  0
SCALE
  5
41B
102
{ACAD_REACTORS
330
41A
102
}
330
41A
100
AcDbScale
 70
     0
300
1:1
140
1.0
141
1.0
290
     1
  0
SCALE
  5
41C
102
{ACAD_REACTORS
330
41A
102
}
330
41A
100
AcDbScale
 70
     0
300
1:2
140
1.0
141
2.0
290
     0
  0
SCALE
  5
41D
102
{ACAD_REACTORS
330
41A
102
}
330
41A
100
AcDbScale
 70
     0
300
1:4
140
1.0
141
4.0
290
     0
  0
SCALE
  5
41E
102
{ACAD_REACTORS
330
41A
102
}
330
41A
100
AcDbScale
 70
     0
300
1:5
140
1.0
141
5.0
290
     0
  0
SCALE
  5
41F
102
{ACAD_REACTORS
330
41A
102
}
330
41A
100
AcDbScale
 70
     0
300
1:8
140
1.0
141
8.0
290
     0
  0
SCALE
  5
420
102
{ACAD_REACTORS
330
41A
102
}
330
41A
100
AcDbScale
 70
     0
300
1:10
140
1.0
141
10.0
290
     0
  0
SCALE
  5
421
102
{ACAD_REACTORS
330
41A
102
}
330
41A
100
AcDbScale
 70
     0
300
1:16
140
1.0
141
16.0
290
     0
  0
SCALE
  5
422
102
{ACAD_REACTORS
330
41A
102
}
330
41A
100
AcDbScale
 70
     0
300
1:20
140
1.0
141
20.0
290
     0
  0
SCALE
  5
423
102
{ACAD_REACTORS
330
41A
102
}
330
41A
100
AcDbScale
 70
     0
300
1:30
140
1.0
141
30.0
290
     0
  0
SCALE
  5
424
102
{ACAD_REACTORS
330
41A
102
}
330
41A
100
AcDbScale
 70
     0
300
1:40
140
1.0
141
40.0
290
     0
  0
SCALE
  5
425
102
{ACAD_REACTORS
330
41A
102
}
330
41A
100
AcDbScale
 70
     0
300
1:50
140
1.0
141
50.0
290
     0
  0
SCALE
  5
426
102
{ACAD_REACTORS
330
41A
102
}
330
41A
100
AcDbScale
 70
     0
300
1:100
140
1.0
141
100.0
290
     0
  0
SCALE
  5
427
102
{ACAD_REACTORS
330
41A
102
}
330
41A
100
AcDbScale
 70
     0
300
2:1
140
2.0
141
1.0
290
     0
  0
SCALE
  5
428
102
{ACAD_REACTORS
330
41A
102
}
330
41A
100
AcDbScale
 70
     0
300
4:1
140
4.0
141
1.0
290
     0
  0
SCALE
  5
429
102
{ACAD_REACTORS
330
41A
102
}
330
41A
100
AcDbScale
 70
     0
300
8:1
140
8.0
141
1.0
290
     0
  0
SCALE
  5
42A
102
{ACAD_REACTORS
330
41A
102
}
330
41A
100
AcDbScale
 70
     0
300
10:1
140
10.0
141
1.0
290
     0
  0
SCALE
  5
42B
102
{ACAD_REACTORS
330
41A
102
}
330
41A
100
AcDbScale
 70
     0
300
100:1
140
100.0
141
1.0
290
     0
  0
SCALE
  5
42C
102
{ACAD_REACTORS
330
41A
102
}
330
41A
100
AcDbScale
 70
     0
300
1/128" = 1'-0"
140
0.0078125
141
12.0
290
     0
  0
SCALE
  5
42D
102
{ACAD_REACTORS
330
41A
102
}
330
41A
100
AcDbScale
 70
     0
300
1/64" = 1'-0"
140
0.015625
141
12.0
290
     0
  0
SCALE
  5
42E
102
{ACAD_REACTORS
330
41A
102
}
330
41A
100
AcDbScale
 70
     0
300
1/32" = 1'-0"
140
0.03125
141
12.0
290
     0
  0
SCALE
  5
42F
102
{ACAD_REACTORS
330
41A
102
}
330
41A
100
AcDbScale
 70
     0
300
1/16" = 1'-0"
140
0.0625
141
12.0
290
     0
  0
SCALE
  5
430
102
{ACAD_REACTORS
330
41A
102
}
330
41A
100
AcDbScale
 70
     0
300
3/32" = 1'-0"
140
0.09375
141
12.0
290
     0
  0
SCALE
  5
431
102
{ACAD_REACTORS
330
41A
102
}
330
41A
100
AcDbScale
 70
     0
300
1/8" = 1'-0"
140
0.125
141
12.0
290
     0
  0
SCALE
  5
432
102
{ACAD_REACTORS
330
41A
102
}
330
41A
100
AcDbScale
 70
     0
300
3/16" = 1'-0"
140
0.1875
141
12.0
290
     0
  0
SCALE
  5
433
102
{ACAD_REACTORS
330
41A
102
}
330
41A
100
AcDbScale
 70
     0
300
1/4" = 1'-0"
140
0.25
141
12.0
290
     0
  0
SCALE
  5
434
102
{ACAD_REACTORS
330
41A
102
}
330
41A
100
AcDbScale
 70
     0
300
3/8" = 1'-0"
140
0.375
141
12.0
290
     0
  0
SCALE
  5
435
102
{ACAD_REACTORS
330
41A
102
}
330
41A
100
AcDbScale
 70
     0
300
1/2" = 1'-0"
140
0.5
141
12.0
290
     0
  0
SCALE
  5
436
102
{ACAD_REACTORS
330
41A
102
}
330
41A
100
AcDbScale
 70
     0
300
3/4" = 1'-0"
140
0.75
141
12.0
290
     0
  0
SCALE
  5
437
102
{ACAD_REACTORS
330
41A
102
}
330
41A
100
AcDbScale
 70
     0
300
1" = 1'-0"
140
1.0
141
12.0
290
     0
  0
SCALE
  5
438
102
{ACAD_REACTORS
330
41A
102
}
330
41A
100
AcDbScale
 70
     0
300
1-1/2" = 1'-0"
140
1.5
141
12.0
290
     0
  0
SCALE
  5
439
102
{ACAD_REACTORS
330
41A
102
}
330
41A
100
AcDbScale
 70
     0
300
3" = 1'-0"
140
3.0
141
12.0
290
     0
  0
SCALE
  5
43A
102
{ACAD_REACTORS
330
41A
102
}
330
41A
100
AcDbScale
 70
     0
300
6" = 1'-0"
140
6.0
141
12.0
290
     0
  0
SCALE
  5
43B
102
{ACAD_REACTORS
330
41A
102
}
330
41A
100
AcDbScale
 70
     0
300
1'-0" = 1'-0"
140
12.0
141
12.0
290
     0
  0
TABLESTYLE
  5
389
102
{ACAD_XDICTIONARY
360
444
102
}
102
{ACAD_REACTORS
330
388
102
}
330
388
100
AcDbTableStyle
  3
Standard
 70
     0
 71
     0
 40
1.5
 41
1.5
280
     0
281
     0
  7
STANDARD
140
4.5
170
     2
 62
     0
 63
     7
283
     0
274
    -2
284
     1
 64
     0
275
    -2
285
     1
 65
     0
276
    -2
286
     1
 66
     0
277
    -2
287
     1
 67
     0
278
    -2
288
     1
 68
     0
279
    -2
289
     1
 69
     0
  7
STANDARD
140
6.0
170
     5
 62
     0
 63
     7
283
     0
274
    -2
284
     1
 64
     0
275
    -2
285
     1
 65
     0
276
    -2
286
     1
 66
     0
277
    -2
287
     1
 67
     0
278
    -2
288
     1
 68
     0
279
    -2
289
     1
 69
     0
  7
STANDARD
140
4.5
170
     5
 62
     0
 63
     7
283
     0
274
    -2
284
     1
 64
     0
275
    -2
285
     1
 65
     0
276
    -2
286
     1
 66
     0
277
    -2
287
     1
 67
     0
278
    -2
288
     1
 68
     0
279
    -2
289
     1
 69
     0
  0
VISUALSTYLE
  5
3F8
102
{ACAD_XDICTIONARY
360
C4A
102
}
102
{ACAD_REACTORS
330
3F2
102
}
330
3F2
100
AcDbVisualStyle
  2

 70
     4
 71
     0
 72
     2
 73
     0
 90
        0
 40
-0.6
 41
-30.0
 62
     5
 63
     7
 74
     1
 91
        4
 64
     7
 65
   257
 75
     1
175
     1
 42
1.0
 92
        0
 66
   257
 43
1.0
 76
     1
 77
     6
 78
     2
 67
     7
 79
     5
170
     0
171
     0
290
     0
174
     0
 93
        1
 44
0.0
173
     0
291
     0
 45
0.0
1001
ACAD
1000
AcDbSavedByObjectVersion
1070
     0
  0
VISUALSTYLE
  5
3FA
102
{ACAD_XDICTIONARY
360
C4E
102
}
102
{ACAD_REACTORS
330
3F2
102
}
330
3F2
100
AcDbVisualStyle
  2

 70
     6
 71
     1
 72
     2
 73
     2
 90
        0
 40
-0.6
 41
-30.0
 62
     5
 63
     7
 74
     2
 91
        2
 64
     7
 65
   257
 75
     2
175
     1
 42
40.0
 92
        0
 66
   257
 43
1.0
 76
     1
 77
     6
 78
     2
 67
     7
 79
     3
170
     0
171
     0
290
     0
174
     0
 93
        1
 44
0.0
173
     0
291
     0
 45
0.0
1001
ACAD
1000
AcDbSavedByObjectVersion
1070
     0
  0
VISUALSTYLE
  5
3F9
102
{ACAD_XDICTIONARY
360
C4C
102
}
102
{ACAD_REACTORS
330
3F2
102
}
330
3F2
100
AcDbVisualStyle
  2

 70
     5
 71
     0
 72
     2
 73
     0
 90
        0
 40
-0.6
 41
-30.0
 62
     5
 63
     7
 74
     1
 91
        4
 64
     7
 65
   257
 75
     1
175
     1
 42
1.0
 92
        0
 66
   257
 43
1.0
 76
     1
 77
     6
 78
     2
 67
     7
 79
     5
170
     0
171
     0
290
     0
174
     0
 93
        1
 44
0.0
173
     0
291
     0
 45
0.0
1001
ACAD
1000
AcDbSavedByObjectVersion
1070
     0
  0
VISUALSTYLE
  5
3F7
102
{ACAD_XDICTIONARY
360
C48
102
}
102
{ACAD_REACTORS
330
3F2
102
}
330
3F2
100
AcDbVisualStyle
  2

 70
     7
 71
     1
 72
     0
 73
     1
 90
        0
 40
-0.6
 41
-30.0
 62
     5
 63
     7
 74
     0
 91
        4
 64
     7
 65
   257
 75
     1
175
     1
 42
1.0
 92
        8
 66
     7
 43
1.0
 76
     1
 77
     6
 78
     2
 67
     7
 79
     5
170
     0
171
     0
290
     0
174
     0
 93
        1
 44
0.0
173
     0
291
     1
 45
0.0
1001
ACAD
1000
AcDbSavedByObjectVersion
1070
     0
  0
VISUALSTYLE
  5
3FE
102
{ACAD_XDICTIONARY
360
C56
102
}
102
{ACAD_REACTORS
330
3F2
102
}
330
3F2
100
AcDbVisualStyle
  2

 70
    12
 71
     2
 72
     2
 73
     0
 90
        0
 40
-0.6
 41
-30.0
 62
     5
 63
     7
 74
     1
 91
        4
 64
     7
 65
   257
 75
     1
175
     1
 42
1.0
 92
        8
 66
     7
 43
1.0
 76
     1
 77
     6
 78
     2
 67
     7
 79
     5
170
     0
171
     0
290
     0
174
     0
 93
        1
 44
50.0
173
     0
291
     1
 45
0.0
1001
ACAD
1000
AcDbSavedByObjectVersion
1070
     0
  0
VISUALSTYLE
  5
402
102
{ACAD_XDICTIONARY
360
C5E
102
}
102
{ACAD_REACTORS
330
3F2
102
}
330
3F2
100
AcDbVisualStyle
  2

 70
    16
 71
     2
 72
     2
 73
     3
 90
        0
 40
-0.6
 41
-30.0
 62
     5
 63
     8
 74
     1
 91
        4
 64
     7
 65
   257
 75
     1
175
     1
 42
1.0
 92
        8
 66
     8
 43
1.0
 76
     1
 77
     6
 78
     2
 67
     7
 79
     5
170
     0
171
     0
290
     0
174
     0
 93
        1
 44
0.0
173
     0
291
     1
 45
0.0
1001
ACAD
1000
AcDbSavedByObjectVersion
1070
     0
  0
VISUALSTYLE
  5
3FB
102
{ACAD_XDICTIONARY
360
C50
102
}
102
{ACAD_REACTORS
330
3F2
102
}
330
3F2
100
AcDbVisualStyle
  2

 70
     9
 71
     3
 72
     2
 73
     0
 90
        0
 40
-0.6
 41
-30.0
 62
     5
 63
     7
 74
     2
 91
        2
 64
     7
 65
   257
 75
     1
175
     1
 42
40.0
 92
        8
 66
     7
 43
1.0
 76
     1
 77
     6
 78
     2
 67
     7
 79
     3
170
     0
171
     0
290
     0
174
     0
 93
        1
 44
0.0
173
     0
291
     0
 45
0.0
1001
ACAD
1000
AcDbSavedByObjectVersion
1070
     0
  0
VISUALSTYLE
  5
3FD
102
{ACAD_XDICTIONARY
360
C54
102
}
102
{ACAD_REACTORS
330
3F2
102
}
330
3F2
100
AcDbVisualStyle
  2

 70
    11
 71
     2
 72
     2
 73
     0
 90
        0
 40
-0.6
 41
-30.0
 62
     5
 63
     7
 74
     1
 91
        4
 64
     7
 65
   257
 75
     1
175
     1
 42
1.0
 92
        8
 66
     7
 43
1.0
 76
     1
 77
     6
 78
     2
 67
     7
 79
     5
170
     0
171
     0
290
     0
174
     0
 93
        1
 44
-50.0
173
     0
291
     1
 45
0.0
1001
ACAD
1000
AcDbSavedByObjectVersion
1070
     0
  0
VISUALSTYLE
  5
C02
102
{ACAD_XDICTIONARY
360
C72
102
}
102
{ACAD_REACTORS
330
3F2
102
}
330
3F2
100
AcDbVisualStyle
  2
EdgeColorOff
 70
    22
 71
     2
 72
     2
 73
     0
 90
        0
 40
-0.6
 41
-30.0
 62
     5
 63
     7
421
 16777215
 74
     1
 91
        4
 64
     7
 65
   257
 75
     1
175
     1
 42
1.0
 92
        8
 66
     7
 43
1.0
 76
     1
 77
     6
 78
     2
 67
     7
 79
     5
170
     0
171
     0
290
     0
174
     0
 93
        1
 44
0.0
173
     0
291
     1
 45
0.0
1001
ACAD
1000
AcDbSavedByObjectVersion
1070
     0
  0
VISUALSTYLE
  5
401
102
{ACAD_XDICTIONARY
360
C5C
102
}
102
{ACAD_REACTORS
330
3F2
102
}
330
3F2
100
AcDbVisualStyle
  2

 70
    15
 71
     2
 72
     2
 73
     0
 90
        0
 40
-0.6
 41
-30.0
 62
     5
 63
     7
 74
     1
 91
        4
 64
     7
 65
   257
 75
     1
175
     1
 42
1.0
 92
        8
 66
     7
 43
1.0
 76
     1
 77
     6
 78
     2
 67
     7
 79
     5
170
     0
171
     0
290
     0
174
     0
 93
        1
 44
0.0
173
     0
291
     1
 45
0.0
1001
ACAD
1000
AcDbSavedByObjectVersion
1070
     0
  0
VISUALSTYLE
  5
3F3
102
{ACAD_XDICTIONARY
360
C40
102
}
102
{ACAD_REACTORS
330
3F2
102
}
330
3F2
100
AcDbVisualStyle
  2

 70
     0
 71
     2
 72
     1
 73
     1
 90
        2
 40
-0.6
 41
30.0
 62
     5
 63
     7
 74
     0
 91
        4
 64
     7
 65
   257
 75
     1
175
     1
 42
1.0
 92
        8
 66
     7
 43
1.0
 76
     1
 77
     6
 78
     2
 67
     7
 79
     5
170
     0
171
     0
290
     0
174
     0
 93
       13
 44
0.0
173
     0
291
     1
 45
0.0
1001
ACAD
1000
AcDbSavedByObjectVersion
1070
     0
  0
VISUALSTYLE
  5
3F4
102
{ACAD_XDICTIONARY
360
C42
102
}
102
{ACAD_REACTORS
330
3F2
102
}
330
3F2
100
AcDbVisualStyle
  2

 70
     1
 71
     2
 72
     1
 73
     1
 90
        2
 40
-0.6
 41
30.0
 62
     5
 63
     7
 74
     1
 91
        4
 64
     7
 65
   257
 75
     1
175
     1
 42
1.0
 92
        0
 66
   257
 43
1.0
 76
     1
 77
     6
 78
     2
 67
     7
 79
     5
170
     0
171
     0
290
     0
174
     0
 93
       13
 44
0.0
173
     0
291
     1
 45
0.0
1001
ACAD
1000
AcDbSavedByObjectVersion
1070
     0
  0
VISUALSTYLE
  5
3F5
102
{ACAD_XDICTIONARY
360
C44
102
}
102
{ACAD_REACTORS
330
3F2
102
}
330
3F2
100
AcDbVisualStyle
  2

 70
     2
 71
     2
 72
     2
 73
     1
 90
        2
 40
-0.6
 41
30.0
 62
     5
 63
     7
 74
     0
 91
        4
 64
     7
 65
   257
 75
     1
175
     1
 42
1.0
 92
        0
 66
     7
 43
1.0
 76
     1
 77
     6
 78
     2
 67
     7
 79
     5
170
     0
171
     0
290
     0
174
     0
 93
       13
 44
0.0
173
     0
291
     1
 45
0.0
1001
ACAD
1000
AcDbSavedByObjectVersion
1070
     0
  0
VISUALSTYLE
  5
3F6
102
{ACAD_XDICTIONARY
360
C46
102
}
102
{ACAD_REACTORS
330
3F2
102
}
330
3F2
100
AcDbVisualStyle
  2

 70
     3
 71
     2
 72
     2
 73
     1
 90
        2
 40
-0.6
 41
30.0
 62
     5
 63
     7
 74
     1
 91
        4
 64
     7
 65
   257
 75
     1
175
     1
 42
1.0
 92
        0
 66
   257
 43
1.0
 76
     1
 77
     6
 78
     2
 67
     7
 79
     5
170
     0
171
     0
290
     0
174
     0
 93
       13
 44
0.0
173
     0
291
     1
 45
0.0
1001
ACAD
1000
AcDbSavedByObjectVersion
1070
     0
  0
VISUALSTYLE
  5
BFA
102
{ACAD_XDICTIONARY
360
C62
102
}
102
{ACAD_REACTORS
330
3F2
102
}
330
3F2
100
AcDbVisualStyle
  2
Hidden
 70
     6
 71
     1
 72
     2
 73
     2
 90
        0
 40
-0.6
 41
-30.0
 62
     5
 63
     7
421
 16777215
 74
     2
 91
        2
 64
     7
 65
   257
 75
     2
175
     1
 42
40.0
 92
        0
 66
   257
 43
1.0
 76
     1
 77
     6
 78
     2
 67
     7
 79
     3
170
     0
171
     0
290
     0
174
     0
 93
        1
 44
0.0
173
     0
291
     0
 45
0.0
1001
ACAD
1000
AcDbSavedByObjectVersion
1070
     0
  0
VISUALSTYLE
  5
C00
102
{ACAD_XDICTIONARY
360
C6E
102
}
102
{ACAD_REACTORS
330
3F2
102
}
330
3F2
100
AcDbVisualStyle
  2
JitterOff
 70
    20
 71
     2
 72
     2
 73
     0
 90
        0
 40
-0.6
 41
-30.0
 62
     5
 63
     7
421
 16777215
 74
     1
 91
        4
 64
     7
 65
   257
 75
     1
175
     1
 42
1.0
 92
       10
 66
     7
 43
1.0
 76
     1
 77
     6
 78
     2
 67
     7
 79
     5
170
     0
171
     0
290
     0
174
     0
 93
        1
 44
0.0
173
     0
291
     1
 45
0.0
1001
ACAD
1000
AcDbSavedByObjectVersion
1070
     0
  0
VISUALSTYLE
  5
400
102
{ACAD_XDICTIONARY
360
C5A
102
}
102
{ACAD_REACTORS
330
3F2
102
}
330
3F2
100
AcDbVisualStyle
  2

 70
    14
 71
     2
 72
     2
 73
     0
 90
        0
 40
-0.6
 41
-30.0
 62
     5
 63
     7
 74
     1
 91
        4
 64
     7
 65
   257
 75
     7
175
     7
 42
1.0
 92
        8
 66
     7
 43
1.0
 76
     1
 77
     6
 78
     2
 67
     7
 79
     5
170
     0
171
     0
290
     0
174
     0
 93
        1
 44
0.0
173
     0
291
     1
 45
0.0
1001
ACAD
1000
AcDbSavedByObjectVersion
1070
     0
  0
VISUALSTYLE
  5
C01
102
{ACAD_XDICTIONARY
360
C70
102
}
102
{ACAD_REACTORS
330
3F2
102
}
330
3F2
100
AcDbVisualStyle
  2
OverhangOff
 70
    21
 71
     2
 72
     2
 73
     0
 90
        0
 40
-0.6
 41
-30.0
 62
     5
 63
     7
421
 16777215
 74
     1
 91
        4
 64
     7
 65
   257
 75
     1
175
     1
 42
1.0
 92
        9
 66
     7
 43
1.0
 76
     1
 77
     6
 78
     2
 67
     7
 79
     5
170
     0
171
     0
290
     0
174
     0
 93
        1
 44
0.0
173
     0
291
     1
 45
0.0
1001
ACAD
1000
AcDbSavedByObjectVersion
1070
     0
  0
VISUALSTYLE
  5
3FC
102
{ACAD_XDICTIONARY
360
C52
102
}
102
{ACAD_REACTORS
330
3F2
102
}
330
3F2
100
AcDbVisualStyle
  2

 70
     8
 71
     2
 72
     2
 73
     0
 90
        0
 40
-0.6
 41
-30.0
 62
     5
 63
     7
 74
     1
 91
        0
 64
     7
 65
   257
 75
     1
175
     1
 42
1.0
 92
        8
 66
     8
 43
1.0
 76
     1
 77
     6
 78
     2
 67
     7
 79
     5
170
     0
171
     0
290
     0
174
     0
 93
       13
 44
0.0
173
     0
291
     0
 45
0.0
1001
ACAD
1000
AcDbSavedByObjectVersion
1070
     0
  0
VISUALSTYLE
  5
BFF
102
{ACAD_XDICTIONARY
360
C6C
102
}
102
{ACAD_REACTORS
330
3F2
102
}
330
3F2
100
AcDbVisualStyle
  2
Shaded
 70
    27
 71
     2
 72
     2
 73
     1
 90
        2
 40
-0.6
 41
30.0
 62
     5
 63
     7
421
 16777215
 74
     0
 91
        4
 64
     7
 65
   257
 75
     1
175
     1
 42
1.0
 92
        8
 66
   257
 43
1.0
 76
     1
 77
     6
 78
     2
 67
     8
425
  7895160
 79
     3
170
     0
171
     0
290
     0
174
     0
 93
        5
 44
0.0
173
     0
291
     0
 45
0.0
1001
ACAD
1000
AcDbSavedByObjectVersion
1070
     0
  0
VISUALSTYLE
  5
BFE
102
{ACAD_XDICTIONARY
360
C6A
102
}
102
{ACAD_REACTORS
330
3F2
102
}
330
3F2
100
AcDbVisualStyle
  2
Shaded with edges
 70
    26
 71
     2
 72
     2
 73
     1
 90
        2
 40
-0.6
 41
30.0
 62
     5
 63
     7
421
 16777215
 74
     1
 91
       10
 64
     7
 65
   257
 75
     2
175
     1
 42
1.0
 92
        8
 66
   257
 43
1.0
 76
     1
 77
     6
 78
     2
 67
     7
 79
     3
170
     0
171
     0
290
     0
174
     0
 93
        5
 44
0.0
173
     0
291
     0
 45
0.0
1001
ACAD
1000
AcDbSavedByObjectVersion
1070
     0
  0
VISUALSTYLE
  5
BFB
102
{ACAD_XDICTIONARY
360
C64
102
}
102
{ACAD_REACTORS
330
3F2
102
}
330
3F2
100
AcDbVisualStyle
  2
Shades of Gray
 70
    23
 71
     2
 72
     2
 73
     3
 90
        0
 40
-0.6
 41
-30.0
 62
     5
 63
     7
421
 16777215
 74
     2
 91
        2
 64
     7
 65
     7
 75
     1
175
     1
 42
40.0
 92
        8
 66
     7
 43
1.0
 76
     1
 77
     6
 78
     2
 67
     7
 79
     3
170
     0
171
     0
290
     0
174
     0
 93
        1
 44
0.0
173
     0
291
     0
 45
0.0
1001
ACAD
1000
AcDbSavedByObjectVersion
1070
     0
  0
VISUALSTYLE
  5
BFC
102
{ACAD_XDICTIONARY
360
C66
102
}
102
{ACAD_REACTORS
330
3F2
102
}
330
3F2
100
AcDbVisualStyle
  2
Sketchy
 70
    24
 71
     1
 72
     2
 73
     2
 90
        0
 40
-0.6
 41
-30.0
 62
     5
 63
     7
421
 16777215
 74
     2
 91
        2
 64
     7
 65
     7
 75
     1
175
     1
 42
40.0
 92
       11
 66
     7
 43
1.0
 76
     1
 77
     6
 78
     2
 67
     7
 79
     6
170
     0
171
     0
290
     0
174
     0
 93
        1
 44
0.0
173
     0
291
     0
 45
0.0
1001
ACAD
1000
AcDbSavedByObjectVersion
1070
     0
  0
VISUALSTYLE
  5
3FF
102
{ACAD_XDICTIONARY
360
C58
102
}
102
{ACAD_REACTORS
330
3F2
102
}
330
3F2
100
AcDbVisualStyle
  2

 70
    13
 71
     2
 72
     2
 73
     0
 90
        0
 40
-0.6
 41
-30.0
 62
     5
 63
     7
 74
     1
 91
        4
 64
     7
 65
   257
 75
     1
175
     1
 42
1.0
 92
       12
 66
     7
 43
1.0
 76
     1
 77
     6
 78
     2
 67
     7
 79
     5
170
     0
171
     0
290
     0
174
     0
 93
        1
 44
0.0
173
     0
291
     1
 45
0.0
1001
ACAD
1000
AcDbSavedByObjectVersion
1070
     0
  0
VISUALSTYLE
  5
BF9
102
{ACAD_XDICTIONARY
360
C60
102
}
102
{ACAD_REACTORS
330
3F2
102
}
330
3F2
100
AcDbVisualStyle
  2
Wireframe
 70
     5
 71
     0
 72
     2
 73
     0
 90
        0
 40
-0.6
 41
-30.0
 62
     5
 63
     7
421
 16777215
 74
     1
 91
        4
 64
     7
 65
   257
 75
     1
175
     1
 42
1.0
 92
        0
 66
   257
 43
1.0
 76
     1
 77
     6
 78
     2
 67
     7
 79
     3
170
     0
171
     0
290
     0
174
     0
 93
        1
 44
0.0
173
     0
291
     0
 45
0.0
1001
ACAD
1000
AcDbSavedByObjectVersion
1070
     0
  0
VISUALSTYLE
  5
BFD
102
{ACAD_XDICTIONARY
360
C68
102
}
102
{ACAD_REACTORS
330
3F2
102
}
330
3F2
100
AcDbVisualStyle
  2
X-Ray
 70
    25
 71
     2
 72
     2
 73
     1
 90
        1
 40
0.5
 41
-30.0
 62
     5
 63
     7
421
 16777215
 74
     1
 91
        0
 64
     7
 65
   257
 75
     1
175
     1
 42
1.0
 92
        8
 66
     7
 43
1.0
 76
     1
 77
     6
 78
     2
 67
     7
 79
     3
170
     0
171
     0
290
     0
174
     0
 93
       13
 44
0.0
173
     0
291
     0
 45
0.0
1001
ACAD
1000
AcDbSavedByObjectVersion
1070
     0
  0
DICTIONARYVAR
  5
449
102
{ACAD_REACTORS
330
357
102
}
330
357
100
DictionaryVariables
280
     0
  1
1:1
  0
DICTIONARYVAR
  5
447
102
{ACAD_REACTORS
330
357
102
}
330
357
100
DictionaryVariables
280
     0
  1
STANDARD
  0
DICTIONARYVAR
  5
38E
102
{ACAD_REACTORS
330
357
102
}
330
357
100
DictionaryVariables
280
     0
  1
STANDARD
  0
DICTIONARYVAR
  5
359
102
{ACAD_REACTORS
330
357
102
}
330
357
100
DictionaryVariables
280
     0
  1
2
  0
DICTIONARYVAR
  5
358
102
{ACAD_REACTORS
330
357
102
}
330
357
100
DictionaryVariables
280
     0
  1
1
  0
DICTIONARYVAR
  5
BE8
102
{ACAD_REACTORS
330
357
102
}
330
357
100
DictionaryVariables
280
     0
  1
0
  0
DICTIONARYVAR
  5
44A
102
{ACAD_REACTORS
330
357
102
}
330
357
100
DictionaryVariables
280
     0
  1
0
  0
DICTIONARYVAR
  5
448
102
{ACAD_REACTORS
330
357
102
}
330
357
100
DictionaryVariables
280
     0
  1
0
  0
DICTIONARYVAR
  5
BE7
102
{ACAD_REACTORS
330
357
102
}
330
357
100
DictionaryVariables
280
     0
  1
127
  0
DICTIONARYVAR
  5
C3B
102
{ACAD_REACTORS
330
357
102
}
330
357
100
DictionaryVariables
280
     0
  1
2
  0
XRECORD
  5
69D
102
{ACAD_REACTORS
330
69C
102
}
330
69C
100
AcDbXrecord
280
     1
  0
DICTIONARY
  5
BF2
330
3F0
100
AcDbDictionary
280
     1
281
     1
  3
ACAD_XREC_ROUNDTRIP
360
BF3
  0
DICTIONARY
  5
BF0
330
3EF
100
AcDbDictionary
280
     1
281
     1
  3
ACAD_XREC_ROUNDTRIP
360
BF1
  0
DICTIONARY
  5
BF4
330
3F1
100
AcDbDictionary
280
     1
281
     1
  3
ACAD_XREC_ROUNDTRIP
360
BF5
  0
DICTIONARY
  5
444
330
389
100
AcDbDictionary
280
     1
281
     1
  3
ACAD_ROUNDTRIP_2008_TABLESTYLE_CELLSTYLEMAP
360
C3D
  3
ACAD_XREC_ROUNDTRIP
360
C3F
  0
DICTIONARY
  5
C4A
330
3F8
100
AcDbDictionary
280
     1
281
     1
  3
ACAD_XREC_ROUNDTRIP
360
C4B
  0
DICTIONARY
  5
C4E
330
3FA
100
AcDbDictionary
280
     1
281
     1
  3
ACAD_XREC_ROUNDTRIP
360
C4F
  0
DICTIONARY
  5
C4C
330
3F9
100
AcDbDictionary
280
     1
281
     1
  3
ACAD_XREC_ROUNDTRIP
360
C4D
  0
DICTIONARY
  5
C48
330
3F7
100
AcDbDictionary
280
     1
281
     1
  3
ACAD_XREC_ROUNDTRIP
360
C49
  0
DICTIONARY
  5
C56
330
3FE
100
AcDbDictionary
280
     1
281
     1
  3
ACAD_XREC_ROUNDTRIP
360
C57
  0
DICTIONARY
  5
C5E
330
402
100
AcDbDictionary
280
     1
281
     1
  3
ACAD_XREC_ROUNDTRIP
360
C5F
  0
DICTIONARY
  5
C50
330
3FB
100
AcDbDictionary
280
     1
281
     1
  3
ACAD_XREC_ROUNDTRIP
360
C51
  0
DICTIONARY
  5
C54
330
3FD
100
AcDbDictionary
280
     1
281
     1
  3
ACAD_XREC_ROUNDTRIP
360
C55
  0
DICTIONARY
  5
C72
330
C02
100
AcDbDictionary
280
     1
281
     1
  3
ACAD_XREC_ROUNDTRIP
360
C73
  0
DICTIONARY
  5
C5C
330
401
100
AcDbDictionary
280
     1
281
     1
  3
ACAD_XREC_ROUNDTRIP
360
C5D
  0
DICTIONARY
  5
C40
330
3F3
100
AcDbDictionary
280
     1
281
     1
  3
ACAD_XREC_ROUNDTRIP
360
C41
  0
DICTIONARY
  5
C42
330
3F4
100
AcDbDictionary
280
     1
281
     1
  3
ACAD_XREC_ROUNDTRIP
360
C43
  0
DICTIONARY
  5
C44
330
3F5
100
AcDbDictionary
280
     1
281
     1
  3
ACAD_XREC_ROUNDTRIP
360
C45
  0
DICTIONARY
  5
C46
330
3F6
100
AcDbDictionary
280
     1
281
     1
  3
ACAD_XREC_ROUNDTRIP
360
C47
  0
DICTIONARY
  5
C62
330
BFA
100
AcDbDictionary
280
     1
281
     1
  3
ACAD_XREC_ROUNDTRIP
360
C63
  0
DICTIONARY
  5
C6E
330
C00
100
AcDbDictionary
280
     1
281
     1
  3
ACAD_XREC_ROUNDTRIP
360
C6F
  0
DICTIONARY
  5
C5A
330
400
100
AcDbDictionary
280
     1
281
     1
  3
ACAD_XREC_ROUNDTRIP
360
C5B
  0
DICTIONARY
  5
C70
330
C01
100
AcDbDictionary
280
     1
281
     1
  3
ACAD_XREC_ROUNDTRIP
360
C71
  0
DICTIONARY
  5
C52
330
3FC
100
AcDbDictionary
280
     1
281
     1
  3
ACAD_XREC_ROUNDTRIP
360
C53
  0
DICTIONARY
  5
C6C
330
BFF
100
AcDbDictionary
280
     1
281
     1
  3
ACAD_XREC_ROUNDTRIP
360
C6D
  0
DICTIONARY
  5
C6A
330
BFE
100
AcDbDictionary
280
     1
281
     1
  3
ACAD_XREC_ROUNDTRIP
360
C6B
  0
DICTIONARY
  5
C64
330
BFB
100
AcDbDictionary
280
     1
281
     1
  3
ACAD_XREC_ROUNDTRIP
360
C65
  0
DICTIONARY
  5
C66
330
BFC
100
AcDbDictionary
280
     1
281
     1
  3
ACAD_XREC_ROUNDTRIP
360
C67
  0
DICTIONARY
  5
C58
330
3FF
100
AcDbDictionary
280
     1
281
     1
  3
ACAD_XREC_ROUNDTRIP
360
C59
  0
DICTIONARY
  5
C60
330
BF9
100
AcDbDictionary
280
     1
281
     1
  3
ACAD_XREC_ROUNDTRIP
360
C61
  0
DICTIONARY
  5
C68
330
BFD
100
AcDbDictionary
280
     1
281
     1
  3
ACAD_XREC_ROUNDTRIP
360
C69
  0
XRECORD
  5
BF3
102
{ACAD_REACTORS
330
BF2
102
}
330
BF2
100
AcDbXrecord
280
     1
102
MATERIAL
148
0.0
149
0.0
149
0.0
 93
        0
 94
      127
282
     0
 72
     1
 77
     1
171
     1
175
     1
179
     1
273
     0
  0
XRECORD
  5
BF1
102
{ACAD_REACTORS
330
BF0
102
}
330
BF0
100
AcDbXrecord
280
     1
102
MATERIAL
148
0.0
149
0.0
149
0.0
 93
        0
 94
      127
282
     0
 72
     1
 77
     1
171
     1
175
     1
179
     1
273
     0
  0
XRECORD
  5
BF5
102
{ACAD_REACTORS
330
BF4
102
}
330
BF4
100
AcDbXrecord
280
     1
102
MATERIAL
148
0.0
149
0.0
149
0.0
 93
        0
 94
      127
282
     0
 72
     1
 77
     1
171
     1
175
     1
179
     1
273
     0
  0
CELLSTYLEMAP
  5
C3D
102
{ACAD_REACTORS
330
444
102
}
330
444
100
AcDbCellStyleMap
 90
        3
300
CELLSTYLE
  1
TABLEFORMAT_BEGIN
 90
        5
170
     1
 91
        0
 92
    32768
 62
   257
 93
        1
300
CONTENTFORMAT
  1
CONTENTFORMAT_BEGIN
 90
        0
 91
        0
 92
        4
 93
        0
300

 40
0.0
140
1.0
 94
        5
 62
     0
340
10
144
6.0
309
CONTENTFORMAT_END
171
     1
301
MARGIN
  1
CELLMARGIN_BEGIN
 40
1.5
 40
1.5
 40
1.5
 40
1.5
 40
0.18
 40
0.18
309
CELLMARGIN_END
 94
        6
 95
        1
302
GRIDFORMAT
  1
GRIDFORMAT_BEGIN
 90
        0
 91
        1
 62
     0
 92
       -2
340
0
 93
        0
 40
0.045
309
GRIDFORMAT_END
 95
        2
302
GRIDFORMAT
  1
GRIDFORMAT_BEGIN
 90
        0
 91
        1
 62
     0
 92
       -2
340
0
 93
        0
 40
0.045
309
GRIDFORMAT_END
 95
        4
302
GRIDFORMAT
  1
GRIDFORMAT_BEGIN
 90
        0
 91
        1
 62
     0
 92
       -2
340
0
 93
        0
 40
0.045
309
GRIDFORMAT_END
 95
        8
302
GRIDFORMAT
  1
GRIDFORMAT_BEGIN
 90
        0
 91
        1
 62
     0
 92
       -2
340
0
 93
        0
 40
0.045
309
GRIDFORMAT_END
 95
       16
302
GRIDFORMAT
  1
GRIDFORMAT_BEGIN
 90
        0
 91
        1
 62
     0
 92
       -2
340
0
 93
        0
 40
0.045
309
GRIDFORMAT_END
 95
       32
302
GRIDFORMAT
  1
GRIDFORMAT_BEGIN
 90
        0
 91
        1
 62
     0
 92
       -2
340
0
 93
        0
 40
0.045
309
GRIDFORMAT_END
309
TABLEFORMAT_END
  1
CELLSTYLE_BEGIN
 90
        1
 91
        1
300
_TITLE
309
CELLSTYLE_END
300
CELLSTYLE
  1
TABLEFORMAT_BEGIN
 90
        5
170
     1
 91
        0
 92
        0
 62
   257
 93
        1
300
CONTENTFORMAT
  1
CONTENTFORMAT_BEGIN
 90
        0
 91
        0
 92
        4
 93
        0
300

 40
0.0
140
1.0
 94
        5
 62
     0
340
10
144
4.5
309
CONTENTFORMAT_END
171
     1
301
MARGIN
  1
CELLMARGIN_BEGIN
 40
1.5
 40
1.5
 40
1.5
 40
1.5
 40
0.18
 40
0.18
309
CELLMARGIN_END
 94
        6
 95
        1
302
GRIDFORMAT
  1
GRIDFORMAT_BEGIN
 90
        0
 91
        1
 62
     0
 92
       -2
340
0
 93
        0
 40
0.045
309
GRIDFORMAT_END
 95
        2
302
GRIDFORMAT
  1
GRIDFORMAT_BEGIN
 90
        0
 91
        1
 62
     0
 92
       -2
340
0
 93
        0
 40
0.045
309
GRIDFORMAT_END
 95
        4
302
GRIDFORMAT
  1
GRIDFORMAT_BEGIN
 90
        0
 91
        1
 62
     0
 92
       -2
340
0
 93
        0
 40
0.045
309
GRIDFORMAT_END
 95
        8
302
GRIDFORMAT
  1
GRIDFORMAT_BEGIN
 90
        0
 91
        1
 62
     0
 92
       -2
340
0
 93
        0
 40
0.045
309
GRIDFORMAT_END
 95
       16
302
GRIDFORMAT
  1
GRIDFORMAT_BEGIN
 90
        0
 91
        1
 62
     0
 92
       -2
340
0
 93
        0
 40
0.045
309
GRIDFORMAT_END
 95
       32
302
GRIDFORMAT
  1
GRIDFORMAT_BEGIN
 90
        0
 91
        1
 62
     0
 92
       -2
340
0
 93
        0
 40
0.045
309
GRIDFORMAT_END
309
TABLEFORMAT_END
  1
CELLSTYLE_BEGIN
 90
        2
 91
        1
300
_HEADER
309
CELLSTYLE_END
300
CELLSTYLE
  1
TABLEFORMAT_BEGIN
 90
        5
170
     1
 91
        0
 92
        0
 62
   257
 93
        1
300
CONTENTFORMAT
  1
CONTENTFORMAT_BEGIN
 90
        0
 91
        0
 92
        4
 93
        0
300

 40
0.0
140
1.0
 94
        2
 62
     0
340
10
144
4.5
309
CONTENTFORMAT_END
171
     1
301
MARGIN
  1
CELLMARGIN_BEGIN
 40
1.5
 40
1.5
 40
1.5
 40
1.5
 40
0.18
 40
0.18
309
CELLMARGIN_END
 94
        6
 95
        1
302
GRIDFORMAT
  1
GRIDFORMAT_BEGIN
 90
        0
 91
        1
 62
     0
 92
       -2
340
0
 93
        0
 40
0.045
309
GRIDFORMAT_END
 95
        2
302
GRIDFORMAT
  1
GRIDFORMAT_BEGIN
 90
        0
 91
        1
 62
     0
 92
       -2
340
0
 93
        0
 40
0.045
309
GRIDFORMAT_END
 95
        4
302
GRIDFORMAT
  1
GRIDFORMAT_BEGIN
 90
        0
 91
        1
 62
     0
 92
       -2
340
0
 93
        0
 40
0.045
309
GRIDFORMAT_END
 95
        8
302
GRIDFORMAT
  1
GRIDFORMAT_BEGIN
 90
        0
 91
        1
 62
     0
 92
       -2
340
0
 93
        0
 40
0.045
309
GRIDFORMAT_END
 95
       16
302
GRIDFORMAT
  1
GRIDFORMAT_BEGIN
 90
        0
 91
        1
 62
     0
 92
       -2
340
0
 93
        0
 40
0.045
309
GRIDFORMAT_END
 95
       32
302
GRIDFORMAT
  1
GRIDFORMAT_BEGIN
 90
        0
 91
        1
 62
     0
 92
       -2
340
0
 93
        0
 40
0.045
309
GRIDFORMAT_END
309
TABLEFORMAT_END
  1
CELLSTYLE_BEGIN
 90
        3
 91
        2
300
_DATA
309
CELLSTYLE_END
  0
XRECORD
  5
C3F
102
{ACAD_REACTORS
330
444
102
}
330
444
100
AcDbXrecord
280
     1
102
ACAD_ROUNDTRIP_PRE2007_TABLESTYLE
 90
        4
 91
        0
  1

 92
        4
 93
        0
  2

 94
        4
 95
        0
  3

  0
XRECORD
  5
C4B
102
{ACAD_REACTORS
330
C4A
102
}
330
C4A
100
AcDbXrecord
280
     1
102
RTVSPropertyOp0
 70
     1
102
RTVSPropertyOp1
 70
     1
102
RTVSPropertyOp2
 70
     1
102
RTVSPropertyOp3
 70
     1
102
RTVSPropertyOp4
 70
     1
102
RTVSPropertyOp5
 70
     1
102
RTVSPropertyOp6
 70
     1
102
RTVSPropertyOp7
 70
     1
102
RTVSPropertyOp8
 70
     1
102
RTVSPropertyOp9
 70
     1
102
RTVSPropertyOp10
 70
     1
102
RTVSPropertyOp11
 70
     1
102
RTVSPropertyOp12
 70
     1
102
RTVSPropertyOp13
 70
     1
102
RTVSPropertyOp14
 70
     1
102
RTVSPropertyOp15
 70
     1
102
RTVSPropertyOp16
 70
     1
102
RTVSPropertyOp17
 70
     1
102
RTVSPropertyOp18
 70
     1
102
RTVSPropertyOp19
 70
     1
102
RTVSPropertyOp20
 70
     1
102
RTVSPropertyOp21
 70
     1
102
RTVSPropertyOp22
 70
     1
102
RTVSPropertyOp23
 70
     1
102
RTVSPropertyOp24
 70
     1
102
RTVSPropertyOp25
 70
     1
102
RTVSPropertyOp26
 70
     1
102
RTVSPropertyOp27
 70
     1
102
RTVSPropertyOp28
 70
     1
102
RTVSPropertyOp29
 70
     1
102
RTVSPropertyOp30
 70
     1
102
RTVSPropertyOp31
 70
     1
102
RTVSPropertyOp32
 70
     1
  0
XRECORD
  5
C4F
102
{ACAD_REACTORS
330
C4E
102
}
330
C4E
100
AcDbXrecord
280
     1
102
RTVSPropertyOp0
 70
     1
102
RTVSPropertyOp1
 70
     1
102
RTVSPropertyOp2
 70
     1
102
RTVSPropertyOp3
 70
     1
102
RTVSPropertyOp4
 70
     1
102
RTVSPropertyOp5
 70
     1
102
RTVSPropertyOp6
 70
     1
102
RTVSPropertyOp7
 70
     1
102
RTVSPropertyOp8
 70
     1
102
RTVSPropertyOp9
 70
     1
102
RTVSPropertyOp10
 70
     1
102
RTVSPropertyOp11
 70
     1
102
RTVSPropertyOp12
 70
     1
102
RTVSPropertyOp13
 70
     1
102
RTVSPropertyOp14
 70
     1
102
RTVSPropertyOp15
 70
     1
102
RTVSPropertyOp16
 70
     1
102
RTVSPropertyOp17
 70
     1
102
RTVSPropertyOp18
 70
     1
102
RTVSPropertyOp19
 70
     1
102
RTVSPropertyOp20
 70
     1
102
RTVSPropertyOp21
 70
     1
102
RTVSPropertyOp22
 70
     1
102
RTVSPropertyOp23
 70
     1
102
RTVSPropertyOp24
 70
     1
102
RTVSPropertyOp25
 70
     1
102
RTVSPropertyOp26
 70
     1
102
RTVSPropertyOp27
 70
     1
102
RTVSPropertyOp28
 70
     1
102
RTVSPropertyOp29
 70
     1
102
RTVSPropertyOp30
 70
     1
102
RTVSPropertyOp31
 70
     1
102
RTVSPropertyOp32
 70
     1
  0
XRECORD
  5
C4D
102
{ACAD_REACTORS
330
C4C
102
}
330
C4C
100
AcDbXrecord
280
     1
102
RTVSPropertyOp0
 70
     1
102
RTVSPropertyOp1
 70
     1
102
RTVSPropertyOp2
 70
     1
102
RTVSPropertyOp3
 70
     1
102
RTVSPropertyOp4
 70
     1
102
RTVSPropertyOp5
 70
     1
102
RTVSPropertyOp6
 70
     1
102
RTVSPropertyOp7
 70
     1
102
RTVSPropertyOp8
 70
     1
102
RTVSPropertyOp9
 70
     1
102
RTVSPropertyOp10
 70
     1
102
RTVSPropertyOp11
 70
     1
102
RTVSPropertyOp12
 70
     1
102
RTVSPropertyOp13
 70
     1
102
RTVSPropertyOp14
 70
     1
102
RTVSPropertyOp15
 70
     1
102
RTVSPropertyOp16
 70
     1
102
RTVSPropertyOp17
 70
     1
102
RTVSPropertyOp18
 70
     1
102
RTVSPropertyOp19
 70
     1
102
RTVSPropertyOp20
 70
     1
102
RTVSPropertyOp21
 70
     1
102
RTVSPropertyOp22
 70
     1
102
RTVSPropertyOp23
 70
     1
102
RTVSPropertyOp24
 70
     1
102
RTVSPropertyOp25
 70
     1
102
RTVSPropertyOp26
 70
     1
102
RTVSPropertyOp27
 70
     1
102
RTVSPropertyOp28
 70
     1
102
RTVSPropertyOp29
 70
     1
102
RTVSPropertyOp30
 70
     1
102
RTVSPropertyOp31
 70
     1
102
RTVSPropertyOp32
 70
     1
  0
XRECORD
  5
C49
102
{ACAD_REACTORS
330
C48
102
}
330
C48
100
AcDbXrecord
280
     1
102
RTVSPropertyOp0
 70
     1
102
RTVSPropertyOp1
 70
     1
102
RTVSPropertyOp2
 70
     1
102
RTVSPropertyOp3
 70
     1
102
RTVSPropertyOp4
 70
     1
102
RTVSPropertyOp5
 70
     1
102
RTVSPropertyOp6
 70
     1
102
RTVSPropertyOp7
 70
     1
102
RTVSPropertyOp8
 70
     1
102
RTVSPropertyOp9
 70
     1
102
RTVSPropertyOp10
 70
     1
102
RTVSPropertyOp11
 70
     1
102
RTVSPropertyOp12
 70
     1
102
RTVSPropertyOp13
 70
     1
102
RTVSPropertyOp14
 70
     1
102
RTVSPropertyOp15
 70
     1
102
RTVSPropertyOp16
 70
     1
102
RTVSPropertyOp17
 70
     1
102
RTVSPropertyOp18
 70
     1
102
RTVSPropertyOp19
 70
     1
102
RTVSPropertyOp20
 70
     1
102
RTVSPropertyOp21
 70
     1
102
RTVSPropertyOp22
 70
     1
102
RTVSPropertyOp23
 70
     1
102
RTVSPropertyOp24
 70
     1
102
RTVSPropertyOp25
 70
     1
102
RTVSPropertyOp26
 70
     1
102
RTVSPropertyOp27
 70
     1
102
RTVSPropertyOp28
 70
     1
102
RTVSPropertyOp29
 70
     1
102
RTVSPropertyOp30
 70
     1
102
RTVSPropertyOp31
 70
     1
102
RTVSPropertyOp32
 70
     1
  0
XRECORD
  5
C57
102
{ACAD_REACTORS
330
C56
102
}
330
C56
100
AcDbXrecord
280
     1
102
RTVSPropertyOp0
 70
     1
102
RTVSPropertyOp1
 70
     1
102
RTVSPropertyOp2
 70
     1
102
RTVSPropertyOp3
 70
     1
102
RTVSPropertyOp4
 70
     1
102
RTVSPropertyOp5
 70
     1
102
RTVSPropertyOp6
 70
     1
102
RTVSPropertyOp7
 70
     1
102
RTVSPropertyOp8
 70
     1
102
RTVSPropertyOp9
 70
     1
102
RTVSPropertyOp10
 70
     1
102
RTVSPropertyOp11
 70
     1
102
RTVSPropertyOp12
 70
     1
102
RTVSPropertyOp13
 70
     1
102
RTVSPropertyOp14
 70
     1
102
RTVSPropertyOp15
 70
     1
102
RTVSPropertyOp16
 70
     1
102
RTVSPropertyOp17
 70
     1
102
RTVSPropertyOp18
 70
     1
102
RTVSPropertyOp19
 70
     1
102
RTVSPropertyOp20
 70
     1
102
RTVSPropertyOp21
 70
     1
102
RTVSPropertyOp22
 70
     1
102
RTVSPropertyOp23
 70
     1
102
RTVSPropertyOp24
 70
     1
102
RTVSPropertyOp25
 70
     1
102
RTVSPropertyOp26
 70
     1
102
RTVSPropertyOp27
 70
     1
102
RTVSPropertyOp28
 70
     1
102
RTVSPropertyOp29
 70
     1
102
RTVSPropertyOp30
 70
     1
102
RTVSPropertyOp31
 70
     1
102
RTVSPropertyOp32
 70
     1
  0
XRECORD
  5
C5F
102
{ACAD_REACTORS
330
C5E
102
}
330
C5E
100
AcDbXrecord
280
     1
102
RTVSPropertyOp0
 70
     1
102
RTVSPropertyOp1
 70
     1
102
RTVSPropertyOp2
 70
     1
102
RTVSPropertyOp3
 70
     1
102
RTVSPropertyOp4
 70
     1
102
RTVSPropertyOp5
 70
     1
102
RTVSPropertyOp6
 70
     1
102
RTVSPropertyOp7
 70
     1
102
RTVSPropertyOp8
 70
     1
102
RTVSPropertyOp9
 70
     1
102
RTVSPropertyOp10
 70
     1
102
RTVSPropertyOp11
 70
     1
102
RTVSPropertyOp12
 70
     1
102
RTVSPropertyOp13
 70
     1
102
RTVSPropertyOp14
 70
     1
102
RTVSPropertyOp15
 70
     1
102
RTVSPropertyOp16
 70
     1
102
RTVSPropertyOp17
 70
     1
102
RTVSPropertyOp18
 70
     1
102
RTVSPropertyOp19
 70
     1
102
RTVSPropertyOp20
 70
     1
102
RTVSPropertyOp21
 70
     1
102
RTVSPropertyOp22
 70
     1
102
RTVSPropertyOp23
 70
     1
102
RTVSPropertyOp24
 70
     1
102
RTVSPropertyOp25
 70
     1
102
RTVSPropertyOp26
 70
     1
102
RTVSPropertyOp27
 70
     1
102
RTVSPropertyOp28
 70
     1
102
RTVSPropertyOp29
 70
     1
102
RTVSPropertyOp30
 70
     1
102
RTVSPropertyOp31
 70
     1
102
RTVSPropertyOp32
 70
     1
  0
XRECORD
  5
C51
102
{ACAD_REACTORS
330
C50
102
}
330
C50
100
AcDbXrecord
280
     1
102
RTVSPropertyOp0
 70
     1
102
RTVSPropertyOp1
 70
     1
102
RTVSPropertyOp2
 70
     1
102
RTVSPropertyOp3
 70
     1
102
RTVSPropertyOp4
 70
     1
102
RTVSPropertyOp5
 70
     1
102
RTVSPropertyOp6
 70
     1
102
RTVSPropertyOp7
 70
     1
102
RTVSPropertyOp8
 70
     1
102
RTVSPropertyOp9
 70
     1
102
RTVSPropertyOp10
 70
     1
102
RTVSPropertyOp11
 70
     1
102
RTVSPropertyOp12
 70
     1
102
RTVSPropertyOp13
 70
     1
102
RTVSPropertyOp14
 70
     1
102
RTVSPropertyOp15
 70
     1
102
RTVSPropertyOp16
 70
     1
102
RTVSPropertyOp17
 70
     1
102
RTVSPropertyOp18
 70
     1
102
RTVSPropertyOp19
 70
     1
102
RTVSPropertyOp20
 70
     1
102
RTVSPropertyOp21
 70
     1
102
RTVSPropertyOp22
 70
     1
102
RTVSPropertyOp23
 70
     1
102
RTVSPropertyOp24
 70
     1
102
RTVSPropertyOp25
 70
     1
102
RTVSPropertyOp26
 70
     1
102
RTVSPropertyOp27
 70
     1
102
RTVSPropertyOp28
 70
     1
102
RTVSPropertyOp29
 70
     1
102
RTVSPropertyOp30
 70
     1
102
RTVSPropertyOp31
 70
     1
102
RTVSPropertyOp32
 70
     1
  0
XRECORD
  5
C55
102
{ACAD_REACTORS
330
C54
102
}
330
C54
100
AcDbXrecord
280
     1
102
RTVSPropertyOp0
 70
     1
102
RTVSPropertyOp1
 70
     1
102
RTVSPropertyOp2
 70
     1
102
RTVSPropertyOp3
 70
     1
102
RTVSPropertyOp4
 70
     1
102
RTVSPropertyOp5
 70
     1
102
RTVSPropertyOp6
 70
     1
102
RTVSPropertyOp7
 70
     1
102
RTVSPropertyOp8
 70
     1
102
RTVSPropertyOp9
 70
     1
102
RTVSPropertyOp10
 70
     1
102
RTVSPropertyOp11
 70
     1
102
RTVSPropertyOp12
 70
     1
102
RTVSPropertyOp13
 70
     1
102
RTVSPropertyOp14
 70
     1
102
RTVSPropertyOp15
 70
     1
102
RTVSPropertyOp16
 70
     1
102
RTVSPropertyOp17
 70
     1
102
RTVSPropertyOp18
 70
     1
102
RTVSPropertyOp19
 70
     1
102
RTVSPropertyOp20
 70
     1
102
RTVSPropertyOp21
 70
     1
102
RTVSPropertyOp22
 70
     1
102
RTVSPropertyOp23
 70
     1
102
RTVSPropertyOp24
 70
     1
102
RTVSPropertyOp25
 70
     1
102
RTVSPropertyOp26
 70
     1
102
RTVSPropertyOp27
 70
     1
102
RTVSPropertyOp28
 70
     1
102
RTVSPropertyOp29
 70
     1
102
RTVSPropertyOp30
 70
     1
102
RTVSPropertyOp31
 70
     1
102
RTVSPropertyOp32
 70
     1
  0
XRECORD
  5
C73
102
{ACAD_REACTORS
330
C72
102
}
330
C72
100
AcDbXrecord
280
     1
102
RTVSPropertyOp0
 70
     0
102
RTVSPropertyOp1
 70
     0
102
RTVSPropertyOp2
 70
     0
102
RTVSPropertyOp3
 70
     0
102
RTVSPropertyOp4
 70
     0
102
RTVSPropertyOp5
 70
     0
102
RTVSPropertyOp6
 70
     0
102
RTVSPropertyOp7
 70
     0
102
RTVSPropertyOp8
 70
     0
102
RTVSPropertyOp9
 70
     0
102
RTVSPropertyOp10
 70
     0
102
RTVSPropertyOp11
 70
     0
102
RTVSPropertyOp12
 70
     0
102
RTVSPropertyOp13
 70
     0
102
RTVSPropertyOp14
 70
     2
102
RTVSPropertyOp15
 70
     0
102
RTVSPropertyOp16
 70
     0
102
RTVSPropertyOp17
 70
     0
102
RTVSPropertyOp18
 70
     0
102
RTVSPropertyOp19
 70
     0
102
RTVSPropertyOp20
 70
     0
102
RTVSPropertyOp21
 70
     0
102
RTVSPropertyOp22
 70
     0
102
RTVSPropertyOp23
 70
     0
102
RTVSPropertyOp24
 70
     0
102
RTVSPropertyOp25
 70
     0
102
RTVSPropertyOp26
 70
     0
102
RTVSPropertyOp27
 70
     0
102
RTVSPropertyOp28
 70
     0
102
RTVSPropertyOp29
 70
     0
102
RTVSPropertyOp30
 70
     0
102
RTVSPropertyOp31
 70
     0
102
RTVSPropertyOp32
 70
     0
  0
XRECORD
  5
C5D
102
{ACAD_REACTORS
330
C5C
102
}
330
C5C
100
AcDbXrecord
280
     1
102
RTVSPropertyOp0
 70
     1
102
RTVSPropertyOp1
 70
     1
102
RTVSPropertyOp2
 70
     1
102
RTVSPropertyOp3
 70
     1
102
RTVSPropertyOp4
 70
     1
102
RTVSPropertyOp5
 70
     1
102
RTVSPropertyOp6
 70
     1
102
RTVSPropertyOp7
 70
     1
102
RTVSPropertyOp8
 70
     1
102
RTVSPropertyOp9
 70
     1
102
RTVSPropertyOp10
 70
     1
102
RTVSPropertyOp11
 70
     1
102
RTVSPropertyOp12
 70
     1
102
RTVSPropertyOp13
 70
     1
102
RTVSPropertyOp14
 70
     1
102
RTVSPropertyOp15
 70
     1
102
RTVSPropertyOp16
 70
     1
102
RTVSPropertyOp17
 70
     1
102
RTVSPropertyOp18
 70
     1
102
RTVSPropertyOp19
 70
     1
102
RTVSPropertyOp20
 70
     1
102
RTVSPropertyOp21
 70
     1
102
RTVSPropertyOp22
 70
     1
102
RTVSPropertyOp23
 70
     1
102
RTVSPropertyOp24
 70
     1
102
RTVSPropertyOp25
 70
     1
102
RTVSPropertyOp26
 70
     1
102
RTVSPropertyOp27
 70
     1
102
RTVSPropertyOp28
 70
     1
102
RTVSPropertyOp29
 70
     1
102
RTVSPropertyOp30
 70
     1
102
RTVSPropertyOp31
 70
     1
102
RTVSPropertyOp32
 70
     1
  0
XRECORD
  5
C41
102
{ACAD_REACTORS
330
C40
102
}
330
C40
100
AcDbXrecord
280
     1
102
RTVSPropertyOp0
 70
     1
102
RTVSPropertyOp1
 70
     1
102
RTVSPropertyOp2
 70
     1
102
RTVSPropertyOp3
 70
     1
102
RTVSPropertyOp4
 70
     1
102
RTVSPropertyOp5
 70
     1
102
RTVSPropertyOp6
 70
     1
102
RTVSPropertyOp7
 70
     1
102
RTVSPropertyOp8
 70
     1
102
RTVSPropertyOp9
 70
     1
102
RTVSPropertyOp10
 70
     1
102
RTVSPropertyOp11
 70
     1
102
RTVSPropertyOp12
 70
     1
102
RTVSPropertyOp13
 70
     1
102
RTVSPropertyOp14
 70
     1
102
RTVSPropertyOp15
 70
     1
102
RTVSPropertyOp16
 70
     1
102
RTVSPropertyOp17
 70
     1
102
RTVSPropertyOp18
 70
     1
102
RTVSPropertyOp19
 70
     1
102
RTVSPropertyOp20
 70
     1
102
RTVSPropertyOp21
 70
     1
102
RTVSPropertyOp22
 70
     1
102
RTVSPropertyOp23
 70
     1
102
RTVSPropertyOp24
 70
     1
102
RTVSPropertyOp25
 70
     1
102
RTVSPropertyOp26
 70
     1
102
RTVSPropertyOp27
 70
     1
102
RTVSPropertyOp28
 70
     1
102
RTVSPropertyOp29
 70
     1
102
RTVSPropertyOp30
 70
     1
102
RTVSPropertyOp31
 70
     1
102
RTVSPropertyOp32
 70
     1
  0
XRECORD
  5
C43
102
{ACAD_REACTORS
330
C42
102
}
330
C42
100
AcDbXrecord
280
     1
102
RTVSPropertyOp0
 70
     1
102
RTVSPropertyOp1
 70
     1
102
RTVSPropertyOp2
 70
     1
102
RTVSPropertyOp3
 70
     1
102
RTVSPropertyOp4
 70
     1
102
RTVSPropertyOp5
 70
     1
102
RTVSPropertyOp6
 70
     1
102
RTVSPropertyOp7
 70
     1
102
RTVSPropertyOp8
 70
     1
102
RTVSPropertyOp9
 70
     1
102
RTVSPropertyOp10
 70
     1
102
RTVSPropertyOp11
 70
     1
102
RTVSPropertyOp12
 70
     1
102
RTVSPropertyOp13
 70
     1
102
RTVSPropertyOp14
 70
     1
102
RTVSPropertyOp15
 70
     1
102
RTVSPropertyOp16
 70
     1
102
RTVSPropertyOp17
 70
     1
102
RTVSPropertyOp18
 70
     1
102
RTVSPropertyOp19
 70
     1
102
RTVSPropertyOp20
 70
     1
102
RTVSPropertyOp21
 70
     1
102
RTVSPropertyOp22
 70
     1
102
RTVSPropertyOp23
 70
     1
102
RTVSPropertyOp24
 70
     1
102
RTVSPropertyOp25
 70
     1
102
RTVSPropertyOp26
 70
     1
102
RTVSPropertyOp27
 70
     1
102
RTVSPropertyOp28
 70
     1
102
RTVSPropertyOp29
 70
     1
102
RTVSPropertyOp30
 70
     1
102
RTVSPropertyOp31
 70
     1
102
RTVSPropertyOp32
 70
     1
  0
XRECORD
  5
C45
102
{ACAD_REACTORS
330
C44
102
}
330
C44
100
AcDbXrecord
280
     1
102
RTVSPropertyOp0
 70
     1
102
RTVSPropertyOp1
 70
     1
102
RTVSPropertyOp2
 70
     1
102
RTVSPropertyOp3
 70
     1
102
RTVSPropertyOp4
 70
     1
102
RTVSPropertyOp5
 70
     1
102
RTVSPropertyOp6
 70
     1
102
RTVSPropertyOp7
 70
     1
102
RTVSPropertyOp8
 70
     1
102
RTVSPropertyOp9
 70
     1
102
RTVSPropertyOp10
 70
     1
102
RTVSPropertyOp11
 70
     1
102
RTVSPropertyOp12
 70
     1
102
RTVSPropertyOp13
 70
     1
102
RTVSPropertyOp14
 70
     1
102
RTVSPropertyOp15
 70
     1
102
RTVSPropertyOp16
 70
     1
102
RTVSPropertyOp17
 70
     1
102
RTVSPropertyOp18
 70
     1
102
RTVSPropertyOp19
 70
     1
102
RTVSPropertyOp20
 70
     1
102
RTVSPropertyOp21
 70
     1
102
RTVSPropertyOp22
 70
     1
102
RTVSPropertyOp23
 70
     1
102
RTVSPropertyOp24
 70
     1
102
RTVSPropertyOp25
 70
     1
102
RTVSPropertyOp26
 70
     1
102
RTVSPropertyOp27
 70
     1
102
RTVSPropertyOp28
 70
     1
102
RTVSPropertyOp29
 70
     1
102
RTVSPropertyOp30
 70
     1
102
RTVSPropertyOp31
 70
     1
102
RTVSPropertyOp32
 70
     1
  0
XRECORD
  5
C47
102
{ACAD_REACTORS
330
C46
102
}
330
C46
100
AcDbXrecord
280
     1
102
RTVSPropertyOp0
 70
     1
102
RTVSPropertyOp1
 70
     1
102
RTVSPropertyOp2
 70
     1
102
RTVSPropertyOp3
 70
     1
102
RTVSPropertyOp4
 70
     1
102
RTVSPropertyOp5
 70
     1
102
RTVSPropertyOp6
 70
     1
102
RTVSPropertyOp7
 70
     1
102
RTVSPropertyOp8
 70
     1
102
RTVSPropertyOp9
 70
     1
102
RTVSPropertyOp10
 70
     1
102
RTVSPropertyOp11
 70
     1
102
RTVSPropertyOp12
 70
     1
102
RTVSPropertyOp13
 70
     1
102
RTVSPropertyOp14
 70
     1
102
RTVSPropertyOp15
 70
     1
102
RTVSPropertyOp16
 70
     1
102
RTVSPropertyOp17
 70
     1
102
RTVSPropertyOp18
 70
     1
102
RTVSPropertyOp19
 70
     1
102
RTVSPropertyOp20
 70
     1
102
RTVSPropertyOp21
 70
     1
102
RTVSPropertyOp22
 70
     1
102
RTVSPropertyOp23
 70
     1
102
RTVSPropertyOp24
 70
     1
102
RTVSPropertyOp25
 70
     1
102
RTVSPropertyOp26
 70
     1
102
RTVSPropertyOp27
 70
     1
102
RTVSPropertyOp28
 70
     1
102
RTVSPropertyOp29
 70
     1
102
RTVSPropertyOp30
 70
     1
102
RTVSPropertyOp31
 70
     1
102
RTVSPropertyOp32
 70
     1
  0
XRECORD
  5
C63
102
{ACAD_REACTORS
330
C62
102
}
330
C62
100
AcDbXrecord
280
     1
102
RTVSPropertyOp0
 70
     1
102
RTVSPropertyOp1
 70
     1
102
RTVSPropertyOp2
 70
     1
102
RTVSPropertyOp3
 70
     1
102
RTVSPropertyOp4
 70
     1
102
RTVSPropertyOp5
 70
     1
102
RTVSPropertyOp6
 70
     1
102
RTVSPropertyOp7
 70
     1
102
RTVSPropertyOp8
 70
     1
102
RTVSPropertyOp9
 70
     1
102
RTVSPropertyOp10
 70
     1
102
RTVSPropertyOp11
 70
     1
102
RTVSPropertyOp12
 70
     1
102
RTVSPropertyOp13
 70
     1
102
RTVSPropertyOp14
 70
     1
102
RTVSPropertyOp15
 70
     1
102
RTVSPropertyOp16
 70
     1
102
RTVSPropertyOp17
 70
     1
102
RTVSPropertyOp18
 70
     1
102
RTVSPropertyOp19
 70
     1
102
RTVSPropertyOp20
 70
     1
102
RTVSPropertyOp21
 70
     1
102
RTVSPropertyOp22
 70
     1
102
RTVSPropertyOp23
 70
     1
102
RTVSPropertyOp24
 70
     1
102
RTVSPropertyOp25
 70
     1
102
RTVSPropertyOp26
 70
     1
102
RTVSPropertyOp27
 70
     1
102
RTVSPropertyOp28
 70
     1
102
RTVSPropertyOp29
 70
     1
102
RTVSPropertyOp30
 70
     1
102
RTVSPropertyOp31
 70
     1
102
RTVSPropertyOp32
 70
     1
  0
XRECORD
  5
C6F
102
{ACAD_REACTORS
330
C6E
102
}
330
C6E
100
AcDbXrecord
280
     1
102
RTVSPropertyOp0
 70
     0
102
RTVSPropertyOp1
 70
     0
102
RTVSPropertyOp2
 70
     0
102
RTVSPropertyOp3
 70
     0
102
RTVSPropertyOp4
 70
     0
102
RTVSPropertyOp5
 70
     0
102
RTVSPropertyOp6
 70
     0
102
RTVSPropertyOp7
 70
     0
102
RTVSPropertyOp8
 70
     0
102
RTVSPropertyOp9
 70
     0
102
RTVSPropertyOp10
 70
     0
102
RTVSPropertyOp11
 70
     0
102
RTVSPropertyOp12
 70
     0
102
RTVSPropertyOp13
 70
     0
102
RTVSPropertyOp14
 70
     2
102
RTVSPropertyOp15
 70
     0
102
RTVSPropertyOp16
 70
     0
102
RTVSPropertyOp17
 70
     0
102
RTVSPropertyOp18
 70
     0
102
RTVSPropertyOp19
 70
     0
102
RTVSPropertyOp20
 70
     0
102
RTVSPropertyOp21
 70
     0
102
RTVSPropertyOp22
 70
     0
102
RTVSPropertyOp23
 70
     0
102
RTVSPropertyOp24
 70
     0
102
RTVSPropertyOp25
 70
     0
102
RTVSPropertyOp26
 70
     0
102
RTVSPropertyOp27
 70
     0
102
RTVSPropertyOp28
 70
     0
102
RTVSPropertyOp29
 70
     0
102
RTVSPropertyOp30
 70
     0
102
RTVSPropertyOp31
 70
     0
102
RTVSPropertyOp32
 70
     0
  0
XRECORD
  5
C5B
102
{ACAD_REACTORS
330
C5A
102
}
330
C5A
100
AcDbXrecord
280
     1
102
RTVSPropertyOp0
 70
     1
102
RTVSPropertyOp1
 70
     1
102
RTVSPropertyOp2
 70
     1
102
RTVSPropertyOp3
 70
     1
102
RTVSPropertyOp4
 70
     1
102
RTVSPropertyOp5
 70
     1
102
RTVSPropertyOp6
 70
     1
102
RTVSPropertyOp7
 70
     1
102
RTVSPropertyOp8
 70
     1
102
RTVSPropertyOp9
 70
     1
102
RTVSPropertyOp10
 70
     1
102
RTVSPropertyOp11
 70
     1
102
RTVSPropertyOp12
 70
     1
102
RTVSPropertyOp13
 70
     1
102
RTVSPropertyOp14
 70
     1
102
RTVSPropertyOp15
 70
     1
102
RTVSPropertyOp16
 70
     1
102
RTVSPropertyOp17
 70
     1
102
RTVSPropertyOp18
 70
     1
102
RTVSPropertyOp19
 70
     1
102
RTVSPropertyOp20
 70
     1
102
RTVSPropertyOp21
 70
     1
102
RTVSPropertyOp22
 70
     1
102
RTVSPropertyOp23
 70
     1
102
RTVSPropertyOp24
 70
     1
102
RTVSPropertyOp25
 70
     1
102
RTVSPropertyOp26
 70
     1
102
RTVSPropertyOp27
 70
     1
102
RTVSPropertyOp28
 70
     1
102
RTVSPropertyOp29
 70
     1
102
RTVSPropertyOp30
 70
     1
102
RTVSPropertyOp31
 70
     1
102
RTVSPropertyOp32
 70
     1
  0
XRECORD
  5
C71
102
{ACAD_REACTORS
330
C70
102
}
330
C70
100
AcDbXrecord
280
     1
102
RTVSPropertyOp0
 70
     0
102
RTVSPropertyOp1
 70
     0
102
RTVSPropertyOp2
 70
     0
102
RTVSPropertyOp3
 70
     0
102
RTVSPropertyOp4
 70
     0
102
RTVSPropertyOp5
 70
     0
102
RTVSPropertyOp6
 70
     0
102
RTVSPropertyOp7
 70
     0
102
RTVSPropertyOp8
 70
     0
102
RTVSPropertyOp9
 70
     0
102
RTVSPropertyOp10
 70
     0
102
RTVSPropertyOp11
 70
     0
102
RTVSPropertyOp12
 70
     0
102
RTVSPropertyOp13
 70
     0
102
RTVSPropertyOp14
 70
     2
102
RTVSPropertyOp15
 70
     0
102
RTVSPropertyOp16
 70
     0
102
RTVSPropertyOp17
 70
     0
102
RTVSPropertyOp18
 70
     0
102
RTVSPropertyOp19
 70
     0
102
RTVSPropertyOp20
 70
     0
102
RTVSPropertyOp21
 70
     0
102
RTVSPropertyOp22
 70
     0
102
RTVSPropertyOp23
 70
     0
102
RTVSPropertyOp24
 70
     0
102
RTVSPropertyOp25
 70
     0
102
RTVSPropertyOp26
 70
     0
102
RTVSPropertyOp27
 70
     0
102
RTVSPropertyOp28
 70
     0
102
RTVSPropertyOp29
 70
     0
102
RTVSPropertyOp30
 70
     0
102
RTVSPropertyOp31
 70
     0
102
RTVSPropertyOp32
 70
     0
  0
XRECORD
  5
C53
102
{ACAD_REACTORS
330
C52
102
}
330
C52
100
AcDbXrecord
280
     1
102
RTVSPropertyOp0
 70
     1
102
RTVSPropertyOp1
 70
     1
102
RTVSPropertyOp2
 70
     1
102
RTVSPropertyOp3
 70
     1
102
RTVSPropertyOp4
 70
     1
102
RTVSPropertyOp5
 70
     1
102
RTVSPropertyOp6
 70
     1
102
RTVSPropertyOp7
 70
     1
102
RTVSPropertyOp8
 70
     1
102
RTVSPropertyOp9
 70
     1
102
RTVSPropertyOp10
 70
     1
102
RTVSPropertyOp11
 70
     1
102
RTVSPropertyOp12
 70
     1
102
RTVSPropertyOp13
 70
     1
102
RTVSPropertyOp14
 70
     1
102
RTVSPropertyOp15
 70
     1
102
RTVSPropertyOp16
 70
     1
102
RTVSPropertyOp17
 70
     1
102
RTVSPropertyOp18
 70
     1
102
RTVSPropertyOp19
 70
     1
102
RTVSPropertyOp20
 70
     1
102
RTVSPropertyOp21
 70
     1
102
RTVSPropertyOp22
 70
     1
102
RTVSPropertyOp23
 70
     1
102
RTVSPropertyOp24
 70
     1
102
RTVSPropertyOp25
 70
     1
102
RTVSPropertyOp26
 70
     1
102
RTVSPropertyOp27
 70
     1
102
RTVSPropertyOp28
 70
     1
102
RTVSPropertyOp29
 70
     1
102
RTVSPropertyOp30
 70
     1
102
RTVSPropertyOp31
 70
     1
102
RTVSPropertyOp32
 70
     1
  0
XRECORD
  5
C6D
102
{ACAD_REACTORS
330
C6C
102
}
330
C6C
100
AcDbXrecord
280
     1
102
RTVSPropertyOp0
 70
     1
102
RTVSPropertyOp1
 70
     1
102
RTVSPropertyOp2
 70
     1
102
RTVSPropertyOp3
 70
     1
102
RTVSPropertyOp4
 70
     1
102
RTVSPropertyOp5
 70
     1
102
RTVSPropertyOp6
 70
     1
102
RTVSPropertyOp7
 70
     1
102
RTVSPropertyOp8
 70
     1
102
RTVSPropertyOp9
 70
     1
102
RTVSPropertyOp10
 70
     1
102
RTVSPropertyOp11
 70
     1
102
RTVSPropertyOp12
 70
     1
102
RTVSPropertyOp13
 70
     1
102
RTVSPropertyOp14
 70
     1
102
RTVSPropertyOp15
 70
     1
102
RTVSPropertyOp16
 70
     1
102
RTVSPropertyOp17
 70
     1
102
RTVSPropertyOp18
 70
     1
102
RTVSPropertyOp19
 70
     1
102
RTVSPropertyOp20
 70
     1
102
RTVSPropertyOp21
 70
     1
102
RTVSPropertyOp22
 70
     1
102
RTVSPropertyOp23
 70
     1
102
RTVSPropertyOp24
 70
     1
102
RTVSPropertyOp25
 70
     1
102
RTVSPropertyOp26
 70
     1
102
RTVSPropertyOp27
 70
     1
102
RTVSPropertyOp28
 70
     1
102
RTVSPropertyOp29
 70
     1
102
RTVSPropertyOp30
 70
     1
102
RTVSPropertyOp31
 70
     1
102
RTVSPropertyOp32
 70
     1
  0
XRECORD
  5
C6B
102
{ACAD_REACTORS
330
C6A
102
}
330
C6A
100
AcDbXrecord
280
     1
102
RTVSPropertyOp0
 70
     1
102
RTVSPropertyOp1
 70
     1
102
RTVSPropertyOp2
 70
     1
102
RTVSPropertyOp3
 70
     1
102
RTVSPropertyOp4
 70
     1
102
RTVSPropertyOp5
 70
     1
102
RTVSPropertyOp6
 70
     1
102
RTVSPropertyOp7
 70
     1
102
RTVSPropertyOp8
 70
     1
102
RTVSPropertyOp9
 70
     1
102
RTVSPropertyOp10
 70
     1
102
RTVSPropertyOp11
 70
     1
102
RTVSPropertyOp12
 70
     1
102
RTVSPropertyOp13
 70
     1
102
RTVSPropertyOp14
 70
     1
102
RTVSPropertyOp15
 70
     1
102
RTVSPropertyOp16
 70
     1
102
RTVSPropertyOp17
 70
     1
102
RTVSPropertyOp18
 70
     1
102
RTVSPropertyOp19
 70
     1
102
RTVSPropertyOp20
 70
     1
102
RTVSPropertyOp21
 70
     1
102
RTVSPropertyOp22
 70
     1
102
RTVSPropertyOp23
 70
     1
102
RTVSPropertyOp24
 70
     1
102
RTVSPropertyOp25
 70
     1
102
RTVSPropertyOp26
 70
     1
102
RTVSPropertyOp27
 70
     1
102
RTVSPropertyOp28
 70
     1
102
RTVSPropertyOp29
 70
     1
102
RTVSPropertyOp30
 70
     1
102
RTVSPropertyOp31
 70
     1
102
RTVSPropertyOp32
 70
     1
  0
XRECORD
  5
C65
102
{ACAD_REACTORS
330
C64
102
}
330
C64
100
AcDbXrecord
280
     1
102
RTVSPropertyOp0
 70
     1
102
RTVSPropertyOp1
 70
     1
102
RTVSPropertyOp2
 70
     1
102
RTVSPropertyOp3
 70
     1
102
RTVSPropertyOp4
 70
     1
102
RTVSPropertyOp5
 70
     1
102
RTVSPropertyOp6
 70
     1
102
RTVSPropertyOp7
 70
     1
102
RTVSPropertyOp8
 70
     1
102
RTVSPropertyOp9
 70
     1
102
RTVSPropertyOp10
 70
     1
102
RTVSPropertyOp11
 70
     1
102
RTVSPropertyOp12
 70
     1
102
RTVSPropertyOp13
 70
     1
102
RTVSPropertyOp14
 70
     1
102
RTVSPropertyOp15
 70
     1
102
RTVSPropertyOp16
 70
     1
102
RTVSPropertyOp17
 70
     1
102
RTVSPropertyOp18
 70
     1
102
RTVSPropertyOp19
 70
     1
102
RTVSPropertyOp20
 70
     1
102
RTVSPropertyOp21
 70
     1
102
RTVSPropertyOp22
 70
     1
102
RTVSPropertyOp23
 70
     1
102
RTVSPropertyOp24
 70
     1
102
RTVSPropertyOp25
 70
     1
102
RTVSPropertyOp26
 70
     1
102
RTVSPropertyOp27
 70
     1
102
RTVSPropertyOp28
 70
     1
102
RTVSPropertyOp29
 70
     1
102
RTVSPropertyOp30
 70
     1
102
RTVSPropertyOp31
 70
     1
102
RTVSPropertyOp32
 70
     1
  0
XRECORD
  5
C67
102
{ACAD_REACTORS
330
C66
102
}
330
C66
100
AcDbXrecord
280
     1
102
RTVSPropertyOp0
 70
     1
102
RTVSPropertyOp1
 70
     1
102
RTVSPropertyOp2
 70
     1
102
RTVSPropertyOp3
 70
     1
102
RTVSPropertyOp4
 70
     1
102
RTVSPropertyOp5
 70
     1
102
RTVSPropertyOp6
 70
     1
102
RTVSPropertyOp7
 70
     1
102
RTVSPropertyOp8
 70
     1
102
RTVSPropertyOp9
 70
     1
102
RTVSPropertyOp10
 70
     1
102
RTVSPropertyOp11
 70
     1
102
RTVSPropertyOp12
 70
     1
102
RTVSPropertyOp13
 70
     1
102
RTVSPropertyOp14
 70
     1
102
RTVSPropertyOp15
 70
     1
102
RTVSPropertyOp16
 70
     1
102
RTVSPropertyOp17
 70
     1
102
RTVSPropertyOp18
 70
     1
102
RTVSPropertyOp19
 70
     1
102
RTVSPropertyOp20
 70
     1
102
RTVSPropertyOp21
 70
     1
102
RTVSPropertyOp22
 70
     1
102
RTVSPropertyOp23
 70
     1
102
RTVSPropertyOp24
 70
     1
102
RTVSPropertyOp25
 70
     1
102
RTVSPropertyOp26
 70
     1
102
RTVSPropertyOp27
 70
     1
102
RTVSPropertyOp28
 70
     1
102
RTVSPropertyOp29
 70
     1
102
RTVSPropertyOp30
 70
     1
102
RTVSPropertyOp31
 70
     1
102
RTVSPropertyOp32
 70
     1
  0
XRECORD
  5
C59
102
{ACAD_REACTORS
330
C58
102
}
330
C58
100
AcDbXrecord
280
     1
102
RTVSPropertyOp0
 70
     1
102
RTVSPropertyOp1
 70
     1
102
RTVSPropertyOp2
 70
     1
102
RTVSPropertyOp3
 70
     1
102
RTVSPropertyOp4
 70
     1
102
RTVSPropertyOp5
 70
     1
102
RTVSPropertyOp6
 70
     1
102
RTVSPropertyOp7
 70
     1
102
RTVSPropertyOp8
 70
     1
102
RTVSPropertyOp9
 70
     1
102
RTVSPropertyOp10
 70
     1
102
RTVSPropertyOp11
 70
     1
102
RTVSPropertyOp12
 70
     1
102
RTVSPropertyOp13
 70
     1
102
RTVSPropertyOp14
 70
     1
102
RTVSPropertyOp15
 70
     1
102
RTVSPropertyOp16
 70
     1
102
RTVSPropertyOp17
 70
     1
102
RTVSPropertyOp18
 70
     1
102
RTVSPropertyOp19
 70
     1
102
RTVSPropertyOp20
 70
     1
102
RTVSPropertyOp21
 70
     1
102
RTVSPropertyOp22
 70
     1
102
RTVSPropertyOp23
 70
     1
102
RTVSPropertyOp24
 70
     1
102
RTVSPropertyOp25
 70
     1
102
RTVSPropertyOp26
 70
     1
102
RTVSPropertyOp27
 70
     1
102
RTVSPropertyOp28
 70
     1
102
RTVSPropertyOp29
 70
     1
102
RTVSPropertyOp30
 70
     1
102
RTVSPropertyOp31
 70
     1
102
RTVSPropertyOp32
 70
     1
  0
XRECORD
  5
C61
102
{ACAD_REACTORS
330
C60
102
}
330
C60
100
AcDbXrecord
280
     1
102
RTVSPropertyOp0
 70
     1
102
RTVSPropertyOp1
 70
     1
102
RTVSPropertyOp2
 70
     1
102
RTVSPropertyOp3
 70
     1
102
RTVSPropertyOp4
 70
     1
102
RTVSPropertyOp5
 70
     1
102
RTVSPropertyOp6
 70
     1
102
RTVSPropertyOp7
 70
     1
102
RTVSPropertyOp8
 70
     1
102
RTVSPropertyOp9
 70
     1
102
RTVSPropertyOp10
 70
     1
102
RTVSPropertyOp11
 70
     1
102
RTVSPropertyOp12
 70
     1
102
RTVSPropertyOp13
 70
     1
102
RTVSPropertyOp14
 70
     1
102
RTVSPropertyOp15
 70
     1
102
RTVSPropertyOp16
 70
     1
102
RTVSPropertyOp17
 70
     1
102
RTVSPropertyOp18
 70
     1
102
RTVSPropertyOp19
 70
     1
102
RTVSPropertyOp20
 70
     1
102
RTVSPropertyOp21
 70
     1
102
RTVSPropertyOp22
 70
     1
102
RTVSPropertyOp23
 70
     1
102
RTVSPropertyOp24
 70
     1
102
RTVSPropertyOp25
 70
     1
102
RTVSPropertyOp26
 70
     1
102
RTVSPropertyOp27
 70
     1
102
RTVSPropertyOp28
 70
     1
102
RTVSPropertyOp29
 70
     1
102
RTVSPropertyOp30
 70
     1
102
RTVSPropertyOp31
 70
     1
102
RTVSPropertyOp32
 70
     1
  0
XRECORD
  5
C69
102
{ACAD_REACTORS
330
C68
102
}
330
C68
100
AcDbXrecord
280
     1
102
RTVSPropertyOp0
 70
     1
102
RTVSPropertyOp1
 70
     1
102
RTVSPropertyOp2
 70
     1
102
RTVSPropertyOp3
 70
     1
102
RTVSPropertyOp4
 70
     1
102
RTVSPropertyOp5
 70
     1
102
RTVSPropertyOp6
 70
     1
102
RTVSPropertyOp7
 70
     1
102
RTVSPropertyOp8
 70
     1
102
RTVSPropertyOp9
 70
     1
102
RTVSPropertyOp10
 70
     1
102
RTVSPropertyOp11
 70
     1
102
RTVSPropertyOp12
 70
     1
102
RTVSPropertyOp13
 70
     1
102
RTVSPropertyOp14
 70
     1
102
RTVSPropertyOp15
 70
     1
102
RTVSPropertyOp16
 70
     1
102
RTVSPropertyOp17
 70
     1
102
RTVSPropertyOp18
 70
     1
102
RTVSPropertyOp19
 70
     1
102
RTVSPropertyOp20
 70
     1
102
RTVSPropertyOp21
 70
     1
102
RTVSPropertyOp22
 70
     1
102
RTVSPropertyOp23
 70
     1
102
RTVSPropertyOp24
 70
     1
102
RTVSPropertyOp25
 70
     1
102
RTVSPropertyOp26
 70
     1
102
RTVSPropertyOp27
 70
     1
102
RTVSPropertyOp28
 70
     1
102
RTVSPropertyOp29
 70
     1
102
RTVSPropertyOp30
 70
     1
102
RTVSPropertyOp31
 70
     1
102
RTVSPropertyOp32
 70
     1
  0
ENDSEC
  0
EOF
