  0
SECTION
  2
HEADER
  9
$ACADVER
  1
AC1018
  9
$ACADMAINTVER
 70
    39
  9
$DWGCODEPAGE
  3
ANSI_1252
  9
$INSBASE
 10
0.0
 20
0.0
 30
0.0
  9
$EXTMIN
 10
-119.264968319406
 20
-26.49032546962883
 30
-0.0015258207003583
  9
$EXTMAX
 10
9.394546865479242
 20
42.38708525475476
 30
0.0000000349246037
  9
$LIMMIN
 10
0.0
 20
0.0
  9
$LIMMAX
 10
297.0
 20
210.0
  9
$ORTHOMODE
 70
     0
  9
$REGENMODE
 70
     1
  9
$FILLMODE
 70
     1
  9
$QTEXTMODE
 70
     0
  9
$MIRRTEXT
 70
     0
  9
$LTSCALE
 40
16.335
  9
$ATTMODE
 70
     1
  9
$TEXTSIZE
 40
0.2
  9
$TRACEWID
 40
0.05
  9
$TEXTSTYLE
  7
STANDARD
  9
$CLAYER
  8
0
  9
$CELTYPE
  6
BYLAYER
  9
$CECOLOR
 62
   256
  9
$CELTSCALE
 40
1.0
  9
$DISPSILH
 70
     0
  9
$DIMSCALE
 40
1.0
  9
$DIMASZ
 40
3.5
  9
$DIMEXO
 40
0.625
  9
$DIMDLI
 40
3.75
  9
$DIMRND
 40
0.0
  9
$DIMDLE
 40
0.0
  9
$DIMEXE
 40
2.0
  9
$DIMTP
 40
0.0
  9
$DIMTM
 40
0.0
  9
$DIMTXT
 40
3.5
  9
$DIMCEN
 40
2.5
  9
$DIMTSZ
 40
0.0
  9
$DIMTOL
 70
     0
  9
$DIMLIM
 70
     0
  9
$DIMTIH
 70
     0
  9
$DIMTOH
 70
     0
  9
$DIMSE1
 70
     0
  9
$DIMSE2
 70
     0
  9
$DIMTAD
 70
     1
  9
$DIMZIN
 70
     8
  9
$DIMBLK
  1

  9
$DIMASO
 70
     1
  9
$DIMSHO
 70
     1
  9
$DIMPOST
  1

  9
$DIMAPOST
  1

  9
$DIMALT
 70
     0
  9
$DIMALTD
 70
     3
  9
$DIMALTF
 40
0.03937007874016
  9
$DIMLFAC
 40
1.0
  9
$DIMTOFL
 70
     1
  9
$DIMTVP
 40
0.0
  9
$DIMTIX
 70
     0
  9
$DIMSOXD
 70
     0
  9
$DIMSAH
 70
     0
  9
$DIMBLK1
  1

  9
$DIMBLK2
  1

  9
$DIMSTYLE
  2
ISO-25
  9
$DIMCLRD
 70
   256
  9
$DIMCLRE
 70
   256
  9
$DIMCLRT
 70
   256
  9
$DIMTFAC
 40
1.0
  9
$DIMGAP
 40
0.625
  9
$DIMJUST
 70
     0
  9
$DIMSD1
 70
     0
  9
$DIMSD2
 70
     0
  9
$DIMTOLJ
 70
     0
  9
$DIMTZIN
 70
     8
  9
$DIMALTZ
 70
     0
  9
$DIMALTTZ
 70
     0
  9
$DIMUPT
 70
     0
  9
$DIMDEC
 70
     2
  9
$DIMTDEC
 70
     2
  9
$DIMALTU
 70
     2
  9
$DIMALTTD
 70
     3
  9
$DIMTXSTY
  7
STANDARD
  9
$DIMAUNIT
 70
     0
  9
$DIMADEC
 70
     0
  9
$DIMALTRND
 40
0.0
  9
$DIMAZIN
 70
     0
  9
$DIMDSEP
 70
    46
  9
$DIMATFIT
 70
     3
  9
$DIMFRAC
 70
     0
  9
$DIMLDRBLK
  1

  9
$DIMLUNIT
 70
     2
  9
$DIMLWD
 70
    -2
  9
$DIMLWE
 70
    -2
  9
$DIMTMOVE
 70
     0
  9
$LUNITS
 70
     2
  9
$LUPREC
 70
     4
  9
$SKETCHINC
 40
0.1
  9
$FILLETRAD
 40
0.0
  9
$AUNITS
 70
     0
  9
$AUPREC
 70
     0
  9
$MENU
  1
.
  9
$ELEVATION
 40
0.0
  9
$PELEVATION
 40
0.0
  9
$THICKNESS
 40
0.0
  9
$LIMCHECK
 70
     0
  9
$CHAMFERA
 40
0.0
  9
$CHAMFERB
 40
0.0
  9
$CHAMFERC
 40
0.0
  9
$CHAMFERD
 40
0.0
  9
$SKPOLY
 70
     0
  9
$TDCREATE
 40
2453795.274331875
  9
$TDUCREATE
 40
2453795.232665208
  9
$TDUPDATE
 40
2453795.287003311
  9
$TDUUPDATE
 40
2453795.245336643
  9
$TDINDWG
 40
0.0126716204
  9
$TDUSRTIMER
 40
0.0126716204
  9
$USRTIMER
 70
     1
  9
$ANGBASE
 50
0.0
  9
$ANGDIR
 70
     0
  9
$PDMODE
 70
     3
  9
$PDSIZE
 40
0.3125
  9
$PLINEWID
 40
0.0
  9
$SPLFRAME
 70
     0
  9
$SPLINETYPE
 70
     6
  9
$SPLINESEGS
 70
     8
  9
$HANDSEED
  5
5A3
  9
$SURFTAB1
 70
     6
  9
$SURFTAB2
 70
     6
  9
$SURFTYPE
 70
     6
  9
$SURFU
 70
     6
  9
$SURFV
 70
     6
  9
$UCSBASE
  2

  9
$UCSNAME
  2

  9
$UCSORG
 10
0.0
 20
0.0
 30
0.0
  9
$UCSXDIR
 10
1.0
 20
0.0
 30
0.0
  9
$UCSYDIR
 10
0.0
 20
1.0
 30
0.0
  9
$UCSORTHOREF
  2

  9
$UCSORTHOVIEW
 70
     0
  9
$UCSORGTOP
 10
0.0
 20
0.0
 30
0.0
  9
$UCSORGBOTTOM
 10
0.0
 20
0.0
 30
0.0
  9
$UCSORGLEFT
 10
0.0
 20
0.0
 30
0.0
  9
$UCSORGRIGHT
 10
0.0
 20
0.0
 30
0.0
  9
$UCSORGFRONT
 10
0.0
 20
0.0
 30
0.0
  9
$UCSORGBACK
 10
0.0
 20
0.0
 30
0.0
  9
$PUCSBASE
  2

  9
$PUCSNAME
  2

  9
$PUCSORG
 10
0.0
 20
0.0
 30
0.0
  9
$PUCSXDIR
 10
1.0
 20
0.0
 30
0.0
  9
$PUCSYDIR
 10
0.0
 20
1.0
 30
0.0
  9
$PUCSORTHOREF
  2

  9
$PUCSORTHOVIEW
 70
     0
  9
$PUCSORGTOP
 10
0.0
 20
0.0
 30
0.0
  9
$PUCSORGBOTTOM
 10
0.0
 20
0.0
 30
0.0
  9
$PUCSORGLEFT
 10
0.0
 20
0.0
 30
0.0
  9
$PUCSORGRIGHT
 10
0.0
 20
0.0
 30
0.0
  9
$PUCSORGFRONT
 10
0.0
 20
0.0
 30
0.0
  9
$PUCSORGBACK
 10
0.0
 20
0.0
 30
0.0
  9
$USERI1
 70
     0
  9
$USERI2
 70
     0
  9
$USERI3
 70
     0
  9
$USERI4
 70
     0
  9
$USERI5
 70
     0
  9
$USERR1
 40
0.0
  9
$USERR2
 40
0.0
  9
$USERR3
 40
0.0
  9
$USERR4
 40
0.0
  9
$USERR5
 40
0.0
  9
$WORLDVIEW
 70
     1
  9
$SHADEDGE
 70
     3
  9
$SHADEDIF
 70
    70
  9
$TILEMODE
 70
     1
  9
$MAXACTVP
 70
    64
  9
$PINSBASE
 10
0.0
 20
0.0
 30
0.0
  9
$PLIMCHECK
 70
     0
  9
$PEXTMIN
 10
1.000000000000000E+20
 20
1.000000000000000E+20
 30
1.000000000000000E+20
  9
$PEXTMAX
 10
-1.000000000000000E+20
 20
-1.000000000000000E+20
 30
-1.000000000000000E+20
  9
$PLIMMIN
 10
0.0
 20
0.0
  9
$PLIMMAX
 10
12.0
 20
9.0
  9
$UNITMODE
 70
     0
  9
$VISRETAIN
 70
     1
  9
$PLINEGEN
 70
     0
  9
$PSLTSCALE
 70
     1
  9
$TREEDEPTH
 70
  3020
  9
$CMLSTYLE
  2
STANDARD
  9
$CMLJUST
 70
     0
  9
$CMLSCALE
 40
1.0
  9
$PROXYGRAPHICS
 70
     1
  9
$MEASUREMENT
 70
     1
  9
$CELWEIGHT
370
    -1
  9
$ENDCAPS
280
     0
  9
$JOINSTYLE
280
     0
  9
$LWDISPLAY
290
     0
  9
$INSUNITS
 70
     0
  9
$HYPERLINKBASE
  1

  9
$STYLESHEET
  1

  9
$XEDIT
290
     1
  9
$CEPSNTYPE
380
     0
  9
$PSTYLEMODE
290
     1
  9
$FINGERPRINTGUID
  2
{4A9ABDE4-4450-4659-A75C-B3C853CAE219}
  9
$VERSIONGUID
  2
{1FEBAB5B-D291-43E5-9958-45C316E4D16B}
  9
$EXTNAMES
290
     1
  9
$PSVPSCALE
 40
0.0
  9
$OLESTARTUP
290
     0
  9
$SORTENTS
280
   127
  9
$INDEXCTL
280
     0
  9
$HIDETEXT
280
     0
  9
$XCLIPFRAME
290
     0
  9
$HALOGAP
280
     0
  9
$OBSCOLOR
 70
   257
  9
$OBSLTYPE
280
     0
  9
$INTERSECTIONDISPLAY
280
     0
  9
$INTERSECTIONCOLOR
 70
   257
  9
$DIMASSOC
280
     1
  9
$PROJECTNAME
  1

  0
ENDSEC
  0
SECTION
  2
CLASSES
  0
CLASS
  1
ACDBDICTIONARYWDFLT
  2
AcDbDictionaryWithDefault
  3
ObjectDBX Classes
 90
        0
 91
        1
280
     0
281
     0
  0
CLASS
  1
TABLESTYLE
  2
AcDbTableStyle
  3
ObjectDBX Classes
 90
     2047
 91
        1
280
     0
281
     0
  0
CLASS
  1
DICTIONARYVAR
  2
AcDbDictionaryVar
  3
ObjectDBX Classes
 90
        0
 91
        1
280
     0
281
     0
  0
CLASS
  1
SORTENTSTABLE
  2
AcDbSortentsTable
  3
ObjectDBX Classes
 90
        0
 91
        2
280
     0
281
     0
  0
ENDSEC
  0
SECTION
  2
TABLES
  0
TABLE
  2
VPORT
  5
8
330
0
100
AcDbSymbolTable
 70
     6
  0
VPORT
  5
5A2
330
8
100
AcDbSymbolTableRecord
100
AcDbViewportTableRecord
  2
*Active
 70
     0
 10
0.0
 20
0.0
 11
1.0
 21
1.0
 12
-54.93521072696339
 22
7.948379892562972
 13
0.0
 23
0.0
 14
1.0
 24
1.0
 15
0.0
 25
0.0
 16
0.0
 26
0.0
 36
1.0
 17
0.0
 27
0.0
 37
0.0
 40
84.68733819733921
 41
1.526854219948849
 42
50.0
 43
0.0
 44
0.0
 50
0.0
 51
0.0
 71
     0
 72
   100
 73
     1
 74
     1
 75
     0
 76
     0
 77
     0
 78
     0
281
     0
 65
     1
110
0.0
120
0.0
130
0.0
111
1.0
121
0.0
131
0.0
112
0.0
122
1.0
132
0.0
 79
     0
146
0.0
  0
ENDTAB
  0
TABLE
  2
LTYPE
  5
5
330
0
100
AcDbSymbolTable
 70
     6
  0
LTYPE
  5
14
330
5
100
AcDbSymbolTableRecord
100
AcDbLinetypeTableRecord
  2
BYBLOCK
 70
     0
  3

 72
    65
 73
     0
 40
0.0
  0
LTYPE
  5
15
330
5
100
AcDbSymbolTableRecord
100
AcDbLinetypeTableRecord
  2
BYLAYER
 70
     0
  3

 72
    65
 73
     0
 40
0.0
  0
LTYPE
  5
16
330
5
100
AcDbSymbolTableRecord
100
AcDbLinetypeTableRecord
  2
CONTINUOUS
 70
     0
  3
Solid line
 72
    65
 73
     0
 40
0.0
  0
LTYPE
  5
1F5
330
5
100
AcDbSymbolTableRecord
100
AcDbLinetypeTableRecord
  2
CENTER
 70
     0
  3
____ _ ____ _ ____ _ ____ _ ____ _ ____ _ ____
 72
    65
 73
     4
 40
0.6
 49
0.375
 74
     0
 49
-0.075
 74
     0
 49
0.075
 74
     0
 49
-0.075
 74
     0
  0
LTYPE
  5
1F6
330
5
100
AcDbSymbolTableRecord
100
AcDbLinetypeTableRecord
  2
HIDDEN
 70
     0
  3
- - - - - - - - - - - - - - - - - - - -
 72
    65
 73
     2
 40
0.2
 49
0.1
 74
     0
 49
-0.1
 74
     0
  0
ENDTAB
  0
TABLE
  2
LAYER
  5
2
102
{ACAD_XDICTIONARY
360
2BF
102
}
330
0
100
AcDbSymbolTable
 70
    14
  0
LAYER
  5
10
330
2
100
AcDbSymbolTableRecord
100
AcDbLayerTableRecord
  2
0
 70
     0
 62
     7
  6
CONTINUOUS
370
    -3
390
263
  0
LAYER
  5
1FD
330
2
100
AcDbSymbolTableRecord
100
AcDbLayerTableRecord
  2
1
 70
     0
 62
     4
  6
CONTINUOUS
370
    -3
390
263
  0
LAYER
  5
200
330
2
100
AcDbSymbolTableRecord
100
AcDbLayerTableRecord
  2
6
 70
     0
 62
     5
  6
CONTINUOUS
370
    -3
390
263
  0
LAYER
  5
201
330
2
100
AcDbSymbolTableRecord
100
AcDbLayerTableRecord
  2
SK3
 70
     0
 62
     1
  6
HIDDEN
370
    -3
390
263
  0
LAYER
  5
26D
330
2
100
AcDbSymbolTableRecord
100
AcDbLayerTableRecord
  2
Defpoints
 70
     0
 62
     7
  6
CONTINUOUS
290
     0
370
    -3
390
263
  0
LAYER
  5
326
330
2
100
AcDbSymbolTableRecord
100
AcDbLayerTableRecord
  2
SK2
 70
     0
 62
     7
  6
CONTINUOUS
370
    -3
390
263
  0
LAYER
  5
327
330
2
100
AcDbSymbolTableRecord
100
AcDbLayerTableRecord
  2
SK1
 70
     0
 62
     4
  6
CONTINUOUS
370
    -3
390
263
  0
LAYER
  5
328
330
2
100
AcDbSymbolTableRecord
100
AcDbLayerTableRecord
  2
SK4
 70
     0
 62
     2
  6
CENTER
370
    -3
390
263
  0
ENDTAB
  0
TABLE
  2
STYLE
  5
3
330
0
100
AcDbSymbolTable
 70
     1
  0
STYLE
  5
11
330
3
100
AcDbSymbolTableRecord
100
AcDbTextStyleTableRecord
  2
STANDARD
 70
     0
 40
0.0
 41
0.8
 50
0.0
 71
     0
 42
0.2
  3
isocp.shx
  4

  0
ENDTAB
  0
TABLE
  2
VIEW
  5
6
330
0
100
AcDbSymbolTable
 70
     0
  0
ENDTAB
  0
TABLE
  2
UCS
  5
7
330
0
100
AcDbSymbolTable
 70
     0
  0
ENDTAB
  0
TABLE
  2
APPID
  5
9
330
0
100
AcDbSymbolTable
 70
     3
  0
APPID
  5
202
330
9
100
AcDbSymbolTableRecord
100
AcDbRegAppTableRecord
  2
ACAD
 70
     0
  0
APPID
  5
467
330
9
100
AcDbSymbolTableRecord
100
AcDbRegAppTableRecord
  2
ACAD_DSTYLE_DIMTEXT_FILL
 70
     0
  0
APPID
  5
4D1
330
9
100
AcDbSymbolTableRecord
100
AcDbRegAppTableRecord
  2
ACAD_PSEXT
 70
     0
  0
ENDTAB
  0
TABLE
  2
DIMSTYLE
  5
A
330
0
100
AcDbSymbolTable
 70
     3
100
AcDbDimStyleTable
 71
     2
340
329
340
203
  0
DIMSTYLE
105
203
330
A
100
AcDbSymbolTableRecord
100
AcDbDimStyleTableRecord
  2
STANDARD
 70
     0
 41
2.5
 47
0.005
 48
0.005
 71
     1
 73
     0
 74
     0
 77
     1
 78
     8
140
3.5
178
     2
271
     3
272
     3
284
     8
340
11
341
205
342
205
343
205
344
205
  0
DIMSTYLE
105
329
102
{ACAD_REACTORS
330
32D
330
32C
330
32F
330
32B
330
32E
330
50D
330
50E
330
50F
102
}
330
A
100
AcDbSymbolTableRecord
100
AcDbDimStyleTableRecord
  2
ISO-25
 70
     0
 41
3.5
 42
0.625
 43
3.75
 44
2.0
 73
     0
 74
     0
 77
     1
 78
     8
140
3.5
141
2.5
143
0.03937007874016
147
0.625
171
     3
172
     1
176
   256
177
   256
178
   256
271
     2
272
     2
274
     3
283
     0
284
     8
340
11
  0
ENDTAB
  0
TABLE
  2
BLOCK_RECORD
  5
1
330
0
100
AcDbSymbolTable
 70
    24
  0
BLOCK_RECORD
  5
1B
330
1
100
AcDbSymbolTableRecord
100
AcDbBlockTableRecord
  2
*MODEL_SPACE
340
26A
  0
BLOCK_RECORD
  5
1C
330
1
100
AcDbSymbolTableRecord
100
AcDbBlockTableRecord
  2
*PAPER_SPACE
340
26B
  0
BLOCK_RECORD
  5
205
330
1
100
AcDbSymbolTableRecord
100
AcDbBlockTableRecord
  2
_FILLED
340
0
  0
BLOCK_RECORD
  5
301
330
1
100
AcDbSymbolTableRecord
100
AcDbBlockTableRecord
  2
NULLPUNKT_BL0
340
0
102
{BLKREFS
331
375
331
507
331
541
102
}
  0
BLOCK_RECORD
  5
542
330
1
100
AcDbSymbolTableRecord
100
AcDbBlockTableRecord
  2
*D21
340
0
  0
BLOCK_RECORD
  5
54E
330
1
100
AcDbSymbolTableRecord
100
AcDbBlockTableRecord
  2
*D22
340
0
  0
BLOCK_RECORD
  5
55A
330
1
100
AcDbSymbolTableRecord
100
AcDbBlockTableRecord
  2
*D23
340
0
  0
ENDTAB
  0
ENDSEC
  0
SECTION
  2
BLOCKS
  0
BLOCK
  5
1E
330
1B
100
AcDbEntity
  8
0
100
AcDbBlockBegin
  2
*MODEL_SPACE
 70
     0
 10
0.0
 20
0.0
 30
0.0
  3
*MODEL_SPACE
  1

  0
ENDBLK
  5
1F
330
1B
100
AcDbEntity
  8
0
100
AcDbBlockEnd
  0
BLOCK
  5
20
330
1C
100
AcDbEntity
 67
     1
  8
0
100
AcDbBlockBegin
  2
*PAPER_SPACE
 70
     0
 10
0.0
 20
0.0
 30
0.0
  3
*PAPER_SPACE
  1

  0
ENDBLK
  5
21
330
1C
100
AcDbEntity
 67
     1
  8
0
100
AcDbBlockEnd
  0
BLOCK
  5
224
330
205
100
AcDbEntity
  8
0
100
AcDbBlockBegin
  2
_FILLED
 70
     0
 10
0.0
 20
0.0
 30
0.0
  3
_FILLED
  1

  0
SOLID
  5
225
330
205
100
AcDbEntity
  8
0
  6
ByBlock
 62
     0
100
AcDbTrace
 10
0.0
 20
0.0
 30
0.0
 11
-1.0
 21
0.132
 31
0.0
 12
-1.0
 22
-0.132
 32
0.0
 13
-1.0
 23
-0.132
 33
0.0
  0
ENDBLK
  5
226
330
205
100
AcDbEntity
  8
0
  6
ByBlock
 62
     0
100
AcDbBlockEnd
  0
BLOCK
  5
302
330
301
100
AcDbEntity
  8
1
  6
Continuous
 62
     3
100
AcDbBlockBegin
  2
NULLPUNKT_BL0
 70
     0
 10
160.23105888
 20
104.9111997364
 30
0.0
  3
NULLPUNKT_BL0
  1

  0
LINE
  5
303
330
301
100
AcDbEntity
  8
1
  6
Continuous
 62
     4
100
AcDbLine
 10
160.23105888
 20
104.9111997364
 30
0.0
 11
161.73105588
 21
104.9111997364
 31
0.0
  0
ARC
  5
304
330
301
100
AcDbEntity
  8
1
  6
Continuous
 62
     4
100
AcDbCircle
 10
160.23105888
 20
104.9111997364
 30
0.0
 40
1.499997
100
AcDbArc
 50
180.0
 51
270.0
  0
LINE
  5
305
330
301
100
AcDbEntity
  8
1
  6
Continuous
 62
     4
100
AcDbLine
 10
160.23105888
 20
104.9111997364
 30
0.0
 11
160.23105888
 21
103.4112027364
 31
0.0
  0
ARC
  5
306
330
301
100
AcDbEntity
  8
1
  6
Continuous
 62
     4
100
AcDbCircle
 10
160.23105888
 20
104.9111997364
 30
0.0
 40
1.499997
100
AcDbArc
 50
270.0
 51
360.0
  0
ARC
  5
307
330
301
100
AcDbEntity
  8
1
  6
Continuous
 62
     4
100
AcDbCircle
 10
160.23105888
 20
104.9111997364
 30
0.0
 40
1.499997
100
AcDbArc
 50
0.0
 51
90.0
  0
ARC
  5
308
330
301
100
AcDbEntity
  8
1
  6
Continuous
 62
     4
100
AcDbCircle
 10
160.23105888
 20
104.9111997364
 30
0.0
 40
1.499997
100
AcDbArc
 50
90.0
 51
180.0
  0
LINE
  5
309
330
301
100
AcDbEntity
  8
1
  6
Continuous
 62
     4
100
AcDbLine
 10
160.23105888
 20
106.4111967364
 30
0.0
 11
160.23105888
 21
104.9111997364
 31
0.0
  0
LINE
  5
30A
330
301
100
AcDbEntity
  8
1
  6
Continuous
 62
     4
100
AcDbLine
 10
158.73106188
 20
104.9111997364
 30
0.0
 11
160.23105888
 21
104.9111997364
 31
0.0
  0
LWPOLYLINE
  5
30B
330
301
100
AcDbEntity
  8
1
  6
Continuous
 62
     4
100
AcDbPolyline
 90
       18
 70
     0
 43
0.0
 10
160.23105888
 20
104.9111997364
 10
158.73106188
 20
104.9111997364
 10
158.7392790205
 20
105.0679921177
 10
158.7638404133
 20
105.2230666489
 10
158.8044769587
 20
105.3747243009
 10
158.8607434342
 20
105.5213034808
 10
158.9320233724
 20
105.6611982364
 10
159.0175358155
 20
105.7928758515
 10
159.1163438712
 20
105.9148936385
 10
159.2273649779
 20
106.0259147452
 10
159.3493827649
 20
106.1247228009
 10
159.48106038
 20
106.210235244
 10
159.6209551356
 20
106.2815151822
 10
159.7675343155
 20
106.3377816577
 10
159.9191919675
 20
106.3784182031
 10
160.0742664987
 20
106.4029795959
 10
160.23105888
 20
106.4111967364
 10
160.23105888
 20
104.9111997364
  0
HATCH
  5
30C
330
301
100
AcDbEntity
  8
1
  6
Continuous
 62
     4
100
AcDbHatch
 10
0.0
 20
0.0
 30
0.0
210
0.0
220
0.0
230
1.0
  2
SOLID
 70
     1
 71
     0
 91
        1
 92
        1
 93
       17
 72
     1
 10
160.23105888
 20
104.9111997364
 11
158.73106188
 21
104.9111997364
 72
     1
 10
158.73106188
 20
104.9111997364
 11
158.7392790205
 21
105.0679921177
 72
     1
 10
158.7392790205
 20
105.0679921177
 11
158.7638404133
 21
105.2230666489
 72
     1
 10
158.7638404133
 20
105.2230666489
 11
158.8044769587
 21
105.3747243009
 72
     1
 10
158.8044769587
 20
105.3747243009
 11
158.8607434342
 21
105.5213034808
 72
     1
 10
158.8607434342
 20
105.5213034808
 11
158.9320233724
 21
105.6611982364
 72
     1
 10
158.9320233724
 20
105.6611982364
 11
159.0175358155
 21
105.7928758515
 72
     1
 10
159.0175358155
 20
105.7928758515
 11
159.1163438712
 21
105.9148936385
 72
     1
 10
159.1163438712
 20
105.9148936385
 11
159.2273649779
 21
106.0259147452
 72
     1
 10
159.2273649779
 20
106.0259147452
 11
159.3493827649
 21
106.1247228009
 72
     1
 10
159.3493827649
 20
106.1247228009
 11
159.48106038
 21
106.210235244
 72
     1
 10
159.48106038
 20
106.210235244
 11
159.6209551356
 21
106.2815151822
 72
     1
 10
159.6209551356
 20
106.2815151822
 11
159.7675343155
 21
106.3377816577
 72
     1
 10
159.7675343155
 20
106.3377816577
 11
159.9191919675
 21
106.3784182031
 72
     1
 10
159.9191919675
 20
106.3784182031
 11
160.0742664987
 21
106.4029795959
 72
     1
 10
160.0742664987
 20
106.4029795959
 11
160.23105888
 21
106.4111967364
 72
     1
 10
160.23105888
 20
106.4111967364
 11
160.23105888
 21
104.9111997364
 97
        0
 75
     0
 76
     1
 98
        1
 10
0.0
 20
0.0
450
        0
451
        0
460
0.0
461
0.0
452
        0
462
0.0
453
        0
470

  0
LWPOLYLINE
  5
30D
330
301
100
AcDbEntity
  8
1
  6
Continuous
 62
     4
100
AcDbPolyline
 90
       18
 70
     0
 43
0.0
 10
160.23105888
 20
104.9111997364
 10
161.73105588
 20
104.9111997364
 10
161.7228387395
 20
104.7544073551
 10
161.6982773467
 20
104.5993328239
 10
161.6576408013
 20
104.4476751719
 10
161.6013743258
 20
104.301095992
 10
161.5300943876
 20
104.1612012364
 10
161.4445819445
 20
104.0295236213
 10
161.3457738888
 20
103.9075058343
 10
161.2347527821
 20
103.7964847276
 10
161.1127349951
 20
103.6976766719
 10
160.98105738
 20
103.6121642288
 10
160.8411626244
 20
103.5408842906
 10
160.6945834445
 20
103.4846178151
 10
160.5429257925
 20
103.4439812697
 10
160.3878512613
 20
103.4194198769
 10
160.23105888
 20
103.4112027364
 10
160.23105888
 20
104.9111997364
  0
HATCH
  5
30E
330
301
100
AcDbEntity
  8
1
  6
Continuous
 62
     4
100
AcDbHatch
 10
0.0
 20
0.0
 30
0.0
210
0.0
220
0.0
230
1.0
  2
SOLID
 70
     1
 71
     0
 91
        1
 92
        1
 93
       17
 72
     1
 10
160.23105888
 20
104.9111997364
 11
161.73105588
 21
104.9111997364
 72
     1
 10
161.73105588
 20
104.9111997364
 11
161.7228387395
 21
104.7544073551
 72
     1
 10
161.7228387395
 20
104.7544073551
 11
161.6982773467
 21
104.5993328239
 72
     1
 10
161.6982773467
 20
104.5993328239
 11
161.6576408013
 21
104.4476751719
 72
     1
 10
161.6576408013
 20
104.4476751719
 11
161.6013743258
 21
104.301095992
 72
     1
 10
161.6013743258
 20
104.301095992
 11
161.5300943876
 21
104.1612012364
 72
     1
 10
161.5300943876
 20
104.1612012364
 11
161.4445819445
 21
104.0295236213
 72
     1
 10
161.4445819445
 20
104.0295236213
 11
161.3457738888
 21
103.9075058343
 72
     1
 10
161.3457738888
 20
103.9075058343
 11
161.2347527821
 21
103.7964847276
 72
     1
 10
161.2347527821
 20
103.7964847276
 11
161.1127349951
 21
103.6976766719
 72
     1
 10
161.1127349951
 20
103.6976766719
 11
160.98105738
 21
103.6121642288
 72
     1
 10
160.98105738
 20
103.6121642288
 11
160.8411626244
 21
103.5408842906
 72
     1
 10
160.8411626244
 20
103.5408842906
 11
160.6945834445
 21
103.4846178151
 72
     1
 10
160.6945834445
 20
103.4846178151
 11
160.5429257925
 21
103.4439812697
 72
     1
 10
160.5429257925
 20
103.4439812697
 11
160.3878512613
 21
103.4194198769
 72
     1
 10
160.3878512613
 20
103.4194198769
 11
160.23105888
 21
103.4112027364
 72
     1
 10
160.23105888
 20
103.4112027364
 11
160.23105888
 21
104.9111997364
 97
        0
 75
     0
 76
     1
 98
        1
 10
0.0
 20
0.0
450
        0
451
        0
460
0.0
461
0.0
452
        0
462
0.0
453
        0
470

  0
LINE
  5
30F
330
301
100
AcDbEntity
  8
1
  6
Continuous
 62
     4
100
AcDbLine
 10
160.23105888
 20
103.4112027364
 30
0.0
 11
160.23105888
 21
104.9111997364
 31
0.0
  0
ARC
  5
310
330
301
100
AcDbEntity
  8
1
  6
Continuous
 62
     4
100
AcDbCircle
 10
160.23105888
 20
104.9111997364
 30
0.0
 40
1.499997
100
AcDbArc
 50
270.0
 51
360.0
  0
LINE
  5
311
330
301
100
AcDbEntity
  8
1
  6
Continuous
 62
     4
100
AcDbLine
 10
161.73105588
 20
104.9111997364
 30
0.0
 11
160.23105888
 21
104.9111997364
 31
0.0
  0
ENDBLK
  5
312
330
301
100
AcDbEntity
  8
0
  6
ByBlock
 62
     0
100
AcDbBlockEnd
  0
BLOCK
  5
54C
330
542
100
AcDbEntity
  8
0
100
AcDbBlockBegin
  2
*D21
 70
     1
 10
0.0
 20
0.0
 30
0.0
  3
*D21
  1

  0
LINE
  5
581
330
542
100
AcDbEntity
  8
SK2
370
    -2
100
AcDbLine
 10
0.0
 20
12.625
 30
0.0
 11
0.0000000000000017
 21
40.25070971789998
 31
0.0
  0
LINE
  5
582
330
542
100
AcDbEntity
  8
SK2
370
    -2
100
AcDbLine
 10
-102.5
 20
12.625
 30
0.0
 11
-102.5
 21
40.25070971789998
 31
0.0
  0
LINE
  5
583
330
542
100
AcDbEntity
  8
SK2
370
    -2
100
AcDbLine
 10
-3.499999999999998
 20
38.25070971789998
 30
0.0
 11
-99.0
 21
38.25070971789998
 31
0.0
  0
SOLID
  5
584
330
542
100
AcDbEntity
  8
SK2
100
AcDbTrace
 10
-3.499999999999998
 20
38.83404305123331
 30
0.0
 11
-3.499999999999998
 21
37.66737638456664
 31
0.0
 12
0.0000000000000016
 22
38.25070971789998
 32
0.0
 13
0.0000000000000016
 23
38.25070971789998
 33
0.0
  0
SOLID
  5
585
330
542
100
AcDbEntity
  8
SK2
100
AcDbTrace
 10
-99.0
 20
38.83404305123331
 30
0.0
 11
-99.0
 21
37.66737638456664
 31
0.0
 12
-102.5
 22
38.25070971789998
 32
0.0
 13
-102.5
 23
38.25070971789998
 33
0.0
  0
MTEXT
  5
586
330
542
100
AcDbEntity
  8
SK2
100
AcDbMText
 10
-52.71666800610001
 20
40.62605420608895
 30
0.0
 40
3.5
 41
0.0
 71
     5
 72
     1
  1
102.5
 73
     1
 44
1.0
  0
POINT
  5
587
330
542
100
AcDbEntity
  8
Defpoints
 62
     0
100
AcDbPoint
 10
0.0
 20
12.0
 30
0.0
  0
POINT
  5
588
330
542
100
AcDbEntity
  8
Defpoints
 62
     0
100
AcDbPoint
 10
-102.5
 20
12.0
 30
0.0
  0
POINT
  5
589
330
542
100
AcDbEntity
  8
Defpoints
 62
     0
100
AcDbPoint
 10
-102.5
 20
38.25070971789998
 30
0.0
  0
ENDBLK
  5
54D
330
542
100
AcDbEntity
  8
0
100
AcDbBlockEnd
  0
BLOCK
  5
558
330
54E
100
AcDbEntity
  8
0
100
AcDbBlockBegin
  2
*D22
 70
     1
 10
0.0
 20
0.0
 30
0.0
  3
*D22
  1

  0
LINE
  5
58A
330
54E
100
AcDbEntity
  8
SK2
370
    -2
100
AcDbLine
 10
-6.875
 20
8.0
 30
0.0
 11
9.375
 21
7.999999999999995
 31
0.0
  0
LINE
  5
58B
330
54E
100
AcDbEntity
  8
SK2
370
    -2
100
AcDbLine
 10
-6.875
 20
-8.0
 30
0.0
 11
9.375
 21
-8.000000000000005
 31
0.0
  0
LINE
  5
58C
330
54E
100
AcDbEntity
  8
SK2
370
    -2
100
AcDbLine
 10
7.375
 20
4.499999999999995
 30
0.0
 11
7.374999999999999
 21
-4.500000000000005
 31
0.0
  0
SOLID
  5
58D
330
54E
100
AcDbEntity
  8
SK2
100
AcDbTrace
 10
6.791666666666667
 20
4.499999999999995
 30
0.0
 11
7.958333333333333
 21
4.499999999999995
 31
0.0
 12
7.375000000000001
 22
7.999999999999995
 32
0.0
 13
7.375000000000001
 23
7.999999999999995
 33
0.0
  0
SOLID
  5
58E
330
54E
100
AcDbEntity
  8
SK2
100
AcDbTrace
 10
6.791666666666666
 20
-4.500000000000005
 30
0.0
 11
7.958333333333332
 21
-4.500000000000005
 31
0.0
 12
7.374999999999998
 22
-8.000000000000005
 32
0.0
 13
7.374999999999998
 23
-8.000000000000005
 33
0.0
  0
MTEXT
  5
58F
330
54E
100
AcDbEntity
  8
SK2
100
AcDbMText
 10
5.0
 20
0.4226254001999766
 30
0.0
 40
3.5
 41
0.0
 71
     5
 72
     1
  1
M16
 11
0.0000000000000001
 21
1.0
 31
0.0
 73
     1
 44
1.0
  0
POINT
  5
590
330
54E
100
AcDbEntity
  8
Defpoints
 62
     0
100
AcDbPoint
 10
-7.5
 20
8.0
 30
0.0
  0
POINT
  5
591
330
54E
100
AcDbEntity
  8
Defpoints
 62
     0
100
AcDbPoint
 10
-7.5
 20
-8.0
 30
0.0
  0
POINT
  5
592
330
54E
100
AcDbEntity
  8
Defpoints
 62
     0
100
AcDbPoint
 10
7.374999999999998
 20
-8.000000000000005
 30
0.0
  0
ENDBLK
  5
559
330
54E
100
AcDbEntity
  8
0
100
AcDbBlockEnd
  0
BLOCK
  5
564
330
55A
100
AcDbEntity
  8
0
100
AcDbBlockBegin
  2
*D23
 70
     1
 10
0.0
 20
0.0
 30
0.0
  3
*D23
  1

  0
LINE
  5
593
330
55A
100
AcDbEntity
  8
SK2
370
    -2
100
AcDbLine
 10
-4.366499169900009
 20
-15.63349999999999
 30
0.0
 11
-117.125
 21
-15.63349999999996
 31
0.0
  0
LINE
  5
594
330
55A
100
AcDbEntity
  8
SK2
370
    -2
100
AcDbLine
 10
-4.366499169900009
 20
15.6335
 30
0.0
 11
-117.125
 21
15.63350000000003
 31
0.0
  0
LINE
  5
595
330
55A
100
AcDbEntity
  8
SK2
370
    -2
100
AcDbLine
 10
-115.125
 20
-12.13349999999996
 30
0.0
 11
-115.125
 21
12.13350000000003
 31
0.0
  0
SOLID
  5
596
330
55A
100
AcDbEntity
  8
SK2
100
AcDbTrace
 10
-115.7083333333333
 20
-12.13349999999996
 30
0.0
 11
-114.5416666666666
 21
-12.13349999999996
 31
0.0
 12
-115.125
 22
-15.63349999999996
 32
0.0
 13
-115.125
 23
-15.63349999999996
 33
0.0
  0
SOLID
  5
597
330
55A
100
AcDbEntity
  8
SK2
100
AcDbTrace
 10
-115.7083333333333
 20
12.13350000000003
 30
0.0
 11
-114.5416666666666
 21
12.13350000000003
 31
0.0
 12
-115.125
 22
15.63350000000003
 32
0.0
 13
-115.125
 23
15.63350000000003
 33
0.0
  0
MTEXT
  5
598
330
55A
100
AcDbEntity
  8
SK2
100
AcDbMText
 10
-117.500344488189
 20
0.0659785231999879
 30
0.0
 40
3.5
 41
0.0
 71
     5
 72
     1
  1
%%c31.267
 11
0.0000000000000001
 21
1.0
 31
0.0
 73
     1
 44
1.0
  0
POINT
  5
599
330
55A
100
AcDbEntity
  8
Defpoints
 62
     0
100
AcDbPoint
 10
-3.741499169900009
 20
-15.63349999999999
 30
0.0
  0
POINT
  5
59A
330
55A
100
AcDbEntity
  8
Defpoints
 62
     0
100
AcDbPoint
 10
-3.741499169900009
 20
15.63349999999999
 30
0.0
  0
POINT
  5
59B
330
55A
100
AcDbEntity
  8
Defpoints
 62
     0
100
AcDbPoint
 10
-115.125
 20
15.63350000000003
 30
0.0
  0
ENDBLK
  5
565
330
55A
100
AcDbEntity
  8
0
100
AcDbBlockEnd
  0
ENDSEC
  0
SECTION
  2
ENTITIES
  0
DIMENSION
  5
50D
330
1B
100
AcDbEntity
  8
SK2
100
AcDbDimension
  2
*D21
 10
-102.5
 20
38.25070971789998
 30
0.0
 11
-52.71666800610001
 21
38.25070971789998
 31
0.0
 70
   160
  1
102.5
 71
     5
 42
102.5
  3
ISO-25
100
AcDbAlignedDimension
 13
0.0
 23
12.0
 33
0.0
 14
-102.5
 24
12.0
 34
0.0
 50
180.0
100
AcDbRotatedDimension
  0
DIMENSION
  5
50E
330
1B
100
AcDbEntity
  8
SK2
100
AcDbDimension
  2
*D22
 10
7.374999999999998
 20
-8.000000000000005
 30
0.0
 11
7.375
 21
0.4226254001999763
 31
0.0
 70
   160
  1
M16
 71
     5
 42
16.0
  3
ISO-25
100
AcDbAlignedDimension
 13
-7.5
 23
8.0
 33
0.0
 14
-7.5
 24
-8.0
 34
0.0
 50
270.0
100
AcDbRotatedDimension
  0
DIMENSION
  5
50F
330
1B
100
AcDbEntity
  8
SK2
100
AcDbDimension
  2
*D23
 10
-115.125
 20
15.63350000000003
 30
0.0
 11
-115.125
 21
0.0659785231999877
 31
0.0
 70
   160
  1
%%c31.267
 71
     5
 42
31.267
  3
ISO-25
100
AcDbAlignedDimension
 13
-3.741499169900009
 23
-15.63349999999999
 33
0.0
 14
-3.741499169900009
 24
15.63349999999999
 34
0.0
 50
90.0
100
AcDbRotatedDimension
  0
TEXT
  5
510
330
1B
100
AcDbEntity
  8
6
100
AcDbText
 10
-99.6773463417
 20
-26.4482130131
 30
0.0
 40
5.0
  1
MT4MOD16SA000
 41
0.8
100
AcDbText
  0
LINE
  5
511
330
1B
100
AcDbEntity
  8
SK1
100
AcDbLine
 10
-102.5
 20
11.5
 30
0.0
 11
-102.5
 21
-11.5
 31
0.0
  0
LINE
  5
512
330
1B
100
AcDbEntity
  8
SK3
100
AcDbLine
 10
-94.30000000000001
 20
8.5
 30
0.0
 11
-94.30000000000001
 21
-8.5
 31
0.0
  0
LINE
  5
513
330
1B
100
AcDbEntity
  8
SK3
100
AcDbLine
 10
-93.67500000000001
 20
7.0
 30
0.0
 11
-93.67500000000001
 21
-7.0
 31
0.0
  0
LINE
  5
514
330
1B
100
AcDbEntity
  8
SK1
100
AcDbLine
 10
-93.49999999999999
 20
12.5
 30
0.0
 11
-93.49999999999999
 21
-12.5
 31
0.0
  0
LINE
  5
515
330
1B
100
AcDbEntity
  8
SK1
100
AcDbLine
 10
-92.77566193370001
 20
13.22433806629999
 30
0.0
 11
-92.77566193370001
 21
-13.2243380662
 31
0.0
  0
LINE
  5
516
330
1B
100
AcDbEntity
  8
SK1
100
AcDbLine
 10
-92.77566193370001
 20
13.22433806629999
 30
0.0
 11
-93.49999999999999
 21
12.5
 31
0.0
  0
LINE
  5
517
330
1B
100
AcDbEntity
  8
SK1
100
AcDbLine
 10
-92.77566193370001
 20
-13.2243380662
 30
0.0
 11
-93.49999999999999
 21
-12.5
 31
0.0
  0
LINE
  5
518
330
1B
100
AcDbEntity
  8
SK3
100
AcDbLine
 10
-68.5
 20
8.0
 30
0.0
 11
-68.5
 21
-8.0
 31
0.0
  0
LINE
  5
519
330
1B
100
AcDbEntity
  8
SK3
100
AcDbLine
 10
-93.67500000000001
 20
-7.0
 30
0.0
 11
-94.30000000000001
 21
-7.625
 31
0.0
  0
LINE
  5
51A
330
1B
100
AcDbEntity
  8
SK3
100
AcDbLine
 10
-60.0
 20
7.0
 30
0.0
 11
-60.0
 21
-7.0
 31
0.0
  0
LINE
  5
51B
330
1B
100
AcDbEntity
  8
SK3
100
AcDbLine
 10
-56.27803397830001
 20
0.0
 30
0.0
 11
-60.0
 21
-7.0
 31
0.0
  0
LINE
  5
51C
330
1B
100
AcDbEntity
  8
SK3
100
AcDbLine
 10
-93.67500000000001
 20
7.0
 30
0.0
 11
-94.30000000000001
 21
7.625
 31
0.0
  0
LINE
  5
51D
330
1B
100
AcDbEntity
  8
SK3
100
AcDbLine
 10
-56.27803397830001
 20
0.0
 30
0.0
 11
-60.0
 21
7.0
 31
0.0
  0
LINE
  5
51E
330
1B
100
AcDbEntity
  8
SK3
100
AcDbLine
 10
-35.0
 20
7.0
 30
0.0
 11
-35.0
 21
-7.0
 31
0.0
  0
LINE
  5
51F
330
1B
100
AcDbEntity
  8
SK3
100
AcDbLine
 10
-35.0
 20
7.0
 30
0.0
 11
-38.7219660216
 21
0.0
 31
0.0
  0
LINE
  5
520
330
1B
100
AcDbEntity
  8
SK3
100
AcDbLine
 10
-35.0
 20
-7.0
 30
0.0
 11
-38.7219660216
 21
0.0
 31
0.0
  0
LINE
  5
521
330
1B
100
AcDbEntity
  8
SK3
100
AcDbLine
 10
-26.0
 20
8.0
 30
0.0
 11
-26.0
 21
-8.0
 31
0.0
  0
LINE
  5
522
330
1B
100
AcDbEntity
  8
SK1
100
AcDbLine
 10
-0.3000000000000114
 20
-15.6257097178
 30
0.0
 11
-92.77566193370001
 21
-13.2243380662
 31
0.0
  0
LINE
  5
523
330
1B
100
AcDbEntity
  8
SK1
100
AcDbLine
 10
-93.49999999999999
 20
-12.5
 30
0.0
 11
-101.5
 21
-12.5
 31
0.0
  0
LINE
  5
524
330
1B
100
AcDbEntity
  8
SK3
100
AcDbLine
 10
-6.0
 20
-8.799999999999997
 30
0.0
 11
-8.0
 21
-8.799999999999997
 31
0.0
  0
LINE
  5
525
330
1B
100
AcDbEntity
  8
SK3
100
AcDbLine
 10
-0.5
 20
-8.5
 30
0.0
 11
-6.0
 21
-8.5
 31
0.0
  0
LINE
  5
526
330
1B
100
AcDbEntity
  8
SK3
100
AcDbLine
 10
-94.30000000000001
 20
-8.5
 30
0.0
 11
-100.25
 21
-8.5
 31
0.0
  0
LINE
  5
527
330
1B
100
AcDbEntity
  8
SK3
100
AcDbLine
 10
-68.5
 20
-8.0
 30
0.0
 11
-94.30000000000001
 21
-8.0
 31
0.0
  0
LINE
  5
528
330
1B
100
AcDbEntity
  8
SK3
100
AcDbLine
 10
-26.0
 20
-8.0
 30
0.0
 11
-8.0
 21
-8.0
 31
0.0
  0
LINE
  5
529
330
1B
100
AcDbEntity
  8
SK3
100
AcDbLine
 10
-8.0
 20
-7.0
 30
0.0
 11
-35.0
 21
-7.0
 31
0.0
  0
LINE
  5
52A
330
1B
100
AcDbEntity
  8
SK3
100
AcDbLine
 10
-60.0
 20
-7.0
 30
0.0
 11
-93.67500000000001
 21
-7.0
 31
0.0
  0
LINE
  5
52B
330
1B
100
AcDbEntity
  8
SK3
100
AcDbLine
 10
-8.0
 20
-8.799604596200012
 30
0.0
 11
-8.0
 21
8.799604596299985
 31
0.0
  0
LINE
  5
52C
330
1B
100
AcDbEntity
  8
SK3
100
AcDbLine
 10
-6.0
 20
-8.799604596200012
 30
0.0
 11
-6.0
 21
8.799604596299985
 31
0.0
  0
LINE
  5
52D
330
1B
100
AcDbEntity
  8
SK1
100
AcDbLine
 10
-0.3000000000000114
 20
15.62570971789999
 30
0.0
 11
-0.3000000000000114
 21
-15.6257097178
 31
0.0
  0
LINE
  5
52E
330
1B
100
AcDbEntity
  8
SK4
100
AcDbLine
 10
3.0
 20
0.0
 30
0.0
 11
-105.5
 21
0.0
 31
0.0
  0
LINE
  5
52F
330
1B
100
AcDbEntity
  8
SK3
100
AcDbLine
 10
-8.0
 20
7.0
 30
0.0
 11
-35.0
 21
7.0
 31
0.0
  0
LINE
  5
530
330
1B
100
AcDbEntity
  8
SK3
100
AcDbLine
 10
-60.0
 20
7.0
 30
0.0
 11
-93.67500000000001
 21
7.0
 31
0.0
  0
LINE
  5
531
330
1B
100
AcDbEntity
  8
SK1
100
AcDbLine
 10
0.0
 20
15.32570971789998
 30
0.0
 11
0.0
 21
-15.32570971780001
 31
0.0
  0
LINE
  5
532
330
1B
100
AcDbEntity
  8
SK1
100
AcDbLine
 10
0.0
 20
-15.32570971780001
 30
0.0
 11
-0.3000000000000114
 21
-15.6257097178
 31
0.0
  0
LINE
  5
533
330
1B
100
AcDbEntity
  8
SK1
100
AcDbLine
 10
-0.3000000000000114
 20
15.62570971789999
 30
0.0
 11
-92.77566193370001
 21
13.22433806629999
 31
0.0
  0
LINE
  5
534
330
1B
100
AcDbEntity
  8
SK3
100
AcDbLine
 10
-68.5
 20
8.0
 30
0.0
 11
-94.30000000000001
 21
8.0
 31
0.0
  0
LINE
  5
535
330
1B
100
AcDbEntity
  8
SK3
100
AcDbLine
 10
-26.0
 20
8.0
 30
0.0
 11
-8.0
 21
8.0
 31
0.0
  0
LINE
  5
536
330
1B
100
AcDbEntity
  8
SK3
100
AcDbLine
 10
-0.5
 20
8.5
 30
0.0
 11
-6.0
 21
8.5
 31
0.0
  0
LINE
  5
537
330
1B
100
AcDbEntity
  8
SK3
100
AcDbLine
 10
-94.30000000000001
 20
8.5
 30
0.0
 11
-100.25
 21
8.5
 31
0.0
  0
LINE
  5
538
330
1B
100
AcDbEntity
  8
SK3
100
AcDbLine
 10
-6.0
 20
8.799999999999997
 30
0.0
 11
-8.0
 21
8.799999999999997
 31
0.0
  0
LINE
  5
539
330
1B
100
AcDbEntity
  8
SK1
100
AcDbLine
 10
-93.49999999999999
 20
12.5
 30
0.0
 11
-101.5
 21
12.5
 31
0.0
  0
LINE
  5
53A
330
1B
100
AcDbEntity
  8
SK1
100
AcDbLine
 10
0.0
 20
15.32570971789998
 30
0.0
 11
-0.3000000000000114
 21
15.62570971789999
 31
0.0
  0
ARC
  5
53B
330
1B
100
AcDbEntity
  8
SK3
100
AcDbCircle
 10
-0.5
 20
-9.0
 30
0.0
 40
0.5
100
AcDbArc
 50
0.0000285847003576
 51
90.0
  0
ARC
  5
53C
330
1B
100
AcDbEntity
  8
SK3
100
AcDbCircle
 10
-0.5
 20
9.0
 30
0.0
 40
0.5
100
AcDbArc
 50
270.0
 51
359.9999714152996
  0
ARC
  5
53D
330
1B
100
AcDbEntity
  8
SK3
100
AcDbCircle
 10
-100.25
 20
10.75
 30
0.0
 40
2.25
100
AcDbArc
 50
180.0
 51
270.0
  0
ARC
  5
53E
330
1B
100
AcDbEntity
  8
SK3
100
AcDbCircle
 10
-100.25
 20
-10.75
 30
0.0
 40
2.25
100
AcDbArc
 50
90.0
 51
180.0
  0
ARC
  5
53F
330
1B
100
AcDbEntity
  8
SK1
100
AcDbCircle
 10
-101.5
 20
-11.5
 30
0.0
 40
1.0
100
AcDbArc
 50
180.0
 51
270.0
  0
ARC
  5
540
330
1B
100
AcDbEntity
  8
SK1
100
AcDbCircle
 10
-101.5
 20
11.5
 30
0.0
 40
1.0
100
AcDbArc
 50
90.0
 51
180.0
  0
INSERT
  5
541
330
1B
100
AcDbEntity
  8
1
100
AcDbBlockReference
  2
NULLPUNKT_BL0
 10
0.0
 20
0.0
 30
0.0
  0
ENDSEC
  0
SECTION
  2
OBJECTS
  0
DICTIONARY
  5
25B
330
0
100
AcDbDictionary
281
     1
  3
ACAD_COLOR
350
265
  3
ACAD_GROUP
350
25C
  3
ACAD_LAYOUT
350
268
  3
ACAD_MATERIAL
350
264
  3
ACAD_MLINESTYLE
350
25D
  3
ACAD_PLOTSETTINGS
350
269
  3
ACAD_PLOTSTYLENAME
350
262
  3
ACAD_TABLESTYLE
350
266
  3
AcDbVariableDictionary
350
2C3
  0
DICTIONARY
  5
2BF
330
2
100
AcDbDictionary
280
     1
281
     1
  3
ACAD_LAYERFILTERS
360
5A1
  3
ACLYDICTIONARY
360
5A0
  0
DICTIONARY
  5
265
102
{ACAD_REACTORS
330
25B
102
}
330
25B
100
AcDbDictionary
281
     1
  0
DICTIONARY
  5
25C
102
{ACAD_REACTORS
330
25B
102
}
330
25B
100
AcDbDictionary
281
     1
  0
DICTIONARY
  5
268
102
{ACAD_REACTORS
330
25B
102
}
330
25B
100
AcDbDictionary
281
     1
  3
Layout1
350
26B
  3
Model
350
26A
  0
DICTIONARY
  5
264
102
{ACAD_REACTORS
330
25B
102
}
330
25B
100
AcDbDictionary
281
     1
  0
DICTIONARY
  5
25D
102
{ACAD_REACTORS
330
25B
102
}
330
25B
100
AcDbDictionary
281
     1
  3
STANDARD
350
25E
  0
DICTIONARY
  5
269
102
{ACAD_REACTORS
330
25B
102
}
330
25B
100
AcDbDictionary
281
     1
  0
ACDBDICTIONARYWDFLT
  5
262
102
{ACAD_REACTORS
330
25B
102
}
330
25B
100
AcDbDictionary
281
     1
  3
Normal
350
263
100
AcDbDictionaryWithDefault
340
263
  0
DICTIONARY
  5
266
102
{ACAD_REACTORS
330
25B
102
}
330
25B
100
AcDbDictionary
281
     1
  3
Standard
350
267
  0
DICTIONARY
  5
2C3
102
{ACAD_REACTORS
330
25B
102
}
330
25B
100
AcDbDictionary
281
     1
  3
CTABLESTYLE
350
2C4
  0
DICTIONARY
  5
5A1
102
{ACAD_REACTORS
330
2BF
102
}
330
2BF
100
AcDbDictionary
281
     1
  0
DICTIONARY
  5
5A0
102
{ACAD_REACTORS
330
2BF
102
}
330
2BF
100
AcDbDictionary
281
     1
1001
ACAD
1000
<All
  0
LAYOUT
  5
26B
102
{ACAD_REACTORS
330
268
102
}
330
268
100
AcDbPlotSettings
  1

  2
\\ingdom02\ITB3
  4

  6

 40
0.0
 41
0.0
 42
0.0
 43
0.0
 44
0.0
 45
0.0
 46
0.0
 47
0.0
 48
0.0
 49
0.0
140
0.0
141
0.0
142
1.0
143
1.0
 70
   688
 72
     0
 73
     0
 74
     5
  7

 75
    16
147
1.0
 76
     0
 77
     2
 78
   300
148
0.0
149
0.0
100
AcDbLayout
  1
Layout1
 70
     1
 71
     1
 10
0.0
 20
0.0
 11
12.0
 21
9.0
 12
0.0
 22
0.0
 32
0.0
 14
1.000000000000000E+20
 24
1.000000000000000E+20
 34
1.000000000000000E+20
 15
-1.000000000000000E+20
 25
-1.000000000000000E+20
 35
-1.000000000000000E+20
146
0.0
 13
0.0
 23
0.0
 33
0.0
 16
1.0
 26
0.0
 36
0.0
 17
0.0
 27
1.0
 37
0.0
 76
     0
330
1C
  0
LAYOUT
  5
26A
102
{ACAD_REACTORS
330
268
102
}
330
268
100
AcDbPlotSettings
  1

  2
\\ingdom02\ITB3
  4

  6

 40
0.0
 41
0.0
 42
0.0
 43
0.0
 44
0.0
 45
0.0
 46
0.0
 47
0.0
 48
0.0
 49
0.0
140
0.0
141
0.0
142
1.0
143
1.0
 70
  1712
 72
     0
 73
     0
 74
     0
  7

 75
     0
147
1.0
 76
     0
 77
     2
 78
   300
148
0.0
149
0.0
100
AcDbLayout
  1
Model
 70
     1
 71
     0
 10
0.0
 20
0.0
 11
12.0
 21
9.0
 12
0.0
 22
0.0
 32
0.0
 14
0.0
 24
0.0
 34
0.0
 15
0.0
 25
0.0
 35
0.0
146
0.0
 13
0.0
 23
0.0
 33
0.0
 16
1.0
 26
0.0
 36
0.0
 17
0.0
 27
1.0
 37
0.0
 76
     0
330
1B
  0
MLINESTYLE
  5
25E
102
{ACAD_REACTORS
330
25D
102
}
330
25D
100
AcDbMlineStyle
  2
STANDARD
 70
     0
  3

 62
   256
 51
90.0
 52
90.0
 71
     2
 49
0.5
 62
   256
  6
BYLAYER
 49
-0.5
 62
   256
  6
BYLAYER
  0
ACDBPLACEHOLDER
  5
263
102
{ACAD_REACTORS
330
262
102
}
330
262
  0
TABLESTYLE
  5
267
102
{ACAD_REACTORS
330
266
102
}
330
266
100
AcDbTableStyle
  3
Standard
 70
     0
 71
     0
 40
1.5
 41
1.5
280
     0
281
     0
  7
STANDARD
140
4.5
170
     2
 62
     0
 63
     7
283
     0
274
    -2
284
     1
 64
     0
275
    -2
285
     1
 65
     0
276
    -2
286
     1
 66
     0
277
    -2
287
     1
 67
     0
278
    -2
288
     1
 68
     0
279
    -2
289
     1
 69
     0
  7
STANDARD
140
6.0
170
     5
 62
     0
 63
     7
283
     0
274
    -2
284
     1
 64
     0
275
    -2
285
     1
 65
     0
276
    -2
286
     1
 66
     0
277
    -2
287
     1
 67
     0
278
    -2
288
     1
 68
     0
279
    -2
289
     1
 69
     0
  7
STANDARD
140
4.5
170
     5
 62
     0
 63
     7
283
     0
274
    -2
284
     1
 64
     0
275
    -2
285
     1
 65
     0
276
    -2
286
     1
 66
     0
277
    -2
287
     1
 67
     0
278
    -2
288
     1
 68
     0
279
    -2
289
     1
 69
     0
  0
DICTIONARYVAR
  5
2C4
102
{ACAD_REACTORS
330
2C3
102
}
330
2C3
100
DictionaryVariables
280
     0
  1
STANDARD
  0
ENDSEC
  0
EOF
