  0
SECTION
  2
HEADER
  9
$ACADVER
  1
AC1018
  9
$ACADMAINTVER
 70
    39
  9
$DWGCODEPAGE
  3
ANSI_1252
  9
$INSBASE
 10
0.0
 20
0.0
 30
0.0
  9
$EXTMIN
 10
-97.71331700695828
 20
-23.370803168708
 30
-0.0015258207003583
  9
$EXTMAX
 10
71.8606573108824
 20
38.85163918492811
 30
0.0000000349246037
  9
$LIMMIN
 10
0.0
 20
0.0
  9
$LIMMAX
 10
420.0
 20
297.0
  9
$ORTHOMODE
 70
     0
  9
$REGENMODE
 70
     1
  9
$FILLMODE
 70
     1
  9
$QTEXTMODE
 70
     0
  9
$MIRRTEXT
 70
     0
  9
$LTSCALE
 40
23.1
  9
$ATTMODE
 70
     1
  9
$TEXTSIZE
 40
0.2
  9
$TRACEWID
 40
0.05
  9
$TEXTSTYLE
  7
STANDARD
  9
$CLAYER
  8
0
  9
$CELTYPE
  6
BYLAYER
  9
$CECOLOR
 62
   256
  9
$CELTSCALE
 40
1.0
  9
$DISPSILH
 70
     0
  9
$DIMSCALE
 40
1.0
  9
$DIMASZ
 40
3.5
  9
$DIMEXO
 40
0.625
  9
$DIMDLI
 40
3.75
  9
$DIMRND
 40
0.0
  9
$DIMDLE
 40
0.0
  9
$DIMEXE
 40
2.0
  9
$DIMTP
 40
0.0
  9
$DIMTM
 40
0.0
  9
$DIMTXT
 40
3.5
  9
$DIMCEN
 40
2.5
  9
$DIMTSZ
 40
0.0
  9
$DIMTOL
 70
     0
  9
$DIMLIM
 70
     0
  9
$DIMTIH
 70
     0
  9
$DIMTOH
 70
     0
  9
$DIMSE1
 70
     0
  9
$DIMSE2
 70
     0
  9
$DIMTAD
 70
     1
  9
$DIMZIN
 70
     8
  9
$DIMBLK
  1

  9
$DIMASO
 70
     1
  9
$DIMSHO
 70
     1
  9
$DIMPOST
  1

  9
$DIMAPOST
  1

  9
$DIMALT
 70
     0
  9
$DIMALTD
 70
     3
  9
$DIMALTF
 40
0.03937007874016
  9
$DIMLFAC
 40
1.0
  9
$DIMTOFL
 70
     1
  9
$DIMTVP
 40
0.0
  9
$DIMTIX
 70
     0
  9
$DIMSOXD
 70
     0
  9
$DIMSAH
 70
     0
  9
$DIMBLK1
  1

  9
$DIMBLK2
  1

  9
$DIMSTYLE
  2
ISO-25
  9
$DIMCLRD
 70
   256
  9
$DIMCLRE
 70
   256
  9
$DIMCLRT
 70
   256
  9
$DIMTFAC
 40
1.0
  9
$DIMGAP
 40
0.625
  9
$DIMJUST
 70
     0
  9
$DIMSD1
 70
     0
  9
$DIMSD2
 70
     0
  9
$DIMTOLJ
 70
     0
  9
$DIMTZIN
 70
     8
  9
$DIMALTZ
 70
     0
  9
$DIMALTTZ
 70
     0
  9
$DIMUPT
 70
     0
  9
$DIMDEC
 70
     2
  9
$DIMTDEC
 70
     2
  9
$DIMALTU
 70
     2
  9
$DIMALTTD
 70
     3
  9
$DIMTXSTY
  7
STANDARD
  9
$DIMAUNIT
 70
     0
  9
$DIMADEC
 70
     0
  9
$DIMALTRND
 40
0.0
  9
$DIMAZIN
 70
     0
  9
$DIMDSEP
 70
    46
  9
$DIMATFIT
 70
     3
  9
$DIMFRAC
 70
     0
  9
$DIMLDRBLK
  1

  9
$DIMLUNIT
 70
     2
  9
$DIMLWD
 70
    -2
  9
$DIMLWE
 70
    -2
  9
$DIMTMOVE
 70
     0
  9
$LUNITS
 70
     2
  9
$LUPREC
 70
     4
  9
$SKETCHINC
 40
0.1
  9
$FILLETRAD
 40
0.0
  9
$AUNITS
 70
     0
  9
$AUPREC
 70
     0
  9
$MENU
  1
.
  9
$ELEVATION
 40
0.0
  9
$PELEVATION
 40
0.0
  9
$THICKNESS
 40
0.0
  9
$LIMCHECK
 70
     0
  9
$CHAMFERA
 40
0.0
  9
$CHAMFERB
 40
0.0
  9
$CHAMFERC
 40
0.0
  9
$CHAMFERD
 40
0.0
  9
$SKPOLY
 70
     0
  9
$TDCREATE
 40
2453794.618669572
  9
$TDUCREATE
 40
2453794.577002906
  9
$TDUPDATE
 40
2453794.621387674
  9
$TDUUPDATE
 40
2453794.579721007
  9
$TDINDWG
 40
0.0027182870
  9
$TDUSRTIMER
 40
0.0027182870
  9
$USRTIMER
 70
     1
  9
$ANGBASE
 50
0.0
  9
$ANGDIR
 70
     0
  9
$PDMODE
 70
     3
  9
$PDSIZE
 40
0.3125
  9
$PLINEWID
 40
0.0
  9
$SPLFRAME
 70
     0
  9
$SPLINETYPE
 70
     6
  9
$SPLINESEGS
 70
     8
  9
$HANDSEED
  5
633
  9
$SURFTAB1
 70
     6
  9
$SURFTAB2
 70
     6
  9
$SURFTYPE
 70
     6
  9
$SURFU
 70
     6
  9
$SURFV
 70
     6
  9
$UCSBASE
  2

  9
$UCSNAME
  2

  9
$UCSORG
 10
0.0
 20
0.0
 30
0.0
  9
$UCSXDIR
 10
1.0
 20
0.0
 30
0.0
  9
$UCSYDIR
 10
0.0
 20
1.0
 30
0.0
  9
$UCSORTHOREF
  2

  9
$UCSORTHOVIEW
 70
     0
  9
$UCSORGTOP
 10
0.0
 20
0.0
 30
0.0
  9
$UCSORGBOTTOM
 10
0.0
 20
0.0
 30
0.0
  9
$UCSORGLEFT
 10
0.0
 20
0.0
 30
0.0
  9
$UCSORGRIGHT
 10
0.0
 20
0.0
 30
0.0
  9
$UCSORGFRONT
 10
0.0
 20
0.0
 30
0.0
  9
$UCSORGBACK
 10
0.0
 20
0.0
 30
0.0
  9
$PUCSBASE
  2

  9
$PUCSNAME
  2

  9
$PUCSORG
 10
0.0
 20
0.0
 30
0.0
  9
$PUCSXDIR
 10
1.0
 20
0.0
 30
0.0
  9
$PUCSYDIR
 10
0.0
 20
1.0
 30
0.0
  9
$PUCSORTHOREF
  2

  9
$PUCSORTHOVIEW
 70
     0
  9
$PUCSORGTOP
 10
0.0
 20
0.0
 30
0.0
  9
$PUCSORGBOTTOM
 10
0.0
 20
0.0
 30
0.0
  9
$PUCSORGLEFT
 10
0.0
 20
0.0
 30
0.0
  9
$PUCSORGRIGHT
 10
0.0
 20
0.0
 30
0.0
  9
$PUCSORGFRONT
 10
0.0
 20
0.0
 30
0.0
  9
$PUCSORGBACK
 10
0.0
 20
0.0
 30
0.0
  9
$USERI1
 70
     0
  9
$USERI2
 70
     0
  9
$USERI3
 70
     0
  9
$USERI4
 70
     0
  9
$USERI5
 70
     0
  9
$USERR1
 40
0.0
  9
$USERR2
 40
0.0
  9
$USERR3
 40
0.0
  9
$USERR4
 40
0.0
  9
$USERR5
 40
0.0
  9
$WORLDVIEW
 70
     1
  9
$SHADEDGE
 70
     3
  9
$SHADEDIF
 70
    70
  9
$TILEMODE
 70
     1
  9
$MAXACTVP
 70
    64
  9
$PINSBASE
 10
0.0
 20
0.0
 30
0.0
  9
$PLIMCHECK
 70
     0
  9
$PEXTMIN
 10
1.000000000000000E+20
 20
1.000000000000000E+20
 30
1.000000000000000E+20
  9
$PEXTMAX
 10
-1.000000000000000E+20
 20
-1.000000000000000E+20
 30
-1.000000000000000E+20
  9
$PLIMMIN
 10
0.0
 20
0.0
  9
$PLIMMAX
 10
12.0
 20
9.0
  9
$UNITMODE
 70
     0
  9
$VISRETAIN
 70
     1
  9
$PLINEGEN
 70
     0
  9
$PSLTSCALE
 70
     1
  9
$TREEDEPTH
 70
  3020
  9
$CMLSTYLE
  2
STANDARD
  9
$CMLJUST
 70
     0
  9
$CMLSCALE
 40
1.0
  9
$PROXYGRAPHICS
 70
     1
  9
$MEASUREMENT
 70
     1
  9
$CELWEIGHT
370
    -1
  9
$ENDCAPS
280
     0
  9
$JOINSTYLE
280
     0
  9
$LWDISPLAY
290
     0
  9
$INSUNITS
 70
     0
  9
$HYPERLINKBASE
  1

  9
$STYLESHEET
  1

  9
$XEDIT
290
     1
  9
$CEPSNTYPE
380
     0
  9
$PSTYLEMODE
290
     1
  9
$FINGERPRINTGUID
  2
{16C7570D-2995-43D2-AE0B-87F460FFC1ED}
  9
$VERSIONGUID
  2
{F390901E-267F-4A57-9753-478AA4B88121}
  9
$EXTNAMES
290
     1
  9
$PSVPSCALE
 40
0.0
  9
$OLESTARTUP
290
     0
  9
$SORTENTS
280
   127
  9
$INDEXCTL
280
     0
  9
$HIDETEXT
280
     0
  9
$XCLIPFRAME
290
     0
  9
$HALOGAP
280
     0
  9
$OBSCOLOR
 70
   257
  9
$OBSLTYPE
280
     0
  9
$INTERSECTIONDISPLAY
280
     0
  9
$INTERSECTIONCOLOR
 70
   257
  9
$DIMASSOC
280
     1
  9
$PROJECTNAME
  1

  0
ENDSEC
  0
SECTION
  2
CLASSES
  0
CLASS
  1
ACDBDICTIONARYWDFLT
  2
AcDbDictionaryWithDefault
  3
ObjectDBX Classes
 90
        0
 91
        1
280
     0
281
     0
  0
CLASS
  1
TABLESTYLE
  2
AcDbTableStyle
  3
ObjectDBX Classes
 90
     2047
 91
        1
280
     0
281
     0
  0
CLASS
  1
SORTENTSTABLE
  2
AcDbSortentsTable
  3
ObjectDBX Classes
 90
        0
 91
        3
280
     0
281
     0
  0
CLASS
  1
DICTIONARYVAR
  2
AcDbDictionaryVar
  3
ObjectDBX Classes
 90
        0
 91
        1
280
     0
281
     0
  0
ENDSEC
  0
SECTION
  2
TABLES
  0
TABLE
  2
VPORT
  5
8
330
0
100
AcDbSymbolTable
 70
     3
  0
VPORT
  5
632
330
8
100
AcDbSymbolTableRecord
100
AcDbViewportTableRecord
  2
*Active
 70
     0
 10
0.0
 20
0.0
 11
1.0
 21
1.0
 12
-12.92632984803794
 22
7.740418008110054
 13
0.0
 23
0.0
 14
1.0
 24
1.0
 15
0.0
 25
0.0
 16
0.0
 26
0.0
 36
1.0
 17
0.0
 27
0.0
 37
0.0
 40
111.6183944256691
 41
1.526854219948849
 42
50.0
 43
0.0
 44
0.0
 50
0.0
 51
0.0
 71
     0
 72
   100
 73
     1
 74
     1
 75
     0
 76
     0
 77
     0
 78
     0
281
     0
 65
     1
110
0.0
120
0.0
130
0.0
111
1.0
121
0.0
131
0.0
112
0.0
122
1.0
132
0.0
 79
     0
146
0.0
  0
ENDTAB
  0
TABLE
  2
LTYPE
  5
5
330
0
100
AcDbSymbolTable
 70
     6
  0
LTYPE
  5
14
330
5
100
AcDbSymbolTableRecord
100
AcDbLinetypeTableRecord
  2
BYBLOCK
 70
     0
  3

 72
    65
 73
     0
 40
0.0
  0
LTYPE
  5
15
330
5
100
AcDbSymbolTableRecord
100
AcDbLinetypeTableRecord
  2
BYLAYER
 70
     0
  3

 72
    65
 73
     0
 40
0.0
  0
LTYPE
  5
16
330
5
100
AcDbSymbolTableRecord
100
AcDbLinetypeTableRecord
  2
CONTINUOUS
 70
     0
  3
Solid line
 72
    65
 73
     0
 40
0.0
  0
LTYPE
  5
1F5
330
5
100
AcDbSymbolTableRecord
100
AcDbLinetypeTableRecord
  2
CENTER
 70
     0
  3
____ _ ____ _ ____ _ ____ _ ____ _ ____ _ ____
 72
    65
 73
     4
 40
0.6
 49
0.375
 74
     0
 49
-0.075
 74
     0
 49
0.075
 74
     0
 49
-0.075
 74
     0
  0
LTYPE
  5
1F6
330
5
100
AcDbSymbolTableRecord
100
AcDbLinetypeTableRecord
  2
HIDDEN
 70
     0
  3
- - - - - - - - - - - - - - - - - - - -
 72
    65
 73
     2
 40
0.2
 49
0.1
 74
     0
 49
-0.1
 74
     0
  0
ENDTAB
  0
TABLE
  2
LAYER
  5
2
102
{ACAD_XDICTIONARY
360
2C3
102
}
330
0
100
AcDbSymbolTable
 70
    14
  0
LAYER
  5
10
330
2
100
AcDbSymbolTableRecord
100
AcDbLayerTableRecord
  2
0
 70
     0
 62
     7
  6
CONTINUOUS
370
    -3
390
28B
  0
LAYER
  5
1FD
330
2
100
AcDbSymbolTableRecord
100
AcDbLayerTableRecord
  2
1
 70
     0
 62
     4
  6
CONTINUOUS
370
    -3
390
28B
  0
LAYER
  5
1FE
330
2
100
AcDbSymbolTableRecord
100
AcDbLayerTableRecord
  2
2
 70
     0
 62
     7
  6
CONTINUOUS
370
    -3
390
28B
  0
LAYER
  5
1FF
330
2
100
AcDbSymbolTableRecord
100
AcDbLayerTableRecord
  2
4
 70
     0
 62
     2
  6
CENTER
370
    -3
390
28B
  0
LAYER
  5
200
330
2
100
AcDbSymbolTableRecord
100
AcDbLayerTableRecord
  2
6
 70
     0
 62
     5
  6
CONTINUOUS
370
    -3
390
28B
  0
LAYER
  5
201
330
2
100
AcDbSymbolTableRecord
100
AcDbLayerTableRecord
  2
NOCUT
 70
     0
 62
     7
  6
CONTINUOUS
370
    -3
390
28B
  0
LAYER
  5
202
330
2
100
AcDbSymbolTableRecord
100
AcDbLayerTableRecord
  2
SK3
 70
     0
 62
     1
  6
HIDDEN
370
    -3
390
28B
  0
LAYER
  5
295
330
2
100
AcDbSymbolTableRecord
100
AcDbLayerTableRecord
  2
Defpoints
 70
     0
 62
     7
  6
CONTINUOUS
290
     0
370
    -3
390
28B
  0
LAYER
  5
2FC
330
2
100
AcDbSymbolTableRecord
100
AcDbLayerTableRecord
  2
SK2
 70
     0
 62
     7
  6
CONTINUOUS
370
    -3
390
28B
  0
LAYER
  5
2FD
330
2
100
AcDbSymbolTableRecord
100
AcDbLayerTableRecord
  2
SK1
 70
     0
 62
     4
  6
CONTINUOUS
370
    -3
390
28B
  0
LAYER
  5
2FE
330
2
100
AcDbSymbolTableRecord
100
AcDbLayerTableRecord
  2
SK4
 70
     0
 62
     2
  6
CENTER
370
    -3
390
28B
  0
ENDTAB
  0
TABLE
  2
STYLE
  5
3
330
0
100
AcDbSymbolTable
 70
     1
  0
STYLE
  5
11
330
3
100
AcDbSymbolTableRecord
100
AcDbTextStyleTableRecord
  2
STANDARD
 70
     0
 40
0.0
 41
0.8
 50
0.0
 71
     0
 42
0.2
  3
isocp.shx
  4

  0
ENDTAB
  0
TABLE
  2
VIEW
  5
6
330
0
100
AcDbSymbolTable
 70
     0
  0
ENDTAB
  0
TABLE
  2
UCS
  5
7
330
0
100
AcDbSymbolTable
 70
     0
  0
ENDTAB
  0
TABLE
  2
APPID
  5
9
330
0
100
AcDbSymbolTable
 70
     2
  0
APPID
  5
203
330
9
100
AcDbSymbolTableRecord
100
AcDbRegAppTableRecord
  2
ACAD
 70
     0
  0
APPID
  5
463
330
9
100
AcDbSymbolTableRecord
100
AcDbRegAppTableRecord
  2
ACAD_DSTYLE_DIMTEXT_FILL
 70
     0
  0
ENDTAB
  0
TABLE
  2
DIMSTYLE
  5
A
330
0
100
AcDbSymbolTable
 70
     4
100
AcDbDimStyleTable
 71
     1
340
2FF
  0
DIMSTYLE
105
2FF
102
{ACAD_REACTORS
330
301
330
302
330
303
330
240
330
23C
330
23E
330
23D
330
23F
102
}
330
A
100
AcDbSymbolTableRecord
100
AcDbDimStyleTableRecord
  2
ISO-25
 70
     0
 41
3.5
 42
0.625
 43
3.75
 44
2.0
 73
     0
 74
     0
 77
     1
 78
     8
140
3.5
141
2.5
143
0.03937007874016
147
0.625
171
     3
172
     1
176
   256
177
   256
178
   256
271
     2
272
     2
274
     3
283
     0
284
     8
340
11
  0
DIMSTYLE
105
4EF
330
A
100
AcDbSymbolTableRecord
100
AcDbDimStyleTableRecord
  2
STANDARD
 70
     0
 41
2.5
 47
0.005
 48
0.005
 71
     1
 73
     0
 74
     0
 77
     1
 78
     8
140
3.5
178
     2
271
     3
272
     3
284
     8
340
11
341
206
342
206
343
206
344
206
  0
ENDTAB
  0
TABLE
  2
BLOCK_RECORD
  5
1
330
0
100
AcDbSymbolTable
 70
    26
  0
BLOCK_RECORD
  5
1B
102
{ACAD_XDICTIONARY
360
49D
102
}
330
1
100
AcDbSymbolTableRecord
100
AcDbBlockTableRecord
  2
*MODEL_SPACE
340
292
  0
BLOCK_RECORD
  5
1C
330
1
100
AcDbSymbolTableRecord
100
AcDbBlockTableRecord
  2
*PAPER_SPACE
340
293
  0
BLOCK_RECORD
  5
206
330
1
100
AcDbSymbolTableRecord
100
AcDbBlockTableRecord
  2
_FILLED
340
0
  0
BLOCK_RECORD
  5
207
330
1
100
AcDbSymbolTableRecord
100
AcDbBlockTableRecord
  2
*D1
340
0
  0
BLOCK_RECORD
  5
208
330
1
100
AcDbSymbolTableRecord
100
AcDbBlockTableRecord
  2
*D2
340
0
  0
BLOCK_RECORD
  5
209
330
1
100
AcDbSymbolTableRecord
100
AcDbBlockTableRecord
  2
*D3
340
0
  0
BLOCK_RECORD
  5
20A
330
1
100
AcDbSymbolTableRecord
100
AcDbBlockTableRecord
  2
*D4
340
0
  0
BLOCK_RECORD
  5
20B
330
1
100
AcDbSymbolTableRecord
100
AcDbBlockTableRecord
  2
*D5
340
0
  0
BLOCK_RECORD
  5
2C6
330
1
100
AcDbSymbolTableRecord
100
AcDbBlockTableRecord
  2
NULLPUNKT_BL0
340
0
102
{BLKREFS
331
335
331
36F
331
53B
102
}
  0
BLOCK_RECORD
  5
4DD
330
1
100
AcDbSymbolTableRecord
100
AcDbBlockTableRecord
  2
EINFUEGEPUNKT_BL1
340
0
102
{BLKREFS
331
53C
331
58D
102
}
  0
ENDTAB
  0
ENDSEC
  0
SECTION
  2
BLOCKS
  0
BLOCK
  5
1E
330
1B
100
AcDbEntity
  8
0
100
AcDbBlockBegin
  2
*MODEL_SPACE
 70
     0
 10
0.0
 20
0.0
 30
0.0
  3
*MODEL_SPACE
  1

  0
ENDBLK
  5
1F
330
1B
100
AcDbEntity
  8
0
100
AcDbBlockEnd
  0
BLOCK
  5
20
330
1C
100
AcDbEntity
 67
     1
  8
0
100
AcDbBlockBegin
  2
*PAPER_SPACE
 70
     0
 10
0.0
 20
0.0
 30
0.0
  3
*PAPER_SPACE
  1

  0
ENDBLK
  5
21
330
1C
100
AcDbEntity
 67
     1
  8
0
100
AcDbBlockEnd
  0
BLOCK
  5
239
330
206
100
AcDbEntity
  8
0
100
AcDbBlockBegin
  2
_FILLED
 70
     0
 10
0.0
 20
0.0
 30
0.0
  3
_FILLED
  1

  0
SOLID
  5
23A
330
206
100
AcDbEntity
  8
0
  6
ByBlock
 62
     0
100
AcDbTrace
 10
0.0
 20
0.0
 30
0.0
 11
-1.0
 21
0.132
 31
0.0
 12
-1.0
 22
-0.132
 32
0.0
 13
-1.0
 23
-0.132
 33
0.0
  0
ENDBLK
  5
23B
330
206
100
AcDbEntity
  8
0
  6
ByBlock
 62
     0
100
AcDbBlockEnd
  0
BLOCK
  5
20C
330
207
100
AcDbEntity
  8
2
  6
Continuous
 62
     7
100
AcDbBlockBegin
  2
*D1
 70
     1
 10
0.0
 20
0.0
 30
0.0
  3
*D1
  1

  0
LINE
  5
43F
330
207
100
AcDbEntity
  8
2
370
    -2
100
AcDbLine
 10
44.99999999999999
 20
11.32499999999999
 30
0.0
 11
44.99999999999999
 21
26.70833274839998
 31
0.0
  0
LINE
  5
440
330
207
100
AcDbEntity
  8
2
370
    -2
100
AcDbLine
 10
0.0
 20
14.08542902879998
 30
0.0
 11
0.0000000000000008
 21
26.70833274839998
 31
0.0
  0
LINE
  5
441
330
207
100
AcDbEntity
  8
2
370
    -2
100
AcDbLine
 10
41.49999999999998
 20
24.70833274839999
 30
0.0
 11
3.5
 21
24.70833274839999
 31
0.0
  0
SOLID
  5
442
330
207
100
AcDbEntity
  8
2
100
AcDbTrace
 10
41.49999999999998
 20
25.29166608173332
 30
0.0
 11
41.49999999999998
 21
24.12499941506665
 31
0.0
 12
44.99999999999999
 22
24.70833274839999
 32
0.0
 13
44.99999999999999
 23
24.70833274839999
 33
0.0
  0
SOLID
  5
443
330
207
100
AcDbEntity
  8
2
100
AcDbTrace
 10
3.5
 20
25.29166608173332
 30
0.0
 11
3.5
 21
24.12499941506665
 31
0.0
 12
0.0000000000000007
 22
24.70833274839999
 32
0.0
 13
0.0000000000000007
 23
24.70833274839999
 33
0.0
  0
MTEXT
  5
444
330
207
100
AcDbEntity
  8
2
100
AcDbMText
 10
22.60542902440001
 20
27.08333274839998
 30
0.0
 40
3.5
 41
0.0
 71
     5
 72
     1
  1
45
 73
     1
 44
1.0
  0
POINT
  5
445
330
207
100
AcDbEntity
  8
Defpoints
 62
     0
100
AcDbPoint
 10
44.99999999999999
 20
10.69999999999999
 30
0.0
  0
POINT
  5
446
330
207
100
AcDbEntity
  8
Defpoints
 62
     0
100
AcDbPoint
 10
0.0
 20
13.46042902879998
 30
0.0
  0
POINT
  5
447
330
207
100
AcDbEntity
  8
Defpoints
 62
     0
100
AcDbPoint
 10
0.0000000000000007
 20
24.70833274839999
 30
0.0
  0
ENDBLK
  5
214
330
207
100
AcDbEntity
  8
0
  6
ByBlock
 62
     0
100
AcDbBlockEnd
  0
BLOCK
  5
215
330
208
100
AcDbEntity
  8
2
  6
Continuous
 62
     7
100
AcDbBlockBegin
  2
*D2
 70
     1
 10
0.0
 20
0.0
 30
0.0
  3
*D2
  1

  0
LINE
  5
612
330
208
100
AcDbEntity
  8
SK2
370
    -2
100
AcDbLine
 10
46.44135092200001
 20
-10.5
 30
0.0
 11
71.83706251933291
 21
-10.5
 31
0.0
  0
LINE
  5
613
330
208
100
AcDbEntity
  8
SK2
370
    -2
100
AcDbLine
 10
45.825
 20
10.5
 30
0.0
 11
71.83706251933291
 21
10.49999999999999
 31
0.0
  0
LINE
  5
614
330
208
100
AcDbEntity
  8
SK2
370
    -2
100
AcDbLine
 10
69.8370625193329
 20
-7.000000000000006
 30
0.0
 11
69.8370625193329
 21
6.999999999999993
 31
0.0
  0
SOLID
  5
615
330
208
100
AcDbEntity
  8
SK2
100
AcDbTrace
 10
69.25372918599958
 20
-7.000000000000006
 30
0.0
 11
70.42039585266623
 21
-7.000000000000007
 31
0.0
 12
69.8370625193329
 22
-10.5
 32
0.0
 13
69.8370625193329
 23
-10.5
 33
0.0
  0
SOLID
  5
616
330
208
100
AcDbEntity
  8
SK2
100
AcDbTrace
 10
69.25372918599958
 20
6.999999999999993
 30
0.0
 11
70.42039585266623
 21
6.999999999999992
 31
0.0
 12
69.8370625193329
 22
10.49999999999999
 32
0.0
 13
69.8370625193329
 23
10.49999999999999
 33
0.0
  0
MTEXT
  5
617
330
208
100
AcDbEntity
  8
SK2
100
AcDbMText
 10
67.46171803114393
 20
-1.256117580167483
 30
0.0
 40
3.5
 41
0.0
 71
     5
 72
     1
  1
%%c21
 11
0.0000000000000001
 21
1.0
 31
0.0
 73
     1
 44
1.0
  0
POINT
  5
618
330
208
100
AcDbEntity
  8
Defpoints
 62
     0
100
AcDbPoint
 10
45.81635092200001
 20
-10.5
 30
0.0
  0
POINT
  5
619
330
208
100
AcDbEntity
  8
Defpoints
 62
     0
100
AcDbPoint
 10
45.2
 20
10.5
 30
0.0
  0
POINT
  5
61A
330
208
100
AcDbEntity
  8
Defpoints
 62
     0
100
AcDbPoint
 10
69.8370625193329
 20
10.49999999999999
 30
0.0
  0
ENDBLK
  5
21D
330
208
100
AcDbEntity
  8
0
  6
ByBlock
 62
     0
100
AcDbBlockEnd
  0
BLOCK
  5
21E
330
209
100
AcDbEntity
  8
2
  6
Continuous
 62
     7
100
AcDbBlockBegin
  2
*D3
 70
     1
 10
0.0
 20
0.0
 30
0.0
  3
*D3
  1

  0
LINE
  5
609
330
209
100
AcDbEntity
  8
SK2
370
    -2
100
AcDbLine
 10
38.12499999999999
 20
5.999999999999999
 30
0.0
 11
62.96371813429153
 21
5.999999999999992
 31
0.0
  0
LINE
  5
60A
330
209
100
AcDbEntity
  8
SK2
370
    -2
100
AcDbLine
 10
38.12499999999999
 20
-6.0
 30
0.0
 11
62.96371813429153
 21
-6.000000000000007
 31
0.0
  0
LINE
  5
60B
330
209
100
AcDbEntity
  8
SK2
370
    -2
100
AcDbLine
 10
60.96371813429152
 20
2.499999999999992
 30
0.0
 11
60.96371813429152
 21
-2.500000000000007
 31
0.0
  0
SOLID
  5
60C
330
209
100
AcDbEntity
  8
SK2
100
AcDbTrace
 10
60.38038480095819
 20
2.499999999999992
 30
0.0
 11
61.54705146762486
 21
2.499999999999992
 31
0.0
 12
60.96371813429152
 22
5.999999999999992
 32
0.0
 13
60.96371813429152
 23
5.999999999999992
 33
0.0
  0
SOLID
  5
60D
330
209
100
AcDbEntity
  8
SK2
100
AcDbTrace
 10
60.38038480095819
 20
-2.500000000000007
 30
0.0
 11
61.54705146762486
 21
-2.500000000000007
 31
0.0
 12
60.96371813429152
 22
-6.000000000000007
 32
0.0
 13
60.96371813429152
 23
-6.000000000000007
 33
0.0
  0
MTEXT
  5
60E
330
209
100
AcDbEntity
  8
SK2
100
AcDbMText
 10
58.58837364610255
 20
0.0000000000000003
 30
0.0
 40
3.5
 41
0.0
 71
     5
 72
     1
  1
M12
 11
0.0000000000000001
 21
1.0
 31
0.0
 73
     1
 44
1.0
  0
POINT
  5
60F
330
209
100
AcDbEntity
  8
Defpoints
 62
     0
100
AcDbPoint
 10
37.49999999999999
 20
6.0
 30
0.0
  0
POINT
  5
610
330
209
100
AcDbEntity
  8
Defpoints
 62
     0
100
AcDbPoint
 10
37.49999999999999
 20
-6.0
 30
0.0
  0
POINT
  5
611
330
209
100
AcDbEntity
  8
Defpoints
 62
     0
100
AcDbPoint
 10
60.96371813429152
 20
-6.000000000000007
 30
0.0
  0
ENDBLK
  5
226
330
209
100
AcDbEntity
  8
0
  6
ByBlock
 62
     0
100
AcDbBlockEnd
  0
BLOCK
  5
227
330
20A
100
AcDbEntity
  8
2
  6
Continuous
 62
     7
100
AcDbBlockBegin
  2
*D4
 70
     1
 10
0.0
 20
0.0
 30
0.0
  3
*D4
  1

  0
LINE
  5
624
330
20A
100
AcDbEntity
  8
SK2
370
    -2
100
AcDbLine
 10
-1.104406209100005
 20
-11.91249999999999
 30
0.0
 11
-95.625
 21
-11.91249999999997
 31
0.0
  0
LINE
  5
625
330
20A
100
AcDbEntity
  8
SK2
370
    -2
100
AcDbLine
 10
-1.655202367099988
 20
11.91249999999999
 30
0.0
 11
-95.625
 21
11.91250000000002
 31
0.0
  0
LINE
  5
626
330
20A
100
AcDbEntity
  8
SK2
370
    -2
100
AcDbLine
 10
-93.625
 20
-8.412499999999967
 30
0.0
 11
-93.625
 21
8.41250000000002
 31
0.0
  0
SOLID
  5
627
330
20A
100
AcDbEntity
  8
SK2
100
AcDbTrace
 10
-94.20833333333332
 20
-8.412499999999967
 30
0.0
 11
-93.04166666666667
 21
-8.412499999999967
 31
0.0
 12
-93.625
 22
-11.91249999999997
 32
0.0
 13
-93.625
 23
-11.91249999999997
 33
0.0
  0
SOLID
  5
628
330
20A
100
AcDbEntity
  8
SK2
100
AcDbTrace
 10
-94.20833333333332
 20
8.41250000000002
 30
0.0
 11
-93.04166666666667
 21
8.41250000000002
 31
0.0
 12
-93.625
 22
11.91250000000002
 32
0.0
 13
-93.625
 23
11.91250000000002
 33
0.0
  0
MTEXT
  5
629
330
20A
100
AcDbEntity
  8
SK2
100
AcDbMText
 10
-96.00034448818897
 20
-0.073778583900008
 30
0.0
 40
3.5
 41
0.0
 71
     5
 72
     1
  1
%%c23.825
 11
0.0000000000000001
 21
1.0
 31
0.0
 73
     1
 44
1.0
  0
POINT
  5
62A
330
20A
100
AcDbEntity
  8
Defpoints
 62
     0
100
AcDbPoint
 10
-0.4794062091000058
 20
-11.91249999999999
 30
0.0
  0
POINT
  5
62B
330
20A
100
AcDbEntity
  8
Defpoints
 62
     0
100
AcDbPoint
 10
-1.030202367099988
 20
11.91249999999999
 30
0.0
  0
POINT
  5
62C
330
20A
100
AcDbEntity
  8
Defpoints
 62
     0
100
AcDbPoint
 10
-93.625
 20
11.91250000000002
 30
0.0
  0
ENDBLK
  5
22F
330
20A
100
AcDbEntity
  8
0
  6
ByBlock
 62
     0
100
AcDbBlockEnd
  0
BLOCK
  5
230
330
20B
100
AcDbEntity
  8
2
  6
Continuous
 62
     7
100
AcDbBlockBegin
  2
*D5
 70
     1
 10
0.0
 20
0.0
 30
0.0
  3
*D5
  1

  0
LINE
  5
61B
330
20B
100
AcDbEntity
  8
SK2
370
    -2
100
AcDbLine
 10
-81.0
 20
10.025
 30
0.0
 11
-81.0
 21
36.70833274839998
 31
0.0
  0
LINE
  5
61C
330
20B
100
AcDbEntity
  8
SK2
370
    -2
100
AcDbLine
 10
44.99999999999999
 20
11.32499999999999
 30
0.0
 11
44.99999999999999
 21
36.70833274839998
 31
0.0
  0
LINE
  5
61D
330
20B
100
AcDbEntity
  8
SK2
370
    -2
100
AcDbLine
 10
-77.5
 20
34.70833274839999
 30
0.0
 11
41.49999999999998
 21
34.70833274839999
 31
0.0
  0
SOLID
  5
61E
330
20B
100
AcDbEntity
  8
SK2
100
AcDbTrace
 10
-77.5
 20
35.29166608173332
 30
0.0
 11
-77.5
 21
34.12499941506665
 31
0.0
 12
-81.0
 22
34.70833274839999
 32
0.0
 13
-81.0
 23
34.70833274839999
 33
0.0
  0
SOLID
  5
61F
330
20B
100
AcDbEntity
  8
SK2
100
AcDbTrace
 10
41.49999999999998
 20
35.29166608173332
 30
0.0
 11
41.49999999999998
 21
34.12499941506665
 31
0.0
 12
44.99999999999999
 22
34.70833274839999
 32
0.0
 13
44.99999999999999
 23
34.70833274839999
 33
0.0
  0
MTEXT
  5
620
330
20B
100
AcDbEntity
  8
SK2
100
AcDbMText
 10
-27.5711596923
 20
37.08367723658896
 30
0.0
 40
3.5
 41
0.0
 71
     5
 72
     1
  1
126
 73
     1
 44
1.0
  0
POINT
  5
621
330
20B
100
AcDbEntity
  8
Defpoints
 62
     0
100
AcDbPoint
 10
-81.0
 20
9.400000000000005
 30
0.0
  0
POINT
  5
622
330
20B
100
AcDbEntity
  8
Defpoints
 62
     0
100
AcDbPoint
 10
44.99999999999999
 20
10.69999999999999
 30
0.0
  0
POINT
  5
623
330
20B
100
AcDbEntity
  8
Defpoints
 62
     0
100
AcDbPoint
 10
44.99999999999999
 20
34.70833274839999
 30
0.0
  0
ENDBLK
  5
238
330
20B
100
AcDbEntity
  8
0
  6
ByBlock
 62
     0
100
AcDbBlockEnd
  0
BLOCK
  5
2C7
330
2C6
100
AcDbEntity
  8
1
  6
Continuous
 62
     3
100
AcDbBlockBegin
  2
NULLPUNKT_BL0
 70
     0
 10
160.23105888
 20
104.9111997364
 30
0.0
  3
NULLPUNKT_BL0
  1

  0
LINE
  5
2C8
330
2C6
100
AcDbEntity
  8
1
  6
Continuous
 62
     4
100
AcDbLine
 10
160.23105888
 20
104.9111997364
 30
0.0
 11
161.73105588
 21
104.9111997364
 31
0.0
  0
ARC
  5
2C9
330
2C6
100
AcDbEntity
  8
1
  6
Continuous
 62
     4
100
AcDbCircle
 10
160.23105888
 20
104.9111997364
 30
0.0
 40
1.499997
100
AcDbArc
 50
180.0
 51
270.0
  0
LINE
  5
2CA
330
2C6
100
AcDbEntity
  8
1
  6
Continuous
 62
     4
100
AcDbLine
 10
160.23105888
 20
104.9111997364
 30
0.0
 11
160.23105888
 21
103.4112027364
 31
0.0
  0
ARC
  5
2CB
330
2C6
100
AcDbEntity
  8
1
  6
Continuous
 62
     4
100
AcDbCircle
 10
160.23105888
 20
104.9111997364
 30
0.0
 40
1.499997
100
AcDbArc
 50
270.0
 51
360.0
  0
ARC
  5
2CC
330
2C6
100
AcDbEntity
  8
1
  6
Continuous
 62
     4
100
AcDbCircle
 10
160.23105888
 20
104.9111997364
 30
0.0
 40
1.499997
100
AcDbArc
 50
0.0
 51
90.0
  0
ARC
  5
2CD
330
2C6
100
AcDbEntity
  8
1
  6
Continuous
 62
     4
100
AcDbCircle
 10
160.23105888
 20
104.9111997364
 30
0.0
 40
1.499997
100
AcDbArc
 50
90.0
 51
180.0
  0
LINE
  5
2CE
330
2C6
100
AcDbEntity
  8
1
  6
Continuous
 62
     4
100
AcDbLine
 10
160.23105888
 20
106.4111967364
 30
0.0
 11
160.23105888
 21
104.9111997364
 31
0.0
  0
LINE
  5
2CF
330
2C6
100
AcDbEntity
  8
1
  6
Continuous
 62
     4
100
AcDbLine
 10
158.73106188
 20
104.9111997364
 30
0.0
 11
160.23105888
 21
104.9111997364
 31
0.0
  0
LWPOLYLINE
  5
2D0
330
2C6
100
AcDbEntity
  8
1
  6
Continuous
 62
     4
100
AcDbPolyline
 90
       18
 70
     0
 43
0.0
 10
160.23105888
 20
104.9111997364
 10
158.73106188
 20
104.9111997364
 10
158.7392790205
 20
105.0679921177
 10
158.7638404133
 20
105.2230666489
 10
158.8044769587
 20
105.3747243009
 10
158.8607434342
 20
105.5213034808
 10
158.9320233724
 20
105.6611982364
 10
159.0175358155
 20
105.7928758515
 10
159.1163438712
 20
105.9148936385
 10
159.2273649779
 20
106.0259147452
 10
159.3493827649
 20
106.1247228009
 10
159.48106038
 20
106.210235244
 10
159.6209551356
 20
106.2815151822
 10
159.7675343155
 20
106.3377816577
 10
159.9191919675
 20
106.3784182031
 10
160.0742664987
 20
106.4029795959
 10
160.23105888
 20
106.4111967364
 10
160.23105888
 20
104.9111997364
  0
HATCH
  5
2D1
330
2C6
100
AcDbEntity
  8
1
  6
Continuous
 62
     4
100
AcDbHatch
 10
0.0
 20
0.0
 30
0.0
210
0.0
220
0.0
230
1.0
  2
SOLID
 70
     1
 71
     0
 91
        1
 92
        1
 93
       17
 72
     1
 10
160.23105888
 20
104.9111997364
 11
158.73106188
 21
104.9111997364
 72
     1
 10
158.73106188
 20
104.9111997364
 11
158.7392790205
 21
105.0679921177
 72
     1
 10
158.7392790205
 20
105.0679921177
 11
158.7638404133
 21
105.2230666489
 72
     1
 10
158.7638404133
 20
105.2230666489
 11
158.8044769587
 21
105.3747243009
 72
     1
 10
158.8044769587
 20
105.3747243009
 11
158.8607434342
 21
105.5213034808
 72
     1
 10
158.8607434342
 20
105.5213034808
 11
158.9320233724
 21
105.6611982364
 72
     1
 10
158.9320233724
 20
105.6611982364
 11
159.0175358155
 21
105.7928758515
 72
     1
 10
159.0175358155
 20
105.7928758515
 11
159.1163438712
 21
105.9148936385
 72
     1
 10
159.1163438712
 20
105.9148936385
 11
159.2273649779
 21
106.0259147452
 72
     1
 10
159.2273649779
 20
106.0259147452
 11
159.3493827649
 21
106.1247228009
 72
     1
 10
159.3493827649
 20
106.1247228009
 11
159.48106038
 21
106.210235244
 72
     1
 10
159.48106038
 20
106.210235244
 11
159.6209551356
 21
106.2815151822
 72
     1
 10
159.6209551356
 20
106.2815151822
 11
159.7675343155
 21
106.3377816577
 72
     1
 10
159.7675343155
 20
106.3377816577
 11
159.9191919675
 21
106.3784182031
 72
     1
 10
159.9191919675
 20
106.3784182031
 11
160.0742664987
 21
106.4029795959
 72
     1
 10
160.0742664987
 20
106.4029795959
 11
160.23105888
 21
106.4111967364
 72
     1
 10
160.23105888
 20
106.4111967364
 11
160.23105888
 21
104.9111997364
 97
        0
 75
     0
 76
     1
 98
        1
 10
0.0
 20
0.0
450
        0
451
        0
460
0.0
461
0.0
452
        0
462
0.0
453
        0
470

  0
LWPOLYLINE
  5
2D2
330
2C6
100
AcDbEntity
  8
1
  6
Continuous
 62
     4
100
AcDbPolyline
 90
       18
 70
     0
 43
0.0
 10
160.23105888
 20
104.9111997364
 10
161.73105588
 20
104.9111997364
 10
161.7228387395
 20
104.7544073551
 10
161.6982773467
 20
104.5993328239
 10
161.6576408013
 20
104.4476751719
 10
161.6013743258
 20
104.301095992
 10
161.5300943876
 20
104.1612012364
 10
161.4445819445
 20
104.0295236213
 10
161.3457738888
 20
103.9075058343
 10
161.2347527821
 20
103.7964847276
 10
161.1127349951
 20
103.6976766719
 10
160.98105738
 20
103.6121642288
 10
160.8411626244
 20
103.5408842906
 10
160.6945834445
 20
103.4846178151
 10
160.5429257925
 20
103.4439812697
 10
160.3878512613
 20
103.4194198769
 10
160.23105888
 20
103.4112027364
 10
160.23105888
 20
104.9111997364
  0
HATCH
  5
2D3
330
2C6
100
AcDbEntity
  8
1
  6
Continuous
 62
     4
100
AcDbHatch
 10
0.0
 20
0.0
 30
0.0
210
0.0
220
0.0
230
1.0
  2
SOLID
 70
     1
 71
     0
 91
        1
 92
        1
 93
       17
 72
     1
 10
160.23105888
 20
104.9111997364
 11
161.73105588
 21
104.9111997364
 72
     1
 10
161.73105588
 20
104.9111997364
 11
161.7228387395
 21
104.7544073551
 72
     1
 10
161.7228387395
 20
104.7544073551
 11
161.6982773467
 21
104.5993328239
 72
     1
 10
161.6982773467
 20
104.5993328239
 11
161.6576408013
 21
104.4476751719
 72
     1
 10
161.6576408013
 20
104.4476751719
 11
161.6013743258
 21
104.301095992
 72
     1
 10
161.6013743258
 20
104.301095992
 11
161.5300943876
 21
104.1612012364
 72
     1
 10
161.5300943876
 20
104.1612012364
 11
161.4445819445
 21
104.0295236213
 72
     1
 10
161.4445819445
 20
104.0295236213
 11
161.3457738888
 21
103.9075058343
 72
     1
 10
161.3457738888
 20
103.9075058343
 11
161.2347527821
 21
103.7964847276
 72
     1
 10
161.2347527821
 20
103.7964847276
 11
161.1127349951
 21
103.6976766719
 72
     1
 10
161.1127349951
 20
103.6976766719
 11
160.98105738
 21
103.6121642288
 72
     1
 10
160.98105738
 20
103.6121642288
 11
160.8411626244
 21
103.5408842906
 72
     1
 10
160.8411626244
 20
103.5408842906
 11
160.6945834445
 21
103.4846178151
 72
     1
 10
160.6945834445
 20
103.4846178151
 11
160.5429257925
 21
103.4439812697
 72
     1
 10
160.5429257925
 20
103.4439812697
 11
160.3878512613
 21
103.4194198769
 72
     1
 10
160.3878512613
 20
103.4194198769
 11
160.23105888
 21
103.4112027364
 72
     1
 10
160.23105888
 20
103.4112027364
 11
160.23105888
 21
104.9111997364
 97
        0
 75
     0
 76
     1
 98
        1
 10
0.0
 20
0.0
450
        0
451
        0
460
0.0
461
0.0
452
        0
462
0.0
453
        0
470

  0
LINE
  5
2D4
330
2C6
100
AcDbEntity
  8
1
  6
Continuous
 62
     4
100
AcDbLine
 10
160.23105888
 20
103.4112027364
 30
0.0
 11
160.23105888
 21
104.9111997364
 31
0.0
  0
ARC
  5
2D5
330
2C6
100
AcDbEntity
  8
1
  6
Continuous
 62
     4
100
AcDbCircle
 10
160.23105888
 20
104.9111997364
 30
0.0
 40
1.499997
100
AcDbArc
 50
270.0
 51
360.0
  0
LINE
  5
2D6
330
2C6
100
AcDbEntity
  8
1
  6
Continuous
 62
     4
100
AcDbLine
 10
161.73105588
 20
104.9111997364
 30
0.0
 11
160.23105888
 21
104.9111997364
 31
0.0
  0
ENDBLK
  5
2D7
330
2C6
100
AcDbEntity
  8
0
  6
ByBlock
 62
     0
100
AcDbBlockEnd
  0
BLOCK
  5
4DE
330
4DD
100
AcDbEntity
  8
1
  6
Continuous
 62
     3
100
AcDbBlockBegin
  2
EINFUEGEPUNKT_BL1
 70
     0
 10
185.23105888
 20
104.9111997364
 30
0.0
  3
EINFUEGEPUNKT_BL1
  1

  0
LINE
  5
4DF
330
4DD
100
AcDbEntity
  8
1
  6
Continuous
 62
     4
100
AcDbLine
 10
185.23105888
 20
104.9111997364
 30
0.0
 11
185.23105888
 21
104.4112007364
 31
0.0
  0
ARC
  5
4E0
330
4DD
100
AcDbEntity
  8
1
  6
Continuous
 62
     4
100
AcDbCircle
 10
185.23105888
 20
104.9111997364
 30
0.0
 40
0.4999990000000001
100
AcDbArc
 50
90.0
 51
180.0
  0
LINE
  5
4E1
330
4DD
100
AcDbEntity
  8
1
  6
Continuous
 62
     4
100
AcDbLine
 10
185.23105888
 20
104.9111997364
 30
0.0
 11
184.73105988
 21
104.9111997364
 31
0.0
  0
ARC
  5
4E2
330
4DD
100
AcDbEntity
  8
1
  6
Continuous
 62
     4
100
AcDbCircle
 10
185.23105888
 20
104.9111997364
 30
0.0
 40
0.4999990000000001
100
AcDbArc
 50
180.0
 51
270.0
  0
ARC
  5
4E3
330
4DD
100
AcDbEntity
  8
1
  6
Continuous
 62
     4
100
AcDbCircle
 10
185.23105888
 20
104.9111997364
 30
0.0
 40
0.4999990000000001
100
AcDbArc
 50
270.0
 51
360.0
  0
ARC
  5
4E4
330
4DD
100
AcDbEntity
  8
1
  6
Continuous
 62
     4
100
AcDbCircle
 10
185.23105888
 20
104.9111997364
 30
0.0
 40
0.4999990000000001
100
AcDbArc
 50
0.0
 51
90.0
  0
LINE
  5
4E5
330
4DD
100
AcDbEntity
  8
1
  6
Continuous
 62
     4
100
AcDbLine
 10
185.73105788
 20
104.9111997364
 30
0.0
 11
185.23105888
 21
104.9111997364
 31
0.0
  0
LINE
  5
4E6
330
4DD
100
AcDbEntity
  8
1
  6
Continuous
 62
     4
100
AcDbLine
 10
185.23105888
 20
105.4111987364
 30
0.0
 11
185.23105888
 21
104.9111997364
 31
0.0
  0
LWPOLYLINE
  5
4E7
330
4DD
100
AcDbEntity
  8
1
  6
Continuous
 62
     4
100
AcDbPolyline
 90
       18
 70
     0
 43
0.0
 10
185.23105888
 20
104.9111997364
 10
185.23105888
 20
105.4111987364
 10
185.2833230071
 20
105.4084596896
 10
185.3350145175
 20
105.4002725586
 10
185.3855670682
 20
105.3867270435
 10
185.4344267948
 20
105.3679715517
 10
185.48105838
 20
105.3442115723
 10
185.5249509184
 20
105.3157074246
 10
185.565623514
 20
105.282771406
 10
185.6026305496
 20
105.2457643704
 10
185.6355665682
 20
105.2050917748
 10
185.6640707159
 20
105.1611992364
 10
185.6878306953
 20
105.1145676512
 10
185.7065861871
 20
105.0657079246
 10
185.7201317022
 20
105.0151553739
 10
185.7283188332
 20
104.9634638635
 10
185.73105788
 20
104.9111997364
 10
185.23105888
 20
104.9111997364
  0
HATCH
  5
4E8
330
4DD
100
AcDbEntity
  8
1
  6
Continuous
 62
     4
100
AcDbHatch
 10
0.0
 20
0.0
 30
0.0
210
0.0
220
0.0
230
1.0
  2
SOLID
 70
     1
 71
     0
 91
        1
 92
        1
 93
       17
 72
     1
 10
185.23105888
 20
104.9111997364
 11
185.23105888
 21
105.4111987364
 72
     1
 10
185.23105888
 20
105.4111987364
 11
185.2833230071
 21
105.4084596896
 72
     1
 10
185.2833230071
 20
105.4084596896
 11
185.3350145175
 21
105.4002725586
 72
     1
 10
185.3350145175
 20
105.4002725586
 11
185.3855670682
 21
105.3867270435
 72
     1
 10
185.3855670682
 20
105.3867270435
 11
185.4344267948
 21
105.3679715517
 72
     1
 10
185.4344267948
 20
105.3679715517
 11
185.48105838
 21
105.3442115723
 72
     1
 10
185.48105838
 20
105.3442115723
 11
185.5249509184
 21
105.3157074246
 72
     1
 10
185.5249509184
 20
105.3157074246
 11
185.565623514
 21
105.282771406
 72
     1
 10
185.565623514
 20
105.282771406
 11
185.6026305496
 21
105.2457643704
 72
     1
 10
185.6026305496
 20
105.2457643704
 11
185.6355665682
 21
105.2050917748
 72
     1
 10
185.6355665682
 20
105.2050917748
 11
185.6640707159
 21
105.1611992364
 72
     1
 10
185.6640707159
 20
105.1611992364
 11
185.6878306953
 21
105.1145676512
 72
     1
 10
185.6878306953
 20
105.1145676512
 11
185.7065861871
 21
105.0657079246
 72
     1
 10
185.7065861871
 20
105.0657079246
 11
185.7201317022
 21
105.0151553739
 72
     1
 10
185.7201317022
 20
105.0151553739
 11
185.7283188332
 21
104.9634638635
 72
     1
 10
185.7283188332
 20
104.9634638635
 11
185.73105788
 21
104.9111997364
 72
     1
 10
185.73105788
 20
104.9111997364
 11
185.23105888
 21
104.9111997364
 97
        0
 75
     0
 76
     1
 98
        1
 10
0.0
 20
0.0
450
        0
451
        0
460
0.0
461
0.0
452
        0
462
0.0
453
        0
470

  0
LWPOLYLINE
  5
4E9
330
4DD
100
AcDbEntity
  8
1
  6
Continuous
 62
     4
100
AcDbPolyline
 90
       18
 70
     0
 43
0.0
 10
185.23105888
 20
104.9111997364
 10
185.23105888
 20
104.4112007364
 10
185.1787947529
 20
104.4139397832
 10
185.1271032425
 20
104.4221269142
 10
185.0765506918
 20
104.4356724293
 10
185.0276909652
 20
104.4544279211
 10
184.98105938
 20
104.4781879005
 10
184.9371668416
 20
104.5066920482
 10
184.896494246
 20
104.5396280668
 10
184.8594872104
 20
104.5766351024
 10
184.8265511918
 20
104.617307698
 10
184.7980470441
 20
104.6612002364
 10
184.7742870647
 20
104.7078318216
 10
184.7555315729
 20
104.7566915482
 10
184.7419860578
 20
104.8072440989
 10
184.7337989268
 20
104.8589356093
 10
184.73105988
 20
104.9111997364
 10
185.23105888
 20
104.9111997364
  0
HATCH
  5
4EA
330
4DD
100
AcDbEntity
  8
1
  6
Continuous
 62
     4
100
AcDbHatch
 10
0.0
 20
0.0
 30
0.0
210
0.0
220
0.0
230
1.0
  2
SOLID
 70
     1
 71
     0
 91
        1
 92
        1
 93
       17
 72
     1
 10
185.23105888
 20
104.9111997364
 11
185.23105888
 21
104.4112007364
 72
     1
 10
185.23105888
 20
104.4112007364
 11
185.1787947529
 21
104.4139397832
 72
     1
 10
185.1787947529
 20
104.4139397832
 11
185.1271032425
 21
104.4221269142
 72
     1
 10
185.1271032425
 20
104.4221269142
 11
185.0765506918
 21
104.4356724293
 72
     1
 10
185.0765506918
 20
104.4356724293
 11
185.0276909652
 21
104.4544279211
 72
     1
 10
185.0276909652
 20
104.4544279211
 11
184.98105938
 21
104.4781879005
 72
     1
 10
184.98105938
 20
104.4781879005
 11
184.9371668416
 21
104.5066920482
 72
     1
 10
184.9371668416
 20
104.5066920482
 11
184.896494246
 21
104.5396280668
 72
     1
 10
184.896494246
 20
104.5396280668
 11
184.8594872104
 21
104.5766351024
 72
     1
 10
184.8594872104
 20
104.5766351024
 11
184.8265511918
 21
104.617307698
 72
     1
 10
184.8265511918
 20
104.617307698
 11
184.7980470441
 21
104.6612002364
 72
     1
 10
184.7980470441
 20
104.6612002364
 11
184.7742870647
 21
104.7078318216
 72
     1
 10
184.7742870647
 20
104.7078318216
 11
184.7555315729
 21
104.7566915482
 72
     1
 10
184.7555315729
 20
104.7566915482
 11
184.7419860578
 21
104.8072440989
 72
     1
 10
184.7419860578
 20
104.8072440989
 11
184.7337989268
 21
104.8589356093
 72
     1
 10
184.7337989268
 20
104.8589356093
 11
184.73105988
 21
104.9111997364
 72
     1
 10
184.73105988
 20
104.9111997364
 11
185.23105888
 21
104.9111997364
 97
        0
 75
     0
 76
     1
 98
        1
 10
0.0
 20
0.0
450
        0
451
        0
460
0.0
461
0.0
452
        0
462
0.0
453
        0
470

  0
LINE
  5
4EB
330
4DD
100
AcDbEntity
  8
1
  6
Continuous
 62
     4
100
AcDbLine
 10
184.73105988
 20
104.9111997364
 30
0.0
 11
185.23105888
 21
104.9111997364
 31
0.0
  0
ARC
  5
4EC
330
4DD
100
AcDbEntity
  8
1
  6
Continuous
 62
     4
100
AcDbCircle
 10
185.23105888
 20
104.9111997364
 30
0.0
 40
0.4999990000000001
100
AcDbArc
 50
180.0
 51
270.0
  0
LINE
  5
4ED
330
4DD
100
AcDbEntity
  8
1
  6
Continuous
 62
     4
100
AcDbLine
 10
185.23105888
 20
104.4112007364
 30
0.0
 11
185.23105888
 21
104.9111997364
 31
0.0
  0
ENDBLK
  5
4EE
330
4DD
100
AcDbEntity
  8
0
  6
ByBlock
 62
     0
100
AcDbBlockEnd
  0
ENDSEC
  0
SECTION
  2
ENTITIES
  0
DIMENSION
  5
23C
330
1B
100
AcDbEntity
  8
2
100
AcDbDimension
  2
*D1
 10
0.0000000000000007
 20
24.70833274839999
 30
0.0
 11
22.60542902440001
 21
24.70833274839999
 31
0.0
 70
   160
  1
45
 71
     5
 42
44.99999999999999
  3
ISO-25
100
AcDbAlignedDimension
 13
44.99999999999999
 23
10.69999999999999
 33
0.0
 14
0.0
 24
13.46042902879998
 34
0.0
 50
180.0
100
AcDbRotatedDimension
  0
DIMENSION
  5
23D
330
1B
100
AcDbEntity
  8
SK2
100
AcDbDimension
  2
*D2
 10
69.8370625193329
 20
10.49999999999999
 30
0.0
 11
69.8370625193329
 21
-1.256117580167483
 31
0.0
 70
   160
  1
%%c21
 71
     5
 42
21.0
  3
ISO-25
100
AcDbAlignedDimension
 13
45.81635092200001
 23
-10.5
 33
0.0
 14
45.2
 24
10.5
 34
0.0
 50
90.0
100
AcDbRotatedDimension
  0
DIMENSION
  5
23E
330
1B
100
AcDbEntity
  8
SK2
100
AcDbDimension
  2
*D3
 10
60.96371813429152
 20
-6.000000000000007
 30
0.0
 11
60.96371813429152
 21
0.0
 31
0.0
 70
   160
  1
M12
 71
     5
 42
12.0
  3
ISO-25
100
AcDbAlignedDimension
 13
37.49999999999999
 23
6.0
 33
0.0
 14
37.49999999999999
 24
-6.0
 34
0.0
 50
270.0
100
AcDbRotatedDimension
  0
DIMENSION
  5
23F
330
1B
100
AcDbEntity
  8
SK2
100
AcDbDimension
  2
*D4
 10
-93.625
 20
11.91250000000002
 30
0.0
 11
-93.625
 21
-0.0737785839000083
 31
0.0
 70
   160
  1
%%c23.825
 71
     5
 42
23.82499999999999
  3
ISO-25
100
AcDbAlignedDimension
 13
-0.4794062091000058
 23
-11.91249999999999
 33
0.0
 14
-1.030202367099988
 24
11.91249999999999
 34
0.0
 50
90.0
100
AcDbRotatedDimension
  0
DIMENSION
  5
240
330
1B
100
AcDbEntity
  8
SK2
100
AcDbDimension
  2
*D5
 10
44.99999999999999
 20
34.70833274839999
 30
0.0
 11
-27.5711596923
 21
34.70833274839999
 31
0.0
 70
   160
  1
126
 71
     5
 42
126.0
  3
ISO-25
100
AcDbAlignedDimension
 13
-81.0
 23
9.400000000000005
 33
0.0
 14
44.99999999999999
 24
10.69999999999999
 34
0.0
100
AcDbRotatedDimension
  0
TEXT
  5
241
330
1B
100
AcDbEntity
  8
6
100
AcDbText
 10
-79.1356990587
 20
-23.3276049766
 30
0.0
 40
5.0
  1
MT3MOD12SK045
 41
0.8
100
AcDbText
  0
LINE
  5
242
330
1B
100
AcDbEntity
  8
SK1
100
AcDbLine
 10
-81.0
 20
8.900000000000005
 30
0.0
 11
-81.0
 21
-8.900000000000005
 31
0.0
  0
LINE
  5
243
330
1B
100
AcDbEntity
  8
SK3
100
AcDbLine
 10
-75.5
 20
6.5
 30
0.0
 11
-75.5
 21
-6.5
 31
0.0
  0
LINE
  5
244
330
1B
100
AcDbEntity
  8
SK3
100
AcDbLine
 10
-74.97499999999999
 20
5.099999999999994
 30
0.0
 11
-74.97499999999999
 21
-5.099999999999994
 31
0.0
  0
LINE
  5
245
330
1B
100
AcDbEntity
  8
SK1
100
AcDbLine
 10
-74.0
 20
9.5
 30
0.0
 11
-74.0
 21
-9.5
 31
0.0
  0
LINE
  5
246
330
1B
100
AcDbEntity
  8
SK1
100
AcDbLine
 10
-73.3839368264
 20
10.11606317359997
 30
0.0
 11
-73.3839368264
 21
-10.11606317370001
 31
0.0
  0
LINE
  5
247
330
1B
100
AcDbEntity
  8
SK3
100
AcDbLine
 10
-56.0
 20
6.0
 30
0.0
 11
-56.0
 21
-6.0
 31
0.0
  0
LINE
  5
248
330
1B
100
AcDbEntity
  8
SK3
100
AcDbLine
 10
-47.5
 20
5.099999999999994
 30
0.0
 11
-47.5
 21
-5.099999999999994
 31
0.0
  0
LINE
  5
249
330
1B
100
AcDbEntity
  8
SK3
100
AcDbLine
 10
-44.7882818986
 20
0.0
 30
0.0
 11
-47.5
 21
-5.099999999999994
 31
0.0
  0
LINE
  5
24A
330
1B
100
AcDbEntity
  8
1
100
AcDbLine
 10
-73.3839368264
 20
10.11606317359997
 30
0.0
 11
-74.0
 21
9.5
 31
0.0
  0
LINE
  5
24B
330
1B
100
AcDbEntity
  8
SK3
100
AcDbLine
 10
-74.97499999999999
 20
-5.099999999999994
 30
0.0
 11
-75.5
 21
-5.625
 31
0.0
  0
LINE
  5
24C
330
1B
100
AcDbEntity
  8
SK1
100
AcDbLine
 10
-73.3839368264
 20
-10.11606317370001
 30
0.0
 11
-74.0
 21
-9.5
 31
0.0
  0
LINE
  5
24D
330
1B
100
AcDbEntity
  8
SK3
100
AcDbLine
 10
-74.97499999999999
 20
5.099999999999994
 30
0.0
 11
-75.5
 21
5.625
 31
0.0
  0
LINE
  5
24E
330
1B
100
AcDbEntity
  8
SK3
100
AcDbLine
 10
-44.7882818986
 20
0.0
 30
0.0
 11
-47.5
 21
5.099999999999994
 31
0.0
  0
LINE
  5
24F
330
1B
100
AcDbEntity
  8
NOCUT
100
AcDbLine
 10
0.0
 20
11.95784341639998
 30
0.0
 11
0.0
 21
0.0
 31
0.0
  0
LINE
  5
250
330
1B
100
AcDbEntity
  8
1
100
AcDbLine
 10
5.0
 20
12.08333274839998
 30
0.0
 11
5.0
 21
-12.08333274840001
 31
0.0
  0
LINE
  5
251
330
1B
100
AcDbEntity
  8
1
100
AcDbLine
 10
8.5
 20
11.91249999999999
 30
0.0
 11
8.5
 21
-11.91249999999999
 31
0.0
  0
LINE
  5
252
330
1B
100
AcDbEntity
  8
SK3
100
AcDbLine
 10
10.0
 20
5.099999999999994
 30
0.0
 11
10.0
 21
-5.099999999999994
 31
0.0
  0
LINE
  5
253
330
1B
100
AcDbEntity
  8
SK3
100
AcDbLine
 10
18.99999999999998
 20
6.0
 30
0.0
 11
18.99999999999998
 21
-6.0
 31
0.0
  0
LINE
  5
254
330
1B
100
AcDbEntity
  8
SK3
100
AcDbLine
 10
10.0
 20
5.099999999999994
 30
0.0
 11
7.288281898500002
 21
0.0
 31
0.0
  0
LINE
  5
255
330
1B
100
AcDbEntity
  8
SK3
100
AcDbLine
 10
10.0
 20
-5.099999999999994
 30
0.0
 11
7.288281898500002
 21
0.0
 31
0.0
  0
LINE
  5
256
330
1B
100
AcDbEntity
  8
1
100
AcDbLine
 10
34.99999999999999
 20
10.5
 30
0.0
 11
34.99999999999999
 21
-10.5
 31
0.0
  0
LINE
  5
257
330
1B
100
AcDbEntity
  8
SK3
100
AcDbLine
 10
36.99999999999999
 20
-6.54947896729999
 30
0.0
 11
36.99999999999999
 21
6.54947896729999
 31
0.0
  0
LINE
  5
258
330
1B
100
AcDbEntity
  8
SK3
100
AcDbLine
 10
38.99999999999998
 20
-6.54947896729999
 30
0.0
 11
38.99999999999998
 21
6.54947896729999
 31
0.0
  0
LINE
  5
259
330
1B
100
AcDbEntity
  8
1
100
AcDbLine
 10
44.7
 20
10.5
 30
0.0
 11
44.7
 21
-10.5
 31
0.0
  0
LINE
  5
25A
330
1B
100
AcDbEntity
  8
1
100
AcDbLine
 10
44.99999999999999
 20
10.19999999999999
 30
0.0
 11
44.99999999999999
 21
-10.20000000000002
 31
0.0
  0
LINE
  5
25B
330
1B
100
AcDbEntity
  8
NOCUT
100
AcDbLine
 10
44.99999999999999
 20
10.19999999999999
 30
0.0
 11
44.99999999999999
 21
0.0000000019999788
 31
0.0
  0
LINE
  5
25C
330
1B
100
AcDbEntity
  8
1
100
AcDbLine
 10
44.99999999999999
 20
-10.20000000000002
 30
0.0
 11
44.7
 21
-10.5
 31
0.0
  0
LINE
  5
25D
330
1B
100
AcDbEntity
  8
1
100
AcDbLine
 10
44.99999999999999
 20
10.19999999999999
 30
0.0
 11
44.7
 21
10.5
 31
0.0
  0
LINE
  5
25E
330
1B
100
AcDbEntity
  8
NOCUT
100
AcDbLine
 10
44.99999999999999
 20
10.19999999999999
 30
0.0
 11
44.7
 21
10.5
 31
0.0
  0
LINE
  5
25F
330
1B
100
AcDbEntity
  8
1
100
AcDbLine
 10
34.99999999999999
 20
-10.5
 30
0.0
 11
8.5
 21
-11.91249999999999
 31
0.0
  0
LINE
  5
260
330
1B
100
AcDbEntity
  8
1
100
AcDbLine
 10
44.7
 20
-10.5
 30
0.0
 11
34.99999999999999
 21
-10.5
 31
0.0
  0
LINE
  5
261
330
1B
100
AcDbEntity
  8
SK1
100
AcDbLine
 10
-74.0
 20
-9.5
 30
0.0
 11
-80.4
 21
-9.5
 31
0.0
  0
LINE
  5
262
330
1B
100
AcDbEntity
  8
SK3
100
AcDbLine
 10
38.99999999999998
 20
-6.550000000000011
 30
0.0
 11
36.99999999999999
 21
-6.550000000000011
 31
0.0
  0
LINE
  5
263
330
1B
100
AcDbEntity
  8
SK3
100
AcDbLine
 10
-75.5
 20
-6.5
 30
0.0
 11
-79.5
 21
-6.5
 31
0.0
  0
LINE
  5
264
330
1B
100
AcDbEntity
  8
SK3
100
AcDbLine
 10
44.49999999999998
 20
-6.25
 30
0.0
 11
38.99999999999998
 21
-6.25
 31
0.0
  0
LINE
  5
265
330
1B
100
AcDbEntity
  8
SK3
100
AcDbLine
 10
-56.0
 20
-6.0
 30
0.0
 11
-75.5
 21
-6.0
 31
0.0
  0
LINE
  5
266
330
1B
100
AcDbEntity
  8
SK3
100
AcDbLine
 10
18.99999999999998
 20
-6.0
 30
0.0
 11
36.99999999999999
 21
-6.0
 31
0.0
  0
LINE
  5
267
330
1B
100
AcDbEntity
  8
SK3
100
AcDbLine
 10
36.99999999999999
 20
-5.099999999999994
 30
0.0
 11
10.0
 21
-5.099999999999994
 31
0.0
  0
LINE
  5
268
330
1B
100
AcDbEntity
  8
SK3
100
AcDbLine
 10
-47.5
 20
-5.099999999999994
 30
0.0
 11
-74.97499999999999
 21
-5.099999999999994
 31
0.0
  0
LINE
  5
269
330
1B
100
AcDbEntity
  8
1
100
AcDbLine
 10
5.0
 20
-12.08333274840001
 30
0.0
 11
-0.0000000000000022
 21
-11.95784341637928
 31
0.0
  0
LINE
  5
26A
330
1B
100
AcDbEntity
  8
4
100
AcDbLine
 10
47.99999999999998
 20
0.0
 30
0.0
 11
0.0
 21
0.0
 31
0.0
  0
LINE
  5
26B
330
1B
100
AcDbEntity
  8
NOCUT
100
AcDbLine
 10
0.0
 20
0.0
 30
0.0
 11
44.99999999999999
 21
0.0
 31
0.0
  0
LINE
  5
26C
330
1B
100
AcDbEntity
  8
SK3
100
AcDbLine
 10
36.99999999999999
 20
5.099999999999994
 30
0.0
 11
10.0
 21
5.099999999999994
 31
0.0
  0
LINE
  5
26D
330
1B
100
AcDbEntity
  8
SK3
100
AcDbLine
 10
-47.5
 20
5.099999999999994
 30
0.0
 11
-74.97499999999999
 21
5.099999999999994
 31
0.0
  0
LINE
  5
26E
330
1B
100
AcDbEntity
  8
SK3
100
AcDbLine
 10
-56.0
 20
6.0
 30
0.0
 11
-75.5
 21
6.0
 31
0.0
  0
LINE
  5
26F
330
1B
100
AcDbEntity
  8
SK3
100
AcDbLine
 10
18.99999999999998
 20
6.0
 30
0.0
 11
36.99999999999999
 21
6.0
 31
0.0
  0
LINE
  5
270
330
1B
100
AcDbEntity
  8
SK3
100
AcDbLine
 10
44.49999999999998
 20
6.25
 30
0.0
 11
38.99999999999998
 21
6.25
 31
0.0
  0
LINE
  5
271
330
1B
100
AcDbEntity
  8
SK3
100
AcDbLine
 10
-75.5
 20
6.5
 30
0.0
 11
-79.5
 21
6.5
 31
0.0
  0
LINE
  5
272
330
1B
100
AcDbEntity
  8
SK3
100
AcDbLine
 10
38.99999999999998
 20
6.549999999999982
 30
0.0
 11
36.99999999999999
 21
6.549999999999982
 31
0.0
  0
LINE
  5
273
330
1B
100
AcDbEntity
  8
SK1
100
AcDbLine
 10
-74.0
 20
9.5
 30
0.0
 11
-80.4
 21
9.5
 31
0.0
  0
LINE
  5
274
330
1B
100
AcDbEntity
  8
1
100
AcDbLine
 10
44.7
 20
10.5
 30
0.0
 11
34.99999999999999
 21
10.5
 31
0.0
  0
LINE
  5
275
330
1B
100
AcDbEntity
  8
NOCUT
100
AcDbLine
 10
44.7
 20
10.5
 30
0.0
 11
34.99999999999999
 21
10.5
 31
0.0
  0
LINE
  5
276
330
1B
100
AcDbEntity
  8
1
100
AcDbLine
 10
34.99999999999999
 20
10.5
 30
0.0
 11
8.5
 21
11.91249999999999
 31
0.0
  0
LINE
  5
277
330
1B
100
AcDbEntity
  8
NOCUT
100
AcDbLine
 10
34.99999999999999
 20
10.5
 30
0.0
 11
8.5
 21
11.91249999999999
 31
0.0
  0
LINE
  5
278
330
1B
100
AcDbEntity
  8
NOCUT
100
AcDbLine
 10
5.0
 20
12.08333274839998
 30
0.0
 11
0.0
 21
11.95784341639998
 31
0.0
  0
LINE
  5
279
330
1B
100
AcDbEntity
  8
1
100
AcDbLine
 10
5.0
 20
12.08333274839998
 30
0.0
 11
0.0000000000000022
 21
11.95784341637287
 31
0.0
  0
ARC
  5
27A
330
1B
100
AcDbEntity
  8
SK3
100
AcDbCircle
 10
44.49999999999998
 20
-6.75
 30
0.0
 40
0.5
100
AcDbArc
 50
0.0000780917
 51
90.0
  0
ARC
  5
27B
330
1B
100
AcDbEntity
  8
SK3
100
AcDbCircle
 10
44.49999999999998
 20
6.75
 30
0.0
 40
0.5
100
AcDbArc
 50
270.0
 51
359.9999219083
  0
ARC
  5
27C
330
1B
100
AcDbEntity
  8
SK3
100
AcDbCircle
 10
-79.5
 20
-8.0
 30
0.0
 40
1.5
100
AcDbArc
 50
90.0
 51
180.0
  0
ARC
  5
27D
330
1B
100
AcDbEntity
  8
SK3
100
AcDbCircle
 10
-79.5
 20
8.0
 30
0.0
 40
1.5
100
AcDbArc
 50
180.0
 51
270.0
  0
ARC
  5
27E
330
1B
100
AcDbEntity
  8
1
100
AcDbCircle
 10
6.9253028862
 20
-15.58950000000001
 30
0.0
 40
4.0
100
AcDbArc
 50
66.81668217800001
 51
118.772022826
  0
ARC
  5
27F
330
1B
100
AcDbEntity
  8
1
100
AcDbCircle
 10
6.9253028862
 20
15.58949999999998
 30
0.0
 40
4.0
100
AcDbArc
 50
241.227977174
 51
293.183317822
  0
ARC
  5
280
330
1B
100
AcDbEntity
  8
SK1
100
AcDbCircle
 10
-80.4
 20
-8.900000000000005
 30
0.0
 40
0.6
100
AcDbArc
 50
180.0
 51
270.0
  0
ARC
  5
281
330
1B
100
AcDbEntity
  8
SK1
100
AcDbCircle
 10
-80.4
 20
8.900000000000005
 30
0.0
 40
0.6
100
AcDbArc
 50
90.0
 51
180.0
  0
ARC
  5
282
330
1B
100
AcDbEntity
  8
NOCUT
100
AcDbCircle
 10
6.925302886300002
 20
15.58949999999998
 30
0.0
 40
4.0
100
AcDbArc
 50
241.227977174
 51
293.183317822
  0
INSERT
  5
36F
330
1B
100
AcDbEntity
  8
1
100
AcDbBlockReference
  2
NULLPUNKT_BL0
 10
0.0
 20
0.0
 30
0.0
  0
LINE
  5
49C
330
1B
100
AcDbEntity
  8
SK4
100
AcDbLine
 10
0.0
 20
0.0
 30
0.0
 11
-84.0
 21
0.0
 31
0.0
  0
LINE
  5
49F
330
1B
100
AcDbEntity
  8
SK1
100
AcDbLine
 10
-0.0000000000000022
 20
-11.95784341637928
 30
0.0
 11
-73.3839368264
 21
-10.11606317370001
 31
0.0
  0
LINE
  5
4A0
330
1B
100
AcDbEntity
  8
SK1
100
AcDbLine
 10
0.0000000000000022
 20
11.95784341637287
 30
0.0
 11
-73.3839368264
 21
10.11606317359997
 31
0.0
  0
INSERT
  5
58D
330
1B
100
AcDbEntity
  8
1
100
AcDbBlockReference
  2
EINFUEGEPUNKT_BL1
 10
45.0
 20
0.0000000020000073
 30
0.0
  0
ENDSEC
  0
SECTION
  2
OBJECTS
  0
DICTIONARY
  5
283
330
0
100
AcDbDictionary
281
     1
  3
ACAD_COLOR
350
28D
  3
ACAD_GROUP
350
284
  3
ACAD_LAYOUT
350
290
  3
ACAD_MATERIAL
350
28C
  3
ACAD_MLINESTYLE
350
285
  3
ACAD_PLOTSETTINGS
350
291
  3
ACAD_PLOTSTYLENAME
350
28A
  3
ACAD_TABLESTYLE
350
28E
  3
AcDbVariableDictionary
350
62D
  0
DICTIONARY
  5
2C3
330
2
100
AcDbDictionary
280
     1
281
     1
  3
ACAD_LAYERFILTERS
360
631
  3
ACLYDICTIONARY
360
630
  0
DICTIONARY
  5
49D
330
1B
100
AcDbDictionary
280
     1
281
     1
  3
ACAD_SORTENTS
360
49E
  0
DICTIONARY
  5
28D
102
{ACAD_REACTORS
330
283
102
}
330
283
100
AcDbDictionary
281
     1
  0
DICTIONARY
  5
284
102
{ACAD_REACTORS
330
283
102
}
330
283
100
AcDbDictionary
281
     1
  0
DICTIONARY
  5
290
102
{ACAD_REACTORS
330
283
102
}
330
283
100
AcDbDictionary
281
     1
  3
Layout1
350
293
  3
Model
350
292
  0
DICTIONARY
  5
28C
102
{ACAD_REACTORS
330
283
102
}
330
283
100
AcDbDictionary
281
     1
  0
DICTIONARY
  5
285
102
{ACAD_REACTORS
330
283
102
}
330
283
100
AcDbDictionary
281
     1
  3
STANDARD
350
286
  0
DICTIONARY
  5
291
102
{ACAD_REACTORS
330
283
102
}
330
283
100
AcDbDictionary
281
     1
  0
ACDBDICTIONARYWDFLT
  5
28A
102
{ACAD_REACTORS
330
283
102
}
330
283
100
AcDbDictionary
281
     1
  3
Normal
350
28B
100
AcDbDictionaryWithDefault
340
28B
  0
DICTIONARY
  5
28E
102
{ACAD_REACTORS
330
283
102
}
330
283
100
AcDbDictionary
281
     1
  3
Standard
350
28F
  0
DICTIONARY
  5
62D
102
{ACAD_REACTORS
330
283
102
}
330
283
100
AcDbDictionary
281
     1
  3
CTABLESTYLE
350
62E
  0
DICTIONARY
  5
631
102
{ACAD_REACTORS
330
2C3
102
}
330
2C3
100
AcDbDictionary
281
     1
  0
DICTIONARY
  5
630
102
{ACAD_REACTORS
330
2C3
102
}
330
2C3
100
AcDbDictionary
281
     1
1001
ACAD
1000
<All
  0
SORTENTSTABLE
  5
49E
102
{ACAD_REACTORS
330
49D
102
}
330
49D
100
AcDbSortentsTable
330
1B
331
264
  5
264
331
275
  5
277
331
250
  5
250
331
23F
  5
23F
331
262
  5
262
331
273
  5
275
331
24E
  5
24E
331
23D
  5
23D
331
282
  5
33D
331
260
  5
260
331
271
  5
273
331
24C
  5
24C
331
280
  5
33B
331
26F
  5
271
331
36F
  5
49F
331
25E
  5
25E
331
24A
  5
24A
331
26D
  5
26F
331
27E
  5
281
331
25C
  5
25C
331
248
  5
248
331
26B
  5
26D
331
27C
  5
27F
331
25A
  5
25A
331
257
  5
257
331
246
  5
246
331
49F
  5
26A
331
269
  5
269
331
27A
  5
27D
331
258
  5
258
331
255
  5
255
331
244
  5
244
331
267
  5
267
331
278
  5
27A
331
253
  5
253
331
242
  5
242
331
265
  5
265
331
276
  5
278
331
251
  5
251
331
240
  5
240
331
263
  5
263
331
274
  5
276
331
24F
  5
24F
331
23E
  5
23E
331
261
  5
261
331
272
  5
274
331
24D
  5
24D
331
23C
  5
23C
331
281
  5
33C
331
270
  5
272
331
25F
  5
25F
331
24B
  5
24B
331
26E
  5
270
331
27F
  5
282
331
25D
  5
25D
331
249
  5
249
331
26C
  5
26E
331
27D
  5
280
331
25B
  5
25B
331
247
  5
247
331
4A0
  5
27C
331
26A
  5
26B
331
27B
  5
27E
331
259
  5
259
331
256
  5
256
331
245
  5
245
331
268
  5
268
331
279
  5
27B
331
254
  5
254
331
243
  5
243
331
49C
  5
26C
331
266
  5
266
331
277
  5
279
331
252
  5
252
331
241
  5
241
  0
LAYOUT
  5
293
102
{ACAD_REACTORS
330
290
102
}
330
290
100
AcDbPlotSettings
  1

  2
\\ingdom02\ITB3
  4

  6

 40
0.0
 41
0.0
 42
0.0
 43
0.0
 44
0.0
 45
0.0
 46
0.0
 47
0.0
 48
0.0
 49
0.0
140
0.0
141
0.0
142
1.0
143
1.0
 70
   688
 72
     0
 73
     0
 74
     5
  7

 75
    16
147
1.0
 76
     0
 77
     2
 78
   300
148
0.0
149
0.0
100
AcDbLayout
  1
Layout1
 70
     1
 71
     1
 10
0.0
 20
0.0
 11
12.0
 21
9.0
 12
0.0
 22
0.0
 32
0.0
 14
1.000000000000000E+20
 24
1.000000000000000E+20
 34
1.000000000000000E+20
 15
-1.000000000000000E+20
 25
-1.000000000000000E+20
 35
-1.000000000000000E+20
146
0.0
 13
0.0
 23
0.0
 33
0.0
 16
1.0
 26
0.0
 36
0.0
 17
0.0
 27
1.0
 37
0.0
 76
     0
330
1C
  0
LAYOUT
  5
292
102
{ACAD_REACTORS
330
290
102
}
330
290
100
AcDbPlotSettings
  1

  2
\\ingdom02\ITB3
  4

  6

 40
0.0
 41
0.0
 42
0.0
 43
0.0
 44
0.0
 45
0.0
 46
0.0
 47
0.0
 48
0.0
 49
0.0
140
0.0
141
0.0
142
1.0
143
1.0
 70
  1712
 72
     0
 73
     0
 74
     0
  7

 75
     0
147
1.0
 76
     0
 77
     2
 78
   300
148
0.0
149
0.0
100
AcDbLayout
  1
Model
 70
     1
 71
     0
 10
0.0
 20
0.0
 11
12.0
 21
9.0
 12
0.0
 22
0.0
 32
0.0
 14
0.0
 24
0.0
 34
0.0
 15
0.0
 25
0.0
 35
0.0
146
0.0
 13
0.0
 23
0.0
 33
0.0
 16
1.0
 26
0.0
 36
0.0
 17
0.0
 27
1.0
 37
0.0
 76
     0
330
1B
  0
MLINESTYLE
  5
286
102
{ACAD_REACTORS
330
285
102
}
330
285
100
AcDbMlineStyle
  2
STANDARD
 70
     0
  3

 62
   256
 51
90.0
 52
90.0
 71
     2
 49
0.5
 62
   256
  6
BYLAYER
 49
-0.5
 62
   256
  6
BYLAYER
  0
ACDBPLACEHOLDER
  5
28B
102
{ACAD_REACTORS
330
28A
102
}
330
28A
  0
TABLESTYLE
  5
28F
102
{ACAD_REACTORS
330
28E
102
}
330
28E
100
AcDbTableStyle
  3
Standard
 70
     0
 71
     0
 40
1.5
 41
1.5
280
     0
281
     0
  7
STANDARD
140
4.5
170
     2
 62
     0
 63
     7
283
     0
274
    -2
284
     1
 64
     0
275
    -2
285
     1
 65
     0
276
    -2
286
     1
 66
     0
277
    -2
287
     1
 67
     0
278
    -2
288
     1
 68
     0
279
    -2
289
     1
 69
     0
  7
STANDARD
140
6.0
170
     5
 62
     0
 63
     7
283
     0
274
    -2
284
     1
 64
     0
275
    -2
285
     1
 65
     0
276
    -2
286
     1
 66
     0
277
    -2
287
     1
 67
     0
278
    -2
288
     1
 68
     0
279
    -2
289
     1
 69
     0
  7
STANDARD
140
4.5
170
     5
 62
     0
 63
     7
283
     0
274
    -2
284
     1
 64
     0
275
    -2
285
     1
 65
     0
276
    -2
286
     1
 66
     0
277
    -2
287
     1
 67
     0
278
    -2
288
     1
 68
     0
279
    -2
289
     1
 69
     0
  0
DICTIONARYVAR
  5
62E
102
{ACAD_REACTORS
330
62D
102
}
330
62D
100
DictionaryVariables
280
     0
  1
STANDARD
  0
ENDSEC
  0
EOF
