  0
SECTION
  2
HEADER
  9
$ACADVER
  1
AC1018
  9
$ACADMAINTVER
 70
    39
  9
$DWGCODEPAGE
  3
ANSI_1252
  9
$INSBASE
 10
0.0
 20
0.0
 30
0.0
  9
$EXTMIN
 10
-97.76129092620834
 20
-24.87213088766686
 30
-0.0015258207003583
  9
$EXTMAX
 10
62.0547642119401
 20
38.67004423480256
 30
0.0000000349246037
  9
$LIMMIN
 10
0.0
 20
0.0
  9
$LIMMAX
 10
297.0
 20
210.0
  9
$ORTHOMODE
 70
     0
  9
$REGENMODE
 70
     1
  9
$FILLMODE
 70
     1
  9
$QTEXTMODE
 70
     0
  9
$MIRRTEXT
 70
     0
  9
$LTSCALE
 40
16.335
  9
$ATTMODE
 70
     1
  9
$TEXTSIZE
 40
0.2
  9
$TRACEWID
 40
0.05
  9
$TEXTSTYLE
  7
STANDARD
  9
$CLAYER
  8
0
  9
$CELTYPE
  6
BYLAYER
  9
$CECOLOR
 62
   256
  9
$CELTSCALE
 40
1.0
  9
$DISPSILH
 70
     0
  9
$DIMSCALE
 40
1.0
  9
$DIMASZ
 40
3.5
  9
$DIMEXO
 40
0.625
  9
$DIMDLI
 40
3.75
  9
$DIMRND
 40
0.0
  9
$DIMDLE
 40
0.0
  9
$DIMEXE
 40
2.0
  9
$DIMTP
 40
0.0
  9
$DIMTM
 40
0.0
  9
$DIMTXT
 40
3.5
  9
$DIMCEN
 40
2.5
  9
$DIMTSZ
 40
0.0
  9
$DIMTOL
 70
     0
  9
$DIMLIM
 70
     0
  9
$DIMTIH
 70
     0
  9
$DIMTOH
 70
     0
  9
$DIMSE1
 70
     0
  9
$DIMSE2
 70
     0
  9
$DIMTAD
 70
     1
  9
$DIMZIN
 70
     8
  9
$DIMBLK
  1

  9
$DIMASO
 70
     1
  9
$DIMSHO
 70
     1
  9
$DIMPOST
  1

  9
$DIMAPOST
  1

  9
$DIMALT
 70
     0
  9
$DIMALTD
 70
     3
  9
$DIMALTF
 40
0.03937007874016
  9
$DIMLFAC
 40
1.0
  9
$DIMTOFL
 70
     1
  9
$DIMTVP
 40
0.0
  9
$DIMTIX
 70
     0
  9
$DIMSOXD
 70
     0
  9
$DIMSAH
 70
     0
  9
$DIMBLK1
  1

  9
$DIMBLK2
  1

  9
$DIMSTYLE
  2
ISO-25
  9
$DIMCLRD
 70
   256
  9
$DIMCLRE
 70
   256
  9
$DIMCLRT
 70
   256
  9
$DIMTFAC
 40
1.0
  9
$DIMGAP
 40
0.625
  9
$DIMJUST
 70
     0
  9
$DIMSD1
 70
     0
  9
$DIMSD2
 70
     0
  9
$DIMTOLJ
 70
     0
  9
$DIMTZIN
 70
     8
  9
$DIMALTZ
 70
     0
  9
$DIMALTTZ
 70
     0
  9
$DIMUPT
 70
     0
  9
$DIMDEC
 70
     2
  9
$DIMTDEC
 70
     2
  9
$DIMALTU
 70
     2
  9
$DIMALTTD
 70
     3
  9
$DIMTXSTY
  7
STANDARD
  9
$DIMAUNIT
 70
     0
  9
$DIMADEC
 70
     0
  9
$DIMALTRND
 40
0.0
  9
$DIMAZIN
 70
     0
  9
$DIMDSEP
 70
    46
  9
$DIMATFIT
 70
     3
  9
$DIMFRAC
 70
     0
  9
$DIMLDRBLK
  1

  9
$DIMLUNIT
 70
     2
  9
$DIMLWD
 70
    -2
  9
$DIMLWE
 70
    -2
  9
$DIMTMOVE
 70
     0
  9
$LUNITS
 70
     2
  9
$LUPREC
 70
     4
  9
$SKETCHINC
 40
0.1
  9
$FILLETRAD
 40
0.0
  9
$AUNITS
 70
     0
  9
$AUPREC
 70
     0
  9
$MENU
  1
.
  9
$ELEVATION
 40
0.0
  9
$PELEVATION
 40
0.0
  9
$THICKNESS
 40
0.0
  9
$LIMCHECK
 70
     0
  9
$CHAMFERA
 40
0.0
  9
$CHAMFERB
 40
0.0
  9
$CHAMFERC
 40
0.0
  9
$CHAMFERD
 40
0.0
  9
$SKPOLY
 70
     0
  9
$TDCREATE
 40
2453794.560590822
  9
$TDUCREATE
 40
2453794.518924155
  9
$TDUPDATE
 40
2453795.324997038
  9
$TDUUPDATE
 40
2453795.283330370
  9
$TDINDWG
 40
0.7644063889
  9
$TDUSRTIMER
 40
0.7644063889
  9
$USRTIMER
 70
     1
  9
$ANGBASE
 50
0.0
  9
$ANGDIR
 70
     0
  9
$PDMODE
 70
     3
  9
$PDSIZE
 40
0.3125
  9
$PLINEWID
 40
0.0
  9
$SPLFRAME
 70
     0
  9
$SPLINETYPE
 70
     6
  9
$SPLINESEGS
 70
     8
  9
$HANDSEED
  5
C6A
  9
$SURFTAB1
 70
     6
  9
$SURFTAB2
 70
     6
  9
$SURFTYPE
 70
     6
  9
$SURFU
 70
     6
  9
$SURFV
 70
     6
  9
$UCSBASE
  2

  9
$UCSNAME
  2

  9
$UCSORG
 10
0.0
 20
0.0
 30
0.0
  9
$UCSXDIR
 10
1.0
 20
0.0
 30
0.0
  9
$UCSYDIR
 10
0.0
 20
1.0
 30
0.0
  9
$UCSORTHOREF
  2

  9
$UCSORTHOVIEW
 70
     0
  9
$UCSORGTOP
 10
0.0
 20
0.0
 30
0.0
  9
$UCSORGBOTTOM
 10
0.0
 20
0.0
 30
0.0
  9
$UCSORGLEFT
 10
0.0
 20
0.0
 30
0.0
  9
$UCSORGRIGHT
 10
0.0
 20
0.0
 30
0.0
  9
$UCSORGFRONT
 10
0.0
 20
0.0
 30
0.0
  9
$UCSORGBACK
 10
0.0
 20
0.0
 30
0.0
  9
$PUCSBASE
  2

  9
$PUCSNAME
  2

  9
$PUCSORG
 10
0.0
 20
0.0
 30
0.0
  9
$PUCSXDIR
 10
1.0
 20
0.0
 30
0.0
  9
$PUCSYDIR
 10
0.0
 20
1.0
 30
0.0
  9
$PUCSORTHOREF
  2

  9
$PUCSORTHOVIEW
 70
     0
  9
$PUCSORGTOP
 10
0.0
 20
0.0
 30
0.0
  9
$PUCSORGBOTTOM
 10
0.0
 20
0.0
 30
0.0
  9
$PUCSORGLEFT
 10
0.0
 20
0.0
 30
0.0
  9
$PUCSORGRIGHT
 10
0.0
 20
0.0
 30
0.0
  9
$PUCSORGFRONT
 10
0.0
 20
0.0
 30
0.0
  9
$PUCSORGBACK
 10
0.0
 20
0.0
 30
0.0
  9
$USERI1
 70
     0
  9
$USERI2
 70
     0
  9
$USERI3
 70
     0
  9
$USERI4
 70
     0
  9
$USERI5
 70
     0
  9
$USERR1
 40
0.0
  9
$USERR2
 40
0.0
  9
$USERR3
 40
0.0
  9
$USERR4
 40
0.0
  9
$USERR5
 40
0.0
  9
$WORLDVIEW
 70
     1
  9
$SHADEDGE
 70
     3
  9
$SHADEDIF
 70
    70
  9
$TILEMODE
 70
     1
  9
$MAXACTVP
 70
    64
  9
$PINSBASE
 10
0.0
 20
0.0
 30
0.0
  9
$PLIMCHECK
 70
     0
  9
$PEXTMIN
 10
1.000000000000000E+20
 20
1.000000000000000E+20
 30
1.000000000000000E+20
  9
$PEXTMAX
 10
-1.000000000000000E+20
 20
-1.000000000000000E+20
 30
-1.000000000000000E+20
  9
$PLIMMIN
 10
0.0
 20
0.0
  9
$PLIMMAX
 10
12.0
 20
9.0
  9
$UNITMODE
 70
     0
  9
$VISRETAIN
 70
     1
  9
$PLINEGEN
 70
     0
  9
$PSLTSCALE
 70
     1
  9
$TREEDEPTH
 70
  3020
  9
$CMLSTYLE
  2
STANDARD
  9
$CMLJUST
 70
     0
  9
$CMLSCALE
 40
1.0
  9
$PROXYGRAPHICS
 70
     1
  9
$MEASUREMENT
 70
     1
  9
$CELWEIGHT
370
    -1
  9
$ENDCAPS
280
     0
  9
$JOINSTYLE
280
     0
  9
$LWDISPLAY
290
     0
  9
$INSUNITS
 70
     0
  9
$HYPERLINKBASE
  1

  9
$STYLESHEET
  1
A1-A2.ctb
  9
$XEDIT
290
     1
  9
$CEPSNTYPE
380
     0
  9
$PSTYLEMODE
290
     1
  9
$FINGERPRINTGUID
  2
{898EE2A5-8675-49CD-8219-321CB53126F3}
  9
$VERSIONGUID
  2
{539902A4-C779-46F8-A591-0CD1B81CD289}
  9
$EXTNAMES
290
     1
  9
$PSVPSCALE
 40
0.0
  9
$OLESTARTUP
290
     0
  9
$SORTENTS
280
   127
  9
$INDEXCTL
280
     0
  9
$HIDETEXT
280
     0
  9
$XCLIPFRAME
290
     0
  9
$HALOGAP
280
     0
  9
$OBSCOLOR
 70
   257
  9
$OBSLTYPE
280
     0
  9
$INTERSECTIONDISPLAY
280
     0
  9
$INTERSECTIONCOLOR
 70
   257
  9
$DIMASSOC
280
     1
  9
$PROJECTNAME
  1

  0
ENDSEC
  0
SECTION
  2
CLASSES
  0
CLASS
  1
ACDBDICTIONARYWDFLT
  2
AcDbDictionaryWithDefault
  3
ObjectDBX Classes
 90
        0
 91
        1
280
     0
281
     0
  0
CLASS
  1
TABLESTYLE
  2
AcDbTableStyle
  3
ObjectDBX Classes
 90
     2047
 91
        1
280
     0
281
     0
  0
CLASS
  1
DICTIONARYVAR
  2
AcDbDictionaryVar
  3
ObjectDBX Classes
 90
        0
 91
        1
280
     0
281
     0
  0
CLASS
  1
SORTENTSTABLE
  2
AcDbSortentsTable
  3
ObjectDBX Classes
 90
        0
 91
        2
280
     0
281
     0
  0
ENDSEC
  0
SECTION
  2
TABLES
  0
TABLE
  2
VPORT
  5
8
330
0
100
AcDbSymbolTable
 70
    16
  0
VPORT
  5
C69
330
8
100
AcDbSymbolTableRecord
100
AcDbViewportTableRecord
  2
*Active
 70
     0
 10
0.0
 20
0.0
 11
1.0
 21
1.0
 12
-17.85326335713412
 22
6.898956673567852
 13
0.0
 23
0.0
 14
1.0
 24
1.0
 15
0.0
 25
0.0
 16
0.0
 26
0.0
 36
1.0
 17
0.0
 27
0.0
 37
0.0
 40
105.1954555510325
 41
1.526854219948849
 42
50.0
 43
0.0
 44
0.0
 50
0.0
 51
0.0
 71
     0
 72
   100
 73
     1
 74
     1
 75
     0
 76
     0
 77
     0
 78
     0
281
     0
 65
     1
110
0.0
120
0.0
130
0.0
111
1.0
121
0.0
131
0.0
112
0.0
122
1.0
132
0.0
 79
     0
146
0.0
  0
ENDTAB
  0
TABLE
  2
LTYPE
  5
5
330
0
100
AcDbSymbolTable
 70
     6
  0
LTYPE
  5
14
330
5
100
AcDbSymbolTableRecord
100
AcDbLinetypeTableRecord
  2
BYBLOCK
 70
     0
  3

 72
    65
 73
     0
 40
0.0
  0
LTYPE
  5
15
330
5
100
AcDbSymbolTableRecord
100
AcDbLinetypeTableRecord
  2
BYLAYER
 70
     0
  3

 72
    65
 73
     0
 40
0.0
  0
LTYPE
  5
16
330
5
100
AcDbSymbolTableRecord
100
AcDbLinetypeTableRecord
  2
CONTINUOUS
 70
     0
  3
Solid line
 72
    65
 73
     0
 40
0.0
  0
LTYPE
  5
1F5
330
5
100
AcDbSymbolTableRecord
100
AcDbLinetypeTableRecord
  2
CENTER
 70
     0
  3
____ _ ____ _ ____ _ ____ _ ____ _ ____ _ ____
 72
    65
 73
     4
 40
0.6
 49
0.375
 74
     0
 49
-0.075
 74
     0
 49
0.075
 74
     0
 49
-0.075
 74
     0
  0
LTYPE
  5
1F6
330
5
100
AcDbSymbolTableRecord
100
AcDbLinetypeTableRecord
  2
HIDDEN
 70
     0
  3
- - - - - - - - - - - - - - - - - - - -
 72
    65
 73
     2
 40
0.2
 49
0.1
 74
     0
 49
-0.1
 74
     0
  0
ENDTAB
  0
TABLE
  2
LAYER
  5
2
102
{ACAD_XDICTIONARY
360
296
102
}
330
0
100
AcDbSymbolTable
 70
    20
  0
LAYER
  5
10
330
2
100
AcDbSymbolTableRecord
100
AcDbLayerTableRecord
  2
0
 70
     0
 62
     7
  6
CONTINUOUS
370
    -3
390
28C
  0
LAYER
  5
1FD
330
2
100
AcDbSymbolTableRecord
100
AcDbLayerTableRecord
  2
1
 70
     0
 62
     4
  6
CONTINUOUS
370
    -3
390
28C
  0
LAYER
  5
1FE
330
2
100
AcDbSymbolTableRecord
100
AcDbLayerTableRecord
  2
2
 70
     0
 62
     7
  6
CONTINUOUS
370
    -3
390
28C
  0
LAYER
  5
1FF
330
2
100
AcDbSymbolTableRecord
100
AcDbLayerTableRecord
  2
4
 70
     0
 62
     2
  6
CENTER
370
    -3
390
28C
  0
LAYER
  5
200
330
2
100
AcDbSymbolTableRecord
100
AcDbLayerTableRecord
  2
6
 70
     0
 62
     5
  6
CONTINUOUS
370
    -3
390
28C
  0
LAYER
  5
201
330
2
100
AcDbSymbolTableRecord
100
AcDbLayerTableRecord
  2
NOCUT
 70
     0
 62
     7
  6
CONTINUOUS
370
    -3
390
28C
  0
LAYER
  5
202
330
2
100
AcDbSymbolTableRecord
100
AcDbLayerTableRecord
  2
SK3
 70
     0
 62
     1
  6
HIDDEN
370
    -3
390
28C
  0
LAYER
  5
306
330
2
100
AcDbSymbolTableRecord
100
AcDbLayerTableRecord
  2
SK2
 70
     0
 62
     7
  6
CONTINUOUS
370
    -3
390
28C
  0
LAYER
  5
307
330
2
100
AcDbSymbolTableRecord
100
AcDbLayerTableRecord
  2
Defpoints
 70
     0
 62
     7
  6
CONTINUOUS
290
     0
370
    -3
390
28C
  0
LAYER
  5
308
330
2
100
AcDbSymbolTableRecord
100
AcDbLayerTableRecord
  2
SK1
 70
     0
 62
     4
  6
CONTINUOUS
370
    -3
390
28C
  0
LAYER
  5
5E3
330
2
100
AcDbSymbolTableRecord
100
AcDbLayerTableRecord
  2
SK4
 70
     0
 62
     2
  6
CENTER
370
    -3
390
28C
  0
ENDTAB
  0
TABLE
  2
STYLE
  5
3
330
0
100
AcDbSymbolTable
 70
     2
  0
STYLE
  5
11
330
3
100
AcDbSymbolTableRecord
100
AcDbTextStyleTableRecord
  2
STANDARD
 70
     0
 40
0.0
 41
0.8
 50
0.0
 71
     0
 42
0.2
  3
isocp.shx
  4

  0
ENDTAB
  0
TABLE
  2
VIEW
  5
6
330
0
100
AcDbSymbolTable
 70
     0
  0
ENDTAB
  0
TABLE
  2
UCS
  5
7
330
0
100
AcDbSymbolTable
 70
     0
  0
ENDTAB
  0
TABLE
  2
APPID
  5
9
330
0
100
AcDbSymbolTable
 70
     3
  0
APPID
  5
203
330
9
100
AcDbSymbolTableRecord
100
AcDbRegAppTableRecord
  2
ACAD
 70
     0
  0
APPID
  5
486
330
9
100
AcDbSymbolTableRecord
100
AcDbRegAppTableRecord
  2
ACAD_DSTYLE_DIMTEXT_FILL
 70
     0
  0
APPID
  5
570
330
9
100
AcDbSymbolTableRecord
100
AcDbRegAppTableRecord
  2
ACAD_PSEXT
 70
     0
  0
ENDTAB
  0
TABLE
  2
DIMSTYLE
  5
A
330
0
100
AcDbSymbolTable
 70
     6
100
AcDbDimStyleTable
 71
     2
340
309
340
204
  0
DIMSTYLE
105
204
330
A
100
AcDbSymbolTableRecord
100
AcDbDimStyleTableRecord
  2
STANDARD
 70
     0
 41
2.5
 47
0.005
 48
0.005
 71
     1
 73
     0
 74
     0
 77
     1
 78
     8
140
3.5
178
     2
271
     3
272
     3
284
     8
340
11
341
206
342
206
343
206
344
206
  0
DIMSTYLE
105
309
102
{ACAD_REACTORS
330
30E
330
30F
330
30B
330
30D
330
310
330
30C
330
93F
330
93E
330
941
330
93D
330
940
102
}
330
A
100
AcDbSymbolTableRecord
100
AcDbDimStyleTableRecord
  2
ISO-25
 70
     0
 41
3.5
 42
0.625
 43
3.75
 44
2.0
 73
     0
 74
     0
 77
     1
 78
     8
140
3.5
141
2.5
143
0.03937007874016
147
0.625
171
     3
172
     1
176
   256
177
   256
178
   256
271
     2
272
     2
274
     3
283
     0
284
     8
340
11
  0
ENDTAB
  0
TABLE
  2
BLOCK_RECORD
  5
1
330
0
100
AcDbSymbolTable
 70
    68
  0
BLOCK_RECORD
  5
1B
102
{ACAD_XDICTIONARY
360
57D
102
}
330
1
100
AcDbSymbolTableRecord
100
AcDbBlockTableRecord
  2
*MODEL_SPACE
340
293
  0
BLOCK_RECORD
  5
1C
330
1
100
AcDbSymbolTableRecord
100
AcDbBlockTableRecord
  2
*PAPER_SPACE
340
294
  0
BLOCK_RECORD
  5
206
330
1
100
AcDbSymbolTableRecord
100
AcDbBlockTableRecord
  2
_FILLED
340
0
102
{BLKREFS
331
8AF
331
8B0
331
8BA
331
8BB
331
8C5
331
8C6
331
8D0
331
8D1
331
8DA
331
8DB
102
}
  0
BLOCK_RECORD
  5
2E2
330
1
100
AcDbSymbolTableRecord
100
AcDbBlockTableRecord
  2
NULLPUNKT_BL0
340
0
102
{BLKREFS
331
311
331
82A
331
BA6
331
BF7
102
}
  0
BLOCK_RECORD
  5
2F4
330
1
100
AcDbSymbolTableRecord
100
AcDbBlockTableRecord
  2
EINFUEGEPUNKT_BL1
340
0
102
{BLKREFS
331
312
331
BA7
331
BF8
102
}
  0
BLOCK_RECORD
  5
991
330
1
100
AcDbSymbolTableRecord
100
AcDbBlockTableRecord
  2
*D52
340
0
  0
BLOCK_RECORD
  5
99D
330
1
100
AcDbSymbolTableRecord
100
AcDbBlockTableRecord
  2
*D53
340
0
  0
BLOCK_RECORD
  5
9A9
330
1
100
AcDbSymbolTableRecord
100
AcDbBlockTableRecord
  2
*D54
340
0
  0
BLOCK_RECORD
  5
9B5
330
1
100
AcDbSymbolTableRecord
100
AcDbBlockTableRecord
  2
*D55
340
0
  0
BLOCK_RECORD
  5
9C1
330
1
100
AcDbSymbolTableRecord
100
AcDbBlockTableRecord
  2
*D56
340
0
  0
ENDTAB
  0
ENDSEC
  0
SECTION
  2
BLOCKS
  0
BLOCK
  5
1E
330
1B
100
AcDbEntity
  8
0
100
AcDbBlockBegin
  2
*MODEL_SPACE
 70
     0
 10
0.0
 20
0.0
 30
0.0
  3
*MODEL_SPACE
  1

  0
ENDBLK
  5
1F
330
1B
100
AcDbEntity
  8
0
100
AcDbBlockEnd
  0
BLOCK
  5
20
330
1C
100
AcDbEntity
 67
     1
  8
0
100
AcDbBlockBegin
  2
*PAPER_SPACE
 70
     0
 10
0.0
 20
0.0
 30
0.0
  3
*PAPER_SPACE
  1

  0
ENDBLK
  5
21
330
1C
100
AcDbEntity
 67
     1
  8
0
100
AcDbBlockEnd
  0
BLOCK
  5
23B
330
206
100
AcDbEntity
  8
0
100
AcDbBlockBegin
  2
_FILLED
 70
     0
 10
0.0
 20
0.0
 30
0.0
  3
_FILLED
  1

  0
SOLID
  5
23C
330
206
100
AcDbEntity
  8
0
  6
ByBlock
 62
     0
100
AcDbTrace
 10
0.0
 20
0.0
 30
0.0
 11
-1.0
 21
0.132
 31
0.0
 12
-1.0
 22
-0.132
 32
0.0
 13
-1.0
 23
-0.132
 33
0.0
  0
ENDBLK
  5
23D
330
206
100
AcDbEntity
  8
0
  6
ByBlock
 62
     0
100
AcDbBlockEnd
  0
BLOCK
  5
2E3
330
2E2
100
AcDbEntity
  8
1
  6
Continuous
 62
     3
100
AcDbBlockBegin
  2
NULLPUNKT_BL0
 70
     0
 10
160.23105888
 20
104.9111997364
 30
0.0
  3
NULLPUNKT_BL0
  1

  0
LINE
  5
2E4
330
2E2
100
AcDbEntity
  8
1
  6
Continuous
 62
     4
100
AcDbLine
 10
160.23105888
 20
104.9111997364
 30
0.0
 11
161.73105588
 21
104.9111997364
 31
0.0
  0
ARC
  5
2E5
330
2E2
100
AcDbEntity
  8
1
  6
Continuous
 62
     4
100
AcDbCircle
 10
160.23105888
 20
104.9111997364
 30
0.0
 40
1.499997
100
AcDbArc
 50
180.0
 51
270.0
  0
LINE
  5
2E6
330
2E2
100
AcDbEntity
  8
1
  6
Continuous
 62
     4
100
AcDbLine
 10
160.23105888
 20
104.9111997364
 30
0.0
 11
160.23105888
 21
103.4112027364
 31
0.0
  0
ARC
  5
2E7
330
2E2
100
AcDbEntity
  8
1
  6
Continuous
 62
     4
100
AcDbCircle
 10
160.23105888
 20
104.9111997364
 30
0.0
 40
1.499997
100
AcDbArc
 50
270.0
 51
360.0
  0
ARC
  5
2E8
330
2E2
100
AcDbEntity
  8
1
  6
Continuous
 62
     4
100
AcDbCircle
 10
160.23105888
 20
104.9111997364
 30
0.0
 40
1.499997
100
AcDbArc
 50
0.0
 51
90.0
  0
ARC
  5
2E9
330
2E2
100
AcDbEntity
  8
1
  6
Continuous
 62
     4
100
AcDbCircle
 10
160.23105888
 20
104.9111997364
 30
0.0
 40
1.499997
100
AcDbArc
 50
90.0
 51
180.0
  0
LINE
  5
2EA
330
2E2
100
AcDbEntity
  8
1
  6
Continuous
 62
     4
100
AcDbLine
 10
160.23105888
 20
106.4111967364
 30
0.0
 11
160.23105888
 21
104.9111997364
 31
0.0
  0
LINE
  5
2EB
330
2E2
100
AcDbEntity
  8
1
  6
Continuous
 62
     4
100
AcDbLine
 10
158.73106188
 20
104.9111997364
 30
0.0
 11
160.23105888
 21
104.9111997364
 31
0.0
  0
LWPOLYLINE
  5
2EC
330
2E2
100
AcDbEntity
  8
1
  6
Continuous
 62
     4
100
AcDbPolyline
 90
       18
 70
     0
 43
0.0
 10
160.23105888
 20
104.9111997364
 10
158.73106188
 20
104.9111997364
 10
158.7392790205
 20
105.0679921177
 10
158.7638404133
 20
105.2230666489
 10
158.8044769587
 20
105.3747243009
 10
158.8607434342
 20
105.5213034808
 10
158.9320233724
 20
105.6611982364
 10
159.0175358155
 20
105.7928758515
 10
159.1163438712
 20
105.9148936385
 10
159.2273649779
 20
106.0259147452
 10
159.3493827649
 20
106.1247228009
 10
159.48106038
 20
106.210235244
 10
159.6209551356
 20
106.2815151822
 10
159.7675343155
 20
106.3377816577
 10
159.9191919675
 20
106.3784182031
 10
160.0742664987
 20
106.4029795959
 10
160.23105888
 20
106.4111967364
 10
160.23105888
 20
104.9111997364
  0
HATCH
  5
2ED
330
2E2
100
AcDbEntity
  8
1
  6
Continuous
 62
     4
100
AcDbHatch
 10
0.0
 20
0.0
 30
0.0
210
0.0
220
0.0
230
1.0
  2
SOLID
 70
     1
 71
     0
 91
        1
 92
        1
 93
       17
 72
     1
 10
160.23105888
 20
104.9111997364
 11
158.73106188
 21
104.9111997364
 72
     1
 10
158.73106188
 20
104.9111997364
 11
158.7392790205
 21
105.0679921177
 72
     1
 10
158.7392790205
 20
105.0679921177
 11
158.7638404133
 21
105.2230666489
 72
     1
 10
158.7638404133
 20
105.2230666489
 11
158.8044769587
 21
105.3747243009
 72
     1
 10
158.8044769587
 20
105.3747243009
 11
158.8607434342
 21
105.5213034808
 72
     1
 10
158.8607434342
 20
105.5213034808
 11
158.9320233724
 21
105.6611982364
 72
     1
 10
158.9320233724
 20
105.6611982364
 11
159.0175358155
 21
105.7928758515
 72
     1
 10
159.0175358155
 20
105.7928758515
 11
159.1163438712
 21
105.9148936385
 72
     1
 10
159.1163438712
 20
105.9148936385
 11
159.2273649779
 21
106.0259147452
 72
     1
 10
159.2273649779
 20
106.0259147452
 11
159.3493827649
 21
106.1247228009
 72
     1
 10
159.3493827649
 20
106.1247228009
 11
159.48106038
 21
106.210235244
 72
     1
 10
159.48106038
 20
106.210235244
 11
159.6209551356
 21
106.2815151822
 72
     1
 10
159.6209551356
 20
106.2815151822
 11
159.7675343155
 21
106.3377816577
 72
     1
 10
159.7675343155
 20
106.3377816577
 11
159.9191919675
 21
106.3784182031
 72
     1
 10
159.9191919675
 20
106.3784182031
 11
160.0742664987
 21
106.4029795959
 72
     1
 10
160.0742664987
 20
106.4029795959
 11
160.23105888
 21
106.4111967364
 72
     1
 10
160.23105888
 20
106.4111967364
 11
160.23105888
 21
104.9111997364
 97
        0
 75
     0
 76
     1
 98
        1
 10
0.0
 20
0.0
450
        0
451
        0
460
0.0
461
0.0
452
        0
462
0.0
453
        0
470

  0
LWPOLYLINE
  5
2EE
330
2E2
100
AcDbEntity
  8
1
  6
Continuous
 62
     4
100
AcDbPolyline
 90
       18
 70
     0
 43
0.0
 10
160.23105888
 20
104.9111997364
 10
161.73105588
 20
104.9111997364
 10
161.7228387395
 20
104.7544073551
 10
161.6982773467
 20
104.5993328239
 10
161.6576408013
 20
104.4476751719
 10
161.6013743258
 20
104.301095992
 10
161.5300943876
 20
104.1612012364
 10
161.4445819445
 20
104.0295236213
 10
161.3457738888
 20
103.9075058343
 10
161.2347527821
 20
103.7964847276
 10
161.1127349951
 20
103.6976766719
 10
160.98105738
 20
103.6121642288
 10
160.8411626244
 20
103.5408842906
 10
160.6945834445
 20
103.4846178151
 10
160.5429257925
 20
103.4439812697
 10
160.3878512613
 20
103.4194198769
 10
160.23105888
 20
103.4112027364
 10
160.23105888
 20
104.9111997364
  0
HATCH
  5
2EF
330
2E2
100
AcDbEntity
  8
1
  6
Continuous
 62
     4
100
AcDbHatch
 10
0.0
 20
0.0
 30
0.0
210
0.0
220
0.0
230
1.0
  2
SOLID
 70
     1
 71
     0
 91
        1
 92
        1
 93
       17
 72
     1
 10
160.23105888
 20
104.9111997364
 11
161.73105588
 21
104.9111997364
 72
     1
 10
161.73105588
 20
104.9111997364
 11
161.7228387395
 21
104.7544073551
 72
     1
 10
161.7228387395
 20
104.7544073551
 11
161.6982773467
 21
104.5993328239
 72
     1
 10
161.6982773467
 20
104.5993328239
 11
161.6576408013
 21
104.4476751719
 72
     1
 10
161.6576408013
 20
104.4476751719
 11
161.6013743258
 21
104.301095992
 72
     1
 10
161.6013743258
 20
104.301095992
 11
161.5300943876
 21
104.1612012364
 72
     1
 10
161.5300943876
 20
104.1612012364
 11
161.4445819445
 21
104.0295236213
 72
     1
 10
161.4445819445
 20
104.0295236213
 11
161.3457738888
 21
103.9075058343
 72
     1
 10
161.3457738888
 20
103.9075058343
 11
161.2347527821
 21
103.7964847276
 72
     1
 10
161.2347527821
 20
103.7964847276
 11
161.1127349951
 21
103.6976766719
 72
     1
 10
161.1127349951
 20
103.6976766719
 11
160.98105738
 21
103.6121642288
 72
     1
 10
160.98105738
 20
103.6121642288
 11
160.8411626244
 21
103.5408842906
 72
     1
 10
160.8411626244
 20
103.5408842906
 11
160.6945834445
 21
103.4846178151
 72
     1
 10
160.6945834445
 20
103.4846178151
 11
160.5429257925
 21
103.4439812697
 72
     1
 10
160.5429257925
 20
103.4439812697
 11
160.3878512613
 21
103.4194198769
 72
     1
 10
160.3878512613
 20
103.4194198769
 11
160.23105888
 21
103.4112027364
 72
     1
 10
160.23105888
 20
103.4112027364
 11
160.23105888
 21
104.9111997364
 97
        0
 75
     0
 76
     1
 98
        1
 10
0.0
 20
0.0
450
        0
451
        0
460
0.0
461
0.0
452
        0
462
0.0
453
        0
470

  0
LINE
  5
2F0
330
2E2
100
AcDbEntity
  8
1
  6
Continuous
 62
     4
100
AcDbLine
 10
160.23105888
 20
103.4112027364
 30
0.0
 11
160.23105888
 21
104.9111997364
 31
0.0
  0
ARC
  5
2F1
330
2E2
100
AcDbEntity
  8
1
  6
Continuous
 62
     4
100
AcDbCircle
 10
160.23105888
 20
104.9111997364
 30
0.0
 40
1.499997
100
AcDbArc
 50
270.0
 51
360.0
  0
LINE
  5
2F2
330
2E2
100
AcDbEntity
  8
1
  6
Continuous
 62
     4
100
AcDbLine
 10
161.73105588
 20
104.9111997364
 30
0.0
 11
160.23105888
 21
104.9111997364
 31
0.0
  0
ENDBLK
  5
2F3
330
2E2
100
AcDbEntity
  8
0
  6
ByBlock
 62
     0
100
AcDbBlockEnd
  0
BLOCK
  5
2F5
330
2F4
100
AcDbEntity
  8
1
  6
Continuous
 62
     3
100
AcDbBlockBegin
  2
EINFUEGEPUNKT_BL1
 70
     0
 10
185.23105888
 20
104.9111997364
 30
0.0
  3
EINFUEGEPUNKT_BL1
  1

  0
LINE
  5
2F6
330
2F4
100
AcDbEntity
  8
1
  6
Continuous
 62
     4
100
AcDbLine
 10
185.23105888
 20
104.9111997364
 30
0.0
 11
185.23105888
 21
104.4112007364
 31
0.0
  0
ARC
  5
2F7
330
2F4
100
AcDbEntity
  8
1
  6
Continuous
 62
     4
100
AcDbCircle
 10
185.23105888
 20
104.9111997364
 30
0.0
 40
0.4999990000000001
100
AcDbArc
 50
90.0
 51
180.0
  0
LINE
  5
2F8
330
2F4
100
AcDbEntity
  8
1
  6
Continuous
 62
     4
100
AcDbLine
 10
185.23105888
 20
104.9111997364
 30
0.0
 11
184.73105988
 21
104.9111997364
 31
0.0
  0
ARC
  5
2F9
330
2F4
100
AcDbEntity
  8
1
  6
Continuous
 62
     4
100
AcDbCircle
 10
185.23105888
 20
104.9111997364
 30
0.0
 40
0.4999990000000001
100
AcDbArc
 50
180.0
 51
270.0
  0
ARC
  5
2FA
330
2F4
100
AcDbEntity
  8
1
  6
Continuous
 62
     4
100
AcDbCircle
 10
185.23105888
 20
104.9111997364
 30
0.0
 40
0.4999990000000001
100
AcDbArc
 50
270.0
 51
360.0
  0
ARC
  5
2FB
330
2F4
100
AcDbEntity
  8
1
  6
Continuous
 62
     4
100
AcDbCircle
 10
185.23105888
 20
104.9111997364
 30
0.0
 40
0.4999990000000001
100
AcDbArc
 50
0.0
 51
90.0
  0
LINE
  5
2FC
330
2F4
100
AcDbEntity
  8
1
  6
Continuous
 62
     4
100
AcDbLine
 10
185.73105788
 20
104.9111997364
 30
0.0
 11
185.23105888
 21
104.9111997364
 31
0.0
  0
LINE
  5
2FD
330
2F4
100
AcDbEntity
  8
1
  6
Continuous
 62
     4
100
AcDbLine
 10
185.23105888
 20
105.4111987364
 30
0.0
 11
185.23105888
 21
104.9111997364
 31
0.0
  0
LWPOLYLINE
  5
2FE
330
2F4
100
AcDbEntity
  8
1
  6
Continuous
 62
     4
100
AcDbPolyline
 90
       18
 70
     0
 43
0.0
 10
185.23105888
 20
104.9111997364
 10
185.23105888
 20
105.4111987364
 10
185.2833230071
 20
105.4084596896
 10
185.3350145175
 20
105.4002725586
 10
185.3855670682
 20
105.3867270435
 10
185.4344267948
 20
105.3679715517
 10
185.48105838
 20
105.3442115723
 10
185.5249509184
 20
105.3157074246
 10
185.565623514
 20
105.282771406
 10
185.6026305496
 20
105.2457643704
 10
185.6355665682
 20
105.2050917748
 10
185.6640707159
 20
105.1611992364
 10
185.6878306953
 20
105.1145676512
 10
185.7065861871
 20
105.0657079246
 10
185.7201317022
 20
105.0151553739
 10
185.7283188332
 20
104.9634638635
 10
185.73105788
 20
104.9111997364
 10
185.23105888
 20
104.9111997364
  0
HATCH
  5
2FF
330
2F4
100
AcDbEntity
  8
1
  6
Continuous
 62
     4
100
AcDbHatch
 10
0.0
 20
0.0
 30
0.0
210
0.0
220
0.0
230
1.0
  2
SOLID
 70
     1
 71
     0
 91
        1
 92
        1
 93
       17
 72
     1
 10
185.23105888
 20
104.9111997364
 11
185.23105888
 21
105.4111987364
 72
     1
 10
185.23105888
 20
105.4111987364
 11
185.2833230071
 21
105.4084596896
 72
     1
 10
185.2833230071
 20
105.4084596896
 11
185.3350145175
 21
105.4002725586
 72
     1
 10
185.3350145175
 20
105.4002725586
 11
185.3855670682
 21
105.3867270435
 72
     1
 10
185.3855670682
 20
105.3867270435
 11
185.4344267948
 21
105.3679715517
 72
     1
 10
185.4344267948
 20
105.3679715517
 11
185.48105838
 21
105.3442115723
 72
     1
 10
185.48105838
 20
105.3442115723
 11
185.5249509184
 21
105.3157074246
 72
     1
 10
185.5249509184
 20
105.3157074246
 11
185.565623514
 21
105.282771406
 72
     1
 10
185.565623514
 20
105.282771406
 11
185.6026305496
 21
105.2457643704
 72
     1
 10
185.6026305496
 20
105.2457643704
 11
185.6355665682
 21
105.2050917748
 72
     1
 10
185.6355665682
 20
105.2050917748
 11
185.6640707159
 21
105.1611992364
 72
     1
 10
185.6640707159
 20
105.1611992364
 11
185.6878306953
 21
105.1145676512
 72
     1
 10
185.6878306953
 20
105.1145676512
 11
185.7065861871
 21
105.0657079246
 72
     1
 10
185.7065861871
 20
105.0657079246
 11
185.7201317022
 21
105.0151553739
 72
     1
 10
185.7201317022
 20
105.0151553739
 11
185.7283188332
 21
104.9634638635
 72
     1
 10
185.7283188332
 20
104.9634638635
 11
185.73105788
 21
104.9111997364
 72
     1
 10
185.73105788
 20
104.9111997364
 11
185.23105888
 21
104.9111997364
 97
        0
 75
     0
 76
     1
 98
        1
 10
0.0
 20
0.0
450
        0
451
        0
460
0.0
461
0.0
452
        0
462
0.0
453
        0
470

  0
LWPOLYLINE
  5
300
330
2F4
100
AcDbEntity
  8
1
  6
Continuous
 62
     4
100
AcDbPolyline
 90
       18
 70
     0
 43
0.0
 10
185.23105888
 20
104.9111997364
 10
185.23105888
 20
104.4112007364
 10
185.1787947529
 20
104.4139397832
 10
185.1271032425
 20
104.4221269142
 10
185.0765506918
 20
104.4356724293
 10
185.0276909652
 20
104.4544279211
 10
184.98105938
 20
104.4781879005
 10
184.9371668416
 20
104.5066920482
 10
184.896494246
 20
104.5396280668
 10
184.8594872104
 20
104.5766351024
 10
184.8265511918
 20
104.617307698
 10
184.7980470441
 20
104.6612002364
 10
184.7742870647
 20
104.7078318216
 10
184.7555315729
 20
104.7566915482
 10
184.7419860578
 20
104.8072440989
 10
184.7337989268
 20
104.8589356093
 10
184.73105988
 20
104.9111997364
 10
185.23105888
 20
104.9111997364
  0
HATCH
  5
301
330
2F4
100
AcDbEntity
  8
1
  6
Continuous
 62
     4
100
AcDbHatch
 10
0.0
 20
0.0
 30
0.0
210
0.0
220
0.0
230
1.0
  2
SOLID
 70
     1
 71
     0
 91
        1
 92
        1
 93
       17
 72
     1
 10
185.23105888
 20
104.9111997364
 11
185.23105888
 21
104.4112007364
 72
     1
 10
185.23105888
 20
104.4112007364
 11
185.1787947529
 21
104.4139397832
 72
     1
 10
185.1787947529
 20
104.4139397832
 11
185.1271032425
 21
104.4221269142
 72
     1
 10
185.1271032425
 20
104.4221269142
 11
185.0765506918
 21
104.4356724293
 72
     1
 10
185.0765506918
 20
104.4356724293
 11
185.0276909652
 21
104.4544279211
 72
     1
 10
185.0276909652
 20
104.4544279211
 11
184.98105938
 21
104.4781879005
 72
     1
 10
184.98105938
 20
104.4781879005
 11
184.9371668416
 21
104.5066920482
 72
     1
 10
184.9371668416
 20
104.5066920482
 11
184.896494246
 21
104.5396280668
 72
     1
 10
184.896494246
 20
104.5396280668
 11
184.8594872104
 21
104.5766351024
 72
     1
 10
184.8594872104
 20
104.5766351024
 11
184.8265511918
 21
104.617307698
 72
     1
 10
184.8265511918
 20
104.617307698
 11
184.7980470441
 21
104.6612002364
 72
     1
 10
184.7980470441
 20
104.6612002364
 11
184.7742870647
 21
104.7078318216
 72
     1
 10
184.7742870647
 20
104.7078318216
 11
184.7555315729
 21
104.7566915482
 72
     1
 10
184.7555315729
 20
104.7566915482
 11
184.7419860578
 21
104.8072440989
 72
     1
 10
184.7419860578
 20
104.8072440989
 11
184.7337989268
 21
104.8589356093
 72
     1
 10
184.7337989268
 20
104.8589356093
 11
184.73105988
 21
104.9111997364
 72
     1
 10
184.73105988
 20
104.9111997364
 11
185.23105888
 21
104.9111997364
 97
        0
 75
     0
 76
     1
 98
        1
 10
0.0
 20
0.0
450
        0
451
        0
460
0.0
461
0.0
452
        0
462
0.0
453
        0
470

  0
LINE
  5
302
330
2F4
100
AcDbEntity
  8
1
  6
Continuous
 62
     4
100
AcDbLine
 10
184.73105988
 20
104.9111997364
 30
0.0
 11
185.23105888
 21
104.9111997364
 31
0.0
  0
ARC
  5
303
330
2F4
100
AcDbEntity
  8
1
  6
Continuous
 62
     4
100
AcDbCircle
 10
185.23105888
 20
104.9111997364
 30
0.0
 40
0.4999990000000001
100
AcDbArc
 50
180.0
 51
270.0
  0
LINE
  5
304
330
2F4
100
AcDbEntity
  8
1
  6
Continuous
 62
     4
100
AcDbLine
 10
185.23105888
 20
104.4112007364
 30
0.0
 11
185.23105888
 21
104.9111997364
 31
0.0
  0
ENDBLK
  5
305
330
2F4
100
AcDbEntity
  8
0
  6
ByBlock
 62
     0
100
AcDbBlockEnd
  0
BLOCK
  5
99B
330
991
100
AcDbEntity
  8
0
100
AcDbBlockBegin
  2
*D52
 70
     1
 10
0.0
 20
0.0
 30
0.0
  3
*D52
  1

  0
LINE
  5
AF2
330
991
100
AcDbEntity
  8
2
370
    -2
100
AcDbLine
 10
30.00000000000003
 20
10.82500000000002
 30
0.0
 11
30.00000000000003
 21
26.70833274840003
 31
0.0
  0
LINE
  5
AF3
330
991
100
AcDbEntity
  8
2
370
    -2
100
AcDbLine
 10
0.0000000000000285
 20
13.31861984920002
 30
0.0
 11
0.0000000000000293
 21
26.70833274840003
 31
0.0
  0
LINE
  5
AF4
330
991
100
AcDbEntity
  8
2
370
    -2
100
AcDbLine
 10
26.50000000000003
 20
24.70833274840003
 30
0.0
 11
3.500000000000029
 21
24.70833274840003
 31
0.0
  0
SOLID
  5
AF5
330
991
100
AcDbEntity
  8
2
100
AcDbTrace
 10
26.50000000000003
 20
25.29166608173336
 30
0.0
 11
26.50000000000003
 21
24.12499941506669
 31
0.0
 12
30.00000000000003
 22
24.70833274840003
 32
0.0
 13
30.00000000000003
 23
24.70833274840003
 33
0.0
  0
SOLID
  5
AF6
330
991
100
AcDbEntity
  8
2
100
AcDbTrace
 10
3.500000000000029
 20
25.29166608173336
 30
0.0
 11
3.500000000000029
 21
24.12499941506669
 31
0.0
 12
0.0000000000000292
 22
24.70833274840003
 32
0.0
 13
0.0000000000000292
 23
24.70833274840003
 33
0.0
  0
MTEXT
  5
AF7
330
991
100
AcDbEntity
  8
2
100
AcDbMText
 10
15.16365907930003
 20
27.08333274840003
 30
0.0
 40
3.5
 41
0.0
 71
     5
 72
     1
  1
30
 73
     1
 44
1.0
  0
POINT
  5
AF8
330
991
100
AcDbEntity
  8
Defpoints
 62
     0
100
AcDbPoint
 10
30.00000000000003
 20
10.20000000000002
 30
0.0
  0
POINT
  5
AF9
330
991
100
AcDbEntity
  8
Defpoints
 62
     0
100
AcDbPoint
 10
0.0000000000000284
 20
12.69361984920002
 30
0.0
  0
POINT
  5
AFA
330
991
100
AcDbEntity
  8
Defpoints
 62
     0
100
AcDbPoint
 10
0.0000000000000292
 20
24.70833274840003
 30
0.0
  0
ENDBLK
  5
99C
330
991
100
AcDbEntity
  8
0
100
AcDbBlockEnd
  0
BLOCK
  5
9A7
330
99D
100
AcDbEntity
  8
0
100
AcDbBlockBegin
  2
*D53
 70
     1
 10
0.0
 20
0.0
 30
0.0
  3
*D53
  1

  0
LINE
  5
AFB
330
99D
100
AcDbEntity
  8
SK2
370
    -2
100
AcDbLine
 10
30.94135092200003
 20
-10.49999999999998
 30
0.0
 11
62.04446882264088
 21
-10.49999999999999
 31
0.0
  0
LINE
  5
AFC
330
99D
100
AcDbEntity
  8
SK2
370
    -2
100
AcDbLine
 10
30.32500000000002
 20
10.50000000000001
 30
0.0
 11
62.04446882264088
 21
10.5
 31
0.0
  0
LINE
  5
AFD
330
99D
100
AcDbEntity
  8
SK2
370
    -2
100
AcDbLine
 10
60.04446882264088
 20
-6.999999999999993
 30
0.0
 11
60.04446882264088
 21
7.000000000000006
 31
0.0
  0
SOLID
  5
AFE
330
99D
100
AcDbEntity
  8
SK2
100
AcDbTrace
 10
59.46113548930754
 20
-6.999999999999993
 30
0.0
 11
60.62780215597421
 21
-6.999999999999993
 31
0.0
 12
60.04446882264088
 22
-10.49999999999999
 32
0.0
 13
60.04446882264088
 23
-10.49999999999999
 33
0.0
  0
SOLID
  5
AFF
330
99D
100
AcDbEntity
  8
SK2
100
AcDbTrace
 10
59.46113548930754
 20
7.000000000000006
 30
0.0
 11
60.62780215597421
 21
7.000000000000006
 31
0.0
 12
60.04446882264088
 22
10.5
 32
0.0
 13
60.04446882264088
 23
10.5
 33
0.0
  0
MTEXT
  5
B00
330
99D
100
AcDbEntity
  8
SK2
100
AcDbMText
 10
57.6691243344519
 20
-0.4562349644513544
 30
0.0
 40
3.5
 41
0.0
 71
     5
 72
     1
  1
%%c21
 11
0.0000000000000001
 21
1.0
 31
0.0
 73
     1
 44
1.0
  0
POINT
  5
B01
330
99D
100
AcDbEntity
  8
Defpoints
 62
     0
100
AcDbPoint
 10
30.31635092200003
 20
-10.49999999999998
 30
0.0
  0
POINT
  5
B02
330
99D
100
AcDbEntity
  8
Defpoints
 62
     0
100
AcDbPoint
 10
29.70000000000002
 20
10.50000000000001
 30
0.0
  0
POINT
  5
B03
330
99D
100
AcDbEntity
  8
Defpoints
 62
     0
100
AcDbPoint
 10
60.04446882264088
 20
10.5
 30
0.0
  0
ENDBLK
  5
9A8
330
99D
100
AcDbEntity
  8
0
100
AcDbBlockEnd
  0
BLOCK
  5
9B3
330
9A9
100
AcDbEntity
  8
0
100
AcDbBlockBegin
  2
*D54
 70
     1
 10
0.0
 20
0.0
 30
0.0
  3
*D54
  1

  0
LINE
  5
B04
330
9A9
100
AcDbEntity
  8
SK2
370
    -2
100
AcDbLine
 10
22.62500000000003
 20
6.000000000000014
 30
0.0
 11
53.30103073180319
 21
6.000000000000006
 31
0.0
  0
LINE
  5
B05
330
9A9
100
AcDbEntity
  8
SK2
370
    -2
100
AcDbLine
 10
22.62500000000003
 20
-5.999999999999985
 30
0.0
 11
53.30103073180319
 21
-5.999999999999993
 31
0.0
  0
LINE
  5
B06
330
9A9
100
AcDbEntity
  8
SK2
370
    -2
100
AcDbLine
 10
51.30103073180319
 20
2.500000000000006
 30
0.0
 11
51.30103073180319
 21
-2.499999999999993
 31
0.0
  0
SOLID
  5
B07
330
9A9
100
AcDbEntity
  8
SK2
100
AcDbTrace
 10
50.71769739846986
 20
2.500000000000006
 30
0.0
 11
51.88436406513653
 21
2.500000000000006
 31
0.0
 12
51.30103073180319
 22
6.000000000000006
 32
0.0
 13
51.30103073180319
 23
6.000000000000006
 33
0.0
  0
SOLID
  5
B08
330
9A9
100
AcDbEntity
  8
SK2
100
AcDbTrace
 10
50.71769739846986
 20
-2.499999999999993
 30
0.0
 11
51.88436406513653
 21
-2.499999999999993
 31
0.0
 12
51.30103073180319
 22
-5.999999999999993
 32
0.0
 13
51.30103073180319
 23
-5.999999999999993
 33
0.0
  0
MTEXT
  5
B09
330
9A9
100
AcDbEntity
  8
SK2
100
AcDbMText
 10
48.92568624361421
 20
0.018695595300031
 30
0.0
 40
3.5
 41
0.0
 71
     5
 72
     1
  1
M12
 11
0.0000000000000001
 21
1.0
 31
0.0
 73
     1
 44
1.0
  0
POINT
  5
B0A
330
9A9
100
AcDbEntity
  8
Defpoints
 62
     0
100
AcDbPoint
 10
22.00000000000003
 20
6.000000000000014
 30
0.0
  0
POINT
  5
B0B
330
9A9
100
AcDbEntity
  8
Defpoints
 62
     0
100
AcDbPoint
 10
22.00000000000003
 20
-5.999999999999985
 30
0.0
  0
POINT
  5
B0C
330
9A9
100
AcDbEntity
  8
Defpoints
 62
     0
100
AcDbPoint
 10
51.30103073180319
 20
-5.999999999999993
 30
0.0
  0
ENDBLK
  5
9B4
330
9A9
100
AcDbEntity
  8
0
100
AcDbBlockEnd
  0
BLOCK
  5
9BF
330
9B5
100
AcDbEntity
  8
0
100
AcDbBlockBegin
  2
*D55
 70
     1
 10
0.0
 20
0.0
 30
0.0
  3
*D55
  1

  0
LINE
  5
B0D
330
9B5
100
AcDbEntity
  8
SK2
370
    -2
100
AcDbLine
 10
-0.4649171551999558
 20
-11.91249999999998
 30
0.0
 11
-95.62499999999998
 21
-11.91249999999995
 31
0.0
  0
LINE
  5
B0E
330
9B5
100
AcDbEntity
  8
SK2
370
    -2
100
AcDbLine
 10
-0.6986120964999714
 20
11.91250000000002
 30
0.0
 11
-95.62499999999998
 21
11.91250000000005
 31
0.0
  0
LINE
  5
B0F
330
9B5
100
AcDbEntity
  8
SK2
370
    -2
100
AcDbLine
 10
-93.62499999999997
 20
-8.412499999999953
 30
0.0
 11
-93.62499999999997
 21
8.412500000000049
 31
0.0
  0
SOLID
  5
B10
330
9B5
100
AcDbEntity
  8
SK2
100
AcDbTrace
 10
-94.2083333333333
 20
-8.412499999999953
 30
0.0
 11
-93.04166666666665
 21
-8.412499999999953
 31
0.0
 12
-93.62499999999997
 22
-11.91249999999995
 32
0.0
 13
-93.62499999999997
 23
-11.91249999999995
 33
0.0
  0
SOLID
  5
B11
330
9B5
100
AcDbEntity
  8
SK2
100
AcDbTrace
 10
-94.2083333333333
 20
8.412500000000049
 30
0.0
 11
-93.04166666666665
 21
8.412500000000049
 31
0.0
 12
-93.62499999999997
 22
11.91250000000005
 32
0.0
 13
-93.62499999999997
 23
11.91250000000005
 33
0.0
  0
MTEXT
  5
B12
330
9B5
100
AcDbEntity
  8
SK2
100
AcDbMText
 10
-96.00034448818895
 20
0.0009723232000172
 30
0.0
 40
3.5
 41
0.0
 71
     5
 72
     1
  1
%%c23.83
 11
0.0000000000000001
 21
1.0
 31
0.0
 73
     1
 44
1.0
  0
POINT
  5
B13
330
9B5
100
AcDbEntity
  8
Defpoints
 62
     0
100
AcDbPoint
 10
0.1600828448000442
 20
-11.91249999999998
 30
0.0
  0
POINT
  5
B14
330
9B5
100
AcDbEntity
  8
Defpoints
 62
     0
100
AcDbPoint
 10
-0.0736120964999714
 20
11.91250000000002
 30
0.0
  0
POINT
  5
B15
330
9B5
100
AcDbEntity
  8
Defpoints
 62
     0
100
AcDbPoint
 10
-93.62499999999997
 20
11.91250000000005
 30
0.0
  0
ENDBLK
  5
9C0
330
9B5
100
AcDbEntity
  8
0
100
AcDbBlockEnd
  0
BLOCK
  5
9CB
330
9C1
100
AcDbEntity
  8
0
100
AcDbBlockBegin
  2
*D56
 70
     1
 10
0.0
 20
0.0
 30
0.0
  3
*D56
  1

  0
LINE
  5
B16
330
9C1
100
AcDbEntity
  8
SK2
370
    -2
100
AcDbLine
 10
-80.99999999999997
 20
9.525000000000019
 30
0.0
 11
-80.99999999999997
 21
36.70833274840003
 31
0.0
  0
LINE
  5
B17
330
9C1
100
AcDbEntity
  8
SK2
370
    -2
100
AcDbLine
 10
30.00000000000003
 20
10.82500000000002
 30
0.0
 11
30.00000000000003
 21
36.70833274840003
 31
0.0
  0
LINE
  5
B18
330
9C1
100
AcDbEntity
  8
SK2
370
    -2
100
AcDbLine
 10
-77.49999999999997
 20
34.70833274840003
 30
0.0
 11
26.50000000000003
 21
34.70833274840003
 31
0.0
  0
SOLID
  5
B19
330
9C1
100
AcDbEntity
  8
SK2
100
AcDbTrace
 10
-77.49999999999997
 20
35.29166608173336
 30
0.0
 11
-77.49999999999997
 21
34.12499941506669
 31
0.0
 12
-80.99999999999997
 22
34.70833274840003
 32
0.0
 13
-80.99999999999997
 23
34.70833274840003
 33
0.0
  0
SOLID
  5
B1A
330
9C1
100
AcDbEntity
  8
SK2
100
AcDbTrace
 10
26.50000000000003
 20
35.29166608173336
 30
0.0
 11
26.50000000000003
 21
34.12499941506669
 31
0.0
 12
30.00000000000003
 22
34.70833274840003
 32
0.0
 13
30.00000000000003
 23
34.70833274840003
 33
0.0
  0
MTEXT
  5
B1B
330
9C1
100
AcDbEntity
  8
SK2
100
AcDbMText
 10
-25.83614242559998
 20
37.08333274840003
 30
0.0
 40
3.5
 41
0.0
 71
     5
 72
     1
  1
111
 73
     1
 44
1.0
  0
POINT
  5
B1C
330
9C1
100
AcDbEntity
  8
Defpoints
 62
     0
100
AcDbPoint
 10
-80.99999999999997
 20
8.900000000000019
 30
0.0
  0
POINT
  5
B1D
330
9C1
100
AcDbEntity
  8
Defpoints
 62
     0
100
AcDbPoint
 10
30.00000000000003
 20
10.20000000000002
 30
0.0
  0
POINT
  5
B1E
330
9C1
100
AcDbEntity
  8
Defpoints
 62
     0
100
AcDbPoint
 10
30.00000000000003
 20
34.70833274840003
 30
0.0
  0
ENDBLK
  5
9CC
330
9C1
100
AcDbEntity
  8
0
100
AcDbBlockEnd
  0
ENDSEC
  0
SECTION
  2
ENTITIES
  0
DIMENSION
  5
93D
330
1B
100
AcDbEntity
  8
2
100
AcDbDimension
  2
*D52
 10
0.0000000000000292
 20
24.70833274840003
 30
0.0
 11
15.16365907930003
 21
24.70833274840003
 31
0.0
 70
   160
 71
     5
 42
30.0
  3
ISO-25
100
AcDbAlignedDimension
 13
30.00000000000003
 23
10.20000000000002
 33
0.0
 14
0.0000000000000284
 24
12.69361984920002
 34
0.0
 50
180.0
100
AcDbRotatedDimension
  0
DIMENSION
  5
93E
330
1B
100
AcDbEntity
  8
SK2
100
AcDbDimension
  2
*D53
 10
60.04446882264088
 20
10.5
 30
0.0
 11
60.04446882264088
 21
-0.4562349644513546
 31
0.0
 70
   160
  1
%%c<>
 71
     5
 42
21.0
  3
ISO-25
100
AcDbAlignedDimension
 13
30.31635092200003
 23
-10.49999999999998
 33
0.0
 14
29.70000000000002
 24
10.50000000000001
 34
0.0
 50
90.0
100
AcDbRotatedDimension
  0
DIMENSION
  5
93F
330
1B
100
AcDbEntity
  8
SK2
100
AcDbDimension
  2
*D54
 10
51.30103073180319
 20
-5.999999999999993
 30
0.0
 11
51.30103073180319
 21
0.0186955953000307
 31
0.0
 70
   160
  1
M<>
 71
     5
 42
12.0
  3
ISO-25
100
AcDbAlignedDimension
 13
22.00000000000003
 23
6.000000000000014
 33
0.0
 14
22.00000000000003
 24
-5.999999999999985
 34
0.0
 50
270.0
100
AcDbRotatedDimension
  0
DIMENSION
  5
940
330
1B
100
AcDbEntity
  8
SK2
100
AcDbDimension
  2
*D55
 10
-93.62499999999997
 20
11.91250000000005
 30
0.0
 11
-93.62499999999997
 21
0.0009723232000169
 31
0.0
 70
   160
  1
%%c<>
 71
     5
 42
23.825
  3
ISO-25
100
AcDbAlignedDimension
 13
0.1600828448000442
 23
-11.91249999999998
 33
0.0
 14
-0.0736120964999714
 24
11.91250000000002
 34
0.0
 50
90.0
100
AcDbRotatedDimension
  0
DIMENSION
  5
941
330
1B
100
AcDbEntity
  8
SK2
100
AcDbDimension
  2
*D56
 10
30.00000000000003
 20
34.70833274840003
 30
0.0
 11
-25.83614242559998
 21
34.70833274840003
 31
0.0
 70
   160
 71
     5
 42
111.0
  3
ISO-25
100
AcDbAlignedDimension
 13
-80.99999999999997
 23
8.900000000000019
 33
0.0
 14
30.00000000000003
 24
10.20000000000002
 34
0.0
100
AcDbRotatedDimension
  0
TEXT
  5
942
330
1B
100
AcDbEntity
  8
6
100
AcDbText
 10
-79.51380228849996
 20
-24.82695193149998
 30
0.0
 40
5.0
  1
MT3MOD12SK030
 41
0.8
100
AcDbText
  0
LINE
  5
943
330
1B
100
AcDbEntity
  8
NOCUT
100
AcDbLine
 10
0.0000000000000284
 20
11.95784341437914
 30
0.0
 11
0.0
 21
-0.0000000019999788
 31
0.0
  0
LINE
  5
944
330
1B
100
AcDbEntity
  8
SK1
100
AcDbLine
 10
-80.99999999999997
 20
8.900000000000019
 30
0.0
 11
-80.99999999999997
 21
-8.899999999999977
 31
0.0
  0
LINE
  5
945
330
1B
100
AcDbEntity
  8
SK3
100
AcDbLine
 10
-75.49999999999997
 20
6.500000000000014
 30
0.0
 11
-75.49999999999997
 21
-6.499999999999985
 31
0.0
  0
LINE
  5
946
330
1B
100
AcDbEntity
  8
SK3
100
AcDbLine
 10
-74.97499999999996
 20
5.100000000000022
 30
0.0
 11
-74.97499999999996
 21
-5.09999999999998
 31
0.0
  0
LINE
  5
947
330
1B
100
AcDbEntity
  8
SK1
100
AcDbLine
 10
-73.99999999999997
 20
9.500000000000014
 30
0.0
 11
-73.99999999999997
 21
-9.499999999999985
 31
0.0
  0
LINE
  5
948
330
1B
100
AcDbEntity
  8
SK1
100
AcDbLine
 10
-73.38393682629996
 20
10.11606317370001
 30
0.0
 11
-73.38393682629996
 21
-10.11606317359998
 31
0.0
  0
LINE
  5
949
330
1B
100
AcDbEntity
  8
SK1
100
AcDbLine
 10
-73.38393682629996
 20
10.11606317370001
 30
0.0
 11
-73.99999999999997
 21
9.500000000000014
 31
0.0
  0
LINE
  5
94A
330
1B
100
AcDbEntity
  8
SK1
100
AcDbLine
 10
-73.38393682629996
 20
-10.11606317359998
 30
0.0
 11
-73.99999999999997
 21
-9.499999999999985
 31
0.0
  0
LINE
  5
94B
330
1B
100
AcDbEntity
  8
SK3
100
AcDbLine
 10
-55.99999999999996
 20
6.000000000000014
 30
0.0
 11
-55.99999999999996
 21
-5.999999999999985
 31
0.0
  0
LINE
  5
94C
330
1B
100
AcDbEntity
  8
SK3
100
AcDbLine
 10
-74.97499999999996
 20
-5.09999999999998
 30
0.0
 11
-75.49999999999997
 21
-5.624999999999985
 31
0.0
  0
LINE
  5
94D
330
1B
100
AcDbEntity
  8
SK3
100
AcDbLine
 10
-74.97499999999996
 20
5.100000000000022
 30
0.0
 11
-75.49999999999997
 21
5.625000000000014
 31
0.0
  0
LINE
  5
94E
330
1B
100
AcDbEntity
  8
SK3
100
AcDbLine
 10
-47.49999999999996
 20
5.100000000000022
 30
0.0
 11
-47.49999999999996
 21
-5.09999999999998
 31
0.0
  0
LINE
  5
94F
330
1B
100
AcDbEntity
  8
SK3
100
AcDbLine
 10
-44.78828189849997
 20
0.0000000000000142
 30
0.0
 11
-47.49999999999996
 21
-5.09999999999998
 31
0.0
  0
LINE
  5
950
330
1B
100
AcDbEntity
  8
1
100
AcDbLine
 10
20.00000000000003
 20
-10.49999999999998
 30
0.0
 11
8.500000000000028
 21
-11.91249999999998
 31
0.0
  0
LINE
  5
951
330
1B
100
AcDbEntity
  8
SK3
100
AcDbLine
 10
-44.78828189849997
 20
0.0000000000000142
 30
0.0
 11
-47.49999999999996
 21
5.100000000000022
 31
0.0
  0
LINE
  5
952
330
1B
100
AcDbEntity
  8
1
100
AcDbLine
 10
5.000000000000028
 20
-12.08333274839997
 30
0.0
 11
0.0
 21
-11.95784341637271
 31
0.0
  0
LINE
  5
953
330
1B
100
AcDbEntity
  8
1
100
AcDbLine
 10
29.70000000000002
 20
-10.49999999999998
 30
0.0
 11
20.00000000000003
 21
-10.49999999999998
 31
0.0
  0
LINE
  5
954
330
1B
100
AcDbEntity
  8
SK1
100
AcDbLine
 10
-73.99999999999997
 20
-9.499999999999985
 30
0.0
 11
-80.39999999999997
 21
-9.499999999999985
 31
0.0
  0
LINE
  5
955
330
1B
100
AcDbEntity
  8
SK3
100
AcDbLine
 10
24.00000000000003
 20
-6.549999999999982
 30
0.0
 11
22.00000000000003
 21
-6.549999999999982
 31
0.0
  0
LINE
  5
956
330
1B
100
AcDbEntity
  8
SK3
100
AcDbLine
 10
-75.49999999999997
 20
-6.499999999999985
 30
0.0
 11
-79.49999999999997
 21
-6.499999999999985
 31
0.0
  0
LINE
  5
957
330
1B
100
AcDbEntity
  8
SK3
100
AcDbLine
 10
29.50000000000003
 20
-6.249999999999985
 30
0.0
 11
24.00000000000003
 21
-6.249999999999985
 31
0.0
  0
LINE
  5
958
330
1B
100
AcDbEntity
  8
SK3
100
AcDbLine
 10
-55.99999999999996
 20
-5.999999999999985
 30
0.0
 11
-75.49999999999997
 21
-5.999999999999985
 31
0.0
  0
LINE
  5
959
330
1B
100
AcDbEntity
  8
SK3
100
AcDbLine
 10
4.000000000000028
 20
-5.999999999999985
 30
0.0
 11
22.00000000000003
 21
-5.999999999999985
 31
0.0
  0
LINE
  5
95A
330
1B
100
AcDbEntity
  8
SK3
100
AcDbLine
 10
22.00000000000003
 20
-5.09999999999998
 30
0.0
 11
-4.999999999999971
 21
-5.09999999999998
 31
0.0
  0
LINE
  5
95B
330
1B
100
AcDbEntity
  8
SK3
100
AcDbLine
 10
-47.49999999999996
 20
-5.09999999999998
 30
0.0
 11
-74.97499999999996
 21
-5.09999999999998
 31
0.0
  0
LINE
  5
95C
330
1B
100
AcDbEntity
  8
4
100
AcDbLine
 10
33.00000000000003
 20
0.0000000000000142
 30
0.0
 11
0.0
 21
0.0
 31
0.0
  0
LINE
  5
95D
330
1B
100
AcDbEntity
  8
SK3
100
AcDbLine
 10
22.00000000000003
 20
5.100000000000022
 30
0.0
 11
-4.999999999999971
 21
5.100000000000022
 31
0.0
  0
LINE
  5
95E
330
1B
100
AcDbEntity
  8
SK3
100
AcDbLine
 10
-47.49999999999996
 20
5.100000000000022
 30
0.0
 11
-74.97499999999996
 21
5.100000000000022
 31
0.0
  0
LINE
  5
95F
330
1B
100
AcDbEntity
  8
SK3
100
AcDbLine
 10
-55.99999999999996
 20
6.000000000000014
 30
0.0
 11
-75.49999999999997
 21
6.000000000000014
 31
0.0
  0
LINE
  5
960
330
1B
100
AcDbEntity
  8
SK3
100
AcDbLine
 10
4.000000000000028
 20
6.000000000000014
 30
0.0
 11
22.00000000000003
 21
6.000000000000014
 31
0.0
  0
LINE
  5
961
330
1B
100
AcDbEntity
  8
SK3
100
AcDbLine
 10
29.50000000000003
 20
6.250000000000014
 30
0.0
 11
24.00000000000003
 21
6.250000000000014
 31
0.0
  0
LINE
  5
962
330
1B
100
AcDbEntity
  8
SK3
100
AcDbLine
 10
-75.49999999999997
 20
6.500000000000014
 30
0.0
 11
-79.49999999999997
 21
6.500000000000014
 31
0.0
  0
LINE
  5
963
330
1B
100
AcDbEntity
  8
SK3
100
AcDbLine
 10
24.00000000000003
 20
6.550000000000025
 30
0.0
 11
22.00000000000003
 21
6.550000000000025
 31
0.0
  0
LINE
  5
964
330
1B
100
AcDbEntity
  8
1
100
AcDbLine
 10
5.000000000000028
 20
12.08333274840002
 30
0.0
 11
-0.0000000000501359
 21
11.95784341637787
 31
0.0
  0
LINE
  5
965
330
1B
100
AcDbEntity
  8
SK1
100
AcDbLine
 10
-73.99999999999997
 20
9.500000000000014
 30
0.0
 11
-80.39999999999997
 21
9.500000000000014
 31
0.0
  0
LINE
  5
966
330
1B
100
AcDbEntity
  8
1
100
AcDbLine
 10
29.70000000000002
 20
10.50000000000001
 30
0.0
 11
20.00000000000003
 21
10.50000000000001
 31
0.0
  0
LINE
  5
967
330
1B
100
AcDbEntity
  8
SK3
100
AcDbLine
 10
-4.999999999999971
 20
5.100000000000022
 30
0.0
 11
-7.711718101499968
 21
0.0000000000000142
 31
0.0
  0
LINE
  5
968
330
1B
100
AcDbEntity
  8
1
100
AcDbLine
 10
20.00000000000003
 20
10.50000000000001
 30
0.0
 11
8.500000000000028
 21
11.91250000000002
 31
0.0
  0
LINE
  5
969
330
1B
100
AcDbEntity
  8
SK3
100
AcDbLine
 10
-4.999999999999971
 20
-5.09999999999998
 30
0.0
 11
-7.711718101499968
 21
0.0000000000000142
 31
0.0
  0
LINE
  5
96A
330
1B
100
AcDbEntity
  8
SK3
100
AcDbLine
 10
-4.999999999999971
 20
5.100000000000022
 30
0.0
 11
-4.999999999999971
 21
-5.09999999999998
 31
0.0
  0
LINE
  5
96B
330
1B
100
AcDbEntity
  8
SK3
100
AcDbLine
 10
4.000000000000028
 20
6.000000000000014
 30
0.0
 11
4.000000000000028
 21
-5.999999999999985
 31
0.0
  0
LINE
  5
96C
330
1B
100
AcDbEntity
  8
1
100
AcDbLine
 10
5.000000000000028
 20
12.08333274840002
 30
0.0
 11
5.000000000000028
 21
-12.08333274839997
 31
0.0
  0
LINE
  5
96D
330
1B
100
AcDbEntity
  8
1
100
AcDbLine
 10
8.500000000000028
 20
11.91250000000002
 30
0.0
 11
8.500000000000028
 21
-11.91249999999998
 31
0.0
  0
LINE
  5
96E
330
1B
100
AcDbEntity
  8
1
100
AcDbLine
 10
20.00000000000003
 20
10.50000000000001
 30
0.0
 11
20.00000000000003
 21
-10.49999999999998
 31
0.0
  0
LINE
  5
96F
330
1B
100
AcDbEntity
  8
SK3
100
AcDbLine
 10
22.00000000000003
 20
-6.549999999999982
 30
0.0
 11
22.00000000000003
 21
6.550000000000025
 31
0.0
  0
LINE
  5
970
330
1B
100
AcDbEntity
  8
SK3
100
AcDbLine
 10
24.00000000000003
 20
-6.549999999999982
 30
0.0
 11
24.00000000000003
 21
6.550000000000025
 31
0.0
  0
LINE
  5
971
330
1B
100
AcDbEntity
  8
1
100
AcDbLine
 10
30.00000000000003
 20
-10.19999999999997
 30
0.0
 11
29.70000000000002
 21
-10.49999999999998
 31
0.0
  0
LINE
  5
972
330
1B
100
AcDbEntity
  8
1
100
AcDbLine
 10
30.00000000000003
 20
10.20000000000002
 30
0.0
 11
29.70000000000002
 21
10.50000000000001
 31
0.0
  0
LINE
  5
973
330
1B
100
AcDbEntity
  8
1
100
AcDbLine
 10
29.70000000000002
 20
10.50000000000001
 30
0.0
 11
29.70000000000002
 21
-10.49999999999998
 31
0.0
  0
LINE
  5
974
330
1B
100
AcDbEntity
  8
1
100
AcDbLine
 10
30.00000000000003
 20
10.20000000000002
 30
0.0
 11
30.00000000000003
 21
-10.19999999999997
 31
0.0
  0
LINE
  5
97C
330
1B
100
AcDbEntity
  8
NOCUT
100
AcDbLine
 10
0.0
 20
-0.0000000019999788
 30
0.0
 11
30.00000000000003
 21
-0.0000000019999788
 31
0.0
  0
LINE
  5
97E
330
1B
100
AcDbEntity
  8
NOCUT
100
AcDbLine
 10
5.000000000000028
 20
12.08333274640003
 30
0.0
 11
0.0000000000000284
 21
11.95784341437914
 31
0.0
  0
LINE
  5
97F
330
1B
100
AcDbEntity
  8
NOCUT
100
AcDbLine
 10
29.70000000000002
 20
10.49999999800002
 30
0.0
 11
20.00000000000003
 21
10.49999999800002
 31
0.0
  0
LINE
  5
980
330
1B
100
AcDbEntity
  8
NOCUT
100
AcDbLine
 10
20.00000000000003
 20
10.49999999800002
 30
0.0
 11
8.500000000000028
 21
11.91249999800003
 31
0.0
  0
LINE
  5
983
330
1B
100
AcDbEntity
  8
NOCUT
100
AcDbLine
 10
30.00000000000003
 20
10.19999999800002
 30
0.0
 11
29.70000000000002
 21
10.49999999800002
 31
0.0
  0
LINE
  5
986
330
1B
100
AcDbEntity
  8
NOCUT
100
AcDbLine
 10
30.00000000000003
 20
10.19999999800002
 30
0.0
 11
30.00000000000003
 21
0.0000000000000142
 31
0.0
  0
ARC
  5
987
330
1B
100
AcDbEntity
  8
SK3
100
AcDbCircle
 10
29.50000000000003
 20
-6.749999999999985
 30
0.0
 40
0.5
100
AcDbArc
 50
0.0000601096003196
 51
90.0
  0
ARC
  5
988
330
1B
100
AcDbEntity
  8
SK3
100
AcDbCircle
 10
29.50000000000003
 20
6.750000000000014
 30
0.0
 40
0.5
100
AcDbArc
 50
270.0
 51
359.9999398903997
  0
ARC
  5
989
330
1B
100
AcDbEntity
  8
SK3
100
AcDbCircle
 10
-79.49999999999997
 20
-7.999999999999985
 30
0.0
 40
1.5
100
AcDbArc
 50
90.0
 51
180.0
  0
ARC
  5
98A
330
1B
100
AcDbEntity
  8
SK3
100
AcDbCircle
 10
-79.49999999999997
 20
8.000000000000014
 30
0.0
 40
1.5
100
AcDbArc
 50
180.0
 51
270.0
  0
ARC
  5
98B
330
1B
100
AcDbEntity
  8
1
100
AcDbCircle
 10
6.92530288630003
 20
-15.58949999999997
 30
0.0
 40
4.0
100
AcDbArc
 50
66.81668217800025
 51
118.7720228259997
  0
ARC
  5
98C
330
1B
100
AcDbEntity
  8
1
100
AcDbCircle
 10
6.92530288630003
 20
15.58950000000001
 30
0.0
 40
4.0
100
AcDbArc
 50
241.2279771740003
 51
293.1833178219998
  0
ARC
  5
98D
330
1B
100
AcDbEntity
  8
SK1
100
AcDbCircle
 10
-80.39999999999997
 20
-8.899999999999977
 30
0.0
 40
0.6
100
AcDbArc
 50
180.0
 51
270.0
  0
ARC
  5
98E
330
1B
100
AcDbEntity
  8
SK1
100
AcDbCircle
 10
-80.39999999999997
 20
8.900000000000019
 30
0.0
 40
0.6
100
AcDbArc
 50
90.0
 51
180.0
  0
ARC
  5
98F
330
1B
100
AcDbEntity
  8
NOCUT
100
AcDbCircle
 10
6.925302886300045
 20
15.58949999800002
 30
0.0
 40
4.0
100
AcDbArc
 50
241.2279771740003
 51
293.1833178219998
  0
LINE
  5
AE5
330
1B
100
AcDbEntity
  8
SK1
100
AcDbLine
 10
-0.0000000000501359
 20
11.95784341637787
 30
0.0
 11
-73.38393682629996
 21
10.11606317370001
 31
0.0
  0
LINE
  5
AE6
330
1B
100
AcDbEntity
  8
SK4
100
AcDbLine
 10
0.0
 20
0.0
 30
0.0
 11
-83.99999999999996
 21
0.0000000000000142
 31
0.0
  0
LINE
  5
AE8
330
1B
100
AcDbEntity
  8
SK1
100
AcDbLine
 10
0.0
 20
-11.95784341637271
 30
0.0
 11
-73.38393682629996
 21
-10.11606317359998
 31
0.0
  0
INSERT
  5
BF7
330
1B
100
AcDbEntity
  8
1
100
AcDbBlockReference
  2
NULLPUNKT_BL0
 10
0.0
 20
0.0
 30
0.0
  0
INSERT
  5
BF8
330
1B
100
AcDbEntity
  8
1
100
AcDbBlockReference
  2
EINFUEGEPUNKT_BL1
 10
30.00000000000006
 20
-0.000000005999965
 30
0.0
  0
ENDSEC
  0
SECTION
  2
OBJECTS
  0
DICTIONARY
  5
284
330
0
100
AcDbDictionary
281
     1
  3
ACAD_COLOR
350
28E
  3
ACAD_GROUP
350
285
  3
ACAD_LAYOUT
350
291
  3
ACAD_MATERIAL
350
28D
  3
ACAD_MLINESTYLE
350
286
  3
ACAD_PLOTSETTINGS
350
292
  3
ACAD_PLOTSTYLENAME
350
28B
  3
ACAD_TABLESTYLE
350
28F
  3
AcDbVariableDictionary
350
57A
  0
DICTIONARY
  5
296
330
2
100
AcDbDictionary
280
     1
281
     1
  3
ACAD_LAYERFILTERS
360
C68
  3
ACLYDICTIONARY
360
C67
  0
DICTIONARY
  5
57D
330
1B
100
AcDbDictionary
280
     1
281
     1
  3
ACAD_SORTENTS
360
57E
  0
DICTIONARY
  5
28E
102
{ACAD_REACTORS
330
284
102
}
330
284
100
AcDbDictionary
281
     1
  0
DICTIONARY
  5
285
102
{ACAD_REACTORS
330
284
102
}
330
284
100
AcDbDictionary
281
     1
  0
DICTIONARY
  5
291
102
{ACAD_REACTORS
330
284
102
}
330
284
100
AcDbDictionary
281
     1
  3
Layout1
350
294
  3
Model
350
293
  0
DICTIONARY
  5
28D
102
{ACAD_REACTORS
330
284
102
}
330
284
100
AcDbDictionary
281
     1
  0
DICTIONARY
  5
286
102
{ACAD_REACTORS
330
284
102
}
330
284
100
AcDbDictionary
281
     1
  3
STANDARD
350
287
  0
DICTIONARY
  5
292
102
{ACAD_REACTORS
330
284
102
}
330
284
100
AcDbDictionary
281
     1
  0
ACDBDICTIONARYWDFLT
  5
28B
102
{ACAD_REACTORS
330
284
102
}
330
284
100
AcDbDictionary
281
     1
  3
Normal
350
28C
100
AcDbDictionaryWithDefault
340
28C
  0
DICTIONARY
  5
28F
102
{ACAD_REACTORS
330
284
102
}
330
284
100
AcDbDictionary
281
     1
  3
Standard
350
290
  0
DICTIONARY
  5
57A
102
{ACAD_REACTORS
330
284
102
}
330
284
100
AcDbDictionary
281
     1
  3
CTABLESTYLE
350
57B
  0
DICTIONARY
  5
C68
102
{ACAD_REACTORS
330
296
102
}
330
296
100
AcDbDictionary
281
     1
  0
DICTIONARY
  5
C67
102
{ACAD_REACTORS
330
296
102
}
330
296
100
AcDbDictionary
281
     1
1001
ACAD
1000
<All
  0
SORTENTSTABLE
  5
57E
102
{ACAD_REACTORS
330
57D
102
}
330
57D
100
AcDbSortentsTable
330
1B
331
98D
  5
AE5
331
96B
  5
96E
331
949
  5
949
331
97C
  5
980
331
95A
  5
95B
331
940
  5
940
331
98B
  5
98E
331
969
  5
96C
331
958
  5
959
331
93E
  5
93E
331
989
  5
98C
331
967
  5
96A
331
956
  5
957
331
954
  5
955
331
987
  5
98A
331
965
  5
968
331
AE8
  5
953
331
974
  5
97F
331
963
  5
965
331
AE6
  5
95E
331
952
  5
952
331
972
  5
97C
331
950
  5
950
331
983
  5
988
331
961
  5
963
331
947
  5
947
331
970
  5
973
331
94E
  5
94E
331
95F
  5
961
331
945
  5
945
331
96E
  5
971
331
94C
  5
94C
331
97F
  5
986
331
95D
  5
95F
331
943
  5
943
331
98E
  5
AE6
331
96C
  5
96F
331
94A
  5
94A
331
95B
  5
95C
331
941
  5
941
331
98C
  5
98F
331
96A
  5
96D
331
948
  5
948
331
959
  5
95A
331
93F
  5
93F
331
98A
  5
98D
331
968
  5
96B
331
957
  5
958
331
93D
  5
93D
331
988
  5
98B
331
966
  5
969
331
955
  5
956
331
953
  5
954
331
986
  5
989
331
964
  5
966
331
973
  5
97E
331
AE5
  5
967
331
962
  5
964
331
951
  5
951
331
971
  5
974
331
94F
  5
94F
331
960
  5
962
331
946
  5
946
331
96F
  5
972
331
94D
  5
94D
331
980
  5
987
331
95E
  5
960
331
944
  5
944
331
98F
  5
AE7
331
96D
  5
970
331
94B
  5
94B
331
97E
  5
983
331
95C
  5
95D
331
942
  5
942
  0
LAYOUT
  5
294
102
{ACAD_REACTORS
330
291
102
}
330
291
100
AcDbPlotSettings
  1

  2
\\ingdom02\ITB3
  4

  6

 40
0.0
 41
0.0
 42
0.0
 43
0.0
 44
0.0
 45
0.0
 46
0.0
 47
0.0
 48
0.0
 49
0.0
140
0.0
141
0.0
142
1.0
143
1.0
 70
   688
 72
     0
 73
     0
 74
     5
  7
A1-A2.ctb
 75
    16
147
1.0
 76
     0
 77
     2
 78
   300
148
0.0
149
0.0
100
AcDbLayout
  1
Layout1
 70
     1
 71
     1
 10
0.0
 20
0.0
 11
12.0
 21
9.0
 12
0.0
 22
0.0
 32
0.0
 14
1.000000000000000E+20
 24
1.000000000000000E+20
 34
1.000000000000000E+20
 15
-1.000000000000000E+20
 25
-1.000000000000000E+20
 35
-1.000000000000000E+20
146
0.0
 13
0.0
 23
0.0
 33
0.0
 16
1.0
 26
0.0
 36
0.0
 17
0.0
 27
1.0
 37
0.0
 76
     0
330
1C
  0
LAYOUT
  5
293
102
{ACAD_REACTORS
330
291
102
}
330
291
100
AcDbPlotSettings
  1

  2
\\ingdom02\ITB3
  4
A4
  6

 40
4.233333110809326
 41
4.233341693878173
 42
7.789321899414062
 43
4.23333740234375
 44
209.9733276367187
 45
296.9259948730469
 46
0.0
 47
0.0
 48
0.0
 49
0.0
140
0.0
141
0.0
142
1.0
143
0.4180248720286847
 70
 11952
 72
     1
 73
     1
 74
     0
  7
A1-A2.ctb
 75
     0
147
2.392202155692258
 76
     0
 77
     2
 78
   300
148
80.88662315456588
149
37.36423186675974
100
AcDbLayout
  1
Model
 70
     1
 71
     0
 10
0.0
 20
0.0
 11
12.0
 21
9.0
 12
0.0
 22
0.0
 32
0.0
 14
0.0
 24
0.0
 34
0.0
 15
0.0
 25
0.0
 35
0.0
146
0.0
 13
0.0
 23
0.0
 33
0.0
 16
1.0
 26
0.0
 36
0.0
 17
0.0
 27
1.0
 37
0.0
 76
     0
330
1B
1001
ACAD_PSEXT
1000
\\ingdom02\ITB3
1000
HP LaserJet 5000 Series PCL 6
1000
TB
1000

1070
     0
  0
MLINESTYLE
  5
287
102
{ACAD_REACTORS
330
286
102
}
330
286
100
AcDbMlineStyle
  2
STANDARD
 70
     0
  3

 62
   256
 51
90.0
 52
90.0
 71
     2
 49
0.5
 62
   256
  6
BYLAYER
 49
-0.5
 62
   256
  6
BYLAYER
  0
ACDBPLACEHOLDER
  5
28C
102
{ACAD_REACTORS
330
28B
102
}
330
28B
  0
TABLESTYLE
  5
290
102
{ACAD_REACTORS
330
28F
102
}
330
28F
100
AcDbTableStyle
  3
Standard
 70
     0
 71
     0
 40
1.5
 41
1.5
280
     0
281
     0
  7
STANDARD
140
4.5
170
     2
 62
     0
 63
     7
283
     0
274
    -2
284
     1
 64
     0
275
    -2
285
     1
 65
     0
276
    -2
286
     1
 66
     0
277
    -2
287
     1
 67
     0
278
    -2
288
     1
 68
     0
279
    -2
289
     1
 69
     0
  7
STANDARD
140
6.0
170
     5
 62
     0
 63
     7
283
     0
274
    -2
284
     1
 64
     0
275
    -2
285
     1
 65
     0
276
    -2
286
     1
 66
     0
277
    -2
287
     1
 67
     0
278
    -2
288
     1
 68
     0
279
    -2
289
     1
 69
     0
  7
STANDARD
140
4.5
170
     5
 62
     0
 63
     7
283
     0
274
    -2
284
     1
 64
     0
275
    -2
285
     1
 65
     0
276
    -2
286
     1
 66
     0
277
    -2
287
     1
 67
     0
278
    -2
288
     1
 68
     0
279
    -2
289
     1
 69
     0
  0
DICTIONARYVAR
  5
57B
102
{ACAD_REACTORS
330
57A
102
}
330
57A
100
DictionaryVariables
280
     0
  1
STANDARD
  0
ENDSEC
  0
EOF
