  0
SECTION
  2
HEADER
  9
$ACADVER
  1
AC1018
  9
$ACADMAINTVER
 70
    39
  9
$DWGCODEPAGE
  3
ANSI_1252
  9
$INSBASE
 10
0.0
 20
0.0
 30
0.0
  9
$EXTMIN
 10
-97.76129092620834
 20
-23.86276199000741
 30
-0.0015258207003583
  9
$EXTMAX
 10
13.9037479205333
 20
38.49380522092548
 30
0.0000000349246037
  9
$LIMMIN
 10
0.0
 20
0.0
  9
$LIMMAX
 10
297.0
 20
210.0
  9
$ORTHOMODE
 70
     0
  9
$REGENMODE
 70
     1
  9
$FILLMODE
 70
     1
  9
$QTEXTMODE
 70
     0
  9
$MIRRTEXT
 70
     0
  9
$LTSCALE
 40
16.335
  9
$ATTMODE
 70
     1
  9
$TEXTSIZE
 40
0.2
  9
$TRACEWID
 40
0.05
  9
$TEXTSTYLE
  7
STANDARD
  9
$CLAYER
  8
0
  9
$CELTYPE
  6
BYLAYER
  9
$CECOLOR
 62
   256
  9
$CELTSCALE
 40
1.0
  9
$DISPSILH
 70
     0
  9
$DIMSCALE
 40
1.0
  9
$DIMASZ
 40
3.5
  9
$DIMEXO
 40
0.625
  9
$DIMDLI
 40
3.75
  9
$DIMRND
 40
0.0
  9
$DIMDLE
 40
0.0
  9
$DIMEXE
 40
2.0
  9
$DIMTP
 40
0.0
  9
$DIMTM
 40
0.0
  9
$DIMTXT
 40
3.5
  9
$DIMCEN
 40
2.5
  9
$DIMTSZ
 40
0.0
  9
$DIMTOL
 70
     0
  9
$DIMLIM
 70
     0
  9
$DIMTIH
 70
     0
  9
$DIMTOH
 70
     0
  9
$DIMSE1
 70
     0
  9
$DIMSE2
 70
     0
  9
$DIMTAD
 70
     1
  9
$DIMZIN
 70
     8
  9
$DIMBLK
  1

  9
$DIMASO
 70
     1
  9
$DIMSHO
 70
     1
  9
$DIMPOST
  1

  9
$DIMAPOST
  1

  9
$DIMALT
 70
     0
  9
$DIMALTD
 70
     3
  9
$DIMALTF
 40
0.03937007874016
  9
$DIMLFAC
 40
1.0
  9
$DIMTOFL
 70
     1
  9
$DIMTVP
 40
0.0
  9
$DIMTIX
 70
     0
  9
$DIMSOXD
 70
     0
  9
$DIMSAH
 70
     0
  9
$DIMBLK1
  1

  9
$DIMBLK2
  1

  9
$DIMSTYLE
  2
ISO-25
  9
$DIMCLRD
 70
   256
  9
$DIMCLRE
 70
   256
  9
$DIMCLRT
 70
   256
  9
$DIMTFAC
 40
1.0
  9
$DIMGAP
 40
0.625
  9
$DIMJUST
 70
     0
  9
$DIMSD1
 70
     0
  9
$DIMSD2
 70
     0
  9
$DIMTOLJ
 70
     0
  9
$DIMTZIN
 70
     8
  9
$DIMALTZ
 70
     0
  9
$DIMALTTZ
 70
     0
  9
$DIMUPT
 70
     0
  9
$DIMDEC
 70
     2
  9
$DIMTDEC
 70
     2
  9
$DIMALTU
 70
     2
  9
$DIMALTTD
 70
     3
  9
$DIMTXSTY
  7
STANDARD
  9
$DIMAUNIT
 70
     0
  9
$DIMADEC
 70
     0
  9
$DIMALTRND
 40
0.0
  9
$DIMAZIN
 70
     0
  9
$DIMDSEP
 70
    46
  9
$DIMATFIT
 70
     3
  9
$DIMFRAC
 70
     0
  9
$DIMLDRBLK
  1

  9
$DIMLUNIT
 70
     2
  9
$DIMLWD
 70
    -2
  9
$DIMLWE
 70
    -2
  9
$DIMTMOVE
 70
     0
  9
$LUNITS
 70
     2
  9
$LUPREC
 70
     4
  9
$SKETCHINC
 40
0.1
  9
$FILLETRAD
 40
0.0
  9
$AUNITS
 70
     0
  9
$AUPREC
 70
     0
  9
$MENU
  1
.
  9
$ELEVATION
 40
0.0
  9
$PELEVATION
 40
0.0
  9
$THICKNESS
 40
0.0
  9
$LIMCHECK
 70
     0
  9
$CHAMFERA
 40
0.0
  9
$CHAMFERB
 40
0.0
  9
$CHAMFERC
 40
0.0
  9
$CHAMFERD
 40
0.0
  9
$SKPOLY
 70
     0
  9
$TDCREATE
 40
2453794.612244340
  9
$TDUCREATE
 40
2453794.570577674
  9
$TDUPDATE
 40
2453794.617949410
  9
$TDUUPDATE
 40
2453794.576282743
  9
$TDINDWG
 40
0.0057052546
  9
$TDUSRTIMER
 40
0.0057052546
  9
$USRTIMER
 70
     1
  9
$ANGBASE
 50
0.0
  9
$ANGDIR
 70
     0
  9
$PDMODE
 70
     3
  9
$PDSIZE
 40
0.3125
  9
$PLINEWID
 40
0.0
  9
$SPLFRAME
 70
     0
  9
$SPLINETYPE
 70
     6
  9
$SPLINESEGS
 70
     8
  9
$HANDSEED
  5
650
  9
$SURFTAB1
 70
     6
  9
$SURFTAB2
 70
     6
  9
$SURFTYPE
 70
     6
  9
$SURFU
 70
     6
  9
$SURFV
 70
     6
  9
$UCSBASE
  2

  9
$UCSNAME
  2

  9
$UCSORG
 10
0.0
 20
0.0
 30
0.0
  9
$UCSXDIR
 10
1.0
 20
0.0
 30
0.0
  9
$UCSYDIR
 10
0.0
 20
1.0
 30
0.0
  9
$UCSORTHOREF
  2

  9
$UCSORTHOVIEW
 70
     0
  9
$UCSORGTOP
 10
0.0
 20
0.0
 30
0.0
  9
$UCSORGBOTTOM
 10
0.0
 20
0.0
 30
0.0
  9
$UCSORGLEFT
 10
0.0
 20
0.0
 30
0.0
  9
$UCSORGRIGHT
 10
0.0
 20
0.0
 30
0.0
  9
$UCSORGFRONT
 10
0.0
 20
0.0
 30
0.0
  9
$UCSORGBACK
 10
0.0
 20
0.0
 30
0.0
  9
$PUCSBASE
  2

  9
$PUCSNAME
  2

  9
$PUCSORG
 10
0.0
 20
0.0
 30
0.0
  9
$PUCSXDIR
 10
1.0
 20
0.0
 30
0.0
  9
$PUCSYDIR
 10
0.0
 20
1.0
 30
0.0
  9
$PUCSORTHOREF
  2

  9
$PUCSORTHOVIEW
 70
     0
  9
$PUCSORGTOP
 10
0.0
 20
0.0
 30
0.0
  9
$PUCSORGBOTTOM
 10
0.0
 20
0.0
 30
0.0
  9
$PUCSORGLEFT
 10
0.0
 20
0.0
 30
0.0
  9
$PUCSORGRIGHT
 10
0.0
 20
0.0
 30
0.0
  9
$PUCSORGFRONT
 10
0.0
 20
0.0
 30
0.0
  9
$PUCSORGBACK
 10
0.0
 20
0.0
 30
0.0
  9
$USERI1
 70
     0
  9
$USERI2
 70
     0
  9
$USERI3
 70
     0
  9
$USERI4
 70
     0
  9
$USERI5
 70
     0
  9
$USERR1
 40
0.0
  9
$USERR2
 40
0.0
  9
$USERR3
 40
0.0
  9
$USERR4
 40
0.0
  9
$USERR5
 40
0.0
  9
$WORLDVIEW
 70
     1
  9
$SHADEDGE
 70
     3
  9
$SHADEDIF
 70
    70
  9
$TILEMODE
 70
     1
  9
$MAXACTVP
 70
    64
  9
$PINSBASE
 10
0.0
 20
0.0
 30
0.0
  9
$PLIMCHECK
 70
     0
  9
$PEXTMIN
 10
1.000000000000000E+20
 20
1.000000000000000E+20
 30
1.000000000000000E+20
  9
$PEXTMAX
 10
-1.000000000000000E+20
 20
-1.000000000000000E+20
 30
-1.000000000000000E+20
  9
$PLIMMIN
 10
0.0
 20
0.0
  9
$PLIMMAX
 10
12.0
 20
9.0
  9
$UNITMODE
 70
     0
  9
$VISRETAIN
 70
     1
  9
$PLINEGEN
 70
     0
  9
$PSLTSCALE
 70
     1
  9
$TREEDEPTH
 70
  3020
  9
$CMLSTYLE
  2
STANDARD
  9
$CMLJUST
 70
     0
  9
$CMLSCALE
 40
1.0
  9
$PROXYGRAPHICS
 70
     1
  9
$MEASUREMENT
 70
     1
  9
$CELWEIGHT
370
    -1
  9
$ENDCAPS
280
     0
  9
$JOINSTYLE
280
     0
  9
$LWDISPLAY
290
     0
  9
$INSUNITS
 70
     0
  9
$HYPERLINKBASE
  1

  9
$STYLESHEET
  1

  9
$XEDIT
290
     1
  9
$CEPSNTYPE
380
     0
  9
$PSTYLEMODE
290
     1
  9
$FINGERPRINTGUID
  2
{56061FEF-7589-427A-82D7-204D4DF312A8}
  9
$VERSIONGUID
  2
{A9F7F4E5-A627-4802-A76E-55128476F251}
  9
$EXTNAMES
290
     1
  9
$PSVPSCALE
 40
0.0
  9
$OLESTARTUP
290
     0
  9
$SORTENTS
280
   127
  9
$INDEXCTL
280
     0
  9
$HIDETEXT
280
     0
  9
$XCLIPFRAME
290
     0
  9
$HALOGAP
280
     0
  9
$OBSCOLOR
 70
   257
  9
$OBSLTYPE
280
     0
  9
$INTERSECTIONDISPLAY
280
     0
  9
$INTERSECTIONCOLOR
 70
   257
  9
$DIMASSOC
280
     1
  9
$PROJECTNAME
  1

  0
ENDSEC
  0
SECTION
  2
CLASSES
  0
CLASS
  1
ACDBDICTIONARYWDFLT
  2
AcDbDictionaryWithDefault
  3
ObjectDBX Classes
 90
        0
 91
        1
280
     0
281
     0
  0
CLASS
  1
TABLESTYLE
  2
AcDbTableStyle
  3
ObjectDBX Classes
 90
     2047
 91
        1
280
     0
281
     0
  0
CLASS
  1
SORTENTSTABLE
  2
AcDbSortentsTable
  3
ObjectDBX Classes
 90
        0
 91
        2
280
     0
281
     0
  0
CLASS
  1
DICTIONARYVAR
  2
AcDbDictionaryVar
  3
ObjectDBX Classes
 90
        0
 91
        1
280
     0
281
     0
  0
ENDSEC
  0
SECTION
  2
TABLES
  0
TABLE
  2
VPORT
  5
8
330
0
100
AcDbSymbolTable
 70
     4
  0
VPORT
  5
64F
330
8
100
AcDbSymbolTableRecord
100
AcDbViewportTableRecord
  2
*Active
 70
     0
 10
0.0
 20
0.0
 11
1.0
 21
1.0
 12
-41.92877150283751
 22
7.315521615459037
 13
0.0
 23
0.0
 14
1.0
 24
1.0
 15
0.0
 25
0.0
 16
0.0
 26
0.0
 36
1.0
 17
0.0
 27
0.0
 37
0.0
 40
73.50109236805193
 41
1.526854219948849
 42
50.0
 43
0.0
 44
0.0
 50
0.0
 51
0.0
 71
     0
 72
   100
 73
     1
 74
     1
 75
     0
 76
     0
 77
     0
 78
     0
281
     0
 65
     1
110
0.0
120
0.0
130
0.0
111
1.0
121
0.0
131
0.0
112
0.0
122
1.0
132
0.0
 79
     0
146
0.0
  0
ENDTAB
  0
TABLE
  2
LTYPE
  5
5
330
0
100
AcDbSymbolTable
 70
     8
  0
LTYPE
  5
14
330
5
100
AcDbSymbolTableRecord
100
AcDbLinetypeTableRecord
  2
BYBLOCK
 70
     0
  3

 72
    65
 73
     0
 40
0.0
  0
LTYPE
  5
15
330
5
100
AcDbSymbolTableRecord
100
AcDbLinetypeTableRecord
  2
BYLAYER
 70
     0
  3

 72
    65
 73
     0
 40
0.0
  0
LTYPE
  5
16
330
5
100
AcDbSymbolTableRecord
100
AcDbLinetypeTableRecord
  2
CONTINUOUS
 70
     0
  3
Solid line
 72
    65
 73
     0
 40
0.0
  0
LTYPE
  5
57A
330
5
100
AcDbSymbolTableRecord
100
AcDbLinetypeTableRecord
  2
CENTER
 70
     0
  3
____ _ ____ _ ____ _ ____ _ ____ _ ____ _ ____
 72
    65
 73
     4
 40
0.6
 49
0.375
 74
     0
 49
-0.075
 74
     0
 49
0.075
 74
     0
 49
-0.075
 74
     0
  0
LTYPE
  5
57B
330
5
100
AcDbSymbolTableRecord
100
AcDbLinetypeTableRecord
  2
HIDDEN
 70
     0
  3
- - - - - - - - - - - - - - - - - - - -
 72
    65
 73
     2
 40
0.2
 49
0.1
 74
     0
 49
-0.1
 74
     0
  0
ENDTAB
  0
TABLE
  2
LAYER
  5
2
102
{ACAD_XDICTIONARY
360
3FD
102
}
330
0
100
AcDbSymbolTable
 70
    20
  0
LAYER
  5
10
330
2
100
AcDbSymbolTableRecord
100
AcDbLayerTableRecord
  2
0
 70
     0
 62
     7
  6
CONTINUOUS
370
    -3
390
263
  0
LAYER
  5
26D
330
2
100
AcDbSymbolTableRecord
100
AcDbLayerTableRecord
  2
Defpoints
 70
     0
 62
     7
  6
CONTINUOUS
290
     0
370
    -3
390
263
  0
LAYER
  5
57C
330
2
100
AcDbSymbolTableRecord
100
AcDbLayerTableRecord
  2
1
 70
     0
 62
     4
  6
CONTINUOUS
370
    -3
390
263
  0
LAYER
  5
57D
330
2
100
AcDbSymbolTableRecord
100
AcDbLayerTableRecord
  2
6
 70
     0
 62
     5
  6
CONTINUOUS
370
    -3
390
263
  0
LAYER
  5
57E
330
2
100
AcDbSymbolTableRecord
100
AcDbLayerTableRecord
  2
SK3
 70
     0
 62
     1
  6
HIDDEN
370
    -3
390
263
  0
LAYER
  5
57F
330
2
100
AcDbSymbolTableRecord
100
AcDbLayerTableRecord
  2
SK2
 70
     0
 62
     7
  6
CONTINUOUS
370
    -3
390
263
  0
LAYER
  5
580
330
2
100
AcDbSymbolTableRecord
100
AcDbLayerTableRecord
  2
SK1
 70
     0
 62
     4
  6
CONTINUOUS
370
    -3
390
263
  0
LAYER
  5
581
330
2
100
AcDbSymbolTableRecord
100
AcDbLayerTableRecord
  2
SK4
 70
     0
 62
     2
  6
CENTER
370
    -3
390
263
  0
ENDTAB
  0
TABLE
  2
STYLE
  5
3
330
0
100
AcDbSymbolTable
 70
     1
  0
STYLE
  5
11
330
3
100
AcDbSymbolTableRecord
100
AcDbTextStyleTableRecord
  2
STANDARD
 70
     0
 40
0.0
 41
0.8
 50
0.0
 71
     0
 42
0.2
  3
isocp.shx
  4

  0
ENDTAB
  0
TABLE
  2
VIEW
  5
6
330
0
100
AcDbSymbolTable
 70
     0
  0
ENDTAB
  0
TABLE
  2
UCS
  5
7
330
0
100
AcDbSymbolTable
 70
     0
  0
ENDTAB
  0
TABLE
  2
APPID
  5
9
330
0
100
AcDbSymbolTable
 70
     3
  0
APPID
  5
202
330
9
100
AcDbSymbolTableRecord
100
AcDbRegAppTableRecord
  2
ACAD
 70
     0
  0
APPID
  5
2F1
330
9
100
AcDbSymbolTableRecord
100
AcDbRegAppTableRecord
  2
ACAD_PSEXT
 70
     0
  0
APPID
  5
470
330
9
100
AcDbSymbolTableRecord
100
AcDbRegAppTableRecord
  2
ACAD_DSTYLE_DIMTEXT_FILL
 70
     0
  0
ENDTAB
  0
TABLE
  2
DIMSTYLE
  5
A
330
0
100
AcDbSymbolTable
 70
     4
100
AcDbDimStyleTable
 71
     1
340
2F0
  0
DIMSTYLE
105
2F0
102
{ACAD_REACTORS
330
2F6
330
2F5
330
2F4
330
2F7
330
2F3
330
5BE
330
5BF
330
5C0
102
}
330
A
100
AcDbSymbolTableRecord
100
AcDbDimStyleTableRecord
  2
ISO-25
 70
     0
 41
3.5
 42
0.625
 43
3.75
 44
2.0
 73
     0
 74
     0
 77
     1
 78
     8
140
3.5
141
2.5
143
0.03937007874016
147
0.625
171
     3
172
     1
176
   256
177
   256
178
   256
271
     2
272
     2
274
     3
283
     0
284
     8
340
11
  0
DIMSTYLE
105
582
330
A
100
AcDbSymbolTableRecord
100
AcDbDimStyleTableRecord
  2
STANDARD
 70
     0
 41
2.5
 47
0.005
 48
0.005
 71
     1
 73
     0
 74
     0
 77
     1
 78
     8
140
3.5
178
     2
271
     3
272
     3
284
     8
340
11
341
540
342
540
343
540
344
540
  0
ENDTAB
  0
TABLE
  2
BLOCK_RECORD
  5
1
330
0
100
AcDbSymbolTable
 70
    26
  0
BLOCK_RECORD
  5
1B
330
1
100
AcDbSymbolTableRecord
100
AcDbBlockTableRecord
  2
*MODEL_SPACE
340
26A
  0
BLOCK_RECORD
  5
1C
330
1
100
AcDbSymbolTableRecord
100
AcDbBlockTableRecord
  2
*PAPER_SPACE
340
26B
  0
BLOCK_RECORD
  5
540
330
1
100
AcDbSymbolTableRecord
100
AcDbBlockTableRecord
  2
_FILLED
340
0
  0
BLOCK_RECORD
  5
544
330
1
100
AcDbSymbolTableRecord
100
AcDbBlockTableRecord
  2
NULLPUNKT_BL0
340
0
102
{BLKREFS
331
5B8
331
5F2
102
}
  0
BLOCK_RECORD
  5
556
330
1
100
AcDbSymbolTableRecord
100
AcDbBlockTableRecord
  2
*D19
340
0
  0
BLOCK_RECORD
  5
562
330
1
100
AcDbSymbolTableRecord
100
AcDbBlockTableRecord
  2
*D20
340
0
  0
BLOCK_RECORD
  5
56E
330
1
100
AcDbSymbolTableRecord
100
AcDbBlockTableRecord
  2
*D21
340
0
  0
BLOCK_RECORD
  5
5F3
330
1
100
AcDbSymbolTableRecord
100
AcDbBlockTableRecord
  2
*D23
340
0
  0
BLOCK_RECORD
  5
5FF
330
1
100
AcDbSymbolTableRecord
100
AcDbBlockTableRecord
  2
*D24
340
0
  0
BLOCK_RECORD
  5
60B
330
1
100
AcDbSymbolTableRecord
100
AcDbBlockTableRecord
  2
*D25
340
0
  0
ENDTAB
  0
ENDSEC
  0
SECTION
  2
BLOCKS
  0
BLOCK
  5
1E
330
1B
100
AcDbEntity
  8
0
100
AcDbBlockBegin
  2
*MODEL_SPACE
 70
     0
 10
0.0
 20
0.0
 30
0.0
  3
*MODEL_SPACE
  1

  0
ENDBLK
  5
1F
330
1B
100
AcDbEntity
  8
0
100
AcDbBlockEnd
  0
BLOCK
  5
20
330
1C
100
AcDbEntity
 67
     1
  8
0
100
AcDbBlockBegin
  2
*PAPER_SPACE
 70
     0
 10
0.0
 20
0.0
 30
0.0
  3
*PAPER_SPACE
  1

  0
ENDBLK
  5
21
330
1C
100
AcDbEntity
 67
     1
  8
0
100
AcDbBlockEnd
  0
BLOCK
  5
541
330
540
100
AcDbEntity
  8
0
100
AcDbBlockBegin
  2
_FILLED
 70
     0
 10
0.0
 20
0.0
 30
0.0
  3
_FILLED
  1

  0
SOLID
  5
542
330
540
100
AcDbEntity
  8
0
  6
ByBlock
 62
     0
100
AcDbTrace
 10
0.0
 20
0.0
 30
0.0
 11
-1.0
 21
0.132
 31
0.0
 12
-1.0
 22
-0.132
 32
0.0
 13
-1.0
 23
-0.132
 33
0.0
  0
ENDBLK
  5
543
330
540
100
AcDbEntity
  8
0
  6
ByBlock
 62
     0
100
AcDbBlockEnd
  0
BLOCK
  5
545
330
544
100
AcDbEntity
  8
1
  6
Continuous
 62
     3
100
AcDbBlockBegin
  2
NULLPUNKT_BL0
 70
     0
 10
160.23105888
 20
104.9111997364
 30
0.0
  3
NULLPUNKT_BL0
  1

  0
LINE
  5
546
330
544
100
AcDbEntity
  8
1
  6
Continuous
 62
     4
100
AcDbLine
 10
160.23105888
 20
104.9111997364
 30
0.0
 11
161.73105588
 21
104.9111997364
 31
0.0
  0
ARC
  5
547
330
544
100
AcDbEntity
  8
1
  6
Continuous
 62
     4
100
AcDbCircle
 10
160.23105888
 20
104.9111997364
 30
0.0
 40
1.499997
100
AcDbArc
 50
180.0
 51
270.0
  0
LINE
  5
548
330
544
100
AcDbEntity
  8
1
  6
Continuous
 62
     4
100
AcDbLine
 10
160.23105888
 20
104.9111997364
 30
0.0
 11
160.23105888
 21
103.4112027364
 31
0.0
  0
ARC
  5
549
330
544
100
AcDbEntity
  8
1
  6
Continuous
 62
     4
100
AcDbCircle
 10
160.23105888
 20
104.9111997364
 30
0.0
 40
1.499997
100
AcDbArc
 50
270.0
 51
360.0
  0
ARC
  5
54A
330
544
100
AcDbEntity
  8
1
  6
Continuous
 62
     4
100
AcDbCircle
 10
160.23105888
 20
104.9111997364
 30
0.0
 40
1.499997
100
AcDbArc
 50
0.0
 51
90.0
  0
ARC
  5
54B
330
544
100
AcDbEntity
  8
1
  6
Continuous
 62
     4
100
AcDbCircle
 10
160.23105888
 20
104.9111997364
 30
0.0
 40
1.499997
100
AcDbArc
 50
90.0
 51
180.0
  0
LINE
  5
54C
330
544
100
AcDbEntity
  8
1
  6
Continuous
 62
     4
100
AcDbLine
 10
160.23105888
 20
106.4111967364
 30
0.0
 11
160.23105888
 21
104.9111997364
 31
0.0
  0
LINE
  5
54D
330
544
100
AcDbEntity
  8
1
  6
Continuous
 62
     4
100
AcDbLine
 10
158.73106188
 20
104.9111997364
 30
0.0
 11
160.23105888
 21
104.9111997364
 31
0.0
  0
LWPOLYLINE
  5
54E
330
544
100
AcDbEntity
  8
1
  6
Continuous
 62
     4
100
AcDbPolyline
 90
       18
 70
     0
 43
0.0
 10
160.23105888
 20
104.9111997364
 10
158.73106188
 20
104.9111997364
 10
158.7392790205
 20
105.0679921177
 10
158.7638404133
 20
105.2230666489
 10
158.8044769587
 20
105.3747243009
 10
158.8607434342
 20
105.5213034808
 10
158.9320233724
 20
105.6611982364
 10
159.0175358155
 20
105.7928758515
 10
159.1163438712
 20
105.9148936385
 10
159.2273649779
 20
106.0259147452
 10
159.3493827649
 20
106.1247228009
 10
159.48106038
 20
106.210235244
 10
159.6209551356
 20
106.2815151822
 10
159.7675343155
 20
106.3377816577
 10
159.9191919675
 20
106.3784182031
 10
160.0742664987
 20
106.4029795959
 10
160.23105888
 20
106.4111967364
 10
160.23105888
 20
104.9111997364
  0
HATCH
  5
54F
330
544
100
AcDbEntity
  8
1
  6
Continuous
 62
     4
100
AcDbHatch
 10
0.0
 20
0.0
 30
0.0
210
0.0
220
0.0
230
1.0
  2
SOLID
 70
     1
 71
     0
 91
        1
 92
        1
 93
       17
 72
     1
 10
160.23105888
 20
104.9111997364
 11
158.73106188
 21
104.9111997364
 72
     1
 10
158.73106188
 20
104.9111997364
 11
158.7392790205
 21
105.0679921177
 72
     1
 10
158.7392790205
 20
105.0679921177
 11
158.7638404133
 21
105.2230666489
 72
     1
 10
158.7638404133
 20
105.2230666489
 11
158.8044769587
 21
105.3747243009
 72
     1
 10
158.8044769587
 20
105.3747243009
 11
158.8607434342
 21
105.5213034808
 72
     1
 10
158.8607434342
 20
105.5213034808
 11
158.9320233724
 21
105.6611982364
 72
     1
 10
158.9320233724
 20
105.6611982364
 11
159.0175358155
 21
105.7928758515
 72
     1
 10
159.0175358155
 20
105.7928758515
 11
159.1163438712
 21
105.9148936385
 72
     1
 10
159.1163438712
 20
105.9148936385
 11
159.2273649779
 21
106.0259147452
 72
     1
 10
159.2273649779
 20
106.0259147452
 11
159.3493827649
 21
106.1247228009
 72
     1
 10
159.3493827649
 20
106.1247228009
 11
159.48106038
 21
106.210235244
 72
     1
 10
159.48106038
 20
106.210235244
 11
159.6209551356
 21
106.2815151822
 72
     1
 10
159.6209551356
 20
106.2815151822
 11
159.7675343155
 21
106.3377816577
 72
     1
 10
159.7675343155
 20
106.3377816577
 11
159.9191919675
 21
106.3784182031
 72
     1
 10
159.9191919675
 20
106.3784182031
 11
160.0742664987
 21
106.4029795959
 72
     1
 10
160.0742664987
 20
106.4029795959
 11
160.23105888
 21
106.4111967364
 72
     1
 10
160.23105888
 20
106.4111967364
 11
160.23105888
 21
104.9111997364
 97
        0
 75
     0
 76
     1
 98
        1
 10
0.0
 20
0.0
450
        0
451
        0
460
0.0
461
0.0
452
        0
462
0.0
453
        0
470

  0
LWPOLYLINE
  5
550
330
544
100
AcDbEntity
  8
1
  6
Continuous
 62
     4
100
AcDbPolyline
 90
       18
 70
     0
 43
0.0
 10
160.23105888
 20
104.9111997364
 10
161.73105588
 20
104.9111997364
 10
161.7228387395
 20
104.7544073551
 10
161.6982773467
 20
104.5993328239
 10
161.6576408013
 20
104.4476751719
 10
161.6013743258
 20
104.301095992
 10
161.5300943876
 20
104.1612012364
 10
161.4445819445
 20
104.0295236213
 10
161.3457738888
 20
103.9075058343
 10
161.2347527821
 20
103.7964847276
 10
161.1127349951
 20
103.6976766719
 10
160.98105738
 20
103.6121642288
 10
160.8411626244
 20
103.5408842906
 10
160.6945834445
 20
103.4846178151
 10
160.5429257925
 20
103.4439812697
 10
160.3878512613
 20
103.4194198769
 10
160.23105888
 20
103.4112027364
 10
160.23105888
 20
104.9111997364
  0
HATCH
  5
551
330
544
100
AcDbEntity
  8
1
  6
Continuous
 62
     4
100
AcDbHatch
 10
0.0
 20
0.0
 30
0.0
210
0.0
220
0.0
230
1.0
  2
SOLID
 70
     1
 71
     0
 91
        1
 92
        1
 93
       17
 72
     1
 10
160.23105888
 20
104.9111997364
 11
161.73105588
 21
104.9111997364
 72
     1
 10
161.73105588
 20
104.9111997364
 11
161.7228387395
 21
104.7544073551
 72
     1
 10
161.7228387395
 20
104.7544073551
 11
161.6982773467
 21
104.5993328239
 72
     1
 10
161.6982773467
 20
104.5993328239
 11
161.6576408013
 21
104.4476751719
 72
     1
 10
161.6576408013
 20
104.4476751719
 11
161.6013743258
 21
104.301095992
 72
     1
 10
161.6013743258
 20
104.301095992
 11
161.5300943876
 21
104.1612012364
 72
     1
 10
161.5300943876
 20
104.1612012364
 11
161.4445819445
 21
104.0295236213
 72
     1
 10
161.4445819445
 20
104.0295236213
 11
161.3457738888
 21
103.9075058343
 72
     1
 10
161.3457738888
 20
103.9075058343
 11
161.2347527821
 21
103.7964847276
 72
     1
 10
161.2347527821
 20
103.7964847276
 11
161.1127349951
 21
103.6976766719
 72
     1
 10
161.1127349951
 20
103.6976766719
 11
160.98105738
 21
103.6121642288
 72
     1
 10
160.98105738
 20
103.6121642288
 11
160.8411626244
 21
103.5408842906
 72
     1
 10
160.8411626244
 20
103.5408842906
 11
160.6945834445
 21
103.4846178151
 72
     1
 10
160.6945834445
 20
103.4846178151
 11
160.5429257925
 21
103.4439812697
 72
     1
 10
160.5429257925
 20
103.4439812697
 11
160.3878512613
 21
103.4194198769
 72
     1
 10
160.3878512613
 20
103.4194198769
 11
160.23105888
 21
103.4112027364
 72
     1
 10
160.23105888
 20
103.4112027364
 11
160.23105888
 21
104.9111997364
 97
        0
 75
     0
 76
     1
 98
        1
 10
0.0
 20
0.0
450
        0
451
        0
460
0.0
461
0.0
452
        0
462
0.0
453
        0
470

  0
LINE
  5
552
330
544
100
AcDbEntity
  8
1
  6
Continuous
 62
     4
100
AcDbLine
 10
160.23105888
 20
103.4112027364
 30
0.0
 11
160.23105888
 21
104.9111997364
 31
0.0
  0
ARC
  5
553
330
544
100
AcDbEntity
  8
1
  6
Continuous
 62
     4
100
AcDbCircle
 10
160.23105888
 20
104.9111997364
 30
0.0
 40
1.499997
100
AcDbArc
 50
270.0
 51
360.0
  0
LINE
  5
554
330
544
100
AcDbEntity
  8
1
  6
Continuous
 62
     4
100
AcDbLine
 10
161.73105588
 20
104.9111997364
 30
0.0
 11
160.23105888
 21
104.9111997364
 31
0.0
  0
ENDBLK
  5
555
330
544
100
AcDbEntity
  8
0
  6
ByBlock
 62
     0
100
AcDbBlockEnd
  0
BLOCK
  5
557
330
556
100
AcDbEntity
  8
0
100
AcDbBlockBegin
  2
*D19
 70
     1
 10
0.0
 20
0.0
 30
0.0
  3
*D19
  1

  0
LINE
  5
558
330
556
100
AcDbEntity
  8
SK2
370
    -2
100
AcDbLine
 10
386.4975772019605
 20
-23.10553000251801
 30
0.0
 11
386.4975772019605
 21
3.799440637481978
 31
0.0
  0
LINE
  5
559
330
556
100
AcDbEntity
  8
SK2
370
    -2
100
AcDbLine
 10
305.4975772019606
 20
-23.10553000251801
 30
0.0
 11
305.4975772019606
 21
3.799440637481978
 31
0.0
  0
LINE
  5
55A
330
556
100
AcDbEntity
  8
SK2
370
    -2
100
AcDbLine
 10
382.9975772019606
 20
1.799440637481978
 30
0.0
 11
308.9975772019605
 21
1.799440637481978
 31
0.0
  0
SOLID
  5
55B
330
556
100
AcDbEntity
  8
SK2
100
AcDbTrace
 10
382.9975772019606
 20
2.382773970815311
 30
0.0
 11
382.9975772019606
 21
1.216107304148645
 31
0.0
 12
386.4975772019605
 22
1.799440637481978
 32
0.0
 13
386.4975772019605
 23
1.799440637481978
 33
0.0
  0
SOLID
  5
55C
330
556
100
AcDbEntity
  8
SK2
100
AcDbTrace
 10
308.9975772019605
 20
2.382773970815311
 30
0.0
 11
308.9975772019605
 21
1.216107304148645
 31
0.0
 12
305.4975772019606
 22
1.799440637481978
 32
0.0
 13
305.4975772019606
 23
1.799440637481978
 33
0.0
  0
MTEXT
  5
55D
330
556
100
AcDbEntity
  8
SK2
100
AcDbMText
 10
347.0112586277606
 20
4.174440637481978
 30
0.0
 40
3.5
 41
0.0
 71
     5
 72
     1
  1
81
 73
     1
 44
1.0
  0
POINT
  5
55E
330
556
100
AcDbEntity
  8
Defpoints
 62
     0
100
AcDbPoint
 10
386.4975772019605
 20
-23.73053000251801
 30
0.0
  0
POINT
  5
55F
330
556
100
AcDbEntity
  8
Defpoints
 62
     0
100
AcDbPoint
 10
305.4975772019606
 20
-23.73053000251801
 30
0.0
  0
POINT
  5
560
330
556
100
AcDbEntity
  8
Defpoints
 62
     0
100
AcDbPoint
 10
305.4975772019606
 20
1.799440637481978
 30
0.0
  0
ENDBLK
  5
561
330
556
100
AcDbEntity
  8
0
100
AcDbBlockEnd
  0
BLOCK
  5
563
330
562
100
AcDbEntity
  8
0
100
AcDbBlockBegin
  2
*D20
 70
     1
 10
0.0
 20
0.0
 30
0.0
  3
*D20
  1

  0
LINE
  5
564
330
562
100
AcDbEntity
  8
SK2
370
    -2
100
AcDbLine
 10
379.6225772019606
 20
-26.73053000251801
 30
0.0
 11
400.3805388623744
 21
-26.73053000251802
 31
0.0
  0
LINE
  5
565
330
562
100
AcDbEntity
  8
SK2
370
    -2
100
AcDbLine
 10
379.6225772019606
 20
-38.73053000251801
 30
0.0
 11
400.3805388623744
 21
-38.73053000251802
 31
0.0
  0
LINE
  5
566
330
562
100
AcDbEntity
  8
SK2
370
    -2
100
AcDbLine
 10
398.3805388623745
 20
-30.23053000251801
 30
0.0
 11
398.3805388623745
 21
-35.23053000251801
 31
0.0
  0
SOLID
  5
567
330
562
100
AcDbEntity
  8
SK2
100
AcDbTrace
 10
397.7972055290412
 20
-30.23053000251801
 30
0.0
 11
398.9638721957078
 21
-30.23053000251801
 31
0.0
 12
398.3805388623745
 22
-26.73053000251802
 32
0.0
 13
398.3805388623745
 23
-26.73053000251802
 33
0.0
  0
SOLID
  5
568
330
562
100
AcDbEntity
  8
SK2
100
AcDbTrace
 10
397.7972055290412
 20
-35.23053000251801
 30
0.0
 11
398.9638721957078
 21
-35.23053000251801
 31
0.0
 12
398.3805388623745
 22
-38.73053000251801
 32
0.0
 13
398.3805388623745
 23
-38.73053000251801
 33
0.0
  0
MTEXT
  5
569
330
562
100
AcDbEntity
  8
SK2
100
AcDbMText
 10
396.0051943741855
 20
-32.92493768661801
 30
0.0
 40
3.5
 41
0.0
 71
     5
 72
     1
  1
M12
 11
0.0000000000000001
 21
1.0
 31
0.0
 73
     1
 44
1.0
  0
POINT
  5
56A
330
562
100
AcDbEntity
  8
Defpoints
 62
     0
100
AcDbPoint
 10
378.9975772019606
 20
-26.73053000251801
 30
0.0
  0
POINT
  5
56B
330
562
100
AcDbEntity
  8
Defpoints
 62
     0
100
AcDbPoint
 10
378.9975772019606
 20
-38.73053000251801
 30
0.0
  0
POINT
  5
56C
330
562
100
AcDbEntity
  8
Defpoints
 62
     0
100
AcDbPoint
 10
398.3805388623745
 20
-38.73053000251801
 30
0.0
  0
ENDBLK
  5
56D
330
562
100
AcDbEntity
  8
0
100
AcDbBlockEnd
  0
BLOCK
  5
56F
330
56E
100
AcDbEntity
  8
0
100
AcDbBlockBegin
  2
*D21
 70
     1
 10
0.0
 20
0.0
 30
0.0
  3
*D21
  1

  0
LINE
  5
570
330
56E
100
AcDbEntity
  8
SK2
370
    -2
100
AcDbLine
 10
385.3725772019605
 20
-44.643030002518
 30
0.0
 11
290.8725772019606
 21
-44.64303000251797
 31
0.0
  0
LINE
  5
571
330
56E
100
AcDbEntity
  8
SK2
370
    -2
100
AcDbLine
 10
385.3725772019605
 20
-20.81803000251801
 30
0.0
 11
290.8725772019606
 21
-20.81803000251799
 31
0.0
  0
LINE
  5
572
330
56E
100
AcDbEntity
  8
SK2
370
    -2
100
AcDbLine
 10
292.8725772019605
 20
-41.14303000251797
 30
0.0
 11
292.8725772019605
 21
-24.31803000251799
 31
0.0
  0
SOLID
  5
573
330
56E
100
AcDbEntity
  8
SK2
100
AcDbTrace
 10
292.2892438686272
 20
-41.14303000251797
 30
0.0
 11
293.4559105352938
 21
-41.14303000251797
 31
0.0
 12
292.8725772019605
 22
-44.64303000251797
 32
0.0
 13
292.8725772019605
 23
-44.64303000251797
 33
0.0
  0
SOLID
  5
574
330
56E
100
AcDbEntity
  8
SK2
100
AcDbTrace
 10
292.2892438686272
 20
-24.31803000251799
 30
0.0
 11
293.4559105352938
 21
-24.31803000251799
 31
0.0
 12
292.8725772019605
 22
-20.81803000251799
 32
0.0
 13
292.8725772019605
 23
-20.81803000251799
 33
0.0
  0
MTEXT
  5
575
330
56E
100
AcDbEntity
  8
SK2
100
AcDbMText
 10
290.4972327137715
 20
-32.451850175918
 30
0.0
 40
3.5
 41
0.0
 71
     5
 72
     1
  1
%%c23.825
 11
0.0000000000000001
 21
1.0
 31
0.0
 73
     1
 44
1.0
  0
POINT
  5
576
330
56E
100
AcDbEntity
  8
Defpoints
 62
     0
100
AcDbPoint
 10
385.9975772019605
 20
-44.643030002518
 30
0.0
  0
POINT
  5
577
330
56E
100
AcDbEntity
  8
Defpoints
 62
     0
100
AcDbPoint
 10
385.9975772019605
 20
-20.81803000251801
 30
0.0
  0
POINT
  5
578
330
56E
100
AcDbEntity
  8
Defpoints
 62
     0
100
AcDbPoint
 10
292.8725772019605
 20
-20.81803000251799
 30
0.0
  0
ENDBLK
  5
579
330
56E
100
AcDbEntity
  8
0
100
AcDbBlockEnd
  0
BLOCK
  5
5FD
330
5F3
100
AcDbEntity
  8
0
100
AcDbBlockBegin
  2
*D23
 70
     1
 10
0.0
 20
0.0
 30
0.0
  3
*D23
  1

  0
LINE
  5
632
330
5F3
100
AcDbEntity
  8
SK2
370
    -2
100
AcDbLine
 10
0.0
 20
9.625
 30
0.0
 11
0.0000000000000017
 21
36.52997063999999
 31
0.0
  0
LINE
  5
633
330
5F3
100
AcDbEntity
  8
SK2
370
    -2
100
AcDbLine
 10
-81.0
 20
9.625
 30
0.0
 11
-81.0
 21
36.52997063999999
 31
0.0
  0
LINE
  5
634
330
5F3
100
AcDbEntity
  8
SK2
370
    -2
100
AcDbLine
 10
-3.499999999999998
 20
34.52997063999999
 30
0.0
 11
-77.5
 21
34.52997063999999
 31
0.0
  0
SOLID
  5
635
330
5F3
100
AcDbEntity
  8
SK2
100
AcDbTrace
 10
-3.499999999999998
 20
35.11330397333332
 30
0.0
 11
-3.499999999999998
 21
33.94663730666665
 31
0.0
 12
0.0000000000000016
 22
34.52997063999999
 32
0.0
 13
0.0000000000000016
 23
34.52997063999999
 33
0.0
  0
SOLID
  5
636
330
5F3
100
AcDbEntity
  8
SK2
100
AcDbTrace
 10
-77.5
 20
35.11330397333332
 30
0.0
 11
-77.5
 21
33.94663730666665
 31
0.0
 12
-81.0
 22
34.52997063999999
 32
0.0
 13
-81.0
 23
34.52997063999999
 33
0.0
  0
MTEXT
  5
637
330
5F3
100
AcDbEntity
  8
SK2
100
AcDbMText
 10
-39.48631857419997
 20
36.90497063999999
 30
0.0
 40
3.5
 41
0.0
 71
     5
 72
     1
  1
81
 73
     1
 44
1.0
  0
POINT
  5
638
330
5F3
100
AcDbEntity
  8
Defpoints
 62
     0
100
AcDbPoint
 10
0.0
 20
9.0
 30
0.0
  0
POINT
  5
639
330
5F3
100
AcDbEntity
  8
Defpoints
 62
     0
100
AcDbPoint
 10
-81.0
 20
9.0
 30
0.0
  0
POINT
  5
63A
330
5F3
100
AcDbEntity
  8
Defpoints
 62
     0
100
AcDbPoint
 10
-81.0
 20
34.52997063999999
 30
0.0
  0
ENDBLK
  5
5FE
330
5F3
100
AcDbEntity
  8
0
100
AcDbBlockEnd
  0
BLOCK
  5
609
330
5FF
100
AcDbEntity
  8
0
100
AcDbBlockBegin
  2
*D24
 70
     1
 10
0.0
 20
0.0
 30
0.0
  3
*D24
  1

  0
LINE
  5
63B
330
5FF
100
AcDbEntity
  8
SK2
370
    -2
100
AcDbLine
 10
-6.875
 20
6.0
 30
0.0
 11
13.88296166041391
 21
5.999999999999994
 31
0.0
  0
LINE
  5
63C
330
5FF
100
AcDbEntity
  8
SK2
370
    -2
100
AcDbLine
 10
-6.875
 20
-6.0
 30
0.0
 11
13.88296166041391
 21
-6.000000000000005
 31
0.0
  0
LINE
  5
63D
330
5FF
100
AcDbEntity
  8
SK2
370
    -2
100
AcDbLine
 10
11.88296166041391
 20
2.499999999999994
 30
0.0
 11
11.88296166041391
 21
-2.500000000000005
 31
0.0
  0
SOLID
  5
63E
330
5FF
100
AcDbEntity
  8
SK2
100
AcDbTrace
 10
11.29962832708057
 20
2.499999999999994
 30
0.0
 11
12.46629499374724
 21
2.499999999999994
 31
0.0
 12
11.88296166041391
 22
5.999999999999994
 32
0.0
 13
11.88296166041391
 23
5.999999999999994
 33
0.0
  0
SOLID
  5
63F
330
5FF
100
AcDbEntity
  8
SK2
100
AcDbTrace
 10
11.29962832708057
 20
-2.500000000000005
 30
0.0
 11
12.46629499374724
 21
-2.500000000000005
 31
0.0
 12
11.88296166041391
 22
-6.000000000000005
 32
0.0
 13
11.88296166041391
 23
-6.000000000000005
 33
0.0
  0
MTEXT
  5
640
330
5FF
100
AcDbEntity
  8
SK2
100
AcDbMText
 10
9.507617172224936
 20
-0.1944076840999995
 30
0.0
 40
3.5
 41
0.0
 71
     5
 72
     1
  1
M12
 11
0.0000000000000001
 21
1.0
 31
0.0
 73
     1
 44
1.0
  0
POINT
  5
641
330
5FF
100
AcDbEntity
  8
Defpoints
 62
     0
100
AcDbPoint
 10
-7.5
 20
6.0
 30
0.0
  0
POINT
  5
642
330
5FF
100
AcDbEntity
  8
Defpoints
 62
     0
100
AcDbPoint
 10
-7.5
 20
-6.0
 30
0.0
  0
POINT
  5
643
330
5FF
100
AcDbEntity
  8
Defpoints
 62
     0
100
AcDbPoint
 10
11.88296166041391
 20
-6.000000000000005
 30
0.0
  0
ENDBLK
  5
60A
330
5FF
100
AcDbEntity
  8
0
100
AcDbBlockEnd
  0
BLOCK
  5
615
330
60B
100
AcDbEntity
  8
0
100
AcDbBlockBegin
  2
*D25
 70
     1
 10
0.0
 20
0.0
 30
0.0
  3
*D25
  1

  0
LINE
  5
644
330
60B
100
AcDbEntity
  8
SK2
370
    -2
100
AcDbLine
 10
-1.125
 20
-11.91249999999999
 30
0.0
 11
-95.625
 21
-11.91249999999997
 31
0.0
  0
LINE
  5
645
330
60B
100
AcDbEntity
  8
SK2
370
    -2
100
AcDbLine
 10
-1.125
 20
11.91249999999999
 30
0.0
 11
-95.625
 21
11.91250000000002
 31
0.0
  0
LINE
  5
646
330
60B
100
AcDbEntity
  8
SK2
370
    -2
100
AcDbLine
 10
-93.625
 20
-8.412499999999967
 30
0.0
 11
-93.625
 21
8.41250000000002
 31
0.0
  0
SOLID
  5
647
330
60B
100
AcDbEntity
  8
SK2
100
AcDbTrace
 10
-94.20833333333332
 20
-8.412499999999967
 30
0.0
 11
-93.04166666666667
 21
-8.412499999999967
 31
0.0
 12
-93.625
 22
-11.91249999999997
 32
0.0
 13
-93.625
 23
-11.91249999999997
 33
0.0
  0
SOLID
  5
648
330
60B
100
AcDbEntity
  8
SK2
100
AcDbTrace
 10
-94.20833333333332
 20
8.41250000000002
 30
0.0
 11
-93.04166666666667
 21
8.41250000000002
 31
0.0
 12
-93.625
 22
11.91250000000002
 32
0.0
 13
-93.625
 23
11.91250000000002
 33
0.0
  0
MTEXT
  5
649
330
60B
100
AcDbEntity
  8
SK2
100
AcDbMText
 10
-96.00034448818897
 20
0.2786798266000122
 30
0.0
 40
3.5
 41
0.0
 71
     5
 72
     1
  1
%%c23.825
 11
0.0000000000000001
 21
1.0
 31
0.0
 73
     1
 44
1.0
  0
POINT
  5
64A
330
60B
100
AcDbEntity
  8
Defpoints
 62
     0
100
AcDbPoint
 10
-0.5
 20
-11.91249999999999
 30
0.0
  0
POINT
  5
64B
330
60B
100
AcDbEntity
  8
Defpoints
 62
     0
100
AcDbPoint
 10
-0.5
 20
11.91249999999999
 30
0.0
  0
POINT
  5
64C
330
60B
100
AcDbEntity
  8
Defpoints
 62
     0
100
AcDbPoint
 10
-93.625
 20
11.91250000000002
 30
0.0
  0
ENDBLK
  5
616
330
60B
100
AcDbEntity
  8
0
100
AcDbBlockEnd
  0
ENDSEC
  0
SECTION
  2
ENTITIES
  0
DIMENSION
  5
5BE
330
1B
100
AcDbEntity
  8
SK2
100
AcDbDimension
  2
*D23
 10
-81.0
 20
34.52997063999999
 30
0.0
 11
-39.48631857419997
 21
34.52997063999999
 31
0.0
 70
   160
  1
81
 71
     5
 42
81.0
  3
ISO-25
100
AcDbAlignedDimension
 13
0.0
 23
9.0
 33
0.0
 14
-81.0
 24
9.0
 34
0.0
 50
180.0
100
AcDbRotatedDimension
  0
DIMENSION
  5
5BF
330
1B
100
AcDbEntity
  8
SK2
100
AcDbDimension
  2
*D24
 10
11.88296166041391
 20
-6.000000000000005
 30
0.0
 11
11.88296166041391
 21
-0.1944076840999997
 31
0.0
 70
   160
  1
M12
 71
     5
 42
12.0
  3
ISO-25
100
AcDbAlignedDimension
 13
-7.5
 23
6.0
 33
0.0
 14
-7.5
 24
-6.0
 34
0.0
 50
270.0
100
AcDbRotatedDimension
  0
DIMENSION
  5
5C0
330
1B
100
AcDbEntity
  8
SK2
100
AcDbDimension
  2
*D25
 10
-93.625
 20
11.91250000000002
 30
0.0
 11
-93.625
 21
0.2786798266000119
 31
0.0
 70
   160
  1
%%c23.825
 71
     5
 42
23.82499999999999
  3
ISO-25
100
AcDbAlignedDimension
 13
-0.5
 23
-11.91249999999999
 33
0.0
 14
-0.5
 24
11.91249999999999
 34
0.0
 50
90.0
100
AcDbRotatedDimension
  0
TEXT
  5
5C1
330
1B
100
AcDbEntity
  8
6
100
AcDbText
 10
-79.80416221979999
 20
-23.81616862329999
 30
0.0
 40
5.0
  1
MT3MOD12SA000
 41
0.8
100
AcDbText
  0
LINE
  5
5C2
330
1B
100
AcDbEntity
  8
SK1
100
AcDbLine
 10
-81.0
 20
8.5
 30
0.0
 11
-81.0
 21
-8.5
 31
0.0
  0
LINE
  5
5C3
330
1B
100
AcDbEntity
  8
SK3
100
AcDbLine
 10
-72.79999999999995
 20
6.5
 30
0.0
 11
-72.79999999999995
 21
-6.5
 31
0.0
  0
LINE
  5
5C4
330
1B
100
AcDbEntity
  8
SK3
100
AcDbLine
 10
-72.27499999999998
 20
5.099999999999994
 30
0.0
 11
-72.27499999999998
 21
-5.099999999999994
 31
0.0
  0
LINE
  5
5C5
330
1B
100
AcDbEntity
  8
SK1
100
AcDbLine
 10
-72.0
 20
9.5
 30
0.0
 11
-72.0
 21
-9.5
 31
0.0
  0
LINE
  5
5C6
330
1B
100
AcDbEntity
  8
SK1
100
AcDbLine
 10
-71.37895959189996
 20
10.12104040800001
 30
0.0
 11
-71.37895959189996
 21
-10.12104040809998
 31
0.0
  0
LINE
  5
5C7
330
1B
100
AcDbEntity
  8
SK3
100
AcDbLine
 10
-56.99999999999994
 20
6.0
 30
0.0
 11
-56.99999999999994
 21
-6.0
 31
0.0
  0
LINE
  5
5C8
330
1B
100
AcDbEntity
  8
SK3
100
AcDbLine
 10
-47.5
 20
5.099999999999994
 30
0.0
 11
-47.5
 21
-5.099999999999994
 31
0.0
  0
LINE
  5
5C9
330
1B
100
AcDbEntity
  8
SK1
100
AcDbLine
 10
-71.37895959189996
 20
10.12104040800001
 30
0.0
 11
-72.0
 21
9.5
 31
0.0
  0
LINE
  5
5CA
330
1B
100
AcDbEntity
  8
SK1
100
AcDbLine
 10
-71.37895959189996
 20
-10.12104040809998
 30
0.0
 11
-72.0
 21
-9.5
 31
0.0
  0
LINE
  5
5CB
330
1B
100
AcDbEntity
  8
SK3
100
AcDbLine
 10
-35.0
 20
5.099999999999994
 30
0.0
 11
-35.0
 21
-5.099999999999994
 31
0.0
  0
LINE
  5
5CC
330
1B
100
AcDbEntity
  8
SK3
100
AcDbLine
 10
-44.78828189849997
 20
0.0
 30
0.0
 11
-47.5
 21
-5.099999999999994
 31
0.0
  0
LINE
  5
5CD
330
1B
100
AcDbEntity
  8
SK3
100
AcDbLine
 10
-72.27499999999998
 20
-5.099999999999994
 30
0.0
 11
-72.79999999999995
 21
-5.625
 31
0.0
  0
LINE
  5
5CE
330
1B
100
AcDbEntity
  8
SK3
100
AcDbLine
 10
-72.27499999999998
 20
5.099999999999994
 30
0.0
 11
-72.79999999999995
 21
5.625
 31
0.0
  0
LINE
  5
5CF
330
1B
100
AcDbEntity
  8
SK3
100
AcDbLine
 10
-44.78828189849997
 20
0.0
 30
0.0
 11
-47.5
 21
5.099999999999994
 31
0.0
  0
LINE
  5
5D0
330
1B
100
AcDbEntity
  8
SK3
100
AcDbLine
 10
-35.0
 20
-5.099999999999994
 30
0.0
 11
-37.71171810149997
 21
0.0
 31
0.0
  0
LINE
  5
5D1
330
1B
100
AcDbEntity
  8
SK3
100
AcDbLine
 10
-26.0
 20
6.0
 30
0.0
 11
-26.0
 21
-6.0
 31
0.0
  0
LINE
  5
5D2
330
1B
100
AcDbEntity
  8
SK3
100
AcDbLine
 10
-35.0
 20
5.099999999999994
 30
0.0
 11
-37.71171810149997
 21
0.0
 31
0.0
  0
LINE
  5
5D3
330
1B
100
AcDbEntity
  8
SK3
100
AcDbLine
 10
-8.0
 20
-6.549705693799992
 30
0.0
 11
-8.0
 21
6.549705693700005
 31
0.0
  0
LINE
  5
5D4
330
1B
100
AcDbEntity
  8
SK3
100
AcDbLine
 10
-6.0
 20
-6.549705693799992
 30
0.0
 11
-6.0
 21
6.549705693700005
 31
0.0
  0
LINE
  5
5D5
330
1B
100
AcDbEntity
  8
SK1
100
AcDbLine
 10
-0.2999999999999545
 20
11.90497064
 30
0.0
 11
-0.2999999999999545
 21
-11.90497064009997
 31
0.0
  0
LINE
  5
5D6
330
1B
100
AcDbEntity
  8
SK1
100
AcDbLine
 10
0.0
 20
11.60497064
 30
0.0
 11
0.0
 21
-11.60497064009998
 31
0.0
  0
LINE
  5
5D7
330
1B
100
AcDbEntity
  8
SK1
100
AcDbLine
 10
0.0
 20
-11.60497064009998
 30
0.0
 11
-0.2999999999999545
 21
-11.90497064009997
 31
0.0
  0
LINE
  5
5D8
330
1B
100
AcDbEntity
  8
SK1
100
AcDbLine
 10
-72.0
 20
-9.5
 30
0.0
 11
-80.0
 21
-9.5
 31
0.0
  0
LINE
  5
5D9
330
1B
100
AcDbEntity
  8
SK1
100
AcDbLine
 10
-0.2999999999999545
 20
-11.90497064009997
 30
0.0
 11
-71.37895959189996
 21
-10.12104040809998
 31
0.0
  0
LINE
  5
5DA
330
1B
100
AcDbEntity
  8
SK1
100
AcDbLine
 10
0.0
 20
11.60497064
 30
0.0
 11
-0.2999999999999545
 21
11.90497064
 31
0.0
  0
LINE
  5
5DB
330
1B
100
AcDbEntity
  8
SK3
100
AcDbLine
 10
-6.0
 20
-6.549999999999997
 30
0.0
 11
-8.0
 21
-6.549999999999997
 31
0.0
  0
LINE
  5
5DC
330
1B
100
AcDbEntity
  8
SK3
100
AcDbLine
 10
-72.79999999999995
 20
-6.5
 30
0.0
 11
-79.5
 21
-6.5
 31
0.0
  0
LINE
  5
5DD
330
1B
100
AcDbEntity
  8
SK3
100
AcDbLine
 10
-0.5
 20
-6.25
 30
0.0
 11
-6.0
 21
-6.25
 31
0.0
  0
LINE
  5
5DE
330
1B
100
AcDbEntity
  8
SK3
100
AcDbLine
 10
-56.99999999999994
 20
-6.0
 30
0.0
 11
-72.79999999999995
 21
-6.0
 31
0.0
  0
LINE
  5
5DF
330
1B
100
AcDbEntity
  8
SK3
100
AcDbLine
 10
-26.0
 20
-6.0
 30
0.0
 11
-8.0
 21
-6.0
 31
0.0
  0
LINE
  5
5E0
330
1B
100
AcDbEntity
  8
SK3
100
AcDbLine
 10
-8.0
 20
-5.099999999999994
 30
0.0
 11
-35.0
 21
-5.099999999999994
 31
0.0
  0
LINE
  5
5E1
330
1B
100
AcDbEntity
  8
SK3
100
AcDbLine
 10
-47.5
 20
-5.099999999999994
 30
0.0
 11
-72.27499999999998
 21
-5.099999999999994
 31
0.0
  0
LINE
  5
5E2
330
1B
100
AcDbEntity
  8
SK4
100
AcDbLine
 10
3.0
 20
0.0
 30
0.0
 11
-84.0
 21
0.0
 31
0.0
  0
LINE
  5
5E3
330
1B
100
AcDbEntity
  8
SK3
100
AcDbLine
 10
-8.0
 20
5.099999999999994
 30
0.0
 11
-35.0
 21
5.099999999999994
 31
0.0
  0
LINE
  5
5E4
330
1B
100
AcDbEntity
  8
SK3
100
AcDbLine
 10
-47.5
 20
5.099999999999994
 30
0.0
 11
-72.27499999999998
 21
5.099999999999994
 31
0.0
  0
LINE
  5
5E5
330
1B
100
AcDbEntity
  8
SK3
100
AcDbLine
 10
-56.99999999999994
 20
6.0
 30
0.0
 11
-72.79999999999995
 21
6.0
 31
0.0
  0
LINE
  5
5E6
330
1B
100
AcDbEntity
  8
SK3
100
AcDbLine
 10
-26.0
 20
6.0
 30
0.0
 11
-8.0
 21
6.0
 31
0.0
  0
LINE
  5
5E7
330
1B
100
AcDbEntity
  8
SK3
100
AcDbLine
 10
-0.5
 20
6.25
 30
0.0
 11
-6.0
 21
6.25
 31
0.0
  0
LINE
  5
5E8
330
1B
100
AcDbEntity
  8
SK3
100
AcDbLine
 10
-72.79999999999995
 20
6.5
 30
0.0
 11
-79.5
 21
6.5
 31
0.0
  0
LINE
  5
5E9
330
1B
100
AcDbEntity
  8
SK3
100
AcDbLine
 10
-6.0
 20
6.549999999999997
 30
0.0
 11
-8.0
 21
6.549999999999997
 31
0.0
  0
LINE
  5
5EA
330
1B
100
AcDbEntity
  8
SK1
100
AcDbLine
 10
-72.0
 20
9.5
 30
0.0
 11
-80.0
 21
9.5
 31
0.0
  0
LINE
  5
5EB
330
1B
100
AcDbEntity
  8
SK1
100
AcDbLine
 10
-0.2999999999999545
 20
11.90497064
 30
0.0
 11
-71.37895959189996
 21
10.12104040800001
 31
0.0
  0
ARC
  5
5EC
330
1B
100
AcDbEntity
  8
SK3
100
AcDbCircle
 10
-0.5
 20
-6.75
 30
0.0
 40
0.5
100
AcDbArc
 50
0.0000253554002406
 51
90.0
  0
ARC
  5
5ED
330
1B
100
AcDbEntity
  8
SK3
100
AcDbCircle
 10
-0.5
 20
6.75
 30
0.0
 40
0.5
100
AcDbArc
 50
270.0
 51
359.9999746445998
  0
ARC
  5
5EE
330
1B
100
AcDbEntity
  8
SK3
100
AcDbCircle
 10
-79.5
 20
8.0
 30
0.0
 40
1.5
100
AcDbArc
 50
180.0
 51
270.0
  0
ARC
  5
5EF
330
1B
100
AcDbEntity
  8
SK3
100
AcDbCircle
 10
-79.5
 20
-8.0
 30
0.0
 40
1.5
100
AcDbArc
 50
90.0
 51
180.0
  0
ARC
  5
5F0
330
1B
100
AcDbEntity
  8
SK1
100
AcDbCircle
 10
-80.0
 20
-8.5
 30
0.0
 40
1.0
100
AcDbArc
 50
180.0
 51
270.0
  0
ARC
  5
5F1
330
1B
100
AcDbEntity
  8
SK1
100
AcDbCircle
 10
-80.0
 20
8.5
 30
0.0
 40
1.0
100
AcDbArc
 50
90.0
 51
180.0
  0
INSERT
  5
5F2
330
1B
100
AcDbEntity
  8
1
100
AcDbBlockReference
  2
NULLPUNKT_BL0
 10
0.0
 20
0.0
 30
0.0
  0
ENDSEC
  0
SECTION
  2
OBJECTS
  0
DICTIONARY
  5
25B
330
0
100
AcDbDictionary
281
     1
  3
ACAD_COLOR
350
265
  3
ACAD_GROUP
350
25C
  3
ACAD_LAYOUT
350
268
  3
ACAD_MATERIAL
350
264
  3
ACAD_MLINESTYLE
350
25D
  3
ACAD_PLOTSETTINGS
350
269
  3
ACAD_PLOTSTYLENAME
350
262
  3
ACAD_TABLESTYLE
350
266
  3
AcDbVariableDictionary
350
4DE
  0
DICTIONARY
  5
3FD
330
2
100
AcDbDictionary
280
     1
281
     1
  3
ACAD_LAYERFILTERS
360
64E
  3
ACLYDICTIONARY
360
64D
  0
DICTIONARY
  5
265
102
{ACAD_REACTORS
330
25B
102
}
330
25B
100
AcDbDictionary
281
     1
  0
DICTIONARY
  5
25C
102
{ACAD_REACTORS
330
25B
102
}
330
25B
100
AcDbDictionary
281
     1
  0
DICTIONARY
  5
268
102
{ACAD_REACTORS
330
25B
102
}
330
25B
100
AcDbDictionary
281
     1
  3
Layout1
350
26B
  3
Model
350
26A
  0
DICTIONARY
  5
264
102
{ACAD_REACTORS
330
25B
102
}
330
25B
100
AcDbDictionary
281
     1
  0
DICTIONARY
  5
25D
102
{ACAD_REACTORS
330
25B
102
}
330
25B
100
AcDbDictionary
281
     1
  3
STANDARD
350
25E
  0
DICTIONARY
  5
269
102
{ACAD_REACTORS
330
25B
102
}
330
25B
100
AcDbDictionary
281
     1
  0
ACDBDICTIONARYWDFLT
  5
262
102
{ACAD_REACTORS
330
25B
102
}
330
25B
100
AcDbDictionary
281
     1
  3
Normal
350
263
100
AcDbDictionaryWithDefault
340
263
  0
DICTIONARY
  5
266
102
{ACAD_REACTORS
330
25B
102
}
330
25B
100
AcDbDictionary
281
     1
  3
Standard
350
267
  0
DICTIONARY
  5
4DE
102
{ACAD_REACTORS
330
25B
102
}
330
25B
100
AcDbDictionary
281
     1
  3
CTABLESTYLE
350
4DF
  0
DICTIONARY
  5
64E
102
{ACAD_REACTORS
330
3FD
102
}
330
3FD
100
AcDbDictionary
281
     1
  0
DICTIONARY
  5
64D
102
{ACAD_REACTORS
330
3FD
102
}
330
3FD
100
AcDbDictionary
281
     1
1001
ACAD
1000
<All
  0
LAYOUT
  5
26B
102
{ACAD_REACTORS
330
268
102
}
330
268
100
AcDbPlotSettings
  1

  2
\\ingdom02\ITB3
  4

  6

 40
0.0
 41
0.0
 42
0.0
 43
0.0
 44
0.0
 45
0.0
 46
0.0
 47
0.0
 48
0.0
 49
0.0
140
0.0
141
0.0
142
1.0
143
1.0
 70
   688
 72
     0
 73
     0
 74
     5
  7

 75
    16
147
1.0
 76
     0
 77
     2
 78
   300
148
0.0
149
0.0
100
AcDbLayout
  1
Layout1
 70
     1
 71
     1
 10
0.0
 20
0.0
 11
12.0
 21
9.0
 12
0.0
 22
0.0
 32
0.0
 14
1.000000000000000E+20
 24
1.000000000000000E+20
 34
1.000000000000000E+20
 15
-1.000000000000000E+20
 25
-1.000000000000000E+20
 35
-1.000000000000000E+20
146
0.0
 13
0.0
 23
0.0
 33
0.0
 16
1.0
 26
0.0
 36
0.0
 17
0.0
 27
1.0
 37
0.0
 76
     0
330
1C
  0
LAYOUT
  5
26A
102
{ACAD_REACTORS
330
268
102
}
330
268
100
AcDbPlotSettings
  1

  2
\\ingdom02\ITB3
  4

  6

 40
0.0
 41
0.0
 42
0.0
 43
0.0
 44
0.0
 45
0.0
 46
0.0
 47
0.0
 48
0.0
 49
0.0
140
0.0
141
0.0
142
1.0
143
1.0
 70
  1712
 72
     0
 73
     0
 74
     0
  7

 75
     0
147
1.0
 76
     0
 77
     2
 78
   300
148
0.0
149
0.0
100
AcDbLayout
  1
Model
 70
     1
 71
     0
 10
0.0
 20
0.0
 11
12.0
 21
9.0
 12
0.0
 22
0.0
 32
0.0
 14
0.0
 24
0.0
 34
0.0
 15
0.0
 25
0.0
 35
0.0
146
0.0
 13
0.0
 23
0.0
 33
0.0
 16
1.0
 26
0.0
 36
0.0
 17
0.0
 27
1.0
 37
0.0
 76
     0
330
1B
  0
MLINESTYLE
  5
25E
102
{ACAD_REACTORS
330
25D
102
}
330
25D
100
AcDbMlineStyle
  2
STANDARD
 70
     0
  3

 62
   256
 51
90.0
 52
90.0
 71
     2
 49
0.5
 62
   256
  6
BYLAYER
 49
-0.5
 62
   256
  6
BYLAYER
  0
ACDBPLACEHOLDER
  5
263
102
{ACAD_REACTORS
330
262
102
}
330
262
  0
TABLESTYLE
  5
267
102
{ACAD_REACTORS
330
266
102
}
330
266
100
AcDbTableStyle
  3
Standard
 70
     0
 71
     0
 40
1.5
 41
1.5
280
     0
281
     0
  7
STANDARD
140
4.5
170
     2
 62
     0
 63
     7
283
     0
274
    -2
284
     1
 64
     0
275
    -2
285
     1
 65
     0
276
    -2
286
     1
 66
     0
277
    -2
287
     1
 67
     0
278
    -2
288
     1
 68
     0
279
    -2
289
     1
 69
     0
  7
STANDARD
140
6.0
170
     5
 62
     0
 63
     7
283
     0
274
    -2
284
     1
 64
     0
275
    -2
285
     1
 65
     0
276
    -2
286
     1
 66
     0
277
    -2
287
     1
 67
     0
278
    -2
288
     1
 68
     0
279
    -2
289
     1
 69
     0
  7
STANDARD
140
4.5
170
     5
 62
     0
 63
     7
283
     0
274
    -2
284
     1
 64
     0
275
    -2
285
     1
 65
     0
276
    -2
286
     1
 66
     0
277
    -2
287
     1
 67
     0
278
    -2
288
     1
 68
     0
279
    -2
289
     1
 69
     0
  0
DICTIONARYVAR
  5
4DF
102
{ACAD_REACTORS
330
4DE
102
}
330
4DE
100
DictionaryVariables
280
     0
  1
STANDARD
  0
ENDSEC
  0
EOF
