  0
SECTION
  2
HEADER
  9
$ACADVER
  1
AC1018
  9
$ACADMAINTVER
 70
    39
  9
$DWGCODEPAGE
  3
ANSI_1252
  9
$INSBASE
 10
0.0
 20
0.0
 30
0.0
  9
$EXTMIN
 10
-97.71331700695828
 20
-24.41313105078075
 30
-0.0015258207003583
  9
$EXTMAX
 10
126.6870123551774
 20
38.6703647706546
 30
0.0000000349246037
  9
$LIMMIN
 10
0.0
 20
0.0
  9
$LIMMAX
 10
420.0
 20
297.0
  9
$ORTHOMODE
 70
     0
  9
$REGENMODE
 70
     1
  9
$FILLMODE
 70
     1
  9
$QTEXTMODE
 70
     0
  9
$MIRRTEXT
 70
     0
  9
$LTSCALE
 40
23.1
  9
$ATTMODE
 70
     1
  9
$TEXTSIZE
 40
0.2
  9
$TRACEWID
 40
0.05
  9
$TEXTSTYLE
  7
STANDARD
  9
$CLAYER
  8
0
  9
$CELTYPE
  6
BYLAYER
  9
$CECOLOR
 62
   256
  9
$CELTSCALE
 40
1.0
  9
$DISPSILH
 70
     0
  9
$DIMSCALE
 40
1.0
  9
$DIMASZ
 40
3.5
  9
$DIMEXO
 40
0.625
  9
$DIMDLI
 40
3.75
  9
$DIMRND
 40
0.0
  9
$DIMDLE
 40
0.0
  9
$DIMEXE
 40
2.0
  9
$DIMTP
 40
0.0
  9
$DIMTM
 40
0.0
  9
$DIMTXT
 40
3.5
  9
$DIMCEN
 40
2.5
  9
$DIMTSZ
 40
0.0
  9
$DIMTOL
 70
     0
  9
$DIMLIM
 70
     0
  9
$DIMTIH
 70
     0
  9
$DIMTOH
 70
     0
  9
$DIMSE1
 70
     0
  9
$DIMSE2
 70
     0
  9
$DIMTAD
 70
     1
  9
$DIMZIN
 70
     8
  9
$DIMBLK
  1

  9
$DIMASO
 70
     1
  9
$DIMSHO
 70
     1
  9
$DIMPOST
  1

  9
$DIMAPOST
  1

  9
$DIMALT
 70
     0
  9
$DIMALTD
 70
     3
  9
$DIMALTF
 40
0.03937007874016
  9
$DIMLFAC
 40
1.0
  9
$DIMTOFL
 70
     1
  9
$DIMTVP
 40
0.0
  9
$DIMTIX
 70
     0
  9
$DIMSOXD
 70
     0
  9
$DIMSAH
 70
     0
  9
$DIMBLK1
  1

  9
$DIMBLK2
  1

  9
$DIMSTYLE
  2
ISO-25
  9
$DIMCLRD
 70
   256
  9
$DIMCLRE
 70
   256
  9
$DIMCLRT
 70
   256
  9
$DIMTFAC
 40
1.0
  9
$DIMGAP
 40
0.625
  9
$DIMJUST
 70
     0
  9
$DIMSD1
 70
     0
  9
$DIMSD2
 70
     0
  9
$DIMTOLJ
 70
     0
  9
$DIMTZIN
 70
     8
  9
$DIMALTZ
 70
     0
  9
$DIMALTTZ
 70
     0
  9
$DIMUPT
 70
     0
  9
$DIMDEC
 70
     2
  9
$DIMTDEC
 70
     2
  9
$DIMALTU
 70
     2
  9
$DIMALTTD
 70
     3
  9
$DIMTXSTY
  7
STANDARD
  9
$DIMAUNIT
 70
     0
  9
$DIMADEC
 70
     0
  9
$DIMALTRND
 40
0.0
  9
$DIMAZIN
 70
     0
  9
$DIMDSEP
 70
    46
  9
$DIMATFIT
 70
     3
  9
$DIMFRAC
 70
     0
  9
$DIMLDRBLK
  1

  9
$DIMLUNIT
 70
     2
  9
$DIMLWD
 70
    -2
  9
$DIMLWE
 70
    -2
  9
$DIMTMOVE
 70
     0
  9
$LUNITS
 70
     2
  9
$LUPREC
 70
     4
  9
$SKETCHINC
 40
0.1
  9
$FILLETRAD
 40
0.0
  9
$AUNITS
 70
     0
  9
$AUPREC
 70
     0
  9
$MENU
  1
.
  9
$ELEVATION
 40
0.0
  9
$PELEVATION
 40
0.0
  9
$THICKNESS
 40
0.0
  9
$LIMCHECK
 70
     0
  9
$CHAMFERA
 40
0.0
  9
$CHAMFERB
 40
0.0
  9
$CHAMFERC
 40
0.0
  9
$CHAMFERD
 40
0.0
  9
$SKPOLY
 70
     0
  9
$TDCREATE
 40
2453794.609087778
  9
$TDUCREATE
 40
2453794.567421111
  9
$TDUPDATE
 40
2453794.611929919
  9
$TDUUPDATE
 40
2453794.570263252
  9
$TDINDWG
 40
0.0028423264
  9
$TDUSRTIMER
 40
0.0028423264
  9
$USRTIMER
 70
     1
  9
$ANGBASE
 50
0.0
  9
$ANGDIR
 70
     0
  9
$PDMODE
 70
     3
  9
$PDSIZE
 40
0.3125
  9
$PLINEWID
 40
0.0
  9
$SPLFRAME
 70
     0
  9
$SPLINETYPE
 70
     6
  9
$SPLINESEGS
 70
     8
  9
$HANDSEED
  5
556
  9
$SURFTAB1
 70
     6
  9
$SURFTAB2
 70
     6
  9
$SURFTYPE
 70
     6
  9
$SURFU
 70
     6
  9
$SURFV
 70
     6
  9
$UCSBASE
  2

  9
$UCSNAME
  2

  9
$UCSORG
 10
0.0
 20
0.0
 30
0.0
  9
$UCSXDIR
 10
1.0
 20
0.0
 30
0.0
  9
$UCSYDIR
 10
0.0
 20
1.0
 30
0.0
  9
$UCSORTHOREF
  2

  9
$UCSORTHOVIEW
 70
     0
  9
$UCSORGTOP
 10
0.0
 20
0.0
 30
0.0
  9
$UCSORGBOTTOM
 10
0.0
 20
0.0
 30
0.0
  9
$UCSORGLEFT
 10
0.0
 20
0.0
 30
0.0
  9
$UCSORGRIGHT
 10
0.0
 20
0.0
 30
0.0
  9
$UCSORGFRONT
 10
0.0
 20
0.0
 30
0.0
  9
$UCSORGBACK
 10
0.0
 20
0.0
 30
0.0
  9
$PUCSBASE
  2

  9
$PUCSNAME
  2

  9
$PUCSORG
 10
0.0
 20
0.0
 30
0.0
  9
$PUCSXDIR
 10
1.0
 20
0.0
 30
0.0
  9
$PUCSYDIR
 10
0.0
 20
1.0
 30
0.0
  9
$PUCSORTHOREF
  2

  9
$PUCSORTHOVIEW
 70
     0
  9
$PUCSORGTOP
 10
0.0
 20
0.0
 30
0.0
  9
$PUCSORGBOTTOM
 10
0.0
 20
0.0
 30
0.0
  9
$PUCSORGLEFT
 10
0.0
 20
0.0
 30
0.0
  9
$PUCSORGRIGHT
 10
0.0
 20
0.0
 30
0.0
  9
$PUCSORGFRONT
 10
0.0
 20
0.0
 30
0.0
  9
$PUCSORGBACK
 10
0.0
 20
0.0
 30
0.0
  9
$USERI1
 70
     0
  9
$USERI2
 70
     0
  9
$USERI3
 70
     0
  9
$USERI4
 70
     0
  9
$USERI5
 70
     0
  9
$USERR1
 40
0.0
  9
$USERR2
 40
0.0
  9
$USERR3
 40
0.0
  9
$USERR4
 40
0.0
  9
$USERR5
 40
0.0
  9
$WORLDVIEW
 70
     1
  9
$SHADEDGE
 70
     3
  9
$SHADEDIF
 70
    70
  9
$TILEMODE
 70
     1
  9
$MAXACTVP
 70
    64
  9
$PINSBASE
 10
0.0
 20
0.0
 30
0.0
  9
$PLIMCHECK
 70
     0
  9
$PEXTMIN
 10
1.000000000000000E+20
 20
1.000000000000000E+20
 30
1.000000000000000E+20
  9
$PEXTMAX
 10
-1.000000000000000E+20
 20
-1.000000000000000E+20
 30
-1.000000000000000E+20
  9
$PLIMMIN
 10
0.0
 20
0.0
  9
$PLIMMAX
 10
12.0
 20
9.0
  9
$UNITMODE
 70
     0
  9
$VISRETAIN
 70
     1
  9
$PLINEGEN
 70
     0
  9
$PSLTSCALE
 70
     1
  9
$TREEDEPTH
 70
  3020
  9
$CMLSTYLE
  2
STANDARD
  9
$CMLJUST
 70
     0
  9
$CMLSCALE
 40
1.0
  9
$PROXYGRAPHICS
 70
     1
  9
$MEASUREMENT
 70
     1
  9
$CELWEIGHT
370
    -1
  9
$ENDCAPS
280
     0
  9
$JOINSTYLE
280
     0
  9
$LWDISPLAY
290
     0
  9
$INSUNITS
 70
     0
  9
$HYPERLINKBASE
  1

  9
$STYLESHEET
  1

  9
$XEDIT
290
     1
  9
$CEPSNTYPE
380
     0
  9
$PSTYLEMODE
290
     1
  9
$FINGERPRINTGUID
  2
{7C74FEB5-EC45-46B8-B1FA-AED755B2D173}
  9
$VERSIONGUID
  2
{CF1A1883-E2AB-439E-BFF7-B633D95BACE5}
  9
$EXTNAMES
290
     1
  9
$PSVPSCALE
 40
0.0
  9
$OLESTARTUP
290
     0
  9
$SORTENTS
280
   127
  9
$INDEXCTL
280
     0
  9
$HIDETEXT
280
     0
  9
$XCLIPFRAME
290
     0
  9
$HALOGAP
280
     0
  9
$OBSCOLOR
 70
   257
  9
$OBSLTYPE
280
     0
  9
$INTERSECTIONDISPLAY
280
     0
  9
$INTERSECTIONCOLOR
 70
   257
  9
$DIMASSOC
280
     1
  9
$PROJECTNAME
  1

  0
ENDSEC
  0
SECTION
  2
CLASSES
  0
CLASS
  1
ACDBDICTIONARYWDFLT
  2
AcDbDictionaryWithDefault
  3
ObjectDBX Classes
 90
        0
 91
        1
280
     0
281
     0
  0
CLASS
  1
TABLESTYLE
  2
AcDbTableStyle
  3
ObjectDBX Classes
 90
     2047
 91
        1
280
     0
281
     0
  0
CLASS
  1
SORTENTSTABLE
  2
AcDbSortentsTable
  3
ObjectDBX Classes
 90
        0
 91
        2
280
     0
281
     0
  0
CLASS
  1
DICTIONARYVAR
  2
AcDbDictionaryVar
  3
ObjectDBX Classes
 90
        0
 91
        1
280
     0
281
     0
  0
ENDSEC
  0
SECTION
  2
TABLES
  0
TABLE
  2
VPORT
  5
8
330
0
100
AcDbSymbolTable
 70
     2
  0
VPORT
  5
555
330
8
100
AcDbSymbolTableRecord
100
AcDbViewportTableRecord
  2
*Active
 70
     0
 10
0.0
 20
0.0
 11
1.0
 21
1.0
 12
14.48684767410958
 22
7.128616859936926
 13
0.0
 23
0.0
 14
1.0
 24
1.0
 15
0.0
 25
0.0
 16
0.0
 26
0.0
 36
1.0
 17
0.0
 27
0.0
 37
0.0
 40
150.9176894196289
 41
1.494367959949937
 42
50.0
 43
0.0
 44
0.0
 50
0.0
 51
0.0
 71
     0
 72
   100
 73
     1
 74
     1
 75
     0
 76
     0
 77
     0
 78
     0
281
     0
 65
     1
110
0.0
120
0.0
130
0.0
111
1.0
121
0.0
131
0.0
112
0.0
122
1.0
132
0.0
 79
     0
146
0.0
  0
ENDTAB
  0
TABLE
  2
LTYPE
  5
5
330
0
100
AcDbSymbolTable
 70
     6
  0
LTYPE
  5
14
330
5
100
AcDbSymbolTableRecord
100
AcDbLinetypeTableRecord
  2
BYBLOCK
 70
     0
  3

 72
    65
 73
     0
 40
0.0
  0
LTYPE
  5
15
330
5
100
AcDbSymbolTableRecord
100
AcDbLinetypeTableRecord
  2
BYLAYER
 70
     0
  3

 72
    65
 73
     0
 40
0.0
  0
LTYPE
  5
16
330
5
100
AcDbSymbolTableRecord
100
AcDbLinetypeTableRecord
  2
CONTINUOUS
 70
     0
  3
Solid line
 72
    65
 73
     0
 40
0.0
  0
LTYPE
  5
1F5
330
5
100
AcDbSymbolTableRecord
100
AcDbLinetypeTableRecord
  2
CENTER
 70
     0
  3
____ _ ____ _ ____ _ ____ _ ____ _ ____ _ ____
 72
    65
 73
     4
 40
0.6
 49
0.375
 74
     0
 49
-0.075
 74
     0
 49
0.075
 74
     0
 49
-0.075
 74
     0
  0
LTYPE
  5
1F6
330
5
100
AcDbSymbolTableRecord
100
AcDbLinetypeTableRecord
  2
HIDDEN
 70
     0
  3
- - - - - - - - - - - - - - - - - - - -
 72
    65
 73
     2
 40
0.2
 49
0.1
 74
     0
 49
-0.1
 74
     0
  0
ENDTAB
  0
TABLE
  2
LAYER
  5
2
102
{ACAD_XDICTIONARY
360
43C
102
}
330
0
100
AcDbSymbolTable
 70
    14
  0
LAYER
  5
10
330
2
100
AcDbSymbolTableRecord
100
AcDbLayerTableRecord
  2
0
 70
     0
 62
     7
  6
CONTINUOUS
370
    -3
390
28B
  0
LAYER
  5
1FD
330
2
100
AcDbSymbolTableRecord
100
AcDbLayerTableRecord
  2
1
 70
     0
 62
     4
  6
CONTINUOUS
370
    -3
390
28B
  0
LAYER
  5
1FE
330
2
100
AcDbSymbolTableRecord
100
AcDbLayerTableRecord
  2
2
 70
     0
 62
     7
  6
CONTINUOUS
370
    -3
390
28B
  0
LAYER
  5
1FF
330
2
100
AcDbSymbolTableRecord
100
AcDbLayerTableRecord
  2
4
 70
     0
 62
     2
  6
CENTER
370
    -3
390
28B
  0
LAYER
  5
200
330
2
100
AcDbSymbolTableRecord
100
AcDbLayerTableRecord
  2
6
 70
     0
 62
     5
  6
CONTINUOUS
370
    -3
390
28B
  0
LAYER
  5
201
330
2
100
AcDbSymbolTableRecord
100
AcDbLayerTableRecord
  2
NOCUT
 70
     0
 62
     7
  6
CONTINUOUS
370
    -3
390
28B
  0
LAYER
  5
202
330
2
100
AcDbSymbolTableRecord
100
AcDbLayerTableRecord
  2
SK3
 70
     0
 62
     1
  6
HIDDEN
370
    -3
390
28B
  0
LAYER
  5
295
330
2
100
AcDbSymbolTableRecord
100
AcDbLayerTableRecord
  2
Defpoints
 70
     0
 62
     7
  6
CONTINUOUS
290
     0
370
    -3
390
28B
  0
LAYER
  5
32C
330
2
100
AcDbSymbolTableRecord
100
AcDbLayerTableRecord
  2
SK2
 70
     0
 62
     7
  6
CONTINUOUS
370
    -3
390
28B
  0
LAYER
  5
32D
330
2
100
AcDbSymbolTableRecord
100
AcDbLayerTableRecord
  2
SK1
 70
     0
 62
     4
  6
CONTINUOUS
370
    -3
390
28B
  0
LAYER
  5
32E
330
2
100
AcDbSymbolTableRecord
100
AcDbLayerTableRecord
  2
SK4
 70
     0
 62
     2
  6
CENTER
370
    -3
390
28B
  0
ENDTAB
  0
TABLE
  2
STYLE
  5
3
330
0
100
AcDbSymbolTable
 70
     1
  0
STYLE
  5
11
330
3
100
AcDbSymbolTableRecord
100
AcDbTextStyleTableRecord
  2
STANDARD
 70
     0
 40
0.0
 41
0.8
 50
0.0
 71
     0
 42
0.2
  3
isocp.shx
  4

  0
ENDTAB
  0
TABLE
  2
VIEW
  5
6
330
0
100
AcDbSymbolTable
 70
     0
  0
ENDTAB
  0
TABLE
  2
UCS
  5
7
330
0
100
AcDbSymbolTable
 70
     0
  0
ENDTAB
  0
TABLE
  2
APPID
  5
9
330
0
100
AcDbSymbolTable
 70
     3
  0
APPID
  5
203
330
9
100
AcDbSymbolTableRecord
100
AcDbRegAppTableRecord
  2
ACAD
 70
     0
  0
APPID
  5
330
330
9
100
AcDbSymbolTableRecord
100
AcDbRegAppTableRecord
  2
ACAD_PSEXT
 70
     0
  0
APPID
  5
499
330
9
100
AcDbSymbolTableRecord
100
AcDbRegAppTableRecord
  2
ACAD_DSTYLE_DIMTEXT_FILL
 70
     0
  0
ENDTAB
  0
TABLE
  2
DIMSTYLE
  5
A
330
0
100
AcDbSymbolTable
 70
     3
100
AcDbDimStyleTable
 71
     2
340
32F
340
204
  0
DIMSTYLE
105
204
330
A
100
AcDbSymbolTableRecord
100
AcDbDimStyleTableRecord
  2
STANDARD
 70
     0
 41
2.5
 47
0.005
 48
0.005
 71
     1
 73
     0
 74
     0
 77
     1
 78
     8
140
3.5
178
     2
271
     3
272
     3
284
     8
340
11
341
206
342
206
343
206
344
206
  0
DIMSTYLE
105
32F
102
{ACAD_REACTORS
330
335
330
334
330
333
330
336
330
332
330
23E
330
23D
330
240
330
23C
330
23F
102
}
330
A
100
AcDbSymbolTableRecord
100
AcDbDimStyleTableRecord
  2
ISO-25
 70
     0
 41
3.5
 42
0.625
 43
3.75
 44
2.0
 73
     0
 74
     0
 77
     1
 78
     8
140
3.5
141
2.5
143
0.03937007874016
147
0.625
171
     3
172
     1
176
   256
177
   256
178
   256
271
     2
272
     2
274
     3
283
     0
284
     8
340
11
  0
ENDTAB
  0
TABLE
  2
BLOCK_RECORD
  5
1
330
0
100
AcDbSymbolTable
 70
    19
  0
BLOCK_RECORD
  5
1B
102
{ACAD_XDICTIONARY
360
2C5
102
}
330
1
100
AcDbSymbolTableRecord
100
AcDbBlockTableRecord
  2
*MODEL_SPACE
340
292
  0
BLOCK_RECORD
  5
1C
330
1
100
AcDbSymbolTableRecord
100
AcDbBlockTableRecord
  2
*PAPER_SPACE
340
293
  0
BLOCK_RECORD
  5
206
330
1
100
AcDbSymbolTableRecord
100
AcDbBlockTableRecord
  2
_FILLED
340
0
  0
BLOCK_RECORD
  5
207
330
1
100
AcDbSymbolTableRecord
100
AcDbBlockTableRecord
  2
*D1
340
0
  0
BLOCK_RECORD
  5
208
330
1
100
AcDbSymbolTableRecord
100
AcDbBlockTableRecord
  2
*D2
340
0
  0
BLOCK_RECORD
  5
209
330
1
100
AcDbSymbolTableRecord
100
AcDbBlockTableRecord
  2
*D3
340
0
  0
BLOCK_RECORD
  5
20A
330
1
100
AcDbSymbolTableRecord
100
AcDbBlockTableRecord
  2
*D4
340
0
  0
BLOCK_RECORD
  5
20B
330
1
100
AcDbSymbolTableRecord
100
AcDbBlockTableRecord
  2
*D5
340
0
  0
BLOCK_RECORD
  5
308
330
1
100
AcDbSymbolTableRecord
100
AcDbBlockTableRecord
  2
NULLPUNKT_BL0
340
0
102
{BLKREFS
331
37B
331
3CB
102
}
  0
BLOCK_RECORD
  5
31A
330
1
100
AcDbSymbolTableRecord
100
AcDbBlockTableRecord
  2
EINFUEGEPUNKT_BL1
340
0
102
{BLKREFS
331
37C
331
3CC
102
}
  0
ENDTAB
  0
ENDSEC
  0
SECTION
  2
BLOCKS
  0
BLOCK
  5
1E
330
1B
100
AcDbEntity
  8
0
100
AcDbBlockBegin
  2
*MODEL_SPACE
 70
     0
 10
0.0
 20
0.0
 30
0.0
  3
*MODEL_SPACE
  1

  0
ENDBLK
  5
1F
330
1B
100
AcDbEntity
  8
0
100
AcDbBlockEnd
  0
BLOCK
  5
20
330
1C
100
AcDbEntity
 67
     1
  8
0
100
AcDbBlockBegin
  2
*PAPER_SPACE
 70
     0
 10
0.0
 20
0.0
 30
0.0
  3
*PAPER_SPACE
  1

  0
ENDBLK
  5
21
330
1C
100
AcDbEntity
 67
     1
  8
0
100
AcDbBlockEnd
  0
BLOCK
  5
239
330
206
100
AcDbEntity
  8
0
100
AcDbBlockBegin
  2
_FILLED
 70
     0
 10
0.0
 20
0.0
 30
0.0
  3
_FILLED
  1

  0
SOLID
  5
23A
330
206
100
AcDbEntity
  8
0
  6
ByBlock
 62
     0
100
AcDbTrace
 10
0.0
 20
0.0
 30
0.0
 11
-1.0
 21
0.132
 31
0.0
 12
-1.0
 22
-0.132
 32
0.0
 13
-1.0
 23
-0.132
 33
0.0
  0
ENDBLK
  5
23B
330
206
100
AcDbEntity
  8
0
  6
ByBlock
 62
     0
100
AcDbBlockEnd
  0
BLOCK
  5
20C
330
207
100
AcDbEntity
  8
2
  6
Continuous
 62
     7
100
AcDbBlockBegin
  2
*D1
 70
     1
 10
0.0
 20
0.0
 30
0.0
  3
*D1
  1

  0
LINE
  5
512
330
207
100
AcDbEntity
  8
2
370
    -2
100
AcDbLine
 10
100.0
 20
9.824999999999988
 30
0.0
 11
100.0
 21
26.70833274839998
 31
0.0
  0
LINE
  5
513
330
207
100
AcDbEntity
  8
2
370
    -2
100
AcDbLine
 10
0.0
 20
15.10003468739998
 30
0.0
 11
0.0000000000000007
 21
26.70833274839998
 31
0.0
  0
LINE
  5
514
330
207
100
AcDbEntity
  8
2
370
    -2
100
AcDbLine
 10
96.50000000000002
 20
24.70833274839999
 30
0.0
 11
3.5
 21
24.70833274839999
 31
0.0
  0
SOLID
  5
515
330
207
100
AcDbEntity
  8
2
100
AcDbTrace
 10
96.50000000000002
 20
25.29166608173332
 30
0.0
 11
96.50000000000002
 21
24.12499941506665
 31
0.0
 12
100.0
 22
24.70833274839999
 32
0.0
 13
100.0
 23
24.70833274839999
 33
0.0
  0
SOLID
  5
516
330
207
100
AcDbEntity
  8
2
100
AcDbTrace
 10
3.5
 20
25.29166608173332
 30
0.0
 11
3.5
 21
24.12499941506665
 31
0.0
 12
0.0000000000000006
 22
24.70833274839999
 32
0.0
 13
0.0000000000000006
 23
24.70833274839999
 33
0.0
  0
MTEXT
  5
517
330
207
100
AcDbEntity
  8
2
100
AcDbMText
 10
51.50991532300001
 20
27.08333274839998
 30
0.0
 40
3.5
 41
0.0
 71
     5
 72
     1
  1
100
 73
     1
 44
1.0
  0
POINT
  5
518
330
207
100
AcDbEntity
  8
Defpoints
 62
     0
100
AcDbPoint
 10
100.0
 20
9.199999999999988
 30
0.0
  0
POINT
  5
519
330
207
100
AcDbEntity
  8
Defpoints
 62
     0
100
AcDbPoint
 10
0.0
 20
14.47503468739998
 30
0.0
  0
POINT
  5
51A
330
207
100
AcDbEntity
  8
Defpoints
 62
     0
100
AcDbPoint
 10
0.0000000000000006
 20
24.70833274839999
 30
0.0
  0
ENDBLK
  5
214
330
207
100
AcDbEntity
  8
0
  6
ByBlock
 62
     0
100
AcDbBlockEnd
  0
BLOCK
  5
215
330
208
100
AcDbEntity
  8
2
  6
Continuous
 62
     7
100
AcDbBlockBegin
  2
*D2
 70
     1
 10
0.0
 20
0.0
 30
0.0
  3
*D2
  1

  0
LINE
  5
53F
330
208
100
AcDbEntity
  8
SK2
370
    -2
100
AcDbLine
 10
101.441350922
 20
-9.0
 30
0.0
 11
126.6861979801585
 21
-9.000000000000007
 31
0.0
  0
LINE
  5
540
330
208
100
AcDbEntity
  8
SK2
370
    -2
100
AcDbLine
 10
100.825
 20
9.0
 30
0.0
 11
126.6861979801585
 21
8.999999999999992
 31
0.0
  0
LINE
  5
541
330
208
100
AcDbEntity
  8
SK2
370
    -2
100
AcDbLine
 10
124.6861979801585
 20
-5.500000000000006
 30
0.0
 11
124.6861979801585
 21
5.499999999999993
 31
0.0
  0
SOLID
  5
542
330
208
100
AcDbEntity
  8
SK2
100
AcDbTrace
 10
124.1028646468252
 20
-5.500000000000006
 30
0.0
 11
125.2695313134919
 21
-5.500000000000006
 31
0.0
 12
124.6861979801585
 22
-9.000000000000007
 32
0.0
 13
124.6861979801585
 23
-9.000000000000007
 33
0.0
  0
SOLID
  5
543
330
208
100
AcDbEntity
  8
SK2
100
AcDbTrace
 10
124.1028646468252
 20
5.499999999999993
 30
0.0
 11
125.2695313134919
 21
5.499999999999993
 31
0.0
 12
124.6861979801585
 22
8.999999999999992
 32
0.0
 13
124.6861979801585
 23
8.999999999999992
 33
0.0
  0
MTEXT
  5
544
330
208
100
AcDbEntity
  8
SK2
100
AcDbMText
 10
122.3111979801585
 20
0.2917800449999962
 30
0.0
 40
3.5
 41
0.0
 71
     5
 72
     1
  1
%%c18
 11
0.0000000000000001
 21
1.0
 31
0.0
 73
     1
 44
1.0
  0
POINT
  5
545
330
208
100
AcDbEntity
  8
Defpoints
 62
     0
100
AcDbPoint
 10
100.816350922
 20
-9.0
 30
0.0
  0
POINT
  5
546
330
208
100
AcDbEntity
  8
Defpoints
 62
     0
100
AcDbPoint
 10
100.2
 20
9.0
 30
0.0
  0
POINT
  5
547
330
208
100
AcDbEntity
  8
Defpoints
 62
     0
100
AcDbPoint
 10
124.6861979801585
 20
8.999999999999992
 30
0.0
  0
ENDBLK
  5
21D
330
208
100
AcDbEntity
  8
0
  6
ByBlock
 62
     0
100
AcDbBlockEnd
  0
BLOCK
  5
21E
330
209
100
AcDbEntity
  8
2
  6
Continuous
 62
     7
100
AcDbBlockBegin
  2
*D3
 70
     1
 10
0.0
 20
0.0
 30
0.0
  3
*D3
  1

  0
LINE
  5
548
330
209
100
AcDbEntity
  8
SK2
370
    -2
100
AcDbLine
 10
93.12500000000001
 20
5.0
 30
0.0
 11
120.1976385795511
 21
4.999999999999992
 31
0.0
  0
LINE
  5
549
330
209
100
AcDbEntity
  8
SK2
370
    -2
100
AcDbLine
 10
93.12500000000001
 20
-5.0
 30
0.0
 11
120.1976385795511
 21
-5.000000000000007
 31
0.0
  0
LINE
  5
54A
330
209
100
AcDbEntity
  8
SK2
370
    -2
100
AcDbLine
 10
118.1976385795511
 20
1.499999999999992
 30
0.0
 11
118.1976385795511
 21
-1.500000000000007
 31
0.0
  0
SOLID
  5
54B
330
209
100
AcDbEntity
  8
SK2
100
AcDbTrace
 10
117.6143052462178
 20
1.499999999999992
 30
0.0
 11
118.7809719128845
 21
1.499999999999992
 31
0.0
 12
118.1976385795511
 22
4.999999999999992
 32
0.0
 13
118.1976385795511
 23
4.999999999999992
 33
0.0
  0
SOLID
  5
54C
330
209
100
AcDbEntity
  8
SK2
100
AcDbTrace
 10
117.6143052462178
 20
-1.500000000000007
 30
0.0
 11
118.7809719128845
 21
-1.500000000000007
 31
0.0
 12
118.1976385795511
 22
-5.000000000000007
 32
0.0
 13
118.1976385795511
 23
-5.000000000000007
 33
0.0
  0
MTEXT
  5
54D
330
209
100
AcDbEntity
  8
SK2
100
AcDbMText
 10
115.8226385795511
 20
0.0000000000000003
 30
0.0
 40
3.5
 41
0.0
 71
     5
 72
     1
  1
M10
 11
0.0000000000000001
 21
1.0
 31
0.0
 73
     1
 44
1.0
  0
POINT
  5
54E
330
209
100
AcDbEntity
  8
Defpoints
 62
     0
100
AcDbPoint
 10
92.50000000000001
 20
5.0
 30
0.0
  0
POINT
  5
54F
330
209
100
AcDbEntity
  8
Defpoints
 62
     0
100
AcDbPoint
 10
92.50000000000001
 20
-5.0
 30
0.0
  0
POINT
  5
550
330
209
100
AcDbEntity
  8
Defpoints
 62
     0
100
AcDbPoint
 10
118.1976385795511
 20
-5.000000000000007
 30
0.0
  0
ENDBLK
  5
226
330
209
100
AcDbEntity
  8
0
  6
ByBlock
 62
     0
100
AcDbBlockEnd
  0
BLOCK
  5
227
330
20A
100
AcDbEntity
  8
2
  6
Continuous
 62
     7
100
AcDbBlockBegin
  2
*D4
 70
     1
 10
0.0
 20
0.0
 30
0.0
  3
*D4
  1

  0
LINE
  5
524
330
20A
100
AcDbEntity
  8
SK2
370
    -2
100
AcDbLine
 10
-3.793297494399979
 20
-11.91249999999999
 30
0.0
 11
-95.62499999999998
 21
-11.91249999999997
 31
0.0
  0
LINE
  5
525
330
20A
100
AcDbEntity
  8
SK2
370
    -2
100
AcDbLine
 10
-2.072059500799994
 20
11.91249999999999
 30
0.0
 11
-95.62499999999998
 21
11.91250000000002
 31
0.0
  0
LINE
  5
526
330
20A
100
AcDbEntity
  8
SK2
370
    -2
100
AcDbLine
 10
-93.62499999999998
 20
-8.412499999999967
 30
0.0
 11
-93.62499999999998
 21
8.41250000000002
 31
0.0
  0
SOLID
  5
527
330
20A
100
AcDbEntity
  8
SK2
100
AcDbTrace
 10
-94.20833333333332
 20
-8.412499999999967
 30
0.0
 11
-93.04166666666665
 21
-8.412499999999967
 31
0.0
 12
-93.62499999999998
 22
-11.91249999999997
 32
0.0
 13
-93.62499999999998
 23
-11.91249999999997
 33
0.0
  0
SOLID
  5
528
330
20A
100
AcDbEntity
  8
SK2
100
AcDbTrace
 10
-94.20833333333332
 20
8.41250000000002
 30
0.0
 11
-93.04166666666665
 21
8.41250000000002
 31
0.0
 12
-93.62499999999998
 22
11.91250000000002
 32
0.0
 13
-93.62499999999998
 23
11.91250000000002
 33
0.0
  0
MTEXT
  5
529
330
20A
100
AcDbEntity
  8
SK2
100
AcDbMText
 10
-96.00034448818895
 20
-0.3663890429000101
 30
0.0
 40
3.5
 41
0.0
 71
     5
 72
     1
  1
%%c23.825
 11
0.0000000000000001
 21
1.0
 31
0.0
 73
     1
 44
1.0
  0
POINT
  5
52A
330
20A
100
AcDbEntity
  8
Defpoints
 62
     0
100
AcDbPoint
 10
-3.168297494399979
 20
-11.91249999999999
 30
0.0
  0
POINT
  5
52B
330
20A
100
AcDbEntity
  8
Defpoints
 62
     0
100
AcDbPoint
 10
-1.447059500799994
 20
11.91249999999999
 30
0.0
  0
POINT
  5
52C
330
20A
100
AcDbEntity
  8
Defpoints
 62
     0
100
AcDbPoint
 10
-93.62499999999998
 20
11.91250000000002
 30
0.0
  0
ENDBLK
  5
22F
330
20A
100
AcDbEntity
  8
0
  6
ByBlock
 62
     0
100
AcDbBlockEnd
  0
BLOCK
  5
230
330
20B
100
AcDbEntity
  8
2
  6
Continuous
 62
     7
100
AcDbBlockBegin
  2
*D5
 70
     1
 10
0.0
 20
0.0
 30
0.0
  3
*D5
  1

  0
LINE
  5
51B
330
20B
100
AcDbEntity
  8
SK2
370
    -2
100
AcDbLine
 10
-80.99999999999999
 20
10.025
 30
0.0
 11
-80.99999999999999
 21
36.70833274840001
 31
0.0
  0
LINE
  5
51C
330
20B
100
AcDbEntity
  8
SK2
370
    -2
100
AcDbLine
 10
100.0
 20
-7.575000000000017
 30
0.0
 11
100.0
 21
36.70833274840001
 31
0.0
  0
LINE
  5
51D
330
20B
100
AcDbEntity
  8
SK2
370
    -2
100
AcDbLine
 10
-77.49999999999999
 20
34.70833274840001
 30
0.0
 11
96.50000000000002
 21
34.70833274840001
 31
0.0
  0
SOLID
  5
51E
330
20B
100
AcDbEntity
  8
SK2
100
AcDbTrace
 10
-77.49999999999999
 20
35.29166608173335
 30
0.0
 11
-77.49999999999999
 21
34.12499941506668
 31
0.0
 12
-80.99999999999999
 22
34.70833274840001
 32
0.0
 13
-80.99999999999999
 23
34.70833274840001
 33
0.0
  0
SOLID
  5
51F
330
20B
100
AcDbEntity
  8
SK2
100
AcDbTrace
 10
96.50000000000002
 20
35.29166608173335
 30
0.0
 11
96.50000000000002
 21
34.12499941506668
 31
0.0
 12
100.0
 22
34.70833274840001
 32
0.0
 13
100.0
 23
34.70833274840001
 33
0.0
  0
MTEXT
  5
520
330
20B
100
AcDbEntity
  8
SK2
100
AcDbMText
 10
10.392456401
 20
37.08333274840001
 30
0.0
 40
3.5
 41
0.0
 71
     5
 72
     1
  1
181
 73
     1
 44
1.0
  0
POINT
  5
521
330
20B
100
AcDbEntity
  8
Defpoints
 62
     0
100
AcDbPoint
 10
-80.99999999999999
 20
9.400000000000005
 30
0.0
  0
POINT
  5
522
330
20B
100
AcDbEntity
  8
Defpoints
 62
     0
100
AcDbPoint
 10
100.0
 20
-8.200000000000017
 30
0.0
  0
POINT
  5
523
330
20B
100
AcDbEntity
  8
Defpoints
 62
     0
100
AcDbPoint
 10
100.0
 20
34.70833274840001
 30
0.0
  0
ENDBLK
  5
238
330
20B
100
AcDbEntity
  8
0
  6
ByBlock
 62
     0
100
AcDbBlockEnd
  0
BLOCK
  5
309
330
308
100
AcDbEntity
  8
1
  6
Continuous
 62
     3
100
AcDbBlockBegin
  2
NULLPUNKT_BL0
 70
     0
 10
160.23105888
 20
104.9111997364
 30
0.0
  3
NULLPUNKT_BL0
  1

  0
LINE
  5
30A
330
308
100
AcDbEntity
  8
1
  6
Continuous
 62
     4
100
AcDbLine
 10
160.23105888
 20
104.9111997364
 30
0.0
 11
161.73105588
 21
104.9111997364
 31
0.0
  0
ARC
  5
30B
330
308
100
AcDbEntity
  8
1
  6
Continuous
 62
     4
100
AcDbCircle
 10
160.23105888
 20
104.9111997364
 30
0.0
 40
1.499997
100
AcDbArc
 50
180.0
 51
270.0
  0
LINE
  5
30C
330
308
100
AcDbEntity
  8
1
  6
Continuous
 62
     4
100
AcDbLine
 10
160.23105888
 20
104.9111997364
 30
0.0
 11
160.23105888
 21
103.4112027364
 31
0.0
  0
ARC
  5
30D
330
308
100
AcDbEntity
  8
1
  6
Continuous
 62
     4
100
AcDbCircle
 10
160.23105888
 20
104.9111997364
 30
0.0
 40
1.499997
100
AcDbArc
 50
270.0
 51
360.0
  0
ARC
  5
30E
330
308
100
AcDbEntity
  8
1
  6
Continuous
 62
     4
100
AcDbCircle
 10
160.23105888
 20
104.9111997364
 30
0.0
 40
1.499997
100
AcDbArc
 50
0.0
 51
90.0
  0
ARC
  5
30F
330
308
100
AcDbEntity
  8
1
  6
Continuous
 62
     4
100
AcDbCircle
 10
160.23105888
 20
104.9111997364
 30
0.0
 40
1.499997
100
AcDbArc
 50
90.0
 51
180.0
  0
LINE
  5
310
330
308
100
AcDbEntity
  8
1
  6
Continuous
 62
     4
100
AcDbLine
 10
160.23105888
 20
106.4111967364
 30
0.0
 11
160.23105888
 21
104.9111997364
 31
0.0
  0
LINE
  5
311
330
308
100
AcDbEntity
  8
1
  6
Continuous
 62
     4
100
AcDbLine
 10
158.73106188
 20
104.9111997364
 30
0.0
 11
160.23105888
 21
104.9111997364
 31
0.0
  0
LWPOLYLINE
  5
312
330
308
100
AcDbEntity
  8
1
  6
Continuous
 62
     4
100
AcDbPolyline
 90
       18
 70
     0
 43
0.0
 10
160.23105888
 20
104.9111997364
 10
158.73106188
 20
104.9111997364
 10
158.7392790205
 20
105.0679921177
 10
158.7638404133
 20
105.2230666489
 10
158.8044769587
 20
105.3747243009
 10
158.8607434342
 20
105.5213034808
 10
158.9320233724
 20
105.6611982364
 10
159.0175358155
 20
105.7928758515
 10
159.1163438712
 20
105.9148936385
 10
159.2273649779
 20
106.0259147452
 10
159.3493827649
 20
106.1247228009
 10
159.48106038
 20
106.210235244
 10
159.6209551356
 20
106.2815151822
 10
159.7675343155
 20
106.3377816577
 10
159.9191919675
 20
106.3784182031
 10
160.0742664987
 20
106.4029795959
 10
160.23105888
 20
106.4111967364
 10
160.23105888
 20
104.9111997364
  0
HATCH
  5
313
330
308
100
AcDbEntity
  8
1
  6
Continuous
 62
     4
100
AcDbHatch
 10
0.0
 20
0.0
 30
0.0
210
0.0
220
0.0
230
1.0
  2
SOLID
 70
     1
 71
     0
 91
        1
 92
        1
 93
       17
 72
     1
 10
160.23105888
 20
104.9111997364
 11
158.73106188
 21
104.9111997364
 72
     1
 10
158.73106188
 20
104.9111997364
 11
158.7392790205
 21
105.0679921177
 72
     1
 10
158.7392790205
 20
105.0679921177
 11
158.7638404133
 21
105.2230666489
 72
     1
 10
158.7638404133
 20
105.2230666489
 11
158.8044769587
 21
105.3747243009
 72
     1
 10
158.8044769587
 20
105.3747243009
 11
158.8607434342
 21
105.5213034808
 72
     1
 10
158.8607434342
 20
105.5213034808
 11
158.9320233724
 21
105.6611982364
 72
     1
 10
158.9320233724
 20
105.6611982364
 11
159.0175358155
 21
105.7928758515
 72
     1
 10
159.0175358155
 20
105.7928758515
 11
159.1163438712
 21
105.9148936385
 72
     1
 10
159.1163438712
 20
105.9148936385
 11
159.2273649779
 21
106.0259147452
 72
     1
 10
159.2273649779
 20
106.0259147452
 11
159.3493827649
 21
106.1247228009
 72
     1
 10
159.3493827649
 20
106.1247228009
 11
159.48106038
 21
106.210235244
 72
     1
 10
159.48106038
 20
106.210235244
 11
159.6209551356
 21
106.2815151822
 72
     1
 10
159.6209551356
 20
106.2815151822
 11
159.7675343155
 21
106.3377816577
 72
     1
 10
159.7675343155
 20
106.3377816577
 11
159.9191919675
 21
106.3784182031
 72
     1
 10
159.9191919675
 20
106.3784182031
 11
160.0742664987
 21
106.4029795959
 72
     1
 10
160.0742664987
 20
106.4029795959
 11
160.23105888
 21
106.4111967364
 72
     1
 10
160.23105888
 20
106.4111967364
 11
160.23105888
 21
104.9111997364
 97
        0
 75
     0
 76
     1
 98
        1
 10
0.0
 20
0.0
450
        0
451
        0
460
0.0
461
0.0
452
        0
462
0.0
453
        0
470

  0
LWPOLYLINE
  5
314
330
308
100
AcDbEntity
  8
1
  6
Continuous
 62
     4
100
AcDbPolyline
 90
       18
 70
     0
 43
0.0
 10
160.23105888
 20
104.9111997364
 10
161.73105588
 20
104.9111997364
 10
161.7228387395
 20
104.7544073551
 10
161.6982773467
 20
104.5993328239
 10
161.6576408013
 20
104.4476751719
 10
161.6013743258
 20
104.301095992
 10
161.5300943876
 20
104.1612012364
 10
161.4445819445
 20
104.0295236213
 10
161.3457738888
 20
103.9075058343
 10
161.2347527821
 20
103.7964847276
 10
161.1127349951
 20
103.6976766719
 10
160.98105738
 20
103.6121642288
 10
160.8411626244
 20
103.5408842906
 10
160.6945834445
 20
103.4846178151
 10
160.5429257925
 20
103.4439812697
 10
160.3878512613
 20
103.4194198769
 10
160.23105888
 20
103.4112027364
 10
160.23105888
 20
104.9111997364
  0
HATCH
  5
315
330
308
100
AcDbEntity
  8
1
  6
Continuous
 62
     4
100
AcDbHatch
 10
0.0
 20
0.0
 30
0.0
210
0.0
220
0.0
230
1.0
  2
SOLID
 70
     1
 71
     0
 91
        1
 92
        1
 93
       17
 72
     1
 10
160.23105888
 20
104.9111997364
 11
161.73105588
 21
104.9111997364
 72
     1
 10
161.73105588
 20
104.9111997364
 11
161.7228387395
 21
104.7544073551
 72
     1
 10
161.7228387395
 20
104.7544073551
 11
161.6982773467
 21
104.5993328239
 72
     1
 10
161.6982773467
 20
104.5993328239
 11
161.6576408013
 21
104.4476751719
 72
     1
 10
161.6576408013
 20
104.4476751719
 11
161.6013743258
 21
104.301095992
 72
     1
 10
161.6013743258
 20
104.301095992
 11
161.5300943876
 21
104.1612012364
 72
     1
 10
161.5300943876
 20
104.1612012364
 11
161.4445819445
 21
104.0295236213
 72
     1
 10
161.4445819445
 20
104.0295236213
 11
161.3457738888
 21
103.9075058343
 72
     1
 10
161.3457738888
 20
103.9075058343
 11
161.2347527821
 21
103.7964847276
 72
     1
 10
161.2347527821
 20
103.7964847276
 11
161.1127349951
 21
103.6976766719
 72
     1
 10
161.1127349951
 20
103.6976766719
 11
160.98105738
 21
103.6121642288
 72
     1
 10
160.98105738
 20
103.6121642288
 11
160.8411626244
 21
103.5408842906
 72
     1
 10
160.8411626244
 20
103.5408842906
 11
160.6945834445
 21
103.4846178151
 72
     1
 10
160.6945834445
 20
103.4846178151
 11
160.5429257925
 21
103.4439812697
 72
     1
 10
160.5429257925
 20
103.4439812697
 11
160.3878512613
 21
103.4194198769
 72
     1
 10
160.3878512613
 20
103.4194198769
 11
160.23105888
 21
103.4112027364
 72
     1
 10
160.23105888
 20
103.4112027364
 11
160.23105888
 21
104.9111997364
 97
        0
 75
     0
 76
     1
 98
        1
 10
0.0
 20
0.0
450
        0
451
        0
460
0.0
461
0.0
452
        0
462
0.0
453
        0
470

  0
LINE
  5
316
330
308
100
AcDbEntity
  8
1
  6
Continuous
 62
     4
100
AcDbLine
 10
160.23105888
 20
103.4112027364
 30
0.0
 11
160.23105888
 21
104.9111997364
 31
0.0
  0
ARC
  5
317
330
308
100
AcDbEntity
  8
1
  6
Continuous
 62
     4
100
AcDbCircle
 10
160.23105888
 20
104.9111997364
 30
0.0
 40
1.499997
100
AcDbArc
 50
270.0
 51
360.0
  0
LINE
  5
318
330
308
100
AcDbEntity
  8
1
  6
Continuous
 62
     4
100
AcDbLine
 10
161.73105588
 20
104.9111997364
 30
0.0
 11
160.23105888
 21
104.9111997364
 31
0.0
  0
ENDBLK
  5
319
330
308
100
AcDbEntity
  8
0
  6
ByBlock
 62
     0
100
AcDbBlockEnd
  0
BLOCK
  5
31B
330
31A
100
AcDbEntity
  8
1
  6
Continuous
 62
     3
100
AcDbBlockBegin
  2
EINFUEGEPUNKT_BL1
 70
     0
 10
185.23105888
 20
104.9111997364
 30
0.0
  3
EINFUEGEPUNKT_BL1
  1

  0
LINE
  5
31C
330
31A
100
AcDbEntity
  8
1
  6
Continuous
 62
     4
100
AcDbLine
 10
185.23105888
 20
104.9111997364
 30
0.0
 11
185.23105888
 21
104.4112007364
 31
0.0
  0
ARC
  5
31D
330
31A
100
AcDbEntity
  8
1
  6
Continuous
 62
     4
100
AcDbCircle
 10
185.23105888
 20
104.9111997364
 30
0.0
 40
0.4999990000000001
100
AcDbArc
 50
90.0
 51
180.0
  0
LINE
  5
31E
330
31A
100
AcDbEntity
  8
1
  6
Continuous
 62
     4
100
AcDbLine
 10
185.23105888
 20
104.9111997364
 30
0.0
 11
184.73105988
 21
104.9111997364
 31
0.0
  0
ARC
  5
31F
330
31A
100
AcDbEntity
  8
1
  6
Continuous
 62
     4
100
AcDbCircle
 10
185.23105888
 20
104.9111997364
 30
0.0
 40
0.4999990000000001
100
AcDbArc
 50
180.0
 51
270.0
  0
ARC
  5
320
330
31A
100
AcDbEntity
  8
1
  6
Continuous
 62
     4
100
AcDbCircle
 10
185.23105888
 20
104.9111997364
 30
0.0
 40
0.4999990000000001
100
AcDbArc
 50
270.0
 51
360.0
  0
ARC
  5
321
330
31A
100
AcDbEntity
  8
1
  6
Continuous
 62
     4
100
AcDbCircle
 10
185.23105888
 20
104.9111997364
 30
0.0
 40
0.4999990000000001
100
AcDbArc
 50
0.0
 51
90.0
  0
LINE
  5
322
330
31A
100
AcDbEntity
  8
1
  6
Continuous
 62
     4
100
AcDbLine
 10
185.73105788
 20
104.9111997364
 30
0.0
 11
185.23105888
 21
104.9111997364
 31
0.0
  0
LINE
  5
323
330
31A
100
AcDbEntity
  8
1
  6
Continuous
 62
     4
100
AcDbLine
 10
185.23105888
 20
105.4111987364
 30
0.0
 11
185.23105888
 21
104.9111997364
 31
0.0
  0
LWPOLYLINE
  5
324
330
31A
100
AcDbEntity
  8
1
  6
Continuous
 62
     4
100
AcDbPolyline
 90
       18
 70
     0
 43
0.0
 10
185.23105888
 20
104.9111997364
 10
185.23105888
 20
105.4111987364
 10
185.2833230071
 20
105.4084596896
 10
185.3350145175
 20
105.4002725586
 10
185.3855670682
 20
105.3867270435
 10
185.4344267948
 20
105.3679715517
 10
185.48105838
 20
105.3442115723
 10
185.5249509184
 20
105.3157074246
 10
185.565623514
 20
105.282771406
 10
185.6026305496
 20
105.2457643704
 10
185.6355665682
 20
105.2050917748
 10
185.6640707159
 20
105.1611992364
 10
185.6878306953
 20
105.1145676512
 10
185.7065861871
 20
105.0657079246
 10
185.7201317022
 20
105.0151553739
 10
185.7283188332
 20
104.9634638635
 10
185.73105788
 20
104.9111997364
 10
185.23105888
 20
104.9111997364
  0
HATCH
  5
325
330
31A
100
AcDbEntity
  8
1
  6
Continuous
 62
     4
100
AcDbHatch
 10
0.0
 20
0.0
 30
0.0
210
0.0
220
0.0
230
1.0
  2
SOLID
 70
     1
 71
     0
 91
        1
 92
        1
 93
       17
 72
     1
 10
185.23105888
 20
104.9111997364
 11
185.23105888
 21
105.4111987364
 72
     1
 10
185.23105888
 20
105.4111987364
 11
185.2833230071
 21
105.4084596896
 72
     1
 10
185.2833230071
 20
105.4084596896
 11
185.3350145175
 21
105.4002725586
 72
     1
 10
185.3350145175
 20
105.4002725586
 11
185.3855670682
 21
105.3867270435
 72
     1
 10
185.3855670682
 20
105.3867270435
 11
185.4344267948
 21
105.3679715517
 72
     1
 10
185.4344267948
 20
105.3679715517
 11
185.48105838
 21
105.3442115723
 72
     1
 10
185.48105838
 20
105.3442115723
 11
185.5249509184
 21
105.3157074246
 72
     1
 10
185.5249509184
 20
105.3157074246
 11
185.565623514
 21
105.282771406
 72
     1
 10
185.565623514
 20
105.282771406
 11
185.6026305496
 21
105.2457643704
 72
     1
 10
185.6026305496
 20
105.2457643704
 11
185.6355665682
 21
105.2050917748
 72
     1
 10
185.6355665682
 20
105.2050917748
 11
185.6640707159
 21
105.1611992364
 72
     1
 10
185.6640707159
 20
105.1611992364
 11
185.6878306953
 21
105.1145676512
 72
     1
 10
185.6878306953
 20
105.1145676512
 11
185.7065861871
 21
105.0657079246
 72
     1
 10
185.7065861871
 20
105.0657079246
 11
185.7201317022
 21
105.0151553739
 72
     1
 10
185.7201317022
 20
105.0151553739
 11
185.7283188332
 21
104.9634638635
 72
     1
 10
185.7283188332
 20
104.9634638635
 11
185.73105788
 21
104.9111997364
 72
     1
 10
185.73105788
 20
104.9111997364
 11
185.23105888
 21
104.9111997364
 97
        0
 75
     0
 76
     1
 98
        1
 10
0.0
 20
0.0
450
        0
451
        0
460
0.0
461
0.0
452
        0
462
0.0
453
        0
470

  0
LWPOLYLINE
  5
326
330
31A
100
AcDbEntity
  8
1
  6
Continuous
 62
     4
100
AcDbPolyline
 90
       18
 70
     0
 43
0.0
 10
185.23105888
 20
104.9111997364
 10
185.23105888
 20
104.4112007364
 10
185.1787947529
 20
104.4139397832
 10
185.1271032425
 20
104.4221269142
 10
185.0765506918
 20
104.4356724293
 10
185.0276909652
 20
104.4544279211
 10
184.98105938
 20
104.4781879005
 10
184.9371668416
 20
104.5066920482
 10
184.896494246
 20
104.5396280668
 10
184.8594872104
 20
104.5766351024
 10
184.8265511918
 20
104.617307698
 10
184.7980470441
 20
104.6612002364
 10
184.7742870647
 20
104.7078318216
 10
184.7555315729
 20
104.7566915482
 10
184.7419860578
 20
104.8072440989
 10
184.7337989268
 20
104.8589356093
 10
184.73105988
 20
104.9111997364
 10
185.23105888
 20
104.9111997364
  0
HATCH
  5
327
330
31A
100
AcDbEntity
  8
1
  6
Continuous
 62
     4
100
AcDbHatch
 10
0.0
 20
0.0
 30
0.0
210
0.0
220
0.0
230
1.0
  2
SOLID
 70
     1
 71
     0
 91
        1
 92
        1
 93
       17
 72
     1
 10
185.23105888
 20
104.9111997364
 11
185.23105888
 21
104.4112007364
 72
     1
 10
185.23105888
 20
104.4112007364
 11
185.1787947529
 21
104.4139397832
 72
     1
 10
185.1787947529
 20
104.4139397832
 11
185.1271032425
 21
104.4221269142
 72
     1
 10
185.1271032425
 20
104.4221269142
 11
185.0765506918
 21
104.4356724293
 72
     1
 10
185.0765506918
 20
104.4356724293
 11
185.0276909652
 21
104.4544279211
 72
     1
 10
185.0276909652
 20
104.4544279211
 11
184.98105938
 21
104.4781879005
 72
     1
 10
184.98105938
 20
104.4781879005
 11
184.9371668416
 21
104.5066920482
 72
     1
 10
184.9371668416
 20
104.5066920482
 11
184.896494246
 21
104.5396280668
 72
     1
 10
184.896494246
 20
104.5396280668
 11
184.8594872104
 21
104.5766351024
 72
     1
 10
184.8594872104
 20
104.5766351024
 11
184.8265511918
 21
104.617307698
 72
     1
 10
184.8265511918
 20
104.617307698
 11
184.7980470441
 21
104.6612002364
 72
     1
 10
184.7980470441
 20
104.6612002364
 11
184.7742870647
 21
104.7078318216
 72
     1
 10
184.7742870647
 20
104.7078318216
 11
184.7555315729
 21
104.7566915482
 72
     1
 10
184.7555315729
 20
104.7566915482
 11
184.7419860578
 21
104.8072440989
 72
     1
 10
184.7419860578
 20
104.8072440989
 11
184.7337989268
 21
104.8589356093
 72
     1
 10
184.7337989268
 20
104.8589356093
 11
184.73105988
 21
104.9111997364
 72
     1
 10
184.73105988
 20
104.9111997364
 11
185.23105888
 21
104.9111997364
 97
        0
 75
     0
 76
     1
 98
        1
 10
0.0
 20
0.0
450
        0
451
        0
460
0.0
461
0.0
452
        0
462
0.0
453
        0
470

  0
LINE
  5
328
330
31A
100
AcDbEntity
  8
1
  6
Continuous
 62
     4
100
AcDbLine
 10
184.73105988
 20
104.9111997364
 30
0.0
 11
185.23105888
 21
104.9111997364
 31
0.0
  0
ARC
  5
329
330
31A
100
AcDbEntity
  8
1
  6
Continuous
 62
     4
100
AcDbCircle
 10
185.23105888
 20
104.9111997364
 30
0.0
 40
0.4999990000000001
100
AcDbArc
 50
180.0
 51
270.0
  0
LINE
  5
32A
330
31A
100
AcDbEntity
  8
1
  6
Continuous
 62
     4
100
AcDbLine
 10
185.23105888
 20
104.4112007364
 30
0.0
 11
185.23105888
 21
104.9111997364
 31
0.0
  0
ENDBLK
  5
32B
330
31A
100
AcDbEntity
  8
0
  6
ByBlock
 62
     0
100
AcDbBlockEnd
  0
ENDSEC
  0
SECTION
  2
ENTITIES
  0
DIMENSION
  5
23C
330
1B
100
AcDbEntity
  8
2
100
AcDbDimension
  2
*D1
 10
0.0000000000000006
 20
24.70833274839999
 30
0.0
 11
51.50991532300001
 21
24.70833274839999
 31
0.0
 70
   160
  1
100
 71
     5
 42
100.0
  3
ISO-25
100
AcDbAlignedDimension
 13
100.0
 23
9.199999999999988
 33
0.0
 14
0.0
 24
14.47503468739998
 34
0.0
 50
180.0
100
AcDbRotatedDimension
  0
DIMENSION
  5
23D
330
1B
100
AcDbEntity
  8
SK2
100
AcDbDimension
  2
*D2
 10
124.6861979801585
 20
8.999999999999992
 30
0.0
 11
124.6861979801585
 21
0.2917800449999959
 31
0.0
 70
   160
  1
%%c18
 71
     5
 42
18.0
  3
ISO-25
100
AcDbAlignedDimension
 13
100.816350922
 23
-9.0
 33
0.0
 14
100.2
 24
9.0
 34
0.0
 50
90.0
100
AcDbRotatedDimension
  0
DIMENSION
  5
23E
330
1B
100
AcDbEntity
  8
SK2
100
AcDbDimension
  2
*D3
 10
118.1976385795511
 20
-5.000000000000007
 30
0.0
 11
118.1976385795511
 21
0.0
 31
0.0
 70
   160
  1
M10
 71
     5
 42
10.0
  3
ISO-25
100
AcDbAlignedDimension
 13
92.50000000000001
 23
5.0
 33
0.0
 14
92.50000000000001
 24
-5.0
 34
0.0
 50
270.0
100
AcDbRotatedDimension
  0
DIMENSION
  5
23F
330
1B
100
AcDbEntity
  8
SK2
100
AcDbDimension
  2
*D4
 10
-93.62499999999998
 20
11.91250000000002
 30
0.0
 11
-93.62499999999998
 21
-0.3663890429000105
 31
0.0
 70
   160
  1
%%c23.825
 71
     5
 42
23.82499999999999
  3
ISO-25
100
AcDbAlignedDimension
 13
-3.168297494399979
 23
-11.91249999999999
 33
0.0
 14
-1.447059500799994
 24
11.91249999999999
 34
0.0
 50
90.0
100
AcDbRotatedDimension
  0
DIMENSION
  5
240
330
1B
100
AcDbEntity
  8
SK2
100
AcDbDimension
  2
*D5
 10
100.0
 20
34.70833274840001
 30
0.0
 11
10.392456401
 21
34.70833274840001
 31
0.0
 70
   160
  1
181
 71
     5
 42
181.0
  3
ISO-25
100
AcDbAlignedDimension
 13
-80.99999999999999
 23
9.400000000000005
 33
0.0
 14
100.0
 24
-8.200000000000017
 34
0.0
100
AcDbRotatedDimension
  0
TEXT
  5
241
330
1B
100
AcDbEntity
  8
6
100
AcDbText
 10
-79.58612033319998
 20
-24.4558084289
 30
0.0
 40
5.0
  1
MT3MOD10SK100
 41
0.8
100
AcDbText
  0
LINE
  5
242
330
1B
100
AcDbEntity
  8
SK1
100
AcDbLine
 10
-80.99999999999999
 20
8.900000000000005
 30
0.0
 11
-80.99999999999999
 21
-8.900000000000005
 31
0.0
  0
LINE
  5
243
330
1B
100
AcDbEntity
  8
SK3
100
AcDbLine
 10
-75.49999999999998
 20
6.5
 30
0.0
 11
-75.49999999999998
 21
-6.5
 31
0.0
  0
LINE
  5
244
330
1B
100
AcDbEntity
  8
SK3
100
AcDbLine
 10
-74.97499999999999
 20
5.099999999999994
 30
0.0
 11
-74.97499999999999
 21
-5.099999999999994
 31
0.0
  0
LINE
  5
245
330
1B
100
AcDbEntity
  8
SK1
100
AcDbLine
 10
-73.99999999999998
 20
9.5
 30
0.0
 11
-73.99999999999998
 21
-9.5
 31
0.0
  0
LINE
  5
246
330
1B
100
AcDbEntity
  8
SK1
100
AcDbLine
 10
-73.38393682639999
 20
10.1160631736
 30
0.0
 11
-73.38393682639999
 21
-10.11606317369998
 31
0.0
  0
LINE
  5
247
330
1B
100
AcDbEntity
  8
SK3
100
AcDbLine
 10
-55.99999999999999
 20
6.0
 30
0.0
 11
-55.99999999999999
 21
-6.0
 31
0.0
  0
LINE
  5
248
330
1B
100
AcDbEntity
  8
SK3
100
AcDbLine
 10
-47.49999999999999
 20
5.099999999999994
 30
0.0
 11
-47.49999999999999
 21
-5.099999999999994
 31
0.0
  0
LINE
  5
249
330
1B
100
AcDbEntity
  8
SK3
100
AcDbLine
 10
-44.78828189859998
 20
0.0
 30
0.0
 11
-47.49999999999999
 21
-5.099999999999994
 31
0.0
  0
LINE
  5
24A
330
1B
100
AcDbEntity
  8
SK1
100
AcDbLine
 10
-73.38393682639999
 20
10.1160631736
 30
0.0
 11
-73.99999999999998
 21
9.5
 31
0.0
  0
LINE
  5
24B
330
1B
100
AcDbEntity
  8
SK1
100
AcDbLine
 10
-73.38393682639999
 20
-10.11606317369998
 30
0.0
 11
-73.99999999999998
 21
-9.5
 31
0.0
  0
LINE
  5
24C
330
1B
100
AcDbEntity
  8
SK3
100
AcDbLine
 10
-44.78828189859998
 20
0.0
 30
0.0
 11
-47.49999999999999
 21
5.099999999999994
 31
0.0
  0
LINE
  5
24D
330
1B
100
AcDbEntity
  8
SK3
100
AcDbLine
 10
-74.97499999999999
 20
-5.099999999999994
 30
0.0
 11
-75.49999999999998
 21
-5.625
 31
0.0
  0
LINE
  5
24E
330
1B
100
AcDbEntity
  8
SK3
100
AcDbLine
 10
-74.97499999999999
 20
5.099999999999994
 30
0.0
 11
-75.49999999999998
 21
5.625
 31
0.0
  0
LINE
  5
24F
330
1B
100
AcDbEntity
  8
NOCUT
100
AcDbLine
 10
0.0
 20
11.95784341640001
 30
0.0
 11
0.0
 21
0.0
 31
0.0
  0
LINE
  5
250
330
1B
100
AcDbEntity
  8
1
100
AcDbLine
 10
5.0
 20
12.08333274839998
 30
0.0
 11
5.0
 21
-12.08333274840001
 31
0.0
  0
LINE
  5
251
330
1B
100
AcDbEntity
  8
1
100
AcDbLine
 10
8.5
 20
11.91249999999999
 30
0.0
 11
8.5
 21
-11.91249999999999
 31
0.0
  0
LINE
  5
252
330
1B
100
AcDbEntity
  8
SK3
100
AcDbLine
 10
65.00000000000001
 20
4.25
 30
0.0
 11
65.00000000000001
 21
-4.25
 31
0.0
  0
LINE
  5
253
330
1B
100
AcDbEntity
  8
SK3
100
AcDbLine
 10
75.00000000000001
 20
5.0
 30
0.0
 11
75.00000000000001
 21
-5.0
 31
0.0
  0
LINE
  5
254
330
1B
100
AcDbEntity
  8
SK3
100
AcDbLine
 10
65.00000000000001
 20
4.25
 30
0.0
 11
62.74023491540003
 21
0.0
 31
0.0
  0
LINE
  5
255
330
1B
100
AcDbEntity
  8
SK3
100
AcDbLine
 10
65.00000000000001
 20
-4.25
 30
0.0
 11
62.74023491540003
 21
0.0
 31
0.0
  0
LINE
  5
256
330
1B
100
AcDbEntity
  8
1
100
AcDbLine
 10
90.00000000000001
 20
9.0
 30
0.0
 11
90.00000000000001
 21
-9.0
 31
0.0
  0
LINE
  5
257
330
1B
100
AcDbEntity
  8
SK3
100
AcDbLine
 10
92.00000000000001
 20
-5.550000000000011
 30
0.0
 11
92.00000000000001
 21
5.549999999999982
 31
0.0
  0
LINE
  5
258
330
1B
100
AcDbEntity
  8
1
100
AcDbLine
 10
90.00000000000001
 20
-9.0
 30
0.0
 11
8.5
 21
-11.91249999999999
 31
0.0
  0
LINE
  5
259
330
1B
100
AcDbEntity
  8
SK1
100
AcDbLine
 10
-73.99999999999998
 20
-9.5
 30
0.0
 11
-80.39999999999999
 21
-9.5
 31
0.0
  0
LINE
  5
25A
330
1B
100
AcDbEntity
  8
1
100
AcDbLine
 10
99.7
 20
-9.0
 30
0.0
 11
90.00000000000001
 21
-9.0
 31
0.0
  0
LINE
  5
25B
330
1B
100
AcDbEntity
  8
1
100
AcDbLine
 10
5.0
 20
-12.08333274840001
 30
0.0
 11
-0.0000000000000022
 21
-11.95784341637928
 31
0.0
  0
LINE
  5
25C
330
1B
100
AcDbEntity
  8
SK3
100
AcDbLine
 10
94.00000000000002
 20
-5.550000000000011
 30
0.0
 11
94.00000000000002
 21
5.549999999999982
 31
0.0
  0
LINE
  5
25D
330
1B
100
AcDbEntity
  8
1
100
AcDbLine
 10
99.7
 20
9.0
 30
0.0
 11
99.7
 21
-9.0
 31
0.0
  0
LINE
  5
25E
330
1B
100
AcDbEntity
  8
1
100
AcDbLine
 10
100.0
 20
8.699999999999988
 30
0.0
 11
100.0
 21
-8.700000000000017
 31
0.0
  0
LINE
  5
25F
330
1B
100
AcDbEntity
  8
NOCUT
100
AcDbLine
 10
100.0
 20
8.699999999999988
 30
0.0
 11
100.0
 21
0.0000000020000073
 31
0.0
  0
LINE
  5
260
330
1B
100
AcDbEntity
  8
SK3
100
AcDbLine
 10
-75.49999999999998
 20
-6.5
 30
0.0
 11
-79.49999999999999
 21
-6.5
 31
0.0
  0
LINE
  5
261
330
1B
100
AcDbEntity
  8
SK3
100
AcDbLine
 10
-55.99999999999999
 20
-6.0
 30
0.0
 11
-75.49999999999998
 21
-6.0
 31
0.0
  0
LINE
  5
262
330
1B
100
AcDbEntity
  8
SK3
100
AcDbLine
 10
94.00000000000002
 20
-5.550000000000011
 30
0.0
 11
92.00000000000001
 21
-5.550000000000011
 31
0.0
  0
LINE
  5
263
330
1B
100
AcDbEntity
  8
SK3
100
AcDbLine
 10
99.50000000000002
 20
-5.25
 30
0.0
 11
94.00000000000002
 21
-5.25
 31
0.0
  0
LINE
  5
264
330
1B
100
AcDbEntity
  8
SK3
100
AcDbLine
 10
-47.49999999999999
 20
-5.099999999999994
 30
0.0
 11
-74.97499999999999
 21
-5.099999999999994
 31
0.0
  0
LINE
  5
265
330
1B
100
AcDbEntity
  8
SK3
100
AcDbLine
 10
75.00000000000001
 20
-5.0
 30
0.0
 11
92.00000000000001
 21
-5.0
 31
0.0
  0
LINE
  5
266
330
1B
100
AcDbEntity
  8
SK3
100
AcDbLine
 10
92.00000000000001
 20
-4.25
 30
0.0
 11
65.00000000000001
 21
-4.25
 31
0.0
  0
LINE
  5
267
330
1B
100
AcDbEntity
  8
4
100
AcDbLine
 10
103.0
 20
0.0
 30
0.0
 11
0.0
 21
0.0
 31
0.0
  0
LINE
  5
268
330
1B
100
AcDbEntity
  8
NOCUT
100
AcDbLine
 10
0.0
 20
0.0
 30
0.0
 11
100.0
 21
0.0
 31
0.0
  0
LINE
  5
269
330
1B
100
AcDbEntity
  8
SK3
100
AcDbLine
 10
92.00000000000001
 20
4.25
 30
0.0
 11
65.00000000000001
 21
4.25
 31
0.0
  0
LINE
  5
26A
330
1B
100
AcDbEntity
  8
SK3
100
AcDbLine
 10
75.00000000000001
 20
5.0
 30
0.0
 11
92.00000000000001
 21
5.0
 31
0.0
  0
LINE
  5
26B
330
1B
100
AcDbEntity
  8
SK3
100
AcDbLine
 10
-47.49999999999999
 20
5.099999999999994
 30
0.0
 11
-74.97499999999999
 21
5.099999999999994
 31
0.0
  0
LINE
  5
26C
330
1B
100
AcDbEntity
  8
SK3
100
AcDbLine
 10
99.50000000000002
 20
5.25
 30
0.0
 11
94.00000000000002
 21
5.25
 31
0.0
  0
LINE
  5
26D
330
1B
100
AcDbEntity
  8
SK3
100
AcDbLine
 10
94.00000000000002
 20
5.549999999999982
 30
0.0
 11
92.00000000000001
 21
5.549999999999982
 31
0.0
  0
LINE
  5
26E
330
1B
100
AcDbEntity
  8
SK3
100
AcDbLine
 10
-55.99999999999999
 20
6.0
 30
0.0
 11
-75.49999999999998
 21
6.0
 31
0.0
  0
LINE
  5
26F
330
1B
100
AcDbEntity
  8
SK3
100
AcDbLine
 10
-75.49999999999998
 20
6.5
 30
0.0
 11
-79.49999999999999
 21
6.5
 31
0.0
  0
LINE
  5
270
330
1B
100
AcDbEntity
  8
1
100
AcDbLine
 10
100.0
 20
8.699999999999988
 30
0.0
 11
99.7
 21
9.0
 31
0.0
  0
LINE
  5
271
330
1B
100
AcDbEntity
  8
NOCUT
100
AcDbLine
 10
100.0
 20
8.699999999999988
 30
0.0
 11
99.7
 21
9.0
 31
0.0
  0
LINE
  5
272
330
1B
100
AcDbEntity
  8
1
100
AcDbLine
 10
100.0
 20
-8.700000000000017
 30
0.0
 11
99.7
 21
-9.0
 31
0.0
  0
LINE
  5
273
330
1B
100
AcDbEntity
  8
NOCUT
100
AcDbLine
 10
5.0
 20
12.08333274839998
 30
0.0
 11
0.0
 21
11.95784341640001
 31
0.0
  0
LINE
  5
274
330
1B
100
AcDbEntity
  8
1
100
AcDbLine
 10
5.0
 20
12.08333274839998
 30
0.0
 11
0.0000000000006806
 21
11.95784341637289
 31
0.0
  0
LINE
  5
275
330
1B
100
AcDbEntity
  8
1
100
AcDbLine
 10
99.7
 20
9.0
 30
0.0
 11
90.00000000000001
 21
9.0
 31
0.0
  0
LINE
  5
276
330
1B
100
AcDbEntity
  8
NOCUT
100
AcDbLine
 10
99.7
 20
9.0
 30
0.0
 11
90.00000000000001
 21
9.0
 31
0.0
  0
LINE
  5
277
330
1B
100
AcDbEntity
  8
SK1
100
AcDbLine
 10
-73.99999999999998
 20
9.5
 30
0.0
 11
-80.39999999999999
 21
9.5
 31
0.0
  0
LINE
  5
278
330
1B
100
AcDbEntity
  8
1
100
AcDbLine
 10
90.00000000000001
 20
9.0
 30
0.0
 11
8.5
 21
11.91249999999999
 31
0.0
  0
LINE
  5
279
330
1B
100
AcDbEntity
  8
NOCUT
100
AcDbLine
 10
90.00000000000001
 20
9.0
 30
0.0
 11
8.5
 21
11.91249999999999
 31
0.0
  0
ARC
  5
27A
330
1B
100
AcDbEntity
  8
SK3
100
AcDbCircle
 10
99.50000000000002
 20
-5.75
 30
0.0
 40
0.5
100
AcDbArc
 50
0.0001969192
 51
90.0
  0
ARC
  5
27B
330
1B
100
AcDbEntity
  8
SK3
100
AcDbCircle
 10
99.50000000000002
 20
5.75
 30
0.0
 40
0.5
100
AcDbArc
 50
270.0
 51
359.9998030808
  0
ARC
  5
27C
330
1B
100
AcDbEntity
  8
SK3
100
AcDbCircle
 10
-79.49999999999999
 20
-8.0
 30
0.0
 40
1.5
100
AcDbArc
 50
90.0
 51
180.0
  0
ARC
  5
27D
330
1B
100
AcDbEntity
  8
SK3
100
AcDbCircle
 10
-79.49999999999999
 20
8.0
 30
0.0
 40
1.5
100
AcDbArc
 50
180.0
 51
270.0
  0
ARC
  5
27E
330
1B
100
AcDbEntity
  8
1
100
AcDbCircle
 10
6.925302886200014
 20
-15.58950000000001
 30
0.0
 40
4.0
100
AcDbArc
 50
66.81668217800001
 51
118.772022826
  0
ARC
  5
27F
330
1B
100
AcDbEntity
  8
1
100
AcDbCircle
 10
6.925302886200014
 20
15.58949999999998
 30
0.0
 40
4.0
100
AcDbArc
 50
241.227977174
 51
293.183317822
  0
ARC
  5
280
330
1B
100
AcDbEntity
  8
SK1
100
AcDbCircle
 10
-80.39999999999999
 20
-8.900000000000005
 30
0.0
 40
0.6
100
AcDbArc
 50
180.0
 51
270.0
  0
ARC
  5
281
330
1B
100
AcDbEntity
  8
SK1
100
AcDbCircle
 10
-80.39999999999999
 20
8.900000000000005
 30
0.0
 40
0.6
100
AcDbArc
 50
90.0
 51
180.0
  0
ARC
  5
282
330
1B
100
AcDbEntity
  8
NOCUT
100
AcDbCircle
 10
6.925302886200014
 20
15.58949999999998
 30
0.0
 40
4.0
100
AcDbArc
 50
241.227977174
 51
293.183317822
  0
LINE
  5
2C4
330
1B
100
AcDbEntity
  8
SK1
100
AcDbLine
 10
-0.0000000000000022
 20
-11.95784341637928
 30
0.0
 11
-73.38393682639999
 21
-10.11606317369998
 31
0.0
  0
LINE
  5
2C7
330
1B
100
AcDbEntity
  8
SK4
100
AcDbLine
 10
0.0
 20
0.0
 30
0.0
 11
-83.99999999999998
 21
0.0
 31
0.0
  0
LINE
  5
2C8
330
1B
100
AcDbEntity
  8
SK1
100
AcDbLine
 10
0.0000000000006806
 20
11.95784341637289
 30
0.0
 11
-73.38393682639999
 21
10.1160631736
 31
0.0
  0
INSERT
  5
3CB
330
1B
100
AcDbEntity
  8
1
100
AcDbBlockReference
  2
NULLPUNKT_BL0
 10
0.0
 20
0.0
 30
0.0
  0
INSERT
  5
3CC
330
1B
100
AcDbEntity
  8
1
100
AcDbBlockReference
  2
EINFUEGEPUNKT_BL1
 10
100.0
 20
0.0000000020000073
 30
0.0
  0
ENDSEC
  0
SECTION
  2
OBJECTS
  0
DICTIONARY
  5
283
330
0
100
AcDbDictionary
281
     1
  3
ACAD_COLOR
350
28D
  3
ACAD_GROUP
350
284
  3
ACAD_LAYOUT
350
290
  3
ACAD_MATERIAL
350
28C
  3
ACAD_MLINESTYLE
350
285
  3
ACAD_PLOTSETTINGS
350
291
  3
ACAD_PLOTSTYLENAME
350
28A
  3
ACAD_TABLESTYLE
350
28E
  3
AcDbVariableDictionary
350
553
  0
DICTIONARY
  5
43C
330
2
100
AcDbDictionary
280
     1
281
     1
  3
ACAD_LAYERFILTERS
360
552
  3
ACLYDICTIONARY
360
551
  0
DICTIONARY
  5
2C5
330
1B
100
AcDbDictionary
280
     1
281
     1
  3
ACAD_SORTENTS
360
2C6
  0
DICTIONARY
  5
28D
102
{ACAD_REACTORS
330
283
102
}
330
283
100
AcDbDictionary
281
     1
  0
DICTIONARY
  5
284
102
{ACAD_REACTORS
330
283
102
}
330
283
100
AcDbDictionary
281
     1
  0
DICTIONARY
  5
290
102
{ACAD_REACTORS
330
283
102
}
330
283
100
AcDbDictionary
281
     1
  3
Layout1
350
293
  3
Model
350
292
  0
DICTIONARY
  5
28C
102
{ACAD_REACTORS
330
283
102
}
330
283
100
AcDbDictionary
281
     1
  0
DICTIONARY
  5
285
102
{ACAD_REACTORS
330
283
102
}
330
283
100
AcDbDictionary
281
     1
  3
STANDARD
350
286
  0
DICTIONARY
  5
291
102
{ACAD_REACTORS
330
283
102
}
330
283
100
AcDbDictionary
281
     1
  0
ACDBDICTIONARYWDFLT
  5
28A
102
{ACAD_REACTORS
330
283
102
}
330
283
100
AcDbDictionary
281
     1
  3
Normal
350
28B
100
AcDbDictionaryWithDefault
340
28B
  0
DICTIONARY
  5
28E
102
{ACAD_REACTORS
330
283
102
}
330
283
100
AcDbDictionary
281
     1
  3
Standard
350
28F
  0
DICTIONARY
  5
553
102
{ACAD_REACTORS
330
283
102
}
330
283
100
AcDbDictionary
281
     1
  3
CTABLESTYLE
350
554
  0
DICTIONARY
  5
552
102
{ACAD_REACTORS
330
43C
102
}
330
43C
100
AcDbDictionary
281
     1
  0
DICTIONARY
  5
551
102
{ACAD_REACTORS
330
43C
102
}
330
43C
100
AcDbDictionary
281
     1
1001
ACAD
1000
<All
  0
SORTENTSTABLE
  5
2C6
102
{ACAD_REACTORS
330
2C5
102
}
330
2C5
100
AcDbSortentsTable
330
1B
331
26F
  5
271
331
25E
  5
25F
331
24A
  5
24A
331
26D
  5
26F
331
27E
  5
281
331
25C
  5
25D
331
248
  5
248
331
26B
  5
26D
331
27C
  5
27F
331
25A
  5
25A
331
257
  5
257
331
246
  5
246
331
269
  5
26B
331
27A
  5
27D
331
258
  5
258
331
255
  5
255
331
244
  5
244
331
281
  5
2C4
331
267
  5
268
331
278
  5
27B
331
253
  5
253
331
242
  5
242
331
2C8
  5
277
331
265
  5
266
331
276
  5
279
331
251
  5
251
331
240
  5
240
331
263
  5
264
331
274
  5
276
331
24F
  5
24F
331
23E
  5
23E
331
261
  5
262
331
272
  5
274
331
24D
  5
24D
331
23C
  5
23C
331
270
  5
272
331
25F
  5
260
331
2C4
  5
25C
331
24B
  5
24B
331
26E
  5
270
331
27F
  5
282
331
25D
  5
25E
331
249
  5
249
331
26C
  5
26E
331
27D
  5
280
331
25B
  5
25B
331
247
  5
247
331
26A
  5
26C
331
27B
  5
27E
331
259
  5
259
331
256
  5
256
331
245
  5
245
331
282
  5
2C7
331
268
  5
26A
331
279
  5
27C
331
254
  5
254
331
243
  5
243
331
280
  5
2C3
331
266
  5
267
331
277
  5
27A
331
252
  5
252
331
241
  5
241
331
264
  5
265
331
275
  5
278
331
250
  5
250
331
23F
  5
23F
331
262
  5
263
331
273
  5
275
331
2C7
  5
269
331
24E
  5
24E
331
23D
  5
23D
331
260
  5
261
331
271
  5
273
331
24C
  5
24C
  0
LAYOUT
  5
293
102
{ACAD_REACTORS
330
290
102
}
330
290
100
AcDbPlotSettings
  1

  2
\\ingdom02\ITB3
  4

  6

 40
0.0
 41
0.0
 42
0.0
 43
0.0
 44
0.0
 45
0.0
 46
0.0
 47
0.0
 48
0.0
 49
0.0
140
0.0
141
0.0
142
1.0
143
1.0
 70
   688
 72
     0
 73
     0
 74
     5
  7

 75
    16
147
1.0
 76
     0
 77
     2
 78
   300
148
0.0
149
0.0
100
AcDbLayout
  1
Layout1
 70
     1
 71
     1
 10
0.0
 20
0.0
 11
12.0
 21
9.0
 12
0.0
 22
0.0
 32
0.0
 14
1.000000000000000E+20
 24
1.000000000000000E+20
 34
1.000000000000000E+20
 15
-1.000000000000000E+20
 25
-1.000000000000000E+20
 35
-1.000000000000000E+20
146
0.0
 13
0.0
 23
0.0
 33
0.0
 16
1.0
 26
0.0
 36
0.0
 17
0.0
 27
1.0
 37
0.0
 76
     0
330
1C
  0
LAYOUT
  5
292
102
{ACAD_REACTORS
330
290
102
}
330
290
100
AcDbPlotSettings
  1

  2
\\ingdom02\ITB3
  4

  6

 40
0.0
 41
0.0
 42
0.0
 43
0.0
 44
0.0
 45
0.0
 46
0.0
 47
0.0
 48
0.0
 49
0.0
140
0.0
141
0.0
142
1.0
143
1.0
 70
  1712
 72
     0
 73
     0
 74
     0
  7

 75
     0
147
1.0
 76
     0
 77
     2
 78
   300
148
0.0
149
0.0
100
AcDbLayout
  1
Model
 70
     1
 71
     0
 10
0.0
 20
0.0
 11
12.0
 21
9.0
 12
0.0
 22
0.0
 32
0.0
 14
0.0
 24
0.0
 34
0.0
 15
0.0
 25
0.0
 35
0.0
146
0.0
 13
0.0
 23
0.0
 33
0.0
 16
1.0
 26
0.0
 36
0.0
 17
0.0
 27
1.0
 37
0.0
 76
     0
330
1B
  0
MLINESTYLE
  5
286
102
{ACAD_REACTORS
330
285
102
}
330
285
100
AcDbMlineStyle
  2
STANDARD
 70
     0
  3

 62
   256
 51
90.0
 52
90.0
 71
     2
 49
0.5
 62
   256
  6
BYLAYER
 49
-0.5
 62
   256
  6
BYLAYER
  0
ACDBPLACEHOLDER
  5
28B
102
{ACAD_REACTORS
330
28A
102
}
330
28A
  0
TABLESTYLE
  5
28F
102
{ACAD_REACTORS
330
28E
102
}
330
28E
100
AcDbTableStyle
  3
Standard
 70
     0
 71
     0
 40
1.5
 41
1.5
280
     0
281
     0
  7
STANDARD
140
4.5
170
     2
 62
     0
 63
     7
283
     0
274
    -2
284
     1
 64
     0
275
    -2
285
     1
 65
     0
276
    -2
286
     1
 66
     0
277
    -2
287
     1
 67
     0
278
    -2
288
     1
 68
     0
279
    -2
289
     1
 69
     0
  7
STANDARD
140
6.0
170
     5
 62
     0
 63
     7
283
     0
274
    -2
284
     1
 64
     0
275
    -2
285
     1
 65
     0
276
    -2
286
     1
 66
     0
277
    -2
287
     1
 67
     0
278
    -2
288
     1
 68
     0
279
    -2
289
     1
 69
     0
  7
STANDARD
140
4.5
170
     5
 62
     0
 63
     7
283
     0
274
    -2
284
     1
 64
     0
275
    -2
285
     1
 65
     0
276
    -2
286
     1
 66
     0
277
    -2
287
     1
 67
     0
278
    -2
288
     1
 68
     0
279
    -2
289
     1
 69
     0
  0
DICTIONARYVAR
  5
554
102
{ACAD_REACTORS
330
553
102
}
330
553
100
DictionaryVariables
280
     0
  1
STANDARD
  0
ENDSEC
  0
EOF
