  0
SECTION
  2
HEADER
  9
$ACADVER
  1
AC1018
  9
$ACADMAINTVER
 70
    39
  9
$DWGCODEPAGE
  3
ANSI_1252
  9
$INSBASE
 10
0.0
 20
0.0
 30
0.0
  9
$EXTMIN
 10
-80.58554017379128
 20
-28.68530227882473
 30
-0.0015258207003583
  9
$EXTMAX
 10
63.25570720650216
 20
35.64193754182424
 30
0.0000000349246037
  9
$LIMMIN
 10
0.0
 20
0.0
  9
$LIMMAX
 10
297.0
 20
210.0
  9
$ORTHOMODE
 70
     0
  9
$REGENMODE
 70
     1
  9
$FILLMODE
 70
     1
  9
$QTEXTMODE
 70
     0
  9
$MIRRTEXT
 70
     0
  9
$LTSCALE
 40
16.335
  9
$ATTMODE
 70
     1
  9
$TEXTSIZE
 40
0.2
  9
$TRACEWID
 40
0.05
  9
$TEXTSTYLE
  7
STANDARD
  9
$CLAYER
  8
0
  9
$CELTYPE
  6
BYLAYER
  9
$CECOLOR
 62
   256
  9
$CELTSCALE
 40
1.0
  9
$DISPSILH
 70
     0
  9
$DIMSCALE
 40
1.0
  9
$DIMASZ
 40
3.5
  9
$DIMEXO
 40
0.625
  9
$DIMDLI
 40
3.75
  9
$DIMRND
 40
0.0
  9
$DIMDLE
 40
0.0
  9
$DIMEXE
 40
2.0
  9
$DIMTP
 40
0.0
  9
$DIMTM
 40
0.0
  9
$DIMTXT
 40
3.5
  9
$DIMCEN
 40
2.5
  9
$DIMTSZ
 40
0.0
  9
$DIMTOL
 70
     0
  9
$DIMLIM
 70
     0
  9
$DIMTIH
 70
     0
  9
$DIMTOH
 70
     0
  9
$DIMSE1
 70
     0
  9
$DIMSE2
 70
     0
  9
$DIMTAD
 70
     1
  9
$DIMZIN
 70
     8
  9
$DIMBLK
  1

  9
$DIMASO
 70
     1
  9
$DIMSHO
 70
     1
  9
$DIMPOST
  1

  9
$DIMAPOST
  1

  9
$DIMALT
 70
     0
  9
$DIMALTD
 70
     3
  9
$DIMALTF
 40
0.03937007874016
  9
$DIMLFAC
 40
1.0
  9
$DIMTOFL
 70
     1
  9
$DIMTVP
 40
0.0
  9
$DIMTIX
 70
     0
  9
$DIMSOXD
 70
     0
  9
$DIMSAH
 70
     0
  9
$DIMBLK1
  1

  9
$DIMBLK2
  1

  9
$DIMSTYLE
  2
ISO-25
  9
$DIMCLRD
 70
   256
  9
$DIMCLRE
 70
   256
  9
$DIMCLRT
 70
   256
  9
$DIMTFAC
 40
1.0
  9
$DIMGAP
 40
0.625
  9
$DIMJUST
 70
     0
  9
$DIMSD1
 70
     0
  9
$DIMSD2
 70
     0
  9
$DIMTOLJ
 70
     0
  9
$DIMTZIN
 70
     8
  9
$DIMALTZ
 70
     0
  9
$DIMALTTZ
 70
     0
  9
$DIMUPT
 70
     0
  9
$DIMDEC
 70
     2
  9
$DIMTDEC
 70
     2
  9
$DIMALTU
 70
     2
  9
$DIMALTTD
 70
     3
  9
$DIMTXSTY
  7
STANDARD
  9
$DIMAUNIT
 70
     0
  9
$DIMADEC
 70
     0
  9
$DIMALTRND
 40
0.0
  9
$DIMAZIN
 70
     0
  9
$DIMDSEP
 70
    46
  9
$DIMATFIT
 70
     3
  9
$DIMFRAC
 70
     0
  9
$DIMLDRBLK
  1

  9
$DIMLUNIT
 70
     2
  9
$DIMLWD
 70
    -2
  9
$DIMLWE
 70
    -2
  9
$DIMTMOVE
 70
     0
  9
$LUNITS
 70
     2
  9
$LUPREC
 70
     4
  9
$SKETCHINC
 40
0.1
  9
$FILLETRAD
 40
0.0
  9
$AUNITS
 70
     0
  9
$AUPREC
 70
     0
  9
$MENU
  1
.
  9
$ELEVATION
 40
0.0
  9
$PELEVATION
 40
0.0
  9
$THICKNESS
 40
0.0
  9
$LIMCHECK
 70
     0
  9
$CHAMFERA
 40
0.0
  9
$CHAMFERB
 40
0.0
  9
$CHAMFERC
 40
0.0
  9
$CHAMFERD
 40
0.0
  9
$SKPOLY
 70
     0
  9
$TDCREATE
 40
2453794.589163171
  9
$TDUCREATE
 40
2453794.547496505
  9
$TDUPDATE
 40
2453794.595342859
  9
$TDUUPDATE
 40
2453794.553676193
  9
$TDINDWG
 40
0.0061798727
  9
$TDUSRTIMER
 40
0.0061798727
  9
$USRTIMER
 70
     1
  9
$ANGBASE
 50
0.0
  9
$ANGDIR
 70
     0
  9
$PDMODE
 70
     3
  9
$PDSIZE
 40
0.3125
  9
$PLINEWID
 40
0.0
  9
$SPLFRAME
 70
     0
  9
$SPLINETYPE
 70
     6
  9
$SPLINESEGS
 70
     8
  9
$HANDSEED
  5
6C9
  9
$SURFTAB1
 70
     6
  9
$SURFTAB2
 70
     6
  9
$SURFTYPE
 70
     6
  9
$SURFU
 70
     6
  9
$SURFV
 70
     6
  9
$UCSBASE
  2

  9
$UCSNAME
  2

  9
$UCSORG
 10
0.0
 20
0.0
 30
0.0
  9
$UCSXDIR
 10
1.0
 20
0.0
 30
0.0
  9
$UCSYDIR
 10
0.0
 20
1.0
 30
0.0
  9
$UCSORTHOREF
  2

  9
$UCSORTHOVIEW
 70
     0
  9
$UCSORGTOP
 10
0.0
 20
0.0
 30
0.0
  9
$UCSORGBOTTOM
 10
0.0
 20
0.0
 30
0.0
  9
$UCSORGLEFT
 10
0.0
 20
0.0
 30
0.0
  9
$UCSORGRIGHT
 10
0.0
 20
0.0
 30
0.0
  9
$UCSORGFRONT
 10
0.0
 20
0.0
 30
0.0
  9
$UCSORGBACK
 10
0.0
 20
0.0
 30
0.0
  9
$PUCSBASE
  2

  9
$PUCSNAME
  2

  9
$PUCSORG
 10
0.0
 20
0.0
 30
0.0
  9
$PUCSXDIR
 10
1.0
 20
0.0
 30
0.0
  9
$PUCSYDIR
 10
0.0
 20
1.0
 30
0.0
  9
$PUCSORTHOREF
  2

  9
$PUCSORTHOVIEW
 70
     0
  9
$PUCSORGTOP
 10
0.0
 20
0.0
 30
0.0
  9
$PUCSORGBOTTOM
 10
0.0
 20
0.0
 30
0.0
  9
$PUCSORGLEFT
 10
0.0
 20
0.0
 30
0.0
  9
$PUCSORGRIGHT
 10
0.0
 20
0.0
 30
0.0
  9
$PUCSORGFRONT
 10
0.0
 20
0.0
 30
0.0
  9
$PUCSORGBACK
 10
0.0
 20
0.0
 30
0.0
  9
$USERI1
 70
     0
  9
$USERI2
 70
     0
  9
$USERI3
 70
     0
  9
$USERI4
 70
     0
  9
$USERI5
 70
     0
  9
$USERR1
 40
0.0
  9
$USERR2
 40
0.0
  9
$USERR3
 40
0.0
  9
$USERR4
 40
0.0
  9
$USERR5
 40
0.0
  9
$WORLDVIEW
 70
     1
  9
$SHADEDGE
 70
     3
  9
$SHADEDIF
 70
    70
  9
$TILEMODE
 70
     1
  9
$MAXACTVP
 70
    64
  9
$PINSBASE
 10
0.0
 20
0.0
 30
0.0
  9
$PLIMCHECK
 70
     0
  9
$PEXTMIN
 10
1.000000000000000E+20
 20
1.000000000000000E+20
 30
1.000000000000000E+20
  9
$PEXTMAX
 10
-1.000000000000000E+20
 20
-1.000000000000000E+20
 30
-1.000000000000000E+20
  9
$PLIMMIN
 10
0.0
 20
0.0
  9
$PLIMMAX
 10
12.0
 20
9.0
  9
$UNITMODE
 70
     0
  9
$VISRETAIN
 70
     1
  9
$PLINEGEN
 70
     0
  9
$PSLTSCALE
 70
     1
  9
$TREEDEPTH
 70
  3020
  9
$CMLSTYLE
  2
STANDARD
  9
$CMLJUST
 70
     0
  9
$CMLSCALE
 40
1.0
  9
$PROXYGRAPHICS
 70
     1
  9
$MEASUREMENT
 70
     1
  9
$CELWEIGHT
370
    -1
  9
$ENDCAPS
280
     0
  9
$JOINSTYLE
280
     0
  9
$LWDISPLAY
290
     0
  9
$INSUNITS
 70
     0
  9
$HYPERLINKBASE
  1

  9
$STYLESHEET
  1

  9
$XEDIT
290
     1
  9
$CEPSNTYPE
380
     0
  9
$PSTYLEMODE
290
     1
  9
$FINGERPRINTGUID
  2
{47119800-943F-44B4-A4CF-5013F3A977EB}
  9
$VERSIONGUID
  2
{B63185B2-F692-487F-876B-D0E65A7981AD}
  9
$EXTNAMES
290
     1
  9
$PSVPSCALE
 40
0.0
  9
$OLESTARTUP
290
     0
  9
$SORTENTS
280
   127
  9
$INDEXCTL
280
     0
  9
$HIDETEXT
280
     0
  9
$XCLIPFRAME
290
     0
  9
$HALOGAP
280
     0
  9
$OBSCOLOR
 70
   257
  9
$OBSLTYPE
280
     0
  9
$INTERSECTIONDISPLAY
280
     0
  9
$INTERSECTIONCOLOR
 70
   257
  9
$DIMASSOC
280
     1
  9
$PROJECTNAME
  1

  0
ENDSEC
  0
SECTION
  2
CLASSES
  0
CLASS
  1
ACDBDICTIONARYWDFLT
  2
AcDbDictionaryWithDefault
  3
ObjectDBX Classes
 90
        0
 91
        1
280
     0
281
     0
  0
CLASS
  1
TABLESTYLE
  2
AcDbTableStyle
  3
ObjectDBX Classes
 90
     2047
 91
        1
280
     0
281
     0
  0
CLASS
  1
SORTENTSTABLE
  2
AcDbSortentsTable
  3
ObjectDBX Classes
 90
        0
 91
        3
280
     0
281
     0
  0
CLASS
  1
DICTIONARYVAR
  2
AcDbDictionaryVar
  3
ObjectDBX Classes
 90
        0
 91
        1
280
     0
281
     0
  0
ENDSEC
  0
SECTION
  2
TABLES
  0
TABLE
  2
VPORT
  5
8
330
0
100
AcDbSymbolTable
 70
     5
  0
VPORT
  5
6C8
330
8
100
AcDbSymbolTableRecord
100
AcDbViewportTableRecord
  2
*Active
 70
     0
 10
0.0
 20
0.0
 11
1.0
 21
1.0
 12
-8.66491648364456
 22
3.478317631499745
 13
0.0
 23
0.0
 14
1.0
 24
1.0
 15
0.0
 25
0.0
 16
0.0
 26
0.0
 36
1.0
 17
0.0
 27
0.0
 37
0.0
 40
96.73866682627995
 41
1.494367959949937
 42
50.0
 43
0.0
 44
0.0
 50
0.0
 51
0.0
 71
     0
 72
   100
 73
     1
 74
     1
 75
     0
 76
     0
 77
     0
 78
     0
281
     0
 65
     1
110
0.0
120
0.0
130
0.0
111
1.0
121
0.0
131
0.0
112
0.0
122
1.0
132
0.0
 79
     0
146
0.0
  0
ENDTAB
  0
TABLE
  2
LTYPE
  5
5
330
0
100
AcDbSymbolTable
 70
     6
  0
LTYPE
  5
14
330
5
100
AcDbSymbolTableRecord
100
AcDbLinetypeTableRecord
  2
BYBLOCK
 70
     0
  3

 72
    65
 73
     0
 40
0.0
  0
LTYPE
  5
15
330
5
100
AcDbSymbolTableRecord
100
AcDbLinetypeTableRecord
  2
BYLAYER
 70
     0
  3

 72
    65
 73
     0
 40
0.0
  0
LTYPE
  5
16
330
5
100
AcDbSymbolTableRecord
100
AcDbLinetypeTableRecord
  2
CONTINUOUS
 70
     0
  3
Solid line
 72
    65
 73
     0
 40
0.0
  0
LTYPE
  5
1F5
330
5
100
AcDbSymbolTableRecord
100
AcDbLinetypeTableRecord
  2
CENTER
 70
     0
  3
____ _ ____ _ ____ _ ____ _ ____ _ ____ _ ____
 72
    65
 73
     4
 40
0.6
 49
0.375
 74
     0
 49
-0.075
 74
     0
 49
0.075
 74
     0
 49
-0.075
 74
     0
  0
LTYPE
  5
1F6
330
5
100
AcDbSymbolTableRecord
100
AcDbLinetypeTableRecord
  2
HIDDEN
 70
     0
  3
- - - - - - - - - - - - - - - - - - - -
 72
    65
 73
     2
 40
0.2
 49
0.1
 74
     0
 49
-0.1
 74
     0
  0
ENDTAB
  0
TABLE
  2
LAYER
  5
2
102
{ACAD_XDICTIONARY
360
510
102
}
330
0
100
AcDbSymbolTable
 70
    14
  0
LAYER
  5
10
330
2
100
AcDbSymbolTableRecord
100
AcDbLayerTableRecord
  2
0
 70
     0
 62
     7
  6
CONTINUOUS
370
    -3
390
287
  0
LAYER
  5
1FD
330
2
100
AcDbSymbolTableRecord
100
AcDbLayerTableRecord
  2
1
 70
     0
 62
     4
  6
CONTINUOUS
370
    -3
390
287
  0
LAYER
  5
1FE
330
2
100
AcDbSymbolTableRecord
100
AcDbLayerTableRecord
  2
2
 70
     0
 62
     7
  6
CONTINUOUS
370
    -3
390
287
  0
LAYER
  5
1FF
330
2
100
AcDbSymbolTableRecord
100
AcDbLayerTableRecord
  2
4
 70
     0
 62
     2
  6
CENTER
370
    -3
390
287
  0
LAYER
  5
200
330
2
100
AcDbSymbolTableRecord
100
AcDbLayerTableRecord
  2
6
 70
     0
 62
     5
  6
CONTINUOUS
370
    -3
390
287
  0
LAYER
  5
201
330
2
100
AcDbSymbolTableRecord
100
AcDbLayerTableRecord
  2
NOCUT
 70
     0
 62
     7
  6
CONTINUOUS
370
    -3
390
287
  0
LAYER
  5
202
330
2
100
AcDbSymbolTableRecord
100
AcDbLayerTableRecord
  2
SK3
 70
     0
 62
     1
  6
HIDDEN
370
    -3
390
287
  0
LAYER
  5
291
330
2
100
AcDbSymbolTableRecord
100
AcDbLayerTableRecord
  2
Defpoints
 70
     0
 62
     7
  6
CONTINUOUS
290
     0
370
    -3
390
287
  0
LAYER
  5
323
330
2
100
AcDbSymbolTableRecord
100
AcDbLayerTableRecord
  2
SK2
 70
     0
 62
     7
  6
CONTINUOUS
370
    -3
390
287
  0
LAYER
  5
324
330
2
100
AcDbSymbolTableRecord
100
AcDbLayerTableRecord
  2
SK1
 70
     0
 62
     4
  6
CONTINUOUS
370
    -3
390
287
  0
LAYER
  5
325
330
2
100
AcDbSymbolTableRecord
100
AcDbLayerTableRecord
  2
SK4
 70
     0
 62
     2
  6
CENTER
370
    -3
390
287
  0
ENDTAB
  0
TABLE
  2
STYLE
  5
3
330
0
100
AcDbSymbolTable
 70
     1
  0
STYLE
  5
11
330
3
100
AcDbSymbolTableRecord
100
AcDbTextStyleTableRecord
  2
STANDARD
 70
     0
 40
0.0
 41
0.8
 50
0.0
 71
     0
 42
0.2
  3
isocp.shx
  4

  0
ENDTAB
  0
TABLE
  2
VIEW
  5
6
330
0
100
AcDbSymbolTable
 70
     0
  0
ENDTAB
  0
TABLE
  2
UCS
  5
7
330
0
100
AcDbSymbolTable
 70
     0
  0
ENDTAB
  0
TABLE
  2
APPID
  5
9
330
0
100
AcDbSymbolTable
 70
     3
  0
APPID
  5
203
330
9
100
AcDbSymbolTableRecord
100
AcDbRegAppTableRecord
  2
ACAD
 70
     0
  0
APPID
  5
327
330
9
100
AcDbSymbolTableRecord
100
AcDbRegAppTableRecord
  2
ACAD_PSEXT
 70
     0
  0
APPID
  5
52B
330
9
100
AcDbSymbolTableRecord
100
AcDbRegAppTableRecord
  2
ACAD_DSTYLE_DIMTEXT_FILL
 70
     0
  0
ENDTAB
  0
TABLE
  2
DIMSTYLE
  5
A
330
0
100
AcDbSymbolTable
 70
     3
100
AcDbDimStyleTable
 71
     2
340
326
340
204
  0
DIMSTYLE
105
204
330
A
100
AcDbSymbolTableRecord
100
AcDbDimStyleTableRecord
  2
STANDARD
 70
     0
 41
2.5
 47
0.005
 48
0.005
 71
     1
 73
     0
 74
     0
 77
     1
 78
     8
140
3.5
178
     2
271
     3
272
     3
284
     8
340
11
341
206
342
206
343
206
344
206
  0
DIMSTYLE
105
326
102
{ACAD_REACTORS
330
32C
330
32B
330
32A
330
32D
330
329
330
241
330
23F
330
242
330
23E
330
240
102
}
330
A
100
AcDbSymbolTableRecord
100
AcDbDimStyleTableRecord
  2
ISO-25
 70
     0
 41
3.5
 42
0.625
 43
3.75
 44
2.0
 73
     0
 74
     0
 77
     1
 78
     8
140
3.5
141
2.5
143
0.03937007874016
147
0.625
171
     3
172
     1
176
   256
177
   256
178
   256
271
     2
272
     2
274
     3
283
     0
284
     8
340
11
  0
ENDTAB
  0
TABLE
  2
BLOCK_RECORD
  5
1
330
0
100
AcDbSymbolTable
 70
    32
  0
BLOCK_RECORD
  5
1B
102
{ACAD_XDICTIONARY
360
527
102
}
330
1
100
AcDbSymbolTableRecord
100
AcDbBlockTableRecord
  2
*MODEL_SPACE
340
28E
  0
BLOCK_RECORD
  5
1C
330
1
100
AcDbSymbolTableRecord
100
AcDbBlockTableRecord
  2
*PAPER_SPACE
340
28F
  0
BLOCK_RECORD
  5
206
330
1
100
AcDbSymbolTableRecord
100
AcDbBlockTableRecord
  2
_FILLED
340
0
  0
BLOCK_RECORD
  5
207
330
1
100
AcDbSymbolTableRecord
100
AcDbBlockTableRecord
  2
*D1
340
0
  0
BLOCK_RECORD
  5
208
330
1
100
AcDbSymbolTableRecord
100
AcDbBlockTableRecord
  2
*D2
340
0
  0
BLOCK_RECORD
  5
209
330
1
100
AcDbSymbolTableRecord
100
AcDbBlockTableRecord
  2
*D3
340
0
  0
BLOCK_RECORD
  5
20A
330
1
100
AcDbSymbolTableRecord
100
AcDbBlockTableRecord
  2
*D4
340
0
  0
BLOCK_RECORD
  5
20B
330
1
100
AcDbSymbolTableRecord
100
AcDbBlockTableRecord
  2
*D5
340
0
  0
BLOCK_RECORD
  5
598
330
1
100
AcDbSymbolTableRecord
100
AcDbBlockTableRecord
  2
NULLPUNKT_BL0
340
0
102
{BLKREFS
331
606
331
656
102
}
  0
BLOCK_RECORD
  5
5AA
330
1
100
AcDbSymbolTableRecord
100
AcDbBlockTableRecord
  2
EINFUEGEPUNKT_BL1
340
0
102
{BLKREFS
331
607
331
657
102
}
  0
ENDTAB
  0
ENDSEC
  0
SECTION
  2
BLOCKS
  0
BLOCK
  5
1E
330
1B
100
AcDbEntity
  8
0
100
AcDbBlockBegin
  2
*MODEL_SPACE
 70
     0
 10
0.0
 20
0.0
 30
0.0
  3
*MODEL_SPACE
  1

  0
ENDBLK
  5
1F
330
1B
100
AcDbEntity
  8
0
100
AcDbBlockEnd
  0
BLOCK
  5
20
330
1C
100
AcDbEntity
 67
     1
  8
0
100
AcDbBlockBegin
  2
*PAPER_SPACE
 70
     0
 10
0.0
 20
0.0
 30
0.0
  3
*PAPER_SPACE
  1

  0
ENDBLK
  5
21
330
1C
100
AcDbEntity
 67
     1
  8
0
100
AcDbBlockEnd
  0
BLOCK
  5
23B
330
206
100
AcDbEntity
  8
0
100
AcDbBlockBegin
  2
_FILLED
 70
     0
 10
0.0
 20
0.0
 30
0.0
  3
_FILLED
  1

  0
SOLID
  5
23C
330
206
100
AcDbEntity
  8
0
  6
ByBlock
 62
     0
100
AcDbTrace
 10
0.0
 20
0.0
 30
0.0
 11
-1.0
 21
0.132
 31
0.0
 12
-1.0
 22
-0.132
 32
0.0
 13
-1.0
 23
-0.132
 33
0.0
  0
ENDBLK
  5
23D
330
206
100
AcDbEntity
  8
0
  6
ByBlock
 62
     0
100
AcDbBlockEnd
  0
BLOCK
  5
20C
330
207
100
AcDbEntity
  8
2
  6
Continuous
 62
     7
100
AcDbBlockBegin
  2
*D1
 70
     1
 10
0.0
 20
0.0
 30
0.0
  3
*D1
  1

  0
LINE
  5
507
330
207
100
AcDbEntity
  8
2
370
    -2
100
AcDbLine
 10
40.0
 20
9.715000000000003
 30
0.0
 11
40.0
 21
23.6858327484
 31
0.0
  0
LINE
  5
508
330
207
100
AcDbEntity
  8
2
370
    -2
100
AcDbLine
 10
0.0
 20
9.715000000000003
 30
0.0
 11
0.0000000000000009
 21
23.6858327484
 31
0.0
  0
LINE
  5
509
330
207
100
AcDbEntity
  8
2
370
    -2
100
AcDbLine
 10
36.5
 20
21.6858327484
 30
0.0
 11
3.5
 21
21.6858327484
 31
0.0
  0
SOLID
  5
50A
330
207
100
AcDbEntity
  8
2
100
AcDbTrace
 10
36.5
 20
22.26916608173334
 30
0.0
 11
36.5
 21
21.10249941506667
 31
0.0
 12
40.0
 22
21.6858327484
 32
0.0
 13
40.0
 23
21.6858327484
 33
0.0
  0
SOLID
  5
50B
330
207
100
AcDbEntity
  8
2
100
AcDbTrace
 10
3.5
 20
22.26916608173334
 30
0.0
 11
3.5
 21
21.10249941506667
 31
0.0
 12
0.0000000000000008
 22
21.6858327484
 32
0.0
 13
0.0000000000000008
 23
21.6858327484
 33
0.0
  0
MTEXT
  5
50C
330
207
100
AcDbEntity
  8
2
100
AcDbMText
 10
20.1662798966
 20
24.0608327484
 30
0.0
 40
3.5
 41
0.0
 71
     5
 72
     1
  1
40
 73
     1
 44
1.0
  0
POINT
  5
50D
330
207
100
AcDbEntity
  8
Defpoints
 62
     0
100
AcDbPoint
 10
40.0
 20
9.090000000000003
 30
0.0
  0
POINT
  5
50E
330
207
100
AcDbEntity
  8
Defpoints
 62
     0
100
AcDbPoint
 10
0.0
 20
9.090000000000003
 30
0.0
  0
POINT
  5
50F
330
207
100
AcDbEntity
  8
Defpoints
 62
     0
100
AcDbPoint
 10
0.0000000000000008
 20
21.6858327484
 30
0.0
  0
ENDBLK
  5
214
330
207
100
AcDbEntity
  8
0
  6
ByBlock
 62
     0
100
AcDbBlockEnd
  0
BLOCK
  5
215
330
208
100
AcDbEntity
  8
2
  6
Continuous
 62
     7
100
AcDbBlockBegin
  2
*D2
 70
     1
 10
0.0
 20
0.0
 30
0.0
  3
*D2
  1

  0
LINE
  5
51C
330
208
100
AcDbEntity
  8
SK2
370
    -2
100
AcDbLine
 10
33.125
 20
5.0
 30
0.0
 11
56.30663277123346
 21
4.999999999999992
 31
0.0
  0
LINE
  5
51D
330
208
100
AcDbEntity
  8
SK2
370
    -2
100
AcDbLine
 10
33.125
 20
-5.0
 30
0.0
 11
56.30663277123346
 21
-5.000000000000007
 31
0.0
  0
LINE
  5
51E
330
208
100
AcDbEntity
  8
SK2
370
    -2
100
AcDbLine
 10
54.30663277123347
 20
1.499999999999993
 30
0.0
 11
54.30663277123347
 21
-1.500000000000006
 31
0.0
  0
SOLID
  5
51F
330
208
100
AcDbEntity
  8
SK2
100
AcDbTrace
 10
53.72329943790013
 20
1.499999999999993
 30
0.0
 11
54.8899661045668
 21
1.499999999999993
 31
0.0
 12
54.30663277123347
 22
4.999999999999992
 32
0.0
 13
54.30663277123347
 23
4.999999999999992
 33
0.0
  0
SOLID
  5
520
330
208
100
AcDbEntity
  8
SK2
100
AcDbTrace
 10
53.72329943790013
 20
-1.500000000000006
 30
0.0
 11
54.8899661045668
 21
-1.500000000000006
 31
0.0
 12
54.30663277123347
 22
-5.000000000000007
 32
0.0
 13
54.30663277123347
 23
-5.000000000000007
 33
0.0
  0
MTEXT
  5
521
330
208
100
AcDbEntity
  8
SK2
100
AcDbMText
 10
51.93163277123346
 20
0.0830915347000033
 30
0.0
 40
3.5
 41
0.0
 71
     5
 72
     1
  1
M10
 11
0.0000000000000001
 21
1.0
 31
0.0
 73
     1
 44
1.0
  0
POINT
  5
522
330
208
100
AcDbEntity
  8
Defpoints
 62
     0
100
AcDbPoint
 10
32.5
 20
5.0
 30
0.0
  0
POINT
  5
523
330
208
100
AcDbEntity
  8
Defpoints
 62
     0
100
AcDbPoint
 10
32.5
 20
-5.0
 30
0.0
  0
POINT
  5
524
330
208
100
AcDbEntity
  8
Defpoints
 62
     0
100
AcDbPoint
 10
54.30663277123347
 20
-5.000000000000007
 30
0.0
  0
ENDBLK
  5
21D
330
208
100
AcDbEntity
  8
0
  6
ByBlock
 62
     0
100
AcDbBlockEnd
  0
BLOCK
  5
21E
330
209
100
AcDbEntity
  8
2
  6
Continuous
 62
     7
100
AcDbBlockBegin
  2
*D3
 70
     1
 10
0.0
 20
0.0
 30
0.0
  3
*D3
  1

  0
LINE
  5
4F4
330
209
100
AcDbEntity
  8
SK2
370
    -2
100
AcDbLine
 10
-0.7072318553000088
 20
-8.89
 30
0.0
 11
-78.625
 21
-8.889999999999977
 31
0.0
  0
LINE
  5
4F5
330
209
100
AcDbEntity
  8
SK2
370
    -2
100
AcDbLine
 10
-1.341169955600008
 20
8.89
 30
0.0
 11
-78.625
 21
8.890000000000023
 31
0.0
  0
LINE
  5
4F6
330
209
100
AcDbEntity
  8
SK2
370
    -2
100
AcDbLine
 10
-76.625
 20
5.390000000000022
 30
0.0
 11
-76.625
 21
-5.389999999999978
 31
0.0
  0
LINE
  5
4F7
330
209
100
AcDbEntity
  8
SK2
370
    -2
100
AcDbLine
 10
-76.625
 20
-8.889999999999977
 30
0.0
 11
-76.625
 21
-28.67104619883332
 31
0.0
  0
SOLID
  5
4F8
330
209
100
AcDbEntity
  8
SK2
100
AcDbTrace
 10
-77.20833333333333
 20
5.390000000000022
 30
0.0
 11
-76.04166666666667
 21
5.390000000000022
 31
0.0
 12
-76.625
 22
8.890000000000023
 32
0.0
 13
-76.625
 23
8.890000000000023
 33
0.0
  0
SOLID
  5
4F9
330
209
100
AcDbEntity
  8
SK2
100
AcDbTrace
 10
-77.20833333333333
 20
-5.389999999999978
 30
0.0
 11
-76.04166666666667
 21
-5.389999999999978
 31
0.0
 12
-76.625
 22
-8.889999999999977
 32
0.0
 13
-76.625
 23
-8.889999999999977
 33
0.0
  0
MTEXT
  5
4FA
330
209
100
AcDbEntity
  8
SK2
100
AcDbMText
 10
-79.0
 20
-21.51271286549999
 30
0.0
 40
3.5
 41
0.0
 71
     5
 72
     1
  1
%%c17.78
 11
0.0000000000000001
 21
1.0
 31
0.0
 73
     1
 44
1.0
  0
POINT
  5
4FB
330
209
100
AcDbEntity
  8
Defpoints
 62
     0
100
AcDbPoint
 10
-0.0822318553000088
 20
-8.89
 30
0.0
  0
POINT
  5
4FC
330
209
100
AcDbEntity
  8
Defpoints
 62
     0
100
AcDbPoint
 10
-0.7161699556000088
 20
8.89
 30
0.0
  0
POINT
  5
4FD
330
209
100
AcDbEntity
  8
Defpoints
 62
     0
100
AcDbPoint
 10
-76.625
 20
8.890000000000023
 30
0.0
  0
ENDBLK
  5
228
330
209
100
AcDbEntity
  8
0
  6
ByBlock
 62
     0
100
AcDbBlockEnd
  0
BLOCK
  5
229
330
20A
100
AcDbEntity
  8
2
  6
Continuous
 62
     7
100
AcDbBlockBegin
  2
*D4
 70
     1
 10
0.0
 20
0.0
 30
0.0
  3
*D4
  1

  0
LINE
  5
513
330
20A
100
AcDbEntity
  8
SK2
370
    -2
100
AcDbLine
 10
40.825
 20
8.89
 30
0.0
 11
63.25346974023216
 21
8.889999999999993
 31
0.0
  0
LINE
  5
514
330
20A
100
AcDbEntity
  8
SK2
370
    -2
100
AcDbLine
 10
40.825
 20
-8.89
 30
0.0
 11
63.25346974023216
 21
-8.890000000000007
 31
0.0
  0
LINE
  5
515
330
20A
100
AcDbEntity
  8
SK2
370
    -2
100
AcDbLine
 10
61.25346974023216
 20
5.389999999999994
 30
0.0
 11
61.25346974023216
 21
-5.390000000000006
 31
0.0
  0
SOLID
  5
516
330
20A
100
AcDbEntity
  8
SK2
100
AcDbTrace
 10
60.67013640689882
 20
5.389999999999994
 30
0.0
 11
61.83680307356549
 21
5.389999999999994
 31
0.0
 12
61.25346974023216
 22
8.889999999999993
 32
0.0
 13
61.25346974023216
 23
8.889999999999993
 33
0.0
  0
SOLID
  5
517
330
20A
100
AcDbEntity
  8
SK2
100
AcDbTrace
 10
60.67013640689882
 20
-5.390000000000006
 30
0.0
 11
61.83680307356549
 21
-5.390000000000006
 31
0.0
 12
61.25346974023216
 22
-8.890000000000007
 32
0.0
 13
61.25346974023216
 23
-8.890000000000007
 33
0.0
  0
MTEXT
  5
518
330
20A
100
AcDbEntity
  8
SK2
100
AcDbMText
 10
58.87846974023216
 20
-0.3278739484999843
 30
0.0
 40
3.5
 41
0.0
 71
     5
 72
     1
  1
%%c18
 11
0.0000000000000001
 21
1.0
 31
0.0
 73
     1
 44
1.0
  0
POINT
  5
519
330
20A
100
AcDbEntity
  8
Defpoints
 62
     0
100
AcDbPoint
 10
40.2
 20
8.89
 30
0.0
  0
POINT
  5
51A
330
20A
100
AcDbEntity
  8
Defpoints
 62
     0
100
AcDbPoint
 10
40.2
 20
-8.89
 30
0.0
  0
POINT
  5
51B
330
20A
100
AcDbEntity
  8
Defpoints
 62
     0
100
AcDbPoint
 10
61.25346974023216
 20
-8.890000000000007
 30
0.0
  0
ENDBLK
  5
231
330
20A
100
AcDbEntity
  8
0
  6
ByBlock
 62
     0
100
AcDbBlockEnd
  0
BLOCK
  5
232
330
20B
100
AcDbEntity
  8
2
  6
Continuous
 62
     7
100
AcDbBlockBegin
  2
*D5
 70
     1
 10
0.0
 20
0.0
 30
0.0
  3
*D5
  1

  0
LINE
  5
4E2
330
20B
100
AcDbEntity
  8
SK2
370
    -2
100
AcDbLine
 10
-64.0
 20
7.924999999999997
 30
0.0
 11
-64.0
 21
33.68583274839999
 31
0.0
  0
LINE
  5
4E3
330
20B
100
AcDbEntity
  8
SK2
370
    -2
100
AcDbLine
 10
40.0
 20
9.715000000000003
 30
0.0
 11
40.0
 21
33.68583274839999
 31
0.0
  0
LINE
  5
4E4
330
20B
100
AcDbEntity
  8
SK2
370
    -2
100
AcDbLine
 10
-60.5
 20
31.68583274839999
 30
0.0
 11
36.5
 21
31.68583274839999
 31
0.0
  0
SOLID
  5
4E5
330
20B
100
AcDbEntity
  8
SK2
100
AcDbTrace
 10
-60.5
 20
32.26916608173333
 30
0.0
 11
-60.5
 21
31.10249941506666
 31
0.0
 12
-64.0
 22
31.68583274839999
 32
0.0
 13
-64.0
 23
31.68583274839999
 33
0.0
  0
SOLID
  5
4E6
330
20B
100
AcDbEntity
  8
SK2
100
AcDbTrace
 10
36.5
 20
32.26916608173333
 30
0.0
 11
36.5
 21
31.10249941506666
 31
0.0
 12
40.0
 22
31.68583274839999
 32
0.0
 13
40.0
 23
31.68583274839999
 33
0.0
  0
MTEXT
  5
4E7
330
20B
100
AcDbEntity
  8
SK2
100
AcDbMText
 10
-10.7387106941
 20
34.06083274839999
 30
0.0
 40
3.5
 41
0.0
 71
     5
 72
     1
  1
104
 73
     1
 44
1.0
  0
POINT
  5
4E8
330
20B
100
AcDbEntity
  8
Defpoints
 62
     0
100
AcDbPoint
 10
-64.0
 20
7.299999999999997
 30
0.0
  0
POINT
  5
4E9
330
20B
100
AcDbEntity
  8
Defpoints
 62
     0
100
AcDbPoint
 10
40.0
 20
9.090000000000003
 30
0.0
  0
POINT
  5
4EA
330
20B
100
AcDbEntity
  8
Defpoints
 62
     0
100
AcDbPoint
 10
40.0
 20
31.68583274839999
 30
0.0
  0
ENDBLK
  5
23A
330
20B
100
AcDbEntity
  8
0
  6
ByBlock
 62
     0
100
AcDbBlockEnd
  0
BLOCK
  5
599
330
598
100
AcDbEntity
  8
1
  6
Continuous
 62
     3
100
AcDbBlockBegin
  2
NULLPUNKT_BL0
 70
     0
 10
160.23105888
 20
104.9111997364
 30
0.0
  3
NULLPUNKT_BL0
  1

  0
LINE
  5
59A
330
598
100
AcDbEntity
  8
1
  6
Continuous
 62
     4
100
AcDbLine
 10
160.23105888
 20
104.9111997364
 30
0.0
 11
161.73105588
 21
104.9111997364
 31
0.0
  0
ARC
  5
59B
330
598
100
AcDbEntity
  8
1
  6
Continuous
 62
     4
100
AcDbCircle
 10
160.23105888
 20
104.9111997364
 30
0.0
 40
1.499997
100
AcDbArc
 50
180.0
 51
270.0
  0
LINE
  5
59C
330
598
100
AcDbEntity
  8
1
  6
Continuous
 62
     4
100
AcDbLine
 10
160.23105888
 20
104.9111997364
 30
0.0
 11
160.23105888
 21
103.4112027364
 31
0.0
  0
ARC
  5
59D
330
598
100
AcDbEntity
  8
1
  6
Continuous
 62
     4
100
AcDbCircle
 10
160.23105888
 20
104.9111997364
 30
0.0
 40
1.499997
100
AcDbArc
 50
270.0
 51
360.0
  0
ARC
  5
59E
330
598
100
AcDbEntity
  8
1
  6
Continuous
 62
     4
100
AcDbCircle
 10
160.23105888
 20
104.9111997364
 30
0.0
 40
1.499997
100
AcDbArc
 50
0.0
 51
90.0
  0
ARC
  5
59F
330
598
100
AcDbEntity
  8
1
  6
Continuous
 62
     4
100
AcDbCircle
 10
160.23105888
 20
104.9111997364
 30
0.0
 40
1.499997
100
AcDbArc
 50
90.0
 51
180.0
  0
LINE
  5
5A0
330
598
100
AcDbEntity
  8
1
  6
Continuous
 62
     4
100
AcDbLine
 10
160.23105888
 20
106.4111967364
 30
0.0
 11
160.23105888
 21
104.9111997364
 31
0.0
  0
LINE
  5
5A1
330
598
100
AcDbEntity
  8
1
  6
Continuous
 62
     4
100
AcDbLine
 10
158.73106188
 20
104.9111997364
 30
0.0
 11
160.23105888
 21
104.9111997364
 31
0.0
  0
LWPOLYLINE
  5
5A2
330
598
100
AcDbEntity
  8
1
  6
Continuous
 62
     4
100
AcDbPolyline
 90
       18
 70
     0
 43
0.0
 10
160.23105888
 20
104.9111997364
 10
158.73106188
 20
104.9111997364
 10
158.7392790205
 20
105.0679921177
 10
158.7638404133
 20
105.2230666489
 10
158.8044769587
 20
105.3747243009
 10
158.8607434342
 20
105.5213034808
 10
158.9320233724
 20
105.6611982364
 10
159.0175358155
 20
105.7928758515
 10
159.1163438712
 20
105.9148936385
 10
159.2273649779
 20
106.0259147452
 10
159.3493827649
 20
106.1247228009
 10
159.48106038
 20
106.210235244
 10
159.6209551356
 20
106.2815151822
 10
159.7675343155
 20
106.3377816577
 10
159.9191919675
 20
106.3784182031
 10
160.0742664987
 20
106.4029795959
 10
160.23105888
 20
106.4111967364
 10
160.23105888
 20
104.9111997364
  0
HATCH
  5
5A3
330
598
100
AcDbEntity
  8
1
  6
Continuous
 62
     4
100
AcDbHatch
 10
0.0
 20
0.0
 30
0.0
210
0.0
220
0.0
230
1.0
  2
SOLID
 70
     1
 71
     0
 91
        1
 92
        1
 93
       17
 72
     1
 10
160.23105888
 20
104.9111997364
 11
158.73106188
 21
104.9111997364
 72
     1
 10
158.73106188
 20
104.9111997364
 11
158.7392790205
 21
105.0679921177
 72
     1
 10
158.7392790205
 20
105.0679921177
 11
158.7638404133
 21
105.2230666489
 72
     1
 10
158.7638404133
 20
105.2230666489
 11
158.8044769587
 21
105.3747243009
 72
     1
 10
158.8044769587
 20
105.3747243009
 11
158.8607434342
 21
105.5213034808
 72
     1
 10
158.8607434342
 20
105.5213034808
 11
158.9320233724
 21
105.6611982364
 72
     1
 10
158.9320233724
 20
105.6611982364
 11
159.0175358155
 21
105.7928758515
 72
     1
 10
159.0175358155
 20
105.7928758515
 11
159.1163438712
 21
105.9148936385
 72
     1
 10
159.1163438712
 20
105.9148936385
 11
159.2273649779
 21
106.0259147452
 72
     1
 10
159.2273649779
 20
106.0259147452
 11
159.3493827649
 21
106.1247228009
 72
     1
 10
159.3493827649
 20
106.1247228009
 11
159.48106038
 21
106.210235244
 72
     1
 10
159.48106038
 20
106.210235244
 11
159.6209551356
 21
106.2815151822
 72
     1
 10
159.6209551356
 20
106.2815151822
 11
159.7675343155
 21
106.3377816577
 72
     1
 10
159.7675343155
 20
106.3377816577
 11
159.9191919675
 21
106.3784182031
 72
     1
 10
159.9191919675
 20
106.3784182031
 11
160.0742664987
 21
106.4029795959
 72
     1
 10
160.0742664987
 20
106.4029795959
 11
160.23105888
 21
106.4111967364
 72
     1
 10
160.23105888
 20
106.4111967364
 11
160.23105888
 21
104.9111997364
 97
        0
 75
     0
 76
     1
 98
        1
 10
0.0
 20
0.0
450
        0
451
        0
460
0.0
461
0.0
452
        0
462
0.0
453
        0
470

  0
LWPOLYLINE
  5
5A4
330
598
100
AcDbEntity
  8
1
  6
Continuous
 62
     4
100
AcDbPolyline
 90
       18
 70
     0
 43
0.0
 10
160.23105888
 20
104.9111997364
 10
161.73105588
 20
104.9111997364
 10
161.7228387395
 20
104.7544073551
 10
161.6982773467
 20
104.5993328239
 10
161.6576408013
 20
104.4476751719
 10
161.6013743258
 20
104.301095992
 10
161.5300943876
 20
104.1612012364
 10
161.4445819445
 20
104.0295236213
 10
161.3457738888
 20
103.9075058343
 10
161.2347527821
 20
103.7964847276
 10
161.1127349951
 20
103.6976766719
 10
160.98105738
 20
103.6121642288
 10
160.8411626244
 20
103.5408842906
 10
160.6945834445
 20
103.4846178151
 10
160.5429257925
 20
103.4439812697
 10
160.3878512613
 20
103.4194198769
 10
160.23105888
 20
103.4112027364
 10
160.23105888
 20
104.9111997364
  0
HATCH
  5
5A5
330
598
100
AcDbEntity
  8
1
  6
Continuous
 62
     4
100
AcDbHatch
 10
0.0
 20
0.0
 30
0.0
210
0.0
220
0.0
230
1.0
  2
SOLID
 70
     1
 71
     0
 91
        1
 92
        1
 93
       17
 72
     1
 10
160.23105888
 20
104.9111997364
 11
161.73105588
 21
104.9111997364
 72
     1
 10
161.73105588
 20
104.9111997364
 11
161.7228387395
 21
104.7544073551
 72
     1
 10
161.7228387395
 20
104.7544073551
 11
161.6982773467
 21
104.5993328239
 72
     1
 10
161.6982773467
 20
104.5993328239
 11
161.6576408013
 21
104.4476751719
 72
     1
 10
161.6576408013
 20
104.4476751719
 11
161.6013743258
 21
104.301095992
 72
     1
 10
161.6013743258
 20
104.301095992
 11
161.5300943876
 21
104.1612012364
 72
     1
 10
161.5300943876
 20
104.1612012364
 11
161.4445819445
 21
104.0295236213
 72
     1
 10
161.4445819445
 20
104.0295236213
 11
161.3457738888
 21
103.9075058343
 72
     1
 10
161.3457738888
 20
103.9075058343
 11
161.2347527821
 21
103.7964847276
 72
     1
 10
161.2347527821
 20
103.7964847276
 11
161.1127349951
 21
103.6976766719
 72
     1
 10
161.1127349951
 20
103.6976766719
 11
160.98105738
 21
103.6121642288
 72
     1
 10
160.98105738
 20
103.6121642288
 11
160.8411626244
 21
103.5408842906
 72
     1
 10
160.8411626244
 20
103.5408842906
 11
160.6945834445
 21
103.4846178151
 72
     1
 10
160.6945834445
 20
103.4846178151
 11
160.5429257925
 21
103.4439812697
 72
     1
 10
160.5429257925
 20
103.4439812697
 11
160.3878512613
 21
103.4194198769
 72
     1
 10
160.3878512613
 20
103.4194198769
 11
160.23105888
 21
103.4112027364
 72
     1
 10
160.23105888
 20
103.4112027364
 11
160.23105888
 21
104.9111997364
 97
        0
 75
     0
 76
     1
 98
        1
 10
0.0
 20
0.0
450
        0
451
        0
460
0.0
461
0.0
452
        0
462
0.0
453
        0
470

  0
LINE
  5
5A6
330
598
100
AcDbEntity
  8
1
  6
Continuous
 62
     4
100
AcDbLine
 10
160.23105888
 20
103.4112027364
 30
0.0
 11
160.23105888
 21
104.9111997364
 31
0.0
  0
ARC
  5
5A7
330
598
100
AcDbEntity
  8
1
  6
Continuous
 62
     4
100
AcDbCircle
 10
160.23105888
 20
104.9111997364
 30
0.0
 40
1.499997
100
AcDbArc
 50
270.0
 51
360.0
  0
LINE
  5
5A8
330
598
100
AcDbEntity
  8
1
  6
Continuous
 62
     4
100
AcDbLine
 10
161.73105588
 20
104.9111997364
 30
0.0
 11
160.23105888
 21
104.9111997364
 31
0.0
  0
ENDBLK
  5
5A9
330
598
100
AcDbEntity
  8
0
  6
ByBlock
 62
     0
100
AcDbBlockEnd
  0
BLOCK
  5
5AB
330
5AA
100
AcDbEntity
  8
1
  6
Continuous
 62
     3
100
AcDbBlockBegin
  2
EINFUEGEPUNKT_BL1
 70
     0
 10
185.23105888
 20
104.9111997364
 30
0.0
  3
EINFUEGEPUNKT_BL1
  1

  0
LINE
  5
5AC
330
5AA
100
AcDbEntity
  8
1
  6
Continuous
 62
     4
100
AcDbLine
 10
185.23105888
 20
104.9111997364
 30
0.0
 11
185.23105888
 21
104.4112007364
 31
0.0
  0
ARC
  5
5AD
330
5AA
100
AcDbEntity
  8
1
  6
Continuous
 62
     4
100
AcDbCircle
 10
185.23105888
 20
104.9111997364
 30
0.0
 40
0.4999990000000001
100
AcDbArc
 50
90.0
 51
180.0
  0
LINE
  5
5AE
330
5AA
100
AcDbEntity
  8
1
  6
Continuous
 62
     4
100
AcDbLine
 10
185.23105888
 20
104.9111997364
 30
0.0
 11
184.73105988
 21
104.9111997364
 31
0.0
  0
ARC
  5
5AF
330
5AA
100
AcDbEntity
  8
1
  6
Continuous
 62
     4
100
AcDbCircle
 10
185.23105888
 20
104.9111997364
 30
0.0
 40
0.4999990000000001
100
AcDbArc
 50
180.0
 51
270.0
  0
ARC
  5
5B0
330
5AA
100
AcDbEntity
  8
1
  6
Continuous
 62
     4
100
AcDbCircle
 10
185.23105888
 20
104.9111997364
 30
0.0
 40
0.4999990000000001
100
AcDbArc
 50
270.0
 51
360.0
  0
ARC
  5
5B1
330
5AA
100
AcDbEntity
  8
1
  6
Continuous
 62
     4
100
AcDbCircle
 10
185.23105888
 20
104.9111997364
 30
0.0
 40
0.4999990000000001
100
AcDbArc
 50
0.0
 51
90.0
  0
LINE
  5
5B2
330
5AA
100
AcDbEntity
  8
1
  6
Continuous
 62
     4
100
AcDbLine
 10
185.73105788
 20
104.9111997364
 30
0.0
 11
185.23105888
 21
104.9111997364
 31
0.0
  0
LINE
  5
5B3
330
5AA
100
AcDbEntity
  8
1
  6
Continuous
 62
     4
100
AcDbLine
 10
185.23105888
 20
105.4111987364
 30
0.0
 11
185.23105888
 21
104.9111997364
 31
0.0
  0
LWPOLYLINE
  5
5B4
330
5AA
100
AcDbEntity
  8
1
  6
Continuous
 62
     4
100
AcDbPolyline
 90
       18
 70
     0
 43
0.0
 10
185.23105888
 20
104.9111997364
 10
185.23105888
 20
105.4111987364
 10
185.2833230071
 20
105.4084596896
 10
185.3350145175
 20
105.4002725586
 10
185.3855670682
 20
105.3867270435
 10
185.4344267948
 20
105.3679715517
 10
185.48105838
 20
105.3442115723
 10
185.5249509184
 20
105.3157074246
 10
185.565623514
 20
105.282771406
 10
185.6026305496
 20
105.2457643704
 10
185.6355665682
 20
105.2050917748
 10
185.6640707159
 20
105.1611992364
 10
185.6878306953
 20
105.1145676512
 10
185.7065861871
 20
105.0657079246
 10
185.7201317022
 20
105.0151553739
 10
185.7283188332
 20
104.9634638635
 10
185.73105788
 20
104.9111997364
 10
185.23105888
 20
104.9111997364
  0
HATCH
  5
5B5
330
5AA
100
AcDbEntity
  8
1
  6
Continuous
 62
     4
100
AcDbHatch
 10
0.0
 20
0.0
 30
0.0
210
0.0
220
0.0
230
1.0
  2
SOLID
 70
     1
 71
     0
 91
        1
 92
        1
 93
       17
 72
     1
 10
185.23105888
 20
104.9111997364
 11
185.23105888
 21
105.4111987364
 72
     1
 10
185.23105888
 20
105.4111987364
 11
185.2833230071
 21
105.4084596896
 72
     1
 10
185.2833230071
 20
105.4084596896
 11
185.3350145175
 21
105.4002725586
 72
     1
 10
185.3350145175
 20
105.4002725586
 11
185.3855670682
 21
105.3867270435
 72
     1
 10
185.3855670682
 20
105.3867270435
 11
185.4344267948
 21
105.3679715517
 72
     1
 10
185.4344267948
 20
105.3679715517
 11
185.48105838
 21
105.3442115723
 72
     1
 10
185.48105838
 20
105.3442115723
 11
185.5249509184
 21
105.3157074246
 72
     1
 10
185.5249509184
 20
105.3157074246
 11
185.565623514
 21
105.282771406
 72
     1
 10
185.565623514
 20
105.282771406
 11
185.6026305496
 21
105.2457643704
 72
     1
 10
185.6026305496
 20
105.2457643704
 11
185.6355665682
 21
105.2050917748
 72
     1
 10
185.6355665682
 20
105.2050917748
 11
185.6640707159
 21
105.1611992364
 72
     1
 10
185.6640707159
 20
105.1611992364
 11
185.6878306953
 21
105.1145676512
 72
     1
 10
185.6878306953
 20
105.1145676512
 11
185.7065861871
 21
105.0657079246
 72
     1
 10
185.7065861871
 20
105.0657079246
 11
185.7201317022
 21
105.0151553739
 72
     1
 10
185.7201317022
 20
105.0151553739
 11
185.7283188332
 21
104.9634638635
 72
     1
 10
185.7283188332
 20
104.9634638635
 11
185.73105788
 21
104.9111997364
 72
     1
 10
185.73105788
 20
104.9111997364
 11
185.23105888
 21
104.9111997364
 97
        0
 75
     0
 76
     1
 98
        1
 10
0.0
 20
0.0
450
        0
451
        0
460
0.0
461
0.0
452
        0
462
0.0
453
        0
470

  0
LWPOLYLINE
  5
5B6
330
5AA
100
AcDbEntity
  8
1
  6
Continuous
 62
     4
100
AcDbPolyline
 90
       18
 70
     0
 43
0.0
 10
185.23105888
 20
104.9111997364
 10
185.23105888
 20
104.4112007364
 10
185.1787947529
 20
104.4139397832
 10
185.1271032425
 20
104.4221269142
 10
185.0765506918
 20
104.4356724293
 10
185.0276909652
 20
104.4544279211
 10
184.98105938
 20
104.4781879005
 10
184.9371668416
 20
104.5066920482
 10
184.896494246
 20
104.5396280668
 10
184.8594872104
 20
104.5766351024
 10
184.8265511918
 20
104.617307698
 10
184.7980470441
 20
104.6612002364
 10
184.7742870647
 20
104.7078318216
 10
184.7555315729
 20
104.7566915482
 10
184.7419860578
 20
104.8072440989
 10
184.7337989268
 20
104.8589356093
 10
184.73105988
 20
104.9111997364
 10
185.23105888
 20
104.9111997364
  0
HATCH
  5
5B7
330
5AA
100
AcDbEntity
  8
1
  6
Continuous
 62
     4
100
AcDbHatch
 10
0.0
 20
0.0
 30
0.0
210
0.0
220
0.0
230
1.0
  2
SOLID
 70
     1
 71
     0
 91
        1
 92
        1
 93
       17
 72
     1
 10
185.23105888
 20
104.9111997364
 11
185.23105888
 21
104.4112007364
 72
     1
 10
185.23105888
 20
104.4112007364
 11
185.1787947529
 21
104.4139397832
 72
     1
 10
185.1787947529
 20
104.4139397832
 11
185.1271032425
 21
104.4221269142
 72
     1
 10
185.1271032425
 20
104.4221269142
 11
185.0765506918
 21
104.4356724293
 72
     1
 10
185.0765506918
 20
104.4356724293
 11
185.0276909652
 21
104.4544279211
 72
     1
 10
185.0276909652
 20
104.4544279211
 11
184.98105938
 21
104.4781879005
 72
     1
 10
184.98105938
 20
104.4781879005
 11
184.9371668416
 21
104.5066920482
 72
     1
 10
184.9371668416
 20
104.5066920482
 11
184.896494246
 21
104.5396280668
 72
     1
 10
184.896494246
 20
104.5396280668
 11
184.8594872104
 21
104.5766351024
 72
     1
 10
184.8594872104
 20
104.5766351024
 11
184.8265511918
 21
104.617307698
 72
     1
 10
184.8265511918
 20
104.617307698
 11
184.7980470441
 21
104.6612002364
 72
     1
 10
184.7980470441
 20
104.6612002364
 11
184.7742870647
 21
104.7078318216
 72
     1
 10
184.7742870647
 20
104.7078318216
 11
184.7555315729
 21
104.7566915482
 72
     1
 10
184.7555315729
 20
104.7566915482
 11
184.7419860578
 21
104.8072440989
 72
     1
 10
184.7419860578
 20
104.8072440989
 11
184.7337989268
 21
104.8589356093
 72
     1
 10
184.7337989268
 20
104.8589356093
 11
184.73105988
 21
104.9111997364
 72
     1
 10
184.73105988
 20
104.9111997364
 11
185.23105888
 21
104.9111997364
 97
        0
 75
     0
 76
     1
 98
        1
 10
0.0
 20
0.0
450
        0
451
        0
460
0.0
461
0.0
452
        0
462
0.0
453
        0
470

  0
LINE
  5
5B8
330
5AA
100
AcDbEntity
  8
1
  6
Continuous
 62
     4
100
AcDbLine
 10
184.73105988
 20
104.9111997364
 30
0.0
 11
185.23105888
 21
104.9111997364
 31
0.0
  0
ARC
  5
5B9
330
5AA
100
AcDbEntity
  8
1
  6
Continuous
 62
     4
100
AcDbCircle
 10
185.23105888
 20
104.9111997364
 30
0.0
 40
0.4999990000000001
100
AcDbArc
 50
180.0
 51
270.0
  0
LINE
  5
5BA
330
5AA
100
AcDbEntity
  8
1
  6
Continuous
 62
     4
100
AcDbLine
 10
185.23105888
 20
104.4112007364
 30
0.0
 11
185.23105888
 21
104.9111997364
 31
0.0
  0
ENDBLK
  5
5BB
330
5AA
100
AcDbEntity
  8
0
  6
ByBlock
 62
     0
100
AcDbBlockEnd
  0
ENDSEC
  0
SECTION
  2
ENTITIES
  0
DIMENSION
  5
23E
330
1B
100
AcDbEntity
  8
2
100
AcDbDimension
  2
*D1
 10
0.0000000000000008
 20
21.6858327484
 30
0.0
 11
20.1662798966
 21
21.6858327484
 31
0.0
 70
   160
  1
40
 71
     5
 42
40.0
  3
ISO-25
100
AcDbAlignedDimension
 13
40.0
 23
9.090000000000003
 33
0.0
 14
0.0
 24
9.090000000000003
 34
0.0
 50
180.0
100
AcDbRotatedDimension
  0
DIMENSION
  5
23F
330
1B
100
AcDbEntity
  8
SK2
100
AcDbDimension
  2
*D2
 10
54.30663277123347
 20
-5.000000000000007
 30
0.0
 11
54.30663277123347
 21
0.083091534700003
 31
0.0
 70
   160
  1
M10
 71
     5
 42
10.0
  3
ISO-25
100
AcDbAlignedDimension
 13
32.5
 23
5.0
 33
0.0
 14
32.5
 24
-5.0
 34
0.0
 50
270.0
100
AcDbRotatedDimension
  0
DIMENSION
  5
240
330
1B
100
AcDbEntity
  8
SK2
100
AcDbDimension
  2
*D3
 10
-76.625
 20
8.890000000000023
 30
0.0
 11
-76.625
 21
-21.51271286549999
 31
0.0
 70
   160
  1
%%c17.78
 71
     5
 42
17.78
  3
ISO-25
100
AcDbAlignedDimension
 13
-0.0822318553000088
 23
-8.89
 33
0.0
 14
-0.7161699556000088
 24
8.89
 34
0.0
 50
90.0
100
AcDbRotatedDimension
  0
DIMENSION
  5
241
330
1B
100
AcDbEntity
  8
SK2
100
AcDbDimension
  2
*D4
 10
61.25346974023216
 20
-8.890000000000007
 30
0.0
 11
61.25346974023216
 21
-0.3278739484999846
 31
0.0
 70
   160
  1
%%c18
 71
     5
 42
17.78
  3
ISO-25
100
AcDbAlignedDimension
 13
40.2
 23
8.89
 33
0.0
 14
40.2
 24
-8.89
 34
0.0
 50
270.0
100
AcDbRotatedDimension
  0
DIMENSION
  5
242
330
1B
100
AcDbEntity
  8
SK2
100
AcDbDimension
  2
*D5
 10
40.0
 20
31.68583274839999
 30
0.0
 11
-10.7387106941
 21
31.68583274839999
 31
0.0
 70
   160
  1
104
 71
     5
 42
104.0
  3
ISO-25
100
AcDbAlignedDimension
 13
-64.0
 23
7.299999999999997
 33
0.0
 14
40.0
 24
9.090000000000003
 34
0.0
100
AcDbRotatedDimension
  0
TEXT
  5
243
330
1B
100
AcDbEntity
  8
6
100
AcDbText
 10
-61.74342849350001
 20
-19.36421933379999
 30
0.0
 40
5.0
  1
MT2MOD10SA040
 41
0.8
100
AcDbText
  0
LINE
  5
244
330
1B
100
AcDbEntity
  8
SK1
100
AcDbLine
 10
-64.0
 20
6.799999999999997
 30
0.0
 11
-64.0
 21
-6.799999999999997
 31
0.0
  0
LINE
  5
245
330
1B
100
AcDbEntity
  8
SK1
100
AcDbLine
 10
-59.00000000000001
 20
7.0
 30
0.0
 11
-59.00000000000001
 21
-7.0
 31
0.0
  0
LINE
  5
246
330
1B
100
AcDbEntity
  8
SK3
100
AcDbLine
 10
-58.87500000000001
 20
4.25
 30
0.0
 11
-58.87500000000001
 21
-4.25
 31
0.0
  0
LINE
  5
247
330
1B
100
AcDbEntity
  8
SK1
100
AcDbLine
 10
-58.5255347793
 20
7.474465220600009
 30
0.0
 11
-58.5255347793
 21
-7.474465220699997
 31
0.0
  0
LINE
  5
248
330
1B
100
AcDbEntity
  8
SK3
100
AcDbLine
 10
-40.0
 20
5.0
 30
0.0
 11
-40.0
 21
-5.0
 31
0.0
  0
LINE
  5
249
330
1B
100
AcDbEntity
  8
SK3
100
AcDbLine
 10
-30.5
 20
4.25
 30
0.0
 11
-30.5
 21
-4.25
 31
0.0
  0
LINE
  5
24A
330
1B
100
AcDbEntity
  8
SK1
100
AcDbLine
 10
-58.5255347793
 20
7.474465220600009
 30
0.0
 11
-59.00000000000001
 21
7.0
 31
0.0
  0
LINE
  5
24B
330
1B
100
AcDbEntity
  8
SK1
100
AcDbLine
 10
-58.5255347793
 20
-7.474465220699997
 30
0.0
 11
-59.00000000000001
 21
-7.0
 31
0.0
  0
LINE
  5
24C
330
1B
100
AcDbEntity
  8
SK3
100
AcDbLine
 10
-28.2402349154
 20
0.0
 30
0.0
 11
-30.5
 21
-4.25
 31
0.0
  0
LINE
  5
24D
330
1B
100
AcDbEntity
  8
SK3
100
AcDbLine
 10
-58.87500000000001
 20
-4.25
 30
0.0
 11
-59.00000000000001
 21
-4.375
 31
0.0
  0
LINE
  5
24E
330
1B
100
AcDbEntity
  8
SK3
100
AcDbLine
 10
-58.87500000000001
 20
4.25
 30
0.0
 11
-59.00000000000001
 21
4.375
 31
0.0
  0
LINE
  5
24F
330
1B
100
AcDbEntity
  8
SK3
100
AcDbLine
 10
-28.2402349154
 20
0.0
 30
0.0
 11
-30.5
 21
4.25
 31
0.0
  0
LINE
  5
250
330
1B
100
AcDbEntity
  8
NOCUT
100
AcDbLine
 10
0.0
 20
8.935972128700001
 30
0.0
 11
0.0
 21
0.0
 31
0.0
  0
LINE
  5
251
330
1B
100
AcDbEntity
  8
1
100
AcDbLine
 10
5.0
 20
9.060832748400002
 30
0.0
 11
5.0
 21
-9.060832748399988
 31
0.0
  0
LINE
  5
252
330
1B
100
AcDbEntity
  8
1
100
AcDbLine
 10
8.5
 20
8.89
 30
0.0
 11
8.5
 21
-8.89
 31
0.0
  0
LINE
  5
253
330
1B
100
AcDbEntity
  8
SK3
100
AcDbLine
 10
15.0
 20
5.0
 30
0.0
 11
15.0
 21
-5.0
 31
0.0
  0
LINE
  5
254
330
1B
100
AcDbEntity
  8
SK3
100
AcDbLine
 10
5.0
 20
4.25
 30
0.0
 11
2.740234915499982
 21
0.0
 31
0.0
  0
LINE
  5
255
330
1B
100
AcDbEntity
  8
SK3
100
AcDbLine
 10
5.0
 20
-4.25
 30
0.0
 11
2.740234915499982
 21
0.0
 31
0.0
  0
LINE
  5
256
330
1B
100
AcDbEntity
  8
SK3
100
AcDbLine
 10
32.0
 20
-5.549999999999997
 30
0.0
 11
32.0
 21
5.549999999999997
 31
0.0
  0
LINE
  5
257
330
1B
100
AcDbEntity
  8
SK3
100
AcDbLine
 10
34.0
 20
-5.549999999999997
 30
0.0
 11
34.0
 21
5.549999999999997
 31
0.0
  0
LINE
  5
258
330
1B
100
AcDbEntity
  8
1
100
AcDbLine
 10
39.7
 20
8.89
 30
0.0
 11
39.7
 21
-8.89
 31
0.0
  0
LINE
  5
259
330
1B
100
AcDbEntity
  8
1
100
AcDbLine
 10
40.0
 20
8.590000000000003
 30
0.0
 11
40.0
 21
-8.590000000000003
 31
0.0
  0
LINE
  5
25A
330
1B
100
AcDbEntity
  8
NOCUT
100
AcDbLine
 10
40.0
 20
8.590000000000003
 30
0.0
 11
40.0
 21
0.0000000020000073
 31
0.0
  0
LINE
  5
25B
330
1B
100
AcDbEntity
  8
1
100
AcDbLine
 10
40.0
 20
-8.590000000000003
 30
0.0
 11
39.7
 21
-8.89
 31
0.0
  0
LINE
  5
25C
330
1B
100
AcDbEntity
  8
1
100
AcDbLine
 10
5.0
 20
-9.060832748399988
 30
0.0
 11
-0.0000000000000016
 21
-8.935972128712855
 31
0.0
  0
LINE
  5
25D
330
1B
100
AcDbEntity
  8
1
100
AcDbLine
 10
40.0
 20
8.590000000000003
 30
0.0
 11
39.7
 21
8.89
 31
0.0
  0
LINE
  5
25E
330
1B
100
AcDbEntity
  8
NOCUT
100
AcDbLine
 10
40.0
 20
8.590000000000003
 30
0.0
 11
39.7
 21
8.89
 31
0.0
  0
LINE
  5
25F
330
1B
100
AcDbEntity
  8
1
100
AcDbLine
 10
39.7
 20
-8.89
 30
0.0
 11
8.5
 21
-8.89
 31
0.0
  0
LINE
  5
260
330
1B
100
AcDbEntity
  8
SK1
100
AcDbLine
 10
-59.00000000000001
 20
-7.0
 30
0.0
 11
-63.8
 21
-7.0
 31
0.0
  0
LINE
  5
261
330
1B
100
AcDbEntity
  8
SK3
100
AcDbLine
 10
34.0
 20
-5.549999999999997
 30
0.0
 11
32.0
 21
-5.549999999999997
 31
0.0
  0
LINE
  5
262
330
1B
100
AcDbEntity
  8
SK3
100
AcDbLine
 10
39.5
 20
-5.25
 30
0.0
 11
34.0
 21
-5.25
 31
0.0
  0
LINE
  5
263
330
1B
100
AcDbEntity
  8
SK3
100
AcDbLine
 10
-59.00000000000001
 20
-5.25
 30
0.0
 11
-62.65
 21
-5.25
 31
0.0
  0
LINE
  5
264
330
1B
100
AcDbEntity
  8
SK3
100
AcDbLine
 10
-40.0
 20
-5.0
 30
0.0
 11
-59.00000000000001
 21
-5.0
 31
0.0
  0
LINE
  5
265
330
1B
100
AcDbEntity
  8
SK3
100
AcDbLine
 10
15.0
 20
-5.0
 30
0.0
 11
32.0
 21
-5.0
 31
0.0
  0
LINE
  5
266
330
1B
100
AcDbEntity
  8
SK3
100
AcDbLine
 10
32.0
 20
-4.25
 30
0.0
 11
5.0
 21
-4.25
 31
0.0
  0
LINE
  5
267
330
1B
100
AcDbEntity
  8
SK3
100
AcDbLine
 10
-30.5
 20
-4.25
 30
0.0
 11
-58.87500000000001
 21
-4.25
 31
0.0
  0
LINE
  5
268
330
1B
100
AcDbEntity
  8
4
100
AcDbLine
 10
43.0
 20
0.0
 30
0.0
 11
0.0
 21
0.0
 31
0.0
  0
LINE
  5
269
330
1B
100
AcDbEntity
  8
NOCUT
100
AcDbLine
 10
0.0
 20
0.0
 30
0.0
 11
40.0
 21
0.0
 31
0.0
  0
LINE
  5
26A
330
1B
100
AcDbEntity
  8
NOCUT
100
AcDbLine
 10
5.0
 20
9.060832748400002
 30
0.0
 11
0.0
 21
8.935972128700001
 31
0.0
  0
LINE
  5
26B
330
1B
100
AcDbEntity
  8
1
100
AcDbLine
 10
5.0
 20
9.060832748400002
 30
0.0
 11
-0.0000000000001247
 21
8.935972128704994
 31
0.0
  0
LINE
  5
26C
330
1B
100
AcDbEntity
  8
SK3
100
AcDbLine
 10
32.0
 20
4.25
 30
0.0
 11
5.0
 21
4.25
 31
0.0
  0
LINE
  5
26D
330
1B
100
AcDbEntity
  8
SK3
100
AcDbLine
 10
-30.5
 20
4.25
 30
0.0
 11
-58.87500000000001
 21
4.25
 31
0.0
  0
LINE
  5
26E
330
1B
100
AcDbEntity
  8
SK3
100
AcDbLine
 10
-40.0
 20
5.0
 30
0.0
 11
-59.00000000000001
 21
5.0
 31
0.0
  0
LINE
  5
26F
330
1B
100
AcDbEntity
  8
SK3
100
AcDbLine
 10
15.0
 20
5.0
 30
0.0
 11
32.0
 21
5.0
 31
0.0
  0
LINE
  5
270
330
1B
100
AcDbEntity
  8
SK3
100
AcDbLine
 10
39.5
 20
5.25
 30
0.0
 11
34.0
 21
5.25
 31
0.0
  0
LINE
  5
271
330
1B
100
AcDbEntity
  8
SK3
100
AcDbLine
 10
-59.00000000000001
 20
5.25
 30
0.0
 11
-62.65
 21
5.25
 31
0.0
  0
LINE
  5
272
330
1B
100
AcDbEntity
  8
SK3
100
AcDbLine
 10
34.0
 20
5.549999999999997
 30
0.0
 11
32.0
 21
5.549999999999997
 31
0.0
  0
LINE
  5
273
330
1B
100
AcDbEntity
  8
SK1
100
AcDbLine
 10
-59.00000000000001
 20
7.0
 30
0.0
 11
-63.8
 21
7.0
 31
0.0
  0
LINE
  5
274
330
1B
100
AcDbEntity
  8
1
100
AcDbLine
 10
39.7
 20
8.89
 30
0.0
 11
8.5
 21
8.89
 31
0.0
  0
LINE
  5
275
330
1B
100
AcDbEntity
  8
NOCUT
100
AcDbLine
 10
39.7
 20
8.89
 30
0.0
 11
8.5
 21
8.89
 31
0.0
  0
ARC
  5
276
330
1B
100
AcDbEntity
  8
SK3
100
AcDbCircle
 10
39.5
 20
-5.75
 30
0.0
 40
0.5
100
AcDbArc
 50
0.0000634249
 51
90.0
  0
ARC
  5
277
330
1B
100
AcDbEntity
  8
SK3
100
AcDbCircle
 10
39.5
 20
5.75
 30
0.0
 40
0.5
100
AcDbArc
 50
270.0
 51
359.9999365751
  0
ARC
  5
278
330
1B
100
AcDbEntity
  8
SK3
100
AcDbCircle
 10
-62.65
 20
-6.600000000000008
 30
0.0
 40
1.35
100
AcDbArc
 50
90.0
 51
180.0
  0
ARC
  5
279
330
1B
100
AcDbEntity
  8
SK3
100
AcDbCircle
 10
-62.65
 20
6.599999999999994
 30
0.0
 40
1.35
100
AcDbArc
 50
180.0
 51
270.0
  0
ARC
  5
27A
330
1B
100
AcDbEntity
  8
1
100
AcDbCircle
 10
6.925302886299988
 20
-12.56700000000001
 30
0.0
 40
4.0
100
AcDbArc
 50
66.81668217800001
 51
118.772022826
  0
ARC
  5
27B
330
1B
100
AcDbEntity
  8
1
100
AcDbCircle
 10
6.925302886299988
 20
12.56699999999999
 30
0.0
 40
4.0
100
AcDbArc
 50
241.227977174
 51
293.183317822
  0
ARC
  5
27C
330
1B
100
AcDbEntity
  8
SK1
100
AcDbCircle
 10
-63.8
 20
-6.799999999999997
 30
0.0
 40
0.2
100
AcDbArc
 50
180.0
 51
270.0
  0
ARC
  5
27D
330
1B
100
AcDbEntity
  8
SK1
100
AcDbCircle
 10
-63.8
 20
6.799999999999997
 30
0.0
 40
0.2
100
AcDbArc
 50
90.0
 51
180.0
  0
ARC
  5
27E
330
1B
100
AcDbEntity
  8
NOCUT
100
AcDbCircle
 10
6.925302886299988
 20
12.56699999999999
 30
0.0
 40
4.0
100
AcDbArc
 50
241.227977174
 51
293.183317822
  0
LINE
  5
526
330
1B
100
AcDbEntity
  8
SK1
100
AcDbLine
 10
-0.0000000000000016
 20
-8.935972128712855
 30
0.0
 11
-58.5255347793
 21
-7.474465220699997
 31
0.0
  0
LINE
  5
529
330
1B
100
AcDbEntity
  8
SK1
100
AcDbLine
 10
-0.0000000000001247
 20
8.935972128704994
 30
0.0
 11
-58.5255347793
 21
7.474465220600009
 31
0.0
  0
LINE
  5
52A
330
1B
100
AcDbEntity
  8
SK4
100
AcDbLine
 10
0.0
 20
0.0
 30
0.0
 11
-67.0
 21
0.0
 31
0.0
  0
INSERT
  5
656
330
1B
100
AcDbEntity
  8
1
100
AcDbBlockReference
  2
NULLPUNKT_BL0
 10
0.0
 20
0.0
 30
0.0
  0
INSERT
  5
657
330
1B
100
AcDbEntity
  8
1
100
AcDbBlockReference
  2
EINFUEGEPUNKT_BL1
 10
40.00000000000002
 20
-0.0000000020000073
 30
0.0
  0
ENDSEC
  0
SECTION
  2
OBJECTS
  0
DICTIONARY
  5
27F
330
0
100
AcDbDictionary
281
     1
  3
ACAD_COLOR
350
289
  3
ACAD_GROUP
350
280
  3
ACAD_LAYOUT
350
28C
  3
ACAD_MATERIAL
350
288
  3
ACAD_MLINESTYLE
350
281
  3
ACAD_PLOTSETTINGS
350
28D
  3
ACAD_PLOTSTYLENAME
350
286
  3
ACAD_TABLESTYLE
350
28A
  3
AcDbVariableDictionary
350
553
  0
DICTIONARY
  5
510
330
2
100
AcDbDictionary
280
     1
281
     1
  3
ACAD_LAYERFILTERS
360
557
  3
ACLYDICTIONARY
360
556
  0
DICTIONARY
  5
527
330
1B
100
AcDbDictionary
280
     1
281
     1
  3
ACAD_SORTENTS
360
528
  0
DICTIONARY
  5
289
102
{ACAD_REACTORS
330
27F
102
}
330
27F
100
AcDbDictionary
281
     1
  0
DICTIONARY
  5
280
102
{ACAD_REACTORS
330
27F
102
}
330
27F
100
AcDbDictionary
281
     1
  0
DICTIONARY
  5
28C
102
{ACAD_REACTORS
330
27F
102
}
330
27F
100
AcDbDictionary
281
     1
  3
Layout1
350
28F
  3
Model
350
28E
  0
DICTIONARY
  5
288
102
{ACAD_REACTORS
330
27F
102
}
330
27F
100
AcDbDictionary
281
     1
  0
DICTIONARY
  5
281
102
{ACAD_REACTORS
330
27F
102
}
330
27F
100
AcDbDictionary
281
     1
  3
STANDARD
350
282
  0
DICTIONARY
  5
28D
102
{ACAD_REACTORS
330
27F
102
}
330
27F
100
AcDbDictionary
281
     1
  0
ACDBDICTIONARYWDFLT
  5
286
102
{ACAD_REACTORS
330
27F
102
}
330
27F
100
AcDbDictionary
281
     1
  3
Normal
350
287
100
AcDbDictionaryWithDefault
340
287
  0
DICTIONARY
  5
28A
102
{ACAD_REACTORS
330
27F
102
}
330
27F
100
AcDbDictionary
281
     1
  3
Standard
350
28B
  0
DICTIONARY
  5
553
102
{ACAD_REACTORS
330
27F
102
}
330
27F
100
AcDbDictionary
281
     1
  3
CTABLESTYLE
350
554
  0
DICTIONARY
  5
557
102
{ACAD_REACTORS
330
510
102
}
330
510
100
AcDbDictionary
281
     1
  0
DICTIONARY
  5
556
102
{ACAD_REACTORS
330
510
102
}
330
510
100
AcDbDictionary
281
     1
1001
ACAD
1000
<All
  0
SORTENTSTABLE
  5
528
102
{ACAD_REACTORS
330
527
102
}
330
527
100
AcDbSortentsTable
330
1B
331
26C
  5
26F
331
27D
  5
37A
331
25B
  5
25B
331
247
  5
247
331
26A
  5
26C
331
27B
  5
27E
331
259
  5
259
331
256
  5
256
331
245
  5
245
331
268
  5
269
331
279
  5
27C
331
254
  5
254
331
243
  5
243
331
266
  5
267
331
277
  5
27A
331
252
  5
252
331
241
  5
241
331
264
  5
265
331
275
  5
278
331
529
  5
26E
331
250
  5
250
331
23F
  5
23F
331
262
  5
263
331
273
  5
276
331
24E
  5
24E
331
260
  5
261
331
271
  5
274
331
24C
  5
24C
331
26F
  5
272
331
25E
  5
25F
331
24A
  5
24A
331
26D
  5
270
331
27E
  5
37B
331
25C
  5
25C
331
248
  5
248
331
26B
  5
26D
331
27C
  5
379
331
25A
  5
25A
331
257
  5
257
331
246
  5
246
331
269
  5
26B
331
27A
  5
27D
331
258
  5
258
331
255
  5
255
331
244
  5
244
331
267
  5
268
331
278
  5
27B
331
253
  5
253
331
242
  5
242
331
265
  5
266
331
276
  5
279
331
52A
  5
26A
331
251
  5
251
331
240
  5
240
331
263
  5
264
331
274
  5
277
331
24F
  5
24F
331
23E
  5
23E
331
261
  5
262
331
272
  5
275
331
526
  5
25D
331
24D
  5
24D
331
270
  5
273
331
25F
  5
260
331
24B
  5
24B
331
26E
  5
271
331
25D
  5
25E
331
249
  5
249
  0
LAYOUT
  5
28F
102
{ACAD_REACTORS
330
28C
102
}
330
28C
100
AcDbPlotSettings
  1

  2
\\ingdom02\ITB3
  4

  6

 40
0.0
 41
0.0
 42
0.0
 43
0.0
 44
0.0
 45
0.0
 46
0.0
 47
0.0
 48
0.0
 49
0.0
140
0.0
141
0.0
142
1.0
143
1.0
 70
   688
 72
     0
 73
     0
 74
     5
  7

 75
    16
147
1.0
 76
     0
 77
     2
 78
   300
148
0.0
149
0.0
100
AcDbLayout
  1
Layout1
 70
     1
 71
     1
 10
0.0
 20
0.0
 11
12.0
 21
9.0
 12
0.0
 22
0.0
 32
0.0
 14
1.000000000000000E+20
 24
1.000000000000000E+20
 34
1.000000000000000E+20
 15
-1.000000000000000E+20
 25
-1.000000000000000E+20
 35
-1.000000000000000E+20
146
0.0
 13
0.0
 23
0.0
 33
0.0
 16
1.0
 26
0.0
 36
0.0
 17
0.0
 27
1.0
 37
0.0
 76
     0
330
1C
  0
LAYOUT
  5
28E
102
{ACAD_REACTORS
330
28C
102
}
330
28C
100
AcDbPlotSettings
  1

  2
\\ingdom02\ITB3
  4

  6

 40
0.0
 41
0.0
 42
0.0
 43
0.0
 44
0.0
 45
0.0
 46
0.0
 47
0.0
 48
0.0
 49
0.0
140
0.0
141
0.0
142
1.0
143
1.0
 70
  1712
 72
     0
 73
     0
 74
     0
  7

 75
     0
147
1.0
 76
     0
 77
     2
 78
   300
148
0.0
149
0.0
100
AcDbLayout
  1
Model
 70
     1
 71
     0
 10
0.0
 20
0.0
 11
12.0
 21
9.0
 12
0.0
 22
0.0
 32
0.0
 14
0.0
 24
0.0
 34
0.0
 15
0.0
 25
0.0
 35
0.0
146
0.0
 13
0.0
 23
0.0
 33
0.0
 16
1.0
 26
0.0
 36
0.0
 17
0.0
 27
1.0
 37
0.0
 76
     0
330
1B
  0
MLINESTYLE
  5
282
102
{ACAD_REACTORS
330
281
102
}
330
281
100
AcDbMlineStyle
  2
STANDARD
 70
     0
  3

 62
   256
 51
90.0
 52
90.0
 71
     2
 49
0.5
 62
   256
  6
BYLAYER
 49
-0.5
 62
   256
  6
BYLAYER
  0
ACDBPLACEHOLDER
  5
287
102
{ACAD_REACTORS
330
286
102
}
330
286
  0
TABLESTYLE
  5
28B
102
{ACAD_REACTORS
330
28A
102
}
330
28A
100
AcDbTableStyle
  3
Standard
 70
     0
 71
     0
 40
1.5
 41
1.5
280
     0
281
     0
  7
STANDARD
140
4.5
170
     2
 62
     0
 63
     7
283
     0
274
    -2
284
     1
 64
     0
275
    -2
285
     1
 65
     0
276
    -2
286
     1
 66
     0
277
    -2
287
     1
 67
     0
278
    -2
288
     1
 68
     0
279
    -2
289
     1
 69
     0
  7
STANDARD
140
6.0
170
     5
 62
     0
 63
     7
283
     0
274
    -2
284
     1
 64
     0
275
    -2
285
     1
 65
     0
276
    -2
286
     1
 66
     0
277
    -2
287
     1
 67
     0
278
    -2
288
     1
 68
     0
279
    -2
289
     1
 69
     0
  7
STANDARD
140
4.5
170
     5
 62
     0
 63
     7
283
     0
274
    -2
284
     1
 64
     0
275
    -2
285
     1
 65
     0
276
    -2
286
     1
 66
     0
277
    -2
287
     1
 67
     0
278
    -2
288
     1
 68
     0
279
    -2
289
     1
 69
     0
  0
DICTIONARYVAR
  5
554
102
{ACAD_REACTORS
330
553
102
}
330
553
100
DictionaryVariables
280
     0
  1
STANDARD
  0
ENDSEC
  0
EOF
