  0
SECTION
  2
HEADER
  9
$ACADVER
  1
AC1015
  9
$ACADMAINTVER
 70
    20
  9
$DWGCODEPAGE
  3
ANSI_1252
  9
$INSBASE
 10
0.0
 20
0.0
 30
0.0
  9
$EXTMIN
 10
-33.59921130258499
 20
-197.8528762524723
 30
-0.0000000349181948
  9
$EXTMAX
 10
108.9731148320402
 20
222.5894466394763
 30
0.0000000814935747
  9
$LIMMIN
 10
0.0
 20
0.0
  9
$LIMMAX
 10
594.0
 20
420.0
  9
$ORTHOMODE
 70
     0
  9
$REGENMODE
 70
     1
  9
$FILLMODE
 70
     1
  9
$QTEXTMODE
 70
     0
  9
$MIRRTEXT
 70
     0
  9
$LTSCALE
 40
32.67
  9
$ATTMODE
 70
     1
  9
$TEXTSIZE
 40
0.2
  9
$TRACEWID
 40
0.05
  9
$TEXTSTYLE
  7
STANDARD
  9
$CLAYER
  8
0
  9
$CELTYPE
  6
BYLAYER
  9
$CECOLOR
 62
   256
  9
$CELTSCALE
 40
1.0
  9
$DISPSILH
 70
     0
  9
$DIMSCALE
 40
1.0
  9
$DIMASZ
 40
3.5
  9
$DIMEXO
 40
0.625
  9
$DIMDLI
 40
3.75
  9
$DIMRND
 40
0.0
  9
$DIMDLE
 40
0.0
  9
$DIMEXE
 40
2.0
  9
$DIMTP
 40
0.0
  9
$DIMTM
 40
0.0
  9
$DIMTXT
 40
3.5
  9
$DIMCEN
 40
2.5
  9
$DIMTSZ
 40
0.0
  9
$DIMTOL
 70
     0
  9
$DIMLIM
 70
     0
  9
$DIMTIH
 70
     0
  9
$DIMTOH
 70
     0
  9
$DIMSE1
 70
     0
  9
$DIMSE2
 70
     0
  9
$DIMTAD
 70
     1
  9
$DIMZIN
 70
     8
  9
$DIMBLK
  1

  9
$DIMASO
 70
     1
  9
$DIMSHO
 70
     1
  9
$DIMPOST
  1

  9
$DIMAPOST
  1

  9
$DIMALT
 70
     0
  9
$DIMALTD
 70
     3
  9
$DIMALTF
 40
0.03937007874016
  9
$DIMLFAC
 40
1.0
  9
$DIMTOFL
 70
     1
  9
$DIMTVP
 40
0.0
  9
$DIMTIX
 70
     0
  9
$DIMSOXD
 70
     0
  9
$DIMSAH
 70
     0
  9
$DIMBLK1
  1

  9
$DIMBLK2
  1

  9
$DIMSTYLE
  2
ISO-25
  9
$DIMCLRD
 70
   256
  9
$DIMCLRE
 70
   256
  9
$DIMCLRT
 70
   256
  9
$DIMTFAC
 40
1.0
  9
$DIMGAP
 40
0.625
  9
$DIMJUST
 70
     0
  9
$DIMSD1
 70
     0
  9
$DIMSD2
 70
     0
  9
$DIMTOLJ
 70
     0
  9
$DIMTZIN
 70
     8
  9
$DIMALTZ
 70
     0
  9
$DIMALTTZ
 70
     0
  9
$DIMUPT
 70
     0
  9
$DIMDEC
 70
     2
  9
$DIMTDEC
 70
     2
  9
$DIMALTU
 70
     2
  9
$DIMALTTD
 70
     3
  9
$DIMTXSTY
  7
STANDARD
  9
$DIMAUNIT
 70
     0
  9
$DIMADEC
 70
     0
  9
$DIMALTRND
 40
0.0
  9
$DIMAZIN
 70
     0
  9
$DIMDSEP
 70
    46
  9
$DIMATFIT
 70
     3
  9
$DIMFRAC
 70
     0
  9
$DIMLDRBLK
  1

  9
$DIMLUNIT
 70
     2
  9
$DIMLWD
 70
    -2
  9
$DIMLWE
 70
    -2
  9
$DIMTMOVE
 70
     0
  9
$LUNITS
 70
     2
  9
$LUPREC
 70
     4
  9
$SKETCHINC
 40
0.1
  9
$FILLETRAD
 40
0.0
  9
$AUNITS
 70
     0
  9
$AUPREC
 70
     0
  9
$MENU
  1
.
  9
$ELEVATION
 40
0.0
  9
$PELEVATION
 40
0.0
  9
$THICKNESS
 40
0.0
  9
$LIMCHECK
 70
     0
  9
$CHAMFERA
 40
0.0
  9
$CHAMFERB
 40
0.0
  9
$CHAMFERC
 40
0.0
  9
$CHAMFERD
 40
0.0
  9
$SKPOLY
 70
     0
  9
$TDCREATE
 40
2453791.376505544
  9
$TDUCREATE
 40
2453791.334838878
  9
$TDUPDATE
 40
2453791.550343646
  9
$TDUUPDATE
 40
2453791.508676979
  9
$TDINDWG
 40
0.0061702431
  9
$TDUSRTIMER
 40
0.0061702431
  9
$USRTIMER
 70
     1
  9
$ANGBASE
 50
0.0
  9
$ANGDIR
 70
     0
  9
$PDMODE
 70
     3
  9
$PDSIZE
 40
0.3125
  9
$PLINEWID
 40
0.0
  9
$SPLFRAME
 70
     0
  9
$SPLINETYPE
 70
     6
  9
$SPLINESEGS
 70
     8
  9
$HANDSEED
  5
730
  9
$SURFTAB1
 70
     6
  9
$SURFTAB2
 70
     6
  9
$SURFTYPE
 70
     6
  9
$SURFU
 70
     6
  9
$SURFV
 70
     6
  9
$UCSBASE
  2

  9
$UCSNAME
  2

  9
$UCSORG
 10
0.0
 20
0.0
 30
0.0
  9
$UCSXDIR
 10
1.0
 20
0.0
 30
0.0
  9
$UCSYDIR
 10
0.0
 20
1.0
 30
0.0
  9
$UCSORTHOREF
  2

  9
$UCSORTHOVIEW
 70
     0
  9
$UCSORGTOP
 10
0.0
 20
0.0
 30
0.0
  9
$UCSORGBOTTOM
 10
0.0
 20
0.0
 30
0.0
  9
$UCSORGLEFT
 10
0.0
 20
0.0
 30
0.0
  9
$UCSORGRIGHT
 10
0.0
 20
0.0
 30
0.0
  9
$UCSORGFRONT
 10
0.0
 20
0.0
 30
0.0
  9
$UCSORGBACK
 10
0.0
 20
0.0
 30
0.0
  9
$PUCSBASE
  2

  9
$PUCSNAME
  2

  9
$PUCSORG
 10
0.0
 20
0.0
 30
0.0
  9
$PUCSXDIR
 10
1.0
 20
0.0
 30
0.0
  9
$PUCSYDIR
 10
0.0
 20
1.0
 30
0.0
  9
$PUCSORTHOREF
  2

  9
$PUCSORTHOVIEW
 70
     0
  9
$PUCSORGTOP
 10
0.0
 20
0.0
 30
0.0
  9
$PUCSORGBOTTOM
 10
0.0
 20
0.0
 30
0.0
  9
$PUCSORGLEFT
 10
0.0
 20
0.0
 30
0.0
  9
$PUCSORGRIGHT
 10
0.0
 20
0.0
 30
0.0
  9
$PUCSORGFRONT
 10
0.0
 20
0.0
 30
0.0
  9
$PUCSORGBACK
 10
0.0
 20
0.0
 30
0.0
  9
$USERI1
 70
     0
  9
$USERI2
 70
     0
  9
$USERI3
 70
     0
  9
$USERI4
 70
     0
  9
$USERI5
 70
     0
  9
$USERR1
 40
0.0
  9
$USERR2
 40
0.0
  9
$USERR3
 40
0.0
  9
$USERR4
 40
0.0
  9
$USERR5
 40
0.0
  9
$WORLDVIEW
 70
     1
  9
$SHADEDGE
 70
     3
  9
$SHADEDIF
 70
    70
  9
$TILEMODE
 70
     1
  9
$MAXACTVP
 70
    64
  9
$PINSBASE
 10
0.0
 20
0.0
 30
0.0
  9
$PLIMCHECK
 70
     0
  9
$PEXTMIN
 10
1.000000000000000E+20
 20
1.000000000000000E+20
 30
1.000000000000000E+20
  9
$PEXTMAX
 10
-1.000000000000000E+20
 20
-1.000000000000000E+20
 30
-1.000000000000000E+20
  9
$PLIMMIN
 10
0.0
 20
0.0
  9
$PLIMMAX
 10
12.0
 20
9.0
  9
$UNITMODE
 70
     0
  9
$VISRETAIN
 70
     1
  9
$PLINEGEN
 70
     0
  9
$PSLTSCALE
 70
     1
  9
$TREEDEPTH
 70
  3020
  9
$CMLSTYLE
  2
STANDARD
  9
$CMLJUST
 70
     0
  9
$CMLSCALE
 40
1.0
  9
$PROXYGRAPHICS
 70
     1
  9
$MEASUREMENT
 70
     1
  9
$CELWEIGHT
370
    -1
  9
$ENDCAPS
280
     0
  9
$JOINSTYLE
280
     0
  9
$LWDISPLAY
290
     0
  9
$INSUNITS
 70
     0
  9
$HYPERLINKBASE
  1

  9
$STYLESHEET
  1

  9
$XEDIT
290
     1
  9
$CEPSNTYPE
380
     0
  9
$PSTYLEMODE
290
     1
  9
$FINGERPRINTGUID
  2
{D12FB78A-1353-4DAE-8D00-CB7F38DA7C5E}
  9
$VERSIONGUID
  2
{87D465D0-6C2B-43E4-B956-CF4C14234357}
  9
$EXTNAMES
290
     1
  9
$PSVPSCALE
 40
0.0
  9
$OLESTARTUP
290
     0
  0
ENDSEC
  0
SECTION
  2
CLASSES
  0
CLASS
  1
ACDBDICTIONARYWDFLT
  2
AcDbDictionaryWithDefault
  3
ObjectDBX Classes
 90
        0
280
     0
281
     0
  0
CLASS
  1
TABLESTYLE
  2
AcDbTableStyle
  3
ObjectDBX Classes
 90
     2047
280
     0
281
     0
  0
CLASS
  1
DICTIONARYVAR
  2
AcDbDictionaryVar
  3
ObjectDBX Classes
 90
        0
280
     0
281
     0
  0
CLASS
  1
ACDBPLACEHOLDER
  2
AcDbPlaceHolder
  3
ObjectDBX Classes
 90
        0
280
     0
281
     0
  0
CLASS
  1
LAYOUT
  2
AcDbLayout
  3
ObjectDBX Classes
 90
        0
280
     0
281
     0
  0
ENDSEC
  0
SECTION
  2
TABLES
  0
TABLE
  2
VPORT
  5
8
330
0
100
AcDbSymbolTable
 70
     2
  0
VPORT
  5
72A
330
8
100
AcDbSymbolTableRecord
100
AcDbViewportTableRecord
  2
*Active
 70
     0
 10
0.0
 20
0.0
 11
1.0
 21
1.0
 12
37.68695176472764
 22
12.368285193502
 13
0.0
 23
0.0
 14
1.0
 24
1.0
 15
0.0
 25
0.0
 16
0.0
 26
0.0
 36
1.0
 17
0.0
 27
0.0
 37
0.0
 40
423.5956403136383
 41
1.494367959949937
 42
50.0
 43
0.0
 44
0.0
 50
0.0
 51
0.0
 71
     0
 72
   100
 73
     1
 74
     1
 75
     0
 76
     0
 77
     0
 78
     0
281
     0
 65
     1
110
0.0
120
0.0
130
0.0
111
1.0
121
0.0
131
0.0
112
0.0
122
1.0
132
0.0
 79
     0
146
0.0
  0
ENDTAB
  0
TABLE
  2
LTYPE
  5
5
330
0
100
AcDbSymbolTable
 70
     2
  0
LTYPE
  5
14
330
5
100
AcDbSymbolTableRecord
100
AcDbLinetypeTableRecord
  2
BYBLOCK
 70
     0
  3

 72
    65
 73
     0
 40
0.0
  0
LTYPE
  5
15
330
5
100
AcDbSymbolTableRecord
100
AcDbLinetypeTableRecord
  2
BYLAYER
 70
     0
  3

 72
    65
 73
     0
 40
0.0
  0
LTYPE
  5
16
330
5
100
AcDbSymbolTableRecord
100
AcDbLinetypeTableRecord
  2
CONTINUOUS
 70
     0
  3
Solid line
 72
    65
 73
     0
 40
0.0
  0
LTYPE
  5
1F5
330
5
100
AcDbSymbolTableRecord
100
AcDbLinetypeTableRecord
  2
CENTER
 70
     0
  3
____ _ ____ _ ____ _ ____ _ ____ _ ____ _ ____
 72
    65
 73
     4
 40
0.6
 49
0.375
 74
     0
 49
-0.075
 74
     0
 49
0.075
 74
     0
 49
-0.075
 74
     0
  0
ENDTAB
  0
TABLE
  2
LAYER
  5
2
102
{ACAD_XDICTIONARY
360
4F0
102
}
330
0
100
AcDbSymbolTable
 70
    11
  0
LAYER
  5
10
330
2
100
AcDbSymbolTableRecord
100
AcDbLayerTableRecord
  2
0
 70
     0
 62
     7
  6
CONTINUOUS
370
    -3
390
2CE
  0
LAYER
  5
1FD
330
2
100
AcDbSymbolTableRecord
100
AcDbLayerTableRecord
  2
1
 70
     0
 62
     4
  6
CONTINUOUS
370
    -3
390
2CE
  0
LAYER
  5
1FE
330
2
100
AcDbSymbolTableRecord
100
AcDbLayerTableRecord
  2
2
 70
     0
 62
     7
  6
CONTINUOUS
370
    -3
390
2CE
  0
LAYER
  5
1FF
330
2
100
AcDbSymbolTableRecord
100
AcDbLayerTableRecord
  2
4
 70
     0
 62
     2
  6
CENTER
370
    -3
390
2CE
  0
LAYER
  5
200
330
2
100
AcDbSymbolTableRecord
100
AcDbLayerTableRecord
  2
6
 70
     0
 62
     5
  6
CONTINUOUS
370
    -3
390
2CE
  0
LAYER
  5
201
330
2
100
AcDbSymbolTableRecord
100
AcDbLayerTableRecord
  2
NOCUT
 70
     0
 62
     7
  6
CONTINUOUS
370
    -3
390
2CE
  0
LAYER
  5
202
330
2
100
AcDbSymbolTableRecord
100
AcDbLayerTableRecord
  2
SK1
 70
     0
 62
     4
  6
CONTINUOUS
370
    -3
390
2CE
  0
LAYER
  5
203
330
2
100
AcDbSymbolTableRecord
100
AcDbLayerTableRecord
  2
SK2
 70
     0
 62
     7
  6
CONTINUOUS
370
    -3
390
2CE
  0
LAYER
  5
204
330
2
100
AcDbSymbolTableRecord
100
AcDbLayerTableRecord
  2
SK3
 70
     0
 62
     1
  6
CENTER
370
    -3
390
2CE
  0
LAYER
  5
205
330
2
100
AcDbSymbolTableRecord
100
AcDbLayerTableRecord
  2
SK4
 70
     0
 62
     2
  6
CENTER
370
    -3
390
2CE
  0
LAYER
  5
344
330
2
100
AcDbSymbolTableRecord
100
AcDbLayerTableRecord
  2
Defpoints
 70
     0
 62
     7
  6
CONTINUOUS
290
     0
370
    -3
390
2CE
  0
ENDTAB
  0
TABLE
  2
STYLE
  5
3
330
0
100
AcDbSymbolTable
 70
     1
  0
STYLE
  5
11
330
3
100
AcDbSymbolTableRecord
100
AcDbTextStyleTableRecord
  2
STANDARD
 70
     0
 40
0.0
 41
0.8
 50
0.0
 71
     0
 42
0.2
  3
isocp.shx
  4

  0
ENDTAB
  0
TABLE
  2
VIEW
  5
6
330
0
100
AcDbSymbolTable
 70
     0
  0
ENDTAB
  0
TABLE
  2
UCS
  5
7
330
0
100
AcDbSymbolTable
 70
     0
  0
ENDTAB
  0
TABLE
  2
APPID
  5
9
330
0
100
AcDbSymbolTable
 70
     3
  0
APPID
  5
206
330
9
100
AcDbSymbolTableRecord
100
AcDbRegAppTableRecord
  2
ACAD
 70
     0
  0
APPID
  5
346
330
9
100
AcDbSymbolTableRecord
100
AcDbRegAppTableRecord
  2
ACAD_PSEXT
 70
     0
  0
APPID
  5
5BC
330
9
100
AcDbSymbolTableRecord
100
AcDbRegAppTableRecord
  2
ACAD_DSTYLE_DIMTEXT_FILL
 70
     0
  0
ENDTAB
  0
TABLE
  2
DIMSTYLE
  5
A
330
0
100
AcDbSymbolTable
 70
     2
100
AcDbDimStyleTable
 71
     2
340
345
340
207
  0
DIMSTYLE
105
207
330
A
100
AcDbSymbolTableRecord
100
AcDbDimStyleTableRecord
  2
STANDARD
 70
     0
 41
2.5
 47
0.005
 48
0.005
 71
     1
 73
     0
 74
     0
 77
     1
 78
     8
140
3.5
178
     2
271
     3
272
     3
284
     8
340
11
341
209
342
209
343
209
344
209
  0
DIMSTYLE
105
345
102
{ACAD_REACTORS
330
295
330
293
330
29A
330
292
330
297
330
299
330
298
330
296
330
294
102
}
330
A
100
AcDbSymbolTableRecord
100
AcDbDimStyleTableRecord
  2
ISO-25
 70
     0
 41
3.5
 42
0.625
 43
3.75
 44
2.0
 73
     0
 74
     0
 77
     1
 78
     8
140
3.5
141
2.5
143
0.03937007874016
147
0.625
171
     3
172
     1
176
   256
177
   256
178
   256
271
     2
272
     2
274
     3
283
     0
284
     8
340
11
  0
ENDTAB
  0
TABLE
  2
BLOCK_RECORD
  5
1
330
0
100
AcDbSymbolTable
 70
    12
  0
BLOCK_RECORD
  5
1B
330
1
100
AcDbSymbolTableRecord
100
AcDbBlockTableRecord
  2
*MODEL_SPACE
340
2D5
  0
BLOCK_RECORD
  5
1C
330
1
100
AcDbSymbolTableRecord
100
AcDbBlockTableRecord
  2
*PAPER_SPACE
340
2D6
  0
BLOCK_RECORD
  5
209
330
1
100
AcDbSymbolTableRecord
100
AcDbBlockTableRecord
  2
_FILLED
340
0
  0
BLOCK_RECORD
  5
20A
330
1
100
AcDbSymbolTableRecord
100
AcDbBlockTableRecord
  2
*D1
340
0
  0
BLOCK_RECORD
  5
20B
330
1
100
AcDbSymbolTableRecord
100
AcDbBlockTableRecord
  2
*D2
340
0
  0
BLOCK_RECORD
  5
20C
330
1
100
AcDbSymbolTableRecord
100
AcDbBlockTableRecord
  2
*D3
340
0
  0
BLOCK_RECORD
  5
20D
330
1
100
AcDbSymbolTableRecord
100
AcDbBlockTableRecord
  2
*D4
340
0
  0
BLOCK_RECORD
  5
20E
330
1
100
AcDbSymbolTableRecord
100
AcDbBlockTableRecord
  2
*D5
340
0
  0
BLOCK_RECORD
  5
20F
330
1
100
AcDbSymbolTableRecord
100
AcDbBlockTableRecord
  2
*D6
340
0
  0
BLOCK_RECORD
  5
210
330
1
100
AcDbSymbolTableRecord
100
AcDbBlockTableRecord
  2
*D7
340
0
  0
BLOCK_RECORD
  5
211
330
1
100
AcDbSymbolTableRecord
100
AcDbBlockTableRecord
  2
*D8
340
0
  0
BLOCK_RECORD
  5
212
330
1
100
AcDbSymbolTableRecord
100
AcDbBlockTableRecord
  2
*D9
340
0
  0
BLOCK_RECORD
  5
213
330
1
100
AcDbSymbolTableRecord
100
AcDbBlockTableRecord
  2
NULLPUNKT_BL0
340
0
102
{BLKREFS
331
29C
102
}
  0
BLOCK_RECORD
  5
214
330
1
100
AcDbSymbolTableRecord
100
AcDbBlockTableRecord
  2
EINFUEGEPUNKT_BL1
340
0
102
{BLKREFS
331
29D
102
}
  0
ENDTAB
  0
ENDSEC
  0
SECTION
  2
BLOCKS
  0
BLOCK
  5
1E
330
1B
100
AcDbEntity
  8
0
100
AcDbBlockBegin
  2
*MODEL_SPACE
 70
     0
 10
0.0
 20
0.0
 30
0.0
  3
*MODEL_SPACE
  1

  0
ENDBLK
  5
1F
330
1B
100
AcDbEntity
  8
0
100
AcDbBlockEnd
  0
BLOCK
  5
20
330
1C
100
AcDbEntity
 67
     1
  8
0
100
AcDbBlockBegin
  2
*PAPER_SPACE
 70
     0
 10
0.0
 20
0.0
 30
0.0
  3
*PAPER_SPACE
  1

  0
ENDBLK
  5
21
330
1C
100
AcDbEntity
 67
     1
  8
0
100
AcDbBlockEnd
  0
BLOCK
  5
28F
330
209
100
AcDbEntity
  8
0
100
AcDbBlockBegin
  2
_FILLED
 70
     0
 10
0.0
 20
0.0
 30
0.0
  3
_FILLED
  1

  0
SOLID
  5
290
330
209
100
AcDbEntity
  8
0
  6
ByBlock
 62
     0
100
AcDbTrace
 10
0.0
 20
0.0
 30
0.0
 11
-1.0
 21
0.132
 31
0.0
 12
-1.0
 22
-0.132
 32
0.0
 13
-1.0
 23
-0.132
 33
0.0
  0
ENDBLK
  5
291
330
209
100
AcDbEntity
  8
0
  6
ByBlock
 62
     0
100
AcDbBlockEnd
  0
BLOCK
  5
215
330
20A
100
AcDbEntity
  8
SK2
  6
Continuous
 62
     7
100
AcDbBlockBegin
  2
*D1
 70
     1
 10
0.0
 20
0.0
 30
0.0
  3
*D1
  1

  0
LINE
  5
6D9
330
20A
100
AcDbEntity
  8
SK2
370
    -2
100
AcDbLine
 10
0.3750000000000001
 20
-197.5
 30
0.0
 11
-31.62500000000007
 21
-197.5
 31
0.0
  0
LINE
  5
6DA
330
20A
100
AcDbEntity
  8
SK2
370
    -2
100
AcDbLine
 10
0.375
 20
197.4999999999999
 30
0.0
 11
-31.62499999999999
 21
197.4999999999999
 31
0.0
  0
LINE
  5
6DB
330
20A
100
AcDbEntity
  8
SK2
370
    -2
100
AcDbLine
 10
-29.62500000000007
 20
-194.0
 30
0.0
 11
-29.62499999999998
 21
193.9999999999999
 31
0.0
  0
SOLID
  5
6DC
330
20A
100
AcDbEntity
  8
SK2
100
AcDbTrace
 10
-30.20833333333341
 20
-194.0
 30
0.0
 11
-29.04166666666674
 21
-194.0
 31
0.0
 12
-29.62500000000007
 22
-197.5
 32
0.0
 13
-29.62500000000007
 23
-197.5
 33
0.0
  0
SOLID
  5
6DD
330
20A
100
AcDbEntity
  8
SK2
100
AcDbTrace
 10
-30.20833333333332
 20
193.9999999999999
 30
0.0
 11
-29.04166666666665
 21
193.9999999999999
 31
0.0
 12
-29.62499999999998
 22
197.4999999999999
 32
0.0
 13
-29.62499999999998
 23
197.4999999999999
 33
0.0
  0
MTEXT
  5
6DE
330
20A
100
AcDbEntity
  8
SK2
100
AcDbMText
 10
-32.00000000000003
 20
0.0000000001000163
 30
0.0
 40
3.5
 41
0.0
 71
     5
 72
     1
  1
%%c395
 11
0.0000000000000001
 21
1.0
 31
0.0
 73
     1
 44
1.0
1001
ACAD
1000
MTEXTBEGIN
1070
    73
1070
     1
1070
    44
1040
1.0
1070
    74
1070
     0
1000
MTEXTEND
  0
POINT
  5
6DF
330
20A
100
AcDbEntity
  8
Defpoints
 62
     0
100
AcDbPoint
 10
1.0
 20
-197.5
 30
0.0
  0
POINT
  5
6E0
330
20A
100
AcDbEntity
  8
Defpoints
 62
     0
100
AcDbPoint
 10
1.0
 20
197.4999999999999
 30
0.0
  0
POINT
  5
6E1
330
20A
100
AcDbEntity
  8
Defpoints
 62
     0
100
AcDbPoint
 10
-29.62499999999998
 20
197.4999999999999
 30
0.0
  0
ENDBLK
  5
21E
330
20A
100
AcDbEntity
  8
0
  6
ByBlock
 62
     0
100
AcDbBlockEnd
  0
BLOCK
  5
21F
330
20B
100
AcDbEntity
  8
2
  6
Continuous
 62
     7
100
AcDbBlockBegin
  2
*D2
 70
     1
 10
0.0
 20
0.0
 30
0.0
  3
*D2
  1

  0
LINE
  5
6E2
330
20B
100
AcDbEntity
  8
2
370
    -2
100
AcDbLine
 10
0.0
 20
141.625
 30
0.0
 11
0.0000000000000044
 21
212.125
 31
0.0
  0
LINE
  5
6E3
330
20B
100
AcDbEntity
  8
2
370
    -2
100
AcDbLine
 10
42.0
 20
199.125
 30
0.0
 11
42.0
 21
212.125
 31
0.0
  0
LINE
  5
6E4
330
20B
100
AcDbEntity
  8
2
370
    -2
100
AcDbLine
 10
3.500000000000004
 20
210.125
 30
0.0
 11
38.5
 21
210.125
 31
0.0
  0
SOLID
  5
6E5
330
20B
100
AcDbEntity
  8
2
100
AcDbTrace
 10
3.500000000000004
 20
210.7083333333334
 30
0.0
 11
3.500000000000004
 21
209.5416666666666
 31
0.0
 12
0.0000000000000042
 22
210.125
 32
0.0
 13
0.0000000000000042
 23
210.125
 33
0.0
  0
SOLID
  5
6E6
330
20B
100
AcDbEntity
  8
2
100
AcDbTrace
 10
38.5
 20
210.7083333333334
 30
0.0
 11
38.5
 21
209.5416666666666
 31
0.0
 12
42.0
 22
210.125
 32
0.0
 13
42.0
 23
210.125
 33
0.0
  0
MTEXT
  5
6E7
330
20B
100
AcDbEntity
  8
2
100
AcDbMText
 10
21.0
 20
212.500344488189
 30
0.0
 40
3.5
 41
0.0
 71
     5
 72
     1
  1
42
 73
     1
 44
1.0
1001
ACAD
1000
MTEXTBEGIN
1070
    73
1070
     1
1070
    44
1040
1.0
1070
    74
1070
     0
1000
MTEXTEND
  0
POINT
  5
6E8
330
20B
100
AcDbEntity
  8
Defpoints
 62
     0
100
AcDbPoint
 10
0.0
 20
141.0
 30
0.0
  0
POINT
  5
6E9
330
20B
100
AcDbEntity
  8
Defpoints
 62
     0
100
AcDbPoint
 10
42.0
 20
198.5
 30
0.0
  0
POINT
  5
6EA
330
20B
100
AcDbEntity
  8
Defpoints
 62
     0
100
AcDbPoint
 10
42.0
 20
210.125
 30
0.0
  0
ENDBLK
  5
227
330
20B
100
AcDbEntity
  8
0
  6
ByBlock
 62
     0
100
AcDbBlockEnd
  0
BLOCK
  5
228
330
20C
100
AcDbEntity
  8
SK2
  6
Continuous
 62
     7
100
AcDbBlockBegin
  2
*D3
 70
     1
 10
0.0
 20
0.0
 30
0.0
  3
*D3
  1

  0
LINE
  5
6EB
330
20C
100
AcDbEntity
  8
SK2
370
    -2
100
AcDbLine
 10
71.625
 20
-127.0
 30
0.0
 11
108.9689015957647
 21
-127.0
 31
0.0
  0
LINE
  5
6EC
330
20C
100
AcDbEntity
  8
SK2
370
    -2
100
AcDbLine
 10
71.625
 20
127.0
 30
0.0
 11
108.9689015957648
 21
127.0
 31
0.0
  0
LINE
  5
6ED
330
20C
100
AcDbEntity
  8
SK2
370
    -2
100
AcDbLine
 10
106.9689015957647
 20
-123.5
 30
0.0
 11
106.9689015957648
 21
123.5
 31
0.0
  0
SOLID
  5
6EE
330
20C
100
AcDbEntity
  8
SK2
100
AcDbTrace
 10
106.3855682624314
 20
-123.5
 30
0.0
 11
107.5522349290981
 21
-123.5
 31
0.0
 12
106.9689015957647
 22
-127.0
 32
0.0
 13
106.9689015957647
 23
-127.0
 33
0.0
  0
SOLID
  5
6EF
330
20C
100
AcDbEntity
  8
SK2
100
AcDbTrace
 10
106.3855682624315
 20
123.5
 30
0.0
 11
107.5522349290981
 21
123.5
 31
0.0
 12
106.9689015957648
 22
127.0
 32
0.0
 13
106.9689015957648
 23
127.0
 33
0.0
  0
MTEXT
  5
6F0
330
20C
100
AcDbEntity
  8
SK2
100
AcDbMText
 10
104.5935571075758
 20
0.0000000001000163
 30
0.0
 40
3.5
 41
0.0
 71
     5
 72
     1
  1
%%c254
 11
0.0000000000000001
 21
1.0
 31
0.0
 73
     1
 44
1.0
1001
ACAD
1000
MTEXTBEGIN
1070
    73
1070
     1
1070
    44
1040
1.0
1070
    74
1070
     0
1000
MTEXTEND
  0
POINT
  5
6F1
330
20C
100
AcDbEntity
  8
Defpoints
 62
     0
100
AcDbPoint
 10
71.0
 20
-127.0
 30
0.0
  0
POINT
  5
6F2
330
20C
100
AcDbEntity
  8
Defpoints
 62
     0
100
AcDbPoint
 10
71.0
 20
127.0
 30
0.0
  0
POINT
  5
6F3
330
20C
100
AcDbEntity
  8
Defpoints
 62
     0
100
AcDbPoint
 10
106.9689015957648
 20
127.0
 30
0.0
  0
ENDBLK
  5
231
330
20C
100
AcDbEntity
  8
0
  6
ByBlock
 62
     0
100
AcDbBlockEnd
  0
BLOCK
  5
232
330
20D
100
AcDbEntity
  8
SK2
  6
Continuous
 62
     7
100
AcDbBlockBegin
  2
*D4
 70
     1
 10
0.0
 20
0.0
 30
0.0
  3
*D4
  1

  0
LINE
  5
6F4
330
20D
100
AcDbEntity
  8
SK2
370
    -2
100
AcDbLine
 10
70.0
 20
129.3756307822
 30
0.0
 11
70.0
 21
220.625
 31
0.0
  0
LINE
  5
6F5
330
20D
100
AcDbEntity
  8
SK2
370
    -2
100
AcDbLine
 10
0.0
 20
142.3756307822
 30
0.0
 11
0.0000000000000048
 21
220.625
 31
0.0
  0
LINE
  5
6F6
330
20D
100
AcDbEntity
  8
SK2
370
    -2
100
AcDbLine
 10
66.5
 20
218.625
 30
0.0
 11
3.500000000000004
 21
218.625
 31
0.0
  0
SOLID
  5
6F7
330
20D
100
AcDbEntity
  8
SK2
100
AcDbTrace
 10
66.5
 20
219.2083333333334
 30
0.0
 11
66.5
 21
218.0416666666666
 31
0.0
 12
70.0
 22
218.625
 32
0.0
 13
70.0
 23
218.625
 33
0.0
  0
SOLID
  5
6F8
330
20D
100
AcDbEntity
  8
SK2
100
AcDbTrace
 10
3.500000000000004
 20
219.2083333333334
 30
0.0
 11
3.500000000000004
 21
218.0416666666666
 31
0.0
 12
0.0000000000000047
 22
218.625
 32
0.0
 13
0.0000000000000047
 23
218.625
 33
0.0
  0
MTEXT
  5
6F9
330
20D
100
AcDbEntity
  8
SK2
100
AcDbMText
 10
35.0
 20
221.0
 30
0.0
 40
3.5
 41
0.0
 71
     5
 72
     1
  1
70
 73
     1
 44
1.0
1001
ACAD
1000
MTEXTBEGIN
1070
    73
1070
     1
1070
    44
1040
1.0
1070
    74
1070
     0
1000
MTEXTEND
  0
POINT
  5
6FA
330
20D
100
AcDbEntity
  8
Defpoints
 62
     0
100
AcDbPoint
 10
70.0
 20
128.7506307822
 30
0.0
  0
POINT
  5
6FB
330
20D
100
AcDbEntity
  8
Defpoints
 62
     0
100
AcDbPoint
 10
0.0
 20
141.7506307822
 30
0.0
  0
POINT
  5
6FC
330
20D
100
AcDbEntity
  8
Defpoints
 62
     0
100
AcDbPoint
 10
0.0000000000000047
 20
218.625
 30
0.0
  0
ENDBLK
  5
23A
330
20D
100
AcDbEntity
  8
0
  6
ByBlock
 62
     0
100
AcDbBlockEnd
  0
BLOCK
  5
23B
330
20E
100
AcDbEntity
  8
SK2
  6
Continuous
 62
     7
100
AcDbBlockBegin
  2
*D5
 70
     1
 10
0.0
 20
0.0
 30
0.0
  3
*D5
  1

  0
LINE
  5
6FD
330
20E
100
AcDbEntity
  8
SK2
370
    -2
100
AcDbLine
 10
71.625
 20
-31.5
 30
0.0
 11
85.62987398909109
 21
-31.5
 31
0.0
  0
LINE
  5
6FE
330
20E
100
AcDbEntity
  8
SK2
370
    -2
100
AcDbLine
 10
71.625
 20
31.5
 30
0.0
 11
85.62987398909109
 21
31.5
 31
0.0
  0
LINE
  5
6FF
330
20E
100
AcDbEntity
  8
SK2
370
    -2
100
AcDbLine
 10
83.6298739890911
 20
-28.00000000000001
 30
0.0
 11
83.6298739890911
 21
28.0
 31
0.0
  0
SOLID
  5
700
330
20E
100
AcDbEntity
  8
SK2
100
AcDbTrace
 10
83.04654065575777
 20
-28.00000000000001
 30
0.0
 11
84.21320732242442
 21
-28.00000000000001
 31
0.0
 12
83.6298739890911
 22
-31.5
 32
0.0
 13
83.6298739890911
 23
-31.5
 33
0.0
  0
SOLID
  5
701
330
20E
100
AcDbEntity
  8
SK2
100
AcDbTrace
 10
83.04654065575777
 20
28.0
 30
0.0
 11
84.21320732242442
 21
28.0
 31
0.0
 12
83.6298739890911
 22
31.5
 32
0.0
 13
83.6298739890911
 23
31.5
 33
0.0
  0
MTEXT
  5
702
330
20E
100
AcDbEntity
  8
SK2
100
AcDbMText
 10
81.25487398909109
 20
0.0000000001000163
 30
0.0
 40
3.5
 41
0.0
 71
     5
 72
     1
  1
%%c63
 11
0.0000000000000001
 21
1.0
 31
0.0
 73
     1
 44
1.0
1001
ACAD
1000
MTEXTBEGIN
1070
    73
1070
     1
1070
    44
1040
1.0
1070
    74
1070
     0
1000
MTEXTEND
  0
POINT
  5
703
330
20E
100
AcDbEntity
  8
Defpoints
 62
     0
100
AcDbPoint
 10
71.0
 20
-31.5
 30
0.0
  0
POINT
  5
704
330
20E
100
AcDbEntity
  8
Defpoints
 62
     0
100
AcDbPoint
 10
71.0
 20
31.5
 30
0.0
  0
POINT
  5
705
330
20E
100
AcDbEntity
  8
Defpoints
 62
     0
100
AcDbPoint
 10
83.6298739890911
 20
31.5
 30
0.0
  0
ENDBLK
  5
244
330
20E
100
AcDbEntity
  8
0
  6
ByBlock
 62
     0
100
AcDbBlockEnd
  0
BLOCK
  5
245
330
20F
100
AcDbEntity
  8
SK2
  6
Continuous
 62
     7
100
AcDbBlockBegin
  2
*D6
 70
     1
 10
0.0
 20
0.0
 30
0.0
  3
*D6
  1

  0
LINE
  5
706
330
20F
100
AcDbEntity
  8
SK2
370
    -2
100
AcDbLine
 10
-1.625
 20
-30.0
 30
0.0
 11
-14.62500000000003
 21
-30.0
 31
0.0
  0
LINE
  5
707
330
20F
100
AcDbEntity
  8
SK2
370
    -2
100
AcDbLine
 10
-1.625
 20
30.0
 30
0.0
 11
-14.62500000000002
 21
30.0
 31
0.0
  0
LINE
  5
708
330
20F
100
AcDbEntity
  8
SK2
370
    -2
100
AcDbLine
 10
-12.62500000000003
 20
-26.5
 30
0.0
 11
-12.62500000000002
 21
26.5
 31
0.0
  0
SOLID
  5
709
330
20F
100
AcDbEntity
  8
SK2
100
AcDbTrace
 10
-13.20833333333337
 20
-26.5
 30
0.0
 11
-12.0416666666667
 21
-26.5
 31
0.0
 12
-12.62500000000003
 22
-30.0
 32
0.0
 13
-12.62500000000003
 23
-30.0
 33
0.0
  0
SOLID
  5
70A
330
20F
100
AcDbEntity
  8
SK2
100
AcDbTrace
 10
-13.20833333333335
 20
26.5
 30
0.0
 11
-12.04166666666669
 21
26.5
 31
0.0
 12
-12.62500000000002
 22
30.0
 32
0.0
 13
-12.62500000000002
 23
30.0
 33
0.0
  0
MTEXT
  5
70B
330
20F
100
AcDbEntity
  8
SK2
100
AcDbMText
 10
-15.00000000000003
 20
0.0000000001000163
 30
0.0
 40
3.5
 41
0.0
 71
     5
 72
     1
  1
%%c60
 11
0.0000000000000001
 21
1.0
 31
0.0
 73
     1
 44
1.0
1001
ACAD
1000
MTEXTBEGIN
1070
    73
1070
     1
1070
    44
1040
1.0
1070
    74
1070
     0
1000
MTEXTEND
  0
POINT
  5
70C
330
20F
100
AcDbEntity
  8
Defpoints
 62
     0
100
AcDbPoint
 10
-1.0
 20
-30.0
 30
0.0
  0
POINT
  5
70D
330
20F
100
AcDbEntity
  8
Defpoints
 62
     0
100
AcDbPoint
 10
-1.0
 20
30.0
 30
0.0
  0
POINT
  5
70E
330
20F
100
AcDbEntity
  8
Defpoints
 62
     0
100
AcDbPoint
 10
-12.62500000000002
 20
30.0
 30
0.0
  0
ENDBLK
  5
24E
330
20F
100
AcDbEntity
  8
0
  6
ByBlock
 62
     0
100
AcDbBlockEnd
  0
BLOCK
  5
24F
330
210
100
AcDbEntity
  8
SK2
  6
Continuous
 62
     7
100
AcDbBlockBegin
  2
*D7
 70
     1
 10
0.0
 20
0.0
 30
0.0
  3
*D7
  1

  0
LINE
  5
70F
330
210
100
AcDbEntity
  8
SK2
370
    -2
100
AcDbLine
 10
71.625
 20
-35.92102448419999
 30
0.0
 11
92.52674896826516
 21
-35.9210244842
 31
0.0
  0
LINE
  5
710
330
210
100
AcDbEntity
  8
SK2
370
    -2
100
AcDbLine
 10
71.625
 20
35.92102448430001
 30
0.0
 11
92.52674896826517
 21
35.9210244843
 31
0.0
  0
LINE
  5
711
330
210
100
AcDbEntity
  8
SK2
370
    -2
100
AcDbLine
 10
90.52674896826514
 20
-32.4210244842
 30
0.0
 11
90.52674896826518
 21
32.4210244843
 31
0.0
  0
SOLID
  5
712
330
210
100
AcDbEntity
  8
SK2
100
AcDbTrace
 10
89.94341563493183
 20
-32.4210244842
 30
0.0
 11
91.11008230159848
 21
-32.4210244842
 31
0.0
 12
90.52674896826514
 22
-35.9210244842
 32
0.0
 13
90.52674896826514
 23
-35.9210244842
 33
0.0
  0
SOLID
  5
713
330
210
100
AcDbEntity
  8
SK2
100
AcDbTrace
 10
89.94341563493184
 20
32.4210244843
 30
0.0
 11
91.11008230159852
 21
32.4210244843
 31
0.0
 12
90.52674896826518
 22
35.9210244843
 32
0.0
 13
90.52674896826518
 23
35.9210244843
 33
0.0
  0
MTEXT
  5
714
330
210
100
AcDbEntity
  8
SK2
100
AcDbMText
 10
88.15174896826517
 20
0.0000000001000163
 30
0.0
 40
3.5
 41
0.0
 71
     5
 72
     1
  1
Lk-%%c101.6
 11
0.0000000000000001
 21
1.0
 31
0.0
 73
     1
 44
1.0
1001
ACAD
1000
MTEXTBEGIN
1070
    73
1070
     1
1070
    44
1040
1.0
1070
    74
1070
     0
1000
MTEXTEND
  0
POINT
  5
715
330
210
100
AcDbEntity
  8
Defpoints
 62
     0
100
AcDbPoint
 10
71.0
 20
-35.92102448419999
 30
0.0
  0
POINT
  5
716
330
210
100
AcDbEntity
  8
Defpoints
 62
     0
100
AcDbPoint
 10
71.0
 20
35.92102448430001
 30
0.0
  0
POINT
  5
717
330
210
100
AcDbEntity
  8
Defpoints
 62
     0
100
AcDbPoint
 10
90.52674896826518
 20
35.9210244843
 30
0.0
  0
ENDBLK
  5
258
330
210
100
AcDbEntity
  8
0
  6
ByBlock
 62
     0
100
AcDbBlockEnd
  0
BLOCK
  5
259
330
211
100
AcDbEntity
  8
SK2
  6
Continuous
 62
     7
100
AcDbBlockBegin
  2
*D8
 70
     1
 10
0.0
 20
0.0
 30
0.0
  3
*D8
  1

  0
LINE
  5
718
330
211
100
AcDbEntity
  8
SK2
370
    -2
100
AcDbLine
 10
71.625
 20
-62.8617928475
 30
0.0
 11
101.5202753907432
 21
-62.86179284750001
 31
0.0
  0
LINE
  5
719
330
211
100
AcDbEntity
  8
SK2
370
    -2
100
AcDbLine
 10
71.625
 20
62.8617928475
 30
0.0
 11
101.5202753907432
 21
62.86179284749999
 31
0.0
  0
LINE
  5
71A
330
211
100
AcDbEntity
  8
SK2
370
    -2
100
AcDbLine
 10
99.52027539074322
 20
-59.3617928475
 30
0.0
 11
99.52027539074324
 21
59.36179284749999
 31
0.0
  0
SOLID
  5
71B
330
211
100
AcDbEntity
  8
SK2
100
AcDbTrace
 10
98.93694205740988
 20
-59.3617928475
 30
0.0
 11
100.1036087240765
 21
-59.3617928475
 31
0.0
 12
99.52027539074322
 22
-62.86179284750001
 32
0.0
 13
99.52027539074322
 23
-62.86179284750001
 33
0.0
  0
SOLID
  5
71C
330
211
100
AcDbEntity
  8
SK2
100
AcDbTrace
 10
98.93694205740992
 20
59.36179284749999
 30
0.0
 11
100.1036087240765
 21
59.36179284749999
 31
0.0
 12
99.52027539074324
 22
62.86179284749999
 32
0.0
 13
99.52027539074324
 23
62.86179284749999
 33
0.0
  0
MTEXT
  5
71D
330
211
100
AcDbEntity
  8
SK2
100
AcDbMText
 10
97.14527539074323
 20
0.0000000001000163
 30
0.0
 40
3.5
 41
0.0
 71
     5
 72
     1
  1
Lk-%%c177.8
 11
0.0000000000000001
 21
1.0
 31
0.0
 73
     1
 44
1.0
1001
ACAD
1000
MTEXTBEGIN
1070
    73
1070
     1
1070
    44
1040
1.0
1070
    74
1070
     0
1000
MTEXTEND
  0
POINT
  5
71E
330
211
100
AcDbEntity
  8
Defpoints
 62
     0
100
AcDbPoint
 10
71.0
 20
-62.8617928475
 30
0.0
  0
POINT
  5
71F
330
211
100
AcDbEntity
  8
Defpoints
 62
     0
100
AcDbPoint
 10
71.0
 20
62.8617928475
 30
0.0
  0
POINT
  5
720
330
211
100
AcDbEntity
  8
Defpoints
 62
     0
100
AcDbPoint
 10
99.52027539074324
 20
62.86179284749999
 30
0.0
  0
ENDBLK
  5
262
330
211
100
AcDbEntity
  8
0
  6
ByBlock
 62
     0
100
AcDbBlockEnd
  0
BLOCK
  5
263
330
212
100
AcDbEntity
  8
SK2
  6
Continuous
 62
     7
100
AcDbBlockBegin
  2
*D9
 70
     1
 10
0.0
 20
0.0
 30
0.0
  3
*D9
  1

  0
LINE
  5
721
330
212
100
AcDbEntity
  8
SK2
370
    -2
100
AcDbLine
 10
-1.625
 20
-140.0
 30
0.0
 11
-23.12500000000006
 21
-140.0
 31
0.0
  0
LINE
  5
722
330
212
100
AcDbEntity
  8
SK2
370
    -2
100
AcDbLine
 10
-1.625
 20
140.0
 30
0.0
 11
-23.125
 21
140.0
 31
0.0
  0
LINE
  5
723
330
212
100
AcDbEntity
  8
SK2
370
    -2
100
AcDbLine
 10
-21.12500000000006
 20
-136.5
 30
0.0
 11
-21.125
 21
136.5
 31
0.0
  0
SOLID
  5
724
330
212
100
AcDbEntity
  8
SK2
100
AcDbTrace
 10
-21.70833333333339
 20
-136.5
 30
0.0
 11
-20.54166666666673
 21
-136.5
 31
0.0
 12
-21.12500000000006
 22
-140.0
 32
0.0
 13
-21.12500000000006
 23
-140.0
 33
0.0
  0
SOLID
  5
725
330
212
100
AcDbEntity
  8
SK2
100
AcDbTrace
 10
-21.70833333333333
 20
136.5
 30
0.0
 11
-20.54166666666667
 21
136.5
 31
0.0
 12
-21.125
 22
140.0
 32
0.0
 13
-21.125
 23
140.0
 33
0.0
  0
MTEXT
  5
726
330
212
100
AcDbEntity
  8
SK2
100
AcDbMText
 10
-23.50034448818901
 20
0.0000000001000163
 30
0.0
 40
3.5
 41
0.0
 71
     5
 72
     1
  1
%%c280
 11
0.0000000000000001
 21
1.0
 31
0.0
 73
     1
 44
1.0
1001
ACAD
1000
MTEXTBEGIN
1070
    73
1070
     1
1070
    44
1040
1.0
1070
    74
1070
     0
1000
MTEXTEND
  0
POINT
  5
727
330
212
100
AcDbEntity
  8
Defpoints
 62
     0
100
AcDbPoint
 10
-1.0
 20
-140.0
 30
0.0
  0
POINT
  5
728
330
212
100
AcDbEntity
  8
Defpoints
 62
     0
100
AcDbPoint
 10
-1.0
 20
140.0
 30
0.0
  0
POINT
  5
729
330
212
100
AcDbEntity
  8
Defpoints
 62
     0
100
AcDbPoint
 10
-21.125
 20
140.0
 30
0.0
  0
ENDBLK
  5
26C
330
212
100
AcDbEntity
  8
0
  6
ByBlock
 62
     0
100
AcDbBlockEnd
  0
BLOCK
  5
26D
330
213
100
AcDbEntity
  8
1
  6
Continuous
 62
     3
100
AcDbBlockBegin
  2
NULLPUNKT_BL0
 70
     0
 10
258.2529825884
 20
210.7493692178
 30
0.0
  3
NULLPUNKT_BL0
  1

  0
LINE
  5
26E
330
213
100
AcDbEntity
  8
1
  6
Continuous
 62
     4
100
AcDbLine
 10
258.2529825884
 20
210.7493692178
 30
0.0
 11
259.7529795884
 21
210.7493692178
 31
0.0
  0
ARC
  5
26F
330
213
100
AcDbEntity
  8
1
  6
Continuous
 62
     4
100
AcDbCircle
 10
258.2529825884
 20
210.7493692178
 30
0.0
 40
1.499997
100
AcDbArc
 50
180.0
 51
270.0
  0
LINE
  5
270
330
213
100
AcDbEntity
  8
1
  6
Continuous
 62
     4
100
AcDbLine
 10
258.2529825884
 20
210.7493692178
 30
0.0
 11
258.2529825884
 21
209.2493722178
 31
0.0
  0
ARC
  5
271
330
213
100
AcDbEntity
  8
1
  6
Continuous
 62
     4
100
AcDbCircle
 10
258.2529825884
 20
210.7493692178
 30
0.0
 40
1.499997
100
AcDbArc
 50
270.0
 51
360.0
  0
ARC
  5
272
330
213
100
AcDbEntity
  8
1
  6
Continuous
 62
     4
100
AcDbCircle
 10
258.2529825884
 20
210.7493692178
 30
0.0
 40
1.499997
100
AcDbArc
 50
0.0
 51
90.0
  0
ARC
  5
273
330
213
100
AcDbEntity
  8
1
  6
Continuous
 62
     4
100
AcDbCircle
 10
258.2529825884
 20
210.7493692178
 30
0.0
 40
1.499997
100
AcDbArc
 50
90.0
 51
180.0
  0
LINE
  5
274
330
213
100
AcDbEntity
  8
1
  6
Continuous
 62
     4
100
AcDbLine
 10
258.2529825884
 20
212.2493662178
 30
0.0
 11
258.2529825884
 21
210.7493692178
 31
0.0
  0
LINE
  5
275
330
213
100
AcDbEntity
  8
1
  6
Continuous
 62
     4
100
AcDbLine
 10
256.7529855884
 20
210.7493692178
 30
0.0
 11
258.2529825884
 21
210.7493692178
 31
0.0
  0
LWPOLYLINE
  5
276
330
213
100
AcDbEntity
  8
1
  6
Continuous
 62
     4
100
AcDbPolyline
 90
       18
 70
     0
 43
0.0
 10
258.2529825884
 20
210.7493692178
 10
256.7529855884
 20
210.7493692178
 10
256.7612027289
 20
210.9061615991
 10
256.7857641216999
 20
211.0612361303
 10
256.8264006671
 20
211.2128937823
 10
256.8826671426
 20
211.3594729622
 10
256.9539470808
 20
211.4993677178
 10
257.0394595239
 20
211.6310453329
 10
257.1382675796
 20
211.7530631199
 10
257.2492886863
 20
211.8640842266
 10
257.3713064733
 20
211.9628922823
 10
257.5029840884
 20
212.0484047254
 10
257.642878844
 20
212.1196846636
 10
257.7894580239
 20
212.1759511391
 10
257.9411156759
 20
212.2165876845
 10
258.0961902071
 20
212.2411490773
 10
258.2529825884
 20
212.2493662178
 10
258.2529825884
 20
210.7493692178
  0
HATCH
  5
277
330
213
100
AcDbEntity
  8
1
  6
Continuous
 62
     4
100
AcDbHatch
 10
0.0
 20
0.0
 30
0.0
210
0.0
220
0.0
230
1.0
  2
SOLID
 70
     1
 71
     1
 91
        1
 92
        1
 93
       17
 72
     1
 10
258.2529825884
 20
210.7493692178
 11
256.7529855884
 21
210.7493692178
 72
     1
 10
256.7529855884
 20
210.7493692178
 11
256.7612027289
 21
210.9061615991
 72
     1
 10
256.7612027289
 20
210.9061615991
 11
256.7857641216999
 21
211.0612361303
 72
     1
 10
256.7857641216999
 20
211.0612361303
 11
256.8264006671
 21
211.2128937823
 72
     1
 10
256.8264006671
 20
211.2128937823
 11
256.8826671426
 21
211.3594729622
 72
     1
 10
256.8826671426
 20
211.3594729622
 11
256.9539470808
 21
211.4993677178
 72
     1
 10
256.9539470808
 20
211.4993677178
 11
257.0394595239
 21
211.6310453329
 72
     1
 10
257.0394595239
 20
211.6310453329
 11
257.1382675796
 21
211.7530631199
 72
     1
 10
257.1382675796
 20
211.7530631199
 11
257.2492886863
 21
211.8640842266
 72
     1
 10
257.2492886863
 20
211.8640842266
 11
257.3713064733
 21
211.9628922823
 72
     1
 10
257.3713064733
 20
211.9628922823
 11
257.5029840884
 21
212.0484047254
 72
     1
 10
257.5029840884
 20
212.0484047254
 11
257.642878844
 21
212.1196846636
 72
     1
 10
257.642878844
 20
212.1196846636
 11
257.7894580239
 21
212.1759511391
 72
     1
 10
257.7894580239
 20
212.1759511391
 11
257.9411156759
 21
212.2165876845
 72
     1
 10
257.9411156759
 20
212.2165876845
 11
258.0961902071
 21
212.2411490773
 72
     1
 10
258.0961902071
 20
212.2411490773
 11
258.2529825884
 21
212.2493662178
 72
     1
 10
258.2529825884
 20
212.2493662178
 11
258.2529825884
 21
210.7493692178
 97
        1
330
276
 75
     0
 76
     1
 98
        1
 10
0.0
 20
0.0
  0
LWPOLYLINE
  5
278
330
213
100
AcDbEntity
  8
1
  6
Continuous
 62
     4
100
AcDbPolyline
 90
       18
 70
     0
 43
0.0
 10
258.2529825884
 20
210.7493692178
 10
259.7529795884
 20
210.7493692178
 10
259.7447624479
 20
210.5925768365
 10
259.7202010551
 20
210.4375023053
 10
259.6795645097
 20
210.2858446533
 10
259.6232980342
 20
210.1392654734
 10
259.552018096
 20
209.9993707178
 10
259.4665056529
 20
209.8676931027
 10
259.3676975972
 20
209.7456753157
 10
259.2566764905
 20
209.634654209
 10
259.1346587035
 20
209.5358461533
 10
259.0029810884
 20
209.4503337102
 10
258.8630863328
 20
209.379053772
 10
258.7165071529
 20
209.3227872965
 10
258.5648495009
 20
209.2821507511
 10
258.4097749697
 20
209.2575893583
 10
258.2529825884
 20
209.2493722178
 10
258.2529825884
 20
210.7493692178
  0
HATCH
  5
279
330
213
100
AcDbEntity
  8
1
  6
Continuous
 62
     4
100
AcDbHatch
 10
0.0
 20
0.0
 30
0.0
210
0.0
220
0.0
230
1.0
  2
SOLID
 70
     1
 71
     1
 91
        1
 92
        1
 93
       17
 72
     1
 10
258.2529825884
 20
210.7493692178
 11
259.7529795884
 21
210.7493692178
 72
     1
 10
259.7529795884
 20
210.7493692178
 11
259.7447624479
 21
210.5925768365
 72
     1
 10
259.7447624479
 20
210.5925768365
 11
259.7202010551
 21
210.4375023053
 72
     1
 10
259.7202010551
 20
210.4375023053
 11
259.6795645097
 21
210.2858446533
 72
     1
 10
259.6795645097
 20
210.2858446533
 11
259.6232980342
 21
210.1392654734
 72
     1
 10
259.6232980342
 20
210.1392654734
 11
259.552018096
 21
209.9993707178
 72
     1
 10
259.552018096
 20
209.9993707178
 11
259.4665056529
 21
209.8676931027
 72
     1
 10
259.4665056529
 20
209.8676931027
 11
259.3676975972
 21
209.7456753157
 72
     1
 10
259.3676975972
 20
209.7456753157
 11
259.2566764905
 21
209.634654209
 72
     1
 10
259.2566764905
 20
209.634654209
 11
259.1346587035
 21
209.5358461533
 72
     1
 10
259.1346587035
 20
209.5358461533
 11
259.0029810884
 21
209.4503337102
 72
     1
 10
259.0029810884
 20
209.4503337102
 11
258.8630863328
 21
209.379053772
 72
     1
 10
258.8630863328
 20
209.379053772
 11
258.7165071529
 21
209.3227872965
 72
     1
 10
258.7165071529
 20
209.3227872965
 11
258.5648495009
 21
209.2821507511
 72
     1
 10
258.5648495009
 20
209.2821507511
 11
258.4097749697
 21
209.2575893583
 72
     1
 10
258.4097749697
 20
209.2575893583
 11
258.2529825884
 21
209.2493722178
 72
     1
 10
258.2529825884
 20
209.2493722178
 11
258.2529825884
 21
210.7493692178
 97
        1
330
278
 75
     0
 76
     1
 98
        1
 10
0.0
 20
0.0
  0
LINE
  5
27A
330
213
100
AcDbEntity
  8
1
  6
Continuous
 62
     4
100
AcDbLine
 10
258.2529825884
 20
209.2493722178
 30
0.0
 11
258.2529825884
 21
210.7493692178
 31
0.0
  0
ARC
  5
27B
330
213
100
AcDbEntity
  8
1
  6
Continuous
 62
     4
100
AcDbCircle
 10
258.2529825884
 20
210.7493692178
 30
0.0
 40
1.499997
100
AcDbArc
 50
270.0
 51
360.0
  0
LINE
  5
27C
330
213
100
AcDbEntity
  8
1
  6
Continuous
 62
     4
100
AcDbLine
 10
259.7529795884
 20
210.7493692178
 30
0.0
 11
258.2529825884
 21
210.7493692178
 31
0.0
  0
ENDBLK
  5
27D
330
213
100
AcDbEntity
  8
0
  6
ByBlock
 62
     0
100
AcDbBlockEnd
  0
BLOCK
  5
27E
330
214
100
AcDbEntity
  8
1
  6
Continuous
 62
     3
100
AcDbBlockBegin
  2
EINFUEGEPUNKT_BL1
 70
     0
 10
300.2529825884
 20
210.7493692178
 30
0.0
  3
EINFUEGEPUNKT_BL1
  1

  0
LINE
  5
27F
330
214
100
AcDbEntity
  8
1
  6
Continuous
 62
     4
100
AcDbLine
 10
300.2529825884
 20
210.7493692178
 30
0.0
 11
300.2529825884
 21
210.2493702178
 31
0.0
  0
ARC
  5
280
330
214
100
AcDbEntity
  8
1
  6
Continuous
 62
     4
100
AcDbCircle
 10
300.2529825884
 20
210.7493692178
 30
0.0
 40
0.4999990000000001
100
AcDbArc
 50
90.0
 51
180.0
  0
LINE
  5
281
330
214
100
AcDbEntity
  8
1
  6
Continuous
 62
     4
100
AcDbLine
 10
300.2529825884
 20
210.7493692178
 30
0.0
 11
299.7529835884
 21
210.7493692178
 31
0.0
  0
ARC
  5
282
330
214
100
AcDbEntity
  8
1
  6
Continuous
 62
     4
100
AcDbCircle
 10
300.2529825884
 20
210.7493692178
 30
0.0
 40
0.4999990000000001
100
AcDbArc
 50
180.0
 51
270.0
  0
ARC
  5
283
330
214
100
AcDbEntity
  8
1
  6
Continuous
 62
     4
100
AcDbCircle
 10
300.2529825884
 20
210.7493692178
 30
0.0
 40
0.4999990000000001
100
AcDbArc
 50
270.0
 51
360.0
  0
ARC
  5
284
330
214
100
AcDbEntity
  8
1
  6
Continuous
 62
     4
100
AcDbCircle
 10
300.2529825884
 20
210.7493692178
 30
0.0
 40
0.4999990000000001
100
AcDbArc
 50
0.0
 51
90.0
  0
LINE
  5
285
330
214
100
AcDbEntity
  8
1
  6
Continuous
 62
     4
100
AcDbLine
 10
300.7529815884
 20
210.7493692178
 30
0.0
 11
300.2529825884
 21
210.7493692178
 31
0.0
  0
LINE
  5
286
330
214
100
AcDbEntity
  8
1
  6
Continuous
 62
     4
100
AcDbLine
 10
300.2529825884
 20
211.2493682178
 30
0.0
 11
300.2529825884
 21
210.7493692178
 31
0.0
  0
LWPOLYLINE
  5
287
330
214
100
AcDbEntity
  8
1
  6
Continuous
 62
     4
100
AcDbPolyline
 90
       18
 70
     0
 43
0.0
 10
300.2529825884
 20
210.7493692178
 10
300.2529825884
 20
211.2493682178
 10
300.3052467155
 20
211.246629171
 10
300.3569382259
 20
211.23844204
 10
300.4074907766
 20
211.2248965249
 10
300.4563505032
 20
211.2061410331
 10
300.5029820884
 20
211.1823810537
 10
300.5468746268
 20
211.153876906
 10
300.5875472224
 20
211.1209408874
 10
300.624554258
 20
211.0839338518
 10
300.6574902766
 20
211.0432612562
 10
300.6859944243
 20
210.9993687178
 10
300.7097544037
 20
210.9527371326
 10
300.7285098955
 20
210.903877406
 10
300.7420554106
 20
210.8533248553
 10
300.7502425416
 20
210.8016333449
 10
300.7529815884
 20
210.7493692178
 10
300.2529825884
 20
210.7493692178
  0
HATCH
  5
288
330
214
100
AcDbEntity
  8
1
  6
Continuous
 62
     4
100
AcDbHatch
 10
0.0
 20
0.0
 30
0.0
210
0.0
220
0.0
230
1.0
  2
SOLID
 70
     1
 71
     1
 91
        1
 92
        1
 93
       17
 72
     1
 10
300.2529825884
 20
210.7493692178
 11
300.2529825884
 21
211.2493682178
 72
     1
 10
300.2529825884
 20
211.2493682178
 11
300.3052467155
 21
211.246629171
 72
     1
 10
300.3052467155
 20
211.246629171
 11
300.3569382259
 21
211.23844204
 72
     1
 10
300.3569382259
 20
211.23844204
 11
300.4074907766
 21
211.2248965249
 72
     1
 10
300.4074907766
 20
211.2248965249
 11
300.4563505032
 21
211.2061410331
 72
     1
 10
300.4563505032
 20
211.2061410331
 11
300.5029820884
 21
211.1823810537
 72
     1
 10
300.5029820884
 20
211.1823810537
 11
300.5468746268
 21
211.153876906
 72
     1
 10
300.5468746268
 20
211.153876906
 11
300.5875472224
 21
211.1209408874
 72
     1
 10
300.5875472224
 20
211.1209408874
 11
300.624554258
 21
211.0839338518
 72
     1
 10
300.624554258
 20
211.0839338518
 11
300.6574902766
 21
211.0432612562
 72
     1
 10
300.6574902766
 20
211.0432612562
 11
300.6859944243
 21
210.9993687178
 72
     1
 10
300.6859944243
 20
210.9993687178
 11
300.7097544037
 21
210.9527371326
 72
     1
 10
300.7097544037
 20
210.9527371326
 11
300.7285098955
 21
210.903877406
 72
     1
 10
300.7285098955
 20
210.903877406
 11
300.7420554106
 21
210.8533248553
 72
     1
 10
300.7420554106
 20
210.8533248553
 11
300.7502425416
 21
210.8016333449
 72
     1
 10
300.7502425416
 20
210.8016333449
 11
300.7529815884
 21
210.7493692178
 72
     1
 10
300.7529815884
 20
210.7493692178
 11
300.2529825884
 21
210.7493692178
 97
        1
330
287
 75
     0
 76
     1
 98
        1
 10
0.0
 20
0.0
  0
LWPOLYLINE
  5
289
330
214
100
AcDbEntity
  8
1
  6
Continuous
 62
     4
100
AcDbPolyline
 90
       18
 70
     0
 43
0.0
 10
300.2529825884
 20
210.7493692178
 10
300.2529825884
 20
210.2493702178
 10
300.2007184613
 20
210.2521092646
 10
300.1490269509
 20
210.2602963956
 10
300.0984744002
 20
210.2738419107
 10
300.0496146736
 20
210.2925974025
 10
300.0029830884
 20
210.3163573819
 10
299.95909055
 20
210.3448615296
 10
299.9184179544
 20
210.3777975482
 10
299.8814109188
 20
210.4148045838
 10
299.8484749002
 20
210.4554771794
 10
299.8199707525
 20
210.4993697178
 10
299.7962107731
 20
210.546001303
 10
299.7774552813
 20
210.5948610296
 10
299.7639097662
 20
210.6454135803
 10
299.7557226352
 20
210.6971050907
 10
299.7529835884
 20
210.7493692178
 10
300.2529825884
 20
210.7493692178
  0
HATCH
  5
28A
330
214
100
AcDbEntity
  8
1
  6
Continuous
 62
     4
100
AcDbHatch
 10
0.0
 20
0.0
 30
0.0
210
0.0
220
0.0
230
1.0
  2
SOLID
 70
     1
 71
     1
 91
        1
 92
        1
 93
       17
 72
     1
 10
300.2529825884
 20
210.7493692178
 11
300.2529825884
 21
210.2493702178
 72
     1
 10
300.2529825884
 20
210.2493702178
 11
300.2007184613
 21
210.2521092646
 72
     1
 10
300.2007184613
 20
210.2521092646
 11
300.1490269509
 21
210.2602963956
 72
     1
 10
300.1490269509
 20
210.2602963956
 11
300.0984744002
 21
210.2738419107
 72
     1
 10
300.0984744002
 20
210.2738419107
 11
300.0496146736
 21
210.2925974025
 72
     1
 10
300.0496146736
 20
210.2925974025
 11
300.0029830884
 21
210.3163573819
 72
     1
 10
300.0029830884
 20
210.3163573819
 11
299.95909055
 21
210.3448615296
 72
     1
 10
299.95909055
 20
210.3448615296
 11
299.9184179544
 21
210.3777975482
 72
     1
 10
299.9184179544
 20
210.3777975482
 11
299.8814109188
 21
210.4148045838
 72
     1
 10
299.8814109188
 20
210.4148045838
 11
299.8484749002
 21
210.4554771794
 72
     1
 10
299.8484749002
 20
210.4554771794
 11
299.8199707525
 21
210.4993697178
 72
     1
 10
299.8199707525
 20
210.4993697178
 11
299.7962107731
 21
210.546001303
 72
     1
 10
299.7962107731
 20
210.546001303
 11
299.7774552813
 21
210.5948610296
 72
     1
 10
299.7774552813
 20
210.5948610296
 11
299.7639097662
 21
210.6454135803
 72
     1
 10
299.7639097662
 20
210.6454135803
 11
299.7557226352
 21
210.6971050907
 72
     1
 10
299.7557226352
 20
210.6971050907
 11
299.7529835884
 21
210.7493692178
 72
     1
 10
299.7529835884
 20
210.7493692178
 11
300.2529825884
 21
210.7493692178
 97
        1
330
289
 75
     0
 76
     1
 98
        1
 10
0.0
 20
0.0
  0
LINE
  5
28B
330
214
100
AcDbEntity
  8
1
  6
Continuous
 62
     4
100
AcDbLine
 10
299.7529835884
 20
210.7493692178
 30
0.0
 11
300.2529825884
 21
210.7493692178
 31
0.0
  0
ARC
  5
28C
330
214
100
AcDbEntity
  8
1
  6
Continuous
 62
     4
100
AcDbCircle
 10
300.2529825884
 20
210.7493692178
 30
0.0
 40
0.4999990000000001
100
AcDbArc
 50
180.0
 51
270.0
  0
LINE
  5
28D
330
214
100
AcDbEntity
  8
1
  6
Continuous
 62
     4
100
AcDbLine
 10
300.2529825884
 20
210.2493702178
 30
0.0
 11
300.2529825884
 21
210.7493692178
 31
0.0
  0
ENDBLK
  5
28E
330
214
100
AcDbEntity
  8
0
  6
ByBlock
 62
     0
100
AcDbBlockEnd
  0
ENDSEC
  0
SECTION
  2
ENTITIES
  0
DIMENSION
  5
292
330
1B
100
AcDbEntity
  8
SK2
100
AcDbDimension
  2
*D1
 10
-29.62499999999998
 20
197.4999999999999
 30
0.0
 11
-29.62500000000003
 21
0.000000000100016
 31
0.0
 70
   160
  1
%%c395
 71
     5
 42
395.0
  3
ISO-25
100
AcDbAlignedDimension
 13
1.0
 23
-197.5
 33
0.0
 14
1.0
 24
197.4999999999999
 34
0.0
 50
90.0
100
AcDbRotatedDimension
  0
DIMENSION
  5
293
330
1B
100
AcDbEntity
  8
2
100
AcDbDimension
  2
*D2
 10
42.0
 20
210.125
 30
0.0
 11
21.0
 21
210.125
 31
0.0
 70
   160
  1
42
 71
     5
 42
42.0
  3
ISO-25
100
AcDbAlignedDimension
 13
0.0
 23
141.0
 33
0.0
 14
42.0
 24
198.5
 34
0.0
100
AcDbRotatedDimension
  0
DIMENSION
  5
294
330
1B
100
AcDbEntity
  8
SK2
100
AcDbDimension
  2
*D3
 10
106.9689015957648
 20
127.0
 30
0.0
 11
106.9689015957648
 21
0.000000000100016
 31
0.0
 70
   160
  1
%%c254
 71
     5
 42
254.0
  3
ISO-25
100
AcDbAlignedDimension
 13
71.0
 23
-127.0
 33
0.0
 14
71.0
 24
127.0
 34
0.0
 50
90.0
100
AcDbRotatedDimension
  0
DIMENSION
  5
295
330
1B
100
AcDbEntity
  8
SK2
100
AcDbDimension
  2
*D4
 10
0.0000000000000047
 20
218.625
 30
0.0
 11
35.0
 21
218.625
 31
0.0
 70
   160
  1
70
 71
     5
 42
70.0
  3
ISO-25
100
AcDbAlignedDimension
 13
70.0
 23
128.7506307822
 33
0.0
 14
0.0
 24
141.7506307822
 34
0.0
 50
180.0
100
AcDbRotatedDimension
  0
DIMENSION
  5
296
330
1B
100
AcDbEntity
  8
SK2
100
AcDbDimension
  2
*D5
 10
83.6298739890911
 20
31.5
 30
0.0
 11
83.6298739890911
 21
0.000000000100016
 31
0.0
 70
   160
  1
%%c63
 71
     5
 42
63.0
  3
ISO-25
100
AcDbAlignedDimension
 13
71.0
 23
-31.5
 33
0.0
 14
71.0
 24
31.5
 34
0.0
 50
90.0
100
AcDbRotatedDimension
  0
DIMENSION
  5
297
330
1B
100
AcDbEntity
  8
SK2
100
AcDbDimension
  2
*D6
 10
-12.62500000000002
 20
30.0
 30
0.0
 11
-12.62500000000003
 21
0.000000000100016
 31
0.0
 70
   160
  1
%%c60
 71
     5
 42
60.0
  3
ISO-25
100
AcDbAlignedDimension
 13
-1.0
 23
-30.0
 33
0.0
 14
-1.0
 24
30.0
 34
0.0
 50
90.0
100
AcDbRotatedDimension
  0
DIMENSION
  5
298
330
1B
100
AcDbEntity
  8
SK2
100
AcDbDimension
  2
*D7
 10
90.52674896826518
 20
35.9210244843
 30
0.0
 11
90.52674896826516
 21
0.000000000100016
 31
0.0
 70
   160
  1
Lk-%%c101.6
 71
     5
 42
71.84204896849999
  3
ISO-25
100
AcDbAlignedDimension
 13
71.0
 23
-35.92102448419999
 33
0.0
 14
71.0
 24
35.92102448430001
 34
0.0
 50
90.0
100
AcDbRotatedDimension
  0
DIMENSION
  5
299
330
1B
100
AcDbEntity
  8
SK2
100
AcDbDimension
  2
*D8
 10
99.52027539074324
 20
62.86179284749999
 30
0.0
 11
99.52027539074322
 21
0.000000000100016
 31
0.0
 70
   160
  1
Lk-%%c177.8
 71
     5
 42
125.723585695
  3
ISO-25
100
AcDbAlignedDimension
 13
71.0
 23
-62.8617928475
 33
0.0
 14
71.0
 24
62.8617928475
 34
0.0
 50
90.0
100
AcDbRotatedDimension
  0
DIMENSION
  5
29A
330
1B
100
AcDbEntity
  8
SK2
100
AcDbDimension
  2
*D9
 10
-21.125
 20
140.0
 30
0.0
 11
-21.12500000000003
 21
0.000000000100016
 31
0.0
 70
   160
  1
%%c280
 71
     5
 42
280.0
  3
ISO-25
100
AcDbAlignedDimension
 13
-1.0
 23
-140.0
 33
0.0
 14
-1.0
 24
140.0
 34
0.0
 50
90.0
100
AcDbRotatedDimension
  0
TEXT
  5
29B
330
1B
100
AcDbEntity
  8
6
100
AcDbText
 10
53.35934237173192
 20
-179.3354787624971
 30
0.0
 40
5.0
  1
FBD60BAJ254LA395
 41
0.8
 72
     1
 11
77.2491737451951
 21
-179.3354787624971
 31
0.0
100
AcDbText
  0
INSERT
  5
29C
330
1B
100
AcDbEntity
  8
1
100
AcDbBlockReference
  2
NULLPUNKT_BL0
 10
0.0
 20
0.0
 30
0.0
  0
INSERT
  5
29D
330
1B
100
AcDbEntity
  8
1
100
AcDbBlockReference
  2
EINFUEGEPUNKT_BL1
 10
42.0
 20
0.0
 30
0.0
  0
LINE
  5
29E
330
1B
100
AcDbEntity
  8
1
100
AcDbLine
 10
40.39999999999998
 20
-197.5
 30
0.0
 11
3.599999999999965
 21
-197.5
 31
0.0
  0
LINE
  5
29F
330
1B
100
AcDbEntity
  8
1
100
AcDbLine
 10
0.3999999999999772
 20
-140.0
 30
0.0
 11
0.0
 21
-140.0
 31
0.0
  0
LINE
  5
2A0
330
1B
100
AcDbEntity
  8
SK1
100
AcDbLine
 10
70.0
 20
-127.0
 30
0.0
 11
42.0
 21
-127.0
 31
0.0
  0
LINE
  5
2A1
330
1B
100
AcDbEntity
  8
SK4
100
AcDbLine
 10
73.0
 20
-62.8617928475
 30
0.0
 11
-3.000000000000028
 21
-62.8617928475
 31
0.0
  0
LINE
  5
2A2
330
1B
100
AcDbEntity
  8
NOCUT
100
AcDbLine
 10
0.0
 20
140.0
 30
0.0
 11
0.0
 21
0.0
 31
0.0
  0
LINE
  5
2A3
330
1B
100
AcDbEntity
  8
1
100
AcDbLine
 10
0.0
 20
140.0
 30
0.0
 11
0.0
 21
-140.0
 31
0.0
  0
LINE
  5
2A4
330
1B
100
AcDbEntity
  8
NOCUT
100
AcDbLine
 10
2.0
 20
195.8999999999999
 30
0.0
 11
2.0
 21
141.5999999999999
 31
0.0
  0
LINE
  5
2A5
330
1B
100
AcDbEntity
  8
1
100
AcDbLine
 10
2.0
 20
195.8999999999999
 30
0.0
 11
2.0
 21
-195.9
 31
0.0
  0
LINE
  5
2A6
330
1B
100
AcDbEntity
  8
SK3
100
AcDbLine
 10
14.0
 20
11.25
 30
0.0
 11
14.0
 21
-11.25
 31
0.0
  0
LINE
  5
2A7
330
1B
100
AcDbEntity
  8
SK4
100
AcDbLine
 10
73.0
 20
-35.92102448419999
 30
0.0
 11
-3.000000000000028
 21
-35.92102448419999
 31
0.0
  0
LINE
  5
2A8
330
1B
100
AcDbEntity
  8
SK3
100
AcDbLine
 10
70.0
 20
-31.5
 30
0.0
 11
32.0
 21
-31.5
 31
0.0
  0
LINE
  5
2A9
330
1B
100
AcDbEntity
  8
SK3
100
AcDbLine
 10
32.0
 20
-30.0
 30
0.0
 11
0.0
 21
-30.0
 31
0.0
  0
LINE
  5
2AA
330
1B
100
AcDbEntity
  8
SK3
100
AcDbLine
 10
32.0
 20
-31.5
 30
0.0
 11
32.0
 21
31.5
 31
0.0
  0
LINE
  5
2AB
330
1B
100
AcDbEntity
  8
SK3
100
AcDbLine
 10
12.39999999999997
 20
-12.84999999999999
 30
0.0
 11
0.0
 21
-12.84999999999999
 31
0.0
  0
LINE
  5
2AC
330
1B
100
AcDbEntity
  8
NOCUT
100
AcDbLine
 10
42.0
 20
0.0
 30
0.0
 11
0.0
 21
0.0
 31
0.0
  0
LINE
  5
2AD
330
1B
100
AcDbEntity
  8
4
100
AcDbLine
 10
73.00034418139995
 20
0.0
 30
0.0
 11
-3.000489263800034
 21
0.0
 31
0.0
  0
LINE
  5
2AE
330
1B
100
AcDbEntity
  8
NOCUT
100
AcDbLine
 10
42.0
 20
195.8999999999999
 30
0.0
 11
42.0
 21
0.0
 31
0.0
  0
LINE
  5
2AF
330
1B
100
AcDbEntity
  8
1
100
AcDbLine
 10
42.0
 20
195.8999999999999
 30
0.0
 11
42.0
 21
-195.9
 31
0.0
  0
LINE
  5
2B0
330
1B
100
AcDbEntity
  8
SK3
100
AcDbLine
 10
12.39999999999997
 20
12.84999999999999
 30
0.0
 11
0.0
 21
12.84999999999999
 31
0.0
  0
LINE
  5
2B1
330
1B
100
AcDbEntity
  8
SK1
100
AcDbLine
 10
70.0
 20
127.0
 30
0.0
 11
70.0
 21
-127.0
 31
0.0
  0
LINE
  5
2B2
330
1B
100
AcDbEntity
  8
SK3
100
AcDbLine
 10
32.0
 20
30.0
 30
0.0
 11
0.0
 21
30.0
 31
0.0
  0
LINE
  5
2B3
330
1B
100
AcDbEntity
  8
SK3
100
AcDbLine
 10
70.0
 20
31.5
 30
0.0
 11
32.0
 21
31.5
 31
0.0
  0
LINE
  5
2B4
330
1B
100
AcDbEntity
  8
SK4
100
AcDbLine
 10
73.0
 20
35.92102448430001
 30
0.0
 11
-3.000000000000028
 21
35.92102448430001
 31
0.0
  0
LINE
  5
2B5
330
1B
100
AcDbEntity
  8
SK4
100
AcDbLine
 10
73.0
 20
62.8617928475
 30
0.0
 11
-3.000000000000028
 21
62.8617928475
 31
0.0
  0
LINE
  5
2B6
330
1B
100
AcDbEntity
  8
SK1
100
AcDbLine
 10
70.0
 20
127.0
 30
0.0
 11
42.0
 21
127.0
 31
0.0
  0
LINE
  5
2B7
330
1B
100
AcDbEntity
  8
NOCUT
100
AcDbLine
 10
0.3999999999999772
 20
140.0
 30
0.0
 11
0.0
 21
140.0
 31
0.0
  0
LINE
  5
2B8
330
1B
100
AcDbEntity
  8
1
100
AcDbLine
 10
0.3999999999999772
 20
140.0
 30
0.0
 11
0.0
 21
140.0
 31
0.0
  0
LINE
  5
2B9
330
1B
100
AcDbEntity
  8
NOCUT
100
AcDbLine
 10
40.39999999999998
 20
197.4999999999999
 30
0.0
 11
3.599999999999965
 21
197.4999999999999
 31
0.0
  0
LINE
  5
2BA
330
1B
100
AcDbEntity
  8
1
100
AcDbLine
 10
40.39999999999998
 20
197.4999999999999
 30
0.0
 11
3.599999999999965
 21
197.4999999999999
 31
0.0
  0
ARC
  5
2BB
330
1B
100
AcDbEntity
  8
SK3
100
AcDbCircle
 10
12.39999999999997
 20
11.25
 30
0.0
 40
1.6
100
AcDbArc
 50
0.0
 51
90.0
  0
ARC
  5
2BC
330
1B
100
AcDbEntity
  8
SK3
100
AcDbCircle
 10
12.39999999999997
 20
-11.25
 30
0.0
 40
1.6
100
AcDbArc
 50
270.0
 51
0.0
  0
ARC
  5
2BD
330
1B
100
AcDbEntity
  8
NOCUT
100
AcDbCircle
 10
3.599999999999965
 20
195.8999999999999
 30
0.0
 40
1.6
100
AcDbArc
 50
90.0
 51
180.0
  0
ARC
  5
2BE
330
1B
100
AcDbEntity
  8
NOCUT
100
AcDbCircle
 10
40.39999999999998
 20
195.8999999999999
 30
0.0
 40
1.6
100
AcDbArc
 50
0.0
 51
90.0
  0
ARC
  5
2BF
330
1B
100
AcDbEntity
  8
NOCUT
100
AcDbCircle
 10
0.3999999999999772
 20
141.5999999999999
 30
0.0
 40
1.6
100
AcDbArc
 50
270.0
 51
359.9999999998999
  0
ARC
  5
2C0
330
1B
100
AcDbEntity
  8
1
100
AcDbCircle
 10
3.599999999999965
 20
-195.9
 30
0.0
 40
1.6
100
AcDbArc
 50
180.0
 51
270.0
  0
ARC
  5
2C1
330
1B
100
AcDbEntity
  8
1
100
AcDbCircle
 10
3.599999999999965
 20
195.8999999999999
 30
0.0
 40
1.6
100
AcDbArc
 50
90.0
 51
180.0
  0
ARC
  5
2C2
330
1B
100
AcDbEntity
  8
1
100
AcDbCircle
 10
40.39999999999998
 20
-195.9
 30
0.0
 40
1.6
100
AcDbArc
 50
270.0
 51
0.0
  0
ARC
  5
2C3
330
1B
100
AcDbEntity
  8
1
100
AcDbCircle
 10
40.39999999999998
 20
195.8999999999999
 30
0.0
 40
1.6
100
AcDbArc
 50
0.0
 51
90.0
  0
ARC
  5
2C4
330
1B
100
AcDbEntity
  8
1
100
AcDbCircle
 10
0.3999999999999772
 20
-141.6
 30
0.0
 40
1.6
100
AcDbArc
 50
0.0000000004
 51
90.0
  0
ARC
  5
2C5
330
1B
100
AcDbEntity
  8
1
100
AcDbCircle
 10
0.3999999999999772
 20
141.5999999999999
 30
0.0
 40
1.6
100
AcDbArc
 50
270.0
 51
359.9999999998999
  0
ENDSEC
  0
SECTION
  2
OBJECTS
  0
DICTIONARY
  5
2C6
330
0
100
AcDbDictionary
281
     1
  3
ACAD_COLOR
350
2D0
  3
ACAD_GROUP
350
2C7
  3
ACAD_LAYOUT
350
2D3
  3
ACAD_MATERIAL
350
2CF
  3
ACAD_MLINESTYLE
350
2C8
  3
ACAD_PLOTSETTINGS
350
2D4
  3
ACAD_PLOTSTYLENAME
350
2CD
  3
ACAD_TABLESTYLE
350
2D1
  3
ACDBHEADERROUNDTRIPXREC
350
72B
  3
AcDbVariableDictionary
350
6C6
  0
DICTIONARY
  5
4F0
330
2
100
AcDbDictionary
280
     1
281
     1
  3
ACAD_LAYERFILTERS
360
597
  3
ACLYDICTIONARY
360
596
  0
DICTIONARY
  5
2D0
102
{ACAD_REACTORS
330
2C6
102
}
330
2C6
100
AcDbDictionary
281
     1
  0
DICTIONARY
  5
2C7
102
{ACAD_REACTORS
330
2C6
102
}
330
2C6
100
AcDbDictionary
281
     1
  0
DICTIONARY
  5
2D3
102
{ACAD_REACTORS
330
2C6
102
}
330
2C6
100
AcDbDictionary
281
     1
  3
Layout1
350
2D6
  3
Model
350
2D5
  0
DICTIONARY
  5
2CF
102
{ACAD_REACTORS
330
2C6
102
}
330
2C6
100
AcDbDictionary
281
     1
  0
DICTIONARY
  5
2C8
102
{ACAD_REACTORS
330
2C6
102
}
330
2C6
100
AcDbDictionary
281
     1
  3
STANDARD
350
2C9
  0
DICTIONARY
  5
2D4
102
{ACAD_REACTORS
330
2C6
102
}
330
2C6
100
AcDbDictionary
281
     1
  0
ACDBDICTIONARYWDFLT
  5
2CD
102
{ACAD_REACTORS
330
2C6
102
}
330
2C6
100
AcDbDictionary
281
     1
  3
Normal
350
2CE
100
AcDbDictionaryWithDefault
340
2CE
  0
DICTIONARY
  5
2D1
102
{ACAD_REACTORS
330
2C6
102
}
330
2C6
100
AcDbDictionary
281
     1
  3
Standard
350
2D2
  0
DICTIONARY
  5
72B
102
{ACAD_REACTORS
330
2C6
102
}
330
2C6
100
AcDbDictionary
281
     1
  0
DICTIONARY
  5
6C6
102
{ACAD_REACTORS
330
2C6
102
}
330
2C6
100
AcDbDictionary
281
     1
  3
CTABLESTYLE
350
6C7
  3
DIMASSOC
350
6C8
  3
PROJECTNAME
350
6C9
  0
DICTIONARY
  5
597
102
{ACAD_REACTORS
330
4F0
102
}
330
4F0
100
AcDbDictionary
281
     1
  0
DICTIONARY
  5
596
102
{ACAD_REACTORS
330
4F0
102
}
330
4F0
100
AcDbDictionary
281
     1
1001
ACAD
1000
<All
  0
LAYOUT
  5
2D6
102
{ACAD_XDICTIONARY
360
72E
102
}
102
{ACAD_REACTORS
330
2D3
102
}
330
2D3
100
AcDbPlotSettings
  1

  2
\\ingdom02\ITB3
  4

  6

 40
0.0
 41
0.0
 42
0.0
 43
0.0
 44
0.0
 45
0.0
 46
0.0
 47
0.0
 48
0.0
 49
0.0
140
0.0
141
0.0
142
1.0
143
1.0
 70
   688
 72
     0
 73
     0
 74
     5
  7

 75
    16
147
1.0
148
0.0
149
0.0
100
AcDbLayout
  1
Layout1
 70
     1
 71
     1
 10
0.0
 20
0.0
 11
12.0
 21
9.0
 12
0.0
 22
0.0
 32
0.0
 14
1.000000000000000E+20
 24
1.000000000000000E+20
 34
1.000000000000000E+20
 15
-1.000000000000000E+20
 25
-1.000000000000000E+20
 35
-1.000000000000000E+20
146
0.0
 13
0.0
 23
0.0
 33
0.0
 16
1.0
 26
0.0
 36
0.0
 17
0.0
 27
1.0
 37
0.0
 76
     0
330
1C
  0
LAYOUT
  5
2D5
102
{ACAD_XDICTIONARY
360
72C
102
}
102
{ACAD_REACTORS
330
2D3
102
}
330
2D3
100
AcDbPlotSettings
  1

  2
\\ingdom02\ITB3
  4

  6

 40
0.0
 41
0.0
 42
0.0
 43
0.0
 44
0.0
 45
0.0
 46
0.0
 47
0.0
 48
0.0
 49
0.0
140
0.0
141
0.0
142
1.0
143
1.0
 70
  1712
 72
     0
 73
     0
 74
     0
  7

 75
     0
147
1.0
148
0.0
149
0.0
100
AcDbLayout
  1
Model
 70
     1
 71
     0
 10
0.0
 20
0.0
 11
12.0
 21
9.0
 12
0.0
 22
0.0
 32
0.0
 14
0.0
 24
0.0
 34
0.0
 15
0.0
 25
0.0
 35
0.0
146
0.0
 13
0.0
 23
0.0
 33
0.0
 16
1.0
 26
0.0
 36
0.0
 17
0.0
 27
1.0
 37
0.0
 76
     0
330
1B
  0
MLINESTYLE
  5
2C9
102
{ACAD_REACTORS
330
2C8
102
}
330
2C8
100
AcDbMlineStyle
  2
STANDARD
 70
     0
  3

 62
   256
 51
90.0
 52
90.0
 71
     2
 49
0.5
 62
   256
  6
BYLAYER
 49
-0.5
 62
   256
  6
BYLAYER
  0
ACDBPLACEHOLDER
  5
2CE
102
{ACAD_REACTORS
330
2CD
102
}
330
2CD
  0
TABLESTYLE
  5
2D2
102
{ACAD_REACTORS
330
2D1
102
}
330
2D1
100
AcDbTableStyle
  3
Standard
 70
     0
 71
     0
 40
1.5
 41
1.5
280
     0
281
     0
  7
STANDARD
140
4.5
170
     2
 62
     0
 63
     7
283
     0
274
    -2
284
     1
 64
     0
275
    -2
285
     1
 65
     0
276
    -2
286
     1
 66
     0
277
    -2
287
     1
 67
     0
278
    -2
288
     1
 68
     0
279
    -2
289
     1
 69
     0
  7
STANDARD
140
6.0
170
     5
 62
     0
 63
     7
283
     0
274
    -2
284
     1
 64
     0
275
    -2
285
     1
 65
     0
276
    -2
286
     1
 66
     0
277
    -2
287
     1
 67
     0
278
    -2
288
     1
 68
     0
279
    -2
289
     1
 69
     0
  7
STANDARD
140
4.5
170
     5
 62
     0
 63
     7
283
     0
274
    -2
284
     1
 64
     0
275
    -2
285
     1
 65
     0
276
    -2
286
     1
 66
     0
277
    -2
287
     1
 67
     0
278
    -2
288
     1
 68
     0
279
    -2
289
     1
 69
     0
  0
DICTIONARYVAR
  5
6C7
102
{ACAD_REACTORS
330
6C6
102
}
330
6C6
100
DictionaryVariables
280
     0
  1
STANDARD
  0
DICTIONARYVAR
  5
6C8
102
{ACAD_REACTORS
330
6C6
102
}
330
6C6
100
DictionaryVariables
280
     0
  1
1
  0
DICTIONARYVAR
  5
6C9
102
{ACAD_REACTORS
330
6C6
102
}
330
6C6
100
DictionaryVariables
280
     0
  1

  0
DICTIONARY
  5
72E
330
2D6
100
AcDbDictionary
280
     1
281
     1
  3
ACAD_XREC_ROUNDTRIP
360
72F
  0
DICTIONARY
  5
72C
330
2D5
100
AcDbDictionary
280
     1
281
     1
  3
ACAD_XREC_ROUNDTRIP
360
72D
  0
XRECORD
  5
72F
102
{ACAD_REACTORS
330
72E
102
}
330
72E
100
AcDbXrecord
280
     1
102
SHADEPLOT
 70
     0
102
SHADEPLOTRESLEVEL
 70
     2
102
SHADEPLOTCUSTOMDPI
 70
   300
  0
XRECORD
  5
72D
102
{ACAD_REACTORS
330
72C
102
}
330
72C
100
AcDbXrecord
280
     1
102
SHADEPLOT
 70
     0
102
SHADEPLOTRESLEVEL
 70
     2
102
SHADEPLOTCUSTOMDPI
 70
   300
  0
ENDSEC
  0
EOF
