  0
SECTION
  2
HEADER
  9
$ACADVER
  1
AC1015
  9
$ACADMAINTVER
 70
    20
  9
$DWGCODEPAGE
  3
ANSI_1252
  9
$INSBASE
 10
0.0
 20
0.0
 30
0.0
  9
$EXTMIN
 10
-33.59921130258499
 20
-197.849120346188
 30
-0.0015258207003583
  9
$EXTMAX
 10
102.7644661431718
 20
222.5930793613581
 30
0.0000000349246037
  9
$LIMMIN
 10
0.0
 20
0.0
  9
$LIMMAX
 10
594.0
 20
420.0
  9
$ORTHOMODE
 70
     0
  9
$REGENMODE
 70
     1
  9
$FILLMODE
 70
     1
  9
$QTEXTMODE
 70
     0
  9
$MIRRTEXT
 70
     0
  9
$LTSCALE
 40
32.67
  9
$ATTMODE
 70
     1
  9
$TEXTSIZE
 40
0.2
  9
$TRACEWID
 40
0.05
  9
$TEXTSTYLE
  7
STANDARD
  9
$CLAYER
  8
0
  9
$CELTYPE
  6
BYLAYER
  9
$CECOLOR
 62
   256
  9
$CELTSCALE
 40
1.0
  9
$DISPSILH
 70
     0
  9
$DIMSCALE
 40
1.0
  9
$DIMASZ
 40
3.5
  9
$DIMEXO
 40
0.625
  9
$DIMDLI
 40
3.75
  9
$DIMRND
 40
0.0
  9
$DIMDLE
 40
0.0
  9
$DIMEXE
 40
2.0
  9
$DIMTP
 40
0.0
  9
$DIMTM
 40
0.0
  9
$DIMTXT
 40
3.5
  9
$DIMCEN
 40
2.5
  9
$DIMTSZ
 40
0.0
  9
$DIMTOL
 70
     0
  9
$DIMLIM
 70
     0
  9
$DIMTIH
 70
     0
  9
$DIMTOH
 70
     0
  9
$DIMSE1
 70
     0
  9
$DIMSE2
 70
     0
  9
$DIMTAD
 70
     1
  9
$DIMZIN
 70
     8
  9
$DIMBLK
  1

  9
$DIMASO
 70
     1
  9
$DIMSHO
 70
     1
  9
$DIMPOST
  1

  9
$DIMAPOST
  1

  9
$DIMALT
 70
     0
  9
$DIMALTD
 70
     3
  9
$DIMALTF
 40
0.03937007874016
  9
$DIMLFAC
 40
1.0
  9
$DIMTOFL
 70
     1
  9
$DIMTVP
 40
0.0
  9
$DIMTIX
 70
     0
  9
$DIMSOXD
 70
     0
  9
$DIMSAH
 70
     0
  9
$DIMBLK1
  1

  9
$DIMBLK2
  1

  9
$DIMSTYLE
  2
ISO-25
  9
$DIMCLRD
 70
   256
  9
$DIMCLRE
 70
   256
  9
$DIMCLRT
 70
   256
  9
$DIMTFAC
 40
1.0
  9
$DIMGAP
 40
0.625
  9
$DIMJUST
 70
     0
  9
$DIMSD1
 70
     0
  9
$DIMSD2
 70
     0
  9
$DIMTOLJ
 70
     0
  9
$DIMTZIN
 70
     8
  9
$DIMALTZ
 70
     0
  9
$DIMALTTZ
 70
     0
  9
$DIMUPT
 70
     0
  9
$DIMDEC
 70
     2
  9
$DIMTDEC
 70
     2
  9
$DIMALTU
 70
     2
  9
$DIMALTTD
 70
     3
  9
$DIMTXSTY
  7
STANDARD
  9
$DIMAUNIT
 70
     0
  9
$DIMADEC
 70
     0
  9
$DIMALTRND
 40
0.0
  9
$DIMAZIN
 70
     0
  9
$DIMDSEP
 70
    46
  9
$DIMATFIT
 70
     3
  9
$DIMFRAC
 70
     0
  9
$DIMLDRBLK
  1

  9
$DIMLUNIT
 70
     2
  9
$DIMLWD
 70
    -2
  9
$DIMLWE
 70
    -2
  9
$DIMTMOVE
 70
     0
  9
$LUNITS
 70
     2
  9
$LUPREC
 70
     4
  9
$SKETCHINC
 40
0.1
  9
$FILLETRAD
 40
0.0
  9
$AUNITS
 70
     0
  9
$AUPREC
 70
     0
  9
$MENU
  1
.
  9
$ELEVATION
 40
0.0
  9
$PELEVATION
 40
0.0
  9
$THICKNESS
 40
0.0
  9
$LIMCHECK
 70
     0
  9
$CHAMFERA
 40
0.0
  9
$CHAMFERB
 40
0.0
  9
$CHAMFERC
 40
0.0
  9
$CHAMFERD
 40
0.0
  9
$SKPOLY
 70
     0
  9
$TDCREATE
 40
2453791.376502477
  9
$TDUCREATE
 40
2453791.334835810
  9
$TDUPDATE
 40
2453791.384700879
  9
$TDUUPDATE
 40
2453791.343034213
  9
$TDINDWG
 40
0.0081987731
  9
$TDUSRTIMER
 40
0.0081987731
  9
$USRTIMER
 70
     1
  9
$ANGBASE
 50
0.0
  9
$ANGDIR
 70
     0
  9
$PDMODE
 70
     3
  9
$PDSIZE
 40
0.3125
  9
$PLINEWID
 40
0.0
  9
$SPLFRAME
 70
     0
  9
$SPLINETYPE
 70
     6
  9
$SPLINESEGS
 70
     8
  9
$HANDSEED
  5
66A
  9
$SURFTAB1
 70
     6
  9
$SURFTAB2
 70
     6
  9
$SURFTYPE
 70
     6
  9
$SURFU
 70
     6
  9
$SURFV
 70
     6
  9
$UCSBASE
  2

  9
$UCSNAME
  2

  9
$UCSORG
 10
0.0
 20
0.0
 30
0.0
  9
$UCSXDIR
 10
1.0
 20
0.0
 30
0.0
  9
$UCSYDIR
 10
0.0
 20
1.0
 30
0.0
  9
$UCSORTHOREF
  2

  9
$UCSORTHOVIEW
 70
     0
  9
$UCSORGTOP
 10
0.0
 20
0.0
 30
0.0
  9
$UCSORGBOTTOM
 10
0.0
 20
0.0
 30
0.0
  9
$UCSORGLEFT
 10
0.0
 20
0.0
 30
0.0
  9
$UCSORGRIGHT
 10
0.0
 20
0.0
 30
0.0
  9
$UCSORGFRONT
 10
0.0
 20
0.0
 30
0.0
  9
$UCSORGBACK
 10
0.0
 20
0.0
 30
0.0
  9
$PUCSBASE
  2

  9
$PUCSNAME
  2

  9
$PUCSORG
 10
0.0
 20
0.0
 30
0.0
  9
$PUCSXDIR
 10
1.0
 20
0.0
 30
0.0
  9
$PUCSYDIR
 10
0.0
 20
1.0
 30
0.0
  9
$PUCSORTHOREF
  2

  9
$PUCSORTHOVIEW
 70
     0
  9
$PUCSORGTOP
 10
0.0
 20
0.0
 30
0.0
  9
$PUCSORGBOTTOM
 10
0.0
 20
0.0
 30
0.0
  9
$PUCSORGLEFT
 10
0.0
 20
0.0
 30
0.0
  9
$PUCSORGRIGHT
 10
0.0
 20
0.0
 30
0.0
  9
$PUCSORGFRONT
 10
0.0
 20
0.0
 30
0.0
  9
$PUCSORGBACK
 10
0.0
 20
0.0
 30
0.0
  9
$USERI1
 70
     0
  9
$USERI2
 70
     0
  9
$USERI3
 70
     0
  9
$USERI4
 70
     0
  9
$USERI5
 70
     0
  9
$USERR1
 40
0.0
  9
$USERR2
 40
0.0
  9
$USERR3
 40
0.0
  9
$USERR4
 40
0.0
  9
$USERR5
 40
0.0
  9
$WORLDVIEW
 70
     1
  9
$SHADEDGE
 70
     3
  9
$SHADEDIF
 70
    70
  9
$TILEMODE
 70
     1
  9
$MAXACTVP
 70
    64
  9
$PINSBASE
 10
0.0
 20
0.0
 30
0.0
  9
$PLIMCHECK
 70
     0
  9
$PEXTMIN
 10
1.000000000000000E+20
 20
1.000000000000000E+20
 30
1.000000000000000E+20
  9
$PEXTMAX
 10
-1.000000000000000E+20
 20
-1.000000000000000E+20
 30
-1.000000000000000E+20
  9
$PLIMMIN
 10
0.0
 20
0.0
  9
$PLIMMAX
 10
12.0
 20
9.0
  9
$UNITMODE
 70
     0
  9
$VISRETAIN
 70
     1
  9
$PLINEGEN
 70
     0
  9
$PSLTSCALE
 70
     1
  9
$TREEDEPTH
 70
  3020
  9
$CMLSTYLE
  2
STANDARD
  9
$CMLJUST
 70
     0
  9
$CMLSCALE
 40
1.0
  9
$PROXYGRAPHICS
 70
     1
  9
$MEASUREMENT
 70
     1
  9
$CELWEIGHT
370
    -1
  9
$ENDCAPS
280
     0
  9
$JOINSTYLE
280
     0
  9
$LWDISPLAY
290
     0
  9
$INSUNITS
 70
     0
  9
$HYPERLINKBASE
  1

  9
$STYLESHEET
  1

  9
$XEDIT
290
     1
  9
$CEPSNTYPE
380
     0
  9
$PSTYLEMODE
290
     1
  9
$FINGERPRINTGUID
  2
{264D57F0-DFAD-4DB0-A250-89424DD99E05}
  9
$VERSIONGUID
  2
{AA88675D-FAEA-4172-ACDC-1E55A81CBE85}
  9
$EXTNAMES
290
     1
  9
$PSVPSCALE
 40
0.0
  9
$OLESTARTUP
290
     0
  0
ENDSEC
  0
SECTION
  2
CLASSES
  0
CLASS
  1
ACDBDICTIONARYWDFLT
  2
AcDbDictionaryWithDefault
  3
ObjectDBX Classes
 90
        0
280
     0
281
     0
  0
CLASS
  1
TABLESTYLE
  2
AcDbTableStyle
  3
ObjectDBX Classes
 90
     2047
280
     0
281
     0
  0
CLASS
  1
DICTIONARYVAR
  2
AcDbDictionaryVar
  3
ObjectDBX Classes
 90
        0
280
     0
281
     0
  0
CLASS
  1
ACDBPLACEHOLDER
  2
AcDbPlaceHolder
  3
ObjectDBX Classes
 90
        0
280
     0
281
     0
  0
CLASS
  1
LAYOUT
  2
AcDbLayout
  3
ObjectDBX Classes
 90
        0
280
     0
281
     0
  0
ENDSEC
  0
SECTION
  2
TABLES
  0
TABLE
  2
VPORT
  5
8
330
0
100
AcDbSymbolTable
 70
     2
  0
VPORT
  5
664
330
8
100
AcDbSymbolTableRecord
100
AcDbViewportTableRecord
  2
*Active
 70
     0
 10
0.0
 20
0.0
 11
1.0
 21
1.0
 12
34.58262742029339
 22
12.37197950758508
 13
0.0
 23
0.0
 14
1.0
 24
1.0
 15
0.0
 25
0.0
 16
0.0
 26
0.0
 36
1.0
 17
0.0
 27
0.0
 37
0.0
 40
423.5955162053527
 41
1.494367959949937
 42
50.0
 43
0.0
 44
0.0
 50
0.0
 51
0.0
 71
     0
 72
   100
 73
     1
 74
     1
 75
     0
 76
     0
 77
     0
 78
     0
281
     0
 65
     1
110
0.0
120
0.0
130
0.0
111
1.0
121
0.0
131
0.0
112
0.0
122
1.0
132
0.0
 79
     0
146
0.0
  0
ENDTAB
  0
TABLE
  2
LTYPE
  5
5
330
0
100
AcDbSymbolTable
 70
     6
  0
LTYPE
  5
14
330
5
100
AcDbSymbolTableRecord
100
AcDbLinetypeTableRecord
  2
BYBLOCK
 70
     0
  3

 72
    65
 73
     0
 40
0.0
  0
LTYPE
  5
15
330
5
100
AcDbSymbolTableRecord
100
AcDbLinetypeTableRecord
  2
BYLAYER
 70
     0
  3

 72
    65
 73
     0
 40
0.0
  0
LTYPE
  5
16
330
5
100
AcDbSymbolTableRecord
100
AcDbLinetypeTableRecord
  2
CONTINUOUS
 70
     0
  3
Solid line
 72
    65
 73
     0
 40
0.0
  0
LTYPE
  5
1F5
330
5
100
AcDbSymbolTableRecord
100
AcDbLinetypeTableRecord
  2
CENTER
 70
     0
  3
____ _ ____ _ ____ _ ____ _ ____ _ ____ _ ____
 72
    65
 73
     4
 40
0.6
 49
0.375
 74
     0
 49
-0.075
 74
     0
 49
0.075
 74
     0
 49
-0.075
 74
     0
  0
LTYPE
  5
1F6
330
5
100
AcDbSymbolTableRecord
100
AcDbLinetypeTableRecord
  2
HIDDEN
 70
     0
  3
- - - - - - - - - - - - - - - - - - - -
 72
    65
 73
     2
 40
0.2
 49
0.1
 74
     0
 49
-0.1
 74
     0
  0
ENDTAB
  0
TABLE
  2
LAYER
  5
2
102
{ACAD_XDICTIONARY
360
4F3
102
}
330
0
100
AcDbSymbolTable
 70
    14
  0
LAYER
  5
10
330
2
100
AcDbSymbolTableRecord
100
AcDbLayerTableRecord
  2
0
 70
     0
 62
     7
  6
CONTINUOUS
370
    -3
390
2AC
  0
LAYER
  5
1FD
330
2
100
AcDbSymbolTableRecord
100
AcDbLayerTableRecord
  2
1
 70
     0
 62
     4
  6
CONTINUOUS
370
    -3
390
2AC
  0
LAYER
  5
1FE
330
2
100
AcDbSymbolTableRecord
100
AcDbLayerTableRecord
  2
2
 70
     0
 62
     7
  6
CONTINUOUS
370
    -3
390
2AC
  0
LAYER
  5
1FF
330
2
100
AcDbSymbolTableRecord
100
AcDbLayerTableRecord
  2
4
 70
     0
 62
     2
  6
CENTER
370
    -3
390
2AC
  0
LAYER
  5
200
330
2
100
AcDbSymbolTableRecord
100
AcDbLayerTableRecord
  2
6
 70
     0
 62
     5
  6
CONTINUOUS
370
    -3
390
2AC
  0
LAYER
  5
201
330
2
100
AcDbSymbolTableRecord
100
AcDbLayerTableRecord
  2
NOCUT
 70
     0
 62
     7
  6
CONTINUOUS
370
    -3
390
2AC
  0
LAYER
  5
202
330
2
100
AcDbSymbolTableRecord
100
AcDbLayerTableRecord
  2
SK1
 70
     0
 62
     4
  6
CONTINUOUS
370
    -3
390
2AC
  0
LAYER
  5
203
330
2
100
AcDbSymbolTableRecord
100
AcDbLayerTableRecord
  2
SK2
 70
     0
 62
     7
  6
CONTINUOUS
370
    -3
390
2AC
  0
LAYER
  5
204
330
2
100
AcDbSymbolTableRecord
100
AcDbLayerTableRecord
  2
SK3
 70
     0
 62
     1
  6
HIDDEN
370
    -3
390
2AC
  0
LAYER
  5
346
330
2
100
AcDbSymbolTableRecord
100
AcDbLayerTableRecord
  2
Defpoints
 70
     0
 62
     7
  6
CONTINUOUS
290
     0
370
    -3
390
2AC
  0
LAYER
  5
347
330
2
100
AcDbSymbolTableRecord
100
AcDbLayerTableRecord
  2
SK4
 70
     0
 62
     2
  6
CENTER
370
    -3
390
2AC
  0
ENDTAB
  0
TABLE
  2
STYLE
  5
3
330
0
100
AcDbSymbolTable
 70
     1
  0
STYLE
  5
11
330
3
100
AcDbSymbolTableRecord
100
AcDbTextStyleTableRecord
  2
STANDARD
 70
     0
 40
0.0
 41
0.8
 50
0.0
 71
     0
 42
0.2
  3
isocp.shx
  4

  0
ENDTAB
  0
TABLE
  2
VIEW
  5
6
330
0
100
AcDbSymbolTable
 70
     0
  0
ENDTAB
  0
TABLE
  2
UCS
  5
7
330
0
100
AcDbSymbolTable
 70
     0
  0
ENDTAB
  0
TABLE
  2
APPID
  5
9
330
0
100
AcDbSymbolTable
 70
     3
  0
APPID
  5
205
330
9
100
AcDbSymbolTableRecord
100
AcDbRegAppTableRecord
  2
ACAD
 70
     0
  0
APPID
  5
349
330
9
100
AcDbSymbolTableRecord
100
AcDbRegAppTableRecord
  2
ACAD_PSEXT
 70
     0
  0
APPID
  5
576
330
9
100
AcDbSymbolTableRecord
100
AcDbRegAppTableRecord
  2
ACAD_DSTYLE_DIMTEXT_FILL
 70
     0
  0
ENDTAB
  0
TABLE
  2
DIMSTYLE
  5
A
330
0
100
AcDbSymbolTable
 70
     3
100
AcDbDimStyleTable
 71
     2
340
348
340
206
  0
DIMSTYLE
105
206
330
A
100
AcDbSymbolTableRecord
100
AcDbDimStyleTableRecord
  2
STANDARD
 70
     0
 41
2.5
 47
0.005
 48
0.005
 71
     1
 73
     0
 74
     0
 77
     1
 78
     8
140
3.5
178
     2
271
     3
272
     3
284
     8
340
11
341
208
342
208
343
208
344
208
  0
DIMSTYLE
105
348
102
{ACAD_REACTORS
330
34B
330
34C
330
34D
330
34E
330
34F
330
350
330
351
330
352
330
353
330
27F
330
27D
330
281
330
280
330
27B
330
27E
330
27C
102
}
330
A
100
AcDbSymbolTableRecord
100
AcDbDimStyleTableRecord
  2
ISO-25
 70
     0
 41
3.5
 42
0.625
 43
3.75
 44
2.0
 73
     0
 74
     0
 77
     1
 78
     8
140
3.5
141
2.5
143
0.03937007874016
147
0.625
171
     3
172
     1
176
   256
177
   256
178
   256
271
     2
272
     2
274
     3
283
     0
284
     8
340
11
  0
ENDTAB
  0
TABLE
  2
BLOCK_RECORD
  5
1
330
0
100
AcDbSymbolTable
 70
    31
  0
BLOCK_RECORD
  5
1B
330
1
100
AcDbSymbolTableRecord
100
AcDbBlockTableRecord
  2
*MODEL_SPACE
340
2B3
  0
BLOCK_RECORD
  5
1C
330
1
100
AcDbSymbolTableRecord
100
AcDbBlockTableRecord
  2
*PAPER_SPACE
340
2B4
  0
BLOCK_RECORD
  5
208
330
1
100
AcDbSymbolTableRecord
100
AcDbBlockTableRecord
  2
_FILLED
340
0
  0
BLOCK_RECORD
  5
209
330
1
100
AcDbSymbolTableRecord
100
AcDbBlockTableRecord
  2
*D1
340
0
  0
BLOCK_RECORD
  5
20A
330
1
100
AcDbSymbolTableRecord
100
AcDbBlockTableRecord
  2
*D2
340
0
  0
BLOCK_RECORD
  5
20B
330
1
100
AcDbSymbolTableRecord
100
AcDbBlockTableRecord
  2
*D3
340
0
  0
BLOCK_RECORD
  5
20C
330
1
100
AcDbSymbolTableRecord
100
AcDbBlockTableRecord
  2
*D4
340
0
  0
BLOCK_RECORD
  5
20D
330
1
100
AcDbSymbolTableRecord
100
AcDbBlockTableRecord
  2
*D5
340
0
  0
BLOCK_RECORD
  5
20E
330
1
100
AcDbSymbolTableRecord
100
AcDbBlockTableRecord
  2
*D6
340
0
  0
BLOCK_RECORD
  5
20F
330
1
100
AcDbSymbolTableRecord
100
AcDbBlockTableRecord
  2
*D7
340
0
  0
BLOCK_RECORD
  5
210
330
1
100
AcDbSymbolTableRecord
100
AcDbBlockTableRecord
  2
EINFUEGEPUNKT_BL0
340
0
102
{BLKREFS
331
283
102
}
  0
BLOCK_RECORD
  5
211
330
1
100
AcDbSymbolTableRecord
100
AcDbBlockTableRecord
  2
NULLPUNKT_BL1
340
0
102
{BLKREFS
331
284
102
}
  0
BLOCK_RECORD
  5
2B6
330
1
100
AcDbSymbolTableRecord
100
AcDbBlockTableRecord
  2
NULLPUNKT_BL0
340
0
102
{BLKREFS
331
355
102
}
  0
BLOCK_RECORD
  5
2C8
330
1
100
AcDbSymbolTableRecord
100
AcDbBlockTableRecord
  2
EINFUEGEPUNKT_BL1
340
0
102
{BLKREFS
331
356
102
}
  0
BLOCK_RECORD
  5
436
330
1
100
AcDbSymbolTableRecord
100
AcDbBlockTableRecord
  2
*D22
340
0
  0
BLOCK_RECORD
  5
442
330
1
100
AcDbSymbolTableRecord
100
AcDbBlockTableRecord
  2
*D23
340
0
  0
BLOCK_RECORD
  5
44E
330
1
100
AcDbSymbolTableRecord
100
AcDbBlockTableRecord
  2
*D24
340
0
  0
BLOCK_RECORD
  5
45A
330
1
100
AcDbSymbolTableRecord
100
AcDbBlockTableRecord
  2
*D25
340
0
  0
BLOCK_RECORD
  5
466
330
1
100
AcDbSymbolTableRecord
100
AcDbBlockTableRecord
  2
*D26
340
0
  0
BLOCK_RECORD
  5
472
330
1
100
AcDbSymbolTableRecord
100
AcDbBlockTableRecord
  2
*D27
340
0
  0
BLOCK_RECORD
  5
47E
330
1
100
AcDbSymbolTableRecord
100
AcDbBlockTableRecord
  2
*D28
340
0
  0
BLOCK_RECORD
  5
48A
330
1
100
AcDbSymbolTableRecord
100
AcDbBlockTableRecord
  2
*D29
340
0
  0
BLOCK_RECORD
  5
496
330
1
100
AcDbSymbolTableRecord
100
AcDbBlockTableRecord
  2
*D30
340
0
  0
ENDTAB
  0
ENDSEC
  0
SECTION
  2
BLOCKS
  0
BLOCK
  5
1E
330
1B
100
AcDbEntity
  8
0
100
AcDbBlockBegin
  2
*MODEL_SPACE
 70
     0
 10
0.0
 20
0.0
 30
0.0
  3
*MODEL_SPACE
  1

  0
ENDBLK
  5
1F
330
1B
100
AcDbEntity
  8
0
100
AcDbBlockEnd
  0
BLOCK
  5
20
330
1C
100
AcDbEntity
 67
     1
  8
0
100
AcDbBlockBegin
  2
*PAPER_SPACE
 70
     0
 10
0.0
 20
0.0
 30
0.0
  3
*PAPER_SPACE
  1

  0
ENDBLK
  5
21
330
1C
100
AcDbEntity
 67
     1
  8
0
100
AcDbBlockEnd
  0
BLOCK
  5
278
330
208
100
AcDbEntity
  8
0
100
AcDbBlockBegin
  2
_FILLED
 70
     0
 10
0.0
 20
0.0
 30
0.0
  3
_FILLED
  1

  0
SOLID
  5
279
330
208
100
AcDbEntity
  8
0
  6
ByBlock
 62
     0
100
AcDbTrace
 10
0.0
 20
0.0
 30
0.0
 11
-1.0
 21
0.132
 31
0.0
 12
-1.0
 22
-0.132
 32
0.0
 13
-1.0
 23
-0.132
 33
0.0
  0
ENDBLK
  5
27A
330
208
100
AcDbEntity
  8
0
  6
ByBlock
 62
     0
100
AcDbBlockEnd
  0
BLOCK
  5
212
330
209
100
AcDbEntity
  8
SK2
  6
Continuous
 62
     7
100
AcDbBlockBegin
  2
*D1
 70
     1
 10
0.0
 20
0.0
 30
0.0
  3
*D1
  1

  0
LINE
  5
621
330
209
100
AcDbEntity
  8
SK2
370
    -2
100
AcDbLine
 10
0.3750000000000001
 20
-197.5
 30
0.0
 11
-31.62500000000007
 21
-197.5
 31
0.0
  0
LINE
  5
622
330
209
100
AcDbEntity
  8
SK2
370
    -2
100
AcDbLine
 10
0.375
 20
197.5
 30
0.0
 11
-31.62499999999999
 21
197.5
 31
0.0
  0
LINE
  5
623
330
209
100
AcDbEntity
  8
SK2
370
    -2
100
AcDbLine
 10
-29.62500000000007
 20
-194.0
 30
0.0
 11
-29.62499999999998
 21
193.9999999999999
 31
0.0
  0
SOLID
  5
624
330
209
100
AcDbEntity
  8
SK2
100
AcDbTrace
 10
-30.20833333333341
 20
-194.0
 30
0.0
 11
-29.04166666666674
 21
-194.0
 31
0.0
 12
-29.62500000000007
 22
-197.5
 32
0.0
 13
-29.62500000000007
 23
-197.5
 33
0.0
  0
SOLID
  5
625
330
209
100
AcDbEntity
  8
SK2
100
AcDbTrace
 10
-30.20833333333332
 20
193.9999999999999
 30
0.0
 11
-29.04166666666665
 21
193.9999999999999
 31
0.0
 12
-29.62499999999998
 22
197.5
 32
0.0
 13
-29.62499999999998
 23
197.5
 33
0.0
  0
MTEXT
  5
626
330
209
100
AcDbEntity
  8
SK2
100
AcDbMText
 10
-32.00000000000003
 20
0.0000000000999594
 30
0.0
 40
3.5
 41
0.0
 71
     5
 72
     1
  1
%%c395
 11
0.0000000000000001
 21
1.0
 31
0.0
 73
     1
 44
1.0
1001
ACAD
1000
MTEXTBEGIN
1070
    73
1070
     1
1070
    44
1040
1.0
1070
    74
1070
     0
1000
MTEXTEND
  0
POINT
  5
627
330
209
100
AcDbEntity
  8
Defpoints
 62
     0
100
AcDbPoint
 10
1.0
 20
-197.5
 30
0.0
  0
POINT
  5
628
330
209
100
AcDbEntity
  8
Defpoints
 62
     0
100
AcDbPoint
 10
1.0
 20
197.5
 30
0.0
  0
POINT
  5
629
330
209
100
AcDbEntity
  8
Defpoints
 62
     0
100
AcDbPoint
 10
-29.62499999999998
 20
197.5
 30
0.0
  0
ENDBLK
  5
21B
330
209
100
AcDbEntity
  8
0
  6
ByBlock
 62
     0
100
AcDbBlockEnd
  0
BLOCK
  5
21C
330
20A
100
AcDbEntity
  8
2
  6
Continuous
 62
     7
100
AcDbBlockBegin
  2
*D2
 70
     1
 10
0.0
 20
0.0
 30
0.0
  3
*D2
  1

  0
LINE
  5
62A
330
20A
100
AcDbEntity
  8
2
370
    -2
100
AcDbLine
 10
0.0
 20
141.6249999999999
 30
0.0
 11
0.0000000000000044
 21
212.125
 31
0.0
  0
LINE
  5
62B
330
20A
100
AcDbEntity
  8
2
370
    -2
100
AcDbLine
 10
42.0
 20
199.1249999999999
 30
0.0
 11
42.0
 21
212.125
 31
0.0
  0
LINE
  5
62C
330
20A
100
AcDbEntity
  8
2
370
    -2
100
AcDbLine
 10
3.500000000000004
 20
210.125
 30
0.0
 11
38.5
 21
210.125
 31
0.0
  0
SOLID
  5
62D
330
20A
100
AcDbEntity
  8
2
100
AcDbTrace
 10
3.500000000000004
 20
210.7083333333333
 30
0.0
 11
3.500000000000004
 21
209.5416666666666
 31
0.0
 12
0.0000000000000042
 22
210.125
 32
0.0
 13
0.0000000000000042
 23
210.125
 33
0.0
  0
SOLID
  5
62E
330
20A
100
AcDbEntity
  8
2
100
AcDbTrace
 10
38.5
 20
210.7083333333333
 30
0.0
 11
38.5
 21
209.5416666666666
 31
0.0
 12
42.0
 22
210.125
 32
0.0
 13
42.0
 23
210.125
 33
0.0
  0
MTEXT
  5
62F
330
20A
100
AcDbEntity
  8
2
100
AcDbMText
 10
21.0
 20
212.5003444881889
 30
0.0
 40
3.5
 41
0.0
 71
     5
 72
     1
  1
42
 73
     1
 44
1.0
1001
ACAD
1000
MTEXTBEGIN
1070
    73
1070
     1
1070
    44
1040
1.0
1070
    74
1070
     0
1000
MTEXTEND
  0
POINT
  5
630
330
20A
100
AcDbEntity
  8
Defpoints
 62
     0
100
AcDbPoint
 10
0.0
 20
140.9999999999999
 30
0.0
  0
POINT
  5
631
330
20A
100
AcDbEntity
  8
Defpoints
 62
     0
100
AcDbPoint
 10
42.0
 20
198.4999999999999
 30
0.0
  0
POINT
  5
632
330
20A
100
AcDbEntity
  8
Defpoints
 62
     0
100
AcDbPoint
 10
42.0
 20
210.125
 30
0.0
  0
ENDBLK
  5
224
330
20A
100
AcDbEntity
  8
0
  6
ByBlock
 62
     0
100
AcDbBlockEnd
  0
BLOCK
  5
225
330
20B
100
AcDbEntity
  8
SK2
  6
Continuous
 62
     7
100
AcDbBlockBegin
  2
*D3
 70
     1
 10
0.0
 20
0.0
 30
0.0
  3
*D3
  1

  0
LINE
  5
633
330
20B
100
AcDbEntity
  8
SK2
370
    -2
100
AcDbLine
 10
71.625
 20
-127.0
 30
0.0
 11
87.87499999999997
 21
-127.0
 31
0.0
  0
LINE
  5
634
330
20B
100
AcDbEntity
  8
SK2
370
    -2
100
AcDbLine
 10
71.625
 20
127.0
 30
0.0
 11
87.87500000000003
 21
127.0
 31
0.0
  0
LINE
  5
635
330
20B
100
AcDbEntity
  8
SK2
370
    -2
100
AcDbLine
 10
85.87499999999996
 20
-123.5
 30
0.0
 11
85.87500000000003
 21
123.4999999999999
 31
0.0
  0
SOLID
  5
636
330
20B
100
AcDbEntity
  8
SK2
100
AcDbTrace
 10
85.29166666666665
 20
-123.5
 30
0.0
 11
86.4583333333333
 21
-123.5
 31
0.0
 12
85.87499999999996
 22
-127.0
 32
0.0
 13
85.87499999999996
 23
-127.0
 33
0.0
  0
SOLID
  5
637
330
20B
100
AcDbEntity
  8
SK2
100
AcDbTrace
 10
85.2916666666667
 20
123.4999999999999
 30
0.0
 11
86.45833333333335
 21
123.4999999999999
 31
0.0
 12
85.87500000000003
 22
127.0
 32
0.0
 13
85.87500000000003
 23
127.0
 33
0.0
  0
MTEXT
  5
638
330
20B
100
AcDbEntity
  8
SK2
100
AcDbMText
 10
83.49965551181103
 20
0.0000000000999594
 30
0.0
 40
3.5
 41
0.0
 71
     5
 72
     1
  1
%%c254
 11
0.0000000000000001
 21
1.0
 31
0.0
 73
     1
 44
1.0
1001
ACAD
1000
MTEXTBEGIN
1070
    73
1070
     1
1070
    44
1040
1.0
1070
    74
1070
     0
1000
MTEXTEND
  0
POINT
  5
639
330
20B
100
AcDbEntity
  8
Defpoints
 62
     0
100
AcDbPoint
 10
71.0
 20
-127.0
 30
0.0
  0
POINT
  5
63A
330
20B
100
AcDbEntity
  8
Defpoints
 62
     0
100
AcDbPoint
 10
71.0
 20
127.0
 30
0.0
  0
POINT
  5
63B
330
20B
100
AcDbEntity
  8
Defpoints
 62
     0
100
AcDbPoint
 10
85.87500000000003
 20
127.0
 30
0.0
  0
ENDBLK
  5
22E
330
20B
100
AcDbEntity
  8
0
  6
ByBlock
 62
     0
100
AcDbBlockEnd
  0
BLOCK
  5
22F
330
20C
100
AcDbEntity
  8
SK2
  6
Continuous
 62
     7
100
AcDbBlockBegin
  2
*D4
 70
     1
 10
0.0
 20
0.0
 30
0.0
  3
*D4
  1

  0
LINE
  5
63C
330
20C
100
AcDbEntity
  8
SK2
370
    -2
100
AcDbLine
 10
70.0
 20
129.3764718250999
 30
0.0
 11
70.0
 21
220.625
 31
0.0
  0
LINE
  5
63D
330
20C
100
AcDbEntity
  8
SK2
370
    -2
100
AcDbLine
 10
0.0
 20
142.3764718251
 30
0.0
 11
0.0000000000000048
 21
220.625
 31
0.0
  0
LINE
  5
63E
330
20C
100
AcDbEntity
  8
SK2
370
    -2
100
AcDbLine
 10
66.5
 20
218.625
 30
0.0
 11
3.500000000000004
 21
218.625
 31
0.0
  0
SOLID
  5
63F
330
20C
100
AcDbEntity
  8
SK2
100
AcDbTrace
 10
66.5
 20
219.2083333333333
 30
0.0
 11
66.5
 21
218.0416666666666
 31
0.0
 12
70.0
 22
218.625
 32
0.0
 13
70.0
 23
218.625
 33
0.0
  0
SOLID
  5
640
330
20C
100
AcDbEntity
  8
SK2
100
AcDbTrace
 10
3.500000000000004
 20
219.2083333333333
 30
0.0
 11
3.500000000000004
 21
218.0416666666666
 31
0.0
 12
0.0000000000000047
 22
218.625
 32
0.0
 13
0.0000000000000047
 23
218.625
 33
0.0
  0
MTEXT
  5
641
330
20C
100
AcDbEntity
  8
SK2
100
AcDbMText
 10
35.0
 20
221.0
 30
0.0
 40
3.5
 41
0.0
 71
     5
 72
     1
  1
70
 73
     1
 44
1.0
1001
ACAD
1000
MTEXTBEGIN
1070
    73
1070
     1
1070
    44
1040
1.0
1070
    74
1070
     0
1000
MTEXTEND
  0
POINT
  5
642
330
20C
100
AcDbEntity
  8
Defpoints
 62
     0
100
AcDbPoint
 10
70.0
 20
128.7514718250999
 30
0.0
  0
POINT
  5
643
330
20C
100
AcDbEntity
  8
Defpoints
 62
     0
100
AcDbPoint
 10
0.0
 20
141.7514718250999
 30
0.0
  0
POINT
  5
644
330
20C
100
AcDbEntity
  8
Defpoints
 62
     0
100
AcDbPoint
 10
0.0000000000000047
 20
218.625
 30
0.0
  0
ENDBLK
  5
237
330
20C
100
AcDbEntity
  8
0
  6
ByBlock
 62
     0
100
AcDbBlockEnd
  0
BLOCK
  5
238
330
20D
100
AcDbEntity
  8
SK2
  6
Continuous
 62
     7
100
AcDbBlockBegin
  2
*D5
 70
     1
 10
0.0
 20
0.0
 30
0.0
  3
*D5
  1

  0
LINE
  5
645
330
20D
100
AcDbEntity
  8
SK2
370
    -2
100
AcDbLine
 10
71.625
 20
-31.5
 30
0.0
 11
79.375
 21
-31.5
 31
0.0
  0
LINE
  5
646
330
20D
100
AcDbEntity
  8
SK2
370
    -2
100
AcDbLine
 10
71.625
 20
31.5
 30
0.0
 11
79.375
 21
31.5
 31
0.0
  0
LINE
  5
647
330
20D
100
AcDbEntity
  8
SK2
370
    -2
100
AcDbLine
 10
77.375
 20
-28.00000000000001
 30
0.0
 11
77.375
 21
28.0
 31
0.0
  0
SOLID
  5
648
330
20D
100
AcDbEntity
  8
SK2
100
AcDbTrace
 10
76.79166666666667
 20
-28.00000000000001
 30
0.0
 11
77.95833333333333
 21
-28.00000000000001
 31
0.0
 12
77.375
 22
-31.5
 32
0.0
 13
77.375
 23
-31.5
 33
0.0
  0
SOLID
  5
649
330
20D
100
AcDbEntity
  8
SK2
100
AcDbTrace
 10
76.79166666666667
 20
28.0
 30
0.0
 11
77.95833333333333
 21
28.0
 31
0.0
 12
77.375
 22
31.5
 32
0.0
 13
77.375
 23
31.5
 33
0.0
  0
MTEXT
  5
64A
330
20D
100
AcDbEntity
  8
SK2
100
AcDbMText
 10
75.0
 20
0.0000000000999594
 30
0.0
 40
3.5
 41
0.0
 71
     5
 72
     1
  1
%%c63
 11
0.0000000000000001
 21
1.0
 31
0.0
 73
     1
 44
1.0
1001
ACAD
1000
MTEXTBEGIN
1070
    73
1070
     1
1070
    44
1040
1.0
1070
    74
1070
     0
1000
MTEXTEND
  0
POINT
  5
64B
330
20D
100
AcDbEntity
  8
Defpoints
 62
     0
100
AcDbPoint
 10
71.0
 20
-31.5
 30
0.0
  0
POINT
  5
64C
330
20D
100
AcDbEntity
  8
Defpoints
 62
     0
100
AcDbPoint
 10
71.0
 20
31.5
 30
0.0
  0
POINT
  5
64D
330
20D
100
AcDbEntity
  8
Defpoints
 62
     0
100
AcDbPoint
 10
77.375
 20
31.5
 30
0.0
  0
ENDBLK
  5
241
330
20D
100
AcDbEntity
  8
0
  6
ByBlock
 62
     0
100
AcDbBlockEnd
  0
BLOCK
  5
242
330
20E
100
AcDbEntity
  8
SK2
  6
Continuous
 62
     7
100
AcDbBlockBegin
  2
*D6
 70
     1
 10
0.0
 20
0.0
 30
0.0
  3
*D6
  1

  0
LINE
  5
64E
330
20E
100
AcDbEntity
  8
SK2
370
    -2
100
AcDbLine
 10
-1.625
 20
-30.0
 30
0.0
 11
-14.62500000000003
 21
-30.0
 31
0.0
  0
LINE
  5
64F
330
20E
100
AcDbEntity
  8
SK2
370
    -2
100
AcDbLine
 10
-1.625
 20
30.0
 30
0.0
 11
-14.62500000000002
 21
30.0
 31
0.0
  0
LINE
  5
650
330
20E
100
AcDbEntity
  8
SK2
370
    -2
100
AcDbLine
 10
-12.62500000000003
 20
-26.5
 30
0.0
 11
-12.62500000000002
 21
26.5
 31
0.0
  0
SOLID
  5
651
330
20E
100
AcDbEntity
  8
SK2
100
AcDbTrace
 10
-13.20833333333337
 20
-26.5
 30
0.0
 11
-12.0416666666667
 21
-26.5
 31
0.0
 12
-12.62500000000003
 22
-30.0
 32
0.0
 13
-12.62500000000003
 23
-30.0
 33
0.0
  0
SOLID
  5
652
330
20E
100
AcDbEntity
  8
SK2
100
AcDbTrace
 10
-13.20833333333335
 20
26.5
 30
0.0
 11
-12.04166666666669
 21
26.5
 31
0.0
 12
-12.62500000000002
 22
30.0
 32
0.0
 13
-12.62500000000002
 23
30.0
 33
0.0
  0
MTEXT
  5
653
330
20E
100
AcDbEntity
  8
SK2
100
AcDbMText
 10
-15.00000000000003
 20
0.0000000000999594
 30
0.0
 40
3.5
 41
0.0
 71
     5
 72
     1
  1
%%c60
 11
0.0000000000000001
 21
1.0
 31
0.0
 73
     1
 44
1.0
1001
ACAD
1000
MTEXTBEGIN
1070
    73
1070
     1
1070
    44
1040
1.0
1070
    74
1070
     0
1000
MTEXTEND
  0
POINT
  5
654
330
20E
100
AcDbEntity
  8
Defpoints
 62
     0
100
AcDbPoint
 10
-1.0
 20
-30.0
 30
0.0
  0
POINT
  5
655
330
20E
100
AcDbEntity
  8
Defpoints
 62
     0
100
AcDbPoint
 10
-1.0
 20
30.0
 30
0.0
  0
POINT
  5
656
330
20E
100
AcDbEntity
  8
Defpoints
 62
     0
100
AcDbPoint
 10
-12.62500000000002
 20
30.0
 30
0.0
  0
ENDBLK
  5
24B
330
20E
100
AcDbEntity
  8
0
  6
ByBlock
 62
     0
100
AcDbBlockEnd
  0
BLOCK
  5
24C
330
20F
100
AcDbEntity
  8
SK2
  6
Continuous
 62
     7
100
AcDbBlockBegin
  2
*D7
 70
     1
 10
0.0
 20
0.0
 30
0.0
  3
*D7
  1

  0
LINE
  5
657
330
20F
100
AcDbEntity
  8
SK2
370
    -2
100
AcDbLine
 10
-1.625
 20
-140.0
 30
0.0
 11
-23.12500000000006
 21
-140.0
 31
0.0
  0
LINE
  5
658
330
20F
100
AcDbEntity
  8
SK2
370
    -2
100
AcDbLine
 10
-1.625
 20
139.9999999999999
 30
0.0
 11
-23.125
 21
139.9999999999999
 31
0.0
  0
LINE
  5
659
330
20F
100
AcDbEntity
  8
SK2
370
    -2
100
AcDbLine
 10
-21.12500000000006
 20
-136.5
 30
0.0
 11
-21.125
 21
136.4999999999999
 31
0.0
  0
SOLID
  5
65A
330
20F
100
AcDbEntity
  8
SK2
100
AcDbTrace
 10
-21.70833333333339
 20
-136.5
 30
0.0
 11
-20.54166666666673
 21
-136.5
 31
0.0
 12
-21.12500000000006
 22
-140.0
 32
0.0
 13
-21.12500000000006
 23
-140.0
 33
0.0
  0
SOLID
  5
65B
330
20F
100
AcDbEntity
  8
SK2
100
AcDbTrace
 10
-21.70833333333333
 20
136.4999999999999
 30
0.0
 11
-20.54166666666667
 21
136.4999999999999
 31
0.0
 12
-21.125
 22
139.9999999999999
 32
0.0
 13
-21.125
 23
139.9999999999999
 33
0.0
  0
MTEXT
  5
65C
330
20F
100
AcDbEntity
  8
SK2
100
AcDbMText
 10
-23.50034448818901
 20
0.0000000000999594
 30
0.0
 40
3.5
 41
0.0
 71
     5
 72
     1
  1
%%c280
 11
0.0000000000000001
 21
1.0
 31
0.0
 73
     1
 44
1.0
1001
ACAD
1000
MTEXTBEGIN
1070
    73
1070
     1
1070
    44
1040
1.0
1070
    74
1070
     0
1000
MTEXTEND
  0
POINT
  5
65D
330
20F
100
AcDbEntity
  8
Defpoints
 62
     0
100
AcDbPoint
 10
-1.0
 20
-140.0
 30
0.0
  0
POINT
  5
65E
330
20F
100
AcDbEntity
  8
Defpoints
 62
     0
100
AcDbPoint
 10
-1.0
 20
139.9999999999999
 30
0.0
  0
POINT
  5
65F
330
20F
100
AcDbEntity
  8
Defpoints
 62
     0
100
AcDbPoint
 10
-21.125
 20
139.9999999999999
 30
0.0
  0
ENDBLK
  5
255
330
20F
100
AcDbEntity
  8
0
  6
ByBlock
 62
     0
100
AcDbBlockEnd
  0
BLOCK
  5
256
330
210
100
AcDbEntity
  8
1
  6
Continuous
 62
     3
100
AcDbBlockBegin
  2
EINFUEGEPUNKT_BL0
 70
     0
 10
299.7535744323
 20
211.7485281749
 30
0.0
  3
EINFUEGEPUNKT_BL0
  1

  0
LINE
  5
257
330
210
100
AcDbEntity
  8
1
  6
Continuous
 62
     4
100
AcDbLine
 10
299.7535744323
 20
211.7485281749
 30
0.0
 11
299.7535744323
 21
211.2485291749
 31
0.0
  0
ARC
  5
258
330
210
100
AcDbEntity
  8
1
  6
Continuous
 62
     4
100
AcDbCircle
 10
299.7535744323
 20
211.7485281749
 30
0.0
 40
0.4999990000000001
100
AcDbArc
 50
90.0
 51
180.0
  0
LINE
  5
259
330
210
100
AcDbEntity
  8
1
  6
Continuous
 62
     4
100
AcDbLine
 10
299.7535744323
 20
211.7485281749
 30
0.0
 11
299.2535754323
 21
211.7485281749
 31
0.0
  0
ARC
  5
25A
330
210
100
AcDbEntity
  8
1
  6
Continuous
 62
     4
100
AcDbCircle
 10
299.7535744323
 20
211.7485281749
 30
0.0
 40
0.4999990000000001
100
AcDbArc
 50
180.0
 51
270.0
  0
ARC
  5
25B
330
210
100
AcDbEntity
  8
1
  6
Continuous
 62
     4
100
AcDbCircle
 10
299.7535744323
 20
211.7485281749
 30
0.0
 40
0.4999990000000001
100
AcDbArc
 50
270.0
 51
360.0
  0
ARC
  5
25C
330
210
100
AcDbEntity
  8
1
  6
Continuous
 62
     4
100
AcDbCircle
 10
299.7535744323
 20
211.7485281749
 30
0.0
 40
0.4999990000000001
100
AcDbArc
 50
0.0
 51
90.0
  0
LINE
  5
25D
330
210
100
AcDbEntity
  8
1
  6
Continuous
 62
     4
100
AcDbLine
 10
300.2535734323
 20
211.7485281749
 30
0.0
 11
299.7535744323
 21
211.7485281749
 31
0.0
  0
LINE
  5
25E
330
210
100
AcDbEntity
  8
1
  6
Continuous
 62
     4
100
AcDbLine
 10
299.7535744323
 20
212.2485271749
 30
0.0
 11
299.7535744323
 21
211.7485281749
 31
0.0
  0
LWPOLYLINE
  5
25F
330
210
100
AcDbEntity
  8
1
  6
Continuous
 62
     4
100
AcDbPolyline
 90
       18
 70
     0
 43
0.0
 10
299.7535744323
 20
211.7485281749
 10
299.7535744323
 20
212.2485271749
 10
299.8058385594
 20
212.2457881281
 10
299.8575300698
 20
212.2376009971
 10
299.9080826205
 20
212.224055482
 10
299.9569423471
 20
212.2052999902
 10
300.0035739323
 20
212.1815400108
 10
300.0474664707
 20
212.1530358631
 10
300.0881390663
 20
212.1200998445
 10
300.1251461019
 20
212.0830928089
 10
300.1580821205
 20
212.0424202133
 10
300.1865862682
 20
211.9985276749
 10
300.2103462476
 20
211.9518960897
 10
300.2291017394
 20
211.9030363631
 10
300.2426472545
 20
211.8524838124
 10
300.2508343855
 20
211.800792302
 10
300.2535734323
 20
211.7485281749
 10
299.7535744323
 20
211.7485281749
  0
HATCH
  5
260
330
210
100
AcDbEntity
  8
1
  6
Continuous
 62
     4
100
AcDbHatch
 10
0.0
 20
0.0
 30
0.0
210
0.0
220
0.0
230
1.0
  2
SOLID
 70
     1
 71
     1
 91
        1
 92
        1
 93
       17
 72
     1
 10
299.7535744323
 20
211.7485281749
 11
299.7535744323
 21
212.2485271749
 72
     1
 10
299.7535744323
 20
212.2485271749
 11
299.8058385594
 21
212.2457881281
 72
     1
 10
299.8058385594
 20
212.2457881281
 11
299.8575300698
 21
212.2376009971
 72
     1
 10
299.8575300698
 20
212.2376009971
 11
299.9080826205
 21
212.224055482
 72
     1
 10
299.9080826205
 20
212.224055482
 11
299.9569423471
 21
212.2052999902
 72
     1
 10
299.9569423471
 20
212.2052999902
 11
300.0035739323
 21
212.1815400108
 72
     1
 10
300.0035739323
 20
212.1815400108
 11
300.0474664707
 21
212.1530358631
 72
     1
 10
300.0474664707
 20
212.1530358631
 11
300.0881390663
 21
212.1200998445
 72
     1
 10
300.0881390663
 20
212.1200998445
 11
300.1251461019
 21
212.0830928089
 72
     1
 10
300.1251461019
 20
212.0830928089
 11
300.1580821205
 21
212.0424202133
 72
     1
 10
300.1580821205
 20
212.0424202133
 11
300.1865862682
 21
211.9985276749
 72
     1
 10
300.1865862682
 20
211.9985276749
 11
300.2103462476
 21
211.9518960897
 72
     1
 10
300.2103462476
 20
211.9518960897
 11
300.2291017394
 21
211.9030363631
 72
     1
 10
300.2291017394
 20
211.9030363631
 11
300.2426472545
 21
211.8524838124
 72
     1
 10
300.2426472545
 20
211.8524838124
 11
300.2508343855
 21
211.800792302
 72
     1
 10
300.2508343855
 20
211.800792302
 11
300.2535734323
 21
211.7485281749
 72
     1
 10
300.2535734323
 20
211.7485281749
 11
299.7535744323
 21
211.7485281749
 97
        1
330
25F
 75
     0
 76
     1
 98
        1
 10
0.0
 20
0.0
  0
LWPOLYLINE
  5
261
330
210
100
AcDbEntity
  8
1
  6
Continuous
 62
     4
100
AcDbPolyline
 90
       18
 70
     0
 43
0.0
 10
299.7535744323
 20
211.7485281749
 10
299.7535744323
 20
211.2485291749
 10
299.7013103052
 20
211.2512682217
 10
299.6496187948
 20
211.2594553527
 10
299.5990662441
 20
211.2730008678
 10
299.5502065175
 20
211.2917563596
 10
299.5035749323
 20
211.315516339
 10
299.4596823939
 20
211.3440204867
 10
299.4190097983
 20
211.3769565053
 10
299.3820027627
 20
211.4139635409
 10
299.3490667441
 20
211.4546361365
 10
299.3205625964
 20
211.4985286749
 10
299.296802617
 20
211.5451602601
 10
299.2780471252
 20
211.5940199867
 10
299.2645016101
 20
211.6445725374
 10
299.2563144791
 20
211.6962640478
 10
299.2535754323
 20
211.7485281749
 10
299.7535744323
 20
211.7485281749
  0
HATCH
  5
262
330
210
100
AcDbEntity
  8
1
  6
Continuous
 62
     4
100
AcDbHatch
 10
0.0
 20
0.0
 30
0.0
210
0.0
220
0.0
230
1.0
  2
SOLID
 70
     1
 71
     1
 91
        1
 92
        1
 93
       17
 72
     1
 10
299.7535744323
 20
211.7485281749
 11
299.7535744323
 21
211.2485291749
 72
     1
 10
299.7535744323
 20
211.2485291749
 11
299.7013103052
 21
211.2512682217
 72
     1
 10
299.7013103052
 20
211.2512682217
 11
299.6496187948
 21
211.2594553527
 72
     1
 10
299.6496187948
 20
211.2594553527
 11
299.5990662441
 21
211.2730008678
 72
     1
 10
299.5990662441
 20
211.2730008678
 11
299.5502065175
 21
211.2917563596
 72
     1
 10
299.5502065175
 20
211.2917563596
 11
299.5035749323
 21
211.315516339
 72
     1
 10
299.5035749323
 20
211.315516339
 11
299.4596823939
 21
211.3440204867
 72
     1
 10
299.4596823939
 20
211.3440204867
 11
299.4190097983
 21
211.3769565053
 72
     1
 10
299.4190097983
 20
211.3769565053
 11
299.3820027627
 21
211.4139635409
 72
     1
 10
299.3820027627
 20
211.4139635409
 11
299.3490667441
 21
211.4546361365
 72
     1
 10
299.3490667441
 20
211.4546361365
 11
299.3205625964
 21
211.4985286749
 72
     1
 10
299.3205625964
 20
211.4985286749
 11
299.296802617
 21
211.5451602601
 72
     1
 10
299.296802617
 20
211.5451602601
 11
299.2780471252
 21
211.5940199867
 72
     1
 10
299.2780471252
 20
211.5940199867
 11
299.2645016101
 21
211.6445725374
 72
     1
 10
299.2645016101
 20
211.6445725374
 11
299.2563144791
 21
211.6962640478
 72
     1
 10
299.2563144791
 20
211.6962640478
 11
299.2535754323
 21
211.7485281749
 72
     1
 10
299.2535754323
 20
211.7485281749
 11
299.7535744323
 21
211.7485281749
 97
        1
330
261
 75
     0
 76
     1
 98
        1
 10
0.0
 20
0.0
  0
LINE
  5
263
330
210
100
AcDbEntity
  8
1
  6
Continuous
 62
     4
100
AcDbLine
 10
299.2535754323
 20
211.7485281749
 30
0.0
 11
299.7535744323
 21
211.7485281749
 31
0.0
  0
ARC
  5
264
330
210
100
AcDbEntity
  8
1
  6
Continuous
 62
     4
100
AcDbCircle
 10
299.7535744323
 20
211.7485281749
 30
0.0
 40
0.4999990000000001
100
AcDbArc
 50
180.0
 51
270.0
  0
LINE
  5
265
330
210
100
AcDbEntity
  8
1
  6
Continuous
 62
     4
100
AcDbLine
 10
299.7535744323
 20
211.2485291749
 30
0.0
 11
299.7535744323
 21
211.7485281749
 31
0.0
  0
ENDBLK
  5
266
330
210
100
AcDbEntity
  8
0
  6
ByBlock
 62
     0
100
AcDbBlockEnd
  0
BLOCK
  5
267
330
211
100
AcDbEntity
  8
1
  6
Continuous
 62
     3
100
AcDbBlockBegin
  2
NULLPUNKT_BL1
 70
     0
 10
257.7535744323
 20
211.7485281749
 30
0.0
  3
NULLPUNKT_BL1
  1

  0
LINE
  5
268
330
211
100
AcDbEntity
  8
1
  6
Continuous
 62
     4
100
AcDbLine
 10
257.7535744323
 20
211.7485281749
 30
0.0
 11
259.2535714323
 21
211.7485281749
 31
0.0
  0
ARC
  5
269
330
211
100
AcDbEntity
  8
1
  6
Continuous
 62
     4
100
AcDbCircle
 10
257.7535744323
 20
211.7485281749
 30
0.0
 40
1.499997
100
AcDbArc
 50
180.0
 51
270.0
  0
LINE
  5
26A
330
211
100
AcDbEntity
  8
1
  6
Continuous
 62
     4
100
AcDbLine
 10
257.7535744323
 20
211.7485281749
 30
0.0
 11
257.7535744323
 21
210.2485311749
 31
0.0
  0
ARC
  5
26B
330
211
100
AcDbEntity
  8
1
  6
Continuous
 62
     4
100
AcDbCircle
 10
257.7535744323
 20
211.7485281749
 30
0.0
 40
1.499997
100
AcDbArc
 50
270.0
 51
360.0
  0
ARC
  5
26C
330
211
100
AcDbEntity
  8
1
  6
Continuous
 62
     4
100
AcDbCircle
 10
257.7535744323
 20
211.7485281749
 30
0.0
 40
1.499997
100
AcDbArc
 50
0.0
 51
90.0
  0
ARC
  5
26D
330
211
100
AcDbEntity
  8
1
  6
Continuous
 62
     4
100
AcDbCircle
 10
257.7535744323
 20
211.7485281749
 30
0.0
 40
1.499997
100
AcDbArc
 50
90.0
 51
180.0
  0
LINE
  5
26E
330
211
100
AcDbEntity
  8
1
  6
Continuous
 62
     4
100
AcDbLine
 10
257.7535744323
 20
213.2485251749
 30
0.0
 11
257.7535744323
 21
211.7485281749
 31
0.0
  0
LINE
  5
26F
330
211
100
AcDbEntity
  8
1
  6
Continuous
 62
     4
100
AcDbLine
 10
256.2535774323
 20
211.7485281749
 30
0.0
 11
257.7535744323
 21
211.7485281749
 31
0.0
  0
LWPOLYLINE
  5
270
330
211
100
AcDbEntity
  8
1
  6
Continuous
 62
     4
100
AcDbPolyline
 90
       18
 70
     0
 43
0.0
 10
257.7535744323
 20
211.7485281749
 10
256.2535774323
 20
211.7485281749
 10
256.2617945728
 20
211.9053205562
 10
256.2863559656
 20
212.0603950874
 10
256.326992511
 20
212.2120527394
 10
256.3832589865
 20
212.3586319193
 10
256.4545389247
 20
212.4985266749
 10
256.5400513678
 20
212.63020429
 10
256.6388594235
 20
212.752222077
 10
256.7498805302
 20
212.8632431837
 10
256.8718983172
 20
212.9620512394
 10
257.0035759323
 20
213.0475636825
 10
257.1434706879
 20
213.1188436207
 10
257.2900498678
 20
213.1751100962
 10
257.4417075198
 20
213.2157466416
 10
257.596782051
 20
213.2403080344
 10
257.7535744323
 20
213.2485251749
 10
257.7535744323
 20
211.7485281749
  0
HATCH
  5
271
330
211
100
AcDbEntity
  8
1
  6
Continuous
 62
     4
100
AcDbHatch
 10
0.0
 20
0.0
 30
0.0
210
0.0
220
0.0
230
1.0
  2
SOLID
 70
     1
 71
     1
 91
        1
 92
        1
 93
       17
 72
     1
 10
257.7535744323
 20
211.7485281749
 11
256.2535774323
 21
211.7485281749
 72
     1
 10
256.2535774323
 20
211.7485281749
 11
256.2617945728
 21
211.9053205562
 72
     1
 10
256.2617945728
 20
211.9053205562
 11
256.2863559656
 21
212.0603950874
 72
     1
 10
256.2863559656
 20
212.0603950874
 11
256.326992511
 21
212.2120527394
 72
     1
 10
256.326992511
 20
212.2120527394
 11
256.3832589865
 21
212.3586319193
 72
     1
 10
256.3832589865
 20
212.3586319193
 11
256.4545389247
 21
212.4985266749
 72
     1
 10
256.4545389247
 20
212.4985266749
 11
256.5400513678
 21
212.63020429
 72
     1
 10
256.5400513678
 20
212.63020429
 11
256.6388594235
 21
212.752222077
 72
     1
 10
256.6388594235
 20
212.752222077
 11
256.7498805302
 21
212.8632431837
 72
     1
 10
256.7498805302
 20
212.8632431837
 11
256.8718983172
 21
212.9620512394
 72
     1
 10
256.8718983172
 20
212.9620512394
 11
257.0035759323
 21
213.0475636825
 72
     1
 10
257.0035759323
 20
213.0475636825
 11
257.1434706879
 21
213.1188436207
 72
     1
 10
257.1434706879
 20
213.1188436207
 11
257.2900498678
 21
213.1751100962
 72
     1
 10
257.2900498678
 20
213.1751100962
 11
257.4417075198
 21
213.2157466416
 72
     1
 10
257.4417075198
 20
213.2157466416
 11
257.596782051
 21
213.2403080344
 72
     1
 10
257.596782051
 20
213.2403080344
 11
257.7535744323
 21
213.2485251749
 72
     1
 10
257.7535744323
 20
213.2485251749
 11
257.7535744323
 21
211.7485281749
 97
        1
330
270
 75
     0
 76
     1
 98
        1
 10
0.0
 20
0.0
  0
LWPOLYLINE
  5
272
330
211
100
AcDbEntity
  8
1
  6
Continuous
 62
     4
100
AcDbPolyline
 90
       18
 70
     0
 43
0.0
 10
257.7535744323
 20
211.7485281749
 10
259.2535714323
 20
211.7485281749
 10
259.2453542918
 20
211.5917357936
 10
259.220792899
 20
211.4366612624
 10
259.1801563536
 20
211.2850036104
 10
259.1238898781
 20
211.1384244305
 10
259.0526099399
 20
210.9985296749
 10
258.9670974968
 20
210.8668520598
 10
258.8682894411
 20
210.7448342728
 10
258.7572683344
 20
210.6338131661
 10
258.6352505474
 20
210.5350051104
 10
258.5035729323
 20
210.4494926673
 10
258.3636781767
 20
210.3782127291
 10
258.2170989968
 20
210.3219462536
 10
258.0654413448
 20
210.2813097082
 10
257.9103668136
 20
210.2567483154
 10
257.7535744323
 20
210.2485311749
 10
257.7535744323
 20
211.7485281749
  0
HATCH
  5
273
330
211
100
AcDbEntity
  8
1
  6
Continuous
 62
     4
100
AcDbHatch
 10
0.0
 20
0.0
 30
0.0
210
0.0
220
0.0
230
1.0
  2
SOLID
 70
     1
 71
     1
 91
        1
 92
        1
 93
       17
 72
     1
 10
257.7535744323
 20
211.7485281749
 11
259.2535714323
 21
211.7485281749
 72
     1
 10
259.2535714323
 20
211.7485281749
 11
259.2453542918
 21
211.5917357936
 72
     1
 10
259.2453542918
 20
211.5917357936
 11
259.220792899
 21
211.4366612624
 72
     1
 10
259.220792899
 20
211.4366612624
 11
259.1801563536
 21
211.2850036104
 72
     1
 10
259.1801563536
 20
211.2850036104
 11
259.1238898781
 21
211.1384244305
 72
     1
 10
259.1238898781
 20
211.1384244305
 11
259.0526099399
 21
210.9985296749
 72
     1
 10
259.0526099399
 20
210.9985296749
 11
258.9670974968
 21
210.8668520598
 72
     1
 10
258.9670974968
 20
210.8668520598
 11
258.8682894411
 21
210.7448342728
 72
     1
 10
258.8682894411
 20
210.7448342728
 11
258.7572683344
 21
210.6338131661
 72
     1
 10
258.7572683344
 20
210.6338131661
 11
258.6352505474
 21
210.5350051104
 72
     1
 10
258.6352505474
 20
210.5350051104
 11
258.5035729323
 21
210.4494926673
 72
     1
 10
258.5035729323
 20
210.4494926673
 11
258.3636781767
 21
210.3782127291
 72
     1
 10
258.3636781767
 20
210.3782127291
 11
258.2170989968
 21
210.3219462536
 72
     1
 10
258.2170989968
 20
210.3219462536
 11
258.0654413448
 21
210.2813097082
 72
     1
 10
258.0654413448
 20
210.2813097082
 11
257.9103668136
 21
210.2567483154
 72
     1
 10
257.9103668136
 20
210.2567483154
 11
257.7535744323
 21
210.2485311749
 72
     1
 10
257.7535744323
 20
210.2485311749
 11
257.7535744323
 21
211.7485281749
 97
        1
330
272
 75
     0
 76
     1
 98
        1
 10
0.0
 20
0.0
  0
LINE
  5
274
330
211
100
AcDbEntity
  8
1
  6
Continuous
 62
     4
100
AcDbLine
 10
257.7535744323
 20
210.2485311749
 30
0.0
 11
257.7535744323
 21
211.7485281749
 31
0.0
  0
ARC
  5
275
330
211
100
AcDbEntity
  8
1
  6
Continuous
 62
     4
100
AcDbCircle
 10
257.7535744323
 20
211.7485281749
 30
0.0
 40
1.499997
100
AcDbArc
 50
270.0
 51
360.0
  0
LINE
  5
276
330
211
100
AcDbEntity
  8
1
  6
Continuous
 62
     4
100
AcDbLine
 10
259.2535714323
 20
211.7485281749
 30
0.0
 11
257.7535744323
 21
211.7485281749
 31
0.0
  0
ENDBLK
  5
277
330
211
100
AcDbEntity
  8
0
  6
ByBlock
 62
     0
100
AcDbBlockEnd
  0
BLOCK
  5
2B7
330
2B6
100
AcDbEntity
  8
1
  6
Continuous
 62
     3
100
AcDbBlockBegin
  2
NULLPUNKT_BL0
 70
     0
 10
156.50010735
 20
143.0
 30
0.0
  3
NULLPUNKT_BL0
  1

  0
LINE
  5
2B8
330
2B6
100
AcDbEntity
  8
1
  6
Continuous
 62
     4
100
AcDbLine
 10
156.50010735
 20
143.0
 30
0.0
 11
158.00010435
 21
143.0
 31
0.0
  0
ARC
  5
2B9
330
2B6
100
AcDbEntity
  8
1
  6
Continuous
 62
     4
100
AcDbCircle
 10
156.50010735
 20
143.0
 30
0.0
 40
1.499997
100
AcDbArc
 50
180.0
 51
270.0
  0
LINE
  5
2BA
330
2B6
100
AcDbEntity
  8
1
  6
Continuous
 62
     4
100
AcDbLine
 10
156.50010735
 20
143.0
 30
0.0
 11
156.50010735
 21
141.500003
 31
0.0
  0
ARC
  5
2BB
330
2B6
100
AcDbEntity
  8
1
  6
Continuous
 62
     4
100
AcDbCircle
 10
156.50010735
 20
143.0
 30
0.0
 40
1.499997
100
AcDbArc
 50
270.0
 51
360.0
  0
ARC
  5
2BC
330
2B6
100
AcDbEntity
  8
1
  6
Continuous
 62
     4
100
AcDbCircle
 10
156.50010735
 20
143.0
 30
0.0
 40
1.499997
100
AcDbArc
 50
0.0
 51
90.0
  0
ARC
  5
2BD
330
2B6
100
AcDbEntity
  8
1
  6
Continuous
 62
     4
100
AcDbCircle
 10
156.50010735
 20
143.0
 30
0.0
 40
1.499997
100
AcDbArc
 50
90.0
 51
180.0
  0
LINE
  5
2BE
330
2B6
100
AcDbEntity
  8
1
  6
Continuous
 62
     4
100
AcDbLine
 10
156.50010735
 20
144.499997
 30
0.0
 11
156.50010735
 21
143.0
 31
0.0
  0
LINE
  5
2BF
330
2B6
100
AcDbEntity
  8
1
  6
Continuous
 62
     4
100
AcDbLine
 10
155.00011035
 20
143.0
 30
0.0
 11
156.50010735
 21
143.0
 31
0.0
  0
LWPOLYLINE
  5
2C0
330
2B6
100
AcDbEntity
  8
1
  6
Continuous
 62
     4
100
AcDbPolyline
 90
       18
 70
     0
 43
0.0
 10
156.50010735
 20
143.0
 10
155.00011035
 20
143.0
 10
155.0083274905
 20
143.1567923813
 10
155.0328888833
 20
143.3118669125
 10
155.0735254287
 20
143.4635245645
 10
155.1297919042
 20
143.6101037444
 10
155.2010718424
 20
143.7499985
 10
155.2865842855
 20
143.8816761151
 10
155.3853923412
 20
144.0036939021
 10
155.4964134479
 20
144.1147150088
 10
155.6184312349
 20
144.2135230645
 10
155.75010885
 20
144.2990355076
 10
155.8900036056
 20
144.3703154458
 10
156.0365827855
 20
144.4265819213
 10
156.1882404375
 20
144.4672184667
 10
156.3433149687
 20
144.4917798595
 10
156.50010735
 20
144.499997
 10
156.50010735
 20
143.0
  0
HATCH
  5
2C1
330
2B6
100
AcDbEntity
  8
1
  6
Continuous
 62
     4
100
AcDbHatch
 10
0.0
 20
0.0
 30
0.0
210
0.0
220
0.0
230
1.0
  2
SOLID
 70
     1
 71
     0
 91
        1
 92
        1
 93
       17
 72
     1
 10
156.50010735
 20
143.0
 11
155.00011035
 21
143.0
 72
     1
 10
155.00011035
 20
143.0
 11
155.0083274905
 21
143.1567923813
 72
     1
 10
155.0083274905
 20
143.1567923813
 11
155.0328888833
 21
143.3118669125
 72
     1
 10
155.0328888833
 20
143.3118669125
 11
155.0735254287
 21
143.4635245645
 72
     1
 10
155.0735254287
 20
143.4635245645
 11
155.1297919042
 21
143.6101037444
 72
     1
 10
155.1297919042
 20
143.6101037444
 11
155.2010718424
 21
143.7499985
 72
     1
 10
155.2010718424
 20
143.7499985
 11
155.2865842855
 21
143.8816761151
 72
     1
 10
155.2865842855
 20
143.8816761151
 11
155.3853923412
 21
144.0036939021
 72
     1
 10
155.3853923412
 20
144.0036939021
 11
155.4964134479
 21
144.1147150088
 72
     1
 10
155.4964134479
 20
144.1147150088
 11
155.6184312349
 21
144.2135230645
 72
     1
 10
155.6184312349
 20
144.2135230645
 11
155.75010885
 21
144.2990355076
 72
     1
 10
155.75010885
 20
144.2990355076
 11
155.8900036056
 21
144.3703154458
 72
     1
 10
155.8900036056
 20
144.3703154458
 11
156.0365827855
 21
144.4265819213
 72
     1
 10
156.0365827855
 20
144.4265819213
 11
156.1882404375
 21
144.4672184667
 72
     1
 10
156.1882404375
 20
144.4672184667
 11
156.3433149687
 21
144.4917798595
 72
     1
 10
156.3433149687
 20
144.4917798595
 11
156.50010735
 21
144.499997
 72
     1
 10
156.50010735
 20
144.499997
 11
156.50010735
 21
143.0
 97
        0
 75
     0
 76
     1
 98
        1
 10
0.0
 20
0.0
  0
LWPOLYLINE
  5
2C2
330
2B6
100
AcDbEntity
  8
1
  6
Continuous
 62
     4
100
AcDbPolyline
 90
       18
 70
     0
 43
0.0
 10
156.50010735
 20
143.0
 10
158.00010435
 20
143.0
 10
157.9918872095
 20
142.8432076187
 10
157.9673258167
 20
142.6881330875
 10
157.9266892713
 20
142.5364754355
 10
157.8704227958
 20
142.3898962556
 10
157.7991428576
 20
142.2500015
 10
157.7136304145
 20
142.1183238849
 10
157.6148223587999
 20
141.9963060979
 10
157.5038012521
 20
141.8852849912
 10
157.3817834651
 20
141.7864769355
 10
157.25010585
 20
141.7009644924
 10
157.1102110944
 20
141.6296845542
 10
156.9636319145
 20
141.5734180787
 10
156.8119742625
 20
141.5327815333
 10
156.6568997313
 20
141.5082201405
 10
156.50010735
 20
141.500003
 10
156.50010735
 20
143.0
  0
HATCH
  5
2C3
330
2B6
100
AcDbEntity
  8
1
  6
Continuous
 62
     4
100
AcDbHatch
 10
0.0
 20
0.0
 30
0.0
210
0.0
220
0.0
230
1.0
  2
SOLID
 70
     1
 71
     0
 91
        1
 92
        1
 93
       17
 72
     1
 10
156.50010735
 20
143.0
 11
158.00010435
 21
143.0
 72
     1
 10
158.00010435
 20
143.0
 11
157.9918872095
 21
142.8432076187
 72
     1
 10
157.9918872095
 20
142.8432076187
 11
157.9673258167
 21
142.6881330875
 72
     1
 10
157.9673258167
 20
142.6881330875
 11
157.9266892713
 21
142.5364754355
 72
     1
 10
157.9266892713
 20
142.5364754355
 11
157.8704227958
 21
142.3898962556
 72
     1
 10
157.8704227958
 20
142.3898962556
 11
157.7991428576
 21
142.2500015
 72
     1
 10
157.7991428576
 20
142.2500015
 11
157.7136304145
 21
142.1183238849
 72
     1
 10
157.7136304145
 20
142.1183238849
 11
157.6148223587999
 21
141.9963060979
 72
     1
 10
157.6148223587999
 20
141.9963060979
 11
157.5038012521
 21
141.8852849912
 72
     1
 10
157.5038012521
 20
141.8852849912
 11
157.3817834651
 21
141.7864769355
 72
     1
 10
157.3817834651
 20
141.7864769355
 11
157.25010585
 21
141.7009644924
 72
     1
 10
157.25010585
 20
141.7009644924
 11
157.1102110944
 21
141.6296845542
 72
     1
 10
157.1102110944
 20
141.6296845542
 11
156.9636319145
 21
141.5734180787
 72
     1
 10
156.9636319145
 20
141.5734180787
 11
156.8119742625
 21
141.5327815333
 72
     1
 10
156.8119742625
 20
141.5327815333
 11
156.6568997313
 21
141.5082201405
 72
     1
 10
156.6568997313
 20
141.5082201405
 11
156.50010735
 21
141.500003
 72
     1
 10
156.50010735
 20
141.500003
 11
156.50010735
 21
143.0
 97
        0
 75
     0
 76
     1
 98
        1
 10
0.0
 20
0.0
  0
LINE
  5
2C4
330
2B6
100
AcDbEntity
  8
1
  6
Continuous
 62
     4
100
AcDbLine
 10
156.50010735
 20
141.500003
 30
0.0
 11
156.50010735
 21
143.0
 31
0.0
  0
ARC
  5
2C5
330
2B6
100
AcDbEntity
  8
1
  6
Continuous
 62
     4
100
AcDbCircle
 10
156.50010735
 20
143.0
 30
0.0
 40
1.499997
100
AcDbArc
 50
270.0
 51
360.0
  0
LINE
  5
2C6
330
2B6
100
AcDbEntity
  8
1
  6
Continuous
 62
     4
100
AcDbLine
 10
158.00010435
 20
143.0
 30
0.0
 11
156.50010735
 21
143.0
 31
0.0
  0
ENDBLK
  5
2C7
330
2B6
100
AcDbEntity
  8
0
  6
ByBlock
 62
     0
100
AcDbBlockEnd
  0
BLOCK
  5
2C9
330
2C8
100
AcDbEntity
  8
1
  6
Continuous
 62
     3
100
AcDbBlockBegin
  2
EINFUEGEPUNKT_BL1
 70
     0
 10
173.50010735
 20
143.0
 30
0.0
  3
EINFUEGEPUNKT_BL1
  1

  0
LINE
  5
2CA
330
2C8
100
AcDbEntity
  8
1
  6
Continuous
 62
     4
100
AcDbLine
 10
173.50010735
 20
143.0
 30
0.0
 11
173.50010735
 21
142.500001
 31
0.0
  0
ARC
  5
2CB
330
2C8
100
AcDbEntity
  8
1
  6
Continuous
 62
     4
100
AcDbCircle
 10
173.50010735
 20
143.0
 30
0.0
 40
0.4999990000000001
100
AcDbArc
 50
90.0
 51
180.0
  0
LINE
  5
2CC
330
2C8
100
AcDbEntity
  8
1
  6
Continuous
 62
     4
100
AcDbLine
 10
173.50010735
 20
143.0
 30
0.0
 11
173.00010835
 21
143.0
 31
0.0
  0
ARC
  5
2CD
330
2C8
100
AcDbEntity
  8
1
  6
Continuous
 62
     4
100
AcDbCircle
 10
173.50010735
 20
143.0
 30
0.0
 40
0.4999990000000001
100
AcDbArc
 50
180.0
 51
270.0
  0
ARC
  5
2CE
330
2C8
100
AcDbEntity
  8
1
  6
Continuous
 62
     4
100
AcDbCircle
 10
173.50010735
 20
143.0
 30
0.0
 40
0.4999990000000001
100
AcDbArc
 50
270.0
 51
360.0
  0
ARC
  5
2CF
330
2C8
100
AcDbEntity
  8
1
  6
Continuous
 62
     4
100
AcDbCircle
 10
173.50010735
 20
143.0
 30
0.0
 40
0.4999990000000001
100
AcDbArc
 50
0.0
 51
90.0
  0
LINE
  5
2D0
330
2C8
100
AcDbEntity
  8
1
  6
Continuous
 62
     4
100
AcDbLine
 10
174.00010635
 20
143.0
 30
0.0
 11
173.50010735
 21
143.0
 31
0.0
  0
LINE
  5
2D1
330
2C8
100
AcDbEntity
  8
1
  6
Continuous
 62
     4
100
AcDbLine
 10
173.50010735
 20
143.499999
 30
0.0
 11
173.50010735
 21
143.0
 31
0.0
  0
LWPOLYLINE
  5
2D2
330
2C8
100
AcDbEntity
  8
1
  6
Continuous
 62
     4
100
AcDbPolyline
 90
       18
 70
     0
 43
0.0
 10
173.50010735
 20
143.0
 10
173.50010735
 20
143.499999
 10
173.5523714771
 20
143.4972599532
 10
173.6040629875
 20
143.4890728222
 10
173.6546155382
 20
143.4755273071
 10
173.7034752648
 20
143.4567718153
 10
173.75010685
 20
143.4330118359
 10
173.7939993884
 20
143.4045076882
 10
173.834671984
 20
143.3715716696
 10
173.8716790196
 20
143.334564634
 10
173.9046150382
 20
143.2938920384
 10
173.9331191859
 20
143.2499995
 10
173.9568791653
 20
143.2033679148
 10
173.9756346571
 20
143.1545081882
 10
173.9891801722
 20
143.1039556375
 10
173.9973673032
 20
143.0522641271
 10
174.00010635
 20
143.0
 10
173.50010735
 20
143.0
  0
HATCH
  5
2D3
330
2C8
100
AcDbEntity
  8
1
  6
Continuous
 62
     4
100
AcDbHatch
 10
0.0
 20
0.0
 30
0.0
210
0.0
220
0.0
230
1.0
  2
SOLID
 70
     1
 71
     0
 91
        1
 92
        1
 93
       17
 72
     1
 10
173.50010735
 20
143.0
 11
173.50010735
 21
143.499999
 72
     1
 10
173.50010735
 20
143.499999
 11
173.5523714771
 21
143.4972599532
 72
     1
 10
173.5523714771
 20
143.4972599532
 11
173.6040629875
 21
143.4890728222
 72
     1
 10
173.6040629875
 20
143.4890728222
 11
173.6546155382
 21
143.4755273071
 72
     1
 10
173.6546155382
 20
143.4755273071
 11
173.7034752648
 21
143.4567718153
 72
     1
 10
173.7034752648
 20
143.4567718153
 11
173.75010685
 21
143.4330118359
 72
     1
 10
173.75010685
 20
143.4330118359
 11
173.7939993884
 21
143.4045076882
 72
     1
 10
173.7939993884
 20
143.4045076882
 11
173.834671984
 21
143.3715716696
 72
     1
 10
173.834671984
 20
143.3715716696
 11
173.8716790196
 21
143.334564634
 72
     1
 10
173.8716790196
 20
143.334564634
 11
173.9046150382
 21
143.2938920384
 72
     1
 10
173.9046150382
 20
143.2938920384
 11
173.9331191859
 21
143.2499995
 72
     1
 10
173.9331191859
 20
143.2499995
 11
173.9568791653
 21
143.2033679148
 72
     1
 10
173.9568791653
 20
143.2033679148
 11
173.9756346571
 21
143.1545081882
 72
     1
 10
173.9756346571
 20
143.1545081882
 11
173.9891801722
 21
143.1039556375
 72
     1
 10
173.9891801722
 20
143.1039556375
 11
173.9973673032
 21
143.0522641271
 72
     1
 10
173.9973673032
 20
143.0522641271
 11
174.00010635
 21
143.0
 72
     1
 10
174.00010635
 20
143.0
 11
173.50010735
 21
143.0
 97
        0
 75
     0
 76
     1
 98
        1
 10
0.0
 20
0.0
  0
LWPOLYLINE
  5
2D4
330
2C8
100
AcDbEntity
  8
1
  6
Continuous
 62
     4
100
AcDbPolyline
 90
       18
 70
     0
 43
0.0
 10
173.50010735
 20
143.0
 10
173.50010735
 20
142.500001
 10
173.4478432229
 20
142.5027400468
 10
173.3961517125
 20
142.5109271778
 10
173.3455991618
 20
142.5244726929
 10
173.2967394352
 20
142.5432281846999
 10
173.25010785
 20
142.5669881641
 10
173.2062153116
 20
142.5954923118
 10
173.1655427159999
 20
142.6284283304
 10
173.1285356804
 20
142.665435366
 10
173.0955996618
 20
142.7061079616
 10
173.0670955141
 20
142.7500005
 10
173.0433355347
 20
142.7966320852
 10
173.0245800429
 20
142.8454918118
 10
173.0110345277999
 20
142.8960443625
 10
173.0028473968
 20
142.9477358729
 10
173.00010835
 20
143.0
 10
173.50010735
 20
143.0
  0
HATCH
  5
2D5
330
2C8
100
AcDbEntity
  8
1
  6
Continuous
 62
     4
100
AcDbHatch
 10
0.0
 20
0.0
 30
0.0
210
0.0
220
0.0
230
1.0
  2
SOLID
 70
     1
 71
     0
 91
        1
 92
        1
 93
       17
 72
     1
 10
173.50010735
 20
143.0
 11
173.50010735
 21
142.500001
 72
     1
 10
173.50010735
 20
142.500001
 11
173.4478432229
 21
142.5027400468
 72
     1
 10
173.4478432229
 20
142.5027400468
 11
173.3961517125
 21
142.5109271778
 72
     1
 10
173.3961517125
 20
142.5109271778
 11
173.3455991618
 21
142.5244726929
 72
     1
 10
173.3455991618
 20
142.5244726929
 11
173.2967394352
 21
142.5432281846999
 72
     1
 10
173.2967394352
 20
142.5432281846999
 11
173.25010785
 21
142.5669881641
 72
     1
 10
173.25010785
 20
142.5669881641
 11
173.2062153116
 21
142.5954923118
 72
     1
 10
173.2062153116
 20
142.5954923118
 11
173.1655427159999
 21
142.6284283304
 72
     1
 10
173.1655427159999
 20
142.6284283304
 11
173.1285356804
 21
142.665435366
 72
     1
 10
173.1285356804
 20
142.665435366
 11
173.0955996618
 21
142.7061079616
 72
     1
 10
173.0955996618
 20
142.7061079616
 11
173.0670955141
 21
142.7500005
 72
     1
 10
173.0670955141
 20
142.7500005
 11
173.0433355347
 21
142.7966320852
 72
     1
 10
173.0433355347
 20
142.7966320852
 11
173.0245800429
 21
142.8454918118
 72
     1
 10
173.0245800429
 20
142.8454918118
 11
173.0110345277999
 21
142.8960443625
 72
     1
 10
173.0110345277999
 20
142.8960443625
 11
173.0028473968
 21
142.9477358729
 72
     1
 10
173.0028473968
 20
142.9477358729
 11
173.00010835
 21
143.0
 72
     1
 10
173.00010835
 20
143.0
 11
173.50010735
 21
143.0
 97
        0
 75
     0
 76
     1
 98
        1
 10
0.0
 20
0.0
  0
LINE
  5
2D6
330
2C8
100
AcDbEntity
  8
1
  6
Continuous
 62
     4
100
AcDbLine
 10
173.00010835
 20
143.0
 30
0.0
 11
173.50010735
 21
143.0
 31
0.0
  0
ARC
  5
2D7
330
2C8
100
AcDbEntity
  8
1
  6
Continuous
 62
     4
100
AcDbCircle
 10
173.50010735
 20
143.0
 30
0.0
 40
0.4999990000000001
100
AcDbArc
 50
180.0
 51
270.0
  0
LINE
  5
2D8
330
2C8
100
AcDbEntity
  8
1
  6
Continuous
 62
     4
100
AcDbLine
 10
173.50010735
 20
142.500001
 30
0.0
 11
173.50010735
 21
143.0
 31
0.0
  0
ENDBLK
  5
2D9
330
2C8
100
AcDbEntity
  8
0
  6
ByBlock
 62
     0
100
AcDbBlockEnd
  0
BLOCK
  5
440
330
436
100
AcDbEntity
  8
0
100
AcDbBlockBegin
  2
*D22
 70
     1
 10
0.0
 20
0.0
 30
0.0
  3
*D22
  1

  0
LINE
  5
4A2
330
436
100
AcDbEntity
  8
SK2
370
    -2
100
AcDbLine
 10
620.0490516383636
 20
216.3189180673075
 30
0.0
 11
598.5488369383635
 21
216.3189180673075
 31
0.0
  0
LINE
  5
4A3
330
436
100
AcDbEntity
  8
SK2
370
    -2
100
AcDbLine
 10
620.0490516383636
 20
438.7189180673074
 30
0.0
 11
598.5488369383637
 21
438.7189180673074
 31
0.0
  0
LINE
  5
4A4
330
436
100
AcDbEntity
  8
SK2
370
    -2
100
AcDbLine
 10
600.5488369383636
 20
219.8189180673075
 30
0.0
 11
600.5488369383637
 21
435.2189180673074
 31
0.0
  0
SOLID
  5
4A5
330
436
100
AcDbEntity
  8
SK2
100
AcDbTrace
 10
599.9655036050302
 20
219.8189180673075
 30
0.0
 11
601.1321702716969
 21
219.8189180673075
 31
0.0
 12
600.5488369383636
 22
216.3189180673075
 32
0.0
 13
600.5488369383636
 23
216.3189180673075
 33
0.0
  0
SOLID
  5
4A6
330
436
100
AcDbEntity
  8
SK2
100
AcDbTrace
 10
599.9655036050303
 20
435.2189180673074
 30
0.0
 11
601.132170271697
 21
435.2189180673074
 31
0.0
 12
600.5488369383637
 22
438.7189180673074
 32
0.0
 13
600.5488369383637
 23
438.7189180673074
 33
0.0
  0
MTEXT
  5
4A7
330
436
100
AcDbEntity
  8
SK2
100
AcDbMText
 10
598.1738369383635
 20
327.5189180673075
 30
0.0
 40
3.5
 41
0.0
 71
     5
 72
     1
  1
%%c222.4
 11
0.0000000000000001
 21
1.0
 31
0.0
 73
     1
 44
1.0
1001
ACAD
1000
MTEXTBEGIN
1070
    73
1070
     1
1070
    44
1040
1.0
1070
    74
1070
     0
1000
MTEXTEND
  0
POINT
  5
4A8
330
436
100
AcDbEntity
  8
Defpoints
 62
     0
100
AcDbPoint
 10
620.6740516383636
 20
216.3189180673075
 30
0.0
  0
POINT
  5
4A9
330
436
100
AcDbEntity
  8
Defpoints
 62
     0
100
AcDbPoint
 10
620.6740516383636
 20
438.7189180673074
 30
0.0
  0
POINT
  5
4AA
330
436
100
AcDbEntity
  8
Defpoints
 62
     0
100
AcDbPoint
 10
600.5488369383637
 20
438.7189180673074
 30
0.0
  0
ENDBLK
  5
441
330
436
100
AcDbEntity
  8
0
100
AcDbBlockEnd
  0
BLOCK
  5
44C
330
442
100
AcDbEntity
  8
0
100
AcDbBlockBegin
  2
*D23
 70
     1
 10
0.0
 20
0.0
 30
0.0
  3
*D23
  1

  0
LINE
  5
4AB
330
442
100
AcDbEntity
  8
2
370
    -2
100
AcDbLine
 10
621.6740516383636
 20
440.3439180673074
 30
0.0
 11
621.6740516383636
 21
453.3439180673075
 31
0.0
  0
LINE
  5
4AC
330
442
100
AcDbEntity
  8
2
370
    -2
100
AcDbLine
 10
638.6740516383635
 20
440.3439180673074
 30
0.0
 11
638.6740516383635
 21
453.3439180673075
 31
0.0
  0
LINE
  5
4AD
330
442
100
AcDbEntity
  8
2
370
    -2
100
AcDbLine
 10
625.1740516383636
 20
451.3439180673074
 30
0.0
 11
635.1740516383635
 21
451.3439180673074
 31
0.0
  0
SOLID
  5
4AE
330
442
100
AcDbEntity
  8
2
100
AcDbTrace
 10
625.1740516383636
 20
451.9272514006408
 30
0.0
 11
625.1740516383636
 21
450.7605847339741
 31
0.0
 12
621.6740516383636
 22
451.3439180673074
 32
0.0
 13
621.6740516383636
 23
451.3439180673074
 33
0.0
  0
SOLID
  5
4AF
330
442
100
AcDbEntity
  8
2
100
AcDbTrace
 10
635.1740516383635
 20
451.9272514006408
 30
0.0
 11
635.1740516383635
 21
450.7605847339741
 31
0.0
 12
638.6740516383635
 22
451.3439180673074
 32
0.0
 13
638.6740516383635
 23
451.3439180673074
 33
0.0
  0
MTEXT
  5
4B0
330
442
100
AcDbEntity
  8
2
100
AcDbMText
 10
630.1740516383635
 20
453.7189180673074
 30
0.0
 40
3.5
 41
0.0
 71
     5
 72
     1
  1
17
 73
     1
 44
1.0
1001
ACAD
1000
MTEXTBEGIN
1070
    73
1070
     1
1070
    44
1040
1.0
1070
    74
1070
     0
1000
MTEXTEND
  0
POINT
  5
4B1
330
442
100
AcDbEntity
  8
Defpoints
 62
     0
100
AcDbPoint
 10
621.6740516383636
 20
439.7189180673074
 30
0.0
  0
POINT
  5
4B2
330
442
100
AcDbEntity
  8
Defpoints
 62
     0
100
AcDbPoint
 10
638.6740516383635
 20
439.7189180673074
 30
0.0
  0
POINT
  5
4B3
330
442
100
AcDbEntity
  8
Defpoints
 62
     0
100
AcDbPoint
 10
638.6740516383635
 20
451.3439180673074
 30
0.0
  0
ENDBLK
  5
44D
330
442
100
AcDbEntity
  8
0
100
AcDbBlockEnd
  0
BLOCK
  5
458
330
44E
100
AcDbEntity
  8
0
100
AcDbBlockBegin
  2
*D24
 70
     1
 10
0.0
 20
0.0
 30
0.0
  3
*D24
  1

  0
LINE
  5
4B4
330
44E
100
AcDbEntity
  8
SK2
370
    -2
100
AcDbLine
 10
657.7989442883636
 20
226.1689180673075
 30
0.0
 11
723.5490516383635
 21
226.1689180673075
 31
0.0
  0
LINE
  5
4B5
330
44E
100
AcDbEntity
  8
SK2
370
    -2
100
AcDbLine
 10
657.7989442883636
 20
428.8689180673075
 30
0.0
 11
723.5490516383637
 21
428.8689180673075
 31
0.0
  0
LINE
  5
4B6
330
44E
100
AcDbEntity
  8
SK2
370
    -2
100
AcDbLine
 10
721.5490516383636
 20
229.6689180673074
 30
0.0
 11
721.5490516383637
 21
425.3689180673075
 31
0.0
  0
SOLID
  5
4B7
330
44E
100
AcDbEntity
  8
SK2
100
AcDbTrace
 10
720.9657183050302
 20
229.6689180673074
 30
0.0
 11
722.1323849716969
 21
229.6689180673074
 31
0.0
 12
721.5490516383636
 22
226.1689180673075
 32
0.0
 13
721.5490516383636
 23
226.1689180673075
 33
0.0
  0
SOLID
  5
4B8
330
44E
100
AcDbEntity
  8
SK2
100
AcDbTrace
 10
720.9657183050303
 20
425.3689180673075
 30
0.0
 11
722.1323849716971
 21
425.3689180673075
 31
0.0
 12
721.5490516383637
 22
428.8689180673075
 32
0.0
 13
721.5490516383637
 23
428.8689180673075
 33
0.0
  0
MTEXT
  5
4B9
330
44E
100
AcDbEntity
  8
SK2
100
AcDbMText
 10
719.1740516383636
 20
327.5189180673075
 30
0.0
 40
3.5
 41
0.0
 71
     5
 72
     1
  1
%%c202.7
 11
0.0000000000000001
 21
1.0
 31
0.0
 73
     1
 44
1.0
1001
ACAD
1000
MTEXTBEGIN
1070
    73
1070
     1
1070
    44
1040
1.0
1070
    74
1070
     0
1000
MTEXTEND
  0
POINT
  5
4BA
330
44E
100
AcDbEntity
  8
Defpoints
 62
     0
100
AcDbPoint
 10
657.1739442883636
 20
226.1689180673075
 30
0.0
  0
POINT
  5
4BB
330
44E
100
AcDbEntity
  8
Defpoints
 62
     0
100
AcDbPoint
 10
657.1739442883636
 20
428.8689180673075
 30
0.0
  0
POINT
  5
4BC
330
44E
100
AcDbEntity
  8
Defpoints
 62
     0
100
AcDbPoint
 10
721.5490516383637
 20
428.8689180673075
 30
0.0
  0
ENDBLK
  5
459
330
44E
100
AcDbEntity
  8
0
100
AcDbBlockEnd
  0
BLOCK
  5
464
330
45A
100
AcDbEntity
  8
0
100
AcDbBlockBegin
  2
*D25
 70
     1
 10
0.0
 20
0.0
 30
0.0
  3
*D25
  1

  0
LINE
  5
4BD
330
45A
100
AcDbEntity
  8
SK2
370
    -2
100
AcDbLine
 10
682.7989442883636
 20
245.9189180673075
 30
0.0
 11
715.0490516383635
 21
245.9189180673075
 31
0.0
  0
LINE
  5
4BE
330
45A
100
AcDbEntity
  8
SK2
370
    -2
100
AcDbLine
 10
682.7989442883636
 20
409.1189180673074
 30
0.0
 11
715.0490516383637
 21
409.1189180673074
 31
0.0
  0
LINE
  5
4BF
330
45A
100
AcDbEntity
  8
SK2
370
    -2
100
AcDbLine
 10
713.0490516383636
 20
249.4189180673075
 30
0.0
 11
713.0490516383637
 21
405.6189180673075
 31
0.0
  0
SOLID
  5
4C0
330
45A
100
AcDbEntity
  8
SK2
100
AcDbTrace
 10
712.4657183050302
 20
249.4189180673075
 30
0.0
 11
713.6323849716969
 21
249.4189180673075
 31
0.0
 12
713.0490516383636
 22
245.9189180673075
 32
0.0
 13
713.0490516383636
 23
245.9189180673075
 33
0.0
  0
SOLID
  5
4C1
330
45A
100
AcDbEntity
  8
SK2
100
AcDbTrace
 10
712.4657183050303
 20
405.6189180673075
 30
0.0
 11
713.6323849716971
 21
405.6189180673075
 31
0.0
 12
713.0490516383637
 22
409.1189180673074
 32
0.0
 13
713.0490516383637
 23
409.1189180673074
 33
0.0
  0
MTEXT
  5
4C2
330
45A
100
AcDbEntity
  8
SK2
100
AcDbMText
 10
710.6740516383636
 20
327.5189180673075
 30
0.0
 40
3.5
 41
0.0
 71
     5
 72
     1
  1
%%c163.2
 11
0.0000000000000001
 21
1.0
 31
0.0
 73
     1
 44
1.0
1001
ACAD
1000
MTEXTBEGIN
1070
    73
1070
     1
1070
    44
1040
1.0
1070
    74
1070
     0
1000
MTEXTEND
  0
POINT
  5
4C3
330
45A
100
AcDbEntity
  8
Defpoints
 62
     0
100
AcDbPoint
 10
682.1739442883636
 20
245.9189180673075
 30
0.0
  0
POINT
  5
4C4
330
45A
100
AcDbEntity
  8
Defpoints
 62
     0
100
AcDbPoint
 10
682.1739442883636
 20
409.1189180673074
 30
0.0
  0
POINT
  5
4C5
330
45A
100
AcDbEntity
  8
Defpoints
 62
     0
100
AcDbPoint
 10
713.0490516383637
 20
409.1189180673074
 30
0.0
  0
ENDBLK
  5
465
330
45A
100
AcDbEntity
  8
0
100
AcDbBlockEnd
  0
BLOCK
  5
470
330
466
100
AcDbEntity
  8
0
100
AcDbBlockBegin
  2
*D26
 70
     1
 10
0.0
 20
0.0
 30
0.0
  3
*D26
  1

  0
LINE
  5
4C6
330
466
100
AcDbEntity
  8
SK2
370
    -2
100
AcDbLine
 10
621.6740516383636
 20
440.3439180673074
 30
0.0
 11
621.6740516383636
 21
461.8439180673075
 31
0.0
  0
LINE
  5
4C7
330
466
100
AcDbEntity
  8
SK2
370
    -2
100
AcDbLine
 10
656.7740516383636
 20
430.4939180673074
 30
0.0
 11
656.7740516383636
 21
461.8439180673075
 31
0.0
  0
LINE
  5
4C8
330
466
100
AcDbEntity
  8
SK2
370
    -2
100
AcDbLine
 10
625.1740516383636
 20
459.8439180673074
 30
0.0
 11
653.2740516383636
 21
459.8439180673074
 31
0.0
  0
SOLID
  5
4C9
330
466
100
AcDbEntity
  8
SK2
100
AcDbTrace
 10
625.1740516383636
 20
460.4272514006408
 30
0.0
 11
625.1740516383636
 21
459.2605847339741
 31
0.0
 12
621.6740516383636
 22
459.8439180673074
 32
0.0
 13
621.6740516383636
 23
459.8439180673074
 33
0.0
  0
SOLID
  5
4CA
330
466
100
AcDbEntity
  8
SK2
100
AcDbTrace
 10
653.2740516383636
 20
460.4272514006408
 30
0.0
 11
653.2740516383636
 21
459.2605847339741
 31
0.0
 12
656.7740516383636
 22
459.8439180673074
 32
0.0
 13
656.7740516383636
 23
459.8439180673074
 33
0.0
  0
MTEXT
  5
4CB
330
466
100
AcDbEntity
  8
SK2
100
AcDbMText
 10
639.2240516383635
 20
462.2189180673074
 30
0.0
 40
3.5
 41
0.0
 71
     5
 72
     1
  1
35.1
 73
     1
 44
1.0
1001
ACAD
1000
MTEXTBEGIN
1070
    73
1070
     1
1070
    44
1040
1.0
1070
    74
1070
     0
1000
MTEXTEND
  0
POINT
  5
4CC
330
466
100
AcDbEntity
  8
Defpoints
 62
     0
100
AcDbPoint
 10
621.6740516383636
 20
439.7189180673074
 30
0.0
  0
POINT
  5
4CD
330
466
100
AcDbEntity
  8
Defpoints
 62
     0
100
AcDbPoint
 10
656.7740516383636
 20
429.8689180673075
 30
0.0
  0
POINT
  5
4CE
330
466
100
AcDbEntity
  8
Defpoints
 62
     0
100
AcDbPoint
 10
656.7740516383636
 20
459.8439180673074
 30
0.0
  0
ENDBLK
  5
471
330
466
100
AcDbEntity
  8
0
100
AcDbBlockEnd
  0
BLOCK
  5
47C
330
472
100
AcDbEntity
  8
0
100
AcDbBlockBegin
  2
*D27
 70
     1
 10
0.0
 20
0.0
 30
0.0
  3
*D27
  1

  0
LINE
  5
4CF
330
472
100
AcDbEntity
  8
SK2
370
    -2
100
AcDbLine
 10
681.6740516383636
 20
410.6439180673074
 30
0.0
 11
681.6740516383636
 21
470.3439180673075
 31
0.0
  0
LINE
  5
4D0
330
472
100
AcDbEntity
  8
SK2
370
    -2
100
AcDbLine
 10
621.6740516383636
 20
440.6439180673074
 30
0.0
 11
621.6740516383636
 21
470.3439180673075
 31
0.0
  0
LINE
  5
4D1
330
472
100
AcDbEntity
  8
SK2
370
    -2
100
AcDbLine
 10
678.1740516383636
 20
468.3439180673074
 30
0.0
 11
625.1740516383636
 21
468.3439180673074
 31
0.0
  0
SOLID
  5
4D2
330
472
100
AcDbEntity
  8
SK2
100
AcDbTrace
 10
678.1740516383636
 20
468.9272514006407
 30
0.0
 11
678.1740516383636
 21
467.7605847339741
 31
0.0
 12
681.6740516383636
 22
468.3439180673074
 32
0.0
 13
681.6740516383636
 23
468.3439180673074
 33
0.0
  0
SOLID
  5
4D3
330
472
100
AcDbEntity
  8
SK2
100
AcDbTrace
 10
625.1740516383636
 20
468.9272514006407
 30
0.0
 11
625.1740516383636
 21
467.7605847339741
 31
0.0
 12
621.6740516383636
 22
468.3439180673074
 32
0.0
 13
621.6740516383636
 23
468.3439180673074
 33
0.0
  0
MTEXT
  5
4D4
330
472
100
AcDbEntity
  8
SK2
100
AcDbMText
 10
651.6740516383635
 20
470.7189180673075
 30
0.0
 40
3.5
 41
0.0
 71
     5
 72
     1
  1
60
 73
     1
 44
1.0
1001
ACAD
1000
MTEXTBEGIN
1070
    73
1070
     1
1070
    44
1040
1.0
1070
    74
1070
     0
1000
MTEXTEND
  0
POINT
  5
4D5
330
472
100
AcDbEntity
  8
Defpoints
 62
     0
100
AcDbPoint
 10
681.6740516383636
 20
410.0189180673075
 30
0.0
  0
POINT
  5
4D6
330
472
100
AcDbEntity
  8
Defpoints
 62
     0
100
AcDbPoint
 10
621.6740516383636
 20
440.0189180673074
 30
0.0
  0
POINT
  5
4D7
330
472
100
AcDbEntity
  8
Defpoints
 62
     0
100
AcDbPoint
 10
621.6740516383636
 20
468.3439180673074
 30
0.0
  0
ENDBLK
  5
47D
330
472
100
AcDbEntity
  8
0
100
AcDbBlockEnd
  0
BLOCK
  5
488
330
47E
100
AcDbEntity
  8
0
100
AcDbBlockBegin
  2
*D28
 70
     1
 10
0.0
 20
0.0
 30
0.0
  3
*D28
  1

  0
LINE
  5
4D8
330
47E
100
AcDbEntity
  8
SK2
370
    -2
100
AcDbLine
 10
683.2990516383635
 20
302.5189180673075
 30
0.0
 11
698.0490516383637
 21
302.5189180673075
 31
0.0
  0
LINE
  5
4D9
330
47E
100
AcDbEntity
  8
SK2
370
    -2
100
AcDbLine
 10
683.2990516383635
 20
352.5189180673075
 30
0.0
 11
698.0490516383637
 21
352.5189180673075
 31
0.0
  0
LINE
  5
4DA
330
47E
100
AcDbEntity
  8
SK2
370
    -2
100
AcDbLine
 10
696.0490516383637
 20
306.0189180673075
 30
0.0
 11
696.0490516383637
 21
349.0189180673075
 31
0.0
  0
SOLID
  5
4DB
330
47E
100
AcDbEntity
  8
SK2
100
AcDbTrace
 10
695.4657183050303
 20
306.0189180673075
 30
0.0
 11
696.6323849716971
 21
306.0189180673075
 31
0.0
 12
696.0490516383637
 22
302.5189180673075
 32
0.0
 13
696.0490516383637
 23
302.5189180673075
 33
0.0
  0
SOLID
  5
4DC
330
47E
100
AcDbEntity
  8
SK2
100
AcDbTrace
 10
695.4657183050303
 20
349.0189180673075
 30
0.0
 11
696.6323849716971
 21
349.0189180673075
 31
0.0
 12
696.0490516383637
 22
352.5189180673075
 32
0.0
 13
696.0490516383637
 23
352.5189180673075
 33
0.0
  0
MTEXT
  5
4DD
330
47E
100
AcDbEntity
  8
SK2
100
AcDbMText
 10
693.6740516383636
 20
327.5189180673075
 30
0.0
 40
3.5
 41
0.0
 71
     5
 72
     1
  1
%%c50
 11
0.0000000000000001
 21
1.0
 31
0.0
 73
     1
 44
1.0
1001
ACAD
1000
MTEXTBEGIN
1070
    73
1070
     1
1070
    44
1040
1.0
1070
    74
1070
     0
1000
MTEXTEND
  0
POINT
  5
4DE
330
47E
100
AcDbEntity
  8
Defpoints
 62
     0
100
AcDbPoint
 10
682.6740516383636
 20
302.5189180673075
 30
0.0
  0
POINT
  5
4DF
330
47E
100
AcDbEntity
  8
Defpoints
 62
     0
100
AcDbPoint
 10
682.6740516383636
 20
352.5189180673075
 30
0.0
  0
POINT
  5
4E0
330
47E
100
AcDbEntity
  8
Defpoints
 62
     0
100
AcDbPoint
 10
696.0490516383637
 20
352.5189180673075
 30
0.0
  0
ENDBLK
  5
489
330
47E
100
AcDbEntity
  8
0
100
AcDbBlockEnd
  0
BLOCK
  5
494
330
48A
100
AcDbEntity
  8
0
100
AcDbBlockBegin
  2
*D29
 70
     1
 10
0.0
 20
0.0
 30
0.0
  3
*D29
  1

  0
LINE
  5
4E1
330
48A
100
AcDbEntity
  8
SK2
370
    -2
100
AcDbLine
 10
620.0490516383636
 20
297.5189180673075
 30
0.0
 11
607.0488369383637
 21
297.5189180673075
 31
0.0
  0
LINE
  5
4E2
330
48A
100
AcDbEntity
  8
SK2
370
    -2
100
AcDbLine
 10
620.0490516383636
 20
357.5189180673075
 30
0.0
 11
607.0488369383637
 21
357.5189180673075
 31
0.0
  0
LINE
  5
4E3
330
48A
100
AcDbEntity
  8
SK2
370
    -2
100
AcDbLine
 10
609.0488369383637
 20
301.0189180673075
 30
0.0
 11
609.0488369383637
 21
354.0189180673075
 31
0.0
  0
SOLID
  5
4E4
330
48A
100
AcDbEntity
  8
SK2
100
AcDbTrace
 10
608.4655036050303
 20
301.0189180673075
 30
0.0
 11
609.632170271697
 21
301.0189180673075
 31
0.0
 12
609.0488369383637
 22
297.5189180673075
 32
0.0
 13
609.0488369383637
 23
297.5189180673075
 33
0.0
  0
SOLID
  5
4E5
330
48A
100
AcDbEntity
  8
SK2
100
AcDbTrace
 10
608.4655036050303
 20
354.0189180673075
 30
0.0
 11
609.632170271697
 21
354.0189180673075
 31
0.0
 12
609.0488369383637
 22
357.5189180673075
 32
0.0
 13
609.0488369383637
 23
357.5189180673075
 33
0.0
  0
MTEXT
  5
4E6
330
48A
100
AcDbEntity
  8
SK2
100
AcDbMText
 10
606.6738369383635
 20
327.5189180673075
 30
0.0
 40
3.5
 41
0.0
 71
     5
 72
     1
  1
%%c60
 11
0.0000000000000001
 21
1.0
 31
0.0
 73
     1
 44
1.0
1001
ACAD
1000
MTEXTBEGIN
1070
    73
1070
     1
1070
    44
1040
1.0
1070
    74
1070
     0
1000
MTEXTEND
  0
POINT
  5
4E7
330
48A
100
AcDbEntity
  8
Defpoints
 62
     0
100
AcDbPoint
 10
620.6740516383636
 20
297.5189180673075
 30
0.0
  0
POINT
  5
4E8
330
48A
100
AcDbEntity
  8
Defpoints
 62
     0
100
AcDbPoint
 10
620.6740516383636
 20
357.5189180673075
 30
0.0
  0
POINT
  5
4E9
330
48A
100
AcDbEntity
  8
Defpoints
 62
     0
100
AcDbPoint
 10
609.0488369383637
 20
357.5189180673075
 30
0.0
  0
ENDBLK
  5
495
330
48A
100
AcDbEntity
  8
0
100
AcDbBlockEnd
  0
BLOCK
  5
4A0
330
496
100
AcDbEntity
  8
0
100
AcDbBlockBegin
  2
*D30
 70
     1
 10
0.0
 20
0.0
 30
0.0
  3
*D30
  1

  0
LINE
  5
4EA
330
496
100
AcDbEntity
  8
SK2
370
    -2
100
AcDbLine
 10
685.7990516383636
 20
291.5978935830075
 30
0.0
 11
706.5489442883637
 21
291.5978935830075
 31
0.0
  0
LINE
  5
4EB
330
496
100
AcDbEntity
  8
SK2
370
    -2
100
AcDbLine
 10
685.7990516383636
 20
363.4399425516075
 30
0.0
 11
706.5489442883637
 21
363.4399425516075
 31
0.0
  0
LINE
  5
4EC
330
496
100
AcDbEntity
  8
SK2
370
    -2
100
AcDbLine
 10
704.5489442883637
 20
295.0978935830075
 30
0.0
 11
704.5489442883637
 21
359.9399425516075
 31
0.0
  0
SOLID
  5
4ED
330
496
100
AcDbEntity
  8
SK2
100
AcDbTrace
 10
703.9656109550303
 20
295.0978935830075
 30
0.0
 11
705.132277621697
 21
295.0978935830075
 31
0.0
 12
704.5489442883637
 22
291.5978935830075
 32
0.0
 13
704.5489442883637
 23
291.5978935830075
 33
0.0
  0
SOLID
  5
4EE
330
496
100
AcDbEntity
  8
SK2
100
AcDbTrace
 10
703.9656109550303
 20
359.9399425516075
 30
0.0
 11
705.132277621697
 21
359.9399425516075
 31
0.0
 12
704.5489442883637
 22
363.4399425516075
 32
0.0
 13
704.5489442883637
 23
363.4399425516075
 33
0.0
  0
MTEXT
  5
4EF
330
496
100
AcDbEntity
  8
SK2
100
AcDbMText
 10
702.1739442883635
 20
327.5189180673075
 30
0.0
 40
3.5
 41
0.0
 71
     5
 72
     1
  1
Lk-%%c101.6
 11
0.0000000000000001
 21
1.0
 31
0.0
 73
     1
 44
1.0
1001
ACAD
1000
MTEXTBEGIN
1070
    73
1070
     1
1070
    44
1040
1.0
1070
    74
1070
     0
1000
MTEXTEND
  0
POINT
  5
4F0
330
496
100
AcDbEntity
  8
Defpoints
 62
     0
100
AcDbPoint
 10
685.1740516383635
 20
291.5978935830075
 30
0.0
  0
POINT
  5
4F1
330
496
100
AcDbEntity
  8
Defpoints
 62
     0
100
AcDbPoint
 10
685.1740516383635
 20
363.4399425516075
 30
0.0
  0
POINT
  5
4F2
330
496
100
AcDbEntity
  8
Defpoints
 62
     0
100
AcDbPoint
 10
704.5489442883637
 20
363.4399425516075
 30
0.0
  0
ENDBLK
  5
4A1
330
496
100
AcDbEntity
  8
0
100
AcDbBlockEnd
  0
ENDSEC
  0
SECTION
  2
ENTITIES
  0
DIMENSION
  5
27B
330
1B
100
AcDbEntity
  8
SK2
100
AcDbDimension
  2
*D1
 10
-29.62499999999998
 20
197.5
 30
0.0
 11
-29.62500000000003
 21
0.0000000000999592
 31
0.0
 70
   160
  1
%%c395
 71
     5
 42
395.0
  3
ISO-25
100
AcDbAlignedDimension
 13
1.0
 23
-197.5
 33
0.0
 14
1.0
 24
197.5
 34
0.0
 50
90.0
100
AcDbRotatedDimension
  0
DIMENSION
  5
27C
330
1B
100
AcDbEntity
  8
2
100
AcDbDimension
  2
*D2
 10
42.0
 20
210.125
 30
0.0
 11
21.0
 21
210.125
 31
0.0
 70
   160
  1
42
 71
     5
 42
42.0
  3
ISO-25
100
AcDbAlignedDimension
 13
0.0
 23
140.9999999999999
 33
0.0
 14
42.0
 24
198.4999999999999
 34
0.0
100
AcDbRotatedDimension
  0
DIMENSION
  5
27D
330
1B
100
AcDbEntity
  8
SK2
100
AcDbDimension
  2
*D3
 10
85.87500000000003
 20
127.0
 30
0.0
 11
85.875
 21
0.0000000000999592
 31
0.0
 70
   160
  1
%%c254
 71
     5
 42
254.0
  3
ISO-25
100
AcDbAlignedDimension
 13
71.0
 23
-127.0
 33
0.0
 14
71.0
 24
127.0
 34
0.0
 50
90.0
100
AcDbRotatedDimension
  0
DIMENSION
  5
27E
330
1B
100
AcDbEntity
  8
SK2
100
AcDbDimension
  2
*D4
 10
0.0000000000000047
 20
218.625
 30
0.0
 11
35.0
 21
218.625
 31
0.0
 70
   160
  1
70
 71
     5
 42
70.0
  3
ISO-25
100
AcDbAlignedDimension
 13
70.0
 23
128.7514718250999
 33
0.0
 14
0.0
 24
141.7514718250999
 34
0.0
 50
180.0
100
AcDbRotatedDimension
  0
DIMENSION
  5
27F
330
1B
100
AcDbEntity
  8
SK2
100
AcDbDimension
  2
*D5
 10
77.375
 20
31.5
 30
0.0
 11
77.375
 21
0.0000000000999592
 31
0.0
 70
   160
  1
%%c63
 71
     5
 42
63.0
  3
ISO-25
100
AcDbAlignedDimension
 13
71.0
 23
-31.5
 33
0.0
 14
71.0
 24
31.5
 34
0.0
 50
90.0
100
AcDbRotatedDimension
  0
DIMENSION
  5
280
330
1B
100
AcDbEntity
  8
SK2
100
AcDbDimension
  2
*D6
 10
-12.62500000000002
 20
30.0
 30
0.0
 11
-12.62500000000003
 21
0.0000000000999592
 31
0.0
 70
   160
  1
%%c60
 71
     5
 42
60.0
  3
ISO-25
100
AcDbAlignedDimension
 13
-1.0
 23
-30.0
 33
0.0
 14
-1.0
 24
30.0
 34
0.0
 50
90.0
100
AcDbRotatedDimension
  0
DIMENSION
  5
281
330
1B
100
AcDbEntity
  8
SK2
100
AcDbDimension
  2
*D7
 10
-21.125
 20
139.9999999999999
 30
0.0
 11
-21.12500000000003
 21
0.0000000000999592
 31
0.0
 70
   160
  1
%%c280
 71
     5
 42
280.0
  3
ISO-25
100
AcDbAlignedDimension
 13
-1.0
 23
-140.0
 33
0.0
 14
-1.0
 24
139.9999999999999
 34
0.0
 50
90.0
100
AcDbRotatedDimension
  0
TEXT
  5
282
330
1B
100
AcDbEntity
  8
6
100
AcDbText
 10
55.16216085317271
 20
-185.6363933447014
 30
0.0
 40
5.0
  1
FBD60BAJ254GA395
 41
0.8
 72
     1
 11
79.25199222663588
 21
-185.6363933447014
 31
0.0
100
AcDbText
  0
INSERT
  5
283
330
1B
100
AcDbEntity
  8
1
100
AcDbBlockReference
  2
EINFUEGEPUNKT_BL0
 10
42.0
 20
0.0
 30
0.0
  0
INSERT
  5
284
330
1B
100
AcDbEntity
  8
1
100
AcDbBlockReference
  2
NULLPUNKT_BL1
 10
0.0
 20
0.0
 30
0.0
  0
LINE
  5
285
330
1B
100
AcDbEntity
  8
1
100
AcDbLine
 10
40.39999999999998
 20
-197.5
 30
0.0
 11
3.599999999999965
 21
-197.5
 31
0.0
  0
LINE
  5
286
330
1B
100
AcDbEntity
  8
1
100
AcDbLine
 10
0.3999999999999772
 20
-140.0
 30
0.0
 11
0.0
 21
-140.0
 31
0.0
  0
LINE
  5
287
330
1B
100
AcDbEntity
  8
SK1
100
AcDbLine
 10
70.0
 20
-127.0
 30
0.0
 11
42.0
 21
-127.0
 31
0.0
  0
LINE
  5
288
330
1B
100
AcDbEntity
  8
NOCUT
100
AcDbLine
 10
0.0
 20
139.9999999999999
 30
0.0
 11
0.0
 21
0.0
 31
0.0
  0
LINE
  5
289
330
1B
100
AcDbEntity
  8
1
100
AcDbLine
 10
0.0
 20
139.9999999999999
 30
0.0
 11
0.0
 21
-140.0
 31
0.0
  0
LINE
  5
28A
330
1B
100
AcDbEntity
  8
NOCUT
100
AcDbLine
 10
2.0
 20
195.8999999999999
 30
0.0
 11
2.0
 21
141.5999999999999
 31
0.0
  0
LINE
  5
28B
330
1B
100
AcDbEntity
  8
1
100
AcDbLine
 10
2.0
 20
195.8999999999999
 30
0.0
 11
2.0
 21
-195.9
 31
0.0
  0
LINE
  5
28C
330
1B
100
AcDbEntity
  8
SK3
100
AcDbLine
 10
70.0
 20
-31.5
 30
0.0
 11
32.0
 21
-31.5
 31
0.0
  0
LINE
  5
28D
330
1B
100
AcDbEntity
  8
SK3
100
AcDbLine
 10
32.0
 20
-30.0
 30
0.0
 11
0.0
 21
-30.0
 31
0.0
  0
LINE
  5
28E
330
1B
100
AcDbEntity
  8
SK3
100
AcDbLine
 10
32.0
 20
31.5
 30
0.0
 11
32.0
 21
-31.5
 31
0.0
  0
LINE
  5
28F
330
1B
100
AcDbEntity
  8
NOCUT
100
AcDbLine
 10
42.0
 20
195.8999999999999
 30
0.0
 11
42.0
 21
0.0
 31
0.0
  0
LINE
  5
290
330
1B
100
AcDbEntity
  8
1
100
AcDbLine
 10
42.0
 20
195.8999999999999
 30
0.0
 11
42.0
 21
-195.9
 31
0.0
  0
LINE
  5
291
330
1B
100
AcDbEntity
  8
NOCUT
100
AcDbLine
 10
42.0
 20
0.0
 30
0.0
 11
0.0
 21
0.0
 31
0.0
  0
LINE
  5
292
330
1B
100
AcDbEntity
  8
4
100
AcDbLine
 10
73.0
 20
0.0
 30
0.0
 11
-3.000000000000028
 21
0.0
 31
0.0
  0
LINE
  5
293
330
1B
100
AcDbEntity
  8
SK1
100
AcDbLine
 10
70.0
 20
127.0
 30
0.0
 11
70.0
 21
-127.0
 31
0.0
  0
LINE
  5
294
330
1B
100
AcDbEntity
  8
SK3
100
AcDbLine
 10
32.0
 20
30.0
 30
0.0
 11
0.0
 21
30.0
 31
0.0
  0
LINE
  5
295
330
1B
100
AcDbEntity
  8
SK3
100
AcDbLine
 10
70.0
 20
31.5
 30
0.0
 11
32.0
 21
31.5
 31
0.0
  0
LINE
  5
296
330
1B
100
AcDbEntity
  8
SK1
100
AcDbLine
 10
70.0
 20
127.0
 30
0.0
 11
42.0
 21
127.0
 31
0.0
  0
LINE
  5
297
330
1B
100
AcDbEntity
  8
NOCUT
100
AcDbLine
 10
0.3999999999999772
 20
139.9999999999999
 30
0.0
 11
0.0
 21
139.9999999999999
 31
0.0
  0
LINE
  5
298
330
1B
100
AcDbEntity
  8
1
100
AcDbLine
 10
0.3999999999999772
 20
139.9999999999999
 30
0.0
 11
0.0
 21
139.9999999999999
 31
0.0
  0
LINE
  5
299
330
1B
100
AcDbEntity
  8
NOCUT
100
AcDbLine
 10
40.39999999999998
 20
197.5
 30
0.0
 11
3.599999999999965
 21
197.5
 31
0.0
  0
LINE
  5
29A
330
1B
100
AcDbEntity
  8
1
100
AcDbLine
 10
40.39999999999998
 20
197.5
 30
0.0
 11
3.599999999999965
 21
197.5
 31
0.0
  0
ARC
  5
29B
330
1B
100
AcDbEntity
  8
NOCUT
100
AcDbCircle
 10
3.599999999999965
 20
195.8999999999999
 30
0.0
 40
1.6
100
AcDbArc
 50
90.0
 51
180.0
  0
ARC
  5
29C
330
1B
100
AcDbEntity
  8
NOCUT
100
AcDbCircle
 10
40.39999999999998
 20
195.8999999999999
 30
0.0
 40
1.6
100
AcDbArc
 50
0.0
 51
90.0
  0
ARC
  5
29D
330
1B
100
AcDbEntity
  8
NOCUT
100
AcDbCircle
 10
0.3999999999999772
 20
141.5999999999999
 30
0.0
 40
1.6
100
AcDbArc
 50
270.0
 51
359.9999999996
  0
ARC
  5
29E
330
1B
100
AcDbEntity
  8
1
100
AcDbCircle
 10
3.599999999999965
 20
-195.9
 30
0.0
 40
1.6
100
AcDbArc
 50
180.0
 51
270.0
  0
ARC
  5
29F
330
1B
100
AcDbEntity
  8
1
100
AcDbCircle
 10
3.599999999999965
 20
195.8999999999999
 30
0.0
 40
1.6
100
AcDbArc
 50
90.0
 51
180.0
  0
ARC
  5
2A0
330
1B
100
AcDbEntity
  8
1
100
AcDbCircle
 10
40.39999999999998
 20
-195.9
 30
0.0
 40
1.6
100
AcDbArc
 50
270.0
 51
0.0
  0
ARC
  5
2A1
330
1B
100
AcDbEntity
  8
1
100
AcDbCircle
 10
40.39999999999998
 20
195.8999999999999
 30
0.0
 40
1.6
100
AcDbArc
 50
0.0
 51
90.0
  0
ARC
  5
2A2
330
1B
100
AcDbEntity
  8
1
100
AcDbCircle
 10
0.3999999999999772
 20
-141.6
 30
0.0
 40
1.6
100
AcDbArc
 50
0.0000000001
 51
90.0
  0
ARC
  5
2A3
330
1B
100
AcDbEntity
  8
1
100
AcDbCircle
 10
0.3999999999999772
 20
141.5999999999999
 30
0.0
 40
1.6
100
AcDbArc
 50
270.0
 51
359.9999999996
  0
ENDSEC
  0
SECTION
  2
OBJECTS
  0
DICTIONARY
  5
2A4
330
0
100
AcDbDictionary
281
     1
  3
ACAD_COLOR
350
2AE
  3
ACAD_GROUP
350
2A5
  3
ACAD_LAYOUT
350
2B1
  3
ACAD_MATERIAL
350
2AD
  3
ACAD_MLINESTYLE
350
2A6
  3
ACAD_PLOTSETTINGS
350
2B2
  3
ACAD_PLOTSTYLENAME
350
2AB
  3
ACAD_TABLESTYLE
350
2AF
  3
ACDBHEADERROUNDTRIPXREC
350
665
  3
AcDbVariableDictionary
350
660
  0
DICTIONARY
  5
4F3
330
2
100
AcDbDictionary
280
     1
281
     1
  3
ACAD_LAYERFILTERS
360
620
  3
ACLYDICTIONARY
360
61F
  0
DICTIONARY
  5
2AE
102
{ACAD_REACTORS
330
2A4
102
}
330
2A4
100
AcDbDictionary
281
     1
  0
DICTIONARY
  5
2A5
102
{ACAD_REACTORS
330
2A4
102
}
330
2A4
100
AcDbDictionary
281
     1
  0
DICTIONARY
  5
2B1
102
{ACAD_REACTORS
330
2A4
102
}
330
2A4
100
AcDbDictionary
281
     1
  3
Layout1
350
2B4
  3
Model
350
2B3
  0
DICTIONARY
  5
2AD
102
{ACAD_REACTORS
330
2A4
102
}
330
2A4
100
AcDbDictionary
281
     1
  0
DICTIONARY
  5
2A6
102
{ACAD_REACTORS
330
2A4
102
}
330
2A4
100
AcDbDictionary
281
     1
  3
STANDARD
350
2A7
  0
DICTIONARY
  5
2B2
102
{ACAD_REACTORS
330
2A4
102
}
330
2A4
100
AcDbDictionary
281
     1
  0
ACDBDICTIONARYWDFLT
  5
2AB
102
{ACAD_REACTORS
330
2A4
102
}
330
2A4
100
AcDbDictionary
281
     1
  3
Normal
350
2AC
100
AcDbDictionaryWithDefault
340
2AC
  0
DICTIONARY
  5
2AF
102
{ACAD_REACTORS
330
2A4
102
}
330
2A4
100
AcDbDictionary
281
     1
  3
Standard
350
2B0
  0
DICTIONARY
  5
665
102
{ACAD_REACTORS
330
2A4
102
}
330
2A4
100
AcDbDictionary
281
     1
  0
DICTIONARY
  5
660
102
{ACAD_REACTORS
330
2A4
102
}
330
2A4
100
AcDbDictionary
281
     1
  3
CTABLESTYLE
350
661
  3
DIMASSOC
350
662
  3
PROJECTNAME
350
663
  0
DICTIONARY
  5
620
102
{ACAD_REACTORS
330
4F3
102
}
330
4F3
100
AcDbDictionary
281
     1
  0
DICTIONARY
  5
61F
102
{ACAD_REACTORS
330
4F3
102
}
330
4F3
100
AcDbDictionary
281
     1
1001
ACAD
1000
<All
  0
LAYOUT
  5
2B4
102
{ACAD_XDICTIONARY
360
668
102
}
102
{ACAD_REACTORS
330
2B1
102
}
330
2B1
100
AcDbPlotSettings
  1

  2
\\ingdom02\ITB3
  4

  6

 40
0.0
 41
0.0
 42
0.0
 43
0.0
 44
0.0
 45
0.0
 46
0.0
 47
0.0
 48
0.0
 49
0.0
140
0.0
141
0.0
142
1.0
143
1.0
 70
   688
 72
     0
 73
     0
 74
     5
  7

 75
    16
147
1.0
148
0.0
149
0.0
100
AcDbLayout
  1
Layout1
 70
     1
 71
     1
 10
0.0
 20
0.0
 11
12.0
 21
9.0
 12
0.0
 22
0.0
 32
0.0
 14
1.000000000000000E+20
 24
1.000000000000000E+20
 34
1.000000000000000E+20
 15
-1.000000000000000E+20
 25
-1.000000000000000E+20
 35
-1.000000000000000E+20
146
0.0
 13
0.0
 23
0.0
 33
0.0
 16
1.0
 26
0.0
 36
0.0
 17
0.0
 27
1.0
 37
0.0
 76
     0
330
1C
  0
LAYOUT
  5
2B3
102
{ACAD_XDICTIONARY
360
666
102
}
102
{ACAD_REACTORS
330
2B1
102
}
330
2B1
100
AcDbPlotSettings
  1

  2
\\ingdom02\ITB3
  4

  6

 40
0.0
 41
0.0
 42
0.0
 43
0.0
 44
0.0
 45
0.0
 46
0.0
 47
0.0
 48
0.0
 49
0.0
140
0.0
141
0.0
142
1.0
143
1.0
 70
  1712
 72
     0
 73
     0
 74
     0
  7

 75
     0
147
1.0
148
0.0
149
0.0
100
AcDbLayout
  1
Model
 70
     1
 71
     0
 10
0.0
 20
0.0
 11
12.0
 21
9.0
 12
0.0
 22
0.0
 32
0.0
 14
0.0
 24
0.0
 34
0.0
 15
0.0
 25
0.0
 35
0.0
146
0.0
 13
0.0
 23
0.0
 33
0.0
 16
1.0
 26
0.0
 36
0.0
 17
0.0
 27
1.0
 37
0.0
 76
     0
330
1B
  0
MLINESTYLE
  5
2A7
102
{ACAD_REACTORS
330
2A6
102
}
330
2A6
100
AcDbMlineStyle
  2
STANDARD
 70
     0
  3

 62
   256
 51
90.0
 52
90.0
 71
     2
 49
0.5
 62
   256
  6
BYLAYER
 49
-0.5
 62
   256
  6
BYLAYER
  0
ACDBPLACEHOLDER
  5
2AC
102
{ACAD_REACTORS
330
2AB
102
}
330
2AB
  0
TABLESTYLE
  5
2B0
102
{ACAD_REACTORS
330
2AF
102
}
330
2AF
100
AcDbTableStyle
  3
Standard
 70
     0
 71
     0
 40
1.5
 41
1.5
280
     0
281
     0
  7
STANDARD
140
4.5
170
     2
 62
     0
 63
     7
283
     0
274
    -2
284
     1
 64
     0
275
    -2
285
     1
 65
     0
276
    -2
286
     1
 66
     0
277
    -2
287
     1
 67
     0
278
    -2
288
     1
 68
     0
279
    -2
289
     1
 69
     0
  7
STANDARD
140
6.0
170
     5
 62
     0
 63
     7
283
     0
274
    -2
284
     1
 64
     0
275
    -2
285
     1
 65
     0
276
    -2
286
     1
 66
     0
277
    -2
287
     1
 67
     0
278
    -2
288
     1
 68
     0
279
    -2
289
     1
 69
     0
  7
STANDARD
140
4.5
170
     5
 62
     0
 63
     7
283
     0
274
    -2
284
     1
 64
     0
275
    -2
285
     1
 65
     0
276
    -2
286
     1
 66
     0
277
    -2
287
     1
 67
     0
278
    -2
288
     1
 68
     0
279
    -2
289
     1
 69
     0
  0
DICTIONARYVAR
  5
661
102
{ACAD_REACTORS
330
660
102
}
330
660
100
DictionaryVariables
280
     0
  1
STANDARD
  0
DICTIONARYVAR
  5
662
102
{ACAD_REACTORS
330
660
102
}
330
660
100
DictionaryVariables
280
     0
  1
1
  0
DICTIONARYVAR
  5
663
102
{ACAD_REACTORS
330
660
102
}
330
660
100
DictionaryVariables
280
     0
  1

  0
DICTIONARY
  5
668
330
2B4
100
AcDbDictionary
280
     1
281
     1
  3
ACAD_XREC_ROUNDTRIP
360
669
  0
DICTIONARY
  5
666
330
2B3
100
AcDbDictionary
280
     1
281
     1
  3
ACAD_XREC_ROUNDTRIP
360
667
  0
XRECORD
  5
669
102
{ACAD_REACTORS
330
668
102
}
330
668
100
AcDbXrecord
280
     1
102
SHADEPLOT
 70
     0
102
SHADEPLOTRESLEVEL
 70
     2
102
SHADEPLOTCUSTOMDPI
 70
   300
  0
XRECORD
  5
667
102
{ACAD_REACTORS
330
666
102
}
330
666
100
AcDbXrecord
280
     1
102
SHADEPLOT
 70
     0
102
SHADEPLOTRESLEVEL
 70
     2
102
SHADEPLOTCUSTOMDPI
 70
   300
  0
ENDSEC
  0
EOF
