  0
SECTION
  2
HEADER
  9
$ACADVER
  1
AC1015
  9
$ACADMAINTVER
 70
    20
  9
$DWGCODEPAGE
  3
ANSI_1252
  9
$INSBASE
 10
0.0
 20
0.0
 30
0.0
  9
$EXTMIN
 10
-33.59921130258499
 20
-175.0021354563093
 30
-0.0015258207003583
  9
$EXTMAX
 10
120.3027657241359
 20
200.0985724992335
 30
0.0000000349246037
  9
$LIMMIN
 10
0.0
 20
0.0
  9
$LIMMAX
 10
594.0
 20
420.0
  9
$ORTHOMODE
 70
     0
  9
$REGENMODE
 70
     1
  9
$FILLMODE
 70
     1
  9
$QTEXTMODE
 70
     0
  9
$MIRRTEXT
 70
     0
  9
$LTSCALE
 40
32.67
  9
$ATTMODE
 70
     1
  9
$TEXTSIZE
 40
0.2
  9
$TRACEWID
 40
0.05
  9
$TEXTSTYLE
  7
STANDARD
  9
$CLAYER
  8
0
  9
$CELTYPE
  6
BYLAYER
  9
$CECOLOR
 62
   256
  9
$CELTSCALE
 40
1.0
  9
$DISPSILH
 70
     0
  9
$DIMSCALE
 40
1.0
  9
$DIMASZ
 40
2.5
  9
$DIMEXO
 40
3.712499999999999
  9
$DIMDLI
 40
22.572
  9
$DIMRND
 40
0.0
  9
$DIMDLE
 40
0.0
  9
$DIMEXE
 40
10.692
  9
$DIMTP
 40
0.005
  9
$DIMTM
 40
0.005
  9
$DIMTXT
 40
3.5
  9
$DIMCEN
 40
5.346
  9
$DIMTSZ
 40
0.0
  9
$DIMTOL
 70
     1
  9
$DIMLIM
 70
     0
  9
$DIMTIH
 70
     1
  9
$DIMTOH
 70
     1
  9
$DIMSE1
 70
     0
  9
$DIMSE2
 70
     0
  9
$DIMTAD
 70
     0
  9
$DIMZIN
 70
     0
  9
$DIMBLK
  1
_FILLED
  9
$DIMASO
 70
     1
  9
$DIMSHO
 70
     1
  9
$DIMPOST
  1

  9
$DIMAPOST
  1

  9
$DIMALT
 70
     0
  9
$DIMALTD
 70
     2
  9
$DIMALTF
 40
25.4
  9
$DIMLFAC
 40
1.0
  9
$DIMTOFL
 70
     0
  9
$DIMTVP
 40
0.0
  9
$DIMTIX
 70
     0
  9
$DIMSOXD
 70
     0
  9
$DIMSAH
 70
     0
  9
$DIMBLK1
  1

  9
$DIMBLK2
  1

  9
$DIMSTYLE
  2
STANDARD
  9
$DIMCLRD
 70
     0
  9
$DIMCLRE
 70
     0
  9
$DIMCLRT
 70
     0
  9
$DIMTFAC
 40
1.0
  9
$DIMGAP
 40
0.09
  9
$DIMJUST
 70
     0
  9
$DIMSD1
 70
     0
  9
$DIMSD2
 70
     0
  9
$DIMTOLJ
 70
     1
  9
$DIMTZIN
 70
     0
  9
$DIMALTZ
 70
     0
  9
$DIMALTTZ
 70
     0
  9
$DIMUPT
 70
     0
  9
$DIMDEC
 70
     4
  9
$DIMTDEC
 70
     4
  9
$DIMALTU
 70
     2
  9
$DIMALTTD
 70
     2
  9
$DIMTXSTY
  7
STANDARD
  9
$DIMAUNIT
 70
     0
  9
$DIMADEC
 70
     0
  9
$DIMALTRND
 40
0.0
  9
$DIMAZIN
 70
     0
  9
$DIMDSEP
 70
    46
  9
$DIMATFIT
 70
     3
  9
$DIMFRAC
 70
     0
  9
$DIMLDRBLK
  1
_FILLED
  9
$DIMLUNIT
 70
     2
  9
$DIMLWD
 70
    -2
  9
$DIMLWE
 70
    -2
  9
$DIMTMOVE
 70
     0
  9
$LUNITS
 70
     2
  9
$LUPREC
 70
     4
  9
$SKETCHINC
 40
0.1
  9
$FILLETRAD
 40
0.0
  9
$AUNITS
 70
     0
  9
$AUPREC
 70
     0
  9
$MENU
  1
.
  9
$ELEVATION
 40
0.0
  9
$PELEVATION
 40
0.0
  9
$THICKNESS
 40
0.0
  9
$LIMCHECK
 70
     0
  9
$CHAMFERA
 40
0.0
  9
$CHAMFERB
 40
0.0
  9
$CHAMFERC
 40
0.0
  9
$CHAMFERD
 40
0.0
  9
$SKPOLY
 70
     0
  9
$TDCREATE
 40
2453791.376496331
  9
$TDUCREATE
 40
2453791.334829664
  9
$TDUPDATE
 40
2453791.398990081
  9
$TDUUPDATE
 40
2453791.357323414
  9
$TDINDWG
 40
0.0224939352
  9
$TDUSRTIMER
 40
0.0224939352
  9
$USRTIMER
 70
     1
  9
$ANGBASE
 50
0.0
  9
$ANGDIR
 70
     0
  9
$PDMODE
 70
     3
  9
$PDSIZE
 40
0.3125
  9
$PLINEWID
 40
0.0
  9
$SPLFRAME
 70
     0
  9
$SPLINETYPE
 70
     6
  9
$SPLINESEGS
 70
     8
  9
$HANDSEED
  5
69E
  9
$SURFTAB1
 70
     6
  9
$SURFTAB2
 70
     6
  9
$SURFTYPE
 70
     6
  9
$SURFU
 70
     6
  9
$SURFV
 70
     6
  9
$UCSBASE
  2

  9
$UCSNAME
  2

  9
$UCSORG
 10
0.0
 20
0.0
 30
0.0
  9
$UCSXDIR
 10
1.0
 20
0.0
 30
0.0
  9
$UCSYDIR
 10
0.0
 20
1.0
 30
0.0
  9
$UCSORTHOREF
  2

  9
$UCSORTHOVIEW
 70
     0
  9
$UCSORGTOP
 10
0.0
 20
0.0
 30
0.0
  9
$UCSORGBOTTOM
 10
0.0
 20
0.0
 30
0.0
  9
$UCSORGLEFT
 10
0.0
 20
0.0
 30
0.0
  9
$UCSORGRIGHT
 10
0.0
 20
0.0
 30
0.0
  9
$UCSORGFRONT
 10
0.0
 20
0.0
 30
0.0
  9
$UCSORGBACK
 10
0.0
 20
0.0
 30
0.0
  9
$PUCSBASE
  2

  9
$PUCSNAME
  2

  9
$PUCSORG
 10
0.0
 20
0.0
 30
0.0
  9
$PUCSXDIR
 10
1.0
 20
0.0
 30
0.0
  9
$PUCSYDIR
 10
0.0
 20
1.0
 30
0.0
  9
$PUCSORTHOREF
  2

  9
$PUCSORTHOVIEW
 70
     0
  9
$PUCSORGTOP
 10
0.0
 20
0.0
 30
0.0
  9
$PUCSORGBOTTOM
 10
0.0
 20
0.0
 30
0.0
  9
$PUCSORGLEFT
 10
0.0
 20
0.0
 30
0.0
  9
$PUCSORGRIGHT
 10
0.0
 20
0.0
 30
0.0
  9
$PUCSORGFRONT
 10
0.0
 20
0.0
 30
0.0
  9
$PUCSORGBACK
 10
0.0
 20
0.0
 30
0.0
  9
$USERI1
 70
     0
  9
$USERI2
 70
     0
  9
$USERI3
 70
     0
  9
$USERI4
 70
     0
  9
$USERI5
 70
     0
  9
$USERR1
 40
0.0
  9
$USERR2
 40
0.0
  9
$USERR3
 40
0.0
  9
$USERR4
 40
0.0
  9
$USERR5
 40
0.0
  9
$WORLDVIEW
 70
     1
  9
$SHADEDGE
 70
     3
  9
$SHADEDIF
 70
    70
  9
$TILEMODE
 70
     1
  9
$MAXACTVP
 70
    64
  9
$PINSBASE
 10
0.0
 20
0.0
 30
0.0
  9
$PLIMCHECK
 70
     0
  9
$PEXTMIN
 10
1.000000000000000E+20
 20
1.000000000000000E+20
 30
1.000000000000000E+20
  9
$PEXTMAX
 10
-1.000000000000000E+20
 20
-1.000000000000000E+20
 30
-1.000000000000000E+20
  9
$PLIMMIN
 10
0.0
 20
0.0
  9
$PLIMMAX
 10
12.0
 20
9.0
  9
$UNITMODE
 70
     0
  9
$VISRETAIN
 70
     1
  9
$PLINEGEN
 70
     0
  9
$PSLTSCALE
 70
     1
  9
$TREEDEPTH
 70
  3020
  9
$CMLSTYLE
  2
STANDARD
  9
$CMLJUST
 70
     0
  9
$CMLSCALE
 40
1.0
  9
$PROXYGRAPHICS
 70
     1
  9
$MEASUREMENT
 70
     1
  9
$CELWEIGHT
370
    -1
  9
$ENDCAPS
280
     0
  9
$JOINSTYLE
280
     0
  9
$LWDISPLAY
290
     0
  9
$INSUNITS
 70
     0
  9
$HYPERLINKBASE
  1

  9
$STYLESHEET
  1

  9
$XEDIT
290
     1
  9
$CEPSNTYPE
380
     0
  9
$PSTYLEMODE
290
     1
  9
$FINGERPRINTGUID
  2
{17D90503-2CAD-4323-98EE-A0E17BC9FD09}
  9
$VERSIONGUID
  2
{A0DE98D1-7837-406F-A3C8-36C9EBA26303}
  9
$EXTNAMES
290
     1
  9
$PSVPSCALE
 40
0.0
  9
$OLESTARTUP
290
     0
  0
ENDSEC
  0
SECTION
  2
CLASSES
  0
CLASS
  1
ACDBDICTIONARYWDFLT
  2
AcDbDictionaryWithDefault
  3
ObjectDBX Classes
 90
        0
280
     0
281
     0
  0
CLASS
  1
TABLESTYLE
  2
AcDbTableStyle
  3
ObjectDBX Classes
 90
     2047
280
     0
281
     0
  0
CLASS
  1
DICTIONARYVAR
  2
AcDbDictionaryVar
  3
ObjectDBX Classes
 90
        0
280
     0
281
     0
  0
CLASS
  1
ACDBPLACEHOLDER
  2
AcDbPlaceHolder
  3
ObjectDBX Classes
 90
        0
280
     0
281
     0
  0
CLASS
  1
LAYOUT
  2
AcDbLayout
  3
ObjectDBX Classes
 90
        0
280
     0
281
     0
  0
ENDSEC
  0
SECTION
  2
TABLES
  0
TABLE
  2
VPORT
  5
8
330
0
100
AcDbSymbolTable
 70
     2
  0
VPORT
  5
698
330
8
100
AcDbSymbolTableRecord
100
AcDbViewportTableRecord
  2
*Active
 70
     0
 10
0.0
 20
0.0
 11
1.0
 21
1.0
 12
43.35177721077542
 22
12.5482185214621
 13
0.0
 23
0.0
 14
1.0
 24
1.0
 15
0.0
 25
0.0
 16
0.0
 26
0.0
 36
1.0
 17
0.0
 27
0.0
 37
0.0
 40
377.9139632652095
 41
1.494367959949937
 42
50.0
 43
0.0
 44
0.0
 50
0.0
 51
0.0
 71
     0
 72
   100
 73
     1
 74
     1
 75
     0
 76
     0
 77
     0
 78
     0
281
     0
 65
     1
110
0.0
120
0.0
130
0.0
111
1.0
121
0.0
131
0.0
112
0.0
122
1.0
132
0.0
 79
     0
146
0.0
  0
ENDTAB
  0
TABLE
  2
LTYPE
  5
5
330
0
100
AcDbSymbolTable
 70
     6
  0
LTYPE
  5
14
330
5
100
AcDbSymbolTableRecord
100
AcDbLinetypeTableRecord
  2
BYBLOCK
 70
     0
  3

 72
    65
 73
     0
 40
0.0
  0
LTYPE
  5
15
330
5
100
AcDbSymbolTableRecord
100
AcDbLinetypeTableRecord
  2
BYLAYER
 70
     0
  3

 72
    65
 73
     0
 40
0.0
  0
LTYPE
  5
16
330
5
100
AcDbSymbolTableRecord
100
AcDbLinetypeTableRecord
  2
CONTINUOUS
 70
     0
  3
Solid line
 72
    65
 73
     0
 40
0.0
  0
LTYPE
  5
1F5
330
5
100
AcDbSymbolTableRecord
100
AcDbLinetypeTableRecord
  2
CENTER
 70
     0
  3
____ _ ____ _ ____ _ ____ _ ____ _ ____ _ ____
 72
    65
 73
     4
 40
0.6
 49
0.375
 74
     0
 49
-0.075
 74
     0
 49
0.075
 74
     0
 49
-0.075
 74
     0
  0
LTYPE
  5
1F6
330
5
100
AcDbSymbolTableRecord
100
AcDbLinetypeTableRecord
  2
HIDDEN
 70
     0
  3
- - - - - - - - - - - - - - - - - - - -
 72
    65
 73
     2
 40
0.2
 49
0.1
 74
     0
 49
-0.1
 74
     0
  0
ENDTAB
  0
TABLE
  2
LAYER
  5
2
102
{ACAD_XDICTIONARY
360
4F9
102
}
330
0
100
AcDbSymbolTable
 70
    14
  0
LAYER
  5
10
330
2
100
AcDbSymbolTableRecord
100
AcDbLayerTableRecord
  2
0
 70
     0
 62
     7
  6
CONTINUOUS
370
    -3
390
2D7
  0
LAYER
  5
1FD
330
2
100
AcDbSymbolTableRecord
100
AcDbLayerTableRecord
  2
1
 70
     0
 62
     4
  6
CONTINUOUS
370
    -3
390
2D7
  0
LAYER
  5
1FE
330
2
100
AcDbSymbolTableRecord
100
AcDbLayerTableRecord
  2
2
 70
     0
 62
     7
  6
CONTINUOUS
370
    -3
390
2D7
  0
LAYER
  5
1FF
330
2
100
AcDbSymbolTableRecord
100
AcDbLayerTableRecord
  2
4
 70
     0
 62
     2
  6
CENTER
370
    -3
390
2D7
  0
LAYER
  5
200
330
2
100
AcDbSymbolTableRecord
100
AcDbLayerTableRecord
  2
6
 70
     0
 62
     5
  6
CONTINUOUS
370
    -3
390
2D7
  0
LAYER
  5
201
330
2
100
AcDbSymbolTableRecord
100
AcDbLayerTableRecord
  2
NOCUT
 70
     0
 62
     7
  6
CONTINUOUS
370
    -3
390
2D7
  0
LAYER
  5
202
330
2
100
AcDbSymbolTableRecord
100
AcDbLayerTableRecord
  2
SK1
 70
     0
 62
     4
  6
CONTINUOUS
370
    -3
390
2D7
  0
LAYER
  5
203
330
2
100
AcDbSymbolTableRecord
100
AcDbLayerTableRecord
  2
SK2
 70
     0
 62
     7
  6
CONTINUOUS
370
    -3
390
2D7
  0
LAYER
  5
204
330
2
100
AcDbSymbolTableRecord
100
AcDbLayerTableRecord
  2
SK3
 70
     0
 62
     1
  6
HIDDEN
370
    -3
390
2D7
  0
LAYER
  5
205
330
2
100
AcDbSymbolTableRecord
100
AcDbLayerTableRecord
  2
SK4
 70
     0
 62
     2
  6
CENTER
370
    -3
390
2D7
  0
LAYER
  5
34D
330
2
100
AcDbSymbolTableRecord
100
AcDbLayerTableRecord
  2
Defpoints
 70
     0
 62
     7
  6
CONTINUOUS
290
     0
370
    -3
390
2D7
  0
ENDTAB
  0
TABLE
  2
STYLE
  5
3
330
0
100
AcDbSymbolTable
 70
     1
  0
STYLE
  5
11
330
3
100
AcDbSymbolTableRecord
100
AcDbTextStyleTableRecord
  2
STANDARD
 70
     0
 40
0.0
 41
0.8
 50
0.0
 71
     0
 42
0.2
  3
isocp.shx
  4

  0
ENDTAB
  0
TABLE
  2
VIEW
  5
6
330
0
100
AcDbSymbolTable
 70
     0
  0
ENDTAB
  0
TABLE
  2
UCS
  5
7
330
0
100
AcDbSymbolTable
 70
     0
  0
ENDTAB
  0
TABLE
  2
APPID
  5
9
330
0
100
AcDbSymbolTable
 70
     2
  0
APPID
  5
206
330
9
100
AcDbSymbolTableRecord
100
AcDbRegAppTableRecord
  2
ACAD
 70
     0
  0
APPID
  5
34F
330
9
100
AcDbSymbolTableRecord
100
AcDbRegAppTableRecord
  2
ACAD_PSEXT
 70
     0
  0
ENDTAB
  0
TABLE
  2
DIMSTYLE
  5
A
330
0
100
AcDbSymbolTable
 70
     3
100
AcDbDimStyleTable
 71
     1
340
34E
  0
DIMSTYLE
105
207
330
A
100
AcDbSymbolTableRecord
100
AcDbDimStyleTableRecord
  2
STANDARD
 70
     0
 41
2.5
 47
0.005
 48
0.005
 71
     1
 73
     0
 74
     0
 77
     1
 78
     8
140
3.5
178
     2
271
     3
272
     3
284
     8
340
11
341
209
342
209
343
209
344
209
  0
DIMSTYLE
105
34E
102
{ACAD_REACTORS
330
351
330
352
330
353
330
354
330
355
330
356
330
357
330
358
330
359
330
299
330
298
330
296
330
294
330
29A
330
297
330
292
330
295
330
293
102
}
330
A
100
AcDbSymbolTableRecord
100
AcDbDimStyleTableRecord
  2
ISO-25
 70
     0
 41
3.5
 42
0.625
 43
3.75
 44
2.0
 73
     0
 74
     0
 77
     1
 78
     8
140
3.5
141
2.5
143
0.03937007874016
147
0.625
171
     3
172
     1
176
   256
177
   256
178
   256
271
     2
272
     2
274
     3
283
     0
284
     8
340
11
  0
ENDTAB
  0
TABLE
  2
BLOCK_RECORD
  5
1
330
0
100
AcDbSymbolTable
 70
    31
  0
BLOCK_RECORD
  5
1B
330
1
100
AcDbSymbolTableRecord
100
AcDbBlockTableRecord
  2
*MODEL_SPACE
340
2DE
  0
BLOCK_RECORD
  5
1C
330
1
100
AcDbSymbolTableRecord
100
AcDbBlockTableRecord
  2
*PAPER_SPACE
340
2DF
  0
BLOCK_RECORD
  5
209
330
1
100
AcDbSymbolTableRecord
100
AcDbBlockTableRecord
  2
_FILLED
340
0
  0
BLOCK_RECORD
  5
20A
330
1
100
AcDbSymbolTableRecord
100
AcDbBlockTableRecord
  2
*D1
340
0
  0
BLOCK_RECORD
  5
20B
330
1
100
AcDbSymbolTableRecord
100
AcDbBlockTableRecord
  2
*D2
340
0
  0
BLOCK_RECORD
  5
20C
330
1
100
AcDbSymbolTableRecord
100
AcDbBlockTableRecord
  2
*D3
340
0
  0
BLOCK_RECORD
  5
20D
330
1
100
AcDbSymbolTableRecord
100
AcDbBlockTableRecord
  2
*D4
340
0
  0
BLOCK_RECORD
  5
20E
330
1
100
AcDbSymbolTableRecord
100
AcDbBlockTableRecord
  2
*D5
340
0
  0
BLOCK_RECORD
  5
20F
330
1
100
AcDbSymbolTableRecord
100
AcDbBlockTableRecord
  2
*D6
340
0
  0
BLOCK_RECORD
  5
210
330
1
100
AcDbSymbolTableRecord
100
AcDbBlockTableRecord
  2
*D7
340
0
  0
BLOCK_RECORD
  5
211
330
1
100
AcDbSymbolTableRecord
100
AcDbBlockTableRecord
  2
*D8
340
0
  0
BLOCK_RECORD
  5
212
330
1
100
AcDbSymbolTableRecord
100
AcDbBlockTableRecord
  2
*D9
340
0
  0
BLOCK_RECORD
  5
213
330
1
100
AcDbSymbolTableRecord
100
AcDbBlockTableRecord
  2
NULLPUNKT_BL0
340
0
102
{BLKREFS
331
29C
331
35B
102
}
  0
BLOCK_RECORD
  5
214
330
1
100
AcDbSymbolTableRecord
100
AcDbBlockTableRecord
  2
EINFUEGEPUNKT_BL1
340
0
102
{BLKREFS
331
29D
331
35C
102
}
  0
ENDTAB
  0
ENDSEC
  0
SECTION
  2
BLOCKS
  0
BLOCK
  5
1E
330
1B
100
AcDbEntity
  8
0
100
AcDbBlockBegin
  2
*MODEL_SPACE
 70
     0
 10
0.0
 20
0.0
 30
0.0
  3
*MODEL_SPACE
  1

  0
ENDBLK
  5
1F
330
1B
100
AcDbEntity
  8
0
100
AcDbBlockEnd
  0
BLOCK
  5
20
330
1C
100
AcDbEntity
 67
     1
  8
0
100
AcDbBlockBegin
  2
*PAPER_SPACE
 70
     0
 10
0.0
 20
0.0
 30
0.0
  3
*PAPER_SPACE
  1

  0
ENDBLK
  5
21
330
1C
100
AcDbEntity
 67
     1
  8
0
100
AcDbBlockEnd
  0
BLOCK
  5
28F
330
209
100
AcDbEntity
  8
0
100
AcDbBlockBegin
  2
_FILLED
 70
     0
 10
0.0
 20
0.0
 30
0.0
  3
_FILLED
  1

  0
SOLID
  5
290
330
209
100
AcDbEntity
  8
0
  6
ByBlock
 62
     0
100
AcDbTrace
 10
0.0
 20
0.0
 30
0.0
 11
-1.0
 21
0.132
 31
0.0
 12
-1.0
 22
-0.132
 32
0.0
 13
-1.0
 23
-0.132
 33
0.0
  0
ENDBLK
  5
291
330
209
100
AcDbEntity
  8
0
  6
ByBlock
 62
     0
100
AcDbBlockEnd
  0
BLOCK
  5
215
330
20A
100
AcDbEntity
  8
SK2
  6
Continuous
 62
     7
100
AcDbBlockBegin
  2
*D1
 70
     1
 10
0.0
 20
0.0
 30
0.0
  3
*D1
  1

  0
LINE
  5
641
330
20A
100
AcDbEntity
  8
SK2
370
    -2
100
AcDbLine
 10
0.375
 20
-175.0
 30
0.0
 11
-31.62500000000004
 21
-175.0
 31
0.0
  0
LINE
  5
642
330
20A
100
AcDbEntity
  8
SK2
370
    -2
100
AcDbLine
 10
0.375
 20
175.0
 30
0.0
 11
-31.62499999999996
 21
175.0
 31
0.0
  0
LINE
  5
643
330
20A
100
AcDbEntity
  8
SK2
370
    -2
100
AcDbLine
 10
-29.62500000000004
 20
-171.5
 30
0.0
 11
-29.62499999999996
 21
171.5
 31
0.0
  0
SOLID
  5
644
330
20A
100
AcDbEntity
  8
SK2
100
AcDbTrace
 10
-30.20833333333337
 20
-171.5
 30
0.0
 11
-29.04166666666671
 21
-171.5
 31
0.0
 12
-29.62500000000004
 22
-175.0
 32
0.0
 13
-29.62500000000004
 23
-175.0
 33
0.0
  0
SOLID
  5
645
330
20A
100
AcDbEntity
  8
SK2
100
AcDbTrace
 10
-30.20833333333329
 20
171.5
 30
0.0
 11
-29.04166666666663
 21
171.5
 31
0.0
 12
-29.62499999999996
 22
175.0
 32
0.0
 13
-29.62499999999996
 23
175.0
 33
0.0
  0
MTEXT
  5
646
330
20A
100
AcDbEntity
  8
SK2
100
AcDbMText
 10
-32.0
 20
-0.0000000001000441
 30
0.0
 40
3.5
 41
0.0
 71
     5
 72
     1
  1
%%c350
 11
0.0000000000000001
 21
1.0
 31
0.0
 73
     1
 44
1.0
1001
ACAD
1000
MTEXTBEGIN
1070
    73
1070
     1
1070
    44
1040
1.0
1070
    74
1070
     0
1000
MTEXTEND
  0
POINT
  5
647
330
20A
100
AcDbEntity
  8
Defpoints
 62
     0
100
AcDbPoint
 10
1.0
 20
-175.0
 30
0.0
  0
POINT
  5
648
330
20A
100
AcDbEntity
  8
Defpoints
 62
     0
100
AcDbPoint
 10
1.0
 20
175.0
 30
0.0
  0
POINT
  5
649
330
20A
100
AcDbEntity
  8
Defpoints
 62
     0
100
AcDbPoint
 10
-29.62499999999996
 20
175.0
 30
0.0
  0
ENDBLK
  5
21E
330
20A
100
AcDbEntity
  8
0
  6
ByBlock
 62
     0
100
AcDbBlockEnd
  0
BLOCK
  5
21F
330
20B
100
AcDbEntity
  8
2
  6
Continuous
 62
     7
100
AcDbBlockBegin
  2
*D2
 70
     1
 10
0.0
 20
0.0
 30
0.0
  3
*D2
  1

  0
LINE
  5
64A
330
20B
100
AcDbEntity
  8
2
370
    -2
100
AcDbLine
 10
0.0
 20
141.6249999999999
 30
0.0
 11
0.000000000000003
 21
189.625
 31
0.0
  0
LINE
  5
64B
330
20B
100
AcDbEntity
  8
2
370
    -2
100
AcDbLine
 10
42.00000000000002
 20
176.6249999999999
 30
0.0
 11
42.00000000000002
 21
189.625
 31
0.0
  0
LINE
  5
64C
330
20B
100
AcDbEntity
  8
2
370
    -2
100
AcDbLine
 10
3.500000000000002
 20
187.6249999999999
 30
0.0
 11
38.50000000000003
 21
187.6249999999999
 31
0.0
  0
SOLID
  5
64D
330
20B
100
AcDbEntity
  8
2
100
AcDbTrace
 10
3.500000000000002
 20
188.2083333333333
 30
0.0
 11
3.500000000000002
 21
187.0416666666666
 31
0.0
 12
0.0000000000000029
 22
187.6249999999999
 32
0.0
 13
0.0000000000000029
 23
187.6249999999999
 33
0.0
  0
SOLID
  5
64E
330
20B
100
AcDbEntity
  8
2
100
AcDbTrace
 10
38.50000000000003
 20
188.2083333333333
 30
0.0
 11
38.50000000000003
 21
187.0416666666666
 31
0.0
 12
42.00000000000002
 22
187.6249999999999
 32
0.0
 13
42.00000000000002
 23
187.6249999999999
 33
0.0
  0
MTEXT
  5
64F
330
20B
100
AcDbEntity
  8
2
100
AcDbMText
 10
21.00000000000003
 20
190.0003444881889
 30
0.0
 40
3.5
 41
0.0
 71
     5
 72
     1
  1
42
 73
     1
 44
1.0
1001
ACAD
1000
MTEXTBEGIN
1070
    73
1070
     1
1070
    44
1040
1.0
1070
    74
1070
     0
1000
MTEXTEND
  0
POINT
  5
650
330
20B
100
AcDbEntity
  8
Defpoints
 62
     0
100
AcDbPoint
 10
0.0
 20
140.9999999999999
 30
0.0
  0
POINT
  5
651
330
20B
100
AcDbEntity
  8
Defpoints
 62
     0
100
AcDbPoint
 10
42.00000000000002
 20
175.9999999999999
 30
0.0
  0
POINT
  5
652
330
20B
100
AcDbEntity
  8
Defpoints
 62
     0
100
AcDbPoint
 10
42.00000000000002
 20
187.6249999999999
 30
0.0
  0
ENDBLK
  5
227
330
20B
100
AcDbEntity
  8
0
  6
ByBlock
 62
     0
100
AcDbBlockEnd
  0
BLOCK
  5
228
330
20C
100
AcDbEntity
  8
SK2
  6
Continuous
 62
     7
100
AcDbBlockBegin
  2
*D3
 70
     1
 10
0.0
 20
0.0
 30
0.0
  3
*D3
  1

  0
LINE
  5
653
330
20C
100
AcDbEntity
  8
SK2
370
    -2
100
AcDbLine
 10
71.62500000000003
 20
-108.0
 30
0.0
 11
104.875354541
 21
-108.0
 31
0.0
  0
LINE
  5
654
330
20C
100
AcDbEntity
  8
SK2
370
    -2
100
AcDbLine
 10
71.62500000000003
 20
108.0
 30
0.0
 11
104.875354541
 21
107.9999999999999
 31
0.0
  0
LINE
  5
655
330
20C
100
AcDbEntity
  8
SK2
370
    -2
100
AcDbLine
 10
102.875354541
 20
-104.5
 30
0.0
 11
102.875354541
 21
104.4999999999999
 31
0.0
  0
SOLID
  5
656
330
20C
100
AcDbEntity
  8
SK2
100
AcDbTrace
 10
102.2920212076666
 20
-104.5
 30
0.0
 11
103.4586878743333
 21
-104.5
 31
0.0
 12
102.875354541
 22
-108.0
 32
0.0
 13
102.875354541
 23
-108.0
 33
0.0
  0
SOLID
  5
657
330
20C
100
AcDbEntity
  8
SK2
100
AcDbTrace
 10
102.2920212076667
 20
104.4999999999999
 30
0.0
 11
103.4586878743333
 21
104.4999999999999
 31
0.0
 12
102.875354541
 22
107.9999999999999
 32
0.0
 13
102.875354541
 23
107.9999999999999
 33
0.0
  0
MTEXT
  5
658
330
20C
100
AcDbEntity
  8
SK2
100
AcDbMText
 10
100.500010052811
 20
-0.0000000001000441
 30
0.0
 40
3.5
 41
0.0
 71
     5
 72
     1
  1
%%c216
 11
0.0000000000000001
 21
1.0
 31
0.0
 73
     1
 44
1.0
1001
ACAD
1000
MTEXTBEGIN
1070
    73
1070
     1
1070
    44
1040
1.0
1070
    74
1070
     0
1000
MTEXTEND
  0
POINT
  5
659
330
20C
100
AcDbEntity
  8
Defpoints
 62
     0
100
AcDbPoint
 10
71.00000000000003
 20
-108.0
 30
0.0
  0
POINT
  5
65A
330
20C
100
AcDbEntity
  8
Defpoints
 62
     0
100
AcDbPoint
 10
71.00000000000003
 20
108.0
 30
0.0
  0
POINT
  5
65B
330
20C
100
AcDbEntity
  8
Defpoints
 62
     0
100
AcDbPoint
 10
102.875354541
 20
107.9999999999999
 30
0.0
  0
ENDBLK
  5
231
330
20C
100
AcDbEntity
  8
0
  6
ByBlock
 62
     0
100
AcDbBlockEnd
  0
BLOCK
  5
232
330
20D
100
AcDbEntity
  8
SK2
  6
Continuous
 62
     7
100
AcDbBlockBegin
  2
*D4
 70
     1
 10
0.0
 20
0.0
 30
0.0
  3
*D4
  1

  0
LINE
  5
65C
330
20D
100
AcDbEntity
  8
SK2
370
    -2
100
AcDbLine
 10
70.00000000000003
 20
109.4817181925999
 30
0.0
 11
70.00000000000003
 21
198.125
 31
0.0
  0
LINE
  5
65D
330
20D
100
AcDbEntity
  8
SK2
370
    -2
100
AcDbLine
 10
0.0
 20
141.4817181925999
 30
0.0
 11
0.0000000000000035
 21
198.125
 31
0.0
  0
LINE
  5
65E
330
20D
100
AcDbEntity
  8
SK2
370
    -2
100
AcDbLine
 10
66.50000000000003
 20
196.1249999999999
 30
0.0
 11
3.500000000000003
 21
196.1249999999999
 31
0.0
  0
SOLID
  5
65F
330
20D
100
AcDbEntity
  8
SK2
100
AcDbTrace
 10
66.50000000000003
 20
196.7083333333333
 30
0.0
 11
66.50000000000003
 21
195.5416666666666
 31
0.0
 12
70.00000000000003
 22
196.1249999999999
 32
0.0
 13
70.00000000000003
 23
196.1249999999999
 33
0.0
  0
SOLID
  5
660
330
20D
100
AcDbEntity
  8
SK2
100
AcDbTrace
 10
3.500000000000003
 20
196.7083333333333
 30
0.0
 11
3.500000000000003
 21
195.5416666666666
 31
0.0
 12
0.0000000000000034
 22
196.1249999999999
 32
0.0
 13
0.0000000000000034
 23
196.1249999999999
 33
0.0
  0
MTEXT
  5
661
330
20D
100
AcDbEntity
  8
SK2
100
AcDbMText
 10
35.00000000000003
 20
198.4999999999999
 30
0.0
 40
3.5
 41
0.0
 71
     5
 72
     1
  1
70
 73
     1
 44
1.0
1001
ACAD
1000
MTEXTBEGIN
1070
    73
1070
     1
1070
    44
1040
1.0
1070
    74
1070
     0
1000
MTEXTEND
  0
POINT
  5
662
330
20D
100
AcDbEntity
  8
Defpoints
 62
     0
100
AcDbPoint
 10
70.00000000000003
 20
108.8567181925999
 30
0.0
  0
POINT
  5
663
330
20D
100
AcDbEntity
  8
Defpoints
 62
     0
100
AcDbPoint
 10
0.0
 20
140.8567181925999
 30
0.0
  0
POINT
  5
664
330
20D
100
AcDbEntity
  8
Defpoints
 62
     0
100
AcDbPoint
 10
0.0000000000000034
 20
196.1249999999999
 30
0.0
  0
ENDBLK
  5
23A
330
20D
100
AcDbEntity
  8
0
  6
ByBlock
 62
     0
100
AcDbBlockEnd
  0
BLOCK
  5
23B
330
20E
100
AcDbEntity
  8
SK2
  6
Continuous
 62
     7
100
AcDbBlockBegin
  2
*D5
 70
     1
 10
0.0
 20
0.0
 30
0.0
  3
*D5
  1

  0
LINE
  5
665
330
20E
100
AcDbEntity
  8
SK2
370
    -2
100
AcDbLine
 10
71.62500000000003
 20
-31.5
 30
0.0
 11
79.375354541
 21
-31.5
 31
0.0
  0
LINE
  5
666
330
20E
100
AcDbEntity
  8
SK2
370
    -2
100
AcDbLine
 10
71.62500000000003
 20
31.5
 30
0.0
 11
79.375354541
 21
31.5
 31
0.0
  0
LINE
  5
667
330
20E
100
AcDbEntity
  8
SK2
370
    -2
100
AcDbLine
 10
77.37535454100001
 20
-28.00000000000001
 30
0.0
 11
77.37535454100001
 21
28.0
 31
0.0
  0
SOLID
  5
668
330
20E
100
AcDbEntity
  8
SK2
100
AcDbTrace
 10
76.79202120766667
 20
-28.00000000000001
 30
0.0
 11
77.95868787433334
 21
-28.00000000000001
 31
0.0
 12
77.37535454100001
 22
-31.5
 32
0.0
 13
77.37535454100001
 23
-31.5
 33
0.0
  0
SOLID
  5
669
330
20E
100
AcDbEntity
  8
SK2
100
AcDbTrace
 10
76.79202120766667
 20
28.0
 30
0.0
 11
77.95868787433334
 21
28.0
 31
0.0
 12
77.37535454100001
 22
31.5
 32
0.0
 13
77.37535454100001
 23
31.5
 33
0.0
  0
MTEXT
  5
66A
330
20E
100
AcDbEntity
  8
SK2
100
AcDbMText
 10
75.000354541
 20
-0.0000000001000441
 30
0.0
 40
3.5
 41
0.0
 71
     5
 72
     1
  1
%%c63
 11
0.0000000000000001
 21
1.0
 31
0.0
 73
     1
 44
1.0
1001
ACAD
1000
MTEXTBEGIN
1070
    73
1070
     1
1070
    44
1040
1.0
1070
    74
1070
     0
1000
MTEXTEND
  0
POINT
  5
66B
330
20E
100
AcDbEntity
  8
Defpoints
 62
     0
100
AcDbPoint
 10
71.00000000000003
 20
-31.5
 30
0.0
  0
POINT
  5
66C
330
20E
100
AcDbEntity
  8
Defpoints
 62
     0
100
AcDbPoint
 10
71.00000000000003
 20
31.5
 30
0.0
  0
POINT
  5
66D
330
20E
100
AcDbEntity
  8
Defpoints
 62
     0
100
AcDbPoint
 10
77.37535454100001
 20
31.5
 30
0.0
  0
ENDBLK
  5
244
330
20E
100
AcDbEntity
  8
0
  6
ByBlock
 62
     0
100
AcDbBlockEnd
  0
BLOCK
  5
245
330
20F
100
AcDbEntity
  8
SK2
  6
Continuous
 62
     7
100
AcDbBlockBegin
  2
*D6
 70
     1
 10
0.0
 20
0.0
 30
0.0
  3
*D6
  1

  0
LINE
  5
66E
330
20F
100
AcDbEntity
  8
SK2
370
    -2
100
AcDbLine
 10
-1.625
 20
-30.0
 30
0.0
 11
-14.62500000000001
 21
-30.0
 31
0.0
  0
LINE
  5
66F
330
20F
100
AcDbEntity
  8
SK2
370
    -2
100
AcDbLine
 10
-1.625
 20
30.0
 30
0.0
 11
-14.62499999999999
 21
30.0
 31
0.0
  0
LINE
  5
670
330
20F
100
AcDbEntity
  8
SK2
370
    -2
100
AcDbLine
 10
-12.625
 20
-26.5
 30
0.0
 11
-12.62499999999999
 21
26.5
 31
0.0
  0
SOLID
  5
671
330
20F
100
AcDbEntity
  8
SK2
100
AcDbTrace
 10
-13.20833333333334
 20
-26.5
 30
0.0
 11
-12.04166666666667
 21
-26.5
 31
0.0
 12
-12.62500000000001
 22
-30.0
 32
0.0
 13
-12.62500000000001
 23
-30.0
 33
0.0
  0
SOLID
  5
672
330
20F
100
AcDbEntity
  8
SK2
100
AcDbTrace
 10
-13.20833333333333
 20
26.5
 30
0.0
 11
-12.04166666666666
 21
26.5
 31
0.0
 12
-12.62499999999999
 22
30.0
 32
0.0
 13
-12.62499999999999
 23
30.0
 33
0.0
  0
MTEXT
  5
673
330
20F
100
AcDbEntity
  8
SK2
100
AcDbMText
 10
-15.0
 20
-0.0000000001000441
 30
0.0
 40
3.5
 41
0.0
 71
     5
 72
     1
  1
%%c60
 11
0.0000000000000001
 21
1.0
 31
0.0
 73
     1
 44
1.0
1001
ACAD
1000
MTEXTBEGIN
1070
    73
1070
     1
1070
    44
1040
1.0
1070
    74
1070
     0
1000
MTEXTEND
  0
POINT
  5
674
330
20F
100
AcDbEntity
  8
Defpoints
 62
     0
100
AcDbPoint
 10
-1.0
 20
-30.0
 30
0.0
  0
POINT
  5
675
330
20F
100
AcDbEntity
  8
Defpoints
 62
     0
100
AcDbPoint
 10
-1.0
 20
30.0
 30
0.0
  0
POINT
  5
676
330
20F
100
AcDbEntity
  8
Defpoints
 62
     0
100
AcDbPoint
 10
-12.62499999999999
 20
30.0
 30
0.0
  0
ENDBLK
  5
24E
330
20F
100
AcDbEntity
  8
0
  6
ByBlock
 62
     0
100
AcDbBlockEnd
  0
BLOCK
  5
24F
330
210
100
AcDbEntity
  8
SK2
  6
Continuous
 62
     7
100
AcDbBlockBegin
  2
*D7
 70
     1
 10
0.0
 20
0.0
 30
0.0
  3
*D7
  1

  0
LINE
  5
677
330
210
100
AcDbEntity
  8
SK2
370
    -2
100
AcDbLine
 10
71.62500000000003
 20
-35.92102448430003
 30
0.0
 11
87.875354541
 21
-35.92102448430004
 31
0.0
  0
LINE
  5
678
330
210
100
AcDbEntity
  8
SK2
370
    -2
100
AcDbLine
 10
71.62500000000003
 20
35.92102448419996
 30
0.0
 11
87.87535454100002
 21
35.92102448419995
 31
0.0
  0
LINE
  5
679
330
210
100
AcDbEntity
  8
SK2
370
    -2
100
AcDbLine
 10
85.87535454099999
 20
-32.42102448430004
 30
0.0
 11
85.87535454100002
 21
32.42102448419995
 31
0.0
  0
SOLID
  5
67A
330
210
100
AcDbEntity
  8
SK2
100
AcDbTrace
 10
85.29202120766667
 20
-32.42102448430004
 30
0.0
 11
86.45868787433332
 21
-32.42102448430004
 31
0.0
 12
85.87535454099999
 22
-35.92102448430004
 32
0.0
 13
85.87535454099999
 23
-35.92102448430004
 33
0.0
  0
SOLID
  5
67B
330
210
100
AcDbEntity
  8
SK2
100
AcDbTrace
 10
85.29202120766669
 20
32.42102448419995
 30
0.0
 11
86.45868787433334
 21
32.42102448419995
 31
0.0
 12
85.87535454100002
 22
35.92102448419995
 32
0.0
 13
85.87535454100002
 23
35.92102448419995
 33
0.0
  0
MTEXT
  5
67C
330
210
100
AcDbEntity
  8
SK2
100
AcDbMText
 10
83.500354541
 20
-0.0000000001000441
 30
0.0
 40
3.5
 41
0.0
 71
     5
 72
     1
  1
Lk-%%c101.6
 11
0.0000000000000001
 21
1.0
 31
0.0
 73
     1
 44
1.0
1001
ACAD
1000
MTEXTBEGIN
1070
    73
1070
     1
1070
    44
1040
1.0
1070
    74
1070
     0
1000
MTEXTEND
  0
POINT
  5
67D
330
210
100
AcDbEntity
  8
Defpoints
 62
     0
100
AcDbPoint
 10
71.00000000000003
 20
-35.92102448430003
 30
0.0
  0
POINT
  5
67E
330
210
100
AcDbEntity
  8
Defpoints
 62
     0
100
AcDbPoint
 10
71.00000000000003
 20
35.92102448419996
 30
0.0
  0
POINT
  5
67F
330
210
100
AcDbEntity
  8
Defpoints
 62
     0
100
AcDbPoint
 10
85.87535454100002
 20
35.92102448419995
 30
0.0
  0
ENDBLK
  5
258
330
210
100
AcDbEntity
  8
0
  6
ByBlock
 62
     0
100
AcDbBlockEnd
  0
BLOCK
  5
259
330
211
100
AcDbEntity
  8
SK2
  6
Continuous
 62
     7
100
AcDbBlockBegin
  2
*D8
 70
     1
 10
0.0
 20
0.0
 30
0.0
  3
*D8
  1

  0
LINE
  5
680
330
211
100
AcDbEntity
  8
SK2
370
    -2
100
AcDbLine
 10
71.62500000000003
 20
-62.86179284750002
 30
0.0
 11
96.375354541
 21
-62.86179284750003
 31
0.0
  0
LINE
  5
681
330
211
100
AcDbEntity
  8
SK2
370
    -2
100
AcDbLine
 10
71.62500000000003
 20
62.86179284749997
 30
0.0
 11
96.37535454100003
 21
62.86179284749996
 31
0.0
  0
LINE
  5
682
330
211
100
AcDbEntity
  8
SK2
370
    -2
100
AcDbLine
 10
94.37535454099998
 20
-59.36179284750004
 30
0.0
 11
94.37535454100002
 21
59.36179284749997
 31
0.0
  0
SOLID
  5
683
330
211
100
AcDbEntity
  8
SK2
100
AcDbTrace
 10
93.79202120766667
 20
-59.36179284750004
 30
0.0
 11
94.95868787433332
 21
-59.36179284750004
 31
0.0
 12
94.37535454099998
 22
-62.86179284750003
 32
0.0
 13
94.37535454099998
 23
-62.86179284750003
 33
0.0
  0
SOLID
  5
684
330
211
100
AcDbEntity
  8
SK2
100
AcDbTrace
 10
93.79202120766668
 20
59.36179284749997
 30
0.0
 11
94.95868787433336
 21
59.36179284749997
 31
0.0
 12
94.37535454100002
 22
62.86179284749996
 32
0.0
 13
94.37535454100002
 23
62.86179284749996
 33
0.0
  0
MTEXT
  5
685
330
211
100
AcDbEntity
  8
SK2
100
AcDbMText
 10
92.00035454100001
 20
-0.0000000001000441
 30
0.0
 40
3.5
 41
0.0
 71
     5
 72
     1
  1
Lk-%%c177.8
 11
0.0000000000000001
 21
1.0
 31
0.0
 73
     1
 44
1.0
1001
ACAD
1000
MTEXTBEGIN
1070
    73
1070
     1
1070
    44
1040
1.0
1070
    74
1070
     0
1000
MTEXTEND
  0
POINT
  5
686
330
211
100
AcDbEntity
  8
Defpoints
 62
     0
100
AcDbPoint
 10
71.00000000000003
 20
-62.86179284750002
 30
0.0
  0
POINT
  5
687
330
211
100
AcDbEntity
  8
Defpoints
 62
     0
100
AcDbPoint
 10
71.00000000000003
 20
62.86179284749997
 30
0.0
  0
POINT
  5
688
330
211
100
AcDbEntity
  8
Defpoints
 62
     0
100
AcDbPoint
 10
94.37535454100002
 20
62.86179284749996
 30
0.0
  0
ENDBLK
  5
262
330
211
100
AcDbEntity
  8
0
  6
ByBlock
 62
     0
100
AcDbBlockEnd
  0
BLOCK
  5
263
330
212
100
AcDbEntity
  8
SK2
  6
Continuous
 62
     7
100
AcDbBlockBegin
  2
*D9
 70
     1
 10
0.0
 20
0.0
 30
0.0
  3
*D9
  1

  0
LINE
  5
689
330
212
100
AcDbEntity
  8
SK2
370
    -2
100
AcDbLine
 10
-1.625
 20
-140.0
 30
0.0
 11
-23.12500000000003
 21
-140.0
 31
0.0
  0
LINE
  5
68A
330
212
100
AcDbEntity
  8
SK2
370
    -2
100
AcDbLine
 10
-1.625
 20
139.9999999999999
 30
0.0
 11
-23.12499999999997
 21
139.9999999999999
 31
0.0
  0
LINE
  5
68B
330
212
100
AcDbEntity
  8
SK2
370
    -2
100
AcDbLine
 10
-21.12500000000003
 20
-136.5
 30
0.0
 11
-21.12499999999997
 21
136.4999999999999
 31
0.0
  0
SOLID
  5
68C
330
212
100
AcDbEntity
  8
SK2
100
AcDbTrace
 10
-21.70833333333336
 20
-136.5
 30
0.0
 11
-20.5416666666667
 21
-136.5
 31
0.0
 12
-21.12500000000003
 22
-140.0
 32
0.0
 13
-21.12500000000003
 23
-140.0
 33
0.0
  0
SOLID
  5
68D
330
212
100
AcDbEntity
  8
SK2
100
AcDbTrace
 10
-21.7083333333333
 20
136.4999999999999
 30
0.0
 11
-20.54166666666664
 21
136.4999999999999
 31
0.0
 12
-21.12499999999997
 22
139.9999999999999
 32
0.0
 13
-21.12499999999997
 23
139.9999999999999
 33
0.0
  0
MTEXT
  5
68E
330
212
100
AcDbEntity
  8
SK2
100
AcDbMText
 10
-23.50034448818898
 20
-0.0000000001000441
 30
0.0
 40
3.5
 41
0.0
 71
     5
 72
     1
  1
%%c280
 11
0.0000000000000001
 21
1.0
 31
0.0
 73
     1
 44
1.0
1001
ACAD
1000
MTEXTBEGIN
1070
    73
1070
     1
1070
    44
1040
1.0
1070
    74
1070
     0
1000
MTEXTEND
  0
POINT
  5
68F
330
212
100
AcDbEntity
  8
Defpoints
 62
     0
100
AcDbPoint
 10
-1.0
 20
-140.0
 30
0.0
  0
POINT
  5
690
330
212
100
AcDbEntity
  8
Defpoints
 62
     0
100
AcDbPoint
 10
-1.0
 20
139.9999999999999
 30
0.0
  0
POINT
  5
691
330
212
100
AcDbEntity
  8
Defpoints
 62
     0
100
AcDbPoint
 10
-21.12499999999997
 20
139.9999999999999
 30
0.0
  0
ENDBLK
  5
26C
330
212
100
AcDbEntity
  8
0
  6
ByBlock
 62
     0
100
AcDbBlockEnd
  0
BLOCK
  5
26D
330
213
100
AcDbEntity
  8
1
  6
Continuous
 62
     3
100
AcDbBlockBegin
  2
NULLPUNKT_BL0
 70
     0
 10
252.4647454406
 20
203.6432818074
 30
0.0
  3
NULLPUNKT_BL0
  1

  0
LINE
  5
26E
330
213
100
AcDbEntity
  8
1
  6
Continuous
 62
     4
100
AcDbLine
 10
252.4647454406
 20
203.6432818074
 30
0.0
 11
253.9647424406
 21
203.6432818074
 31
0.0
  0
ARC
  5
26F
330
213
100
AcDbEntity
  8
1
  6
Continuous
 62
     4
100
AcDbCircle
 10
252.4647454406
 20
203.6432818074
 30
0.0
 40
1.499997
100
AcDbArc
 50
180.0
 51
270.0
  0
LINE
  5
270
330
213
100
AcDbEntity
  8
1
  6
Continuous
 62
     4
100
AcDbLine
 10
252.4647454406
 20
203.6432818074
 30
0.0
 11
252.4647454406
 21
202.1432848074
 31
0.0
  0
ARC
  5
271
330
213
100
AcDbEntity
  8
1
  6
Continuous
 62
     4
100
AcDbCircle
 10
252.4647454406
 20
203.6432818074
 30
0.0
 40
1.499997
100
AcDbArc
 50
270.0
 51
360.0
  0
ARC
  5
272
330
213
100
AcDbEntity
  8
1
  6
Continuous
 62
     4
100
AcDbCircle
 10
252.4647454406
 20
203.6432818074
 30
0.0
 40
1.499997
100
AcDbArc
 50
0.0
 51
90.0
  0
ARC
  5
273
330
213
100
AcDbEntity
  8
1
  6
Continuous
 62
     4
100
AcDbCircle
 10
252.4647454406
 20
203.6432818074
 30
0.0
 40
1.499997
100
AcDbArc
 50
90.0
 51
180.0
  0
LINE
  5
274
330
213
100
AcDbEntity
  8
1
  6
Continuous
 62
     4
100
AcDbLine
 10
252.4647454406
 20
205.1432788074
 30
0.0
 11
252.4647454406
 21
203.6432818074
 31
0.0
  0
LINE
  5
275
330
213
100
AcDbEntity
  8
1
  6
Continuous
 62
     4
100
AcDbLine
 10
250.9647484406
 20
203.6432818074
 30
0.0
 11
252.4647454406
 21
203.6432818074
 31
0.0
  0
LWPOLYLINE
  5
276
330
213
100
AcDbEntity
  8
1
  6
Continuous
 62
     4
100
AcDbPolyline
 90
       18
 70
     0
 43
0.0
 10
252.4647454406
 20
203.6432818074
 10
250.9647484406
 20
203.6432818074
 10
250.9729655811
 20
203.8000741887
 10
250.9975269739
 20
203.9551487199
 10
251.0381635193
 20
204.1068063719
 10
251.0944299948
 20
204.2533855518
 10
251.165709933
 20
204.3932803074
 10
251.2512223761
 20
204.5249579225
 10
251.3500304318
 20
204.6469757095
 10
251.4610515385
 20
204.7579968162
 10
251.5830693255
 20
204.8568048719
 10
251.7147469406
 20
204.942317315
 10
251.8546416962
 20
205.0135972532
 10
252.0012208761
 20
205.0698637287
 10
252.1528785281
 20
205.1105002741
 10
252.3079530593
 20
205.1350616669
 10
252.4647454406
 20
205.1432788074
 10
252.4647454406
 20
203.6432818074
  0
HATCH
  5
277
330
213
100
AcDbEntity
  8
1
  6
Continuous
 62
     4
100
AcDbHatch
 10
0.0
 20
0.0
 30
0.0
210
0.0
220
0.0
230
1.0
  2
SOLID
 70
     1
 71
     1
 91
        1
 92
        1
 93
       17
 72
     1
 10
252.4647454406
 20
203.6432818074
 11
250.9647484406
 21
203.6432818074
 72
     1
 10
250.9647484406
 20
203.6432818074
 11
250.9729655811
 21
203.8000741887
 72
     1
 10
250.9729655811
 20
203.8000741887
 11
250.9975269739
 21
203.9551487199
 72
     1
 10
250.9975269739
 20
203.9551487199
 11
251.0381635193
 21
204.1068063719
 72
     1
 10
251.0381635193
 20
204.1068063719
 11
251.0944299948
 21
204.2533855518
 72
     1
 10
251.0944299948
 20
204.2533855518
 11
251.165709933
 21
204.3932803074
 72
     1
 10
251.165709933
 20
204.3932803074
 11
251.2512223761
 21
204.5249579225
 72
     1
 10
251.2512223761
 20
204.5249579225
 11
251.3500304318
 21
204.6469757095
 72
     1
 10
251.3500304318
 20
204.6469757095
 11
251.4610515385
 21
204.7579968162
 72
     1
 10
251.4610515385
 20
204.7579968162
 11
251.5830693255
 21
204.8568048719
 72
     1
 10
251.5830693255
 20
204.8568048719
 11
251.7147469406
 21
204.942317315
 72
     1
 10
251.7147469406
 20
204.942317315
 11
251.8546416962
 21
205.0135972532
 72
     1
 10
251.8546416962
 20
205.0135972532
 11
252.0012208761
 21
205.0698637287
 72
     1
 10
252.0012208761
 20
205.0698637287
 11
252.1528785281
 21
205.1105002741
 72
     1
 10
252.1528785281
 20
205.1105002741
 11
252.3079530593
 21
205.1350616669
 72
     1
 10
252.3079530593
 20
205.1350616669
 11
252.4647454406
 21
205.1432788074
 72
     1
 10
252.4647454406
 20
205.1432788074
 11
252.4647454406
 21
203.6432818074
 97
        1
330
276
 75
     0
 76
     1
 98
        1
 10
0.0
 20
0.0
  0
LWPOLYLINE
  5
278
330
213
100
AcDbEntity
  8
1
  6
Continuous
 62
     4
100
AcDbPolyline
 90
       18
 70
     0
 43
0.0
 10
252.4647454406
 20
203.6432818074
 10
253.9647424406
 20
203.6432818074
 10
253.9565253001
 20
203.4864894261
 10
253.9319639073
 20
203.3314148949
 10
253.8913273619
 20
203.1797572429
 10
253.8350608864
 20
203.033178063
 10
253.7637809482
 20
202.8932833074
 10
253.6782685051
 20
202.7616056923
 10
253.5794604494
 20
202.6395879053
 10
253.4684393427
 20
202.5285667986
 10
253.3464215557
 20
202.4297587429
 10
253.2147439406
 20
202.3442462998
 10
253.074849185
 20
202.2729663616
 10
252.9282700051
 20
202.2166998861
 10
252.7766123531
 20
202.1760633407
 10
252.6215378219
 20
202.1515019479
 10
252.4647454406
 20
202.1432848074
 10
252.4647454406
 20
203.6432818074
  0
HATCH
  5
279
330
213
100
AcDbEntity
  8
1
  6
Continuous
 62
     4
100
AcDbHatch
 10
0.0
 20
0.0
 30
0.0
210
0.0
220
0.0
230
1.0
  2
SOLID
 70
     1
 71
     1
 91
        1
 92
        1
 93
       17
 72
     1
 10
252.4647454406
 20
203.6432818074
 11
253.9647424406
 21
203.6432818074
 72
     1
 10
253.9647424406
 20
203.6432818074
 11
253.9565253001
 21
203.4864894261
 72
     1
 10
253.9565253001
 20
203.4864894261
 11
253.9319639073
 21
203.3314148949
 72
     1
 10
253.9319639073
 20
203.3314148949
 11
253.8913273619
 21
203.1797572429
 72
     1
 10
253.8913273619
 20
203.1797572429
 11
253.8350608864
 21
203.033178063
 72
     1
 10
253.8350608864
 20
203.033178063
 11
253.7637809482
 21
202.8932833074
 72
     1
 10
253.7637809482
 20
202.8932833074
 11
253.6782685051
 21
202.7616056923
 72
     1
 10
253.6782685051
 20
202.7616056923
 11
253.5794604494
 21
202.6395879053
 72
     1
 10
253.5794604494
 20
202.6395879053
 11
253.4684393427
 21
202.5285667986
 72
     1
 10
253.4684393427
 20
202.5285667986
 11
253.3464215557
 21
202.4297587429
 72
     1
 10
253.3464215557
 20
202.4297587429
 11
253.2147439406
 21
202.3442462998
 72
     1
 10
253.2147439406
 20
202.3442462998
 11
253.074849185
 21
202.2729663616
 72
     1
 10
253.074849185
 20
202.2729663616
 11
252.9282700051
 21
202.2166998861
 72
     1
 10
252.9282700051
 20
202.2166998861
 11
252.7766123531
 21
202.1760633407
 72
     1
 10
252.7766123531
 20
202.1760633407
 11
252.6215378219
 21
202.1515019479
 72
     1
 10
252.6215378219
 20
202.1515019479
 11
252.4647454406
 21
202.1432848074
 72
     1
 10
252.4647454406
 20
202.1432848074
 11
252.4647454406
 21
203.6432818074
 97
        1
330
278
 75
     0
 76
     1
 98
        1
 10
0.0
 20
0.0
  0
LINE
  5
27A
330
213
100
AcDbEntity
  8
1
  6
Continuous
 62
     4
100
AcDbLine
 10
252.4647454406
 20
202.1432848074
 30
0.0
 11
252.4647454406
 21
203.6432818074
 31
0.0
  0
ARC
  5
27B
330
213
100
AcDbEntity
  8
1
  6
Continuous
 62
     4
100
AcDbCircle
 10
252.4647454406
 20
203.6432818074
 30
0.0
 40
1.499997
100
AcDbArc
 50
270.0
 51
360.0
  0
LINE
  5
27C
330
213
100
AcDbEntity
  8
1
  6
Continuous
 62
     4
100
AcDbLine
 10
253.9647424406
 20
203.6432818074
 30
0.0
 11
252.4647454406
 21
203.6432818074
 31
0.0
  0
ENDBLK
  5
27D
330
213
100
AcDbEntity
  8
0
  6
ByBlock
 62
     0
100
AcDbBlockEnd
  0
BLOCK
  5
27E
330
214
100
AcDbEntity
  8
1
  6
Continuous
 62
     3
100
AcDbBlockBegin
  2
EINFUEGEPUNKT_BL1
 70
     0
 10
294.4647454406
 20
203.6432818074
 30
0.0
  3
EINFUEGEPUNKT_BL1
  1

  0
LINE
  5
27F
330
214
100
AcDbEntity
  8
1
  6
Continuous
 62
     4
100
AcDbLine
 10
294.4647454406
 20
203.6432818074
 30
0.0
 11
294.4647454406
 21
203.1432828074
 31
0.0
  0
ARC
  5
280
330
214
100
AcDbEntity
  8
1
  6
Continuous
 62
     4
100
AcDbCircle
 10
294.4647454406
 20
203.6432818074
 30
0.0
 40
0.4999990000000001
100
AcDbArc
 50
90.0
 51
180.0
  0
LINE
  5
281
330
214
100
AcDbEntity
  8
1
  6
Continuous
 62
     4
100
AcDbLine
 10
294.4647454406
 20
203.6432818074
 30
0.0
 11
293.9647464406
 21
203.6432818074
 31
0.0
  0
ARC
  5
282
330
214
100
AcDbEntity
  8
1
  6
Continuous
 62
     4
100
AcDbCircle
 10
294.4647454406
 20
203.6432818074
 30
0.0
 40
0.4999990000000001
100
AcDbArc
 50
180.0
 51
270.0
  0
ARC
  5
283
330
214
100
AcDbEntity
  8
1
  6
Continuous
 62
     4
100
AcDbCircle
 10
294.4647454406
 20
203.6432818074
 30
0.0
 40
0.4999990000000001
100
AcDbArc
 50
270.0
 51
360.0
  0
ARC
  5
284
330
214
100
AcDbEntity
  8
1
  6
Continuous
 62
     4
100
AcDbCircle
 10
294.4647454406
 20
203.6432818074
 30
0.0
 40
0.4999990000000001
100
AcDbArc
 50
0.0
 51
90.0
  0
LINE
  5
285
330
214
100
AcDbEntity
  8
1
  6
Continuous
 62
     4
100
AcDbLine
 10
294.9647444406
 20
203.6432818074
 30
0.0
 11
294.4647454406
 21
203.6432818074
 31
0.0
  0
LINE
  5
286
330
214
100
AcDbEntity
  8
1
  6
Continuous
 62
     4
100
AcDbLine
 10
294.4647454406
 20
204.1432808074
 30
0.0
 11
294.4647454406
 21
203.6432818074
 31
0.0
  0
LWPOLYLINE
  5
287
330
214
100
AcDbEntity
  8
1
  6
Continuous
 62
     4
100
AcDbPolyline
 90
       18
 70
     0
 43
0.0
 10
294.4647454406
 20
203.6432818074
 10
294.4647454406
 20
204.1432808074
 10
294.5170095677
 20
204.1405417606
 10
294.5687010781
 20
204.1323546296
 10
294.6192536288
 20
204.1188091145
 10
294.6681133554
 20
204.1000536227
 10
294.7147449406001
 20
204.0762936433
 10
294.758637479
 20
204.0477894956
 10
294.7993100746
 20
204.014853477
 10
294.8363171102
 20
203.9778464414
 10
294.8692531288
 20
203.9371738458001
 10
294.8977572765
 20
203.8932813074
 10
294.9215172559
 20
203.8466497222
 10
294.9402727477
 20
203.7977899956
 10
294.9538182628
 20
203.7472374449
 10
294.9620053938
 20
203.6955459345
 10
294.9647444406
 20
203.6432818074
 10
294.4647454406
 20
203.6432818074
  0
HATCH
  5
288
330
214
100
AcDbEntity
  8
1
  6
Continuous
 62
     4
100
AcDbHatch
 10
0.0
 20
0.0
 30
0.0
210
0.0
220
0.0
230
1.0
  2
SOLID
 70
     1
 71
     1
 91
        1
 92
        1
 93
       17
 72
     1
 10
294.4647454406
 20
203.6432818074
 11
294.4647454406
 21
204.1432808074
 72
     1
 10
294.4647454406
 20
204.1432808074
 11
294.5170095677
 21
204.1405417606
 72
     1
 10
294.5170095677
 20
204.1405417606
 11
294.5687010781
 21
204.1323546296
 72
     1
 10
294.5687010781
 20
204.1323546296
 11
294.6192536288
 21
204.1188091145
 72
     1
 10
294.6192536288
 20
204.1188091145
 11
294.6681133554
 21
204.1000536227
 72
     1
 10
294.6681133554
 20
204.1000536227
 11
294.7147449406001
 21
204.0762936433
 72
     1
 10
294.7147449406001
 20
204.0762936433
 11
294.758637479
 21
204.0477894956
 72
     1
 10
294.758637479
 20
204.0477894956
 11
294.7993100746
 21
204.014853477
 72
     1
 10
294.7993100746
 20
204.014853477
 11
294.8363171102
 21
203.9778464414
 72
     1
 10
294.8363171102
 20
203.9778464414
 11
294.8692531288
 21
203.9371738458001
 72
     1
 10
294.8692531288
 20
203.9371738458001
 11
294.8977572765
 21
203.8932813074
 72
     1
 10
294.8977572765
 20
203.8932813074
 11
294.9215172559
 21
203.8466497222
 72
     1
 10
294.9215172559
 20
203.8466497222
 11
294.9402727477
 21
203.7977899956
 72
     1
 10
294.9402727477
 20
203.7977899956
 11
294.9538182628
 21
203.7472374449
 72
     1
 10
294.9538182628
 20
203.7472374449
 11
294.9620053938
 21
203.6955459345
 72
     1
 10
294.9620053938
 20
203.6955459345
 11
294.9647444406
 21
203.6432818074
 72
     1
 10
294.9647444406
 20
203.6432818074
 11
294.4647454406
 21
203.6432818074
 97
        1
330
287
 75
     0
 76
     1
 98
        1
 10
0.0
 20
0.0
  0
LWPOLYLINE
  5
289
330
214
100
AcDbEntity
  8
1
  6
Continuous
 62
     4
100
AcDbPolyline
 90
       18
 70
     0
 43
0.0
 10
294.4647454406
 20
203.6432818074
 10
294.4647454406
 20
203.1432828074
 10
294.4124813135
 20
203.1460218542
 10
294.3607898031
 20
203.1542089852
 10
294.3102372524
 20
203.1677545003
 10
294.2613775258
 20
203.1865099921
 10
294.2147459406001
 20
203.2102699715
 10
294.1708534022
 20
203.2387741192
 10
294.1301808066
 20
203.2717101378
 10
294.093173771
 20
203.3087171734
 10
294.0602377524001
 20
203.349389769
 10
294.0317336047
 20
203.3932823074
 10
294.0079736253
 20
203.4399138926
 10
293.9892181335
 20
203.4887736192
 10
293.9756726184
 20
203.5393261699
 10
293.9674854874001
 20
203.5910176803
 10
293.9647464406
 20
203.6432818074
 10
294.4647454406
 20
203.6432818074
  0
HATCH
  5
28A
330
214
100
AcDbEntity
  8
1
  6
Continuous
 62
     4
100
AcDbHatch
 10
0.0
 20
0.0
 30
0.0
210
0.0
220
0.0
230
1.0
  2
SOLID
 70
     1
 71
     1
 91
        1
 92
        1
 93
       17
 72
     1
 10
294.4647454406
 20
203.6432818074
 11
294.4647454406
 21
203.1432828074
 72
     1
 10
294.4647454406
 20
203.1432828074
 11
294.4124813135
 21
203.1460218542
 72
     1
 10
294.4124813135
 20
203.1460218542
 11
294.3607898031
 21
203.1542089852
 72
     1
 10
294.3607898031
 20
203.1542089852
 11
294.3102372524
 21
203.1677545003
 72
     1
 10
294.3102372524
 20
203.1677545003
 11
294.2613775258
 21
203.1865099921
 72
     1
 10
294.2613775258
 20
203.1865099921
 11
294.2147459406001
 21
203.2102699715
 72
     1
 10
294.2147459406001
 20
203.2102699715
 11
294.1708534022
 21
203.2387741192
 72
     1
 10
294.1708534022
 20
203.2387741192
 11
294.1301808066
 21
203.2717101378
 72
     1
 10
294.1301808066
 20
203.2717101378
 11
294.093173771
 21
203.3087171734
 72
     1
 10
294.093173771
 20
203.3087171734
 11
294.0602377524001
 21
203.349389769
 72
     1
 10
294.0602377524001
 20
203.349389769
 11
294.0317336047
 21
203.3932823074
 72
     1
 10
294.0317336047
 20
203.3932823074
 11
294.0079736253
 21
203.4399138926
 72
     1
 10
294.0079736253
 20
203.4399138926
 11
293.9892181335
 21
203.4887736192
 72
     1
 10
293.9892181335
 20
203.4887736192
 11
293.9756726184
 21
203.5393261699
 72
     1
 10
293.9756726184
 20
203.5393261699
 11
293.9674854874001
 21
203.5910176803
 72
     1
 10
293.9674854874001
 20
203.5910176803
 11
293.9647464406
 21
203.6432818074
 72
     1
 10
293.9647464406
 20
203.6432818074
 11
294.4647454406
 21
203.6432818074
 97
        1
330
289
 75
     0
 76
     1
 98
        1
 10
0.0
 20
0.0
  0
LINE
  5
28B
330
214
100
AcDbEntity
  8
1
  6
Continuous
 62
     4
100
AcDbLine
 10
293.9647464406
 20
203.6432818074
 30
0.0
 11
294.4647454406
 21
203.6432818074
 31
0.0
  0
ARC
  5
28C
330
214
100
AcDbEntity
  8
1
  6
Continuous
 62
     4
100
AcDbCircle
 10
294.4647454406
 20
203.6432818074
 30
0.0
 40
0.4999990000000001
100
AcDbArc
 50
180.0
 51
270.0
  0
LINE
  5
28D
330
214
100
AcDbEntity
  8
1
  6
Continuous
 62
     4
100
AcDbLine
 10
294.4647454406
 20
203.1432828074
 30
0.0
 11
294.4647454406
 21
203.6432818074
 31
0.0
  0
ENDBLK
  5
28E
330
214
100
AcDbEntity
  8
0
  6
ByBlock
 62
     0
100
AcDbBlockEnd
  0
ENDSEC
  0
SECTION
  2
ENTITIES
  0
DIMENSION
  5
292
330
1B
100
AcDbEntity
  8
SK2
100
AcDbDimension
  2
*D1
 10
-29.62499999999996
 20
175.0
 30
0.0
 11
-29.625
 21
-0.0000000001000444
 31
0.0
 70
   160
  1
%%c350
 71
     5
 42
350.0
  3
ISO-25
100
AcDbAlignedDimension
 13
1.0
 23
-175.0
 33
0.0
 14
1.0
 24
175.0
 34
0.0
 50
90.0
100
AcDbRotatedDimension
  0
DIMENSION
  5
293
330
1B
100
AcDbEntity
  8
2
100
AcDbDimension
  2
*D2
 10
42.00000000000002
 20
187.6249999999999
 30
0.0
 11
21.00000000000003
 21
187.6249999999999
 31
0.0
 70
   160
  1
42
 71
     5
 42
42.00000000000002
  3
ISO-25
100
AcDbAlignedDimension
 13
0.0
 23
140.9999999999999
 33
0.0
 14
42.00000000000002
 24
175.9999999999999
 34
0.0
100
AcDbRotatedDimension
  0
DIMENSION
  5
294
330
1B
100
AcDbEntity
  8
SK2
100
AcDbDimension
  2
*D3
 10
102.875354541
 20
107.9999999999999
 30
0.0
 11
102.875354541
 21
-0.0000000001000444
 31
0.0
 70
   160
  1
%%c216
 71
     5
 42
216.0
  3
ISO-25
100
AcDbAlignedDimension
 13
71.00000000000003
 23
-108.0
 33
0.0
 14
71.00000000000003
 24
108.0
 34
0.0
 50
90.0
100
AcDbRotatedDimension
  0
DIMENSION
  5
295
330
1B
100
AcDbEntity
  8
SK2
100
AcDbDimension
  2
*D4
 10
0.0000000000000034
 20
196.1249999999999
 30
0.0
 11
35.00000000000003
 21
196.1249999999999
 31
0.0
 70
   160
  1
70
 71
     5
 42
70.00000000000003
  3
ISO-25
100
AcDbAlignedDimension
 13
70.00000000000003
 23
108.8567181925999
 33
0.0
 14
0.0
 24
140.8567181925999
 34
0.0
 50
180.0
100
AcDbRotatedDimension
  0
DIMENSION
  5
296
330
1B
100
AcDbEntity
  8
SK2
100
AcDbDimension
  2
*D5
 10
77.37535454100001
 20
31.5
 30
0.0
 11
77.37535454100001
 21
-0.0000000001000444
 31
0.0
 70
   160
  1
%%c63
 71
     5
 42
63.0
  3
ISO-25
100
AcDbAlignedDimension
 13
71.00000000000003
 23
-31.5
 33
0.0
 14
71.00000000000003
 24
31.5
 34
0.0
 50
90.0
100
AcDbRotatedDimension
  0
DIMENSION
  5
297
330
1B
100
AcDbEntity
  8
SK2
100
AcDbDimension
  2
*D6
 10
-12.62499999999999
 20
30.0
 30
0.0
 11
-12.625
 21
-0.0000000001000444
 31
0.0
 70
   160
  1
%%c60
 71
     5
 42
60.0
  3
ISO-25
100
AcDbAlignedDimension
 13
-1.0
 23
-30.0
 33
0.0
 14
-1.0
 24
30.0
 34
0.0
 50
90.0
100
AcDbRotatedDimension
  0
DIMENSION
  5
298
330
1B
100
AcDbEntity
  8
SK2
100
AcDbDimension
  2
*D7
 10
85.87535454100002
 20
35.92102448419995
 30
0.0
 11
85.87535454100001
 21
-0.0000000001000444
 31
0.0
 70
   160
  1
Lk-%%c101.6
 71
     5
 42
71.84204896849999
  3
ISO-25
100
AcDbAlignedDimension
 13
71.00000000000003
 23
-35.92102448430003
 33
0.0
 14
71.00000000000003
 24
35.92102448419996
 34
0.0
 50
90.0
100
AcDbRotatedDimension
  0
DIMENSION
  5
299
330
1B
100
AcDbEntity
  8
SK2
100
AcDbDimension
  2
*D8
 10
94.37535454100002
 20
62.86179284749996
 30
0.0
 11
94.375354541
 21
-0.0000000001000444
 31
0.0
 70
   160
  1
Lk-%%c177.8
 71
     5
 42
125.723585695
  3
ISO-25
100
AcDbAlignedDimension
 13
71.00000000000003
 23
-62.86179284750002
 33
0.0
 14
71.00000000000003
 24
62.86179284749997
 34
0.0
 50
90.0
100
AcDbRotatedDimension
  0
DIMENSION
  5
29A
330
1B
100
AcDbEntity
  8
SK2
100
AcDbDimension
  2
*D9
 10
-21.12499999999997
 20
139.9999999999999
 30
0.0
 11
-21.125
 21
-0.0000000001000444
 31
0.0
 70
   160
  1
%%c280
 71
     5
 42
280.0
  3
ISO-25
100
AcDbAlignedDimension
 13
-1.0
 23
-140.0
 33
0.0
 14
-1.0
 24
139.9999999999999
 34
0.0
 50
90.0
100
AcDbRotatedDimension
  0
TEXT
  5
29B
330
1B
100
AcDbEntity
  8
6
100
AcDbText
 10
74.48669119405735
 20
-166.1919857009995
 30
0.0
 40
5.0
  1
FBD60BAJ216LA350
 41
0.8
 72
     1
 11
97.68826599720696
 21
-166.1919857009995
 31
0.0
100
AcDbText
  0
INSERT
  5
29C
330
1B
100
AcDbEntity
  8
1
100
AcDbBlockReference
  2
NULLPUNKT_BL0
 10
0.0
 20
0.0
 30
0.0
  0
INSERT
  5
29D
330
1B
100
AcDbEntity
  8
1
100
AcDbBlockReference
  2
EINFUEGEPUNKT_BL1
 10
42.00000000000002
 20
0.0
 30
0.0
  0
LINE
  5
29E
330
1B
100
AcDbEntity
  8
1
100
AcDbLine
 10
40.4
 20
-175.0
 30
0.0
 11
3.599999999999994
 21
-175.0
 31
0.0
  0
LINE
  5
29F
330
1B
100
AcDbEntity
  8
1
100
AcDbLine
 10
0.4000000000000057
 20
-140.0
 30
0.0
 11
0.0
 21
-140.0
 31
0.0
  0
LINE
  5
2A0
330
1B
100
AcDbEntity
  8
SK1
100
AcDbLine
 10
70.00000000000003
 20
-108.0
 30
0.0
 11
42.00000000000002
 21
-108.0
 31
0.0
  0
LINE
  5
2A1
330
1B
100
AcDbEntity
  8
SK4
100
AcDbLine
 10
73.00000000000003
 20
-62.86179284750002
 30
0.0
 11
-3.0
 21
-62.86179284750002
 31
0.0
  0
LINE
  5
2A2
330
1B
100
AcDbEntity
  8
1
100
AcDbLine
 10
0.0
 20
-139.9986593041
 30
0.0
 11
0.0
 21
-12.85000000000002
 31
0.0
  0
LINE
  5
2A3
330
1B
100
AcDbEntity
  8
NOCUT
100
AcDbLine
 10
0.0
 20
0.0
 30
0.0
 11
0.0
 21
139.9986593039999
 31
0.0
  0
LINE
  5
2A4
330
1B
100
AcDbEntity
  8
1
100
AcDbLine
 10
0.0
 20
12.84999999999999
 30
0.0
 11
0.0
 21
139.9986593039999
 31
0.0
  0
LINE
  5
2A5
330
1B
100
AcDbEntity
  8
NOCUT
100
AcDbLine
 10
2.0
 20
173.3999999999999
 30
0.0
 11
2.0
 21
141.5999999999999
 31
0.0
  0
LINE
  5
2A6
330
1B
100
AcDbEntity
  8
1
100
AcDbLine
 10
2.0
 20
173.3999999999999
 30
0.0
 11
2.0
 21
-173.4
 31
0.0
  0
LINE
  5
2A7
330
1B
100
AcDbEntity
  8
SK4
100
AcDbLine
 10
73.00000000000003
 20
-35.92102448430003
 30
0.0
 11
-3.0
 21
-35.92102448430003
 31
0.0
  0
LINE
  5
2A8
330
1B
100
AcDbEntity
  8
SK3
100
AcDbLine
 10
14.00000000000003
 20
11.25
 30
0.0
 11
14.00000000000003
 21
-11.25
 31
0.0
  0
LINE
  5
2A9
330
1B
100
AcDbEntity
  8
SK3
100
AcDbLine
 10
70.00000000000003
 20
-31.5
 30
0.0
 11
37.00000000000003
 21
-31.5
 31
0.0
  0
LINE
  5
2AA
330
1B
100
AcDbEntity
  8
SK3
100
AcDbLine
 10
37.00000000000003
 20
-30.0
 30
0.0
 11
0.0
 21
-30.0
 31
0.0
  0
LINE
  5
2AB
330
1B
100
AcDbEntity
  8
SK3
100
AcDbLine
 10
12.4
 20
-12.85000000000002
 30
0.0
 11
1.747855024199992
 21
-12.85000000000002
 31
0.0
  0
LINE
  5
2AC
330
1B
100
AcDbEntity
  8
1
100
AcDbLine
 10
1.747855024199992
 20
-12.85000000000002
 30
0.0
 11
0.0
 21
-12.85000000000002
 31
0.0
  0
LINE
  5
2AD
330
1B
100
AcDbEntity
  8
SK3
100
AcDbLine
 10
37.00000000000003
 20
31.5
 30
0.0
 11
37.00000000000003
 21
-31.5
 31
0.0
  0
LINE
  5
2AE
330
1B
100
AcDbEntity
  8
NOCUT
100
AcDbLine
 10
42.00000000000002
 20
173.3999999999999
 30
0.0
 11
42.00000000000002
 21
0.0
 31
0.0
  0
LINE
  5
2AF
330
1B
100
AcDbEntity
  8
1
100
AcDbLine
 10
42.00000000000002
 20
173.3999999999999
 30
0.0
 11
42.00000000000002
 21
-173.4
 31
0.0
  0
LINE
  5
2B0
330
1B
100
AcDbEntity
  8
NOCUT
100
AcDbLine
 10
42.00000000000002
 20
0.0
 30
0.0
 11
0.0
 21
0.0
 31
0.0
  0
LINE
  5
2B1
330
1B
100
AcDbEntity
  8
4
100
AcDbLine
 10
73.00035573979997
 20
0.0
 30
0.0
 11
-3.0
 21
0.0
 31
0.0
  0
LINE
  5
2B2
330
1B
100
AcDbEntity
  8
SK3
100
AcDbLine
 10
12.4
 20
12.84999999999999
 30
0.0
 11
1.747855024199992
 21
12.84999999999999
 31
0.0
  0
LINE
  5
2B3
330
1B
100
AcDbEntity
  8
1
100
AcDbLine
 10
0.0
 20
12.84999999999999
 30
0.0
 11
1.747855024199992
 21
12.84999999999999
 31
0.0
  0
LINE
  5
2B4
330
1B
100
AcDbEntity
  8
SK1
100
AcDbLine
 10
70.00000000000003
 20
108.0
 30
0.0
 11
70.00000000000003
 21
-108.0
 31
0.0
  0
LINE
  5
2B5
330
1B
100
AcDbEntity
  8
SK3
100
AcDbLine
 10
37.00000000000003
 20
30.0
 30
0.0
 11
0.0
 21
30.0
 31
0.0
  0
LINE
  5
2B6
330
1B
100
AcDbEntity
  8
SK3
100
AcDbLine
 10
70.00000000000003
 20
31.5
 30
0.0
 11
37.00000000000003
 21
31.5
 31
0.0
  0
LINE
  5
2B7
330
1B
100
AcDbEntity
  8
SK4
100
AcDbLine
 10
73.00000000000003
 20
35.92102448419996
 30
0.0
 11
-3.0
 21
35.92102448419996
 31
0.0
  0
LINE
  5
2B8
330
1B
100
AcDbEntity
  8
SK4
100
AcDbLine
 10
73.00000000000003
 20
62.86179284749997
 30
0.0
 11
-3.0
 21
62.86179284749997
 31
0.0
  0
LINE
  5
2B9
330
1B
100
AcDbEntity
  8
SK1
100
AcDbLine
 10
70.00000000000003
 20
108.0
 30
0.0
 11
42.00000000000002
 21
108.0
 31
0.0
  0
LINE
  5
2BA
330
1B
100
AcDbEntity
  8
NOCUT
100
AcDbLine
 10
0.4000000000000057
 20
139.9999999999999
 30
0.0
 11
0.0
 21
139.9999999999999
 31
0.0
  0
LINE
  5
2BB
330
1B
100
AcDbEntity
  8
1
100
AcDbLine
 10
0.4000000000000057
 20
139.9999999999999
 30
0.0
 11
0.0
 21
139.9999999999999
 31
0.0
  0
LINE
  5
2BC
330
1B
100
AcDbEntity
  8
NOCUT
100
AcDbLine
 10
40.4
 20
175.0
 30
0.0
 11
3.599999999999994
 21
175.0
 31
0.0
  0
LINE
  5
2BD
330
1B
100
AcDbEntity
  8
1
100
AcDbLine
 10
40.4
 20
175.0
 30
0.0
 11
3.599999999999994
 21
175.0
 31
0.0
  0
ARC
  5
2BE
330
1B
100
AcDbEntity
  8
SK3
100
AcDbCircle
 10
12.4
 20
11.25
 30
0.0
 40
1.6
100
AcDbArc
 50
0.0
 51
90.0
  0
ARC
  5
2BF
330
1B
100
AcDbEntity
  8
SK3
100
AcDbCircle
 10
12.4
 20
-11.25
 30
0.0
 40
1.6
100
AcDbArc
 50
270.0
 51
0.0
  0
ARC
  5
2C0
330
1B
100
AcDbEntity
  8
NOCUT
100
AcDbCircle
 10
3.599999999999994
 20
173.3999999999999
 30
0.0
 40
1.6
100
AcDbArc
 50
90.0
 51
180.0
  0
ARC
  5
2C1
330
1B
100
AcDbEntity
  8
NOCUT
100
AcDbCircle
 10
40.4
 20
173.3999999999999
 30
0.0
 40
1.6
100
AcDbArc
 50
0.0
 51
90.0
  0
ARC
  5
2C2
330
1B
100
AcDbEntity
  8
NOCUT
100
AcDbCircle
 10
0.4000000000000057
 20
141.5999999999999
 30
0.0
 40
1.6
100
AcDbArc
 50
270.0
 51
0.0
  0
ARC
  5
2C3
330
1B
100
AcDbEntity
  8
1
100
AcDbCircle
 10
3.599999999999994
 20
-173.4
 30
0.0
 40
1.6
100
AcDbArc
 50
180.0
 51
270.0
  0
ARC
  5
2C4
330
1B
100
AcDbEntity
  8
1
100
AcDbCircle
 10
3.599999999999994
 20
173.3999999999999
 30
0.0
 40
1.6
100
AcDbArc
 50
90.0
 51
180.0
  0
ARC
  5
2C5
330
1B
100
AcDbEntity
  8
1
100
AcDbCircle
 10
40.4
 20
-173.4
 30
0.0
 40
1.6
100
AcDbArc
 50
270.0
 51
0.0
  0
ARC
  5
2C6
330
1B
100
AcDbEntity
  8
1
100
AcDbCircle
 10
40.4
 20
173.3999999999999
 30
0.0
 40
1.6
100
AcDbArc
 50
0.0
 51
90.0
  0
ARC
  5
2C7
330
1B
100
AcDbEntity
  8
1
100
AcDbCircle
 10
0.4000000000000057
 20
-141.6
 30
0.0
 40
1.6
100
AcDbArc
 50
0.0
 51
90.0
  0
ARC
  5
2C8
330
1B
100
AcDbEntity
  8
1
100
AcDbCircle
 10
0.4000000000000057
 20
141.5999999999999
 30
0.0
 40
1.6
100
AcDbArc
 50
270.0
 51
0.0
  0
SPLINE
  5
2C9
330
1B
100
AcDbEntity
  8
SK3
100
AcDbSpline
210
0.0
220
0.0
230
1.0
 70
     8
 71
     3
 72
     8
 73
     4
 74
     2
 42
0.0000000001
 43
0.0000000001
 44
0.0000000001
 12
0.9989614018426005
 22
0.04556443381264
 32
0.0
 13
0.9999598593232937
 23
0.0089598963241096
 33
0.0
 40
0.0
 40
0.0
 40
0.0
 40
0.0
 40
0.0667377484598216
 40
0.0667377484598216
 40
0.0667377484598216
 40
0.0667377484598216
 10
1.868702644800009
 20
-12.84518319280005
 30
0.0
 10
1.890925456385758
 20
-12.84416957022588
 30
0.0
 10
1.913169572012861
 20
-12.84352705080241
 30
0.0
 10
1.935414595200001
 20
-12.84332772970003
 30
0.0
 11
1.868702644800009
 21
-12.84518319280005
 31
0.0
 11
1.935414595200001
 21
-12.84332772970003
 31
0.0
  0
SPLINE
  5
2CA
330
1B
100
AcDbEntity
  8
SK3
100
AcDbSpline
210
0.0
220
0.0
230
1.0
 70
     8
 71
     3
 72
     8
 73
     4
 74
     2
 42
0.0000000001
 43
0.0000000001
 44
0.0000000001
 12
0.9999598592848089
 22
0.0089599006191419
 32
0.0
 13
0.946854966451805
 23
0.3216608034957806
 33
0.0
 40
0.0
 40
0.0
 40
0.0
 40
0.0
 40
0.0493350483279887
 40
0.0493350483279887
 40
0.0493350483279887
 40
0.0493350483279887
 10
1.935414595200001
 20
-12.84332772970003
 30
0.0
 10
1.951858951194623
 20
-12.84318038399002
 30
0.0
 10
1.968976156923503
 20
-12.84415270349527
 30
0.0
 10
1.984547202100003
 20
-12.83886298640004
 30
0.0
 11
1.935414595200001
 21
-12.84332772970003
 31
0.0
 11
1.984547202100003
 21
-12.83886298640004
 31
0.0
  0
SPLINE
  5
2CB
330
1B
100
AcDbEntity
  8
SK3
100
AcDbSpline
210
0.0
220
0.0
230
1.0
 70
     8
 71
     3
 72
     8
 73
     4
 74
     2
 42
0.0000000001
 43
0.0000000001
 44
0.0000000001
 12
0.9468549681963127
 22
0.3216607983605702
 32
0.0
 13
0.0
 23
1.0
 33
0.0
 40
0.0
 40
0.0
 40
0.0
 40
0.0
 40
0.0239060138058264
 40
0.0239060138058264
 40
0.0239060138058264
 40
0.0239060138058264
 10
1.984547202100003
 20
-12.83886298640004
 30
0.0
 10
1.992092378080599
 20
-12.83629977723791
 30
0.0
 10
2.0
 20
-12.82859135796863
 30
0.0
 10
2.0
 20
-12.82062268670003
 30
0.0
 11
1.984547202100003
 21
-12.83886298640004
 31
0.0
 11
2.0
 21
-12.82062268670003
 31
0.0
  0
SPLINE
  5
2CC
330
1B
100
AcDbEntity
  8
SK3
100
AcDbSpline
210
0.0
220
0.0
230
1.0
 70
     8
 71
     3
 72
     8
 73
     4
 74
     2
 42
0.0000000001
 43
0.0000000001
 44
0.0000000001
 12
-0.9999487503467353
 22
0.0101240644013395
 32
0.0
 13
-0.9989454829515793
 23
0.045912112678856
 33
0.0
 40
0.0
 40
0.0
 40
0.0
 40
0.0
 40
0.0667390550955759
 40
0.0667390550955759
 40
0.0667390550955759
 40
0.0667390550955759
 10
1.935414243299987
 20
12.84329014269994
 30
0.0
 10
1.913169031719263
 20
12.84351536619724
 30
0.0
 10
1.890925348541401
 20
12.84417635849408
 30
0.0
 10
1.868702455999994
 20
12.84519773549996
 30
0.0
 11
1.935414243299987
 21
12.84329014269994
 31
0.0
 11
1.868702455999994
 21
12.84519773549996
 31
0.0
  0
SPLINE
  5
2CD
330
1B
100
AcDbEntity
  8
1
100
AcDbSpline
210
0.0
220
0.0
230
1.0
 70
     8
 71
     3
 72
     9
 73
     5
 74
     3
 42
0.0000000001
 43
0.0000000001
 44
0.0000000001
 12
0.0
 22
-1.0
 32
0.0
 13
-1.0
 23
0.0
 33
0.0
 40
0.0
 40
0.0
 40
0.0
 40
0.0
 40
0.0682251141329367
 40
0.2561397155592556
 40
0.2561397155592556
 40
0.2561397155592556
 40
0.2561397155592556
 10
2.0
 20
-12.82062268670003
 30
0.0
 10
2.0
 20
-12.843364391411
 30
0.0
 10
1.869748617273216
 20
-12.84196377374516
 30
0.0
 10
1.81049322467544
 20
-12.85000000000002
 30
0.0
 10
1.747855024199992
 20
-12.85000000000002
 30
0.0
 11
2.0
 21
-12.82062268670003
 31
0.0
 11
1.935649708499994
 21
-12.84328777400003
 31
0.0
 11
1.747855024199992
 21
-12.85000000000002
 31
0.0
  0
SPLINE
  5
2CE
330
1B
100
AcDbEntity
  8
1
100
AcDbSpline
210
0.0
220
0.0
230
1.0
 70
     8
 71
     3
 72
     9
 73
     5
 74
     3
 42
0.0000000001
 43
0.0000000001
 44
0.0000000001
 12
1.0
 22
0.0
 32
0.0
 13
0.0
 23
-1.0
 33
0.0
 40
0.0
 40
0.0
 40
0.0
 40
0.0
 40
0.1875423526941359
 40
0.2561311435943867
 40
0.2561311435943867
 40
0.2561311435943867
 40
0.2561311435943867
 10
1.747855024199992
 20
12.84999999999999
 30
0.0
 10
1.810369141764709
 20
12.84999999999999
 30
0.0
 10
1.869636172329478
 20
12.84189488622658
 30
0.0
 10
2.0
 20
12.84348561690007
 30
0.0
 10
2.0
 20
12.82062268659999
 30
0.0
 11
1.747855024199992
 21
12.84999999999999
 31
0.0
 11
1.935278691799993
 21
12.84332895229997
 31
0.0
 11
2.0
 21
12.82062268659999
 31
0.0
  0
ENDSEC
  0
SECTION
  2
OBJECTS
  0
DICTIONARY
  5
2CF
330
0
100
AcDbDictionary
281
     1
  3
ACAD_COLOR
350
2D9
  3
ACAD_GROUP
350
2D0
  3
ACAD_LAYOUT
350
2DC
  3
ACAD_MATERIAL
350
2D8
  3
ACAD_MLINESTYLE
350
2D1
  3
ACAD_PLOTSETTINGS
350
2DD
  3
ACAD_PLOTSTYLENAME
350
2D6
  3
ACAD_TABLESTYLE
350
2DA
  3
ACDBHEADERROUNDTRIPXREC
350
699
  3
AcDbVariableDictionary
350
694
  0
DICTIONARY
  5
4F9
330
2
100
AcDbDictionary
280
     1
281
     1
  3
ACAD_LAYERFILTERS
360
693
  3
ACLYDICTIONARY
360
692
  0
DICTIONARY
  5
2D9
102
{ACAD_REACTORS
330
2CF
102
}
330
2CF
100
AcDbDictionary
281
     1
  0
DICTIONARY
  5
2D0
102
{ACAD_REACTORS
330
2CF
102
}
330
2CF
100
AcDbDictionary
281
     1
  0
DICTIONARY
  5
2DC
102
{ACAD_REACTORS
330
2CF
102
}
330
2CF
100
AcDbDictionary
281
     1
  3
Layout1
350
2DF
  3
Model
350
2DE
  0
DICTIONARY
  5
2D8
102
{ACAD_REACTORS
330
2CF
102
}
330
2CF
100
AcDbDictionary
281
     1
  0
DICTIONARY
  5
2D1
102
{ACAD_REACTORS
330
2CF
102
}
330
2CF
100
AcDbDictionary
281
     1
  3
STANDARD
350
2D2
  0
DICTIONARY
  5
2DD
102
{ACAD_REACTORS
330
2CF
102
}
330
2CF
100
AcDbDictionary
281
     1
  0
ACDBDICTIONARYWDFLT
  5
2D6
102
{ACAD_REACTORS
330
2CF
102
}
330
2CF
100
AcDbDictionary
281
     1
  3
Normal
350
2D7
100
AcDbDictionaryWithDefault
340
2D7
  0
DICTIONARY
  5
2DA
102
{ACAD_REACTORS
330
2CF
102
}
330
2CF
100
AcDbDictionary
281
     1
  3
Standard
350
2DB
  0
DICTIONARY
  5
699
102
{ACAD_REACTORS
330
2CF
102
}
330
2CF
100
AcDbDictionary
281
     1
  0
DICTIONARY
  5
694
102
{ACAD_REACTORS
330
2CF
102
}
330
2CF
100
AcDbDictionary
281
     1
  3
CTABLESTYLE
350
695
  3
DIMASSOC
350
696
  3
PROJECTNAME
350
697
  0
DICTIONARY
  5
693
102
{ACAD_REACTORS
330
4F9
102
}
330
4F9
100
AcDbDictionary
281
     1
  0
DICTIONARY
  5
692
102
{ACAD_REACTORS
330
4F9
102
}
330
4F9
100
AcDbDictionary
281
     1
1001
ACAD
1000
<All
  0
LAYOUT
  5
2DF
102
{ACAD_XDICTIONARY
360
69C
102
}
102
{ACAD_REACTORS
330
2DC
102
}
330
2DC
100
AcDbPlotSettings
  1

  2
\\ingdom02\ITB3
  4

  6

 40
0.0
 41
0.0
 42
0.0
 43
0.0
 44
0.0
 45
0.0
 46
0.0
 47
0.0
 48
0.0
 49
0.0
140
0.0
141
0.0
142
1.0
143
1.0
 70
   688
 72
     0
 73
     0
 74
     5
  7

 75
    16
147
1.0
148
0.0
149
0.0
100
AcDbLayout
  1
Layout1
 70
     1
 71
     1
 10
0.0
 20
0.0
 11
12.0
 21
9.0
 12
0.0
 22
0.0
 32
0.0
 14
1.000000000000000E+20
 24
1.000000000000000E+20
 34
1.000000000000000E+20
 15
-1.000000000000000E+20
 25
-1.000000000000000E+20
 35
-1.000000000000000E+20
146
0.0
 13
0.0
 23
0.0
 33
0.0
 16
1.0
 26
0.0
 36
0.0
 17
0.0
 27
1.0
 37
0.0
 76
     0
330
1C
  0
LAYOUT
  5
2DE
102
{ACAD_XDICTIONARY
360
69A
102
}
102
{ACAD_REACTORS
330
2DC
102
}
330
2DC
100
AcDbPlotSettings
  1

  2
\\ingdom02\ITB3
  4

  6

 40
0.0
 41
0.0
 42
0.0
 43
0.0
 44
0.0
 45
0.0
 46
0.0
 47
0.0
 48
0.0
 49
0.0
140
0.0
141
0.0
142
1.0
143
1.0
 70
  1712
 72
     0
 73
     0
 74
     0
  7

 75
     0
147
1.0
148
0.0
149
0.0
100
AcDbLayout
  1
Model
 70
     1
 71
     0
 10
0.0
 20
0.0
 11
12.0
 21
9.0
 12
0.0
 22
0.0
 32
0.0
 14
0.0
 24
0.0
 34
0.0
 15
0.0
 25
0.0
 35
0.0
146
0.0
 13
0.0
 23
0.0
 33
0.0
 16
1.0
 26
0.0
 36
0.0
 17
0.0
 27
1.0
 37
0.0
 76
     0
330
1B
  0
MLINESTYLE
  5
2D2
102
{ACAD_REACTORS
330
2D1
102
}
330
2D1
100
AcDbMlineStyle
  2
STANDARD
 70
     0
  3

 62
   256
 51
90.0
 52
90.0
 71
     2
 49
0.5
 62
   256
  6
BYLAYER
 49
-0.5
 62
   256
  6
BYLAYER
  0
ACDBPLACEHOLDER
  5
2D7
102
{ACAD_REACTORS
330
2D6
102
}
330
2D6
  0
TABLESTYLE
  5
2DB
102
{ACAD_REACTORS
330
2DA
102
}
330
2DA
100
AcDbTableStyle
  3
Standard
 70
     0
 71
     0
 40
1.5
 41
1.5
280
     0
281
     0
  7
STANDARD
140
4.5
170
     2
 62
     0
 63
     7
283
     0
274
    -2
284
     1
 64
     0
275
    -2
285
     1
 65
     0
276
    -2
286
     1
 66
     0
277
    -2
287
     1
 67
     0
278
    -2
288
     1
 68
     0
279
    -2
289
     1
 69
     0
  7
STANDARD
140
6.0
170
     5
 62
     0
 63
     7
283
     0
274
    -2
284
     1
 64
     0
275
    -2
285
     1
 65
     0
276
    -2
286
     1
 66
     0
277
    -2
287
     1
 67
     0
278
    -2
288
     1
 68
     0
279
    -2
289
     1
 69
     0
  7
STANDARD
140
4.5
170
     5
 62
     0
 63
     7
283
     0
274
    -2
284
     1
 64
     0
275
    -2
285
     1
 65
     0
276
    -2
286
     1
 66
     0
277
    -2
287
     1
 67
     0
278
    -2
288
     1
 68
     0
279
    -2
289
     1
 69
     0
  0
DICTIONARYVAR
  5
695
102
{ACAD_REACTORS
330
694
102
}
330
694
100
DictionaryVariables
280
     0
  1
STANDARD
  0
DICTIONARYVAR
  5
696
102
{ACAD_REACTORS
330
694
102
}
330
694
100
DictionaryVariables
280
     0
  1
1
  0
DICTIONARYVAR
  5
697
102
{ACAD_REACTORS
330
694
102
}
330
694
100
DictionaryVariables
280
     0
  1

  0
DICTIONARY
  5
69C
330
2DF
100
AcDbDictionary
280
     1
281
     1
  3
ACAD_XREC_ROUNDTRIP
360
69D
  0
DICTIONARY
  5
69A
330
2DE
100
AcDbDictionary
280
     1
281
     1
  3
ACAD_XREC_ROUNDTRIP
360
69B
  0
XRECORD
  5
69D
102
{ACAD_REACTORS
330
69C
102
}
330
69C
100
AcDbXrecord
280
     1
102
SHADEPLOT
 70
     0
102
SHADEPLOTRESLEVEL
 70
     2
102
SHADEPLOTCUSTOMDPI
 70
   300
  0
XRECORD
  5
69B
102
{ACAD_REACTORS
330
69A
102
}
330
69A
100
AcDbXrecord
280
     1
102
SHADEPLOT
 70
     0
102
SHADEPLOTRESLEVEL
 70
     2
102
SHADEPLOTCUSTOMDPI
 70
   300
  0
ENDSEC
  0
EOF
