  0
SECTION
  2
HEADER
  9
$ACADVER
  1
AC1015
  9
$ACADMAINTVER
 70
    20
  9
$DWGCODEPAGE
  3
ANSI_1252
  9
$INSBASE
 10
0.0
 20
0.0
 30
0.0
  9
$EXTMIN
 10
-33.59921130258499
 20
-175.0021354563093
 30
-0.0015258207003583
  9
$EXTMAX
 10
108.9731148320402
 20
200.0985724992335
 30
0.0000000349246037
  9
$LIMMIN
 10
0.0
 20
0.0
  9
$LIMMAX
 10
594.0
 20
420.0
  9
$ORTHOMODE
 70
     0
  9
$REGENMODE
 70
     1
  9
$FILLMODE
 70
     1
  9
$QTEXTMODE
 70
     0
  9
$MIRRTEXT
 70
     0
  9
$LTSCALE
 40
32.67
  9
$ATTMODE
 70
     1
  9
$TEXTSIZE
 40
0.2
  9
$TRACEWID
 40
0.05
  9
$TEXTSTYLE
  7
STANDARD
  9
$CLAYER
  8
0
  9
$CELTYPE
  6
BYLAYER
  9
$CECOLOR
 62
   256
  9
$CELTSCALE
 40
1.0
  9
$DISPSILH
 70
     0
  9
$DIMSCALE
 40
1.0
  9
$DIMASZ
 40
2.5
  9
$DIMEXO
 40
0.0625
  9
$DIMDLI
 40
0.38
  9
$DIMRND
 40
0.0
  9
$DIMDLE
 40
0.0
  9
$DIMEXE
 40
0.18
  9
$DIMTP
 40
0.005
  9
$DIMTM
 40
0.005
  9
$DIMTXT
 40
3.5
  9
$DIMCEN
 40
0.09
  9
$DIMTSZ
 40
0.0
  9
$DIMTOL
 70
     1
  9
$DIMLIM
 70
     0
  9
$DIMTIH
 70
     0
  9
$DIMTOH
 70
     0
  9
$DIMSE1
 70
     0
  9
$DIMSE2
 70
     0
  9
$DIMTAD
 70
     1
  9
$DIMZIN
 70
     8
  9
$DIMBLK
  1
_FILLED
  9
$DIMASO
 70
     1
  9
$DIMSHO
 70
     1
  9
$DIMPOST
  1

  9
$DIMAPOST
  1

  9
$DIMALT
 70
     0
  9
$DIMALTD
 70
     2
  9
$DIMALTF
 40
25.4
  9
$DIMLFAC
 40
1.0
  9
$DIMTOFL
 70
     0
  9
$DIMTVP
 40
0.0
  9
$DIMTIX
 70
     0
  9
$DIMSOXD
 70
     0
  9
$DIMSAH
 70
     0
  9
$DIMBLK1
  1
_FILLED
  9
$DIMBLK2
  1
_FILLED
  9
$DIMSTYLE
  2
STANDARD
  9
$DIMCLRD
 70
     0
  9
$DIMCLRE
 70
     0
  9
$DIMCLRT
 70
     2
  9
$DIMTFAC
 40
1.0
  9
$DIMGAP
 40
0.09
  9
$DIMJUST
 70
     0
  9
$DIMSD1
 70
     0
  9
$DIMSD2
 70
     0
  9
$DIMTOLJ
 70
     1
  9
$DIMTZIN
 70
     8
  9
$DIMALTZ
 70
     0
  9
$DIMALTTZ
 70
     0
  9
$DIMUPT
 70
     0
  9
$DIMDEC
 70
     3
  9
$DIMTDEC
 70
     3
  9
$DIMALTU
 70
     2
  9
$DIMALTTD
 70
     2
  9
$DIMTXSTY
  7
STANDARD
  9
$DIMAUNIT
 70
     0
  9
$DIMADEC
 70
     0
  9
$DIMALTRND
 40
0.0
  9
$DIMAZIN
 70
     0
  9
$DIMDSEP
 70
    46
  9
$DIMATFIT
 70
     3
  9
$DIMFRAC
 70
     0
  9
$DIMLDRBLK
  1
_FILLED
  9
$DIMLUNIT
 70
     2
  9
$DIMLWD
 70
    -2
  9
$DIMLWE
 70
    -2
  9
$DIMTMOVE
 70
     0
  9
$LUNITS
 70
     2
  9
$LUPREC
 70
     4
  9
$SKETCHINC
 40
0.1
  9
$FILLETRAD
 40
0.0
  9
$AUNITS
 70
     0
  9
$AUPREC
 70
     0
  9
$MENU
  1
.
  9
$ELEVATION
 40
0.0
  9
$PELEVATION
 40
0.0
  9
$THICKNESS
 40
0.0
  9
$LIMCHECK
 70
     0
  9
$CHAMFERA
 40
0.0
  9
$CHAMFERB
 40
0.0
  9
$CHAMFERC
 40
0.0
  9
$CHAMFERD
 40
0.0
  9
$SKPOLY
 70
     0
  9
$TDCREATE
 40
2453791.376493438
  9
$TDUCREATE
 40
2453791.334826771
  9
$TDUPDATE
 40
2453791.405206586
  9
$TDUUPDATE
 40
2453791.363539919
  9
$TDINDWG
 40
0.0287133218
  9
$TDUSRTIMER
 40
0.0287133218
  9
$USRTIMER
 70
     1
  9
$ANGBASE
 50
0.0
  9
$ANGDIR
 70
     0
  9
$PDMODE
 70
     3
  9
$PDSIZE
 40
0.3125
  9
$PLINEWID
 40
0.0
  9
$SPLFRAME
 70
     0
  9
$SPLINETYPE
 70
     6
  9
$SPLINESEGS
 70
     8
  9
$HANDSEED
  5
624
  9
$SURFTAB1
 70
     6
  9
$SURFTAB2
 70
     6
  9
$SURFTYPE
 70
     6
  9
$SURFU
 70
     6
  9
$SURFV
 70
     6
  9
$UCSBASE
  2

  9
$UCSNAME
  2

  9
$UCSORG
 10
0.0
 20
0.0
 30
0.0
  9
$UCSXDIR
 10
1.0
 20
0.0
 30
0.0
  9
$UCSYDIR
 10
0.0
 20
1.0
 30
0.0
  9
$UCSORTHOREF
  2

  9
$UCSORTHOVIEW
 70
     0
  9
$UCSORGTOP
 10
0.0
 20
0.0
 30
0.0
  9
$UCSORGBOTTOM
 10
0.0
 20
0.0
 30
0.0
  9
$UCSORGLEFT
 10
0.0
 20
0.0
 30
0.0
  9
$UCSORGRIGHT
 10
0.0
 20
0.0
 30
0.0
  9
$UCSORGFRONT
 10
0.0
 20
0.0
 30
0.0
  9
$UCSORGBACK
 10
0.0
 20
0.0
 30
0.0
  9
$PUCSBASE
  2

  9
$PUCSNAME
  2

  9
$PUCSORG
 10
0.0
 20
0.0
 30
0.0
  9
$PUCSXDIR
 10
1.0
 20
0.0
 30
0.0
  9
$PUCSYDIR
 10
0.0
 20
1.0
 30
0.0
  9
$PUCSORTHOREF
  2

  9
$PUCSORTHOVIEW
 70
     0
  9
$PUCSORGTOP
 10
0.0
 20
0.0
 30
0.0
  9
$PUCSORGBOTTOM
 10
0.0
 20
0.0
 30
0.0
  9
$PUCSORGLEFT
 10
0.0
 20
0.0
 30
0.0
  9
$PUCSORGRIGHT
 10
0.0
 20
0.0
 30
0.0
  9
$PUCSORGFRONT
 10
0.0
 20
0.0
 30
0.0
  9
$PUCSORGBACK
 10
0.0
 20
0.0
 30
0.0
  9
$USERI1
 70
     0
  9
$USERI2
 70
     0
  9
$USERI3
 70
     0
  9
$USERI4
 70
     0
  9
$USERI5
 70
     0
  9
$USERR1
 40
0.0
  9
$USERR2
 40
0.0
  9
$USERR3
 40
0.0
  9
$USERR4
 40
0.0
  9
$USERR5
 40
0.0
  9
$WORLDVIEW
 70
     1
  9
$SHADEDGE
 70
     3
  9
$SHADEDIF
 70
    70
  9
$TILEMODE
 70
     1
  9
$MAXACTVP
 70
    64
  9
$PINSBASE
 10
0.0
 20
0.0
 30
0.0
  9
$PLIMCHECK
 70
     0
  9
$PEXTMIN
 10
1.000000000000000E+20
 20
1.000000000000000E+20
 30
1.000000000000000E+20
  9
$PEXTMAX
 10
-1.000000000000000E+20
 20
-1.000000000000000E+20
 30
-1.000000000000000E+20
  9
$PLIMMIN
 10
0.0
 20
0.0
  9
$PLIMMAX
 10
12.0
 20
9.0
  9
$UNITMODE
 70
     0
  9
$VISRETAIN
 70
     1
  9
$PLINEGEN
 70
     0
  9
$PSLTSCALE
 70
     1
  9
$TREEDEPTH
 70
  3020
  9
$CMLSTYLE
  2
STANDARD
  9
$CMLJUST
 70
     0
  9
$CMLSCALE
 40
1.0
  9
$PROXYGRAPHICS
 70
     1
  9
$MEASUREMENT
 70
     1
  9
$CELWEIGHT
370
    -1
  9
$ENDCAPS
280
     0
  9
$JOINSTYLE
280
     0
  9
$LWDISPLAY
290
     0
  9
$INSUNITS
 70
     0
  9
$HYPERLINKBASE
  1

  9
$STYLESHEET
  1

  9
$XEDIT
290
     1
  9
$CEPSNTYPE
380
     0
  9
$PSTYLEMODE
290
     1
  9
$FINGERPRINTGUID
  2
{4D539A41-EBF8-4A47-924E-45A84751A2FC}
  9
$VERSIONGUID
  2
{DC47DD22-48B7-4323-8FD2-F3D7B30238C4}
  9
$EXTNAMES
290
     1
  9
$PSVPSCALE
 40
0.0
  9
$OLESTARTUP
290
     0
  0
ENDSEC
  0
SECTION
  2
CLASSES
  0
CLASS
  1
ACDBDICTIONARYWDFLT
  2
AcDbDictionaryWithDefault
  3
ObjectDBX Classes
 90
        0
280
     0
281
     0
  0
CLASS
  1
TABLESTYLE
  2
AcDbTableStyle
  3
ObjectDBX Classes
 90
     2047
280
     0
281
     0
  0
CLASS
  1
DICTIONARYVAR
  2
AcDbDictionaryVar
  3
ObjectDBX Classes
 90
        0
280
     0
281
     0
  0
CLASS
  1
ACDBPLACEHOLDER
  2
AcDbPlaceHolder
  3
ObjectDBX Classes
 90
        0
280
     0
281
     0
  0
CLASS
  1
LAYOUT
  2
AcDbLayout
  3
ObjectDBX Classes
 90
        0
280
     0
281
     0
  0
ENDSEC
  0
SECTION
  2
TABLES
  0
TABLE
  2
VPORT
  5
8
330
0
100
AcDbSymbolTable
 70
     3
  0
VPORT
  5
61E
330
8
100
AcDbSymbolTableRecord
100
AcDbViewportTableRecord
  2
*Active
 70
     0
 10
0.0
 20
0.0
 11
1.0
 21
1.0
 12
37.68695176472758
 22
12.5482185214621
 13
0.0
 23
0.0
 14
1.0
 24
1.0
 15
0.0
 25
0.0
 16
0.0
 26
0.0
 36
1.0
 17
0.0
 27
0.0
 37
0.0
 40
377.9139632652095
 41
1.494367959949937
 42
50.0
 43
0.0
 44
0.0
 50
0.0
 51
0.0
 71
     0
 72
   100
 73
     1
 74
     1
 75
     0
 76
     0
 77
     0
 78
     0
281
     0
 65
     1
110
0.0
120
0.0
130
0.0
111
1.0
121
0.0
131
0.0
112
0.0
122
1.0
132
0.0
 79
     0
146
0.0
  0
ENDTAB
  0
TABLE
  2
LTYPE
  5
5
330
0
100
AcDbSymbolTable
 70
     6
  0
LTYPE
  5
14
330
5
100
AcDbSymbolTableRecord
100
AcDbLinetypeTableRecord
  2
BYBLOCK
 70
     0
  3

 72
    65
 73
     0
 40
0.0
  0
LTYPE
  5
15
330
5
100
AcDbSymbolTableRecord
100
AcDbLinetypeTableRecord
  2
BYLAYER
 70
     0
  3

 72
    65
 73
     0
 40
0.0
  0
LTYPE
  5
16
330
5
100
AcDbSymbolTableRecord
100
AcDbLinetypeTableRecord
  2
CONTINUOUS
 70
     0
  3
Solid line
 72
    65
 73
     0
 40
0.0
  0
LTYPE
  5
1F5
330
5
100
AcDbSymbolTableRecord
100
AcDbLinetypeTableRecord
  2
CENTER
 70
     0
  3
____ _ ____ _ ____ _ ____ _ ____ _ ____ _ ____
 72
    65
 73
     4
 40
0.6
 49
0.375
 74
     0
 49
-0.075
 74
     0
 49
0.075
 74
     0
 49
-0.075
 74
     0
  0
ENDTAB
  0
TABLE
  2
LAYER
  5
2
102
{ACAD_XDICTIONARY
360
2B7
102
}
330
0
100
AcDbSymbolTable
 70
    14
  0
LAYER
  5
10
330
2
100
AcDbSymbolTableRecord
100
AcDbLayerTableRecord
  2
0
 70
     0
 62
     7
  6
CONTINUOUS
370
    -3
390
2AC
  0
LAYER
  5
1FD
330
2
100
AcDbSymbolTableRecord
100
AcDbLayerTableRecord
  2
1
 70
     0
 62
     4
  6
CONTINUOUS
370
    -3
390
2AC
  0
LAYER
  5
1FE
330
2
100
AcDbSymbolTableRecord
100
AcDbLayerTableRecord
  2
2
 70
     0
 62
     7
  6
CONTINUOUS
370
    -3
390
2AC
  0
LAYER
  5
1FF
330
2
100
AcDbSymbolTableRecord
100
AcDbLayerTableRecord
  2
4
 70
     0
 62
     2
  6
CENTER
370
    -3
390
2AC
  0
LAYER
  5
200
330
2
100
AcDbSymbolTableRecord
100
AcDbLayerTableRecord
  2
6
 70
     0
 62
     5
  6
CONTINUOUS
370
    -3
390
2AC
  0
LAYER
  5
201
330
2
100
AcDbSymbolTableRecord
100
AcDbLayerTableRecord
  2
NOCUT
 70
     0
 62
     7
  6
CONTINUOUS
370
    -3
390
2AC
  0
LAYER
  5
202
330
2
100
AcDbSymbolTableRecord
100
AcDbLayerTableRecord
  2
SK1
 70
     0
 62
     4
  6
CONTINUOUS
370
    -3
390
2AC
  0
LAYER
  5
203
330
2
100
AcDbSymbolTableRecord
100
AcDbLayerTableRecord
  2
SK2
 70
     0
 62
     7
  6
CONTINUOUS
370
    -3
390
2AC
  0
LAYER
  5
204
330
2
100
AcDbSymbolTableRecord
100
AcDbLayerTableRecord
  2
SK3
 70
     0
 62
     1
  6
CENTER
370
    -3
390
2AC
  0
LAYER
  5
328
330
2
100
AcDbSymbolTableRecord
100
AcDbLayerTableRecord
  2
Defpoints
 70
     0
 62
     7
  6
CONTINUOUS
290
     0
370
    -3
390
2AC
  0
ENDTAB
  0
TABLE
  2
STYLE
  5
3
330
0
100
AcDbSymbolTable
 70
     1
  0
STYLE
  5
11
330
3
100
AcDbSymbolTableRecord
100
AcDbTextStyleTableRecord
  2
STANDARD
 70
     0
 40
0.0
 41
0.8
 50
0.0
 71
     0
 42
0.2
  3
isocp.shx
  4

  0
ENDTAB
  0
TABLE
  2
VIEW
  5
6
330
0
100
AcDbSymbolTable
 70
     0
  0
ENDTAB
  0
TABLE
  2
UCS
  5
7
330
0
100
AcDbSymbolTable
 70
     0
  0
ENDTAB
  0
TABLE
  2
APPID
  5
9
330
0
100
AcDbSymbolTable
 70
     2
  0
APPID
  5
205
330
9
100
AcDbSymbolTableRecord
100
AcDbRegAppTableRecord
  2
ACAD
 70
     0
  0
APPID
  5
32B
330
9
100
AcDbSymbolTableRecord
100
AcDbRegAppTableRecord
  2
ACAD_PSEXT
 70
     0
  0
ENDTAB
  0
TABLE
  2
DIMSTYLE
  5
A
330
0
100
AcDbSymbolTable
 70
     3
100
AcDbDimStyleTable
 71
     2
340
32A
340
206
  0
DIMSTYLE
105
206
330
A
100
AcDbSymbolTableRecord
100
AcDbDimStyleTableRecord
  2
STANDARD
 70
     0
 41
2.5
 47
0.005
 48
0.005
 71
     1
 73
     0
 74
     0
 77
     1
 78
     8
140
3.5
178
     2
271
     3
272
     3
284
     8
340
11
341
208
342
208
343
208
344
208
  0
DIMSTYLE
105
32A
102
{ACAD_REACTORS
330
32D
330
32E
330
32F
330
330
330
331
330
332
330
333
330
334
330
335
330
27F
330
27D
330
280
330
281
330
27B
330
27C
330
27E
102
}
330
A
100
AcDbSymbolTableRecord
100
AcDbDimStyleTableRecord
  2
ISO-25
 70
     0
 41
3.5
 42
0.625
 43
3.75
 44
2.0
 73
     0
 74
     0
 77
     1
 78
     8
140
3.5
141
2.5
143
0.03937007874016
147
0.625
171
     3
172
     1
176
   256
177
   256
178
   256
271
     2
272
     2
274
     3
283
     0
284
     8
340
11
  0
ENDTAB
  0
TABLE
  2
BLOCK_RECORD
  5
1
330
0
100
AcDbSymbolTable
 70
    29
  0
BLOCK_RECORD
  5
1B
330
1
100
AcDbSymbolTableRecord
100
AcDbBlockTableRecord
  2
*MODEL_SPACE
340
2B3
  0
BLOCK_RECORD
  5
1C
330
1
100
AcDbSymbolTableRecord
100
AcDbBlockTableRecord
  2
*PAPER_SPACE
340
2B4
  0
BLOCK_RECORD
  5
208
330
1
100
AcDbSymbolTableRecord
100
AcDbBlockTableRecord
  2
_FILLED
340
0
  0
BLOCK_RECORD
  5
209
330
1
100
AcDbSymbolTableRecord
100
AcDbBlockTableRecord
  2
*D1
340
0
  0
BLOCK_RECORD
  5
20A
330
1
100
AcDbSymbolTableRecord
100
AcDbBlockTableRecord
  2
*D2
340
0
  0
BLOCK_RECORD
  5
20B
330
1
100
AcDbSymbolTableRecord
100
AcDbBlockTableRecord
  2
*D3
340
0
  0
BLOCK_RECORD
  5
20C
330
1
100
AcDbSymbolTableRecord
100
AcDbBlockTableRecord
  2
*D4
340
0
  0
BLOCK_RECORD
  5
20D
330
1
100
AcDbSymbolTableRecord
100
AcDbBlockTableRecord
  2
*D5
340
0
  0
BLOCK_RECORD
  5
20E
330
1
100
AcDbSymbolTableRecord
100
AcDbBlockTableRecord
  2
*D6
340
0
  0
BLOCK_RECORD
  5
20F
330
1
100
AcDbSymbolTableRecord
100
AcDbBlockTableRecord
  2
*D7
340
0
  0
BLOCK_RECORD
  5
210
330
1
100
AcDbSymbolTableRecord
100
AcDbBlockTableRecord
  2
NULLPUNKT_BL0
340
0
102
{BLKREFS
331
283
331
337
102
}
  0
BLOCK_RECORD
  5
211
330
1
100
AcDbSymbolTableRecord
100
AcDbBlockTableRecord
  2
EINFUEGEPUNKT_BL1
340
0
102
{BLKREFS
331
284
331
338
102
}
  0
ENDTAB
  0
ENDSEC
  0
SECTION
  2
BLOCKS
  0
BLOCK
  5
1E
330
1B
100
AcDbEntity
  8
0
100
AcDbBlockBegin
  2
*MODEL_SPACE
 70
     0
 10
0.0
 20
0.0
 30
0.0
  3
*MODEL_SPACE
  1

  0
ENDBLK
  5
1F
330
1B
100
AcDbEntity
  8
0
100
AcDbBlockEnd
  0
BLOCK
  5
20
330
1C
100
AcDbEntity
 67
     1
  8
0
100
AcDbBlockBegin
  2
*PAPER_SPACE
 70
     0
 10
0.0
 20
0.0
 30
0.0
  3
*PAPER_SPACE
  1

  0
ENDBLK
  5
21
330
1C
100
AcDbEntity
 67
     1
  8
0
100
AcDbBlockEnd
  0
BLOCK
  5
278
330
208
100
AcDbEntity
  8
0
100
AcDbBlockBegin
  2
_FILLED
 70
     0
 10
0.0
 20
0.0
 30
0.0
  3
_FILLED
  1

  0
SOLID
  5
279
330
208
100
AcDbEntity
  8
0
  6
ByBlock
 62
     0
100
AcDbTrace
 10
0.0
 20
0.0
 30
0.0
 11
-1.0
 21
0.132
 31
0.0
 12
-1.0
 22
-0.132
 32
0.0
 13
-1.0
 23
-0.132
 33
0.0
  0
ENDBLK
  5
27A
330
208
100
AcDbEntity
  8
0
  6
ByBlock
 62
     0
100
AcDbBlockEnd
  0
BLOCK
  5
212
330
209
100
AcDbEntity
  8
SK2
  6
Continuous
 62
     7
100
AcDbBlockBegin
  2
*D1
 70
     1
 10
0.0
 20
0.0
 30
0.0
  3
*D1
  1

  0
LINE
  5
5D5
330
209
100
AcDbEntity
  8
SK2
370
    -2
100
AcDbLine
 10
0.375
 20
-175.0
 30
0.0
 11
-31.62500000000007
 21
-175.0
 31
0.0
  0
LINE
  5
5D6
330
209
100
AcDbEntity
  8
SK2
370
    -2
100
AcDbLine
 10
0.375
 20
175.0
 30
0.0
 11
-31.62499999999999
 21
175.0
 31
0.0
  0
LINE
  5
5D7
330
209
100
AcDbEntity
  8
SK2
370
    -2
100
AcDbLine
 10
-29.62500000000007
 20
-171.5
 30
0.0
 11
-29.62499999999999
 21
171.5
 31
0.0
  0
SOLID
  5
5D8
330
209
100
AcDbEntity
  8
SK2
100
AcDbTrace
 10
-30.2083333333334
 20
-171.5
 30
0.0
 11
-29.04166666666674
 21
-171.5
 31
0.0
 12
-29.62500000000007
 22
-175.0
 32
0.0
 13
-29.62500000000007
 23
-175.0
 33
0.0
  0
SOLID
  5
5D9
330
209
100
AcDbEntity
  8
SK2
100
AcDbTrace
 10
-30.20833333333332
 20
171.5
 30
0.0
 11
-29.04166666666666
 21
171.5
 31
0.0
 12
-29.62499999999999
 22
175.0
 32
0.0
 13
-29.62499999999999
 23
175.0
 33
0.0
  0
MTEXT
  5
5DA
330
209
100
AcDbEntity
  8
SK2
100
AcDbMText
 10
-32.00000000000003
 20
0.0000000000000003
 30
0.0
 40
3.5
 41
0.0
 71
     5
 72
     1
  1
%%c350
 11
0.0000000000000001
 21
1.0
 31
0.0
 73
     1
 44
1.0
1001
ACAD
1000
MTEXTBEGIN
1070
    73
1070
     1
1070
    44
1040
1.0
1070
    74
1070
     0
1000
MTEXTEND
  0
POINT
  5
5DB
330
209
100
AcDbEntity
  8
Defpoints
 62
     0
100
AcDbPoint
 10
1.0
 20
-175.0
 30
0.0
  0
POINT
  5
5DC
330
209
100
AcDbEntity
  8
Defpoints
 62
     0
100
AcDbPoint
 10
1.0
 20
175.0
 30
0.0
  0
POINT
  5
5DD
330
209
100
AcDbEntity
  8
Defpoints
 62
     0
100
AcDbPoint
 10
-29.62499999999999
 20
175.0
 30
0.0
  0
ENDBLK
  5
21B
330
209
100
AcDbEntity
  8
0
  6
ByBlock
 62
     0
100
AcDbBlockEnd
  0
BLOCK
  5
21C
330
20A
100
AcDbEntity
  8
2
  6
Continuous
 62
     7
100
AcDbBlockBegin
  2
*D2
 70
     1
 10
0.0
 20
0.0
 30
0.0
  3
*D2
  1

  0
LINE
  5
5DE
330
20A
100
AcDbEntity
  8
2
370
    -2
100
AcDbLine
 10
0.0
 20
141.625
 30
0.0
 11
0.000000000000003
 21
189.625
 31
0.0
  0
LINE
  5
5DF
330
20A
100
AcDbEntity
  8
2
370
    -2
100
AcDbLine
 10
42.0
 20
176.625
 30
0.0
 11
42.0
 21
189.625
 31
0.0
  0
LINE
  5
5E0
330
20A
100
AcDbEntity
  8
2
370
    -2
100
AcDbLine
 10
3.500000000000002
 20
187.625
 30
0.0
 11
38.5
 21
187.625
 31
0.0
  0
SOLID
  5
5E1
330
20A
100
AcDbEntity
  8
2
100
AcDbTrace
 10
3.500000000000002
 20
188.2083333333333
 30
0.0
 11
3.500000000000002
 21
187.0416666666666
 31
0.0
 12
0.0000000000000029
 22
187.625
 32
0.0
 13
0.0000000000000029
 23
187.625
 33
0.0
  0
SOLID
  5
5E2
330
20A
100
AcDbEntity
  8
2
100
AcDbTrace
 10
38.5
 20
188.2083333333333
 30
0.0
 11
38.5
 21
187.0416666666666
 31
0.0
 12
42.0
 22
187.625
 32
0.0
 13
42.0
 23
187.625
 33
0.0
  0
MTEXT
  5
5E3
330
20A
100
AcDbEntity
  8
2
100
AcDbMText
 10
21.0
 20
190.0003444881889
 30
0.0
 40
3.5
 41
0.0
 71
     5
 72
     1
  1
42
 73
     1
 44
1.0
1001
ACAD
1000
MTEXTBEGIN
1070
    73
1070
     1
1070
    44
1040
1.0
1070
    74
1070
     0
1000
MTEXTEND
  0
POINT
  5
5E4
330
20A
100
AcDbEntity
  8
Defpoints
 62
     0
100
AcDbPoint
 10
0.0
 20
141.0
 30
0.0
  0
POINT
  5
5E5
330
20A
100
AcDbEntity
  8
Defpoints
 62
     0
100
AcDbPoint
 10
42.0
 20
176.0
 30
0.0
  0
POINT
  5
5E6
330
20A
100
AcDbEntity
  8
Defpoints
 62
     0
100
AcDbPoint
 10
42.0
 20
187.625
 30
0.0
  0
ENDBLK
  5
224
330
20A
100
AcDbEntity
  8
0
  6
ByBlock
 62
     0
100
AcDbBlockEnd
  0
BLOCK
  5
225
330
20B
100
AcDbEntity
  8
SK2
  6
Continuous
 62
     7
100
AcDbBlockBegin
  2
*D3
 70
     1
 10
0.0
 20
0.0
 30
0.0
  3
*D3
  1

  0
LINE
  5
5E7
330
20B
100
AcDbEntity
  8
SK2
370
    -2
100
AcDbLine
 10
71.625
 20
-108.0
 30
0.0
 11
87.87499999999992
 21
-108.0
 31
0.0
  0
LINE
  5
5E8
330
20B
100
AcDbEntity
  8
SK2
370
    -2
100
AcDbLine
 10
71.625
 20
108.0
 30
0.0
 11
87.87499999999997
 21
108.0
 31
0.0
  0
LINE
  5
5E9
330
20B
100
AcDbEntity
  8
SK2
370
    -2
100
AcDbLine
 10
85.87499999999991
 20
-104.5
 30
0.0
 11
85.87499999999996
 21
104.5
 31
0.0
  0
SOLID
  5
5EA
330
20B
100
AcDbEntity
  8
SK2
100
AcDbTrace
 10
85.29166666666659
 20
-104.5
 30
0.0
 11
86.45833333333325
 21
-104.5
 31
0.0
 12
85.87499999999991
 22
-108.0
 32
0.0
 13
85.87499999999991
 23
-108.0
 33
0.0
  0
SOLID
  5
5EB
330
20B
100
AcDbEntity
  8
SK2
100
AcDbTrace
 10
85.29166666666665
 20
104.5
 30
0.0
 11
86.4583333333333
 21
104.5
 31
0.0
 12
85.87499999999996
 22
108.0
 32
0.0
 13
85.87499999999996
 23
108.0
 33
0.0
  0
MTEXT
  5
5EC
330
20B
100
AcDbEntity
  8
SK2
100
AcDbMText
 10
83.49965551181098
 20
0.0000000000000003
 30
0.0
 40
3.5
 41
0.0
 71
     5
 72
     1
  1
%%c216
 11
0.0000000000000001
 21
1.0
 31
0.0
 73
     1
 44
1.0
1001
ACAD
1000
MTEXTBEGIN
1070
    73
1070
     1
1070
    44
1040
1.0
1070
    74
1070
     0
1000
MTEXTEND
  0
POINT
  5
5ED
330
20B
100
AcDbEntity
  8
Defpoints
 62
     0
100
AcDbPoint
 10
71.0
 20
-108.0
 30
0.0
  0
POINT
  5
5EE
330
20B
100
AcDbEntity
  8
Defpoints
 62
     0
100
AcDbPoint
 10
71.0
 20
108.0
 30
0.0
  0
POINT
  5
5EF
330
20B
100
AcDbEntity
  8
Defpoints
 62
     0
100
AcDbPoint
 10
85.87499999999996
 20
108.0
 30
0.0
  0
ENDBLK
  5
22E
330
20B
100
AcDbEntity
  8
0
  6
ByBlock
 62
     0
100
AcDbBlockEnd
  0
BLOCK
  5
22F
330
20C
100
AcDbEntity
  8
SK2
  6
Continuous
 62
     7
100
AcDbBlockBegin
  2
*D4
 70
     1
 10
0.0
 20
0.0
 30
0.0
  3
*D4
  1

  0
LINE
  5
5F0
330
20C
100
AcDbEntity
  8
SK2
370
    -2
100
AcDbLine
 10
70.0
 20
111.188020214
 30
0.0
 11
70.0
 21
198.125
 31
0.0
  0
LINE
  5
5F1
330
20C
100
AcDbEntity
  8
SK2
370
    -2
100
AcDbLine
 10
0.0
 20
142.188020214
 30
0.0
 11
0.0000000000000035
 21
198.125
 31
0.0
  0
LINE
  5
5F2
330
20C
100
AcDbEntity
  8
SK2
370
    -2
100
AcDbLine
 10
66.5
 20
196.125
 30
0.0
 11
3.500000000000003
 21
196.125
 31
0.0
  0
SOLID
  5
5F3
330
20C
100
AcDbEntity
  8
SK2
100
AcDbTrace
 10
66.5
 20
196.7083333333333
 30
0.0
 11
66.5
 21
195.5416666666666
 31
0.0
 12
70.0
 22
196.125
 32
0.0
 13
70.0
 23
196.125
 33
0.0
  0
SOLID
  5
5F4
330
20C
100
AcDbEntity
  8
SK2
100
AcDbTrace
 10
3.500000000000003
 20
196.7083333333333
 30
0.0
 11
3.500000000000003
 21
195.5416666666666
 31
0.0
 12
0.0000000000000033
 22
196.125
 32
0.0
 13
0.0000000000000033
 23
196.125
 33
0.0
  0
MTEXT
  5
5F5
330
20C
100
AcDbEntity
  8
SK2
100
AcDbMText
 10
35.0
 20
198.5
 30
0.0
 40
3.5
 41
0.0
 71
     5
 72
     1
  1
70
 73
     1
 44
1.0
1001
ACAD
1000
MTEXTBEGIN
1070
    73
1070
     1
1070
    44
1040
1.0
1070
    74
1070
     0
1000
MTEXTEND
  0
POINT
  5
5F6
330
20C
100
AcDbEntity
  8
Defpoints
 62
     0
100
AcDbPoint
 10
70.0
 20
110.563020214
 30
0.0
  0
POINT
  5
5F7
330
20C
100
AcDbEntity
  8
Defpoints
 62
     0
100
AcDbPoint
 10
0.0
 20
141.563020214
 30
0.0
  0
POINT
  5
5F8
330
20C
100
AcDbEntity
  8
Defpoints
 62
     0
100
AcDbPoint
 10
0.0000000000000033
 20
196.125
 30
0.0
  0
ENDBLK
  5
237
330
20C
100
AcDbEntity
  8
0
  6
ByBlock
 62
     0
100
AcDbBlockEnd
  0
BLOCK
  5
238
330
20D
100
AcDbEntity
  8
SK2
  6
Continuous
 62
     7
100
AcDbBlockBegin
  2
*D5
 70
     1
 10
0.0
 20
0.0
 30
0.0
  3
*D5
  1

  0
LINE
  5
5F9
330
20D
100
AcDbEntity
  8
SK2
370
    -2
100
AcDbLine
 10
71.625
 20
-31.5
 30
0.0
 11
79.375
 21
-31.5
 31
0.0
  0
LINE
  5
5FA
330
20D
100
AcDbEntity
  8
SK2
370
    -2
100
AcDbLine
 10
71.625
 20
31.5
 30
0.0
 11
79.375
 21
31.5
 31
0.0
  0
LINE
  5
5FB
330
20D
100
AcDbEntity
  8
SK2
370
    -2
100
AcDbLine
 10
77.375
 20
-28.00000000000001
 30
0.0
 11
77.375
 21
28.0
 31
0.0
  0
SOLID
  5
5FC
330
20D
100
AcDbEntity
  8
SK2
100
AcDbTrace
 10
76.79166666666667
 20
-28.00000000000001
 30
0.0
 11
77.95833333333333
 21
-28.00000000000001
 31
0.0
 12
77.375
 22
-31.5
 32
0.0
 13
77.375
 23
-31.5
 33
0.0
  0
SOLID
  5
5FD
330
20D
100
AcDbEntity
  8
SK2
100
AcDbTrace
 10
76.79166666666667
 20
28.0
 30
0.0
 11
77.95833333333333
 21
28.0
 31
0.0
 12
77.375
 22
31.5
 32
0.0
 13
77.375
 23
31.5
 33
0.0
  0
MTEXT
  5
5FE
330
20D
100
AcDbEntity
  8
SK2
100
AcDbMText
 10
75.0
 20
0.0000000000000003
 30
0.0
 40
3.5
 41
0.0
 71
     5
 72
     1
  1
%%c63
 11
0.0000000000000001
 21
1.0
 31
0.0
 73
     1
 44
1.0
1001
ACAD
1000
MTEXTBEGIN
1070
    73
1070
     1
1070
    44
1040
1.0
1070
    74
1070
     0
1000
MTEXTEND
  0
POINT
  5
5FF
330
20D
100
AcDbEntity
  8
Defpoints
 62
     0
100
AcDbPoint
 10
71.0
 20
-31.5
 30
0.0
  0
POINT
  5
600
330
20D
100
AcDbEntity
  8
Defpoints
 62
     0
100
AcDbPoint
 10
71.0
 20
31.5
 30
0.0
  0
POINT
  5
601
330
20D
100
AcDbEntity
  8
Defpoints
 62
     0
100
AcDbPoint
 10
77.375
 20
31.5
 30
0.0
  0
ENDBLK
  5
241
330
20D
100
AcDbEntity
  8
0
  6
ByBlock
 62
     0
100
AcDbBlockEnd
  0
BLOCK
  5
242
330
20E
100
AcDbEntity
  8
SK2
  6
Continuous
 62
     7
100
AcDbBlockBegin
  2
*D6
 70
     1
 10
0.0
 20
0.0
 30
0.0
  3
*D6
  1

  0
LINE
  5
602
330
20E
100
AcDbEntity
  8
SK2
370
    -2
100
AcDbLine
 10
-1.625
 20
-30.0
 30
0.0
 11
-14.62500000000003
 21
-30.0
 31
0.0
  0
LINE
  5
603
330
20E
100
AcDbEntity
  8
SK2
370
    -2
100
AcDbLine
 10
-1.625
 20
30.0
 30
0.0
 11
-14.62500000000002
 21
30.0
 31
0.0
  0
LINE
  5
604
330
20E
100
AcDbEntity
  8
SK2
370
    -2
100
AcDbLine
 10
-12.62500000000003
 20
-26.5
 30
0.0
 11
-12.62500000000002
 21
26.5
 31
0.0
  0
SOLID
  5
605
330
20E
100
AcDbEntity
  8
SK2
100
AcDbTrace
 10
-13.20833333333337
 20
-26.5
 30
0.0
 11
-12.0416666666667
 21
-26.5
 31
0.0
 12
-12.62500000000003
 22
-30.0
 32
0.0
 13
-12.62500000000003
 23
-30.0
 33
0.0
  0
SOLID
  5
606
330
20E
100
AcDbEntity
  8
SK2
100
AcDbTrace
 10
-13.20833333333335
 20
26.5
 30
0.0
 11
-12.04166666666669
 21
26.5
 31
0.0
 12
-12.62500000000002
 22
30.0
 32
0.0
 13
-12.62500000000002
 23
30.0
 33
0.0
  0
MTEXT
  5
607
330
20E
100
AcDbEntity
  8
SK2
100
AcDbMText
 10
-15.00000000000003
 20
0.0000000000000003
 30
0.0
 40
3.5
 41
0.0
 71
     5
 72
     1
  1
%%c60
 11
0.0000000000000001
 21
1.0
 31
0.0
 73
     1
 44
1.0
1001
ACAD
1000
MTEXTBEGIN
1070
    73
1070
     1
1070
    44
1040
1.0
1070
    74
1070
     0
1000
MTEXTEND
  0
POINT
  5
608
330
20E
100
AcDbEntity
  8
Defpoints
 62
     0
100
AcDbPoint
 10
-1.0
 20
-30.0
 30
0.0
  0
POINT
  5
609
330
20E
100
AcDbEntity
  8
Defpoints
 62
     0
100
AcDbPoint
 10
-1.0
 20
30.0
 30
0.0
  0
POINT
  5
60A
330
20E
100
AcDbEntity
  8
Defpoints
 62
     0
100
AcDbPoint
 10
-12.62500000000002
 20
30.0
 30
0.0
  0
ENDBLK
  5
24B
330
20E
100
AcDbEntity
  8
0
  6
ByBlock
 62
     0
100
AcDbBlockEnd
  0
BLOCK
  5
24C
330
20F
100
AcDbEntity
  8
SK2
  6
Continuous
 62
     7
100
AcDbBlockBegin
  2
*D7
 70
     1
 10
0.0
 20
0.0
 30
0.0
  3
*D7
  1

  0
LINE
  5
60B
330
20F
100
AcDbEntity
  8
SK2
370
    -2
100
AcDbLine
 10
-1.625
 20
-140.0
 30
0.0
 11
-23.12500000000006
 21
-140.0
 31
0.0
  0
LINE
  5
60C
330
20F
100
AcDbEntity
  8
SK2
370
    -2
100
AcDbLine
 10
-1.625
 20
140.0
 30
0.0
 11
-23.125
 21
140.0
 31
0.0
  0
LINE
  5
60D
330
20F
100
AcDbEntity
  8
SK2
370
    -2
100
AcDbLine
 10
-21.12500000000006
 20
-136.5
 30
0.0
 11
-21.125
 21
136.5
 31
0.0
  0
SOLID
  5
60E
330
20F
100
AcDbEntity
  8
SK2
100
AcDbTrace
 10
-21.70833333333339
 20
-136.5
 30
0.0
 11
-20.54166666666673
 21
-136.5
 31
0.0
 12
-21.12500000000006
 22
-140.0
 32
0.0
 13
-21.12500000000006
 23
-140.0
 33
0.0
  0
SOLID
  5
60F
330
20F
100
AcDbEntity
  8
SK2
100
AcDbTrace
 10
-21.70833333333333
 20
136.5
 30
0.0
 11
-20.54166666666667
 21
136.5
 31
0.0
 12
-21.125
 22
140.0
 32
0.0
 13
-21.125
 23
140.0
 33
0.0
  0
MTEXT
  5
610
330
20F
100
AcDbEntity
  8
SK2
100
AcDbMText
 10
-23.50034448818901
 20
0.0000000000000003
 30
0.0
 40
3.5
 41
0.0
 71
     5
 72
     1
  1
%%c280
 11
0.0000000000000001
 21
1.0
 31
0.0
 73
     1
 44
1.0
1001
ACAD
1000
MTEXTBEGIN
1070
    73
1070
     1
1070
    44
1040
1.0
1070
    74
1070
     0
1000
MTEXTEND
  0
POINT
  5
611
330
20F
100
AcDbEntity
  8
Defpoints
 62
     0
100
AcDbPoint
 10
-1.0
 20
-140.0
 30
0.0
  0
POINT
  5
612
330
20F
100
AcDbEntity
  8
Defpoints
 62
     0
100
AcDbPoint
 10
-1.0
 20
140.0
 30
0.0
  0
POINT
  5
613
330
20F
100
AcDbEntity
  8
Defpoints
 62
     0
100
AcDbPoint
 10
-21.125
 20
140.0
 30
0.0
  0
ENDBLK
  5
255
330
20F
100
AcDbEntity
  8
0
  6
ByBlock
 62
     0
100
AcDbBlockEnd
  0
BLOCK
  5
256
330
210
100
AcDbEntity
  8
1
  6
Continuous
 62
     3
100
AcDbBlockBegin
  2
NULLPUNKT_BL0
 70
     0
 10
265.1783590963
 20
202.936979786
 30
0.0
  3
NULLPUNKT_BL0
  1

  0
LINE
  5
257
330
210
100
AcDbEntity
  8
1
  6
Continuous
 62
     4
100
AcDbLine
 10
265.1783590963
 20
202.936979786
 30
0.0
 11
266.6783560963001
 21
202.936979786
 31
0.0
  0
ARC
  5
258
330
210
100
AcDbEntity
  8
1
  6
Continuous
 62
     4
100
AcDbCircle
 10
265.1783590963
 20
202.936979786
 30
0.0
 40
1.499997
100
AcDbArc
 50
180.0
 51
270.0
  0
LINE
  5
259
330
210
100
AcDbEntity
  8
1
  6
Continuous
 62
     4
100
AcDbLine
 10
265.1783590963
 20
202.936979786
 30
0.0
 11
265.1783590963
 21
201.436982786
 31
0.0
  0
ARC
  5
25A
330
210
100
AcDbEntity
  8
1
  6
Continuous
 62
     4
100
AcDbCircle
 10
265.1783590963
 20
202.936979786
 30
0.0
 40
1.499997
100
AcDbArc
 50
270.0
 51
360.0
  0
ARC
  5
25B
330
210
100
AcDbEntity
  8
1
  6
Continuous
 62
     4
100
AcDbCircle
 10
265.1783590963
 20
202.936979786
 30
0.0
 40
1.499997
100
AcDbArc
 50
0.0
 51
90.0
  0
ARC
  5
25C
330
210
100
AcDbEntity
  8
1
  6
Continuous
 62
     4
100
AcDbCircle
 10
265.1783590963
 20
202.936979786
 30
0.0
 40
1.499997
100
AcDbArc
 50
90.0
 51
180.0
  0
LINE
  5
25D
330
210
100
AcDbEntity
  8
1
  6
Continuous
 62
     4
100
AcDbLine
 10
265.1783590963
 20
204.436976786
 30
0.0
 11
265.1783590963
 21
202.936979786
 31
0.0
  0
LINE
  5
25E
330
210
100
AcDbEntity
  8
1
  6
Continuous
 62
     4
100
AcDbLine
 10
263.6783620963
 20
202.936979786
 30
0.0
 11
265.1783590963
 21
202.936979786
 31
0.0
  0
LWPOLYLINE
  5
25F
330
210
100
AcDbEntity
  8
1
  6
Continuous
 62
     4
100
AcDbPolyline
 90
       18
 70
     0
 43
0.0
 10
265.1783590963
 20
202.936979786
 10
263.6783620963
 20
202.936979786
 10
263.6865792368
 20
203.0937721673
 10
263.7111406296
 20
203.2488466985
 10
263.751777175
 20
203.4005043505
 10
263.8080436505
 20
203.5470835304
 10
263.8793235887
 20
203.686978286
 10
263.9648360318
 20
203.8186559011
 10
264.0636440875
 20
203.9406736881
 10
264.1746651942
 20
204.0516947948
 10
264.2966829812
 20
204.1505028505
 10
264.4283605963
 20
204.2360152936
 10
264.5682553519
 20
204.3072952318
 10
264.7148345318
 20
204.3635617073
 10
264.8664921838
 20
204.4041982527
 10
265.021566715
 20
204.4287596455
 10
265.1783590963
 20
204.436976786
 10
265.1783590963
 20
202.936979786
  0
HATCH
  5
260
330
210
100
AcDbEntity
  8
1
  6
Continuous
 62
     4
100
AcDbHatch
 10
0.0
 20
0.0
 30
0.0
210
0.0
220
0.0
230
1.0
  2
SOLID
 70
     1
 71
     1
 91
        1
 92
        1
 93
       17
 72
     1
 10
265.1783590963
 20
202.936979786
 11
263.6783620963
 21
202.936979786
 72
     1
 10
263.6783620963
 20
202.936979786
 11
263.6865792368
 21
203.0937721673
 72
     1
 10
263.6865792368
 20
203.0937721673
 11
263.7111406296
 21
203.2488466985
 72
     1
 10
263.7111406296
 20
203.2488466985
 11
263.751777175
 21
203.4005043505
 72
     1
 10
263.751777175
 20
203.4005043505
 11
263.8080436505
 21
203.5470835304
 72
     1
 10
263.8080436505
 20
203.5470835304
 11
263.8793235887
 21
203.686978286
 72
     1
 10
263.8793235887
 20
203.686978286
 11
263.9648360318
 21
203.8186559011
 72
     1
 10
263.9648360318
 20
203.8186559011
 11
264.0636440875
 21
203.9406736881
 72
     1
 10
264.0636440875
 20
203.9406736881
 11
264.1746651942
 21
204.0516947948
 72
     1
 10
264.1746651942
 20
204.0516947948
 11
264.2966829812
 21
204.1505028505
 72
     1
 10
264.2966829812
 20
204.1505028505
 11
264.4283605963
 21
204.2360152936
 72
     1
 10
264.4283605963
 20
204.2360152936
 11
264.5682553519
 21
204.3072952318
 72
     1
 10
264.5682553519
 20
204.3072952318
 11
264.7148345318
 21
204.3635617073
 72
     1
 10
264.7148345318
 20
204.3635617073
 11
264.8664921838
 21
204.4041982527
 72
     1
 10
264.8664921838
 20
204.4041982527
 11
265.021566715
 21
204.4287596455
 72
     1
 10
265.021566715
 20
204.4287596455
 11
265.1783590963
 21
204.436976786
 72
     1
 10
265.1783590963
 20
204.436976786
 11
265.1783590963
 21
202.936979786
 97
        1
330
25F
 75
     0
 76
     1
 98
        1
 10
0.0
 20
0.0
  0
LWPOLYLINE
  5
261
330
210
100
AcDbEntity
  8
1
  6
Continuous
 62
     4
100
AcDbPolyline
 90
       18
 70
     0
 43
0.0
 10
265.1783590963
 20
202.936979786
 10
266.6783560963001
 20
202.936979786
 10
266.6701389558
 20
202.7801874047
 10
266.645577563
 20
202.6251128735
 10
266.6049410176
 20
202.4734552215
 10
266.5486745421
 20
202.3268760416
 10
266.4773946039
 20
202.186981286
 10
266.3918821608
 20
202.0553036709
 10
266.2930741051
 20
201.9332858839
 10
266.1820529984
 20
201.8222647772
 10
266.0600352114
 20
201.7234567215
 10
265.9283575963
 20
201.6379442784
 10
265.7884628407
 20
201.5666643402
 10
265.6418836608001
 20
201.5103978647
 10
265.4902260088
 20
201.4697613193
 10
265.3351514776
 20
201.4451999265
 10
265.1783590963
 20
201.436982786
 10
265.1783590963
 20
202.936979786
  0
HATCH
  5
262
330
210
100
AcDbEntity
  8
1
  6
Continuous
 62
     4
100
AcDbHatch
 10
0.0
 20
0.0
 30
0.0
210
0.0
220
0.0
230
1.0
  2
SOLID
 70
     1
 71
     1
 91
        1
 92
        1
 93
       17
 72
     1
 10
265.1783590963
 20
202.936979786
 11
266.6783560963001
 21
202.936979786
 72
     1
 10
266.6783560963001
 20
202.936979786
 11
266.6701389558
 21
202.7801874047
 72
     1
 10
266.6701389558
 20
202.7801874047
 11
266.645577563
 21
202.6251128735
 72
     1
 10
266.645577563
 20
202.6251128735
 11
266.6049410176
 21
202.4734552215
 72
     1
 10
266.6049410176
 20
202.4734552215
 11
266.5486745421
 21
202.3268760416
 72
     1
 10
266.5486745421
 20
202.3268760416
 11
266.4773946039
 21
202.186981286
 72
     1
 10
266.4773946039
 20
202.186981286
 11
266.3918821608
 21
202.0553036709
 72
     1
 10
266.3918821608
 20
202.0553036709
 11
266.2930741051
 21
201.9332858839
 72
     1
 10
266.2930741051
 20
201.9332858839
 11
266.1820529984
 21
201.8222647772
 72
     1
 10
266.1820529984
 20
201.8222647772
 11
266.0600352114
 21
201.7234567215
 72
     1
 10
266.0600352114
 20
201.7234567215
 11
265.9283575963
 21
201.6379442784
 72
     1
 10
265.9283575963
 20
201.6379442784
 11
265.7884628407
 21
201.5666643402
 72
     1
 10
265.7884628407
 20
201.5666643402
 11
265.6418836608001
 21
201.5103978647
 72
     1
 10
265.6418836608001
 20
201.5103978647
 11
265.4902260088
 21
201.4697613193
 72
     1
 10
265.4902260088
 20
201.4697613193
 11
265.3351514776
 21
201.4451999265
 72
     1
 10
265.3351514776
 20
201.4451999265
 11
265.1783590963
 21
201.436982786
 72
     1
 10
265.1783590963
 20
201.436982786
 11
265.1783590963
 21
202.936979786
 97
        1
330
261
 75
     0
 76
     1
 98
        1
 10
0.0
 20
0.0
  0
LINE
  5
263
330
210
100
AcDbEntity
  8
1
  6
Continuous
 62
     4
100
AcDbLine
 10
265.1783590963
 20
201.436982786
 30
0.0
 11
265.1783590963
 21
202.936979786
 31
0.0
  0
ARC
  5
264
330
210
100
AcDbEntity
  8
1
  6
Continuous
 62
     4
100
AcDbCircle
 10
265.1783590963
 20
202.936979786
 30
0.0
 40
1.499997
100
AcDbArc
 50
270.0
 51
360.0
  0
LINE
  5
265
330
210
100
AcDbEntity
  8
1
  6
Continuous
 62
     4
100
AcDbLine
 10
266.6783560963001
 20
202.936979786
 30
0.0
 11
265.1783590963
 21
202.936979786
 31
0.0
  0
ENDBLK
  5
266
330
210
100
AcDbEntity
  8
0
  6
ByBlock
 62
     0
100
AcDbBlockEnd
  0
BLOCK
  5
267
330
211
100
AcDbEntity
  8
1
  6
Continuous
 62
     3
100
AcDbBlockBegin
  2
EINFUEGEPUNKT_BL1
 70
     0
 10
307.1783590963
 20
202.936979786
 30
0.0
  3
EINFUEGEPUNKT_BL1
  1

  0
LINE
  5
268
330
211
100
AcDbEntity
  8
1
  6
Continuous
 62
     4
100
AcDbLine
 10
307.1783590963
 20
202.936979786
 30
0.0
 11
307.1783590963
 21
202.436980786
 31
0.0
  0
ARC
  5
269
330
211
100
AcDbEntity
  8
1
  6
Continuous
 62
     4
100
AcDbCircle
 10
307.1783590963
 20
202.936979786
 30
0.0
 40
0.4999990000000001
100
AcDbArc
 50
90.0
 51
180.0
  0
LINE
  5
26A
330
211
100
AcDbEntity
  8
1
  6
Continuous
 62
     4
100
AcDbLine
 10
307.1783590963
 20
202.936979786
 30
0.0
 11
306.6783600963
 21
202.936979786
 31
0.0
  0
ARC
  5
26B
330
211
100
AcDbEntity
  8
1
  6
Continuous
 62
     4
100
AcDbCircle
 10
307.1783590963
 20
202.936979786
 30
0.0
 40
0.4999990000000001
100
AcDbArc
 50
180.0
 51
270.0
  0
ARC
  5
26C
330
211
100
AcDbEntity
  8
1
  6
Continuous
 62
     4
100
AcDbCircle
 10
307.1783590963
 20
202.936979786
 30
0.0
 40
0.4999990000000001
100
AcDbArc
 50
270.0
 51
360.0
  0
ARC
  5
26D
330
211
100
AcDbEntity
  8
1
  6
Continuous
 62
     4
100
AcDbCircle
 10
307.1783590963
 20
202.936979786
 30
0.0
 40
0.4999990000000001
100
AcDbArc
 50
0.0
 51
90.0
  0
LINE
  5
26E
330
211
100
AcDbEntity
  8
1
  6
Continuous
 62
     4
100
AcDbLine
 10
307.6783580963
 20
202.936979786
 30
0.0
 11
307.1783590963
 21
202.936979786
 31
0.0
  0
LINE
  5
26F
330
211
100
AcDbEntity
  8
1
  6
Continuous
 62
     4
100
AcDbLine
 10
307.1783590963
 20
203.436978786
 30
0.0
 11
307.1783590963
 21
202.936979786
 31
0.0
  0
LWPOLYLINE
  5
270
330
211
100
AcDbEntity
  8
1
  6
Continuous
 62
     4
100
AcDbPolyline
 90
       18
 70
     0
 43
0.0
 10
307.1783590963
 20
202.936979786
 10
307.1783590963
 20
203.436978786
 10
307.2306232234
 20
203.4342397392
 10
307.2823147338
 20
203.4260526082
 10
307.3328672845
 20
203.4125070931
 10
307.3817270111
 20
203.3937516013
 10
307.4283585963
 20
203.3699916219
 10
307.4722511347
 20
203.3414874742
 10
307.5129237303
 20
203.3085514556
 10
307.5499307659
 20
203.27154442
 10
307.5828667845
 20
203.2308718244
 10
307.6113709322001
 20
203.186979286
 10
307.6351309116
 20
203.1403477008
 10
307.6538864034
 20
203.0914879742
 10
307.6674319185
 20
203.0409354235
 10
307.6756190495
 20
202.9892439131
 10
307.6783580963
 20
202.936979786
 10
307.1783590963
 20
202.936979786
  0
HATCH
  5
271
330
211
100
AcDbEntity
  8
1
  6
Continuous
 62
     4
100
AcDbHatch
 10
0.0
 20
0.0
 30
0.0
210
0.0
220
0.0
230
1.0
  2
SOLID
 70
     1
 71
     1
 91
        1
 92
        1
 93
       17
 72
     1
 10
307.1783590963
 20
202.936979786
 11
307.1783590963
 21
203.436978786
 72
     1
 10
307.1783590963
 20
203.436978786
 11
307.2306232234
 21
203.4342397392
 72
     1
 10
307.2306232234
 20
203.4342397392
 11
307.2823147338
 21
203.4260526082
 72
     1
 10
307.2823147338
 20
203.4260526082
 11
307.3328672845
 21
203.4125070931
 72
     1
 10
307.3328672845
 20
203.4125070931
 11
307.3817270111
 21
203.3937516013
 72
     1
 10
307.3817270111
 20
203.3937516013
 11
307.4283585963
 21
203.3699916219
 72
     1
 10
307.4283585963
 20
203.3699916219
 11
307.4722511347
 21
203.3414874742
 72
     1
 10
307.4722511347
 20
203.3414874742
 11
307.5129237303
 21
203.3085514556
 72
     1
 10
307.5129237303
 20
203.3085514556
 11
307.5499307659
 21
203.27154442
 72
     1
 10
307.5499307659
 20
203.27154442
 11
307.5828667845
 21
203.2308718244
 72
     1
 10
307.5828667845
 20
203.2308718244
 11
307.6113709322001
 21
203.186979286
 72
     1
 10
307.6113709322001
 20
203.186979286
 11
307.6351309116
 21
203.1403477008
 72
     1
 10
307.6351309116
 20
203.1403477008
 11
307.6538864034
 21
203.0914879742
 72
     1
 10
307.6538864034
 20
203.0914879742
 11
307.6674319185
 21
203.0409354235
 72
     1
 10
307.6674319185
 20
203.0409354235
 11
307.6756190495
 21
202.9892439131
 72
     1
 10
307.6756190495
 20
202.9892439131
 11
307.6783580963
 21
202.936979786
 72
     1
 10
307.6783580963
 20
202.936979786
 11
307.1783590963
 21
202.936979786
 97
        1
330
270
 75
     0
 76
     1
 98
        1
 10
0.0
 20
0.0
  0
LWPOLYLINE
  5
272
330
211
100
AcDbEntity
  8
1
  6
Continuous
 62
     4
100
AcDbPolyline
 90
       18
 70
     0
 43
0.0
 10
307.1783590963
 20
202.936979786
 10
307.1783590963
 20
202.436980786
 10
307.1260949692
 20
202.4397198328
 10
307.0744034588
 20
202.4479069638
 10
307.0238509081
 20
202.4614524789
 10
306.9749911815
 20
202.4802079707
 10
306.9283595963
 20
202.5039679501
 10
306.8844670579
 20
202.5324720978
 10
306.8437944623
 20
202.5654081164
 10
306.8067874267
 20
202.602415152
 10
306.7738514081
 20
202.6430877476
 10
306.7453472604
 20
202.686980286
 10
306.721587281
 20
202.7336118712
 10
306.7028317892
 20
202.7824715978
 10
306.6892862741
 20
202.8330241485
 10
306.6810991431
 20
202.8847156589
 10
306.6783600963
 20
202.936979786
 10
307.1783590963
 20
202.936979786
  0
HATCH
  5
273
330
211
100
AcDbEntity
  8
1
  6
Continuous
 62
     4
100
AcDbHatch
 10
0.0
 20
0.0
 30
0.0
210
0.0
220
0.0
230
1.0
  2
SOLID
 70
     1
 71
     1
 91
        1
 92
        1
 93
       17
 72
     1
 10
307.1783590963
 20
202.936979786
 11
307.1783590963
 21
202.436980786
 72
     1
 10
307.1783590963
 20
202.436980786
 11
307.1260949692
 21
202.4397198328
 72
     1
 10
307.1260949692
 20
202.4397198328
 11
307.0744034588
 21
202.4479069638
 72
     1
 10
307.0744034588
 20
202.4479069638
 11
307.0238509081
 21
202.4614524789
 72
     1
 10
307.0238509081
 20
202.4614524789
 11
306.9749911815
 21
202.4802079707
 72
     1
 10
306.9749911815
 20
202.4802079707
 11
306.9283595963
 21
202.5039679501
 72
     1
 10
306.9283595963
 20
202.5039679501
 11
306.8844670579
 21
202.5324720978
 72
     1
 10
306.8844670579
 20
202.5324720978
 11
306.8437944623
 21
202.5654081164
 72
     1
 10
306.8437944623
 20
202.5654081164
 11
306.8067874267
 21
202.602415152
 72
     1
 10
306.8067874267
 20
202.602415152
 11
306.7738514081
 21
202.6430877476
 72
     1
 10
306.7738514081
 20
202.6430877476
 11
306.7453472604
 21
202.686980286
 72
     1
 10
306.7453472604
 20
202.686980286
 11
306.721587281
 21
202.7336118712
 72
     1
 10
306.721587281
 20
202.7336118712
 11
306.7028317892
 21
202.7824715978
 72
     1
 10
306.7028317892
 20
202.7824715978
 11
306.6892862741
 21
202.8330241485
 72
     1
 10
306.6892862741
 20
202.8330241485
 11
306.6810991431
 21
202.8847156589
 72
     1
 10
306.6810991431
 20
202.8847156589
 11
306.6783600963
 21
202.936979786
 72
     1
 10
306.6783600963
 20
202.936979786
 11
307.1783590963
 21
202.936979786
 97
        1
330
272
 75
     0
 76
     1
 98
        1
 10
0.0
 20
0.0
  0
LINE
  5
274
330
211
100
AcDbEntity
  8
1
  6
Continuous
 62
     4
100
AcDbLine
 10
306.6783600963
 20
202.936979786
 30
0.0
 11
307.1783590963
 21
202.936979786
 31
0.0
  0
ARC
  5
275
330
211
100
AcDbEntity
  8
1
  6
Continuous
 62
     4
100
AcDbCircle
 10
307.1783590963
 20
202.936979786
 30
0.0
 40
0.4999990000000001
100
AcDbArc
 50
180.0
 51
270.0
  0
LINE
  5
276
330
211
100
AcDbEntity
  8
1
  6
Continuous
 62
     4
100
AcDbLine
 10
307.1783590963
 20
202.436980786
 30
0.0
 11
307.1783590963
 21
202.936979786
 31
0.0
  0
ENDBLK
  5
277
330
211
100
AcDbEntity
  8
0
  6
ByBlock
 62
     0
100
AcDbBlockEnd
  0
ENDSEC
  0
SECTION
  2
ENTITIES
  0
DIMENSION
  5
27B
330
1B
100
AcDbEntity
  8
SK2
100
AcDbDimension
  2
*D1
 10
-29.62499999999999
 20
175.0
 30
0.0
 11
-29.62500000000003
 21
0.0
 31
0.0
 70
   160
  1
%%c350
 71
     5
 42
350.0
  3
ISO-25
100
AcDbAlignedDimension
 13
1.0
 23
-175.0
 33
0.0
 14
1.0
 24
175.0
 34
0.0
 50
90.0
100
AcDbRotatedDimension
  0
DIMENSION
  5
27C
330
1B
100
AcDbEntity
  8
2
100
AcDbDimension
  2
*D2
 10
42.0
 20
187.625
 30
0.0
 11
21.0
 21
187.625
 31
0.0
 70
   160
  1
42
 71
     5
 42
42.0
  3
ISO-25
100
AcDbAlignedDimension
 13
0.0
 23
141.0
 33
0.0
 14
42.0
 24
176.0
 34
0.0
100
AcDbRotatedDimension
  0
DIMENSION
  5
27D
330
1B
100
AcDbEntity
  8
SK2
100
AcDbDimension
  2
*D3
 10
85.87499999999996
 20
108.0
 30
0.0
 11
85.87499999999995
 21
0.0
 31
0.0
 70
   160
  1
%%c216
 71
     5
 42
216.0
  3
ISO-25
100
AcDbAlignedDimension
 13
71.0
 23
-108.0
 33
0.0
 14
71.0
 24
108.0
 34
0.0
 50
90.0
100
AcDbRotatedDimension
  0
DIMENSION
  5
27E
330
1B
100
AcDbEntity
  8
SK2
100
AcDbDimension
  2
*D4
 10
0.0000000000000033
 20
196.125
 30
0.0
 11
35.0
 21
196.125
 31
0.0
 70
   160
  1
70
 71
     5
 42
70.0
  3
ISO-25
100
AcDbAlignedDimension
 13
70.0
 23
110.563020214
 33
0.0
 14
0.0
 24
141.563020214
 34
0.0
 50
180.0
100
AcDbRotatedDimension
  0
DIMENSION
  5
27F
330
1B
100
AcDbEntity
  8
SK2
100
AcDbDimension
  2
*D5
 10
77.375
 20
31.5
 30
0.0
 11
77.375
 21
0.0
 31
0.0
 70
   160
  1
%%c63
 71
     5
 42
63.0
  3
ISO-25
100
AcDbAlignedDimension
 13
71.0
 23
-31.5
 33
0.0
 14
71.0
 24
31.5
 34
0.0
 50
90.0
100
AcDbRotatedDimension
  0
DIMENSION
  5
280
330
1B
100
AcDbEntity
  8
SK2
100
AcDbDimension
  2
*D6
 10
-12.62500000000002
 20
30.0
 30
0.0
 11
-12.62500000000003
 21
0.0
 31
0.0
 70
   160
  1
%%c60
 71
     5
 42
60.0
  3
ISO-25
100
AcDbAlignedDimension
 13
-1.0
 23
-30.0
 33
0.0
 14
-1.0
 24
30.0
 34
0.0
 50
90.0
100
AcDbRotatedDimension
  0
DIMENSION
  5
281
330
1B
100
AcDbEntity
  8
SK2
100
AcDbDimension
  2
*D7
 10
-21.125
 20
140.0
 30
0.0
 11
-21.12500000000003
 21
0.0
 31
0.0
 70
   160
  1
%%c280
 71
     5
 42
280.0
  3
ISO-25
100
AcDbAlignedDimension
 13
-1.0
 23
-140.0
 33
0.0
 14
-1.0
 24
140.0
 34
0.0
 50
90.0
100
AcDbRotatedDimension
  0
TEXT
  5
282
330
1B
100
AcDbEntity
  8
6
100
AcDbText
 10
62.75827866046281
 20
-160.2515793729444
 30
0.0
 40
5.0
  1
FBD60BAJ216GA350
 41
0.8
 72
     1
 11
86.15985346361242
 21
-160.2515793729444
 31
0.0
100
AcDbText
  0
INSERT
  5
283
330
1B
100
AcDbEntity
  8
1
100
AcDbBlockReference
  2
NULLPUNKT_BL0
 10
0.0
 20
0.0
 30
0.0
  0
INSERT
  5
284
330
1B
100
AcDbEntity
  8
1
100
AcDbBlockReference
  2
EINFUEGEPUNKT_BL1
 10
42.0
 20
0.0
 30
0.0
  0
LINE
  5
285
330
1B
100
AcDbEntity
  8
1
100
AcDbLine
 10
40.39999999999998
 20
-175.0
 30
0.0
 11
3.599999999999965
 21
-175.0
 31
0.0
  0
LINE
  5
286
330
1B
100
AcDbEntity
  8
1
100
AcDbLine
 10
0.3999999999999772
 20
-140.0
 30
0.0
 11
0.0
 21
-140.0
 31
0.0
  0
LINE
  5
287
330
1B
100
AcDbEntity
  8
SK1
100
AcDbLine
 10
70.0
 20
-108.0
 30
0.0
 11
42.0
 21
-108.0
 31
0.0
  0
LINE
  5
288
330
1B
100
AcDbEntity
  8
NOCUT
100
AcDbLine
 10
0.0
 20
140.0
 30
0.0
 11
0.0
 21
0.0
 31
0.0
  0
LINE
  5
289
330
1B
100
AcDbEntity
  8
1
100
AcDbLine
 10
0.0
 20
140.0
 30
0.0
 11
0.0
 21
-140.0
 31
0.0
  0
LINE
  5
28A
330
1B
100
AcDbEntity
  8
NOCUT
100
AcDbLine
 10
2.0
 20
173.3999999999999
 30
0.0
 11
2.0
 21
141.5999999999999
 31
0.0
  0
LINE
  5
28B
330
1B
100
AcDbEntity
  8
1
100
AcDbLine
 10
2.0
 20
173.3999999999999
 30
0.0
 11
2.0
 21
-173.4
 31
0.0
  0
LINE
  5
28C
330
1B
100
AcDbEntity
  8
SK3
100
AcDbLine
 10
70.0
 20
-31.5
 30
0.0
 11
37.0
 21
-31.5
 31
0.0
  0
LINE
  5
28D
330
1B
100
AcDbEntity
  8
SK3
100
AcDbLine
 10
37.0
 20
-30.0
 30
0.0
 11
0.0
 21
-30.0
 31
0.0
  0
LINE
  5
28E
330
1B
100
AcDbEntity
  8
NOCUT
100
AcDbLine
 10
42.0
 20
0.0
 30
0.0
 11
0.0
 21
0.0
 31
0.0
  0
LINE
  5
28F
330
1B
100
AcDbEntity
  8
4
100
AcDbLine
 10
73.0
 20
0.0
 30
0.0
 11
-3.0
 21
0.0
 31
0.0
  0
LINE
  5
290
330
1B
100
AcDbEntity
  8
SK3
100
AcDbLine
 10
37.0
 20
31.5
 30
0.0
 11
37.0
 21
-31.5
 31
0.0
  0
LINE
  5
291
330
1B
100
AcDbEntity
  8
NOCUT
100
AcDbLine
 10
42.0
 20
173.3999999999999
 30
0.0
 11
42.0
 21
0.0
 31
0.0
  0
LINE
  5
292
330
1B
100
AcDbEntity
  8
1
100
AcDbLine
 10
42.0
 20
173.3999999999999
 30
0.0
 11
42.0
 21
-173.4
 31
0.0
  0
LINE
  5
293
330
1B
100
AcDbEntity
  8
SK3
100
AcDbLine
 10
37.0
 20
30.0
 30
0.0
 11
0.0
 21
30.0
 31
0.0
  0
LINE
  5
294
330
1B
100
AcDbEntity
  8
SK1
100
AcDbLine
 10
70.0
 20
108.0
 30
0.0
 11
70.0
 21
-108.0
 31
0.0
  0
LINE
  5
295
330
1B
100
AcDbEntity
  8
SK3
100
AcDbLine
 10
70.0
 20
31.5
 30
0.0
 11
37.0
 21
31.5
 31
0.0
  0
LINE
  5
296
330
1B
100
AcDbEntity
  8
SK1
100
AcDbLine
 10
70.0
 20
108.0
 30
0.0
 11
42.0
 21
108.0
 31
0.0
  0
LINE
  5
297
330
1B
100
AcDbEntity
  8
NOCUT
100
AcDbLine
 10
0.3999999999999772
 20
140.0
 30
0.0
 11
0.0
 21
140.0
 31
0.0
  0
LINE
  5
298
330
1B
100
AcDbEntity
  8
1
100
AcDbLine
 10
0.3999999999999772
 20
140.0
 30
0.0
 11
0.0
 21
140.0
 31
0.0
  0
LINE
  5
299
330
1B
100
AcDbEntity
  8
NOCUT
100
AcDbLine
 10
40.39999999999998
 20
175.0
 30
0.0
 11
3.599999999999965
 21
175.0
 31
0.0
  0
LINE
  5
29A
330
1B
100
AcDbEntity
  8
1
100
AcDbLine
 10
40.39999999999998
 20
175.0
 30
0.0
 11
3.599999999999965
 21
175.0
 31
0.0
  0
ARC
  5
29B
330
1B
100
AcDbEntity
  8
NOCUT
100
AcDbCircle
 10
3.599999999999965
 20
173.3999999999999
 30
0.0
 40
1.6
100
AcDbArc
 50
90.0
 51
180.0
  0
ARC
  5
29C
330
1B
100
AcDbEntity
  8
NOCUT
100
AcDbCircle
 10
40.39999999999998
 20
173.3999999999999
 30
0.0
 40
1.6
100
AcDbArc
 50
0.0
 51
90.0
  0
ARC
  5
29D
330
1B
100
AcDbEntity
  8
NOCUT
100
AcDbCircle
 10
0.3999999999999772
 20
141.5999999999999
 30
0.0
 40
1.6
100
AcDbArc
 50
270.0
 51
359.9999999997
  0
ARC
  5
29E
330
1B
100
AcDbEntity
  8
1
100
AcDbCircle
 10
3.599999999999965
 20
-173.4
 30
0.0
 40
1.6
100
AcDbArc
 50
180.0
 51
270.0
  0
ARC
  5
29F
330
1B
100
AcDbEntity
  8
1
100
AcDbCircle
 10
3.599999999999965
 20
173.3999999999999
 30
0.0
 40
1.6
100
AcDbArc
 50
90.0
 51
180.0
  0
ARC
  5
2A0
330
1B
100
AcDbEntity
  8
1
100
AcDbCircle
 10
40.39999999999998
 20
-173.4
 30
0.0
 40
1.6
100
AcDbArc
 50
270.0
 51
0.0
  0
ARC
  5
2A1
330
1B
100
AcDbEntity
  8
1
100
AcDbCircle
 10
40.39999999999998
 20
173.3999999999999
 30
0.0
 40
1.6
100
AcDbArc
 50
0.0
 51
90.0
  0
ARC
  5
2A2
330
1B
100
AcDbEntity
  8
1
100
AcDbCircle
 10
0.3999999999999772
 20
-141.6
 30
0.0
 40
1.6
100
AcDbArc
 50
0.0000000001
 51
90.0
  0
ARC
  5
2A3
330
1B
100
AcDbEntity
  8
1
100
AcDbCircle
 10
0.3999999999999772
 20
141.5999999999999
 30
0.0
 40
1.6
100
AcDbArc
 50
270.0
 51
359.9999999997
  0
ENDSEC
  0
SECTION
  2
OBJECTS
  0
DICTIONARY
  5
2A4
330
0
100
AcDbDictionary
281
     1
  3
ACAD_COLOR
350
2AE
  3
ACAD_GROUP
350
2A5
  3
ACAD_LAYOUT
350
2B1
  3
ACAD_MATERIAL
350
2AD
  3
ACAD_MLINESTYLE
350
2A6
  3
ACAD_PLOTSETTINGS
350
2B2
  3
ACAD_PLOTSTYLENAME
350
2AB
  3
ACAD_TABLESTYLE
350
2AF
  3
ACDBHEADERROUNDTRIPXREC
350
61F
  3
AcDbVariableDictionary
350
614
  0
DICTIONARY
  5
2B7
330
2
100
AcDbDictionary
280
     1
281
     1
  3
ACAD_LAYERFILTERS
360
5D4
  3
ACLYDICTIONARY
360
5D3
  0
DICTIONARY
  5
2AE
102
{ACAD_REACTORS
330
2A4
102
}
330
2A4
100
AcDbDictionary
281
     1
  0
DICTIONARY
  5
2A5
102
{ACAD_REACTORS
330
2A4
102
}
330
2A4
100
AcDbDictionary
281
     1
  0
DICTIONARY
  5
2B1
102
{ACAD_REACTORS
330
2A4
102
}
330
2A4
100
AcDbDictionary
281
     1
  3
Layout1
350
2B4
  3
Model
350
2B3
  0
DICTIONARY
  5
2AD
102
{ACAD_REACTORS
330
2A4
102
}
330
2A4
100
AcDbDictionary
281
     1
  0
DICTIONARY
  5
2A6
102
{ACAD_REACTORS
330
2A4
102
}
330
2A4
100
AcDbDictionary
281
     1
  3
STANDARD
350
2A7
  0
DICTIONARY
  5
2B2
102
{ACAD_REACTORS
330
2A4
102
}
330
2A4
100
AcDbDictionary
281
     1
  0
ACDBDICTIONARYWDFLT
  5
2AB
102
{ACAD_REACTORS
330
2A4
102
}
330
2A4
100
AcDbDictionary
281
     1
  3
Normal
350
2AC
100
AcDbDictionaryWithDefault
340
2AC
  0
DICTIONARY
  5
2AF
102
{ACAD_REACTORS
330
2A4
102
}
330
2A4
100
AcDbDictionary
281
     1
  3
Standard
350
2B0
  0
DICTIONARY
  5
61F
102
{ACAD_REACTORS
330
2A4
102
}
330
2A4
100
AcDbDictionary
281
     1
  0
DICTIONARY
  5
614
102
{ACAD_REACTORS
330
2A4
102
}
330
2A4
100
AcDbDictionary
281
     1
  3
CTABLESTYLE
350
615
  3
DIMASSOC
350
616
  3
PROJECTNAME
350
617
  0
DICTIONARY
  5
5D4
102
{ACAD_REACTORS
330
2B7
102
}
330
2B7
100
AcDbDictionary
281
     1
  0
DICTIONARY
  5
5D3
102
{ACAD_REACTORS
330
2B7
102
}
330
2B7
100
AcDbDictionary
281
     1
1001
ACAD
1000
<All
  0
LAYOUT
  5
2B4
102
{ACAD_XDICTIONARY
360
622
102
}
102
{ACAD_REACTORS
330
2B1
102
}
330
2B1
100
AcDbPlotSettings
  1

  2
\\ingdom02\ITB3
  4

  6

 40
0.0
 41
0.0
 42
0.0
 43
0.0
 44
0.0
 45
0.0
 46
0.0
 47
0.0
 48
0.0
 49
0.0
140
0.0
141
0.0
142
1.0
143
1.0
 70
   688
 72
     0
 73
     0
 74
     5
  7

 75
    16
147
1.0
148
0.0
149
0.0
100
AcDbLayout
  1
Layout1
 70
     1
 71
     1
 10
0.0
 20
0.0
 11
12.0
 21
9.0
 12
0.0
 22
0.0
 32
0.0
 14
1.000000000000000E+20
 24
1.000000000000000E+20
 34
1.000000000000000E+20
 15
-1.000000000000000E+20
 25
-1.000000000000000E+20
 35
-1.000000000000000E+20
146
0.0
 13
0.0
 23
0.0
 33
0.0
 16
1.0
 26
0.0
 36
0.0
 17
0.0
 27
1.0
 37
0.0
 76
     0
330
1C
  0
LAYOUT
  5
2B3
102
{ACAD_XDICTIONARY
360
620
102
}
102
{ACAD_REACTORS
330
2B1
102
}
330
2B1
100
AcDbPlotSettings
  1

  2
\\ingdom02\ITB3
  4

  6

 40
0.0
 41
0.0
 42
0.0
 43
0.0
 44
0.0
 45
0.0
 46
0.0
 47
0.0
 48
0.0
 49
0.0
140
0.0
141
0.0
142
1.0
143
1.0
 70
  1712
 72
     0
 73
     0
 74
     0
  7

 75
     0
147
1.0
148
0.0
149
0.0
100
AcDbLayout
  1
Model
 70
     1
 71
     0
 10
0.0
 20
0.0
 11
12.0
 21
9.0
 12
0.0
 22
0.0
 32
0.0
 14
0.0
 24
0.0
 34
0.0
 15
0.0
 25
0.0
 35
0.0
146
0.0
 13
0.0
 23
0.0
 33
0.0
 16
1.0
 26
0.0
 36
0.0
 17
0.0
 27
1.0
 37
0.0
 76
     0
330
1B
  0
MLINESTYLE
  5
2A7
102
{ACAD_REACTORS
330
2A6
102
}
330
2A6
100
AcDbMlineStyle
  2
STANDARD
 70
     0
  3

 62
   256
 51
90.0
 52
90.0
 71
     2
 49
0.5
 62
   256
  6
BYLAYER
 49
-0.5
 62
   256
  6
BYLAYER
  0
ACDBPLACEHOLDER
  5
2AC
102
{ACAD_REACTORS
330
2AB
102
}
330
2AB
  0
TABLESTYLE
  5
2B0
102
{ACAD_REACTORS
330
2AF
102
}
330
2AF
100
AcDbTableStyle
  3
Standard
 70
     0
 71
     0
 40
1.5
 41
1.5
280
     0
281
     0
  7
STANDARD
140
4.5
170
     2
 62
     0
 63
     7
283
     0
274
    -2
284
     1
 64
     0
275
    -2
285
     1
 65
     0
276
    -2
286
     1
 66
     0
277
    -2
287
     1
 67
     0
278
    -2
288
     1
 68
     0
279
    -2
289
     1
 69
     0
  7
STANDARD
140
6.0
170
     5
 62
     0
 63
     7
283
     0
274
    -2
284
     1
 64
     0
275
    -2
285
     1
 65
     0
276
    -2
286
     1
 66
     0
277
    -2
287
     1
 67
     0
278
    -2
288
     1
 68
     0
279
    -2
289
     1
 69
     0
  7
STANDARD
140
4.5
170
     5
 62
     0
 63
     7
283
     0
274
    -2
284
     1
 64
     0
275
    -2
285
     1
 65
     0
276
    -2
286
     1
 66
     0
277
    -2
287
     1
 67
     0
278
    -2
288
     1
 68
     0
279
    -2
289
     1
 69
     0
  0
DICTIONARYVAR
  5
615
102
{ACAD_REACTORS
330
614
102
}
330
614
100
DictionaryVariables
280
     0
  1
STANDARD
  0
DICTIONARYVAR
  5
616
102
{ACAD_REACTORS
330
614
102
}
330
614
100
DictionaryVariables
280
     0
  1
1
  0
DICTIONARYVAR
  5
617
102
{ACAD_REACTORS
330
614
102
}
330
614
100
DictionaryVariables
280
     0
  1

  0
DICTIONARY
  5
622
330
2B4
100
AcDbDictionary
280
     1
281
     1
  3
ACAD_XREC_ROUNDTRIP
360
623
  0
DICTIONARY
  5
620
330
2B3
100
AcDbDictionary
280
     1
281
     1
  3
ACAD_XREC_ROUNDTRIP
360
621
  0
XRECORD
  5
623
102
{ACAD_REACTORS
330
622
102
}
330
622
100
AcDbXrecord
280
     1
102
SHADEPLOT
 70
     0
102
SHADEPLOTRESLEVEL
 70
     2
102
SHADEPLOTCUSTOMDPI
 70
   300
  0
XRECORD
  5
621
102
{ACAD_REACTORS
330
620
102
}
330
620
100
AcDbXrecord
280
     1
102
SHADEPLOT
 70
     0
102
SHADEPLOTRESLEVEL
 70
     2
102
SHADEPLOTCUSTOMDPI
 70
   300
  0
ENDSEC
  0
EOF
