  0
SECTION
  2
HEADER
  9
$ACADVER
  1
AC1015
  9
$ACADMAINTVER
 70
    20
  9
$DWGCODEPAGE
  3
ANSI_1252
  9
$INSBASE
 10
0.0
 20
0.0
 30
0.0
  9
$EXTMIN
 10
-33.59921130258499
 20
-155.007018245532
 30
-0.0015258207003583
  9
$EXTMAX
 10
104.8944405108859
 20
180.1034552884562
 30
0.0000000349246037
  9
$LIMMIN
 10
0.0
 20
0.0
  9
$LIMMAX
 10
594.0
 20
420.0
  9
$ORTHOMODE
 70
     0
  9
$REGENMODE
 70
     1
  9
$FILLMODE
 70
     1
  9
$QTEXTMODE
 70
     0
  9
$MIRRTEXT
 70
     0
  9
$LTSCALE
 40
32.67
  9
$ATTMODE
 70
     1
  9
$TEXTSIZE
 40
0.2
  9
$TRACEWID
 40
0.05
  9
$TEXTSTYLE
  7
STANDARD
  9
$CLAYER
  8
0
  9
$CELTYPE
  6
BYLAYER
  9
$CECOLOR
 62
   256
  9
$CELTSCALE
 40
1.0
  9
$DISPSILH
 70
     0
  9
$DIMSCALE
 40
1.0
  9
$DIMASZ
 40
3.5
  9
$DIMEXO
 40
0.625
  9
$DIMDLI
 40
3.75
  9
$DIMRND
 40
0.0
  9
$DIMDLE
 40
0.0
  9
$DIMEXE
 40
2.0
  9
$DIMTP
 40
0.0
  9
$DIMTM
 40
0.0
  9
$DIMTXT
 40
3.5
  9
$DIMCEN
 40
2.5
  9
$DIMTSZ
 40
0.0
  9
$DIMTOL
 70
     0
  9
$DIMLIM
 70
     0
  9
$DIMTIH
 70
     0
  9
$DIMTOH
 70
     0
  9
$DIMSE1
 70
     0
  9
$DIMSE2
 70
     0
  9
$DIMTAD
 70
     1
  9
$DIMZIN
 70
     8
  9
$DIMBLK
  1

  9
$DIMASO
 70
     1
  9
$DIMSHO
 70
     1
  9
$DIMPOST
  1

  9
$DIMAPOST
  1

  9
$DIMALT
 70
     0
  9
$DIMALTD
 70
     3
  9
$DIMALTF
 40
0.03937007874016
  9
$DIMLFAC
 40
1.0
  9
$DIMTOFL
 70
     1
  9
$DIMTVP
 40
0.0
  9
$DIMTIX
 70
     0
  9
$DIMSOXD
 70
     0
  9
$DIMSAH
 70
     0
  9
$DIMBLK1
  1

  9
$DIMBLK2
  1

  9
$DIMSTYLE
  2
ISO-25
  9
$DIMCLRD
 70
   256
  9
$DIMCLRE
 70
   256
  9
$DIMCLRT
 70
   256
  9
$DIMTFAC
 40
1.0
  9
$DIMGAP
 40
0.625
  9
$DIMJUST
 70
     0
  9
$DIMSD1
 70
     0
  9
$DIMSD2
 70
     0
  9
$DIMTOLJ
 70
     0
  9
$DIMTZIN
 70
     8
  9
$DIMALTZ
 70
     0
  9
$DIMALTTZ
 70
     0
  9
$DIMUPT
 70
     0
  9
$DIMDEC
 70
     2
  9
$DIMTDEC
 70
     2
  9
$DIMALTU
 70
     2
  9
$DIMALTTD
 70
     3
  9
$DIMTXSTY
  7
STANDARD
  9
$DIMAUNIT
 70
     0
  9
$DIMADEC
 70
     0
  9
$DIMALTRND
 40
0.0
  9
$DIMAZIN
 70
     0
  9
$DIMDSEP
 70
    46
  9
$DIMATFIT
 70
     3
  9
$DIMFRAC
 70
     0
  9
$DIMLDRBLK
  1

  9
$DIMLUNIT
 70
     2
  9
$DIMLWD
 70
    -2
  9
$DIMLWE
 70
    -2
  9
$DIMTMOVE
 70
     0
  9
$LUNITS
 70
     2
  9
$LUPREC
 70
     4
  9
$SKETCHINC
 40
0.1
  9
$FILLETRAD
 40
0.0
  9
$AUNITS
 70
     0
  9
$AUPREC
 70
     0
  9
$MENU
  1
.
  9
$ELEVATION
 40
0.0
  9
$PELEVATION
 40
0.0
  9
$THICKNESS
 40
0.0
  9
$LIMCHECK
 70
     0
  9
$CHAMFERA
 40
0.0
  9
$CHAMFERB
 40
0.0
  9
$CHAMFERC
 40
0.0
  9
$CHAMFERD
 40
0.0
  9
$SKPOLY
 70
     0
  9
$TDCREATE
 40
2453791.376490544
  9
$TDUCREATE
 40
2453791.334823877
  9
$TDUPDATE
 40
2453791.417436968
  9
$TDUUPDATE
 40
2453791.375770301
  9
$TDINDWG
 40
0.0409466088
  9
$TDUSRTIMER
 40
0.0409466088
  9
$USRTIMER
 70
     1
  9
$ANGBASE
 50
0.0
  9
$ANGDIR
 70
     0
  9
$PDMODE
 70
     3
  9
$PDSIZE
 40
0.3125
  9
$PLINEWID
 40
0.0
  9
$SPLFRAME
 70
     0
  9
$SPLINETYPE
 70
     6
  9
$SPLINESEGS
 70
     8
  9
$HANDSEED
  5
72E
  9
$SURFTAB1
 70
     6
  9
$SURFTAB2
 70
     6
  9
$SURFTYPE
 70
     6
  9
$SURFU
 70
     6
  9
$SURFV
 70
     6
  9
$UCSBASE
  2

  9
$UCSNAME
  2

  9
$UCSORG
 10
0.0
 20
0.0
 30
0.0
  9
$UCSXDIR
 10
1.0
 20
0.0
 30
0.0
  9
$UCSYDIR
 10
0.0
 20
1.0
 30
0.0
  9
$UCSORTHOREF
  2

  9
$UCSORTHOVIEW
 70
     0
  9
$UCSORGTOP
 10
0.0
 20
0.0
 30
0.0
  9
$UCSORGBOTTOM
 10
0.0
 20
0.0
 30
0.0
  9
$UCSORGLEFT
 10
0.0
 20
0.0
 30
0.0
  9
$UCSORGRIGHT
 10
0.0
 20
0.0
 30
0.0
  9
$UCSORGFRONT
 10
0.0
 20
0.0
 30
0.0
  9
$UCSORGBACK
 10
0.0
 20
0.0
 30
0.0
  9
$PUCSBASE
  2

  9
$PUCSNAME
  2

  9
$PUCSORG
 10
0.0
 20
0.0
 30
0.0
  9
$PUCSXDIR
 10
1.0
 20
0.0
 30
0.0
  9
$PUCSYDIR
 10
0.0
 20
1.0
 30
0.0
  9
$PUCSORTHOREF
  2

  9
$PUCSORTHOVIEW
 70
     0
  9
$PUCSORGTOP
 10
0.0
 20
0.0
 30
0.0
  9
$PUCSORGBOTTOM
 10
0.0
 20
0.0
 30
0.0
  9
$PUCSORGLEFT
 10
0.0
 20
0.0
 30
0.0
  9
$PUCSORGRIGHT
 10
0.0
 20
0.0
 30
0.0
  9
$PUCSORGFRONT
 10
0.0
 20
0.0
 30
0.0
  9
$PUCSORGBACK
 10
0.0
 20
0.0
 30
0.0
  9
$USERI1
 70
     0
  9
$USERI2
 70
     0
  9
$USERI3
 70
     0
  9
$USERI4
 70
     0
  9
$USERI5
 70
     0
  9
$USERR1
 40
0.0
  9
$USERR2
 40
0.0
  9
$USERR3
 40
0.0
  9
$USERR4
 40
0.0
  9
$USERR5
 40
0.0
  9
$WORLDVIEW
 70
     1
  9
$SHADEDGE
 70
     3
  9
$SHADEDIF
 70
    70
  9
$TILEMODE
 70
     1
  9
$MAXACTVP
 70
    64
  9
$PINSBASE
 10
0.0
 20
0.0
 30
0.0
  9
$PLIMCHECK
 70
     0
  9
$PEXTMIN
 10
1.000000000000000E+20
 20
1.000000000000000E+20
 30
1.000000000000000E+20
  9
$PEXTMAX
 10
-1.000000000000000E+20
 20
-1.000000000000000E+20
 30
-1.000000000000000E+20
  9
$PLIMMIN
 10
0.0
 20
0.0
  9
$PLIMMAX
 10
12.0
 20
9.0
  9
$UNITMODE
 70
     0
  9
$VISRETAIN
 70
     1
  9
$PLINEGEN
 70
     0
  9
$PSLTSCALE
 70
     1
  9
$TREEDEPTH
 70
  3020
  9
$CMLSTYLE
  2
STANDARD
  9
$CMLJUST
 70
     0
  9
$CMLSCALE
 40
1.0
  9
$PROXYGRAPHICS
 70
     1
  9
$MEASUREMENT
 70
     1
  9
$CELWEIGHT
370
    -1
  9
$ENDCAPS
280
     0
  9
$JOINSTYLE
280
     0
  9
$LWDISPLAY
290
     0
  9
$INSUNITS
 70
     0
  9
$HYPERLINKBASE
  1

  9
$STYLESHEET
  1

  9
$XEDIT
290
     1
  9
$CEPSNTYPE
380
     0
  9
$PSTYLEMODE
290
     1
  9
$FINGERPRINTGUID
  2
{FB1451B5-558A-4CDB-8FB4-B090798B97B1}
  9
$VERSIONGUID
  2
{0DA0C867-FF5E-4F71-9965-2047A3595538}
  9
$EXTNAMES
290
     1
  9
$PSVPSCALE
 40
0.0
  9
$OLESTARTUP
290
     0
  0
ENDSEC
  0
SECTION
  2
CLASSES
  0
CLASS
  1
ACDBDICTIONARYWDFLT
  2
AcDbDictionaryWithDefault
  3
ObjectDBX Classes
 90
        0
280
     0
281
     0
  0
CLASS
  1
TABLESTYLE
  2
AcDbTableStyle
  3
ObjectDBX Classes
 90
     2047
280
     0
281
     0
  0
CLASS
  1
DICTIONARYVAR
  2
AcDbDictionaryVar
  3
ObjectDBX Classes
 90
        0
280
     0
281
     0
  0
CLASS
  1
ACDBPLACEHOLDER
  2
AcDbPlaceHolder
  3
ObjectDBX Classes
 90
        0
280
     0
281
     0
  0
CLASS
  1
LAYOUT
  2
AcDbLayout
  3
ObjectDBX Classes
 90
        0
280
     0
281
     0
  0
ENDSEC
  0
SECTION
  2
TABLES
  0
TABLE
  2
VPORT
  5
8
330
0
100
AcDbSymbolTable
 70
     5
  0
VPORT
  5
728
330
8
100
AcDbSymbolTableRecord
100
AcDbViewportTableRecord
  2
*Active
 70
     0
 10
0.0
 20
0.0
 11
1.0
 21
1.0
 12
35.64761460415048
 22
12.5482185214621
 13
0.0
 23
0.0
 14
1.0
 24
1.0
 15
0.0
 25
0.0
 16
0.0
 26
0.0
 36
1.0
 17
0.0
 27
0.0
 37
0.0
 40
337.6238020854931
 41
1.494367959949937
 42
50.0
 43
0.0
 44
0.0
 50
0.0
 51
0.0
 71
     0
 72
   100
 73
     1
 74
     1
 75
     0
 76
     0
 77
     0
 78
     0
281
     0
 65
     1
110
0.0
120
0.0
130
0.0
111
1.0
121
0.0
131
0.0
112
0.0
122
1.0
132
0.0
 79
     0
146
0.0
  0
ENDTAB
  0
TABLE
  2
LTYPE
  5
5
330
0
100
AcDbSymbolTable
 70
     6
  0
LTYPE
  5
14
330
5
100
AcDbSymbolTableRecord
100
AcDbLinetypeTableRecord
  2
BYBLOCK
 70
     0
  3

 72
    65
 73
     0
 40
0.0
  0
LTYPE
  5
15
330
5
100
AcDbSymbolTableRecord
100
AcDbLinetypeTableRecord
  2
BYLAYER
 70
     0
  3

 72
    65
 73
     0
 40
0.0
  0
LTYPE
  5
16
330
5
100
AcDbSymbolTableRecord
100
AcDbLinetypeTableRecord
  2
CONTINUOUS
 70
     0
  3
Solid line
 72
    65
 73
     0
 40
0.0
  0
LTYPE
  5
1F5
330
5
100
AcDbSymbolTableRecord
100
AcDbLinetypeTableRecord
  2
CENTER
 70
     0
  3
____ _ ____ _ ____ _ ____ _ ____ _ ____ _ ____
 72
    65
 73
     4
 40
0.6
 49
0.375
 74
     0
 49
-0.075
 74
     0
 49
0.075
 74
     0
 49
-0.075
 74
     0
  0
LTYPE
  5
1F6
330
5
100
AcDbSymbolTableRecord
100
AcDbLinetypeTableRecord
  2
HIDDEN
 70
     0
  3
- - - - - - - - - - - - - - - - - - - -
 72
    65
 73
     2
 40
0.2
 49
0.1
 74
     0
 49
-0.1
 74
     0
  0
ENDTAB
  0
TABLE
  2
LAYER
  5
2
102
{ACAD_XDICTIONARY
360
515
102
}
330
0
100
AcDbSymbolTable
 70
    14
  0
LAYER
  5
10
330
2
100
AcDbSymbolTableRecord
100
AcDbLayerTableRecord
  2
0
 70
     0
 62
     7
  6
CONTINUOUS
370
    -3
390
2CE
  0
LAYER
  5
1FD
330
2
100
AcDbSymbolTableRecord
100
AcDbLayerTableRecord
  2
1
 70
     0
 62
     4
  6
CONTINUOUS
370
    -3
390
2CE
  0
LAYER
  5
1FE
330
2
100
AcDbSymbolTableRecord
100
AcDbLayerTableRecord
  2
2
 70
     0
 62
     7
  6
CONTINUOUS
370
    -3
390
2CE
  0
LAYER
  5
1FF
330
2
100
AcDbSymbolTableRecord
100
AcDbLayerTableRecord
  2
4
 70
     0
 62
     2
  6
CENTER
370
    -3
390
2CE
  0
LAYER
  5
200
330
2
100
AcDbSymbolTableRecord
100
AcDbLayerTableRecord
  2
6
 70
     0
 62
     5
  6
CONTINUOUS
370
    -3
390
2CE
  0
LAYER
  5
201
330
2
100
AcDbSymbolTableRecord
100
AcDbLayerTableRecord
  2
NOCUT
 70
     0
 62
     7
  6
CONTINUOUS
370
    -3
390
2CE
  0
LAYER
  5
202
330
2
100
AcDbSymbolTableRecord
100
AcDbLayerTableRecord
  2
SK1
 70
     0
 62
     4
  6
CONTINUOUS
370
    -3
390
2CE
  0
LAYER
  5
203
330
2
100
AcDbSymbolTableRecord
100
AcDbLayerTableRecord
  2
SK2
 70
     0
 62
     7
  6
CONTINUOUS
370
    -3
390
2CE
  0
LAYER
  5
204
330
2
100
AcDbSymbolTableRecord
100
AcDbLayerTableRecord
  2
SK3
 70
     0
 62
     1
  6
HIDDEN
370
    -3
390
2CE
  0
LAYER
  5
205
330
2
100
AcDbSymbolTableRecord
100
AcDbLayerTableRecord
  2
SK4
 70
     0
 62
     2
  6
CENTER
370
    -3
390
2CE
  0
LAYER
  5
368
330
2
100
AcDbSymbolTableRecord
100
AcDbLayerTableRecord
  2
Defpoints
 70
     0
 62
     7
  6
CONTINUOUS
290
     0
370
    -3
390
2CE
  0
ENDTAB
  0
TABLE
  2
STYLE
  5
3
330
0
100
AcDbSymbolTable
 70
     1
  0
STYLE
  5
11
330
3
100
AcDbSymbolTableRecord
100
AcDbTextStyleTableRecord
  2
STANDARD
 70
     0
 40
0.0
 41
0.8
 50
0.0
 71
     0
 42
0.2
  3
isocp.shx
  4

  0
ENDTAB
  0
TABLE
  2
VIEW
  5
6
330
0
100
AcDbSymbolTable
 70
     0
  0
ENDTAB
  0
TABLE
  2
UCS
  5
7
330
0
100
AcDbSymbolTable
 70
     0
  0
ENDTAB
  0
TABLE
  2
APPID
  5
9
330
0
100
AcDbSymbolTable
 70
     3
  0
APPID
  5
206
330
9
100
AcDbSymbolTableRecord
100
AcDbRegAppTableRecord
  2
ACAD
 70
     0
  0
APPID
  5
36A
330
9
100
AcDbSymbolTableRecord
100
AcDbRegAppTableRecord
  2
ACAD_PSEXT
 70
     0
  0
APPID
  5
5BD
330
9
100
AcDbSymbolTableRecord
100
AcDbRegAppTableRecord
  2
ACAD_DSTYLE_DIMTEXT_FILL
 70
     0
  0
ENDTAB
  0
TABLE
  2
DIMSTYLE
  5
A
330
0
100
AcDbSymbolTable
 70
     3
100
AcDbDimStyleTable
 71
     2
340
369
340
207
  0
DIMSTYLE
105
207
330
A
100
AcDbSymbolTableRecord
100
AcDbDimStyleTableRecord
  2
STANDARD
 70
     0
 41
2.5
 47
0.005
 48
0.005
 71
     1
 73
     0
 74
     0
 77
     1
 78
     8
140
3.5
178
     2
271
     3
272
     3
284
     8
340
11
341
209
342
209
343
209
344
209
  0
DIMSTYLE
105
369
102
{ACAD_REACTORS
330
36C
330
36D
330
36E
330
36F
330
370
330
371
330
372
330
373
330
374
330
295
330
293
330
29A
330
297
330
292
330
299
330
298
330
296
330
294
102
}
330
A
100
AcDbSymbolTableRecord
100
AcDbDimStyleTableRecord
  2
ISO-25
 70
     0
 41
3.5
 42
0.625
 43
3.75
 44
2.0
 73
     0
 74
     0
 77
     1
 78
     8
140
3.5
141
2.5
143
0.03937007874016
147
0.625
171
     3
172
     1
176
   256
177
   256
178
   256
271
     2
272
     2
274
     3
283
     0
284
     8
340
11
  0
ENDTAB
  0
TABLE
  2
BLOCK_RECORD
  5
1
330
0
100
AcDbSymbolTable
 70
    33
  0
BLOCK_RECORD
  5
1B
330
1
100
AcDbSymbolTableRecord
100
AcDbBlockTableRecord
  2
*MODEL_SPACE
340
2D5
  0
BLOCK_RECORD
  5
1C
330
1
100
AcDbSymbolTableRecord
100
AcDbBlockTableRecord
  2
*PAPER_SPACE
340
2D6
  0
BLOCK_RECORD
  5
209
330
1
100
AcDbSymbolTableRecord
100
AcDbBlockTableRecord
  2
_FILLED
340
0
  0
BLOCK_RECORD
  5
20A
330
1
100
AcDbSymbolTableRecord
100
AcDbBlockTableRecord
  2
*D1
340
0
  0
BLOCK_RECORD
  5
20B
330
1
100
AcDbSymbolTableRecord
100
AcDbBlockTableRecord
  2
*D2
340
0
  0
BLOCK_RECORD
  5
20C
330
1
100
AcDbSymbolTableRecord
100
AcDbBlockTableRecord
  2
*D3
340
0
  0
BLOCK_RECORD
  5
20D
330
1
100
AcDbSymbolTableRecord
100
AcDbBlockTableRecord
  2
*D4
340
0
  0
BLOCK_RECORD
  5
20E
330
1
100
AcDbSymbolTableRecord
100
AcDbBlockTableRecord
  2
*D5
340
0
  0
BLOCK_RECORD
  5
20F
330
1
100
AcDbSymbolTableRecord
100
AcDbBlockTableRecord
  2
*D6
340
0
  0
BLOCK_RECORD
  5
210
330
1
100
AcDbSymbolTableRecord
100
AcDbBlockTableRecord
  2
*D7
340
0
  0
BLOCK_RECORD
  5
211
330
1
100
AcDbSymbolTableRecord
100
AcDbBlockTableRecord
  2
*D8
340
0
  0
BLOCK_RECORD
  5
212
330
1
100
AcDbSymbolTableRecord
100
AcDbBlockTableRecord
  2
*D9
340
0
  0
BLOCK_RECORD
  5
213
330
1
100
AcDbSymbolTableRecord
100
AcDbBlockTableRecord
  2
EINFUEGEPUNKT_BL0
340
0
102
{BLKREFS
331
29C
102
}
  0
BLOCK_RECORD
  5
214
330
1
100
AcDbSymbolTableRecord
100
AcDbBlockTableRecord
  2
NULLPUNKT_BL1
340
0
102
{BLKREFS
331
29D
102
}
  0
BLOCK_RECORD
  5
2D8
330
1
100
AcDbSymbolTableRecord
100
AcDbBlockTableRecord
  2
NULLPUNKT_BL0
340
0
102
{BLKREFS
331
376
102
}
  0
BLOCK_RECORD
  5
2EA
330
1
100
AcDbSymbolTableRecord
100
AcDbBlockTableRecord
  2
EINFUEGEPUNKT_BL1
340
0
102
{BLKREFS
331
377
102
}
  0
BLOCK_RECORD
  5
458
330
1
100
AcDbSymbolTableRecord
100
AcDbBlockTableRecord
  2
*D24
340
0
  0
BLOCK_RECORD
  5
464
330
1
100
AcDbSymbolTableRecord
100
AcDbBlockTableRecord
  2
*D25
340
0
  0
BLOCK_RECORD
  5
470
330
1
100
AcDbSymbolTableRecord
100
AcDbBlockTableRecord
  2
*D26
340
0
  0
BLOCK_RECORD
  5
47C
330
1
100
AcDbSymbolTableRecord
100
AcDbBlockTableRecord
  2
*D27
340
0
  0
BLOCK_RECORD
  5
488
330
1
100
AcDbSymbolTableRecord
100
AcDbBlockTableRecord
  2
*D28
340
0
  0
BLOCK_RECORD
  5
494
330
1
100
AcDbSymbolTableRecord
100
AcDbBlockTableRecord
  2
*D29
340
0
  0
BLOCK_RECORD
  5
4A0
330
1
100
AcDbSymbolTableRecord
100
AcDbBlockTableRecord
  2
*D30
340
0
  0
BLOCK_RECORD
  5
4AC
330
1
100
AcDbSymbolTableRecord
100
AcDbBlockTableRecord
  2
*D31
340
0
  0
BLOCK_RECORD
  5
4B8
330
1
100
AcDbSymbolTableRecord
100
AcDbBlockTableRecord
  2
*D32
340
0
  0
ENDTAB
  0
ENDSEC
  0
SECTION
  2
BLOCKS
  0
BLOCK
  5
1E
330
1B
100
AcDbEntity
  8
0
100
AcDbBlockBegin
  2
*MODEL_SPACE
 70
     0
 10
0.0
 20
0.0
 30
0.0
  3
*MODEL_SPACE
  1

  0
ENDBLK
  5
1F
330
1B
100
AcDbEntity
  8
0
100
AcDbBlockEnd
  0
BLOCK
  5
20
330
1C
100
AcDbEntity
 67
     1
  8
0
100
AcDbBlockBegin
  2
*PAPER_SPACE
 70
     0
 10
0.0
 20
0.0
 30
0.0
  3
*PAPER_SPACE
  1

  0
ENDBLK
  5
21
330
1C
100
AcDbEntity
 67
     1
  8
0
100
AcDbBlockEnd
  0
BLOCK
  5
28F
330
209
100
AcDbEntity
  8
0
100
AcDbBlockBegin
  2
_FILLED
 70
     0
 10
0.0
 20
0.0
 30
0.0
  3
_FILLED
  1

  0
SOLID
  5
290
330
209
100
AcDbEntity
  8
0
  6
ByBlock
 62
     0
100
AcDbTrace
 10
0.0
 20
0.0
 30
0.0
 11
-1.0
 21
0.132
 31
0.0
 12
-1.0
 22
-0.132
 32
0.0
 13
-1.0
 23
-0.132
 33
0.0
  0
ENDBLK
  5
291
330
209
100
AcDbEntity
  8
0
  6
ByBlock
 62
     0
100
AcDbBlockEnd
  0
BLOCK
  5
215
330
20A
100
AcDbEntity
  8
SK2
  6
Continuous
 62
     7
100
AcDbBlockBegin
  2
*D1
 70
     1
 10
0.0
 20
0.0
 30
0.0
  3
*D1
  1

  0
LINE
  5
687
330
20A
100
AcDbEntity
  8
SK2
370
    -2
100
AcDbLine
 10
0.375
 20
-155.0
 30
0.0
 11
-31.62500000000004
 21
-155.0
 31
0.0
  0
LINE
  5
688
330
20A
100
AcDbEntity
  8
SK2
370
    -2
100
AcDbLine
 10
0.375
 20
155.0
 30
0.0
 11
-31.62499999999996
 21
155.0
 31
0.0
  0
LINE
  5
689
330
20A
100
AcDbEntity
  8
SK2
370
    -2
100
AcDbLine
 10
-29.62500000000003
 20
-151.5
 30
0.0
 11
-29.62499999999997
 21
151.5
 31
0.0
  0
SOLID
  5
68A
330
20A
100
AcDbEntity
  8
SK2
100
AcDbTrace
 10
-30.20833333333337
 20
-151.5
 30
0.0
 11
-29.0416666666667
 21
-151.5
 31
0.0
 12
-29.62500000000004
 22
-155.0
 32
0.0
 13
-29.62500000000004
 23
-155.0
 33
0.0
  0
SOLID
  5
68B
330
20A
100
AcDbEntity
  8
SK2
100
AcDbTrace
 10
-30.2083333333333
 20
151.5
 30
0.0
 11
-29.04166666666664
 21
151.5
 31
0.0
 12
-29.62499999999997
 22
155.0
 32
0.0
 13
-29.62499999999997
 23
155.0
 33
0.0
  0
MTEXT
  5
68C
330
20A
100
AcDbEntity
  8
SK2
100
AcDbMText
 10
-32.0
 20
0.0000000000000003
 30
0.0
 40
3.5
 41
0.0
 71
     5
 72
     1
  1
%%c310
 11
0.0000000000000001
 21
1.0
 31
0.0
 73
     1
 44
1.0
1001
ACAD
1000
MTEXTBEGIN
1070
    73
1070
     1
1070
    44
1040
1.0
1070
    74
1070
     0
1000
MTEXTEND
  0
POINT
  5
68D
330
20A
100
AcDbEntity
  8
Defpoints
 62
     0
100
AcDbPoint
 10
1.0
 20
-155.0
 30
0.0
  0
POINT
  5
68E
330
20A
100
AcDbEntity
  8
Defpoints
 62
     0
100
AcDbPoint
 10
1.0
 20
155.0
 30
0.0
  0
POINT
  5
68F
330
20A
100
AcDbEntity
  8
Defpoints
 62
     0
100
AcDbPoint
 10
-29.62499999999997
 20
155.0
 30
0.0
  0
ENDBLK
  5
21E
330
20A
100
AcDbEntity
  8
0
  6
ByBlock
 62
     0
100
AcDbBlockEnd
  0
BLOCK
  5
21F
330
20B
100
AcDbEntity
  8
2
  6
Continuous
 62
     7
100
AcDbBlockBegin
  2
*D2
 70
     1
 10
0.0
 20
0.0
 30
0.0
  3
*D2
  1

  0
LINE
  5
690
330
20B
100
AcDbEntity
  8
2
370
    -2
100
AcDbLine
 10
0.0
 20
126.625
 30
0.0
 11
0.0000000000000027
 21
169.625
 31
0.0
  0
LINE
  5
691
330
20B
100
AcDbEntity
  8
2
370
    -2
100
AcDbLine
 10
41.99999999999997
 20
156.625
 30
0.0
 11
41.99999999999997
 21
169.625
 31
0.0
  0
LINE
  5
692
330
20B
100
AcDbEntity
  8
2
370
    -2
100
AcDbLine
 10
3.500000000000002
 20
167.625
 30
0.0
 11
38.49999999999997
 21
167.625
 31
0.0
  0
SOLID
  5
693
330
20B
100
AcDbEntity
  8
2
100
AcDbTrace
 10
3.500000000000002
 20
168.2083333333333
 30
0.0
 11
3.500000000000002
 21
167.0416666666666
 31
0.0
 12
0.0000000000000025
 22
167.625
 32
0.0
 13
0.0000000000000025
 23
167.625
 33
0.0
  0
SOLID
  5
694
330
20B
100
AcDbEntity
  8
2
100
AcDbTrace
 10
38.49999999999997
 20
168.2083333333333
 30
0.0
 11
38.49999999999997
 21
167.0416666666666
 31
0.0
 12
41.99999999999997
 22
167.625
 32
0.0
 13
41.99999999999997
 23
167.625
 33
0.0
  0
MTEXT
  5
695
330
20B
100
AcDbEntity
  8
2
100
AcDbMText
 10
20.99999999999997
 20
170.0003444881889
 30
0.0
 40
3.5
 41
0.0
 71
     5
 72
     1
  1
42
 73
     1
 44
1.0
1001
ACAD
1000
MTEXTBEGIN
1070
    73
1070
     1
1070
    44
1040
1.0
1070
    74
1070
     0
1000
MTEXTEND
  0
POINT
  5
696
330
20B
100
AcDbEntity
  8
Defpoints
 62
     0
100
AcDbPoint
 10
0.0
 20
126.0
 30
0.0
  0
POINT
  5
697
330
20B
100
AcDbEntity
  8
Defpoints
 62
     0
100
AcDbPoint
 10
41.99999999999997
 20
156.0
 30
0.0
  0
POINT
  5
698
330
20B
100
AcDbEntity
  8
Defpoints
 62
     0
100
AcDbPoint
 10
41.99999999999997
 20
167.625
 30
0.0
  0
ENDBLK
  5
227
330
20B
100
AcDbEntity
  8
0
  6
ByBlock
 62
     0
100
AcDbBlockEnd
  0
BLOCK
  5
228
330
20C
100
AcDbEntity
  8
SK2
  6
Continuous
 62
     7
100
AcDbBlockBegin
  2
*D3
 70
     1
 10
0.0
 20
0.0
 30
0.0
  3
*D3
  1

  0
LINE
  5
699
330
20C
100
AcDbEntity
  8
SK2
370
    -2
100
AcDbLine
 10
71.62499999999997
 20
-73.0
 30
0.0
 11
104.8753577190999
 21
-73.00000000000001
 31
0.0
  0
LINE
  5
69A
330
20C
100
AcDbEntity
  8
SK2
370
    -2
100
AcDbLine
 10
71.62499999999997
 20
73.0
 30
0.0
 11
104.8753577190999
 21
72.99999999999998
 31
0.0
  0
LINE
  5
69B
330
20C
100
AcDbEntity
  8
SK2
370
    -2
100
AcDbLine
 10
102.8753577190999
 20
-69.50000000000001
 30
0.0
 11
102.8753577190999
 21
69.49999999999999
 31
0.0
  0
SOLID
  5
69C
330
20C
100
AcDbEntity
  8
SK2
100
AcDbTrace
 10
102.2920243857666
 20
-69.50000000000001
 30
0.0
 11
103.4586910524332
 21
-69.50000000000001
 31
0.0
 12
102.8753577190999
 22
-73.00000000000001
 32
0.0
 13
102.8753577190999
 23
-73.00000000000001
 33
0.0
  0
SOLID
  5
69D
330
20C
100
AcDbEntity
  8
SK2
100
AcDbTrace
 10
102.2920243857666
 20
69.49999999999999
 30
0.0
 11
103.4586910524332
 21
69.49999999999999
 31
0.0
 12
102.8753577190999
 22
72.99999999999998
 32
0.0
 13
102.8753577190999
 23
72.99999999999998
 33
0.0
  0
MTEXT
  5
69E
330
20C
100
AcDbEntity
  8
SK2
100
AcDbMText
 10
100.5003577190999
 20
0.0000000000000003
 30
0.0
 40
3.5
 41
0.0
 71
     5
 72
     1
  1
%%c146
 11
0.0000000000000001
 21
1.0
 31
0.0
 73
     1
 44
1.0
1001
ACAD
1000
MTEXTBEGIN
1070
    73
1070
     1
1070
    44
1040
1.0
1070
    74
1070
     0
1000
MTEXTEND
  0
POINT
  5
69F
330
20C
100
AcDbEntity
  8
Defpoints
 62
     0
100
AcDbPoint
 10
70.99999999999997
 20
-73.0
 30
0.0
  0
POINT
  5
6A0
330
20C
100
AcDbEntity
  8
Defpoints
 62
     0
100
AcDbPoint
 10
70.99999999999997
 20
73.0
 30
0.0
  0
POINT
  5
6A1
330
20C
100
AcDbEntity
  8
Defpoints
 62
     0
100
AcDbPoint
 10
102.8753577190999
 20
72.99999999999998
 30
0.0
  0
ENDBLK
  5
231
330
20C
100
AcDbEntity
  8
0
  6
ByBlock
 62
     0
100
AcDbBlockEnd
  0
BLOCK
  5
232
330
20D
100
AcDbEntity
  8
SK2
  6
Continuous
 62
     7
100
AcDbBlockBegin
  2
*D4
 70
     1
 10
0.0
 20
0.0
 30
0.0
  3
*D4
  1

  0
LINE
  5
6A2
330
20D
100
AcDbEntity
  8
SK2
370
    -2
100
AcDbLine
 10
69.99999999999997
 20
74.8313020214
 30
0.0
 11
69.99999999999997
 21
178.125
 31
0.0
  0
LINE
  5
6A3
330
20D
100
AcDbEntity
  8
SK2
370
    -2
100
AcDbLine
 10
0.0
 20
126.8313020214
 30
0.0
 11
0.0000000000000032
 21
178.125
 31
0.0
  0
LINE
  5
6A4
330
20D
100
AcDbEntity
  8
SK2
370
    -2
100
AcDbLine
 10
66.49999999999997
 20
176.125
 30
0.0
 11
3.500000000000003
 21
176.125
 31
0.0
  0
SOLID
  5
6A5
330
20D
100
AcDbEntity
  8
SK2
100
AcDbTrace
 10
66.49999999999997
 20
176.7083333333333
 30
0.0
 11
66.49999999999997
 21
175.5416666666666
 31
0.0
 12
69.99999999999997
 22
176.125
 32
0.0
 13
69.99999999999997
 23
176.125
 33
0.0
  0
SOLID
  5
6A6
330
20D
100
AcDbEntity
  8
SK2
100
AcDbTrace
 10
3.500000000000003
 20
176.7083333333333
 30
0.0
 11
3.500000000000003
 21
175.5416666666666
 31
0.0
 12
0.0000000000000031
 22
176.125
 32
0.0
 13
0.0000000000000031
 23
176.125
 33
0.0
  0
MTEXT
  5
6A7
330
20D
100
AcDbEntity
  8
SK2
100
AcDbMText
 10
34.99999999999997
 20
178.5
 30
0.0
 40
3.5
 41
0.0
 71
     5
 72
     1
  1
70
 73
     1
 44
1.0
1001
ACAD
1000
MTEXTBEGIN
1070
    73
1070
     1
1070
    44
1040
1.0
1070
    74
1070
     0
1000
MTEXTEND
  0
POINT
  5
6A8
330
20D
100
AcDbEntity
  8
Defpoints
 62
     0
100
AcDbPoint
 10
69.99999999999997
 20
74.2063020214
 30
0.0
  0
POINT
  5
6A9
330
20D
100
AcDbEntity
  8
Defpoints
 62
     0
100
AcDbPoint
 10
0.0
 20
126.2063020214
 30
0.0
  0
POINT
  5
6AA
330
20D
100
AcDbEntity
  8
Defpoints
 62
     0
100
AcDbPoint
 10
0.0000000000000031
 20
176.125
 30
0.0
  0
ENDBLK
  5
23A
330
20D
100
AcDbEntity
  8
0
  6
ByBlock
 62
     0
100
AcDbBlockEnd
  0
BLOCK
  5
23B
330
20E
100
AcDbEntity
  8
SK2
  6
Continuous
 62
     7
100
AcDbBlockBegin
  2
*D5
 70
     1
 10
0.0
 20
0.0
 30
0.0
  3
*D5
  1

  0
LINE
  5
6AB
330
20E
100
AcDbEntity
  8
SK2
370
    -2
100
AcDbLine
 10
71.62499999999997
 20
-31.0
 30
0.0
 11
79.37535771909998
 21
-31.0
 31
0.0
  0
LINE
  5
6AC
330
20E
100
AcDbEntity
  8
SK2
370
    -2
100
AcDbLine
 10
71.62499999999997
 20
31.0
 30
0.0
 11
79.37535771909998
 21
31.0
 31
0.0
  0
LINE
  5
6AD
330
20E
100
AcDbEntity
  8
SK2
370
    -2
100
AcDbLine
 10
77.37535771909998
 20
-27.5
 30
0.0
 11
77.37535771909998
 21
27.5
 31
0.0
  0
SOLID
  5
6AE
330
20E
100
AcDbEntity
  8
SK2
100
AcDbTrace
 10
76.79202438576665
 20
-27.5
 30
0.0
 11
77.95869105243331
 21
-27.5
 31
0.0
 12
77.37535771909998
 22
-31.0
 32
0.0
 13
77.37535771909998
 23
-31.0
 33
0.0
  0
SOLID
  5
6AF
330
20E
100
AcDbEntity
  8
SK2
100
AcDbTrace
 10
76.79202438576665
 20
27.5
 30
0.0
 11
77.95869105243331
 21
27.5
 31
0.0
 12
77.37535771909998
 22
31.0
 32
0.0
 13
77.37535771909998
 23
31.0
 33
0.0
  0
MTEXT
  5
6B0
330
20E
100
AcDbEntity
  8
SK2
100
AcDbMText
 10
75.00001323091101
 20
0.0000000000000003
 30
0.0
 40
3.5
 41
0.0
 71
     5
 72
     1
  1
%%c62
 11
0.0000000000000001
 21
1.0
 31
0.0
 73
     1
 44
1.0
1001
ACAD
1000
MTEXTBEGIN
1070
    73
1070
     1
1070
    44
1040
1.0
1070
    74
1070
     0
1000
MTEXTEND
  0
POINT
  5
6B1
330
20E
100
AcDbEntity
  8
Defpoints
 62
     0
100
AcDbPoint
 10
70.99999999999997
 20
-31.0
 30
0.0
  0
POINT
  5
6B2
330
20E
100
AcDbEntity
  8
Defpoints
 62
     0
100
AcDbPoint
 10
70.99999999999997
 20
31.0
 30
0.0
  0
POINT
  5
6B3
330
20E
100
AcDbEntity
  8
Defpoints
 62
     0
100
AcDbPoint
 10
77.37535771909998
 20
31.0
 30
0.0
  0
ENDBLK
  5
244
330
20E
100
AcDbEntity
  8
0
  6
ByBlock
 62
     0
100
AcDbBlockEnd
  0
BLOCK
  5
245
330
20F
100
AcDbEntity
  8
SK2
  6
Continuous
 62
     7
100
AcDbBlockBegin
  2
*D6
 70
     1
 10
0.0
 20
0.0
 30
0.0
  3
*D6
  1

  0
LINE
  5
6B4
330
20F
100
AcDbEntity
  8
SK2
370
    -2
100
AcDbLine
 10
-1.625
 20
-30.0
 30
0.0
 11
-14.62500000000001
 21
-30.0
 31
0.0
  0
LINE
  5
6B5
330
20F
100
AcDbEntity
  8
SK2
370
    -2
100
AcDbLine
 10
-1.625
 20
30.0
 30
0.0
 11
-14.62499999999999
 21
30.0
 31
0.0
  0
LINE
  5
6B6
330
20F
100
AcDbEntity
  8
SK2
370
    -2
100
AcDbLine
 10
-12.625
 20
-26.5
 30
0.0
 11
-12.62499999999999
 21
26.5
 31
0.0
  0
SOLID
  5
6B7
330
20F
100
AcDbEntity
  8
SK2
100
AcDbTrace
 10
-13.20833333333334
 20
-26.5
 30
0.0
 11
-12.04166666666667
 21
-26.5
 31
0.0
 12
-12.62500000000001
 22
-30.0
 32
0.0
 13
-12.62500000000001
 23
-30.0
 33
0.0
  0
SOLID
  5
6B8
330
20F
100
AcDbEntity
  8
SK2
100
AcDbTrace
 10
-13.20833333333333
 20
26.5
 30
0.0
 11
-12.04166666666666
 21
26.5
 31
0.0
 12
-12.62499999999999
 22
30.0
 32
0.0
 13
-12.62499999999999
 23
30.0
 33
0.0
  0
MTEXT
  5
6B9
330
20F
100
AcDbEntity
  8
SK2
100
AcDbMText
 10
-15.0
 20
0.0000000000000003
 30
0.0
 40
3.5
 41
0.0
 71
     5
 72
     1
  1
%%c60
 11
0.0000000000000001
 21
1.0
 31
0.0
 73
     1
 44
1.0
1001
ACAD
1000
MTEXTBEGIN
1070
    73
1070
     1
1070
    44
1040
1.0
1070
    74
1070
     0
1000
MTEXTEND
  0
POINT
  5
6BA
330
20F
100
AcDbEntity
  8
Defpoints
 62
     0
100
AcDbPoint
 10
-1.0
 20
-30.0
 30
0.0
  0
POINT
  5
6BB
330
20F
100
AcDbEntity
  8
Defpoints
 62
     0
100
AcDbPoint
 10
-1.0
 20
30.0
 30
0.0
  0
POINT
  5
6BC
330
20F
100
AcDbEntity
  8
Defpoints
 62
     0
100
AcDbPoint
 10
-12.62499999999999
 20
30.0
 30
0.0
  0
ENDBLK
  5
24E
330
20F
100
AcDbEntity
  8
0
  6
ByBlock
 62
     0
100
AcDbBlockEnd
  0
BLOCK
  5
24F
330
210
100
AcDbEntity
  8
SK2
  6
Continuous
 62
     7
100
AcDbBlockBegin
  2
*D7
 70
     1
 10
0.0
 20
0.0
 30
0.0
  3
*D7
  1

  0
LINE
  5
6BD
330
210
100
AcDbEntity
  8
SK2
370
    -2
100
AcDbLine
 10
71.62499999999997
 20
-35.92102448429998
 30
0.0
 11
87.87535771909997
 21
-35.92102448429999
 31
0.0
  0
LINE
  5
6BE
330
210
100
AcDbEntity
  8
SK2
370
    -2
100
AcDbLine
 10
71.62499999999997
 20
35.92102448430001
 30
0.0
 11
87.87535771909999
 21
35.9210244843
 31
0.0
  0
LINE
  5
6BF
330
210
100
AcDbEntity
  8
SK2
370
    -2
100
AcDbLine
 10
85.87535771909996
 20
-32.42102448429998
 30
0.0
 11
85.87535771909999
 21
32.4210244843
 31
0.0
  0
SOLID
  5
6C0
330
210
100
AcDbEntity
  8
SK2
100
AcDbTrace
 10
85.29202438576664
 20
-32.42102448429998
 30
0.0
 11
86.45869105243329
 21
-32.42102448429998
 31
0.0
 12
85.87535771909996
 22
-35.92102448429999
 32
0.0
 13
85.87535771909996
 23
-35.92102448429999
 33
0.0
  0
SOLID
  5
6C1
330
210
100
AcDbEntity
  8
SK2
100
AcDbTrace
 10
85.29202438576666
 20
32.4210244843
 30
0.0
 11
86.45869105243333
 21
32.4210244843
 31
0.0
 12
85.87535771909999
 22
35.9210244843
 32
0.0
 13
85.87535771909999
 23
35.9210244843
 33
0.0
  0
MTEXT
  5
6C2
330
210
100
AcDbEntity
  8
SK2
100
AcDbMText
 10
83.50035771909999
 20
0.0000000000000003
 30
0.0
 40
3.5
 41
0.0
 71
     5
 72
     1
  1
Lk-%%c101.6
 11
0.0000000000000001
 21
1.0
 31
0.0
 73
     1
 44
1.0
1001
ACAD
1000
MTEXTBEGIN
1070
    73
1070
     1
1070
    44
1040
1.0
1070
    74
1070
     0
1000
MTEXTEND
  0
POINT
  5
6C3
330
210
100
AcDbEntity
  8
Defpoints
 62
     0
100
AcDbPoint
 10
70.99999999999997
 20
-35.92102448429998
 30
0.0
  0
POINT
  5
6C4
330
210
100
AcDbEntity
  8
Defpoints
 62
     0
100
AcDbPoint
 10
70.99999999999997
 20
35.92102448430001
 30
0.0
  0
POINT
  5
6C5
330
210
100
AcDbEntity
  8
Defpoints
 62
     0
100
AcDbPoint
 10
85.87535771909999
 20
35.9210244843
 30
0.0
  0
ENDBLK
  5
258
330
210
100
AcDbEntity
  8
0
  6
ByBlock
 62
     0
100
AcDbBlockEnd
  0
BLOCK
  5
259
330
211
100
AcDbEntity
  8
SK2
  6
Continuous
 62
     7
100
AcDbBlockBegin
  2
*D8
 70
     1
 10
0.0
 20
0.0
 30
0.0
  3
*D8
  1

  0
LINE
  5
6C6
330
211
100
AcDbEntity
  8
SK2
370
    -2
100
AcDbLine
 10
43.62499999999997
 20
-62.8617928475
 30
0.0
 11
96.37535771909991
 21
-62.86179284750001
 31
0.0
  0
LINE
  5
6C7
330
211
100
AcDbEntity
  8
SK2
370
    -2
100
AcDbLine
 10
43.62499999999997
 20
62.8617928475
 30
0.0
 11
96.37535771909995
 21
62.86179284749998
 31
0.0
  0
LINE
  5
6C8
330
211
100
AcDbEntity
  8
SK2
370
    -2
100
AcDbLine
 10
94.3753577190999
 20
-59.36179284750001
 30
0.0
 11
94.37535771909994
 21
59.36179284749998
 31
0.0
  0
SOLID
  5
6C9
330
211
100
AcDbEntity
  8
SK2
100
AcDbTrace
 10
93.79202438576658
 20
-59.36179284750001
 30
0.0
 11
94.95869105243324
 21
-59.36179284750001
 31
0.0
 12
94.3753577190999
 22
-62.86179284750001
 32
0.0
 13
94.3753577190999
 23
-62.86179284750001
 33
0.0
  0
SOLID
  5
6CA
330
211
100
AcDbEntity
  8
SK2
100
AcDbTrace
 10
93.7920243857666
 20
59.36179284749998
 30
0.0
 11
94.95869105243327
 21
59.36179284749998
 31
0.0
 12
94.37535771909994
 22
62.86179284749998
 32
0.0
 13
94.37535771909994
 23
62.86179284749998
 33
0.0
  0
MTEXT
  5
6CB
330
211
100
AcDbEntity
  8
SK2
100
AcDbMText
 10
92.00035771909993
 20
0.0000000000000003
 30
0.0
 40
3.5
 41
0.0
 71
     5
 72
     1
  1
Lk-%%c177.8
 11
0.0000000000000001
 21
1.0
 31
0.0
 73
     1
 44
1.0
1001
ACAD
1000
MTEXTBEGIN
1070
    73
1070
     1
1070
    44
1040
1.0
1070
    74
1070
     0
1000
MTEXTEND
  0
POINT
  5
6CC
330
211
100
AcDbEntity
  8
Defpoints
 62
     0
100
AcDbPoint
 10
42.99999999999997
 20
-62.8617928475
 30
0.0
  0
POINT
  5
6CD
330
211
100
AcDbEntity
  8
Defpoints
 62
     0
100
AcDbPoint
 10
42.99999999999997
 20
62.8617928475
 30
0.0
  0
POINT
  5
6CE
330
211
100
AcDbEntity
  8
Defpoints
 62
     0
100
AcDbPoint
 10
94.37535771909994
 20
62.86179284749998
 30
0.0
  0
ENDBLK
  5
262
330
211
100
AcDbEntity
  8
0
  6
ByBlock
 62
     0
100
AcDbBlockEnd
  0
BLOCK
  5
263
330
212
100
AcDbEntity
  8
SK2
  6
Continuous
 62
     7
100
AcDbBlockBegin
  2
*D9
 70
     1
 10
0.0
 20
0.0
 30
0.0
  3
*D9
  1

  0
LINE
  5
6CF
330
212
100
AcDbEntity
  8
SK2
370
    -2
100
AcDbLine
 10
-1.625
 20
-125.0
 30
0.0
 11
-23.12500000000003
 21
-125.0
 31
0.0
  0
LINE
  5
6D0
330
212
100
AcDbEntity
  8
SK2
370
    -2
100
AcDbLine
 10
-1.625
 20
125.0
 30
0.0
 11
-23.12499999999997
 21
125.0
 31
0.0
  0
LINE
  5
6D1
330
212
100
AcDbEntity
  8
SK2
370
    -2
100
AcDbLine
 10
-21.12500000000003
 20
-121.5
 30
0.0
 11
-21.12499999999997
 21
121.5
 31
0.0
  0
SOLID
  5
6D2
330
212
100
AcDbEntity
  8
SK2
100
AcDbTrace
 10
-21.70833333333336
 20
-121.5
 30
0.0
 11
-20.5416666666667
 21
-121.5
 31
0.0
 12
-21.12500000000003
 22
-125.0
 32
0.0
 13
-21.12500000000003
 23
-125.0
 33
0.0
  0
SOLID
  5
6D3
330
212
100
AcDbEntity
  8
SK2
100
AcDbTrace
 10
-21.7083333333333
 20
121.5
 30
0.0
 11
-20.54166666666664
 21
121.5
 31
0.0
 12
-21.12499999999997
 22
125.0
 32
0.0
 13
-21.12499999999997
 23
125.0
 33
0.0
  0
MTEXT
  5
6D4
330
212
100
AcDbEntity
  8
SK2
100
AcDbMText
 10
-23.50034448818898
 20
0.0000000000000003
 30
0.0
 40
3.5
 41
0.0
 71
     5
 72
     1
  1
%%c250
 11
0.0000000000000001
 21
1.0
 31
0.0
 73
     1
 44
1.0
1001
ACAD
1000
MTEXTBEGIN
1070
    73
1070
     1
1070
    44
1040
1.0
1070
    74
1070
     0
1000
MTEXTEND
  0
POINT
  5
6D5
330
212
100
AcDbEntity
  8
Defpoints
 62
     0
100
AcDbPoint
 10
-1.0
 20
-125.0
 30
0.0
  0
POINT
  5
6D6
330
212
100
AcDbEntity
  8
Defpoints
 62
     0
100
AcDbPoint
 10
-1.0
 20
125.0
 30
0.0
  0
POINT
  5
6D7
330
212
100
AcDbEntity
  8
Defpoints
 62
     0
100
AcDbPoint
 10
-21.12499999999997
 20
125.0
 30
0.0
  0
ENDBLK
  5
26C
330
212
100
AcDbEntity
  8
0
  6
ByBlock
 62
     0
100
AcDbBlockEnd
  0
BLOCK
  5
26D
330
213
100
AcDbEntity
  8
1
  6
Continuous
 62
     3
100
AcDbBlockBegin
  2
EINFUEGEPUNKT_BL0
 70
     0
 10
295.8773478943
 20
209.2936979786
 30
0.0
  3
EINFUEGEPUNKT_BL0
  1

  0
LINE
  5
26E
330
213
100
AcDbEntity
  8
1
  6
Continuous
 62
     4
100
AcDbLine
 10
295.8773478943
 20
209.2936979786
 30
0.0
 11
295.8773478943
 21
208.7936989786
 31
0.0
  0
ARC
  5
26F
330
213
100
AcDbEntity
  8
1
  6
Continuous
 62
     4
100
AcDbCircle
 10
295.8773478943
 20
209.2936979786
 30
0.0
 40
0.4999990000000001
100
AcDbArc
 50
90.0
 51
180.0
  0
LINE
  5
270
330
213
100
AcDbEntity
  8
1
  6
Continuous
 62
     4
100
AcDbLine
 10
295.8773478943
 20
209.2936979786
 30
0.0
 11
295.3773488943
 21
209.2936979786
 31
0.0
  0
ARC
  5
271
330
213
100
AcDbEntity
  8
1
  6
Continuous
 62
     4
100
AcDbCircle
 10
295.8773478943
 20
209.2936979786
 30
0.0
 40
0.4999990000000001
100
AcDbArc
 50
180.0
 51
270.0
  0
ARC
  5
272
330
213
100
AcDbEntity
  8
1
  6
Continuous
 62
     4
100
AcDbCircle
 10
295.8773478943
 20
209.2936979786
 30
0.0
 40
0.4999990000000001
100
AcDbArc
 50
270.0
 51
360.0
  0
ARC
  5
273
330
213
100
AcDbEntity
  8
1
  6
Continuous
 62
     4
100
AcDbCircle
 10
295.8773478943
 20
209.2936979786
 30
0.0
 40
0.4999990000000001
100
AcDbArc
 50
0.0
 51
90.0
  0
LINE
  5
274
330
213
100
AcDbEntity
  8
1
  6
Continuous
 62
     4
100
AcDbLine
 10
296.3773468943
 20
209.2936979786
 30
0.0
 11
295.8773478943
 21
209.2936979786
 31
0.0
  0
LINE
  5
275
330
213
100
AcDbEntity
  8
1
  6
Continuous
 62
     4
100
AcDbLine
 10
295.8773478943
 20
209.7936969786
 30
0.0
 11
295.8773478943
 21
209.2936979786
 31
0.0
  0
LWPOLYLINE
  5
276
330
213
100
AcDbEntity
  8
1
  6
Continuous
 62
     4
100
AcDbPolyline
 90
       18
 70
     0
 43
0.0
 10
295.8773478943
 20
209.2936979786
 10
295.8773478943
 20
209.7936969786
 10
295.9296120214
 20
209.7909579318
 10
295.9813035318
 20
209.7827708008
 10
296.0318560825
 20
209.7692252857
 10
296.0807158091
 20
209.7504697939
 10
296.1273473943
 20
209.7267098145
 10
296.1712399327
 20
209.6982056668
 10
296.2119125283
 20
209.6652696482
 10
296.2489195639
 20
209.6282626126
 10
296.2818555825
 20
209.587590017
 10
296.3103597302
 20
209.5436974786
 10
296.3341197096
 20
209.4970658934
 10
296.3528752014
 20
209.4482061668
 10
296.3664207165
 20
209.3976536161
 10
296.3746078475
 20
209.3459621057
 10
296.3773468943
 20
209.2936979786
 10
295.8773478943
 20
209.2936979786
  0
HATCH
  5
277
330
213
100
AcDbEntity
  8
1
  6
Continuous
 62
     4
100
AcDbHatch
 10
0.0
 20
0.0
 30
0.0
210
0.0
220
0.0
230
1.0
  2
SOLID
 70
     1
 71
     1
 91
        1
 92
        1
 93
       17
 72
     1
 10
295.8773478943
 20
209.2936979786
 11
295.8773478943
 21
209.7936969786
 72
     1
 10
295.8773478943
 20
209.7936969786
 11
295.9296120214
 21
209.7909579318
 72
     1
 10
295.9296120214
 20
209.7909579318
 11
295.9813035318
 21
209.7827708008
 72
     1
 10
295.9813035318
 20
209.7827708008
 11
296.0318560825
 21
209.7692252857
 72
     1
 10
296.0318560825
 20
209.7692252857
 11
296.0807158091
 21
209.7504697939
 72
     1
 10
296.0807158091
 20
209.7504697939
 11
296.1273473943
 21
209.7267098145
 72
     1
 10
296.1273473943
 20
209.7267098145
 11
296.1712399327
 21
209.6982056668
 72
     1
 10
296.1712399327
 20
209.6982056668
 11
296.2119125283
 21
209.6652696482
 72
     1
 10
296.2119125283
 20
209.6652696482
 11
296.2489195639
 21
209.6282626126
 72
     1
 10
296.2489195639
 20
209.6282626126
 11
296.2818555825
 21
209.587590017
 72
     1
 10
296.2818555825
 20
209.587590017
 11
296.3103597302
 21
209.5436974786
 72
     1
 10
296.3103597302
 20
209.5436974786
 11
296.3341197096
 21
209.4970658934
 72
     1
 10
296.3341197096
 20
209.4970658934
 11
296.3528752014
 21
209.4482061668
 72
     1
 10
296.3528752014
 20
209.4482061668
 11
296.3664207165
 21
209.3976536161
 72
     1
 10
296.3664207165
 20
209.3976536161
 11
296.3746078475
 21
209.3459621057
 72
     1
 10
296.3746078475
 20
209.3459621057
 11
296.3773468943
 21
209.2936979786
 72
     1
 10
296.3773468943
 20
209.2936979786
 11
295.8773478943
 21
209.2936979786
 97
        1
330
276
 75
     0
 76
     1
 98
        1
 10
0.0
 20
0.0
  0
LWPOLYLINE
  5
278
330
213
100
AcDbEntity
  8
1
  6
Continuous
 62
     4
100
AcDbPolyline
 90
       18
 70
     0
 43
0.0
 10
295.8773478943
 20
209.2936979786
 10
295.8773478943
 20
208.7936989786
 10
295.8250837672
 20
208.7964380254
 10
295.7733922568
 20
208.8046251564
 10
295.7228397061
 20
208.8181706715
 10
295.6739799795
 20
208.8369261633
 10
295.6273483943
 20
208.8606861427
 10
295.5834558559
 20
208.8891902904
 10
295.5427832603
 20
208.922126309
 10
295.5057762247
 20
208.9591333446
 10
295.4728402061
 20
208.9998059402
 10
295.4443360584
 20
209.0436984786
 10
295.420576079
 20
209.0903300638
 10
295.4018205872
 20
209.1391897904
 10
295.3882750721
 20
209.1897423411
 10
295.3800879411
 20
209.2414338515
 10
295.3773488943
 20
209.2936979786
 10
295.8773478943
 20
209.2936979786
  0
HATCH
  5
279
330
213
100
AcDbEntity
  8
1
  6
Continuous
 62
     4
100
AcDbHatch
 10
0.0
 20
0.0
 30
0.0
210
0.0
220
0.0
230
1.0
  2
SOLID
 70
     1
 71
     1
 91
        1
 92
        1
 93
       17
 72
     1
 10
295.8773478943
 20
209.2936979786
 11
295.8773478943
 21
208.7936989786
 72
     1
 10
295.8773478943
 20
208.7936989786
 11
295.8250837672
 21
208.7964380254
 72
     1
 10
295.8250837672
 20
208.7964380254
 11
295.7733922568
 21
208.8046251564
 72
     1
 10
295.7733922568
 20
208.8046251564
 11
295.7228397061
 21
208.8181706715
 72
     1
 10
295.7228397061
 20
208.8181706715
 11
295.6739799795
 21
208.8369261633
 72
     1
 10
295.6739799795
 20
208.8369261633
 11
295.6273483943
 21
208.8606861427
 72
     1
 10
295.6273483943
 20
208.8606861427
 11
295.5834558559
 21
208.8891902904
 72
     1
 10
295.5834558559
 20
208.8891902904
 11
295.5427832603
 21
208.922126309
 72
     1
 10
295.5427832603
 20
208.922126309
 11
295.5057762247
 21
208.9591333446
 72
     1
 10
295.5057762247
 20
208.9591333446
 11
295.4728402061
 21
208.9998059402
 72
     1
 10
295.4728402061
 20
208.9998059402
 11
295.4443360584
 21
209.0436984786
 72
     1
 10
295.4443360584
 20
209.0436984786
 11
295.420576079
 21
209.0903300638
 72
     1
 10
295.420576079
 20
209.0903300638
 11
295.4018205872
 21
209.1391897904
 72
     1
 10
295.4018205872
 20
209.1391897904
 11
295.3882750721
 21
209.1897423411
 72
     1
 10
295.3882750721
 20
209.1897423411
 11
295.3800879411
 21
209.2414338515
 72
     1
 10
295.3800879411
 20
209.2414338515
 11
295.3773488943
 21
209.2936979786
 72
     1
 10
295.3773488943
 20
209.2936979786
 11
295.8773478943
 21
209.2936979786
 97
        1
330
278
 75
     0
 76
     1
 98
        1
 10
0.0
 20
0.0
  0
LINE
  5
27A
330
213
100
AcDbEntity
  8
1
  6
Continuous
 62
     4
100
AcDbLine
 10
295.3773488943
 20
209.2936979786
 30
0.0
 11
295.8773478943
 21
209.2936979786
 31
0.0
  0
ARC
  5
27B
330
213
100
AcDbEntity
  8
1
  6
Continuous
 62
     4
100
AcDbCircle
 10
295.8773478943
 20
209.2936979786
 30
0.0
 40
0.4999990000000001
100
AcDbArc
 50
180.0
 51
270.0
  0
LINE
  5
27C
330
213
100
AcDbEntity
  8
1
  6
Continuous
 62
     4
100
AcDbLine
 10
295.8773478943
 20
208.7936989786
 30
0.0
 11
295.8773478943
 21
209.2936979786
 31
0.0
  0
ENDBLK
  5
27D
330
213
100
AcDbEntity
  8
0
  6
ByBlock
 62
     0
100
AcDbBlockEnd
  0
BLOCK
  5
27E
330
214
100
AcDbEntity
  8
1
  6
Continuous
 62
     3
100
AcDbBlockBegin
  2
NULLPUNKT_BL1
 70
     0
 10
253.8773478943
 20
209.2936979786
 30
0.0
  3
NULLPUNKT_BL1
  1

  0
LINE
  5
27F
330
214
100
AcDbEntity
  8
1
  6
Continuous
 62
     4
100
AcDbLine
 10
253.8773478943
 20
209.2936979786
 30
0.0
 11
255.3773448943
 21
209.2936979786
 31
0.0
  0
ARC
  5
280
330
214
100
AcDbEntity
  8
1
  6
Continuous
 62
     4
100
AcDbCircle
 10
253.8773478943
 20
209.2936979786
 30
0.0
 40
1.499997
100
AcDbArc
 50
180.0
 51
270.0
  0
LINE
  5
281
330
214
100
AcDbEntity
  8
1
  6
Continuous
 62
     4
100
AcDbLine
 10
253.8773478943
 20
209.2936979786
 30
0.0
 11
253.8773478943
 21
207.7937009786
 31
0.0
  0
ARC
  5
282
330
214
100
AcDbEntity
  8
1
  6
Continuous
 62
     4
100
AcDbCircle
 10
253.8773478943
 20
209.2936979786
 30
0.0
 40
1.499997
100
AcDbArc
 50
270.0
 51
360.0
  0
ARC
  5
283
330
214
100
AcDbEntity
  8
1
  6
Continuous
 62
     4
100
AcDbCircle
 10
253.8773478943
 20
209.2936979786
 30
0.0
 40
1.499997
100
AcDbArc
 50
0.0
 51
90.0
  0
ARC
  5
284
330
214
100
AcDbEntity
  8
1
  6
Continuous
 62
     4
100
AcDbCircle
 10
253.8773478943
 20
209.2936979786
 30
0.0
 40
1.499997
100
AcDbArc
 50
90.0
 51
180.0
  0
LINE
  5
285
330
214
100
AcDbEntity
  8
1
  6
Continuous
 62
     4
100
AcDbLine
 10
253.8773478943
 20
210.7936949786
 30
0.0
 11
253.8773478943
 21
209.2936979786
 31
0.0
  0
LINE
  5
286
330
214
100
AcDbEntity
  8
1
  6
Continuous
 62
     4
100
AcDbLine
 10
252.3773508943
 20
209.2936979786
 30
0.0
 11
253.8773478943
 21
209.2936979786
 31
0.0
  0
LWPOLYLINE
  5
287
330
214
100
AcDbEntity
  8
1
  6
Continuous
 62
     4
100
AcDbPolyline
 90
       18
 70
     0
 43
0.0
 10
253.8773478943
 20
209.2936979786
 10
252.3773508943
 20
209.2936979786
 10
252.3855680348
 20
209.4504903599
 10
252.4101294276
 20
209.6055648911
 10
252.450765973
 20
209.7572225431
 10
252.5070324485
 20
209.903801723
 10
252.5783123867
 20
210.0436964786
 10
252.6638248298
 20
210.1753740937
 10
252.7626328855
 20
210.2973918807
 10
252.8736539922
 20
210.4084129874
 10
252.9956717792
 20
210.5072210431
 10
253.1273493943
 20
210.5927334862
 10
253.2672441499
 20
210.6640134244
 10
253.4138233298
 20
210.7202798999
 10
253.5654809818
 20
210.7609164453
 10
253.720555513
 20
210.7854778381
 10
253.8773478943
 20
210.7936949786
 10
253.8773478943
 20
209.2936979786
  0
HATCH
  5
288
330
214
100
AcDbEntity
  8
1
  6
Continuous
 62
     4
100
AcDbHatch
 10
0.0
 20
0.0
 30
0.0
210
0.0
220
0.0
230
1.0
  2
SOLID
 70
     1
 71
     1
 91
        1
 92
        1
 93
       17
 72
     1
 10
253.8773478943
 20
209.2936979786
 11
252.3773508943
 21
209.2936979786
 72
     1
 10
252.3773508943
 20
209.2936979786
 11
252.3855680348
 21
209.4504903599
 72
     1
 10
252.3855680348
 20
209.4504903599
 11
252.4101294276
 21
209.6055648911
 72
     1
 10
252.4101294276
 20
209.6055648911
 11
252.450765973
 21
209.7572225431
 72
     1
 10
252.450765973
 20
209.7572225431
 11
252.5070324485
 21
209.903801723
 72
     1
 10
252.5070324485
 20
209.903801723
 11
252.5783123867
 21
210.0436964786
 72
     1
 10
252.5783123867
 20
210.0436964786
 11
252.6638248298
 21
210.1753740937
 72
     1
 10
252.6638248298
 20
210.1753740937
 11
252.7626328855
 21
210.2973918807
 72
     1
 10
252.7626328855
 20
210.2973918807
 11
252.8736539922
 21
210.4084129874
 72
     1
 10
252.8736539922
 20
210.4084129874
 11
252.9956717792
 21
210.5072210431
 72
     1
 10
252.9956717792
 20
210.5072210431
 11
253.1273493943
 21
210.5927334862
 72
     1
 10
253.1273493943
 20
210.5927334862
 11
253.2672441499
 21
210.6640134244
 72
     1
 10
253.2672441499
 20
210.6640134244
 11
253.4138233298
 21
210.7202798999
 72
     1
 10
253.4138233298
 20
210.7202798999
 11
253.5654809818
 21
210.7609164453
 72
     1
 10
253.5654809818
 20
210.7609164453
 11
253.720555513
 21
210.7854778381
 72
     1
 10
253.720555513
 20
210.7854778381
 11
253.8773478943
 21
210.7936949786
 72
     1
 10
253.8773478943
 20
210.7936949786
 11
253.8773478943
 21
209.2936979786
 97
        1
330
287
 75
     0
 76
     1
 98
        1
 10
0.0
 20
0.0
  0
LWPOLYLINE
  5
289
330
214
100
AcDbEntity
  8
1
  6
Continuous
 62
     4
100
AcDbPolyline
 90
       18
 70
     0
 43
0.0
 10
253.8773478943
 20
209.2936979786
 10
255.3773448943
 20
209.2936979786
 10
255.3691277538
 20
209.1369055973
 10
255.344566361
 20
208.9818310661
 10
255.3039298156
 20
208.8301734141
 10
255.2476633401
 20
208.6835942342
 10
255.1763834019
 20
208.5436994786
 10
255.0908709588
 20
208.4120218635
 10
254.9920629031
 20
208.2900040765
 10
254.8810417964
 20
208.1789829698
 10
254.7590240094
 20
208.0801749141
 10
254.6273463943
 20
207.994662471
 10
254.4874516387
 20
207.9233825328
 10
254.3408724588
 20
207.8671160573
 10
254.1892148068
 20
207.8264795119
 10
254.0341402756
 20
207.8019181191
 10
253.8773478943
 20
207.7937009786
 10
253.8773478943
 20
209.2936979786
  0
HATCH
  5
28A
330
214
100
AcDbEntity
  8
1
  6
Continuous
 62
     4
100
AcDbHatch
 10
0.0
 20
0.0
 30
0.0
210
0.0
220
0.0
230
1.0
  2
SOLID
 70
     1
 71
     1
 91
        1
 92
        1
 93
       17
 72
     1
 10
253.8773478943
 20
209.2936979786
 11
255.3773448943
 21
209.2936979786
 72
     1
 10
255.3773448943
 20
209.2936979786
 11
255.3691277538
 21
209.1369055973
 72
     1
 10
255.3691277538
 20
209.1369055973
 11
255.344566361
 21
208.9818310661
 72
     1
 10
255.344566361
 20
208.9818310661
 11
255.3039298156
 21
208.8301734141
 72
     1
 10
255.3039298156
 20
208.8301734141
 11
255.2476633401
 21
208.6835942342
 72
     1
 10
255.2476633401
 20
208.6835942342
 11
255.1763834019
 21
208.5436994786
 72
     1
 10
255.1763834019
 20
208.5436994786
 11
255.0908709588
 21
208.4120218635
 72
     1
 10
255.0908709588
 20
208.4120218635
 11
254.9920629031
 21
208.2900040765
 72
     1
 10
254.9920629031
 20
208.2900040765
 11
254.8810417964
 21
208.1789829698
 72
     1
 10
254.8810417964
 20
208.1789829698
 11
254.7590240094
 21
208.0801749141
 72
     1
 10
254.7590240094
 20
208.0801749141
 11
254.6273463943
 21
207.994662471
 72
     1
 10
254.6273463943
 20
207.994662471
 11
254.4874516387
 21
207.9233825328
 72
     1
 10
254.4874516387
 20
207.9233825328
 11
254.3408724588
 21
207.8671160573
 72
     1
 10
254.3408724588
 20
207.8671160573
 11
254.1892148068
 21
207.8264795119
 72
     1
 10
254.1892148068
 20
207.8264795119
 11
254.0341402756
 21
207.8019181191
 72
     1
 10
254.0341402756
 20
207.8019181191
 11
253.8773478943
 21
207.7937009786
 72
     1
 10
253.8773478943
 20
207.7937009786
 11
253.8773478943
 21
209.2936979786
 97
        1
330
289
 75
     0
 76
     1
 98
        1
 10
0.0
 20
0.0
  0
LINE
  5
28B
330
214
100
AcDbEntity
  8
1
  6
Continuous
 62
     4
100
AcDbLine
 10
253.8773478943
 20
207.7937009786
 30
0.0
 11
253.8773478943
 21
209.2936979786
 31
0.0
  0
ARC
  5
28C
330
214
100
AcDbEntity
  8
1
  6
Continuous
 62
     4
100
AcDbCircle
 10
253.8773478943
 20
209.2936979786
 30
0.0
 40
1.499997
100
AcDbArc
 50
270.0
 51
360.0
  0
LINE
  5
28D
330
214
100
AcDbEntity
  8
1
  6
Continuous
 62
     4
100
AcDbLine
 10
255.3773448943
 20
209.2936979786
 30
0.0
 11
253.8773478943
 21
209.2936979786
 31
0.0
  0
ENDBLK
  5
28E
330
214
100
AcDbEntity
  8
0
  6
ByBlock
 62
     0
100
AcDbBlockEnd
  0
BLOCK
  5
2D9
330
2D8
100
AcDbEntity
  8
1
  6
Continuous
 62
     3
100
AcDbBlockBegin
  2
NULLPUNKT_BL0
 70
     0
 10
156.50010735
 20
143.0
 30
0.0
  3
NULLPUNKT_BL0
  1

  0
LINE
  5
2DA
330
2D8
100
AcDbEntity
  8
1
  6
Continuous
 62
     4
100
AcDbLine
 10
156.50010735
 20
143.0
 30
0.0
 11
158.00010435
 21
143.0
 31
0.0
  0
ARC
  5
2DB
330
2D8
100
AcDbEntity
  8
1
  6
Continuous
 62
     4
100
AcDbCircle
 10
156.50010735
 20
143.0
 30
0.0
 40
1.499997
100
AcDbArc
 50
180.0
 51
270.0
  0
LINE
  5
2DC
330
2D8
100
AcDbEntity
  8
1
  6
Continuous
 62
     4
100
AcDbLine
 10
156.50010735
 20
143.0
 30
0.0
 11
156.50010735
 21
141.500003
 31
0.0
  0
ARC
  5
2DD
330
2D8
100
AcDbEntity
  8
1
  6
Continuous
 62
     4
100
AcDbCircle
 10
156.50010735
 20
143.0
 30
0.0
 40
1.499997
100
AcDbArc
 50
270.0
 51
360.0
  0
ARC
  5
2DE
330
2D8
100
AcDbEntity
  8
1
  6
Continuous
 62
     4
100
AcDbCircle
 10
156.50010735
 20
143.0
 30
0.0
 40
1.499997
100
AcDbArc
 50
0.0
 51
90.0
  0
ARC
  5
2DF
330
2D8
100
AcDbEntity
  8
1
  6
Continuous
 62
     4
100
AcDbCircle
 10
156.50010735
 20
143.0
 30
0.0
 40
1.499997
100
AcDbArc
 50
90.0
 51
180.0
  0
LINE
  5
2E0
330
2D8
100
AcDbEntity
  8
1
  6
Continuous
 62
     4
100
AcDbLine
 10
156.50010735
 20
144.499997
 30
0.0
 11
156.50010735
 21
143.0
 31
0.0
  0
LINE
  5
2E1
330
2D8
100
AcDbEntity
  8
1
  6
Continuous
 62
     4
100
AcDbLine
 10
155.00011035
 20
143.0
 30
0.0
 11
156.50010735
 21
143.0
 31
0.0
  0
LWPOLYLINE
  5
2E2
330
2D8
100
AcDbEntity
  8
1
  6
Continuous
 62
     4
100
AcDbPolyline
 90
       18
 70
     0
 43
0.0
 10
156.50010735
 20
143.0
 10
155.00011035
 20
143.0
 10
155.0083274905
 20
143.1567923813
 10
155.0328888833
 20
143.3118669125
 10
155.0735254287
 20
143.4635245645
 10
155.1297919042
 20
143.6101037444
 10
155.2010718424
 20
143.7499985
 10
155.2865842855
 20
143.8816761151
 10
155.3853923412
 20
144.0036939021
 10
155.4964134479
 20
144.1147150088
 10
155.6184312349
 20
144.2135230645
 10
155.75010885
 20
144.2990355076
 10
155.8900036056
 20
144.3703154458
 10
156.0365827855
 20
144.4265819213
 10
156.1882404375
 20
144.4672184667
 10
156.3433149687
 20
144.4917798595
 10
156.50010735
 20
144.499997
 10
156.50010735
 20
143.0
  0
HATCH
  5
2E3
330
2D8
100
AcDbEntity
  8
1
  6
Continuous
 62
     4
100
AcDbHatch
 10
0.0
 20
0.0
 30
0.0
210
0.0
220
0.0
230
1.0
  2
SOLID
 70
     1
 71
     0
 91
        1
 92
        1
 93
       17
 72
     1
 10
156.50010735
 20
143.0
 11
155.00011035
 21
143.0
 72
     1
 10
155.00011035
 20
143.0
 11
155.0083274905
 21
143.1567923813
 72
     1
 10
155.0083274905
 20
143.1567923813
 11
155.0328888833
 21
143.3118669125
 72
     1
 10
155.0328888833
 20
143.3118669125
 11
155.0735254287
 21
143.4635245645
 72
     1
 10
155.0735254287
 20
143.4635245645
 11
155.1297919042
 21
143.6101037444
 72
     1
 10
155.1297919042
 20
143.6101037444
 11
155.2010718424
 21
143.7499985
 72
     1
 10
155.2010718424
 20
143.7499985
 11
155.2865842855
 21
143.8816761151
 72
     1
 10
155.2865842855
 20
143.8816761151
 11
155.3853923412
 21
144.0036939021
 72
     1
 10
155.3853923412
 20
144.0036939021
 11
155.4964134479
 21
144.1147150088
 72
     1
 10
155.4964134479
 20
144.1147150088
 11
155.6184312349
 21
144.2135230645
 72
     1
 10
155.6184312349
 20
144.2135230645
 11
155.75010885
 21
144.2990355076
 72
     1
 10
155.75010885
 20
144.2990355076
 11
155.8900036056
 21
144.3703154458
 72
     1
 10
155.8900036056
 20
144.3703154458
 11
156.0365827855
 21
144.4265819213
 72
     1
 10
156.0365827855
 20
144.4265819213
 11
156.1882404375
 21
144.4672184667
 72
     1
 10
156.1882404375
 20
144.4672184667
 11
156.3433149687
 21
144.4917798595
 72
     1
 10
156.3433149687
 20
144.4917798595
 11
156.50010735
 21
144.499997
 72
     1
 10
156.50010735
 20
144.499997
 11
156.50010735
 21
143.0
 97
        0
 75
     0
 76
     1
 98
        1
 10
0.0
 20
0.0
  0
LWPOLYLINE
  5
2E4
330
2D8
100
AcDbEntity
  8
1
  6
Continuous
 62
     4
100
AcDbPolyline
 90
       18
 70
     0
 43
0.0
 10
156.50010735
 20
143.0
 10
158.00010435
 20
143.0
 10
157.9918872095
 20
142.8432076187
 10
157.9673258167
 20
142.6881330875
 10
157.9266892713
 20
142.5364754355
 10
157.8704227958
 20
142.3898962556
 10
157.7991428576
 20
142.2500015
 10
157.7136304145
 20
142.1183238849
 10
157.6148223587999
 20
141.9963060979
 10
157.5038012521
 20
141.8852849912
 10
157.3817834651
 20
141.7864769355
 10
157.25010585
 20
141.7009644924
 10
157.1102110944
 20
141.6296845542
 10
156.9636319145
 20
141.5734180787
 10
156.8119742625
 20
141.5327815333
 10
156.6568997313
 20
141.5082201405
 10
156.50010735
 20
141.500003
 10
156.50010735
 20
143.0
  0
HATCH
  5
2E5
330
2D8
100
AcDbEntity
  8
1
  6
Continuous
 62
     4
100
AcDbHatch
 10
0.0
 20
0.0
 30
0.0
210
0.0
220
0.0
230
1.0
  2
SOLID
 70
     1
 71
     0
 91
        1
 92
        1
 93
       17
 72
     1
 10
156.50010735
 20
143.0
 11
158.00010435
 21
143.0
 72
     1
 10
158.00010435
 20
143.0
 11
157.9918872095
 21
142.8432076187
 72
     1
 10
157.9918872095
 20
142.8432076187
 11
157.9673258167
 21
142.6881330875
 72
     1
 10
157.9673258167
 20
142.6881330875
 11
157.9266892713
 21
142.5364754355
 72
     1
 10
157.9266892713
 20
142.5364754355
 11
157.8704227958
 21
142.3898962556
 72
     1
 10
157.8704227958
 20
142.3898962556
 11
157.7991428576
 21
142.2500015
 72
     1
 10
157.7991428576
 20
142.2500015
 11
157.7136304145
 21
142.1183238849
 72
     1
 10
157.7136304145
 20
142.1183238849
 11
157.6148223587999
 21
141.9963060979
 72
     1
 10
157.6148223587999
 20
141.9963060979
 11
157.5038012521
 21
141.8852849912
 72
     1
 10
157.5038012521
 20
141.8852849912
 11
157.3817834651
 21
141.7864769355
 72
     1
 10
157.3817834651
 20
141.7864769355
 11
157.25010585
 21
141.7009644924
 72
     1
 10
157.25010585
 20
141.7009644924
 11
157.1102110944
 21
141.6296845542
 72
     1
 10
157.1102110944
 20
141.6296845542
 11
156.9636319145
 21
141.5734180787
 72
     1
 10
156.9636319145
 20
141.5734180787
 11
156.8119742625
 21
141.5327815333
 72
     1
 10
156.8119742625
 20
141.5327815333
 11
156.6568997313
 21
141.5082201405
 72
     1
 10
156.6568997313
 20
141.5082201405
 11
156.50010735
 21
141.500003
 72
     1
 10
156.50010735
 20
141.500003
 11
156.50010735
 21
143.0
 97
        0
 75
     0
 76
     1
 98
        1
 10
0.0
 20
0.0
  0
LINE
  5
2E6
330
2D8
100
AcDbEntity
  8
1
  6
Continuous
 62
     4
100
AcDbLine
 10
156.50010735
 20
141.500003
 30
0.0
 11
156.50010735
 21
143.0
 31
0.0
  0
ARC
  5
2E7
330
2D8
100
AcDbEntity
  8
1
  6
Continuous
 62
     4
100
AcDbCircle
 10
156.50010735
 20
143.0
 30
0.0
 40
1.499997
100
AcDbArc
 50
270.0
 51
360.0
  0
LINE
  5
2E8
330
2D8
100
AcDbEntity
  8
1
  6
Continuous
 62
     4
100
AcDbLine
 10
158.00010435
 20
143.0
 30
0.0
 11
156.50010735
 21
143.0
 31
0.0
  0
ENDBLK
  5
2E9
330
2D8
100
AcDbEntity
  8
0
  6
ByBlock
 62
     0
100
AcDbBlockEnd
  0
BLOCK
  5
2EB
330
2EA
100
AcDbEntity
  8
1
  6
Continuous
 62
     3
100
AcDbBlockBegin
  2
EINFUEGEPUNKT_BL1
 70
     0
 10
173.50010735
 20
143.0
 30
0.0
  3
EINFUEGEPUNKT_BL1
  1

  0
LINE
  5
2EC
330
2EA
100
AcDbEntity
  8
1
  6
Continuous
 62
     4
100
AcDbLine
 10
173.50010735
 20
143.0
 30
0.0
 11
173.50010735
 21
142.500001
 31
0.0
  0
ARC
  5
2ED
330
2EA
100
AcDbEntity
  8
1
  6
Continuous
 62
     4
100
AcDbCircle
 10
173.50010735
 20
143.0
 30
0.0
 40
0.4999990000000001
100
AcDbArc
 50
90.0
 51
180.0
  0
LINE
  5
2EE
330
2EA
100
AcDbEntity
  8
1
  6
Continuous
 62
     4
100
AcDbLine
 10
173.50010735
 20
143.0
 30
0.0
 11
173.00010835
 21
143.0
 31
0.0
  0
ARC
  5
2EF
330
2EA
100
AcDbEntity
  8
1
  6
Continuous
 62
     4
100
AcDbCircle
 10
173.50010735
 20
143.0
 30
0.0
 40
0.4999990000000001
100
AcDbArc
 50
180.0
 51
270.0
  0
ARC
  5
2F0
330
2EA
100
AcDbEntity
  8
1
  6
Continuous
 62
     4
100
AcDbCircle
 10
173.50010735
 20
143.0
 30
0.0
 40
0.4999990000000001
100
AcDbArc
 50
270.0
 51
360.0
  0
ARC
  5
2F1
330
2EA
100
AcDbEntity
  8
1
  6
Continuous
 62
     4
100
AcDbCircle
 10
173.50010735
 20
143.0
 30
0.0
 40
0.4999990000000001
100
AcDbArc
 50
0.0
 51
90.0
  0
LINE
  5
2F2
330
2EA
100
AcDbEntity
  8
1
  6
Continuous
 62
     4
100
AcDbLine
 10
174.00010635
 20
143.0
 30
0.0
 11
173.50010735
 21
143.0
 31
0.0
  0
LINE
  5
2F3
330
2EA
100
AcDbEntity
  8
1
  6
Continuous
 62
     4
100
AcDbLine
 10
173.50010735
 20
143.499999
 30
0.0
 11
173.50010735
 21
143.0
 31
0.0
  0
LWPOLYLINE
  5
2F4
330
2EA
100
AcDbEntity
  8
1
  6
Continuous
 62
     4
100
AcDbPolyline
 90
       18
 70
     0
 43
0.0
 10
173.50010735
 20
143.0
 10
173.50010735
 20
143.499999
 10
173.5523714771
 20
143.4972599532
 10
173.6040629875
 20
143.4890728222
 10
173.6546155382
 20
143.4755273071
 10
173.7034752648
 20
143.4567718153
 10
173.75010685
 20
143.4330118359
 10
173.7939993884
 20
143.4045076882
 10
173.834671984
 20
143.3715716696
 10
173.8716790196
 20
143.334564634
 10
173.9046150382
 20
143.2938920384
 10
173.9331191859
 20
143.2499995
 10
173.9568791653
 20
143.2033679148
 10
173.9756346571
 20
143.1545081882
 10
173.9891801722
 20
143.1039556375
 10
173.9973673032
 20
143.0522641271
 10
174.00010635
 20
143.0
 10
173.50010735
 20
143.0
  0
HATCH
  5
2F5
330
2EA
100
AcDbEntity
  8
1
  6
Continuous
 62
     4
100
AcDbHatch
 10
0.0
 20
0.0
 30
0.0
210
0.0
220
0.0
230
1.0
  2
SOLID
 70
     1
 71
     0
 91
        1
 92
        1
 93
       17
 72
     1
 10
173.50010735
 20
143.0
 11
173.50010735
 21
143.499999
 72
     1
 10
173.50010735
 20
143.499999
 11
173.5523714771
 21
143.4972599532
 72
     1
 10
173.5523714771
 20
143.4972599532
 11
173.6040629875
 21
143.4890728222
 72
     1
 10
173.6040629875
 20
143.4890728222
 11
173.6546155382
 21
143.4755273071
 72
     1
 10
173.6546155382
 20
143.4755273071
 11
173.7034752648
 21
143.4567718153
 72
     1
 10
173.7034752648
 20
143.4567718153
 11
173.75010685
 21
143.4330118359
 72
     1
 10
173.75010685
 20
143.4330118359
 11
173.7939993884
 21
143.4045076882
 72
     1
 10
173.7939993884
 20
143.4045076882
 11
173.834671984
 21
143.3715716696
 72
     1
 10
173.834671984
 20
143.3715716696
 11
173.8716790196
 21
143.334564634
 72
     1
 10
173.8716790196
 20
143.334564634
 11
173.9046150382
 21
143.2938920384
 72
     1
 10
173.9046150382
 20
143.2938920384
 11
173.9331191859
 21
143.2499995
 72
     1
 10
173.9331191859
 20
143.2499995
 11
173.9568791653
 21
143.2033679148
 72
     1
 10
173.9568791653
 20
143.2033679148
 11
173.9756346571
 21
143.1545081882
 72
     1
 10
173.9756346571
 20
143.1545081882
 11
173.9891801722
 21
143.1039556375
 72
     1
 10
173.9891801722
 20
143.1039556375
 11
173.9973673032
 21
143.0522641271
 72
     1
 10
173.9973673032
 20
143.0522641271
 11
174.00010635
 21
143.0
 72
     1
 10
174.00010635
 20
143.0
 11
173.50010735
 21
143.0
 97
        0
 75
     0
 76
     1
 98
        1
 10
0.0
 20
0.0
  0
LWPOLYLINE
  5
2F6
330
2EA
100
AcDbEntity
  8
1
  6
Continuous
 62
     4
100
AcDbPolyline
 90
       18
 70
     0
 43
0.0
 10
173.50010735
 20
143.0
 10
173.50010735
 20
142.500001
 10
173.4478432229
 20
142.5027400468
 10
173.3961517125
 20
142.5109271778
 10
173.3455991618
 20
142.5244726929
 10
173.2967394352
 20
142.5432281846999
 10
173.25010785
 20
142.5669881641
 10
173.2062153116
 20
142.5954923118
 10
173.1655427159999
 20
142.6284283304
 10
173.1285356804
 20
142.665435366
 10
173.0955996618
 20
142.7061079616
 10
173.0670955141
 20
142.7500005
 10
173.0433355347
 20
142.7966320852
 10
173.0245800429
 20
142.8454918118
 10
173.0110345277999
 20
142.8960443625
 10
173.0028473968
 20
142.9477358729
 10
173.00010835
 20
143.0
 10
173.50010735
 20
143.0
  0
HATCH
  5
2F7
330
2EA
100
AcDbEntity
  8
1
  6
Continuous
 62
     4
100
AcDbHatch
 10
0.0
 20
0.0
 30
0.0
210
0.0
220
0.0
230
1.0
  2
SOLID
 70
     1
 71
     0
 91
        1
 92
        1
 93
       17
 72
     1
 10
173.50010735
 20
143.0
 11
173.50010735
 21
142.500001
 72
     1
 10
173.50010735
 20
142.500001
 11
173.4478432229
 21
142.5027400468
 72
     1
 10
173.4478432229
 20
142.5027400468
 11
173.3961517125
 21
142.5109271778
 72
     1
 10
173.3961517125
 20
142.5109271778
 11
173.3455991618
 21
142.5244726929
 72
     1
 10
173.3455991618
 20
142.5244726929
 11
173.2967394352
 21
142.5432281846999
 72
     1
 10
173.2967394352
 20
142.5432281846999
 11
173.25010785
 21
142.5669881641
 72
     1
 10
173.25010785
 20
142.5669881641
 11
173.2062153116
 21
142.5954923118
 72
     1
 10
173.2062153116
 20
142.5954923118
 11
173.1655427159999
 21
142.6284283304
 72
     1
 10
173.1655427159999
 20
142.6284283304
 11
173.1285356804
 21
142.665435366
 72
     1
 10
173.1285356804
 20
142.665435366
 11
173.0955996618
 21
142.7061079616
 72
     1
 10
173.0955996618
 20
142.7061079616
 11
173.0670955141
 21
142.7500005
 72
     1
 10
173.0670955141
 20
142.7500005
 11
173.0433355347
 21
142.7966320852
 72
     1
 10
173.0433355347
 20
142.7966320852
 11
173.0245800429
 21
142.8454918118
 72
     1
 10
173.0245800429
 20
142.8454918118
 11
173.0110345277999
 21
142.8960443625
 72
     1
 10
173.0110345277999
 20
142.8960443625
 11
173.0028473968
 21
142.9477358729
 72
     1
 10
173.0028473968
 20
142.9477358729
 11
173.00010835
 21
143.0
 72
     1
 10
173.00010835
 20
143.0
 11
173.50010735
 21
143.0
 97
        0
 75
     0
 76
     1
 98
        1
 10
0.0
 20
0.0
  0
LINE
  5
2F8
330
2EA
100
AcDbEntity
  8
1
  6
Continuous
 62
     4
100
AcDbLine
 10
173.00010835
 20
143.0
 30
0.0
 11
173.50010735
 21
143.0
 31
0.0
  0
ARC
  5
2F9
330
2EA
100
AcDbEntity
  8
1
  6
Continuous
 62
     4
100
AcDbCircle
 10
173.50010735
 20
143.0
 30
0.0
 40
0.4999990000000001
100
AcDbArc
 50
180.0
 51
270.0
  0
LINE
  5
2FA
330
2EA
100
AcDbEntity
  8
1
  6
Continuous
 62
     4
100
AcDbLine
 10
173.50010735
 20
142.500001
 30
0.0
 11
173.50010735
 21
143.0
 31
0.0
  0
ENDBLK
  5
2FB
330
2EA
100
AcDbEntity
  8
0
  6
ByBlock
 62
     0
100
AcDbBlockEnd
  0
BLOCK
  5
462
330
458
100
AcDbEntity
  8
0
100
AcDbBlockBegin
  2
*D24
 70
     1
 10
0.0
 20
0.0
 30
0.0
  3
*D24
  1

  0
LINE
  5
4C4
330
458
100
AcDbEntity
  8
SK2
370
    -2
100
AcDbLine
 10
478.10659649551
 20
242.6139082085271
 30
0.0
 11
456.6063817955101
 21
242.6139082085271
 31
0.0
  0
LINE
  5
4C5
330
458
100
AcDbEntity
  8
SK2
370
    -2
100
AcDbLine
 10
478.10659649551
 20
465.0139082085271
 30
0.0
 11
456.6063817955101
 21
465.0139082085271
 31
0.0
  0
LINE
  5
4C6
330
458
100
AcDbEntity
  8
SK2
370
    -2
100
AcDbLine
 10
458.6063817955101
 20
246.1139082085271
 30
0.0
 11
458.6063817955102
 21
461.5139082085271
 31
0.0
  0
SOLID
  5
4C7
330
458
100
AcDbEntity
  8
SK2
100
AcDbTrace
 10
458.0230484621767
 20
246.1139082085271
 30
0.0
 11
459.1897151288434
 21
246.1139082085271
 31
0.0
 12
458.6063817955101
 22
242.6139082085271
 32
0.0
 13
458.6063817955101
 23
242.6139082085271
 33
0.0
  0
SOLID
  5
4C8
330
458
100
AcDbEntity
  8
SK2
100
AcDbTrace
 10
458.0230484621768
 20
461.5139082085271
 30
0.0
 11
459.1897151288434
 21
461.5139082085271
 31
0.0
 12
458.6063817955102
 22
465.0139082085271
 32
0.0
 13
458.6063817955102
 23
465.0139082085271
 33
0.0
  0
MTEXT
  5
4C9
330
458
100
AcDbEntity
  8
SK2
100
AcDbMText
 10
456.23138179551
 20
353.8139082085271
 30
0.0
 40
3.5
 41
0.0
 71
     5
 72
     1
  1
%%c222.4
 11
0.0000000000000001
 21
1.0
 31
0.0
 73
     1
 44
1.0
1001
ACAD
1000
MTEXTBEGIN
1070
    73
1070
     1
1070
    44
1040
1.0
1070
    74
1070
     0
1000
MTEXTEND
  0
POINT
  5
4CA
330
458
100
AcDbEntity
  8
Defpoints
 62
     0
100
AcDbPoint
 10
478.7315964955101
 20
242.6139082085271
 30
0.0
  0
POINT
  5
4CB
330
458
100
AcDbEntity
  8
Defpoints
 62
     0
100
AcDbPoint
 10
478.7315964955101
 20
465.0139082085271
 30
0.0
  0
POINT
  5
4CC
330
458
100
AcDbEntity
  8
Defpoints
 62
     0
100
AcDbPoint
 10
458.6063817955102
 20
465.0139082085271
 30
0.0
  0
ENDBLK
  5
463
330
458
100
AcDbEntity
  8
0
100
AcDbBlockEnd
  0
BLOCK
  5
46E
330
464
100
AcDbEntity
  8
0
100
AcDbBlockBegin
  2
*D25
 70
     1
 10
0.0
 20
0.0
 30
0.0
  3
*D25
  1

  0
LINE
  5
4CD
330
464
100
AcDbEntity
  8
2
370
    -2
100
AcDbLine
 10
479.73159649551
 20
466.638908208527
 30
0.0
 11
479.73159649551
 21
479.638908208527
 31
0.0
  0
LINE
  5
4CE
330
464
100
AcDbEntity
  8
2
370
    -2
100
AcDbLine
 10
496.73159649551
 20
466.638908208527
 30
0.0
 11
496.73159649551
 21
479.638908208527
 31
0.0
  0
LINE
  5
4CF
330
464
100
AcDbEntity
  8
2
370
    -2
100
AcDbLine
 10
483.2315964955101
 20
477.6389082085271
 30
0.0
 11
493.23159649551
 21
477.6389082085271
 31
0.0
  0
SOLID
  5
4D0
330
464
100
AcDbEntity
  8
2
100
AcDbTrace
 10
483.2315964955101
 20
478.2222415418604
 30
0.0
 11
483.2315964955101
 21
477.0555748751937
 31
0.0
 12
479.73159649551
 22
477.6389082085271
 32
0.0
 13
479.73159649551
 23
477.6389082085271
 33
0.0
  0
SOLID
  5
4D1
330
464
100
AcDbEntity
  8
2
100
AcDbTrace
 10
493.23159649551
 20
478.2222415418604
 30
0.0
 11
493.23159649551
 21
477.0555748751937
 31
0.0
 12
496.73159649551
 22
477.6389082085271
 32
0.0
 13
496.73159649551
 23
477.6389082085271
 33
0.0
  0
MTEXT
  5
4D2
330
464
100
AcDbEntity
  8
2
100
AcDbMText
 10
488.23159649551
 20
480.013908208527
 30
0.0
 40
3.5
 41
0.0
 71
     5
 72
     1
  1
17
 73
     1
 44
1.0
1001
ACAD
1000
MTEXTBEGIN
1070
    73
1070
     1
1070
    44
1040
1.0
1070
    74
1070
     0
1000
MTEXTEND
  0
POINT
  5
4D3
330
464
100
AcDbEntity
  8
Defpoints
 62
     0
100
AcDbPoint
 10
479.73159649551
 20
466.0139082085271
 30
0.0
  0
POINT
  5
4D4
330
464
100
AcDbEntity
  8
Defpoints
 62
     0
100
AcDbPoint
 10
496.73159649551
 20
466.0139082085271
 30
0.0
  0
POINT
  5
4D5
330
464
100
AcDbEntity
  8
Defpoints
 62
     0
100
AcDbPoint
 10
496.73159649551
 20
477.6389082085271
 30
0.0
  0
ENDBLK
  5
46F
330
464
100
AcDbEntity
  8
0
100
AcDbBlockEnd
  0
BLOCK
  5
47A
330
470
100
AcDbEntity
  8
0
100
AcDbBlockBegin
  2
*D26
 70
     1
 10
0.0
 20
0.0
 30
0.0
  3
*D26
  1

  0
LINE
  5
4D6
330
470
100
AcDbEntity
  8
SK2
370
    -2
100
AcDbLine
 10
515.85648914551
 20
252.4639082085271
 30
0.0
 11
581.60659649551
 21
252.4639082085271
 31
0.0
  0
LINE
  5
4D7
330
470
100
AcDbEntity
  8
SK2
370
    -2
100
AcDbLine
 10
515.85648914551
 20
455.1639082085271
 30
0.0
 11
581.6065964955101
 21
455.1639082085271
 31
0.0
  0
LINE
  5
4D8
330
470
100
AcDbEntity
  8
SK2
370
    -2
100
AcDbLine
 10
579.6065964955101
 20
255.9639082085271
 30
0.0
 11
579.6065964955102
 21
451.6639082085271
 31
0.0
  0
SOLID
  5
4D9
330
470
100
AcDbEntity
  8
SK2
100
AcDbTrace
 10
579.0232631621766
 20
255.9639082085271
 30
0.0
 11
580.1899298288434
 21
255.9639082085271
 31
0.0
 12
579.6065964955101
 22
252.4639082085271
 32
0.0
 13
579.6065964955101
 23
252.4639082085271
 33
0.0
  0
SOLID
  5
4DA
330
470
100
AcDbEntity
  8
SK2
100
AcDbTrace
 10
579.0232631621768
 20
451.6639082085271
 30
0.0
 11
580.1899298288435
 21
451.6639082085271
 31
0.0
 12
579.6065964955102
 22
455.1639082085271
 32
0.0
 13
579.6065964955102
 23
455.1639082085271
 33
0.0
  0
MTEXT
  5
4DB
330
470
100
AcDbEntity
  8
SK2
100
AcDbMText
 10
577.23159649551
 20
353.8139082085271
 30
0.0
 40
3.5
 41
0.0
 71
     5
 72
     1
  1
%%c202.7
 11
0.0000000000000001
 21
1.0
 31
0.0
 73
     1
 44
1.0
1001
ACAD
1000
MTEXTBEGIN
1070
    73
1070
     1
1070
    44
1040
1.0
1070
    74
1070
     0
1000
MTEXTEND
  0
POINT
  5
4DC
330
470
100
AcDbEntity
  8
Defpoints
 62
     0
100
AcDbPoint
 10
515.23148914551
 20
252.4639082085271
 30
0.0
  0
POINT
  5
4DD
330
470
100
AcDbEntity
  8
Defpoints
 62
     0
100
AcDbPoint
 10
515.23148914551
 20
455.1639082085271
 30
0.0
  0
POINT
  5
4DE
330
470
100
AcDbEntity
  8
Defpoints
 62
     0
100
AcDbPoint
 10
579.6065964955102
 20
455.1639082085271
 30
0.0
  0
ENDBLK
  5
47B
330
470
100
AcDbEntity
  8
0
100
AcDbBlockEnd
  0
BLOCK
  5
486
330
47C
100
AcDbEntity
  8
0
100
AcDbBlockBegin
  2
*D27
 70
     1
 10
0.0
 20
0.0
 30
0.0
  3
*D27
  1

  0
LINE
  5
4DF
330
47C
100
AcDbEntity
  8
SK2
370
    -2
100
AcDbLine
 10
540.85648914551
 20
272.2139082085271
 30
0.0
 11
573.1065964955101
 21
272.2139082085271
 31
0.0
  0
LINE
  5
4E0
330
47C
100
AcDbEntity
  8
SK2
370
    -2
100
AcDbLine
 10
540.85648914551
 20
435.4139082085271
 30
0.0
 11
573.1065964955101
 21
435.4139082085271
 31
0.0
  0
LINE
  5
4E1
330
47C
100
AcDbEntity
  8
SK2
370
    -2
100
AcDbLine
 10
571.1065964955102
 20
275.7139082085271
 30
0.0
 11
571.1065964955102
 21
431.913908208527
 31
0.0
  0
SOLID
  5
4E2
330
47C
100
AcDbEntity
  8
SK2
100
AcDbTrace
 10
570.5232631621767
 20
275.7139082085271
 30
0.0
 11
571.6899298288435
 21
275.7139082085271
 31
0.0
 12
571.1065964955102
 22
272.2139082085271
 32
0.0
 13
571.1065964955102
 23
272.2139082085271
 33
0.0
  0
SOLID
  5
4E3
330
47C
100
AcDbEntity
  8
SK2
100
AcDbTrace
 10
570.5232631621767
 20
431.913908208527
 30
0.0
 11
571.6899298288435
 21
431.913908208527
 31
0.0
 12
571.1065964955102
 22
435.4139082085271
 32
0.0
 13
571.1065964955102
 23
435.4139082085271
 33
0.0
  0
MTEXT
  5
4E4
330
47C
100
AcDbEntity
  8
SK2
100
AcDbMText
 10
568.73159649551
 20
353.8139082085271
 30
0.0
 40
3.5
 41
0.0
 71
     5
 72
     1
  1
%%c163.2
 11
0.0000000000000001
 21
1.0
 31
0.0
 73
     1
 44
1.0
1001
ACAD
1000
MTEXTBEGIN
1070
    73
1070
     1
1070
    44
1040
1.0
1070
    74
1070
     0
1000
MTEXTEND
  0
POINT
  5
4E5
330
47C
100
AcDbEntity
  8
Defpoints
 62
     0
100
AcDbPoint
 10
540.23148914551
 20
272.2139082085271
 30
0.0
  0
POINT
  5
4E6
330
47C
100
AcDbEntity
  8
Defpoints
 62
     0
100
AcDbPoint
 10
540.23148914551
 20
435.4139082085271
 30
0.0
  0
POINT
  5
4E7
330
47C
100
AcDbEntity
  8
Defpoints
 62
     0
100
AcDbPoint
 10
571.1065964955102
 20
435.4139082085271
 30
0.0
  0
ENDBLK
  5
487
330
47C
100
AcDbEntity
  8
0
100
AcDbBlockEnd
  0
BLOCK
  5
492
330
488
100
AcDbEntity
  8
0
100
AcDbBlockBegin
  2
*D28
 70
     1
 10
0.0
 20
0.0
 30
0.0
  3
*D28
  1

  0
LINE
  5
4E8
330
488
100
AcDbEntity
  8
SK2
370
    -2
100
AcDbLine
 10
479.73159649551
 20
466.638908208527
 30
0.0
 11
479.73159649551
 21
488.138908208527
 31
0.0
  0
LINE
  5
4E9
330
488
100
AcDbEntity
  8
SK2
370
    -2
100
AcDbLine
 10
514.83159649551
 20
456.7889082085271
 30
0.0
 11
514.83159649551
 21
488.138908208527
 31
0.0
  0
LINE
  5
4EA
330
488
100
AcDbEntity
  8
SK2
370
    -2
100
AcDbLine
 10
483.2315964955101
 20
486.138908208527
 30
0.0
 11
511.33159649551
 21
486.138908208527
 31
0.0
  0
SOLID
  5
4EB
330
488
100
AcDbEntity
  8
SK2
100
AcDbTrace
 10
483.2315964955101
 20
486.7222415418604
 30
0.0
 11
483.2315964955101
 21
485.5555748751937
 31
0.0
 12
479.73159649551
 22
486.138908208527
 32
0.0
 13
479.73159649551
 23
486.138908208527
 33
0.0
  0
SOLID
  5
4EC
330
488
100
AcDbEntity
  8
SK2
100
AcDbTrace
 10
511.33159649551
 20
486.7222415418604
 30
0.0
 11
511.33159649551
 21
485.5555748751937
 31
0.0
 12
514.83159649551
 22
486.138908208527
 32
0.0
 13
514.83159649551
 23
486.138908208527
 33
0.0
  0
MTEXT
  5
4ED
330
488
100
AcDbEntity
  8
SK2
100
AcDbMText
 10
497.28159649551
 20
488.513908208527
 30
0.0
 40
3.5
 41
0.0
 71
     5
 72
     1
  1
35.1
 73
     1
 44
1.0
1001
ACAD
1000
MTEXTBEGIN
1070
    73
1070
     1
1070
    44
1040
1.0
1070
    74
1070
     0
1000
MTEXTEND
  0
POINT
  5
4EE
330
488
100
AcDbEntity
  8
Defpoints
 62
     0
100
AcDbPoint
 10
479.73159649551
 20
466.0139082085271
 30
0.0
  0
POINT
  5
4EF
330
488
100
AcDbEntity
  8
Defpoints
 62
     0
100
AcDbPoint
 10
514.83159649551
 20
456.1639082085271
 30
0.0
  0
POINT
  5
4F0
330
488
100
AcDbEntity
  8
Defpoints
 62
     0
100
AcDbPoint
 10
514.83159649551
 20
486.138908208527
 30
0.0
  0
ENDBLK
  5
493
330
488
100
AcDbEntity
  8
0
100
AcDbBlockEnd
  0
BLOCK
  5
49E
330
494
100
AcDbEntity
  8
0
100
AcDbBlockBegin
  2
*D29
 70
     1
 10
0.0
 20
0.0
 30
0.0
  3
*D29
  1

  0
LINE
  5
4F1
330
494
100
AcDbEntity
  8
SK2
370
    -2
100
AcDbLine
 10
539.73159649551
 20
436.938908208527
 30
0.0
 11
539.73159649551
 21
496.638908208527
 31
0.0
  0
LINE
  5
4F2
330
494
100
AcDbEntity
  8
SK2
370
    -2
100
AcDbLine
 10
479.73159649551
 20
466.938908208527
 30
0.0
 11
479.73159649551
 21
496.638908208527
 31
0.0
  0
LINE
  5
4F3
330
494
100
AcDbEntity
  8
SK2
370
    -2
100
AcDbLine
 10
536.23159649551
 20
494.638908208527
 30
0.0
 11
483.2315964955101
 21
494.638908208527
 31
0.0
  0
SOLID
  5
4F4
330
494
100
AcDbEntity
  8
SK2
100
AcDbTrace
 10
536.23159649551
 20
495.2222415418604
 30
0.0
 11
536.23159649551
 21
494.0555748751937
 31
0.0
 12
539.73159649551
 22
494.638908208527
 32
0.0
 13
539.73159649551
 23
494.638908208527
 33
0.0
  0
SOLID
  5
4F5
330
494
100
AcDbEntity
  8
SK2
100
AcDbTrace
 10
483.2315964955101
 20
495.2222415418604
 30
0.0
 11
483.2315964955101
 21
494.0555748751937
 31
0.0
 12
479.73159649551
 22
494.638908208527
 32
0.0
 13
479.73159649551
 23
494.638908208527
 33
0.0
  0
MTEXT
  5
4F6
330
494
100
AcDbEntity
  8
SK2
100
AcDbMText
 10
509.73159649551
 20
497.013908208527
 30
0.0
 40
3.5
 41
0.0
 71
     5
 72
     1
  1
60
 73
     1
 44
1.0
1001
ACAD
1000
MTEXTBEGIN
1070
    73
1070
     1
1070
    44
1040
1.0
1070
    74
1070
     0
1000
MTEXTEND
  0
POINT
  5
4F7
330
494
100
AcDbEntity
  8
Defpoints
 62
     0
100
AcDbPoint
 10
539.73159649551
 20
436.3139082085271
 30
0.0
  0
POINT
  5
4F8
330
494
100
AcDbEntity
  8
Defpoints
 62
     0
100
AcDbPoint
 10
479.73159649551
 20
466.3139082085271
 30
0.0
  0
POINT
  5
4F9
330
494
100
AcDbEntity
  8
Defpoints
 62
     0
100
AcDbPoint
 10
479.73159649551
 20
494.638908208527
 30
0.0
  0
ENDBLK
  5
49F
330
494
100
AcDbEntity
  8
0
100
AcDbBlockEnd
  0
BLOCK
  5
4AA
330
4A0
100
AcDbEntity
  8
0
100
AcDbBlockBegin
  2
*D30
 70
     1
 10
0.0
 20
0.0
 30
0.0
  3
*D30
  1

  0
LINE
  5
4FA
330
4A0
100
AcDbEntity
  8
SK2
370
    -2
100
AcDbLine
 10
541.35659649551
 20
328.8139082085271
 30
0.0
 11
556.1065964955101
 21
328.8139082085271
 31
0.0
  0
LINE
  5
4FB
330
4A0
100
AcDbEntity
  8
SK2
370
    -2
100
AcDbLine
 10
541.35659649551
 20
378.8139082085271
 30
0.0
 11
556.1065964955101
 21
378.8139082085271
 31
0.0
  0
LINE
  5
4FC
330
4A0
100
AcDbEntity
  8
SK2
370
    -2
100
AcDbLine
 10
554.1065964955102
 20
332.3139082085271
 30
0.0
 11
554.1065964955102
 21
375.3139082085271
 31
0.0
  0
SOLID
  5
4FD
330
4A0
100
AcDbEntity
  8
SK2
100
AcDbTrace
 10
553.5232631621767
 20
332.3139082085271
 30
0.0
 11
554.6899298288435
 21
332.3139082085271
 31
0.0
 12
554.1065964955102
 22
328.8139082085271
 32
0.0
 13
554.1065964955102
 23
328.8139082085271
 33
0.0
  0
SOLID
  5
4FE
330
4A0
100
AcDbEntity
  8
SK2
100
AcDbTrace
 10
553.5232631621767
 20
375.3139082085271
 30
0.0
 11
554.6899298288435
 21
375.3139082085271
 31
0.0
 12
554.1065964955102
 22
378.8139082085271
 32
0.0
 13
554.1065964955102
 23
378.8139082085271
 33
0.0
  0
MTEXT
  5
4FF
330
4A0
100
AcDbEntity
  8
SK2
100
AcDbMText
 10
551.73159649551
 20
353.8139082085271
 30
0.0
 40
3.5
 41
0.0
 71
     5
 72
     1
  1
%%c50
 11
0.0000000000000001
 21
1.0
 31
0.0
 73
     1
 44
1.0
1001
ACAD
1000
MTEXTBEGIN
1070
    73
1070
     1
1070
    44
1040
1.0
1070
    74
1070
     0
1000
MTEXTEND
  0
POINT
  5
500
330
4A0
100
AcDbEntity
  8
Defpoints
 62
     0
100
AcDbPoint
 10
540.7315964955101
 20
328.8139082085271
 30
0.0
  0
POINT
  5
501
330
4A0
100
AcDbEntity
  8
Defpoints
 62
     0
100
AcDbPoint
 10
540.7315964955101
 20
378.8139082085271
 30
0.0
  0
POINT
  5
502
330
4A0
100
AcDbEntity
  8
Defpoints
 62
     0
100
AcDbPoint
 10
554.1065964955102
 20
378.8139082085271
 30
0.0
  0
ENDBLK
  5
4AB
330
4A0
100
AcDbEntity
  8
0
100
AcDbBlockEnd
  0
BLOCK
  5
4B6
330
4AC
100
AcDbEntity
  8
0
100
AcDbBlockBegin
  2
*D31
 70
     1
 10
0.0
 20
0.0
 30
0.0
  3
*D31
  1

  0
LINE
  5
503
330
4AC
100
AcDbEntity
  8
SK2
370
    -2
100
AcDbLine
 10
478.10659649551
 20
323.8139082085271
 30
0.0
 11
465.1063817955101
 21
323.8139082085271
 31
0.0
  0
LINE
  5
504
330
4AC
100
AcDbEntity
  8
SK2
370
    -2
100
AcDbLine
 10
478.10659649551
 20
383.8139082085271
 30
0.0
 11
465.1063817955101
 21
383.8139082085271
 31
0.0
  0
LINE
  5
505
330
4AC
100
AcDbEntity
  8
SK2
370
    -2
100
AcDbLine
 10
467.1063817955101
 20
327.3139082085271
 30
0.0
 11
467.1063817955101
 21
380.3139082085271
 31
0.0
  0
SOLID
  5
506
330
4AC
100
AcDbEntity
  8
SK2
100
AcDbTrace
 10
466.5230484621767
 20
327.3139082085271
 30
0.0
 11
467.6897151288434
 21
327.3139082085271
 31
0.0
 12
467.1063817955101
 22
323.8139082085271
 32
0.0
 13
467.1063817955101
 23
323.8139082085271
 33
0.0
  0
SOLID
  5
507
330
4AC
100
AcDbEntity
  8
SK2
100
AcDbTrace
 10
466.5230484621767
 20
380.3139082085271
 30
0.0
 11
467.6897151288434
 21
380.3139082085271
 31
0.0
 12
467.1063817955101
 22
383.8139082085271
 32
0.0
 13
467.1063817955101
 23
383.8139082085271
 33
0.0
  0
MTEXT
  5
508
330
4AC
100
AcDbEntity
  8
SK2
100
AcDbMText
 10
464.73138179551
 20
353.8139082085271
 30
0.0
 40
3.5
 41
0.0
 71
     5
 72
     1
  1
%%c60
 11
0.0000000000000001
 21
1.0
 31
0.0
 73
     1
 44
1.0
1001
ACAD
1000
MTEXTBEGIN
1070
    73
1070
     1
1070
    44
1040
1.0
1070
    74
1070
     0
1000
MTEXTEND
  0
POINT
  5
509
330
4AC
100
AcDbEntity
  8
Defpoints
 62
     0
100
AcDbPoint
 10
478.7315964955101
 20
323.8139082085271
 30
0.0
  0
POINT
  5
50A
330
4AC
100
AcDbEntity
  8
Defpoints
 62
     0
100
AcDbPoint
 10
478.7315964955101
 20
383.8139082085271
 30
0.0
  0
POINT
  5
50B
330
4AC
100
AcDbEntity
  8
Defpoints
 62
     0
100
AcDbPoint
 10
467.1063817955101
 20
383.8139082085271
 30
0.0
  0
ENDBLK
  5
4B7
330
4AC
100
AcDbEntity
  8
0
100
AcDbBlockEnd
  0
BLOCK
  5
4C2
330
4B8
100
AcDbEntity
  8
0
100
AcDbBlockBegin
  2
*D32
 70
     1
 10
0.0
 20
0.0
 30
0.0
  3
*D32
  1

  0
LINE
  5
50C
330
4B8
100
AcDbEntity
  8
SK2
370
    -2
100
AcDbLine
 10
543.8565964955101
 20
317.8928837242271
 30
0.0
 11
564.6064891455101
 21
317.8928837242271
 31
0.0
  0
LINE
  5
50D
330
4B8
100
AcDbEntity
  8
SK2
370
    -2
100
AcDbLine
 10
543.8565964955101
 20
389.7349326928271
 30
0.0
 11
564.6064891455101
 21
389.7349326928271
 31
0.0
  0
LINE
  5
50E
330
4B8
100
AcDbEntity
  8
SK2
370
    -2
100
AcDbLine
 10
562.6064891455102
 20
321.3928837242271
 30
0.0
 11
562.6064891455102
 21
386.2349326928271
 31
0.0
  0
SOLID
  5
50F
330
4B8
100
AcDbEntity
  8
SK2
100
AcDbTrace
 10
562.0231558121767
 20
321.3928837242271
 30
0.0
 11
563.1898224788435
 21
321.3928837242271
 31
0.0
 12
562.6064891455102
 22
317.8928837242271
 32
0.0
 13
562.6064891455102
 23
317.8928837242271
 33
0.0
  0
SOLID
  5
510
330
4B8
100
AcDbEntity
  8
SK2
100
AcDbTrace
 10
562.0231558121767
 20
386.2349326928271
 30
0.0
 11
563.1898224788435
 21
386.2349326928271
 31
0.0
 12
562.6064891455102
 22
389.7349326928271
 32
0.0
 13
562.6064891455102
 23
389.7349326928271
 33
0.0
  0
MTEXT
  5
511
330
4B8
100
AcDbEntity
  8
SK2
100
AcDbMText
 10
560.23148914551
 20
353.8139082085271
 30
0.0
 40
3.5
 41
0.0
 71
     5
 72
     1
  1
Lk-%%c101.6
 11
0.0000000000000001
 21
1.0
 31
0.0
 73
     1
 44
1.0
1001
ACAD
1000
MTEXTBEGIN
1070
    73
1070
     1
1070
    44
1040
1.0
1070
    74
1070
     0
1000
MTEXTEND
  0
POINT
  5
512
330
4B8
100
AcDbEntity
  8
Defpoints
 62
     0
100
AcDbPoint
 10
543.23159649551
 20
317.8928837242271
 30
0.0
  0
POINT
  5
513
330
4B8
100
AcDbEntity
  8
Defpoints
 62
     0
100
AcDbPoint
 10
543.23159649551
 20
389.7349326928271
 30
0.0
  0
POINT
  5
514
330
4B8
100
AcDbEntity
  8
Defpoints
 62
     0
100
AcDbPoint
 10
562.6064891455102
 20
389.7349326928271
 30
0.0
  0
ENDBLK
  5
4C3
330
4B8
100
AcDbEntity
  8
0
100
AcDbBlockEnd
  0
ENDSEC
  0
SECTION
  2
ENTITIES
  0
DIMENSION
  5
292
330
1B
100
AcDbEntity
  8
SK2
100
AcDbDimension
  2
*D1
 10
-29.62499999999997
 20
155.0
 30
0.0
 11
-29.625
 21
0.0
 31
0.0
 70
   160
  1
%%c310
 71
     5
 42
310.0
  3
ISO-25
100
AcDbAlignedDimension
 13
1.0
 23
-155.0
 33
0.0
 14
1.0
 24
155.0
 34
0.0
 50
90.0
100
AcDbRotatedDimension
  0
DIMENSION
  5
293
330
1B
100
AcDbEntity
  8
2
100
AcDbDimension
  2
*D2
 10
41.99999999999997
 20
167.625
 30
0.0
 11
20.99999999999997
 21
167.625
 31
0.0
 70
   160
  1
42
 71
     5
 42
41.99999999999997
  3
ISO-25
100
AcDbAlignedDimension
 13
0.0
 23
126.0
 33
0.0
 14
41.99999999999997
 24
156.0
 34
0.0
100
AcDbRotatedDimension
  0
DIMENSION
  5
294
330
1B
100
AcDbEntity
  8
SK2
100
AcDbDimension
  2
*D3
 10
102.8753577190999
 20
72.99999999999998
 30
0.0
 11
102.8753577190999
 21
0.0
 31
0.0
 70
   160
  1
%%c146
 71
     5
 42
146.0
  3
ISO-25
100
AcDbAlignedDimension
 13
70.99999999999997
 23
-73.0
 33
0.0
 14
70.99999999999997
 24
73.0
 34
0.0
 50
90.0
100
AcDbRotatedDimension
  0
DIMENSION
  5
295
330
1B
100
AcDbEntity
  8
SK2
100
AcDbDimension
  2
*D4
 10
0.0000000000000031
 20
176.125
 30
0.0
 11
34.99999999999997
 21
176.125
 31
0.0
 70
   160
  1
70
 71
     5
 42
69.99999999999997
  3
ISO-25
100
AcDbAlignedDimension
 13
69.99999999999997
 23
74.2063020214
 33
0.0
 14
0.0
 24
126.2063020214
 34
0.0
 50
180.0
100
AcDbRotatedDimension
  0
DIMENSION
  5
296
330
1B
100
AcDbEntity
  8
SK2
100
AcDbDimension
  2
*D5
 10
77.37535771909998
 20
31.0
 30
0.0
 11
77.37535771909998
 21
0.0
 31
0.0
 70
   160
  1
%%c62
 71
     5
 42
62.0
  3
ISO-25
100
AcDbAlignedDimension
 13
70.99999999999997
 23
-31.0
 33
0.0
 14
70.99999999999997
 24
31.0
 34
0.0
 50
90.0
100
AcDbRotatedDimension
  0
DIMENSION
  5
297
330
1B
100
AcDbEntity
  8
SK2
100
AcDbDimension
  2
*D6
 10
-12.62499999999999
 20
30.0
 30
0.0
 11
-12.625
 21
0.0
 31
0.0
 70
   160
  1
%%c60
 71
     5
 42
60.0
  3
ISO-25
100
AcDbAlignedDimension
 13
-1.0
 23
-30.0
 33
0.0
 14
-1.0
 24
30.0
 34
0.0
 50
90.0
100
AcDbRotatedDimension
  0
DIMENSION
  5
298
330
1B
100
AcDbEntity
  8
SK2
100
AcDbDimension
  2
*D7
 10
85.87535771909999
 20
35.9210244843
 30
0.0
 11
85.87535771909998
 21
0.0
 31
0.0
 70
   160
  1
Lk-%%c101.6
 71
     5
 42
71.84204896859998
  3
ISO-25
100
AcDbAlignedDimension
 13
70.99999999999997
 23
-35.92102448429998
 33
0.0
 14
70.99999999999997
 24
35.92102448430001
 34
0.0
 50
90.0
100
AcDbRotatedDimension
  0
DIMENSION
  5
299
330
1B
100
AcDbEntity
  8
SK2
100
AcDbDimension
  2
*D8
 10
94.37535771909994
 20
62.86179284749998
 30
0.0
 11
94.37535771909992
 21
0.0
 31
0.0
 70
   160
  1
Lk-%%c177.8
 71
     5
 42
125.723585695
  3
ISO-25
100
AcDbAlignedDimension
 13
42.99999999999997
 23
-62.8617928475
 33
0.0
 14
42.99999999999997
 24
62.8617928475
 34
0.0
 50
90.0
100
AcDbRotatedDimension
  0
DIMENSION
  5
29A
330
1B
100
AcDbEntity
  8
SK2
100
AcDbDimension
  2
*D9
 10
-21.12499999999997
 20
125.0
 30
0.0
 11
-21.125
 21
0.0
 31
0.0
 70
   160
  1
%%c250
 71
     5
 42
250.0
  3
ISO-25
100
AcDbAlignedDimension
 13
-1.0
 23
-125.0
 33
0.0
 14
-1.0
 24
125.0
 34
0.0
 50
90.0
100
AcDbRotatedDimension
  0
TEXT
  5
29B
330
1B
100
AcDbEntity
  8
6
100
AcDbText
 10
57.32325443797396
 20
-152.4087541339572
 30
0.0
 40
5.0
  1
FBD60BAJ146RA310
 41
0.8
 72
     1
 11
80.52482924112357
 21
-152.4087541339572
 31
0.0
100
AcDbText
  0
INSERT
  5
29C
330
1B
100
AcDbEntity
  8
1
100
AcDbBlockReference
  2
EINFUEGEPUNKT_BL0
 10
41.99999999999997
 20
0.0
 30
0.0
  0
INSERT
  5
29D
330
1B
100
AcDbEntity
  8
1
100
AcDbBlockReference
  2
NULLPUNKT_BL1
 10
0.0
 20
0.0
 30
0.0
  0
LINE
  5
29E
330
1B
100
AcDbEntity
  8
1
100
AcDbLine
 10
40.4
 20
-155.0
 30
0.0
 11
3.599999999999994
 21
-155.0
 31
0.0
  0
LINE
  5
29F
330
1B
100
AcDbEntity
  8
1
100
AcDbLine
 10
0.3999999999999772
 20
-125.0
 30
0.0
 11
0.0
 21
-125.0
 31
0.0
  0
LINE
  5
2A0
330
1B
100
AcDbEntity
  8
SK1
100
AcDbLine
 10
69.99999999999997
 20
-73.0
 30
0.0
 11
41.99999999999997
 21
-73.0
 31
0.0
  0
LINE
  5
2A1
330
1B
100
AcDbEntity
  8
SK4
100
AcDbLine
 10
44.99999999999997
 20
-62.8617928475
 30
0.0
 11
-3.0
 21
-62.8617928475
 31
0.0
  0
LINE
  5
2A2
330
1B
100
AcDbEntity
  8
NOCUT
100
AcDbLine
 10
0.0
 20
125.0
 30
0.0
 11
0.0
 21
0.0
 31
0.0
  0
LINE
  5
2A3
330
1B
100
AcDbEntity
  8
1
100
AcDbLine
 10
0.0
 20
125.0
 30
0.0
 11
0.0
 21
-125.0
 31
0.0
  0
LINE
  5
2A4
330
1B
100
AcDbEntity
  8
NOCUT
100
AcDbLine
 10
2.0
 20
153.4
 30
0.0
 11
2.0
 21
126.6
 31
0.0
  0
LINE
  5
2A5
330
1B
100
AcDbEntity
  8
1
100
AcDbLine
 10
2.0
 20
153.4
 30
0.0
 11
2.0
 21
-153.4
 31
0.0
  0
LINE
  5
2A6
330
1B
100
AcDbEntity
  8
SK3
100
AcDbLine
 10
13.99999999999997
 20
11.25
 30
0.0
 11
13.99999999999997
 21
-11.25
 31
0.0
  0
LINE
  5
2A7
330
1B
100
AcDbEntity
  8
SK4
100
AcDbLine
 10
72.99999999999997
 20
-35.92102448429998
 30
0.0
 11
-3.0
 21
-35.92102448429998
 31
0.0
  0
LINE
  5
2A8
330
1B
100
AcDbEntity
  8
SK3
100
AcDbLine
 10
69.99999999999997
 20
-31.0
 30
0.0
 11
31.99999999999997
 21
-31.0
 31
0.0
  0
LINE
  5
2A9
330
1B
100
AcDbEntity
  8
SK3
100
AcDbLine
 10
31.99999999999997
 20
-30.0
 30
0.0
 11
0.0
 21
-30.0
 31
0.0
  0
LINE
  5
2AA
330
1B
100
AcDbEntity
  8
SK3
100
AcDbLine
 10
31.99999999999997
 20
31.0
 30
0.0
 11
31.99999999999997
 21
-31.0
 31
0.0
  0
LINE
  5
2AB
330
1B
100
AcDbEntity
  8
NOCUT
100
AcDbLine
 10
41.99999999999997
 20
153.4
 30
0.0
 11
41.99999999999997
 21
0.0
 31
0.0
  0
LINE
  5
2AC
330
1B
100
AcDbEntity
  8
1
100
AcDbLine
 10
41.99999999999997
 20
153.4
 30
0.0
 11
41.99999999999997
 21
-153.4
 31
0.0
  0
LINE
  5
2AD
330
1B
100
AcDbEntity
  8
SK3
100
AcDbLine
 10
0.0
 20
-12.84999999999999
 30
0.0
 11
12.4
 21
-12.84999999999999
 31
0.0
  0
LINE
  5
2AE
330
1B
100
AcDbEntity
  8
NOCUT
100
AcDbLine
 10
41.99999999999997
 20
0.0
 30
0.0
 11
0.0
 21
0.0
 31
0.0
  0
LINE
  5
2AF
330
1B
100
AcDbEntity
  8
4
100
AcDbLine
 10
73.0003586723
 20
0.0
 30
0.0
 11
-3.0
 21
0.0
 31
0.0
  0
LINE
  5
2B0
330
1B
100
AcDbEntity
  8
SK3
100
AcDbLine
 10
12.4
 20
12.85000000000002
 30
0.0
 11
0.0
 21
12.85000000000002
 31
0.0
  0
LINE
  5
2B1
330
1B
100
AcDbEntity
  8
SK1
100
AcDbLine
 10
69.99999999999997
 20
73.0
 30
0.0
 11
69.99999999999997
 21
-73.0
 31
0.0
  0
LINE
  5
2B2
330
1B
100
AcDbEntity
  8
SK3
100
AcDbLine
 10
31.99999999999997
 20
30.0
 30
0.0
 11
0.0
 21
30.0
 31
0.0
  0
LINE
  5
2B3
330
1B
100
AcDbEntity
  8
SK3
100
AcDbLine
 10
69.99999999999997
 20
31.0
 30
0.0
 11
31.99999999999997
 21
31.0
 31
0.0
  0
LINE
  5
2B4
330
1B
100
AcDbEntity
  8
SK4
100
AcDbLine
 10
72.99999999999997
 20
35.92102448430001
 30
0.0
 11
-3.0
 21
35.92102448430001
 31
0.0
  0
LINE
  5
2B5
330
1B
100
AcDbEntity
  8
SK4
100
AcDbLine
 10
44.99999999999997
 20
62.8617928475
 30
0.0
 11
-3.0
 21
62.8617928475
 31
0.0
  0
LINE
  5
2B6
330
1B
100
AcDbEntity
  8
SK1
100
AcDbLine
 10
69.99999999999997
 20
73.0
 30
0.0
 11
41.99999999999997
 21
73.0
 31
0.0
  0
LINE
  5
2B7
330
1B
100
AcDbEntity
  8
NOCUT
100
AcDbLine
 10
0.3999999999999772
 20
125.0
 30
0.0
 11
0.0
 21
125.0
 31
0.0
  0
LINE
  5
2B8
330
1B
100
AcDbEntity
  8
1
100
AcDbLine
 10
0.3999999999999772
 20
125.0
 30
0.0
 11
0.0
 21
125.0
 31
0.0
  0
LINE
  5
2B9
330
1B
100
AcDbEntity
  8
NOCUT
100
AcDbLine
 10
40.4
 20
155.0
 30
0.0
 11
3.599999999999994
 21
155.0
 31
0.0
  0
LINE
  5
2BA
330
1B
100
AcDbEntity
  8
1
100
AcDbLine
 10
40.4
 20
155.0
 30
0.0
 11
3.599999999999994
 21
155.0
 31
0.0
  0
ARC
  5
2BB
330
1B
100
AcDbEntity
  8
SK3
100
AcDbCircle
 10
12.4
 20
11.25
 30
0.0
 40
1.6
100
AcDbArc
 50
0.0
 51
90.0
  0
ARC
  5
2BC
330
1B
100
AcDbEntity
  8
SK3
100
AcDbCircle
 10
12.4
 20
-11.25
 30
0.0
 40
1.6
100
AcDbArc
 50
270.0
 51
0.0
  0
ARC
  5
2BD
330
1B
100
AcDbEntity
  8
NOCUT
100
AcDbCircle
 10
3.599999999999994
 20
153.4
 30
0.0
 40
1.6
100
AcDbArc
 50
90.0
 51
180.0
  0
ARC
  5
2BE
330
1B
100
AcDbEntity
  8
NOCUT
100
AcDbCircle
 10
40.4
 20
153.4
 30
0.0
 40
1.6
100
AcDbArc
 50
0.0
 51
90.0
  0
ARC
  5
2BF
330
1B
100
AcDbEntity
  8
NOCUT
100
AcDbCircle
 10
0.3999999999999772
 20
126.6
 30
0.0
 40
1.6
100
AcDbArc
 50
270.0
 51
359.9999999998999
  0
ARC
  5
2C0
330
1B
100
AcDbEntity
  8
1
100
AcDbCircle
 10
3.599999999999994
 20
-153.4
 30
0.0
 40
1.6
100
AcDbArc
 50
180.0
 51
270.0
  0
ARC
  5
2C1
330
1B
100
AcDbEntity
  8
1
100
AcDbCircle
 10
3.599999999999994
 20
153.4
 30
0.0
 40
1.6
100
AcDbArc
 50
90.0
 51
180.0
  0
ARC
  5
2C2
330
1B
100
AcDbEntity
  8
1
100
AcDbCircle
 10
40.4
 20
-153.4
 30
0.0
 40
1.6
100
AcDbArc
 50
270.0
 51
0.0
  0
ARC
  5
2C3
330
1B
100
AcDbEntity
  8
1
100
AcDbCircle
 10
40.4
 20
153.4
 30
0.0
 40
1.6
100
AcDbArc
 50
0.0
 51
90.0
  0
ARC
  5
2C4
330
1B
100
AcDbEntity
  8
1
100
AcDbCircle
 10
0.3999999999999772
 20
-126.6
 30
0.0
 40
1.6
100
AcDbArc
 50
0.0000000002
 51
90.0
  0
ARC
  5
2C5
330
1B
100
AcDbEntity
  8
1
100
AcDbCircle
 10
0.3999999999999772
 20
126.6
 30
0.0
 40
1.6
100
AcDbArc
 50
270.0
 51
359.9999999998999
  0
ENDSEC
  0
SECTION
  2
OBJECTS
  0
DICTIONARY
  5
2C6
330
0
100
AcDbDictionary
281
     1
  3
ACAD_COLOR
350
2D0
  3
ACAD_GROUP
350
2C7
  3
ACAD_LAYOUT
350
2D3
  3
ACAD_MATERIAL
350
2CF
  3
ACAD_MLINESTYLE
350
2C8
  3
ACAD_PLOTSETTINGS
350
2D4
  3
ACAD_PLOTSTYLENAME
350
2CD
  3
ACAD_TABLESTYLE
350
2D1
  3
ACDBHEADERROUNDTRIPXREC
350
729
  3
AcDbVariableDictionary
350
519
  0
DICTIONARY
  5
515
330
2
100
AcDbDictionary
280
     1
281
     1
  3
ACAD_LAYERFILTERS
360
6E1
  3
ACLYDICTIONARY
360
6E0
  0
DICTIONARY
  5
2D0
102
{ACAD_REACTORS
330
2C6
102
}
330
2C6
100
AcDbDictionary
281
     1
  0
DICTIONARY
  5
2C7
102
{ACAD_REACTORS
330
2C6
102
}
330
2C6
100
AcDbDictionary
281
     1
  0
DICTIONARY
  5
2D3
102
{ACAD_REACTORS
330
2C6
102
}
330
2C6
100
AcDbDictionary
281
     1
  3
Layout1
350
2D6
  3
Model
350
2D5
  0
DICTIONARY
  5
2CF
102
{ACAD_REACTORS
330
2C6
102
}
330
2C6
100
AcDbDictionary
281
     1
  0
DICTIONARY
  5
2C8
102
{ACAD_REACTORS
330
2C6
102
}
330
2C6
100
AcDbDictionary
281
     1
  3
STANDARD
350
2C9
  0
DICTIONARY
  5
2D4
102
{ACAD_REACTORS
330
2C6
102
}
330
2C6
100
AcDbDictionary
281
     1
  0
ACDBDICTIONARYWDFLT
  5
2CD
102
{ACAD_REACTORS
330
2C6
102
}
330
2C6
100
AcDbDictionary
281
     1
  3
Normal
350
2CE
100
AcDbDictionaryWithDefault
340
2CE
  0
DICTIONARY
  5
2D1
102
{ACAD_REACTORS
330
2C6
102
}
330
2C6
100
AcDbDictionary
281
     1
  3
Standard
350
2D2
  0
DICTIONARY
  5
729
102
{ACAD_REACTORS
330
2C6
102
}
330
2C6
100
AcDbDictionary
281
     1
  0
DICTIONARY
  5
519
102
{ACAD_REACTORS
330
2C6
102
}
330
2C6
100
AcDbDictionary
281
     1
  3
CTABLESTYLE
350
51A
  3
DIMASSOC
350
6D8
  3
PROJECTNAME
350
6D9
  0
DICTIONARY
  5
6E1
102
{ACAD_REACTORS
330
515
102
}
330
515
100
AcDbDictionary
281
     1
  0
DICTIONARY
  5
6E0
102
{ACAD_REACTORS
330
515
102
}
330
515
100
AcDbDictionary
281
     1
1001
ACAD
1000
<All
  0
LAYOUT
  5
2D6
102
{ACAD_XDICTIONARY
360
72C
102
}
102
{ACAD_REACTORS
330
2D3
102
}
330
2D3
100
AcDbPlotSettings
  1

  2
\\ingdom02\ITB3
  4

  6

 40
0.0
 41
0.0
 42
0.0
 43
0.0
 44
0.0
 45
0.0
 46
0.0
 47
0.0
 48
0.0
 49
0.0
140
0.0
141
0.0
142
1.0
143
1.0
 70
   688
 72
     0
 73
     0
 74
     5
  7

 75
    16
147
1.0
148
0.0
149
0.0
100
AcDbLayout
  1
Layout1
 70
     1
 71
     1
 10
0.0
 20
0.0
 11
12.0
 21
9.0
 12
0.0
 22
0.0
 32
0.0
 14
1.000000000000000E+20
 24
1.000000000000000E+20
 34
1.000000000000000E+20
 15
-1.000000000000000E+20
 25
-1.000000000000000E+20
 35
-1.000000000000000E+20
146
0.0
 13
0.0
 23
0.0
 33
0.0
 16
1.0
 26
0.0
 36
0.0
 17
0.0
 27
1.0
 37
0.0
 76
     0
330
1C
  0
LAYOUT
  5
2D5
102
{ACAD_XDICTIONARY
360
72A
102
}
102
{ACAD_REACTORS
330
2D3
102
}
330
2D3
100
AcDbPlotSettings
  1

  2
\\ingdom02\ITB3
  4

  6

 40
0.0
 41
0.0
 42
0.0
 43
0.0
 44
0.0
 45
0.0
 46
0.0
 47
0.0
 48
0.0
 49
0.0
140
0.0
141
0.0
142
1.0
143
1.0
 70
  1712
 72
     0
 73
     0
 74
     0
  7

 75
     0
147
1.0
148
0.0
149
0.0
100
AcDbLayout
  1
Model
 70
     1
 71
     0
 10
0.0
 20
0.0
 11
12.0
 21
9.0
 12
0.0
 22
0.0
 32
0.0
 14
0.0
 24
0.0
 34
0.0
 15
0.0
 25
0.0
 35
0.0
146
0.0
 13
0.0
 23
0.0
 33
0.0
 16
1.0
 26
0.0
 36
0.0
 17
0.0
 27
1.0
 37
0.0
 76
     0
330
1B
  0
MLINESTYLE
  5
2C9
102
{ACAD_REACTORS
330
2C8
102
}
330
2C8
100
AcDbMlineStyle
  2
STANDARD
 70
     0
  3

 62
   256
 51
90.0
 52
90.0
 71
     2
 49
0.5
 62
   256
  6
BYLAYER
 49
-0.5
 62
   256
  6
BYLAYER
  0
ACDBPLACEHOLDER
  5
2CE
102
{ACAD_REACTORS
330
2CD
102
}
330
2CD
  0
TABLESTYLE
  5
2D2
102
{ACAD_REACTORS
330
2D1
102
}
330
2D1
100
AcDbTableStyle
  3
Standard
 70
     0
 71
     0
 40
1.5
 41
1.5
280
     0
281
     0
  7
STANDARD
140
4.5
170
     2
 62
     0
 63
     7
283
     0
274
    -2
284
     1
 64
     0
275
    -2
285
     1
 65
     0
276
    -2
286
     1
 66
     0
277
    -2
287
     1
 67
     0
278
    -2
288
     1
 68
     0
279
    -2
289
     1
 69
     0
  7
STANDARD
140
6.0
170
     5
 62
     0
 63
     7
283
     0
274
    -2
284
     1
 64
     0
275
    -2
285
     1
 65
     0
276
    -2
286
     1
 66
     0
277
    -2
287
     1
 67
     0
278
    -2
288
     1
 68
     0
279
    -2
289
     1
 69
     0
  7
STANDARD
140
4.5
170
     5
 62
     0
 63
     7
283
     0
274
    -2
284
     1
 64
     0
275
    -2
285
     1
 65
     0
276
    -2
286
     1
 66
     0
277
    -2
287
     1
 67
     0
278
    -2
288
     1
 68
     0
279
    -2
289
     1
 69
     0
  0
DICTIONARYVAR
  5
51A
102
{ACAD_REACTORS
330
519
102
}
330
519
100
DictionaryVariables
280
     0
  1
STANDARD
  0
DICTIONARYVAR
  5
6D8
102
{ACAD_REACTORS
330
519
102
}
330
519
100
DictionaryVariables
280
     0
  1
1
  0
DICTIONARYVAR
  5
6D9
102
{ACAD_REACTORS
330
519
102
}
330
519
100
DictionaryVariables
280
     0
  1

  0
DICTIONARY
  5
72C
330
2D6
100
AcDbDictionary
280
     1
281
     1
  3
ACAD_XREC_ROUNDTRIP
360
72D
  0
DICTIONARY
  5
72A
330
2D5
100
AcDbDictionary
280
     1
281
     1
  3
ACAD_XREC_ROUNDTRIP
360
72B
  0
XRECORD
  5
72D
102
{ACAD_REACTORS
330
72C
102
}
330
72C
100
AcDbXrecord
280
     1
102
SHADEPLOT
 70
     0
102
SHADEPLOTRESLEVEL
 70
     2
102
SHADEPLOTCUSTOMDPI
 70
   300
  0
XRECORD
  5
72B
102
{ACAD_REACTORS
330
72A
102
}
330
72A
100
AcDbXrecord
280
     1
102
SHADEPLOT
 70
     0
102
SHADEPLOTRESLEVEL
 70
     2
102
SHADEPLOTCUSTOMDPI
 70
   300
  0
ENDSEC
  0
EOF
