  0
SECTION
  2
HEADER
  9
$ACADVER
  1
AC1015
  9
$ACADMAINTVER
 70
    20
  9
$DWGCODEPAGE
  3
ANSI_1252
  9
$INSBASE
 10
0.0
 20
0.0
 30
0.0
  9
$EXTMIN
 10
-33.59921130258499
 20
-155.007018245532
 30
-0.0015258207003583
  9
$EXTMAX
 10
107.2963265000101
 20
180.1034552884562
 30
0.0000000349246037
  9
$LIMMIN
 10
0.0
 20
0.0
  9
$LIMMAX
 10
594.0
 20
420.0
  9
$ORTHOMODE
 70
     0
  9
$REGENMODE
 70
     1
  9
$FILLMODE
 70
     1
  9
$QTEXTMODE
 70
     0
  9
$MIRRTEXT
 70
     0
  9
$LTSCALE
 40
32.67
  9
$ATTMODE
 70
     1
  9
$TEXTSIZE
 40
0.2
  9
$TRACEWID
 40
0.05
  9
$TEXTSTYLE
  7
STANDARD
  9
$CLAYER
  8
0
  9
$CELTYPE
  6
BYLAYER
  9
$CECOLOR
 62
   256
  9
$CELTSCALE
 40
1.0
  9
$DISPSILH
 70
     0
  9
$DIMSCALE
 40
1.0
  9
$DIMASZ
 40
3.5
  9
$DIMEXO
 40
0.625
  9
$DIMDLI
 40
3.75
  9
$DIMRND
 40
0.0
  9
$DIMDLE
 40
0.0
  9
$DIMEXE
 40
2.0
  9
$DIMTP
 40
0.0
  9
$DIMTM
 40
0.0
  9
$DIMTXT
 40
3.5
  9
$DIMCEN
 40
2.5
  9
$DIMTSZ
 40
0.0
  9
$DIMTOL
 70
     0
  9
$DIMLIM
 70
     0
  9
$DIMTIH
 70
     0
  9
$DIMTOH
 70
     0
  9
$DIMSE1
 70
     0
  9
$DIMSE2
 70
     0
  9
$DIMTAD
 70
     1
  9
$DIMZIN
 70
     8
  9
$DIMBLK
  1

  9
$DIMASO
 70
     1
  9
$DIMSHO
 70
     1
  9
$DIMPOST
  1

  9
$DIMAPOST
  1

  9
$DIMALT
 70
     0
  9
$DIMALTD
 70
     3
  9
$DIMALTF
 40
0.03937007874016
  9
$DIMLFAC
 40
1.0
  9
$DIMTOFL
 70
     1
  9
$DIMTVP
 40
0.0
  9
$DIMTIX
 70
     0
  9
$DIMSOXD
 70
     0
  9
$DIMSAH
 70
     0
  9
$DIMBLK1
  1

  9
$DIMBLK2
  1

  9
$DIMSTYLE
  2
ISO-25
  9
$DIMCLRD
 70
   256
  9
$DIMCLRE
 70
   256
  9
$DIMCLRT
 70
   256
  9
$DIMTFAC
 40
1.0
  9
$DIMGAP
 40
0.625
  9
$DIMJUST
 70
     0
  9
$DIMSD1
 70
     0
  9
$DIMSD2
 70
     0
  9
$DIMTOLJ
 70
     0
  9
$DIMTZIN
 70
     8
  9
$DIMALTZ
 70
     0
  9
$DIMALTTZ
 70
     0
  9
$DIMUPT
 70
     0
  9
$DIMDEC
 70
     2
  9
$DIMTDEC
 70
     2
  9
$DIMALTU
 70
     2
  9
$DIMALTTD
 70
     3
  9
$DIMTXSTY
  7
STANDARD
  9
$DIMAUNIT
 70
     0
  9
$DIMADEC
 70
     0
  9
$DIMALTRND
 40
0.0
  9
$DIMAZIN
 70
     0
  9
$DIMDSEP
 70
    46
  9
$DIMATFIT
 70
     3
  9
$DIMFRAC
 70
     0
  9
$DIMLDRBLK
  1

  9
$DIMLUNIT
 70
     2
  9
$DIMLWD
 70
    -2
  9
$DIMLWE
 70
    -2
  9
$DIMTMOVE
 70
     0
  9
$LUNITS
 70
     2
  9
$LUPREC
 70
     4
  9
$SKETCHINC
 40
0.1
  9
$FILLETRAD
 40
0.0
  9
$AUNITS
 70
     0
  9
$AUPREC
 70
     0
  9
$MENU
  1
.
  9
$ELEVATION
 40
0.0
  9
$PELEVATION
 40
0.0
  9
$THICKNESS
 40
0.0
  9
$LIMCHECK
 70
     0
  9
$CHAMFERA
 40
0.0
  9
$CHAMFERB
 40
0.0
  9
$CHAMFERC
 40
0.0
  9
$CHAMFERD
 40
0.0
  9
$SKPOLY
 70
     0
  9
$TDCREATE
 40
2453791.376483681
  9
$TDUCREATE
 40
2453791.334817014
  9
$TDUPDATE
 40
2453791.420065776
  9
$TDUUPDATE
 40
2453791.378399109
  9
$TDINDWG
 40
0.0435824537
  9
$TDUSRTIMER
 40
0.0435824537
  9
$USRTIMER
 70
     1
  9
$ANGBASE
 50
0.0
  9
$ANGDIR
 70
     0
  9
$PDMODE
 70
     3
  9
$PDSIZE
 40
0.3125
  9
$PLINEWID
 40
0.0
  9
$SPLFRAME
 70
     0
  9
$SPLINETYPE
 70
     6
  9
$SPLINESEGS
 70
     8
  9
$HANDSEED
  5
666
  9
$SURFTAB1
 70
     6
  9
$SURFTAB2
 70
     6
  9
$SURFTYPE
 70
     6
  9
$SURFU
 70
     6
  9
$SURFV
 70
     6
  9
$UCSBASE
  2

  9
$UCSNAME
  2

  9
$UCSORG
 10
0.0
 20
0.0
 30
0.0
  9
$UCSXDIR
 10
1.0
 20
0.0
 30
0.0
  9
$UCSYDIR
 10
0.0
 20
1.0
 30
0.0
  9
$UCSORTHOREF
  2

  9
$UCSORTHOVIEW
 70
     0
  9
$UCSORGTOP
 10
0.0
 20
0.0
 30
0.0
  9
$UCSORGBOTTOM
 10
0.0
 20
0.0
 30
0.0
  9
$UCSORGLEFT
 10
0.0
 20
0.0
 30
0.0
  9
$UCSORGRIGHT
 10
0.0
 20
0.0
 30
0.0
  9
$UCSORGFRONT
 10
0.0
 20
0.0
 30
0.0
  9
$UCSORGBACK
 10
0.0
 20
0.0
 30
0.0
  9
$PUCSBASE
  2

  9
$PUCSNAME
  2

  9
$PUCSORG
 10
0.0
 20
0.0
 30
0.0
  9
$PUCSXDIR
 10
1.0
 20
0.0
 30
0.0
  9
$PUCSYDIR
 10
0.0
 20
1.0
 30
0.0
  9
$PUCSORTHOREF
  2

  9
$PUCSORTHOVIEW
 70
     0
  9
$PUCSORGTOP
 10
0.0
 20
0.0
 30
0.0
  9
$PUCSORGBOTTOM
 10
0.0
 20
0.0
 30
0.0
  9
$PUCSORGLEFT
 10
0.0
 20
0.0
 30
0.0
  9
$PUCSORGRIGHT
 10
0.0
 20
0.0
 30
0.0
  9
$PUCSORGFRONT
 10
0.0
 20
0.0
 30
0.0
  9
$PUCSORGBACK
 10
0.0
 20
0.0
 30
0.0
  9
$USERI1
 70
     0
  9
$USERI2
 70
     0
  9
$USERI3
 70
     0
  9
$USERI4
 70
     0
  9
$USERI5
 70
     0
  9
$USERR1
 40
0.0
  9
$USERR2
 40
0.0
  9
$USERR3
 40
0.0
  9
$USERR4
 40
0.0
  9
$USERR5
 40
0.0
  9
$WORLDVIEW
 70
     1
  9
$SHADEDGE
 70
     3
  9
$SHADEDIF
 70
    70
  9
$TILEMODE
 70
     1
  9
$MAXACTVP
 70
    64
  9
$PINSBASE
 10
0.0
 20
0.0
 30
0.0
  9
$PLIMCHECK
 70
     0
  9
$PEXTMIN
 10
1.000000000000000E+20
 20
1.000000000000000E+20
 30
1.000000000000000E+20
  9
$PEXTMAX
 10
-1.000000000000000E+20
 20
-1.000000000000000E+20
 30
-1.000000000000000E+20
  9
$PLIMMIN
 10
0.0
 20
0.0
  9
$PLIMMAX
 10
12.0
 20
9.0
  9
$UNITMODE
 70
     0
  9
$VISRETAIN
 70
     1
  9
$PLINEGEN
 70
     0
  9
$PSLTSCALE
 70
     1
  9
$TREEDEPTH
 70
  3020
  9
$CMLSTYLE
  2
STANDARD
  9
$CMLJUST
 70
     0
  9
$CMLSCALE
 40
1.0
  9
$PROXYGRAPHICS
 70
     1
  9
$MEASUREMENT
 70
     1
  9
$CELWEIGHT
370
    -1
  9
$ENDCAPS
280
     0
  9
$JOINSTYLE
280
     0
  9
$LWDISPLAY
290
     0
  9
$INSUNITS
 70
     0
  9
$HYPERLINKBASE
  1

  9
$STYLESHEET
  1

  9
$XEDIT
290
     1
  9
$CEPSNTYPE
380
     0
  9
$PSTYLEMODE
290
     1
  9
$FINGERPRINTGUID
  2
{5DA1BC06-4043-4BEF-BD85-CAC4A9BCC6DA}
  9
$VERSIONGUID
  2
{E2BBA7E9-72B6-4A6B-9504-D34D8EEA220D}
  9
$EXTNAMES
290
     1
  9
$PSVPSCALE
 40
0.0
  9
$OLESTARTUP
290
     0
  0
ENDSEC
  0
SECTION
  2
CLASSES
  0
CLASS
  1
ACDBDICTIONARYWDFLT
  2
AcDbDictionaryWithDefault
  3
ObjectDBX Classes
 90
        0
280
     0
281
     0
  0
CLASS
  1
TABLESTYLE
  2
AcDbTableStyle
  3
ObjectDBX Classes
 90
     2047
280
     0
281
     0
  0
CLASS
  1
DICTIONARYVAR
  2
AcDbDictionaryVar
  3
ObjectDBX Classes
 90
        0
280
     0
281
     0
  0
CLASS
  1
ACDBPLACEHOLDER
  2
AcDbPlaceHolder
  3
ObjectDBX Classes
 90
        0
280
     0
281
     0
  0
CLASS
  1
LAYOUT
  2
AcDbLayout
  3
ObjectDBX Classes
 90
        0
280
     0
281
     0
  0
ENDSEC
  0
SECTION
  2
TABLES
  0
TABLE
  2
VPORT
  5
8
330
0
100
AcDbSymbolTable
 70
     2
  0
VPORT
  5
660
330
8
100
AcDbSymbolTableRecord
100
AcDbViewportTableRecord
  2
*Active
 70
     0
 10
0.0
 20
0.0
 11
1.0
 21
1.0
 12
36.84855759871255
 22
12.5482185214621
 13
0.0
 23
0.0
 14
1.0
 24
1.0
 15
0.0
 25
0.0
 16
0.0
 26
0.0
 36
1.0
 17
0.0
 27
0.0
 37
0.0
 40
337.6238020854931
 41
1.494367959949937
 42
50.0
 43
0.0
 44
0.0
 50
0.0
 51
0.0
 71
     0
 72
   100
 73
     1
 74
     1
 75
     0
 76
     0
 77
     0
 78
     0
281
     0
 65
     1
110
0.0
120
0.0
130
0.0
111
1.0
121
0.0
131
0.0
112
0.0
122
1.0
132
0.0
 79
     0
146
0.0
  0
ENDTAB
  0
TABLE
  2
LTYPE
  5
5
330
0
100
AcDbSymbolTable
 70
     6
  0
LTYPE
  5
14
330
5
100
AcDbSymbolTableRecord
100
AcDbLinetypeTableRecord
  2
BYBLOCK
 70
     0
  3

 72
    65
 73
     0
 40
0.0
  0
LTYPE
  5
15
330
5
100
AcDbSymbolTableRecord
100
AcDbLinetypeTableRecord
  2
BYLAYER
 70
     0
  3

 72
    65
 73
     0
 40
0.0
  0
LTYPE
  5
16
330
5
100
AcDbSymbolTableRecord
100
AcDbLinetypeTableRecord
  2
CONTINUOUS
 70
     0
  3
Solid line
 72
    65
 73
     0
 40
0.0
  0
LTYPE
  5
1F5
330
5
100
AcDbSymbolTableRecord
100
AcDbLinetypeTableRecord
  2
CENTER
 70
     0
  3
____ _ ____ _ ____ _ ____ _ ____ _ ____ _ ____
 72
    65
 73
     4
 40
0.6
 49
0.375
 74
     0
 49
-0.075
 74
     0
 49
0.075
 74
     0
 49
-0.075
 74
     0
  0
LTYPE
  5
1F6
330
5
100
AcDbSymbolTableRecord
100
AcDbLinetypeTableRecord
  2
HIDDEN
 70
     0
  3
- - - - - - - - - - - - - - - - - - - -
 72
    65
 73
     2
 40
0.2
 49
0.1
 74
     0
 49
-0.1
 74
     0
  0
ENDTAB
  0
TABLE
  2
LAYER
  5
2
102
{ACAD_XDICTIONARY
360
2B6
102
}
330
0
100
AcDbSymbolTable
 70
    14
  0
LAYER
  5
10
330
2
100
AcDbSymbolTableRecord
100
AcDbLayerTableRecord
  2
0
 70
     0
 62
     7
  6
CONTINUOUS
370
    -3
390
2AC
  0
LAYER
  5
1FD
330
2
100
AcDbSymbolTableRecord
100
AcDbLayerTableRecord
  2
1
 70
     0
 62
     4
  6
CONTINUOUS
370
    -3
390
2AC
  0
LAYER
  5
1FE
330
2
100
AcDbSymbolTableRecord
100
AcDbLayerTableRecord
  2
2
 70
     0
 62
     7
  6
CONTINUOUS
370
    -3
390
2AC
  0
LAYER
  5
1FF
330
2
100
AcDbSymbolTableRecord
100
AcDbLayerTableRecord
  2
4
 70
     0
 62
     2
  6
CENTER
370
    -3
390
2AC
  0
LAYER
  5
200
330
2
100
AcDbSymbolTableRecord
100
AcDbLayerTableRecord
  2
6
 70
     0
 62
     5
  6
CONTINUOUS
370
    -3
390
2AC
  0
LAYER
  5
201
330
2
100
AcDbSymbolTableRecord
100
AcDbLayerTableRecord
  2
NOCUT
 70
     0
 62
     7
  6
CONTINUOUS
370
    -3
390
2AC
  0
LAYER
  5
202
330
2
100
AcDbSymbolTableRecord
100
AcDbLayerTableRecord
  2
SK1
 70
     0
 62
     4
  6
CONTINUOUS
370
    -3
390
2AC
  0
LAYER
  5
203
330
2
100
AcDbSymbolTableRecord
100
AcDbLayerTableRecord
  2
SK2
 70
     0
 62
     7
  6
CONTINUOUS
370
    -3
390
2AC
  0
LAYER
  5
204
330
2
100
AcDbSymbolTableRecord
100
AcDbLayerTableRecord
  2
SK3
 70
     0
 62
     1
  6
HIDDEN
370
    -3
390
2AC
  0
LAYER
  5
349
330
2
100
AcDbSymbolTableRecord
100
AcDbLayerTableRecord
  2
Defpoints
 70
     0
 62
     7
  6
CONTINUOUS
290
     0
370
    -3
390
2AC
  0
ENDTAB
  0
TABLE
  2
STYLE
  5
3
330
0
100
AcDbSymbolTable
 70
     1
  0
STYLE
  5
11
330
3
100
AcDbSymbolTableRecord
100
AcDbTextStyleTableRecord
  2
STANDARD
 70
     0
 40
0.0
 41
0.8
 50
0.0
 71
     0
 42
0.2
  3
isocp.shx
  4

  0
ENDTAB
  0
TABLE
  2
VIEW
  5
6
330
0
100
AcDbSymbolTable
 70
     0
  0
ENDTAB
  0
TABLE
  2
UCS
  5
7
330
0
100
AcDbSymbolTable
 70
     0
  0
ENDTAB
  0
TABLE
  2
APPID
  5
9
330
0
100
AcDbSymbolTable
 70
     3
  0
APPID
  5
205
330
9
100
AcDbSymbolTableRecord
100
AcDbRegAppTableRecord
  2
ACAD
 70
     0
  0
APPID
  5
34C
330
9
100
AcDbSymbolTableRecord
100
AcDbRegAppTableRecord
  2
ACAD_PSEXT
 70
     0
  0
APPID
  5
5F3
330
9
100
AcDbSymbolTableRecord
100
AcDbRegAppTableRecord
  2
ACAD_DSTYLE_DIMTEXT_FILL
 70
     0
  0
ENDTAB
  0
TABLE
  2
DIMSTYLE
  5
A
330
0
100
AcDbSymbolTable
 70
     3
100
AcDbDimStyleTable
 71
     2
340
34B
340
206
  0
DIMSTYLE
105
206
330
A
100
AcDbSymbolTableRecord
100
AcDbDimStyleTableRecord
  2
STANDARD
 70
     0
 41
2.5
 47
0.005
 48
0.005
 71
     1
 73
     0
 74
     0
 77
     1
 78
     8
140
3.5
178
     2
271
     3
272
     3
284
     8
340
11
341
208
342
208
343
208
344
208
  0
DIMSTYLE
105
34B
102
{ACAD_REACTORS
330
34E
330
34F
330
350
330
351
330
352
330
353
330
354
330
355
330
356
330
27D
330
280
330
281
330
27B
330
27F
330
27E
330
27C
102
}
330
A
100
AcDbSymbolTableRecord
100
AcDbDimStyleTableRecord
  2
ISO-25
 70
     0
 41
3.5
 42
0.625
 43
3.75
 44
2.0
 73
     0
 74
     0
 77
     1
 78
     8
140
3.5
141
2.5
143
0.03937007874016
147
0.625
171
     3
172
     1
176
   256
177
   256
178
   256
271
     2
272
     2
274
     3
283
     0
284
     8
340
11
  0
ENDTAB
  0
TABLE
  2
BLOCK_RECORD
  5
1
330
0
100
AcDbSymbolTable
 70
    31
  0
BLOCK_RECORD
  5
1B
330
1
100
AcDbSymbolTableRecord
100
AcDbBlockTableRecord
  2
*MODEL_SPACE
340
2B3
  0
BLOCK_RECORD
  5
1C
330
1
100
AcDbSymbolTableRecord
100
AcDbBlockTableRecord
  2
*PAPER_SPACE
340
2B4
  0
BLOCK_RECORD
  5
208
330
1
100
AcDbSymbolTableRecord
100
AcDbBlockTableRecord
  2
_FILLED
340
0
  0
BLOCK_RECORD
  5
209
330
1
100
AcDbSymbolTableRecord
100
AcDbBlockTableRecord
  2
*D1
340
0
  0
BLOCK_RECORD
  5
20A
330
1
100
AcDbSymbolTableRecord
100
AcDbBlockTableRecord
  2
*D2
340
0
  0
BLOCK_RECORD
  5
20B
330
1
100
AcDbSymbolTableRecord
100
AcDbBlockTableRecord
  2
*D3
340
0
  0
BLOCK_RECORD
  5
20C
330
1
100
AcDbSymbolTableRecord
100
AcDbBlockTableRecord
  2
*D4
340
0
  0
BLOCK_RECORD
  5
20D
330
1
100
AcDbSymbolTableRecord
100
AcDbBlockTableRecord
  2
*D5
340
0
  0
BLOCK_RECORD
  5
20E
330
1
100
AcDbSymbolTableRecord
100
AcDbBlockTableRecord
  2
*D6
340
0
  0
BLOCK_RECORD
  5
20F
330
1
100
AcDbSymbolTableRecord
100
AcDbBlockTableRecord
  2
*D7
340
0
  0
BLOCK_RECORD
  5
210
330
1
100
AcDbSymbolTableRecord
100
AcDbBlockTableRecord
  2
EINFUEGEPUNKT_BL0
340
0
102
{BLKREFS
331
283
102
}
  0
BLOCK_RECORD
  5
211
330
1
100
AcDbSymbolTableRecord
100
AcDbBlockTableRecord
  2
NULLPUNKT_BL1
340
0
102
{BLKREFS
331
284
102
}
  0
ENDTAB
  0
ENDSEC
  0
SECTION
  2
BLOCKS
  0
BLOCK
  5
1E
330
1B
100
AcDbEntity
  8
0
100
AcDbBlockBegin
  2
*MODEL_SPACE
 70
     0
 10
0.0
 20
0.0
 30
0.0
  3
*MODEL_SPACE
  1

  0
ENDBLK
  5
1F
330
1B
100
AcDbEntity
  8
0
100
AcDbBlockEnd
  0
BLOCK
  5
20
330
1C
100
AcDbEntity
 67
     1
  8
0
100
AcDbBlockBegin
  2
*PAPER_SPACE
 70
     0
 10
0.0
 20
0.0
 30
0.0
  3
*PAPER_SPACE
  1

  0
ENDBLK
  5
21
330
1C
100
AcDbEntity
 67
     1
  8
0
100
AcDbBlockEnd
  0
BLOCK
  5
278
330
208
100
AcDbEntity
  8
0
100
AcDbBlockBegin
  2
_FILLED
 70
     0
 10
0.0
 20
0.0
 30
0.0
  3
_FILLED
  1

  0
SOLID
  5
279
330
208
100
AcDbEntity
  8
0
  6
ByBlock
 62
     0
100
AcDbTrace
 10
0.0
 20
0.0
 30
0.0
 11
-1.0
 21
0.132
 31
0.0
 12
-1.0
 22
-0.132
 32
0.0
 13
-1.0
 23
-0.132
 33
0.0
  0
ENDBLK
  5
27A
330
208
100
AcDbEntity
  8
0
  6
ByBlock
 62
     0
100
AcDbBlockEnd
  0
BLOCK
  5
212
330
209
100
AcDbEntity
  8
SK2
  6
Continuous
 62
     7
100
AcDbBlockBegin
  2
*D1
 70
     1
 10
0.0
 20
0.0
 30
0.0
  3
*D1
  1

  0
LINE
  5
61B
330
209
100
AcDbEntity
  8
SK2
370
    -2
100
AcDbLine
 10
0.375
 20
-155.0
 30
0.0
 11
-31.62500000000001
 21
-155.0
 31
0.0
  0
LINE
  5
61C
330
209
100
AcDbEntity
  8
SK2
370
    -2
100
AcDbLine
 10
0.375
 20
155.0
 30
0.0
 11
-31.62499999999994
 21
155.0
 31
0.0
  0
LINE
  5
61D
330
209
100
AcDbEntity
  8
SK2
370
    -2
100
AcDbLine
 10
-29.625
 20
-151.5
 30
0.0
 11
-29.62499999999994
 21
151.5
 31
0.0
  0
SOLID
  5
61E
330
209
100
AcDbEntity
  8
SK2
100
AcDbTrace
 10
-30.20833333333334
 20
-151.5
 30
0.0
 11
-29.04166666666667
 21
-151.5
 31
0.0
 12
-29.62500000000001
 22
-155.0
 32
0.0
 13
-29.62500000000001
 23
-155.0
 33
0.0
  0
SOLID
  5
61F
330
209
100
AcDbEntity
  8
SK2
100
AcDbTrace
 10
-30.20833333333327
 20
151.5
 30
0.0
 11
-29.04166666666661
 21
151.5
 31
0.0
 12
-29.62499999999994
 22
155.0
 32
0.0
 13
-29.62499999999994
 23
155.0
 33
0.0
  0
MTEXT
  5
620
330
209
100
AcDbEntity
  8
SK2
100
AcDbMText
 10
-31.99999999999997
 20
0.0000000000000003
 30
0.0
 40
3.5
 41
0.0
 71
     5
 72
     1
  1
%%c310
 11
0.0000000000000001
 21
1.0
 31
0.0
 73
     1
 44
1.0
1001
ACAD
1000
MTEXTBEGIN
1070
    73
1070
     1
1070
    44
1040
1.0
1070
    74
1070
     0
1000
MTEXTEND
  0
POINT
  5
621
330
209
100
AcDbEntity
  8
Defpoints
 62
     0
100
AcDbPoint
 10
1.0
 20
-155.0
 30
0.0
  0
POINT
  5
622
330
209
100
AcDbEntity
  8
Defpoints
 62
     0
100
AcDbPoint
 10
1.0
 20
155.0
 30
0.0
  0
POINT
  5
623
330
209
100
AcDbEntity
  8
Defpoints
 62
     0
100
AcDbPoint
 10
-29.62499999999994
 20
155.0
 30
0.0
  0
ENDBLK
  5
21B
330
209
100
AcDbEntity
  8
0
  6
ByBlock
 62
     0
100
AcDbBlockEnd
  0
BLOCK
  5
21C
330
20A
100
AcDbEntity
  8
2
  6
Continuous
 62
     7
100
AcDbBlockBegin
  2
*D2
 70
     1
 10
0.0
 20
0.0
 30
0.0
  3
*D2
  1

  0
LINE
  5
624
330
20A
100
AcDbEntity
  8
2
370
    -2
100
AcDbLine
 10
0.0
 20
126.6249999999999
 30
0.0
 11
0.0000000000000027
 21
169.625
 31
0.0
  0
LINE
  5
625
330
20A
100
AcDbEntity
  8
2
370
    -2
100
AcDbLine
 10
42.0
 20
156.625
 30
0.0
 11
42.0
 21
169.625
 31
0.0
  0
LINE
  5
626
330
20A
100
AcDbEntity
  8
2
370
    -2
100
AcDbLine
 10
3.500000000000002
 20
167.625
 30
0.0
 11
38.5
 21
167.625
 31
0.0
  0
SOLID
  5
627
330
20A
100
AcDbEntity
  8
2
100
AcDbTrace
 10
3.500000000000002
 20
168.2083333333333
 30
0.0
 11
3.500000000000002
 21
167.0416666666667
 31
0.0
 12
0.0000000000000025
 22
167.625
 32
0.0
 13
0.0000000000000025
 23
167.625
 33
0.0
  0
SOLID
  5
628
330
20A
100
AcDbEntity
  8
2
100
AcDbTrace
 10
38.5
 20
168.2083333333333
 30
0.0
 11
38.5
 21
167.0416666666667
 31
0.0
 12
42.0
 22
167.625
 32
0.0
 13
42.0
 23
167.625
 33
0.0
  0
MTEXT
  5
629
330
20A
100
AcDbEntity
  8
2
100
AcDbMText
 10
21.0
 20
170.000344488189
 30
0.0
 40
3.5
 41
0.0
 71
     5
 72
     1
  1
42
 73
     1
 44
1.0
1001
ACAD
1000
MTEXTBEGIN
1070
    73
1070
     1
1070
    44
1040
1.0
1070
    74
1070
     0
1000
MTEXTEND
  0
POINT
  5
62A
330
20A
100
AcDbEntity
  8
Defpoints
 62
     0
100
AcDbPoint
 10
0.0
 20
126.0
 30
0.0
  0
POINT
  5
62B
330
20A
100
AcDbEntity
  8
Defpoints
 62
     0
100
AcDbPoint
 10
42.0
 20
156.0
 30
0.0
  0
POINT
  5
62C
330
20A
100
AcDbEntity
  8
Defpoints
 62
     0
100
AcDbPoint
 10
42.0
 20
167.625
 30
0.0
  0
ENDBLK
  5
224
330
20A
100
AcDbEntity
  8
0
  6
ByBlock
 62
     0
100
AcDbBlockEnd
  0
BLOCK
  5
225
330
20B
100
AcDbEntity
  8
SK2
  6
Continuous
 62
     7
100
AcDbBlockBegin
  2
*D3
 70
     1
 10
0.0
 20
0.0
 30
0.0
  3
*D3
  1

  0
LINE
  5
62D
330
20B
100
AcDbEntity
  8
SK2
370
    -2
100
AcDbLine
 10
71.625
 20
-72.99999999999998
 30
0.0
 11
87.87499999999999
 21
-72.99999999999998
 31
0.0
  0
LINE
  5
62E
330
20B
100
AcDbEntity
  8
SK2
370
    -2
100
AcDbLine
 10
71.625
 20
72.99999999999997
 30
0.0
 11
87.87500000000001
 21
72.99999999999997
 31
0.0
  0
LINE
  5
62F
330
20B
100
AcDbEntity
  8
SK2
370
    -2
100
AcDbLine
 10
85.87499999999998
 20
-69.49999999999999
 30
0.0
 11
85.87500000000002
 21
69.49999999999997
 31
0.0
  0
SOLID
  5
630
330
20B
100
AcDbEntity
  8
SK2
100
AcDbTrace
 10
85.29166666666666
 20
-69.49999999999999
 30
0.0
 11
86.45833333333332
 21
-69.49999999999999
 31
0.0
 12
85.87499999999998
 22
-72.99999999999998
 32
0.0
 13
85.87499999999998
 23
-72.99999999999998
 33
0.0
  0
SOLID
  5
631
330
20B
100
AcDbEntity
  8
SK2
100
AcDbTrace
 10
85.29166666666668
 20
69.49999999999997
 30
0.0
 11
86.45833333333333
 21
69.49999999999997
 31
0.0
 12
85.87500000000002
 22
72.99999999999997
 32
0.0
 13
85.87500000000002
 23
72.99999999999997
 33
0.0
  0
MTEXT
  5
632
330
20B
100
AcDbEntity
  8
SK2
100
AcDbMText
 10
83.49999999999999
 20
0.0000000000000003
 30
0.0
 40
3.5
 41
0.0
 71
     5
 72
     1
  1
%%c146
 11
0.0000000000000001
 21
1.0
 31
0.0
 73
     1
 44
1.0
1001
ACAD
1000
MTEXTBEGIN
1070
    73
1070
     1
1070
    44
1040
1.0
1070
    74
1070
     0
1000
MTEXTEND
  0
POINT
  5
633
330
20B
100
AcDbEntity
  8
Defpoints
 62
     0
100
AcDbPoint
 10
71.0
 20
-72.99999999999998
 30
0.0
  0
POINT
  5
634
330
20B
100
AcDbEntity
  8
Defpoints
 62
     0
100
AcDbPoint
 10
71.0
 20
72.99999999999997
 30
0.0
  0
POINT
  5
635
330
20B
100
AcDbEntity
  8
Defpoints
 62
     0
100
AcDbPoint
 10
85.87500000000002
 20
72.99999999999997
 30
0.0
  0
ENDBLK
  5
22E
330
20B
100
AcDbEntity
  8
0
  6
ByBlock
 62
     0
100
AcDbBlockEnd
  0
BLOCK
  5
22F
330
20C
100
AcDbEntity
  8
SK2
  6
Continuous
 62
     7
100
AcDbBlockBegin
  2
*D4
 70
     1
 10
0.0
 20
0.0
 30
0.0
  3
*D4
  1

  0
LINE
  5
636
330
20C
100
AcDbEntity
  8
SK2
370
    -2
100
AcDbLine
 10
70.0
 20
75.42583234240002
 30
0.0
 11
70.0
 21
178.125
 31
0.0
  0
LINE
  5
637
330
20C
100
AcDbEntity
  8
SK2
370
    -2
100
AcDbLine
 10
0.0
 20
126.4258323424
 30
0.0
 11
0.0000000000000032
 21
178.125
 31
0.0
  0
LINE
  5
638
330
20C
100
AcDbEntity
  8
SK2
370
    -2
100
AcDbLine
 10
66.5
 20
176.125
 30
0.0
 11
3.500000000000003
 21
176.125
 31
0.0
  0
SOLID
  5
639
330
20C
100
AcDbEntity
  8
SK2
100
AcDbTrace
 10
66.5
 20
176.7083333333333
 30
0.0
 11
66.5
 21
175.5416666666667
 31
0.0
 12
70.0
 22
176.125
 32
0.0
 13
70.0
 23
176.125
 33
0.0
  0
SOLID
  5
63A
330
20C
100
AcDbEntity
  8
SK2
100
AcDbTrace
 10
3.500000000000003
 20
176.7083333333333
 30
0.0
 11
3.500000000000003
 21
175.5416666666667
 31
0.0
 12
0.0000000000000031
 22
176.125
 32
0.0
 13
0.0000000000000031
 23
176.125
 33
0.0
  0
MTEXT
  5
63B
330
20C
100
AcDbEntity
  8
SK2
100
AcDbMText
 10
35.0
 20
178.5
 30
0.0
 40
3.5
 41
0.0
 71
     5
 72
     1
  1
70
 73
     1
 44
1.0
1001
ACAD
1000
MTEXTBEGIN
1070
    73
1070
     1
1070
    44
1040
1.0
1070
    74
1070
     0
1000
MTEXTEND
  0
POINT
  5
63C
330
20C
100
AcDbEntity
  8
Defpoints
 62
     0
100
AcDbPoint
 10
70.0
 20
74.80083234240002
 30
0.0
  0
POINT
  5
63D
330
20C
100
AcDbEntity
  8
Defpoints
 62
     0
100
AcDbPoint
 10
0.0
 20
125.8008323424
 30
0.0
  0
POINT
  5
63E
330
20C
100
AcDbEntity
  8
Defpoints
 62
     0
100
AcDbPoint
 10
0.0000000000000031
 20
176.125
 30
0.0
  0
ENDBLK
  5
237
330
20C
100
AcDbEntity
  8
0
  6
ByBlock
 62
     0
100
AcDbBlockEnd
  0
BLOCK
  5
238
330
20D
100
AcDbEntity
  8
SK2
  6
Continuous
 62
     7
100
AcDbBlockBegin
  2
*D5
 70
     1
 10
0.0
 20
0.0
 30
0.0
  3
*D5
  1

  0
LINE
  5
63F
330
20D
100
AcDbEntity
  8
SK2
370
    -2
100
AcDbLine
 10
71.625
 20
-30.99999999999997
 30
0.0
 11
79.375
 21
-30.99999999999998
 31
0.0
  0
LINE
  5
640
330
20D
100
AcDbEntity
  8
SK2
370
    -2
100
AcDbLine
 10
71.625
 20
31.0
 30
0.0
 11
79.375
 21
31.0
 31
0.0
  0
LINE
  5
641
330
20D
100
AcDbEntity
  8
SK2
370
    -2
100
AcDbLine
 10
77.375
 20
-27.49999999999998
 30
0.0
 11
77.375
 21
27.5
 31
0.0
  0
SOLID
  5
642
330
20D
100
AcDbEntity
  8
SK2
100
AcDbTrace
 10
76.79166666666667
 20
-27.49999999999998
 30
0.0
 11
77.95833333333333
 21
-27.49999999999998
 31
0.0
 12
77.375
 22
-30.99999999999998
 32
0.0
 13
77.375
 23
-30.99999999999998
 33
0.0
  0
SOLID
  5
643
330
20D
100
AcDbEntity
  8
SK2
100
AcDbTrace
 10
76.79166666666667
 20
27.5
 30
0.0
 11
77.95833333333333
 21
27.5
 31
0.0
 12
77.375
 22
31.0
 32
0.0
 13
77.375
 23
31.0
 33
0.0
  0
MTEXT
  5
644
330
20D
100
AcDbEntity
  8
SK2
100
AcDbMText
 10
74.99965551181102
 20
0.0000000000000003
 30
0.0
 40
3.5
 41
0.0
 71
     5
 72
     1
  1
%%c62
 11
0.0000000000000001
 21
1.0
 31
0.0
 73
     1
 44
1.0
1001
ACAD
1000
MTEXTBEGIN
1070
    73
1070
     1
1070
    44
1040
1.0
1070
    74
1070
     0
1000
MTEXTEND
  0
POINT
  5
645
330
20D
100
AcDbEntity
  8
Defpoints
 62
     0
100
AcDbPoint
 10
71.0
 20
-30.99999999999997
 30
0.0
  0
POINT
  5
646
330
20D
100
AcDbEntity
  8
Defpoints
 62
     0
100
AcDbPoint
 10
71.0
 20
31.0
 30
0.0
  0
POINT
  5
647
330
20D
100
AcDbEntity
  8
Defpoints
 62
     0
100
AcDbPoint
 10
77.375
 20
31.0
 30
0.0
  0
ENDBLK
  5
241
330
20D
100
AcDbEntity
  8
0
  6
ByBlock
 62
     0
100
AcDbBlockEnd
  0
BLOCK
  5
242
330
20E
100
AcDbEntity
  8
SK2
  6
Continuous
 62
     7
100
AcDbBlockBegin
  2
*D6
 70
     1
 10
0.0
 20
0.0
 30
0.0
  3
*D6
  1

  0
LINE
  5
648
330
20E
100
AcDbEntity
  8
SK2
370
    -2
100
AcDbLine
 10
-1.625
 20
-29.99999999999997
 30
0.0
 11
-14.62499999999998
 21
-29.99999999999997
 31
0.0
  0
LINE
  5
649
330
20E
100
AcDbEntity
  8
SK2
370
    -2
100
AcDbLine
 10
-1.625
 20
30.0
 30
0.0
 11
-14.62499999999996
 21
30.0
 31
0.0
  0
LINE
  5
64A
330
20E
100
AcDbEntity
  8
SK2
370
    -2
100
AcDbLine
 10
-12.62499999999997
 20
-26.49999999999997
 30
0.0
 11
-12.62499999999996
 21
26.5
 31
0.0
  0
SOLID
  5
64B
330
20E
100
AcDbEntity
  8
SK2
100
AcDbTrace
 10
-13.20833333333331
 20
-26.49999999999997
 30
0.0
 11
-12.04166666666664
 21
-26.49999999999997
 31
0.0
 12
-12.62499999999998
 22
-29.99999999999997
 32
0.0
 13
-12.62499999999998
 23
-29.99999999999997
 33
0.0
  0
SOLID
  5
64C
330
20E
100
AcDbEntity
  8
SK2
100
AcDbTrace
 10
-13.2083333333333
 20
26.5
 30
0.0
 11
-12.04166666666663
 21
26.5
 31
0.0
 12
-12.62499999999996
 22
30.0
 32
0.0
 13
-12.62499999999996
 23
30.0
 33
0.0
  0
MTEXT
  5
64D
330
20E
100
AcDbEntity
  8
SK2
100
AcDbMText
 10
-14.99999999999997
 20
0.0000000000000003
 30
0.0
 40
3.5
 41
0.0
 71
     5
 72
     1
  1
%%c60
 11
0.0000000000000001
 21
1.0
 31
0.0
 73
     1
 44
1.0
1001
ACAD
1000
MTEXTBEGIN
1070
    73
1070
     1
1070
    44
1040
1.0
1070
    74
1070
     0
1000
MTEXTEND
  0
POINT
  5
64E
330
20E
100
AcDbEntity
  8
Defpoints
 62
     0
100
AcDbPoint
 10
-1.0
 20
-29.99999999999997
 30
0.0
  0
POINT
  5
64F
330
20E
100
AcDbEntity
  8
Defpoints
 62
     0
100
AcDbPoint
 10
-1.0
 20
30.0
 30
0.0
  0
POINT
  5
650
330
20E
100
AcDbEntity
  8
Defpoints
 62
     0
100
AcDbPoint
 10
-12.62499999999996
 20
30.0
 30
0.0
  0
ENDBLK
  5
24B
330
20E
100
AcDbEntity
  8
0
  6
ByBlock
 62
     0
100
AcDbBlockEnd
  0
BLOCK
  5
24C
330
20F
100
AcDbEntity
  8
SK2
  6
Continuous
 62
     7
100
AcDbBlockBegin
  2
*D7
 70
     1
 10
0.0
 20
0.0
 30
0.0
  3
*D7
  1

  0
LINE
  5
651
330
20F
100
AcDbEntity
  8
SK2
370
    -2
100
AcDbLine
 10
-1.625
 20
-125.0
 30
0.0
 11
-23.125
 21
-125.0
 31
0.0
  0
LINE
  5
652
330
20F
100
AcDbEntity
  8
SK2
370
    -2
100
AcDbLine
 10
-1.625
 20
125.0
 30
0.0
 11
-23.12499999999994
 21
125.0
 31
0.0
  0
LINE
  5
653
330
20F
100
AcDbEntity
  8
SK2
370
    -2
100
AcDbLine
 10
-21.125
 20
-121.5
 30
0.0
 11
-21.12499999999994
 21
121.4999999999999
 31
0.0
  0
SOLID
  5
654
330
20F
100
AcDbEntity
  8
SK2
100
AcDbTrace
 10
-21.70833333333333
 20
-121.5
 30
0.0
 11
-20.54166666666667
 21
-121.5
 31
0.0
 12
-21.125
 22
-125.0
 32
0.0
 13
-21.125
 23
-125.0
 33
0.0
  0
SOLID
  5
655
330
20F
100
AcDbEntity
  8
SK2
100
AcDbTrace
 10
-21.70833333333328
 20
121.4999999999999
 30
0.0
 11
-20.54166666666661
 21
121.4999999999999
 31
0.0
 12
-21.12499999999994
 22
125.0
 32
0.0
 13
-21.12499999999994
 23
125.0
 33
0.0
  0
MTEXT
  5
656
330
20F
100
AcDbEntity
  8
SK2
100
AcDbMText
 10
-23.50034448818895
 20
0.0000000000000003
 30
0.0
 40
3.5
 41
0.0
 71
     5
 72
     1
  1
%%c250
 11
0.0000000000000001
 21
1.0
 31
0.0
 73
     1
 44
1.0
1001
ACAD
1000
MTEXTBEGIN
1070
    73
1070
     1
1070
    44
1040
1.0
1070
    74
1070
     0
1000
MTEXTEND
  0
POINT
  5
657
330
20F
100
AcDbEntity
  8
Defpoints
 62
     0
100
AcDbPoint
 10
-1.0
 20
-125.0
 30
0.0
  0
POINT
  5
658
330
20F
100
AcDbEntity
  8
Defpoints
 62
     0
100
AcDbPoint
 10
-1.0
 20
125.0
 30
0.0
  0
POINT
  5
659
330
20F
100
AcDbEntity
  8
Defpoints
 62
     0
100
AcDbPoint
 10
-21.12499999999994
 20
125.0
 30
0.0
  0
ENDBLK
  5
255
330
20F
100
AcDbEntity
  8
0
  6
ByBlock
 62
     0
100
AcDbBlockEnd
  0
BLOCK
  5
256
330
210
100
AcDbEntity
  8
1
  6
Continuous
 62
     3
100
AcDbBlockBegin
  2
EINFUEGEPUNKT_BL0
 70
     0
 10
305.7657550535
 20
198.6991676576
 30
0.0
  3
EINFUEGEPUNKT_BL0
  1

  0
LINE
  5
257
330
210
100
AcDbEntity
  8
1
  6
Continuous
 62
     4
100
AcDbLine
 10
305.7657550535
 20
198.6991676576
 30
0.0
 11
305.7657550535
 21
198.1991686576
 31
0.0
  0
ARC
  5
258
330
210
100
AcDbEntity
  8
1
  6
Continuous
 62
     4
100
AcDbCircle
 10
305.7657550535
 20
198.6991676576
 30
0.0
 40
0.4999990000000001
100
AcDbArc
 50
90.0
 51
180.0
  0
LINE
  5
259
330
210
100
AcDbEntity
  8
1
  6
Continuous
 62
     4
100
AcDbLine
 10
305.7657550535
 20
198.6991676576
 30
0.0
 11
305.2657560535
 21
198.6991676576
 31
0.0
  0
ARC
  5
25A
330
210
100
AcDbEntity
  8
1
  6
Continuous
 62
     4
100
AcDbCircle
 10
305.7657550535
 20
198.6991676576
 30
0.0
 40
0.4999990000000001
100
AcDbArc
 50
180.0
 51
270.0
  0
ARC
  5
25B
330
210
100
AcDbEntity
  8
1
  6
Continuous
 62
     4
100
AcDbCircle
 10
305.7657550535
 20
198.6991676576
 30
0.0
 40
0.4999990000000001
100
AcDbArc
 50
270.0
 51
360.0
  0
ARC
  5
25C
330
210
100
AcDbEntity
  8
1
  6
Continuous
 62
     4
100
AcDbCircle
 10
305.7657550535
 20
198.6991676576
 30
0.0
 40
0.4999990000000001
100
AcDbArc
 50
0.0
 51
90.0
  0
LINE
  5
25D
330
210
100
AcDbEntity
  8
1
  6
Continuous
 62
     4
100
AcDbLine
 10
306.2657540535
 20
198.6991676576
 30
0.0
 11
305.7657550535
 21
198.6991676576
 31
0.0
  0
LINE
  5
25E
330
210
100
AcDbEntity
  8
1
  6
Continuous
 62
     4
100
AcDbLine
 10
305.7657550535
 20
199.1991666576
 30
0.0
 11
305.7657550535
 21
198.6991676576
 31
0.0
  0
LWPOLYLINE
  5
25F
330
210
100
AcDbEntity
  8
1
  6
Continuous
 62
     4
100
AcDbPolyline
 90
       18
 70
     0
 43
0.0
 10
305.7657550535
 20
198.6991676576
 10
305.7657550535
 20
199.1991666576
 10
305.8180191806
 20
199.1964276108
 10
305.8697106909999
 20
199.1882404798
 10
305.9202632417
 20
199.1746949647
 10
305.9691229683001
 20
199.1559394729
 10
306.0157545535
 20
199.1321794935
 10
306.0596470919
 20
199.1036753458
 10
306.1003196875
 20
199.0707393272
 10
306.1373267231
 20
199.0337322916
 10
306.1702627417
 20
198.993059696
 10
306.1987668893999
 20
198.9491671576
 10
306.2225268688
 20
198.9025355724
 10
306.2412823606
 20
198.8536758458
 10
306.2548278757
 20
198.8031232951
 10
306.2630150067
 20
198.7514317847
 10
306.2657540535
 20
198.6991676576
 10
305.7657550535
 20
198.6991676576
  0
HATCH
  5
260
330
210
100
AcDbEntity
  8
1
  6
Continuous
 62
     4
100
AcDbHatch
 10
0.0
 20
0.0
 30
0.0
210
0.0
220
0.0
230
1.0
  2
SOLID
 70
     1
 71
     1
 91
        1
 92
        1
 93
       17
 72
     1
 10
305.7657550535
 20
198.6991676576
 11
305.7657550535
 21
199.1991666576
 72
     1
 10
305.7657550535
 20
199.1991666576
 11
305.8180191806
 21
199.1964276108
 72
     1
 10
305.8180191806
 20
199.1964276108
 11
305.8697106909999
 21
199.1882404798
 72
     1
 10
305.8697106909999
 20
199.1882404798
 11
305.9202632417
 21
199.1746949647
 72
     1
 10
305.9202632417
 20
199.1746949647
 11
305.9691229683001
 21
199.1559394729
 72
     1
 10
305.9691229683001
 20
199.1559394729
 11
306.0157545535
 21
199.1321794935
 72
     1
 10
306.0157545535
 20
199.1321794935
 11
306.0596470919
 21
199.1036753458
 72
     1
 10
306.0596470919
 20
199.1036753458
 11
306.1003196875
 21
199.0707393272
 72
     1
 10
306.1003196875
 20
199.0707393272
 11
306.1373267231
 21
199.0337322916
 72
     1
 10
306.1373267231
 20
199.0337322916
 11
306.1702627417
 21
198.993059696
 72
     1
 10
306.1702627417
 20
198.993059696
 11
306.1987668893999
 21
198.9491671576
 72
     1
 10
306.1987668893999
 20
198.9491671576
 11
306.2225268688
 21
198.9025355724
 72
     1
 10
306.2225268688
 20
198.9025355724
 11
306.2412823606
 21
198.8536758458
 72
     1
 10
306.2412823606
 20
198.8536758458
 11
306.2548278757
 21
198.8031232951
 72
     1
 10
306.2548278757
 20
198.8031232951
 11
306.2630150067
 21
198.7514317847
 72
     1
 10
306.2630150067
 20
198.7514317847
 11
306.2657540535
 21
198.6991676576
 72
     1
 10
306.2657540535
 20
198.6991676576
 11
305.7657550535
 21
198.6991676576
 97
        1
330
25F
 75
     0
 76
     1
 98
        1
 10
0.0
 20
0.0
  0
LWPOLYLINE
  5
261
330
210
100
AcDbEntity
  8
1
  6
Continuous
 62
     4
100
AcDbPolyline
 90
       18
 70
     0
 43
0.0
 10
305.7657550535
 20
198.6991676576
 10
305.7657550535
 20
198.1991686576
 10
305.7134909264
 20
198.2019077043999
 10
305.661799416
 20
198.2100948354
 10
305.6112468653
 20
198.2236403505
 10
305.5623871387
 20
198.2423958423
 10
305.5157555535
 20
198.2661558217
 10
305.4718630151
 20
198.2946599694
 10
305.4311904195
 20
198.327595988
 10
305.3941833839
 20
198.3646030236
 10
305.3612473653
 20
198.4052756192
 10
305.3327432176
 20
198.4491681576
 10
305.3089832382
 20
198.4957997428
 10
305.2902277464
 20
198.5446594694
 10
305.2766822313
 20
198.5952120201
 10
305.2684951003
 20
198.6469035305
 10
305.2657560535
 20
198.6991676576
 10
305.7657550535
 20
198.6991676576
  0
HATCH
  5
262
330
210
100
AcDbEntity
  8
1
  6
Continuous
 62
     4
100
AcDbHatch
 10
0.0
 20
0.0
 30
0.0
210
0.0
220
0.0
230
1.0
  2
SOLID
 70
     1
 71
     1
 91
        1
 92
        1
 93
       17
 72
     1
 10
305.7657550535
 20
198.6991676576
 11
305.7657550535
 21
198.1991686576
 72
     1
 10
305.7657550535
 20
198.1991686576
 11
305.7134909264
 21
198.2019077043999
 72
     1
 10
305.7134909264
 20
198.2019077043999
 11
305.661799416
 21
198.2100948354
 72
     1
 10
305.661799416
 20
198.2100948354
 11
305.6112468653
 21
198.2236403505
 72
     1
 10
305.6112468653
 20
198.2236403505
 11
305.5623871387
 21
198.2423958423
 72
     1
 10
305.5623871387
 20
198.2423958423
 11
305.5157555535
 21
198.2661558217
 72
     1
 10
305.5157555535
 20
198.2661558217
 11
305.4718630151
 21
198.2946599694
 72
     1
 10
305.4718630151
 20
198.2946599694
 11
305.4311904195
 21
198.327595988
 72
     1
 10
305.4311904195
 20
198.327595988
 11
305.3941833839
 21
198.3646030236
 72
     1
 10
305.3941833839
 20
198.3646030236
 11
305.3612473653
 21
198.4052756192
 72
     1
 10
305.3612473653
 20
198.4052756192
 11
305.3327432176
 21
198.4491681576
 72
     1
 10
305.3327432176
 20
198.4491681576
 11
305.3089832382
 21
198.4957997428
 72
     1
 10
305.3089832382
 20
198.4957997428
 11
305.2902277464
 21
198.5446594694
 72
     1
 10
305.2902277464
 20
198.5446594694
 11
305.2766822313
 21
198.5952120201
 72
     1
 10
305.2766822313
 20
198.5952120201
 11
305.2684951003
 21
198.6469035305
 72
     1
 10
305.2684951003
 20
198.6469035305
 11
305.2657560535
 21
198.6991676576
 72
     1
 10
305.2657560535
 20
198.6991676576
 11
305.7657550535
 21
198.6991676576
 97
        1
330
261
 75
     0
 76
     1
 98
        1
 10
0.0
 20
0.0
  0
LINE
  5
263
330
210
100
AcDbEntity
  8
1
  6
Continuous
 62
     4
100
AcDbLine
 10
305.2657560535
 20
198.6991676576
 30
0.0
 11
305.7657550535
 21
198.6991676576
 31
0.0
  0
ARC
  5
264
330
210
100
AcDbEntity
  8
1
  6
Continuous
 62
     4
100
AcDbCircle
 10
305.7657550535
 20
198.6991676576
 30
0.0
 40
0.4999990000000001
100
AcDbArc
 50
180.0
 51
270.0
  0
LINE
  5
265
330
210
100
AcDbEntity
  8
1
  6
Continuous
 62
     4
100
AcDbLine
 10
305.7657550535
 20
198.1991686576
 30
0.0
 11
305.7657550535
 21
198.6991676576
 31
0.0
  0
ENDBLK
  5
266
330
210
100
AcDbEntity
  8
0
  6
ByBlock
 62
     0
100
AcDbBlockEnd
  0
BLOCK
  5
267
330
211
100
AcDbEntity
  8
1
  6
Continuous
 62
     3
100
AcDbBlockBegin
  2
NULLPUNKT_BL1
 70
     0
 10
263.7657550535
 20
198.6991676576
 30
0.0
  3
NULLPUNKT_BL1
  1

  0
LINE
  5
268
330
211
100
AcDbEntity
  8
1
  6
Continuous
 62
     4
100
AcDbLine
 10
263.7657550535
 20
198.6991676576
 30
0.0
 11
265.2657520535
 21
198.6991676576
 31
0.0
  0
ARC
  5
269
330
211
100
AcDbEntity
  8
1
  6
Continuous
 62
     4
100
AcDbCircle
 10
263.7657550535
 20
198.6991676576
 30
0.0
 40
1.499997
100
AcDbArc
 50
180.0
 51
270.0
  0
LINE
  5
26A
330
211
100
AcDbEntity
  8
1
  6
Continuous
 62
     4
100
AcDbLine
 10
263.7657550535
 20
198.6991676576
 30
0.0
 11
263.7657550535
 21
197.1991706576
 31
0.0
  0
ARC
  5
26B
330
211
100
AcDbEntity
  8
1
  6
Continuous
 62
     4
100
AcDbCircle
 10
263.7657550535
 20
198.6991676576
 30
0.0
 40
1.499997
100
AcDbArc
 50
270.0
 51
360.0
  0
ARC
  5
26C
330
211
100
AcDbEntity
  8
1
  6
Continuous
 62
     4
100
AcDbCircle
 10
263.7657550535
 20
198.6991676576
 30
0.0
 40
1.499997
100
AcDbArc
 50
0.0
 51
90.0
  0
ARC
  5
26D
330
211
100
AcDbEntity
  8
1
  6
Continuous
 62
     4
100
AcDbCircle
 10
263.7657550535
 20
198.6991676576
 30
0.0
 40
1.499997
100
AcDbArc
 50
90.0
 51
180.0
  0
LINE
  5
26E
330
211
100
AcDbEntity
  8
1
  6
Continuous
 62
     4
100
AcDbLine
 10
263.7657550535
 20
200.1991646576
 30
0.0
 11
263.7657550535
 21
198.6991676576
 31
0.0
  0
LINE
  5
26F
330
211
100
AcDbEntity
  8
1
  6
Continuous
 62
     4
100
AcDbLine
 10
262.2657580535
 20
198.6991676576
 30
0.0
 11
263.7657550535
 21
198.6991676576
 31
0.0
  0
LWPOLYLINE
  5
270
330
211
100
AcDbEntity
  8
1
  6
Continuous
 62
     4
100
AcDbPolyline
 90
       18
 70
     0
 43
0.0
 10
263.7657550535
 20
198.6991676576
 10
262.2657580535
 20
198.6991676576
 10
262.273975194
 20
198.8559600389
 10
262.2985365868
 20
199.0110345701
 10
262.3391731322
 20
199.1626922221
 10
262.3954396077
 20
199.309271402
 10
262.4667195459
 20
199.4491661576
 10
262.552231989
 20
199.5808437727
 10
262.6510400447001
 20
199.7028615597
 10
262.7620611514
 20
199.8138826664
 10
262.8840789384
 20
199.9126907221
 10
263.0157565535
 20
199.9982031652
 10
263.1556513091
 20
200.0694831034
 10
263.302230489
 20
200.1257495789
 10
263.453888141
 20
200.1663861243
 10
263.6089626722
 20
200.1909475171
 10
263.7657550535
 20
200.1991646576
 10
263.7657550535
 20
198.6991676576
  0
HATCH
  5
271
330
211
100
AcDbEntity
  8
1
  6
Continuous
 62
     4
100
AcDbHatch
 10
0.0
 20
0.0
 30
0.0
210
0.0
220
0.0
230
1.0
  2
SOLID
 70
     1
 71
     1
 91
        1
 92
        1
 93
       17
 72
     1
 10
263.7657550535
 20
198.6991676576
 11
262.2657580535
 21
198.6991676576
 72
     1
 10
262.2657580535
 20
198.6991676576
 11
262.273975194
 21
198.8559600389
 72
     1
 10
262.273975194
 20
198.8559600389
 11
262.2985365868
 21
199.0110345701
 72
     1
 10
262.2985365868
 20
199.0110345701
 11
262.3391731322
 21
199.1626922221
 72
     1
 10
262.3391731322
 20
199.1626922221
 11
262.3954396077
 21
199.309271402
 72
     1
 10
262.3954396077
 20
199.309271402
 11
262.4667195459
 21
199.4491661576
 72
     1
 10
262.4667195459
 20
199.4491661576
 11
262.552231989
 21
199.5808437727
 72
     1
 10
262.552231989
 20
199.5808437727
 11
262.6510400447001
 21
199.7028615597
 72
     1
 10
262.6510400447001
 20
199.7028615597
 11
262.7620611514
 21
199.8138826664
 72
     1
 10
262.7620611514
 20
199.8138826664
 11
262.8840789384
 21
199.9126907221
 72
     1
 10
262.8840789384
 20
199.9126907221
 11
263.0157565535
 21
199.9982031652
 72
     1
 10
263.0157565535
 20
199.9982031652
 11
263.1556513091
 21
200.0694831034
 72
     1
 10
263.1556513091
 20
200.0694831034
 11
263.302230489
 21
200.1257495789
 72
     1
 10
263.302230489
 20
200.1257495789
 11
263.453888141
 21
200.1663861243
 72
     1
 10
263.453888141
 20
200.1663861243
 11
263.6089626722
 21
200.1909475171
 72
     1
 10
263.6089626722
 20
200.1909475171
 11
263.7657550535
 21
200.1991646576
 72
     1
 10
263.7657550535
 20
200.1991646576
 11
263.7657550535
 21
198.6991676576
 97
        1
330
270
 75
     0
 76
     1
 98
        1
 10
0.0
 20
0.0
  0
LWPOLYLINE
  5
272
330
211
100
AcDbEntity
  8
1
  6
Continuous
 62
     4
100
AcDbPolyline
 90
       18
 70
     0
 43
0.0
 10
263.7657550535
 20
198.6991676576
 10
265.2657520535
 20
198.6991676576
 10
265.257534913
 20
198.5423752763
 10
265.2329735202
 20
198.3873007451
 10
265.1923369748
 20
198.2356430931
 10
265.1360704993
 20
198.0890639132
 10
265.0647905611
 20
197.9491691576
 10
264.979278118
 20
197.8174915425
 10
264.8804700623
 20
197.6954737555
 10
264.7694489556
 20
197.5844526488
 10
264.6474311686
 20
197.4856445931
 10
264.5157535535
 20
197.40013215
 10
264.3758587979
 20
197.3288522118
 10
264.229279618
 20
197.2725857363
 10
264.077621966
 20
197.2319491909
 10
263.9225474348
 20
197.2073877981
 10
263.7657550535
 20
197.1991706576
 10
263.7657550535
 20
198.6991676576
  0
HATCH
  5
273
330
211
100
AcDbEntity
  8
1
  6
Continuous
 62
     4
100
AcDbHatch
 10
0.0
 20
0.0
 30
0.0
210
0.0
220
0.0
230
1.0
  2
SOLID
 70
     1
 71
     1
 91
        1
 92
        1
 93
       17
 72
     1
 10
263.7657550535
 20
198.6991676576
 11
265.2657520535
 21
198.6991676576
 72
     1
 10
265.2657520535
 20
198.6991676576
 11
265.257534913
 21
198.5423752763
 72
     1
 10
265.257534913
 20
198.5423752763
 11
265.2329735202
 21
198.3873007451
 72
     1
 10
265.2329735202
 20
198.3873007451
 11
265.1923369748
 21
198.2356430931
 72
     1
 10
265.1923369748
 20
198.2356430931
 11
265.1360704993
 21
198.0890639132
 72
     1
 10
265.1360704993
 20
198.0890639132
 11
265.0647905611
 21
197.9491691576
 72
     1
 10
265.0647905611
 20
197.9491691576
 11
264.979278118
 21
197.8174915425
 72
     1
 10
264.979278118
 20
197.8174915425
 11
264.8804700623
 21
197.6954737555
 72
     1
 10
264.8804700623
 20
197.6954737555
 11
264.7694489556
 21
197.5844526488
 72
     1
 10
264.7694489556
 20
197.5844526488
 11
264.6474311686
 21
197.4856445931
 72
     1
 10
264.6474311686
 20
197.4856445931
 11
264.5157535535
 21
197.40013215
 72
     1
 10
264.5157535535
 20
197.40013215
 11
264.3758587979
 21
197.3288522118
 72
     1
 10
264.3758587979
 20
197.3288522118
 11
264.229279618
 21
197.2725857363
 72
     1
 10
264.229279618
 20
197.2725857363
 11
264.077621966
 21
197.2319491909
 72
     1
 10
264.077621966
 20
197.2319491909
 11
263.9225474348
 21
197.2073877981
 72
     1
 10
263.9225474348
 20
197.2073877981
 11
263.7657550535
 21
197.1991706576
 72
     1
 10
263.7657550535
 20
197.1991706576
 11
263.7657550535
 21
198.6991676576
 97
        1
330
272
 75
     0
 76
     1
 98
        1
 10
0.0
 20
0.0
  0
LINE
  5
274
330
211
100
AcDbEntity
  8
1
  6
Continuous
 62
     4
100
AcDbLine
 10
263.7657550535
 20
197.1991706576
 30
0.0
 11
263.7657550535
 21
198.6991676576
 31
0.0
  0
ARC
  5
275
330
211
100
AcDbEntity
  8
1
  6
Continuous
 62
     4
100
AcDbCircle
 10
263.7657550535
 20
198.6991676576
 30
0.0
 40
1.499997
100
AcDbArc
 50
270.0
 51
360.0
  0
LINE
  5
276
330
211
100
AcDbEntity
  8
1
  6
Continuous
 62
     4
100
AcDbLine
 10
265.2657520535
 20
198.6991676576
 30
0.0
 11
263.7657550535
 21
198.6991676576
 31
0.0
  0
ENDBLK
  5
277
330
211
100
AcDbEntity
  8
0
  6
ByBlock
 62
     0
100
AcDbBlockEnd
  0
ENDSEC
  0
SECTION
  2
ENTITIES
  0
DIMENSION
  5
27B
330
1B
100
AcDbEntity
  8
SK2
100
AcDbDimension
  2
*D1
 10
-29.62499999999994
 20
155.0
 30
0.0
 11
-29.62499999999997
 21
0.0
 31
0.0
 70
   160
  1
%%c310
 71
     5
 42
310.0
  3
ISO-25
100
AcDbAlignedDimension
 13
1.0
 23
-155.0
 33
0.0
 14
1.0
 24
155.0
 34
0.0
 50
90.0
100
AcDbRotatedDimension
  0
DIMENSION
  5
27C
330
1B
100
AcDbEntity
  8
2
100
AcDbDimension
  2
*D2
 10
42.0
 20
167.625
 30
0.0
 11
21.0
 21
167.625
 31
0.0
 70
   160
  1
42
 71
     5
 42
42.0
  3
ISO-25
100
AcDbAlignedDimension
 13
0.0
 23
126.0
 33
0.0
 14
42.0
 24
156.0
 34
0.0
100
AcDbRotatedDimension
  0
DIMENSION
  5
27D
330
1B
100
AcDbEntity
  8
SK2
100
AcDbDimension
  2
*D3
 10
85.87500000000002
 20
72.99999999999997
 30
0.0
 11
85.875
 21
0.0
 31
0.0
 70
   160
  1
%%c146
 71
     5
 42
145.9999999999999
  3
ISO-25
100
AcDbAlignedDimension
 13
71.0
 23
-72.99999999999998
 33
0.0
 14
71.0
 24
72.99999999999997
 34
0.0
 50
90.0
100
AcDbRotatedDimension
  0
DIMENSION
  5
27E
330
1B
100
AcDbEntity
  8
SK2
100
AcDbDimension
  2
*D4
 10
0.0000000000000031
 20
176.125
 30
0.0
 11
35.0
 21
176.125
 31
0.0
 70
   160
  1
70
 71
     5
 42
70.0
  3
ISO-25
100
AcDbAlignedDimension
 13
70.0
 23
74.80083234240002
 33
0.0
 14
0.0
 24
125.8008323424
 34
0.0
 50
180.0
100
AcDbRotatedDimension
  0
DIMENSION
  5
27F
330
1B
100
AcDbEntity
  8
SK2
100
AcDbDimension
  2
*D5
 10
77.375
 20
31.0
 30
0.0
 11
77.375
 21
0.0
 31
0.0
 70
   160
  1
%%c62
 71
     5
 42
61.99999999999997
  3
ISO-25
100
AcDbAlignedDimension
 13
71.0
 23
-30.99999999999997
 33
0.0
 14
71.0
 24
31.0
 34
0.0
 50
90.0
100
AcDbRotatedDimension
  0
DIMENSION
  5
280
330
1B
100
AcDbEntity
  8
SK2
100
AcDbDimension
  2
*D6
 10
-12.62499999999996
 20
30.0
 30
0.0
 11
-12.62499999999997
 21
0.0
 31
0.0
 70
   160
  1
%%c60
 71
     5
 42
59.99999999999997
  3
ISO-25
100
AcDbAlignedDimension
 13
-1.0
 23
-29.99999999999997
 33
0.0
 14
-1.0
 24
30.0
 34
0.0
 50
90.0
100
AcDbRotatedDimension
  0
DIMENSION
  5
281
330
1B
100
AcDbEntity
  8
SK2
100
AcDbDimension
  2
*D7
 10
-21.12499999999994
 20
125.0
 30
0.0
 11
-21.12499999999997
 21
0.0
 31
0.0
 70
   160
  1
%%c250
 71
     5
 42
250.0
  3
ISO-25
100
AcDbAlignedDimension
 13
-1.0
 23
-125.0
 33
0.0
 14
-1.0
 24
125.0
 34
0.0
 50
90.0
100
AcDbRotatedDimension
  0
TEXT
  5
282
330
1B
100
AcDbEntity
  8
6
100
AcDbText
 10
61.46311952649987
 20
-154.4011652084589
 30
0.0
 40
5.0
  1
FBD60BAJ146GA310
 41
0.8
 72
     1
 11
84.66469432964947
 21
-154.4011652084589
 31
0.0
100
AcDbText
  0
INSERT
  5
283
330
1B
100
AcDbEntity
  8
1
100
AcDbBlockReference
  2
EINFUEGEPUNKT_BL0
 10
42.0
 20
0.0
 30
0.0
  0
INSERT
  5
284
330
1B
100
AcDbEntity
  8
1
100
AcDbBlockReference
  2
NULLPUNKT_BL1
 10
0.0
 20
0.0
 30
0.0
  0
LINE
  5
285
330
1B
100
AcDbEntity
  8
1
100
AcDbLine
 10
40.40000000000003
 20
-155.0
 30
0.0
 11
3.600000000000022
 21
-155.0
 31
0.0
  0
LINE
  5
286
330
1B
100
AcDbEntity
  8
1
100
AcDbLine
 10
0.4000000000000341
 20
-125.0
 30
0.0
 11
0.0
 21
-125.0
 31
0.0
  0
LINE
  5
287
330
1B
100
AcDbEntity
  8
SK1
100
AcDbLine
 10
70.0
 20
-72.99999999999998
 30
0.0
 11
42.0
 21
-72.99999999999998
 31
0.0
  0
LINE
  5
288
330
1B
100
AcDbEntity
  8
SK3
100
AcDbLine
 10
70.0
 20
-30.99999999999997
 30
0.0
 11
32.0
 21
-30.99999999999997
 31
0.0
  0
LINE
  5
289
330
1B
100
AcDbEntity
  8
SK3
100
AcDbLine
 10
32.0
 20
-29.99999999999997
 30
0.0
 11
0.0
 21
-29.99999999999997
 31
0.0
  0
LINE
  5
28A
330
1B
100
AcDbEntity
  8
NOCUT
100
AcDbLine
 10
0.0
 20
125.0
 30
0.0
 11
0.0
 21
0.0
 31
0.0
  0
LINE
  5
28B
330
1B
100
AcDbEntity
  8
1
100
AcDbLine
 10
0.0
 20
125.0
 30
0.0
 11
0.0
 21
-125.0
 31
0.0
  0
LINE
  5
28C
330
1B
100
AcDbEntity
  8
NOCUT
100
AcDbLine
 10
2.0
 20
153.4
 30
0.0
 11
2.0
 21
126.6
 31
0.0
  0
LINE
  5
28D
330
1B
100
AcDbEntity
  8
1
100
AcDbLine
 10
2.0
 20
153.4
 30
0.0
 11
2.0
 21
-153.3999999999999
 31
0.0
  0
LINE
  5
28E
330
1B
100
AcDbEntity
  8
SK3
100
AcDbLine
 10
32.0
 20
31.0
 30
0.0
 11
32.0
 21
-30.99999999999997
 31
0.0
  0
LINE
  5
28F
330
1B
100
AcDbEntity
  8
NOCUT
100
AcDbLine
 10
42.0
 20
0.0
 30
0.0
 11
0.0
 21
0.0
 31
0.0
  0
LINE
  5
290
330
1B
100
AcDbEntity
  8
4
100
AcDbLine
 10
73.0
 20
0.0
 30
0.0
 11
-3.0
 21
0.0
 31
0.0
  0
LINE
  5
291
330
1B
100
AcDbEntity
  8
NOCUT
100
AcDbLine
 10
42.0
 20
153.4
 30
0.0
 11
42.0
 21
0.0
 31
0.0
  0
LINE
  5
292
330
1B
100
AcDbEntity
  8
1
100
AcDbLine
 10
42.0
 20
153.4
 30
0.0
 11
42.0
 21
-153.3999999999999
 31
0.0
  0
LINE
  5
293
330
1B
100
AcDbEntity
  8
SK3
100
AcDbLine
 10
32.0
 20
30.0
 30
0.0
 11
0.0
 21
30.0
 31
0.0
  0
LINE
  5
294
330
1B
100
AcDbEntity
  8
SK3
100
AcDbLine
 10
70.0
 20
31.0
 30
0.0
 11
32.0
 21
31.0
 31
0.0
  0
LINE
  5
295
330
1B
100
AcDbEntity
  8
SK1
100
AcDbLine
 10
70.0
 20
72.99999999999997
 30
0.0
 11
70.0
 21
-72.99999999999998
 31
0.0
  0
LINE
  5
296
330
1B
100
AcDbEntity
  8
SK1
100
AcDbLine
 10
70.0
 20
72.99999999999997
 30
0.0
 11
42.0
 21
72.99999999999997
 31
0.0
  0
LINE
  5
297
330
1B
100
AcDbEntity
  8
NOCUT
100
AcDbLine
 10
0.4000000000000341
 20
125.0
 30
0.0
 11
0.0
 21
125.0
 31
0.0
  0
LINE
  5
298
330
1B
100
AcDbEntity
  8
1
100
AcDbLine
 10
0.4000000000000341
 20
125.0
 30
0.0
 11
0.0
 21
125.0
 31
0.0
  0
LINE
  5
299
330
1B
100
AcDbEntity
  8
NOCUT
100
AcDbLine
 10
40.40000000000003
 20
155.0
 30
0.0
 11
3.600000000000022
 21
155.0
 31
0.0
  0
LINE
  5
29A
330
1B
100
AcDbEntity
  8
1
100
AcDbLine
 10
40.40000000000003
 20
155.0
 30
0.0
 11
3.600000000000022
 21
155.0
 31
0.0
  0
ARC
  5
29B
330
1B
100
AcDbEntity
  8
NOCUT
100
AcDbCircle
 10
3.600000000000022
 20
153.4
 30
0.0
 40
1.6
100
AcDbArc
 50
90.0
 51
180.0
  0
ARC
  5
29C
330
1B
100
AcDbEntity
  8
NOCUT
100
AcDbCircle
 10
40.40000000000003
 20
153.4
 30
0.0
 40
1.6
100
AcDbArc
 50
0.0
 51
90.0
  0
ARC
  5
29D
330
1B
100
AcDbEntity
  8
NOCUT
100
AcDbCircle
 10
0.4000000000000341
 20
126.6
 30
0.0
 40
1.6
100
AcDbArc
 50
270.0
 51
359.9999999998001
  0
ARC
  5
29E
330
1B
100
AcDbEntity
  8
1
100
AcDbCircle
 10
3.600000000000022
 20
-153.3999999999999
 30
0.0
 40
1.6
100
AcDbArc
 50
180.0
 51
270.0
  0
ARC
  5
29F
330
1B
100
AcDbEntity
  8
1
100
AcDbCircle
 10
3.600000000000022
 20
153.4
 30
0.0
 40
1.6
100
AcDbArc
 50
90.0
 51
180.0
  0
ARC
  5
2A0
330
1B
100
AcDbEntity
  8
1
100
AcDbCircle
 10
40.40000000000003
 20
-153.3999999999999
 30
0.0
 40
1.6
100
AcDbArc
 50
270.0
 51
0.0
  0
ARC
  5
2A1
330
1B
100
AcDbEntity
  8
1
100
AcDbCircle
 10
40.40000000000003
 20
153.4
 30
0.0
 40
1.6
100
AcDbArc
 50
0.0
 51
90.0
  0
ARC
  5
2A2
330
1B
100
AcDbEntity
  8
1
100
AcDbCircle
 10
0.4000000000000341
 20
-126.6
 30
0.0
 40
1.6
100
AcDbArc
 50
0.0000000001
 51
90.0
  0
ARC
  5
2A3
330
1B
100
AcDbEntity
  8
1
100
AcDbCircle
 10
0.4000000000000341
 20
126.6
 30
0.0
 40
1.6
100
AcDbArc
 50
270.0
 51
359.9999999998001
  0
ENDSEC
  0
SECTION
  2
OBJECTS
  0
DICTIONARY
  5
2A4
330
0
100
AcDbDictionary
281
     1
  3
ACAD_COLOR
350
2AE
  3
ACAD_GROUP
350
2A5
  3
ACAD_LAYOUT
350
2B1
  3
ACAD_MATERIAL
350
2AD
  3
ACAD_MLINESTYLE
350
2A6
  3
ACAD_PLOTSETTINGS
350
2B2
  3
ACAD_PLOTSTYLENAME
350
2AB
  3
ACAD_TABLESTYLE
350
2AF
  3
ACDBHEADERROUNDTRIPXREC
350
661
  3
AcDbVariableDictionary
350
65C
  0
DICTIONARY
  5
2B6
330
2
100
AcDbDictionary
280
     1
281
     1
  3
ACAD_LAYERFILTERS
360
65B
  3
ACLYDICTIONARY
360
65A
  0
DICTIONARY
  5
2AE
102
{ACAD_REACTORS
330
2A4
102
}
330
2A4
100
AcDbDictionary
281
     1
  0
DICTIONARY
  5
2A5
102
{ACAD_REACTORS
330
2A4
102
}
330
2A4
100
AcDbDictionary
281
     1
  0
DICTIONARY
  5
2B1
102
{ACAD_REACTORS
330
2A4
102
}
330
2A4
100
AcDbDictionary
281
     1
  3
Layout1
350
2B4
  3
Model
350
2B3
  0
DICTIONARY
  5
2AD
102
{ACAD_REACTORS
330
2A4
102
}
330
2A4
100
AcDbDictionary
281
     1
  0
DICTIONARY
  5
2A6
102
{ACAD_REACTORS
330
2A4
102
}
330
2A4
100
AcDbDictionary
281
     1
  3
STANDARD
350
2A7
  0
DICTIONARY
  5
2B2
102
{ACAD_REACTORS
330
2A4
102
}
330
2A4
100
AcDbDictionary
281
     1
  0
ACDBDICTIONARYWDFLT
  5
2AB
102
{ACAD_REACTORS
330
2A4
102
}
330
2A4
100
AcDbDictionary
281
     1
  3
Normal
350
2AC
100
AcDbDictionaryWithDefault
340
2AC
  0
DICTIONARY
  5
2AF
102
{ACAD_REACTORS
330
2A4
102
}
330
2A4
100
AcDbDictionary
281
     1
  3
Standard
350
2B0
  0
DICTIONARY
  5
661
102
{ACAD_REACTORS
330
2A4
102
}
330
2A4
100
AcDbDictionary
281
     1
  0
DICTIONARY
  5
65C
102
{ACAD_REACTORS
330
2A4
102
}
330
2A4
100
AcDbDictionary
281
     1
  3
CTABLESTYLE
350
65D
  3
DIMASSOC
350
65E
  3
PROJECTNAME
350
65F
  0
DICTIONARY
  5
65B
102
{ACAD_REACTORS
330
2B6
102
}
330
2B6
100
AcDbDictionary
281
     1
  0
DICTIONARY
  5
65A
102
{ACAD_REACTORS
330
2B6
102
}
330
2B6
100
AcDbDictionary
281
     1
1001
ACAD
1000
<All
  0
LAYOUT
  5
2B4
102
{ACAD_XDICTIONARY
360
664
102
}
102
{ACAD_REACTORS
330
2B1
102
}
330
2B1
100
AcDbPlotSettings
  1

  2
\\ingdom02\ITB3
  4

  6

 40
0.0
 41
0.0
 42
0.0
 43
0.0
 44
0.0
 45
0.0
 46
0.0
 47
0.0
 48
0.0
 49
0.0
140
0.0
141
0.0
142
1.0
143
1.0
 70
   688
 72
     0
 73
     0
 74
     5
  7

 75
    16
147
1.0
148
0.0
149
0.0
100
AcDbLayout
  1
Layout1
 70
     1
 71
     1
 10
0.0
 20
0.0
 11
12.0
 21
9.0
 12
0.0
 22
0.0
 32
0.0
 14
1.000000000000000E+20
 24
1.000000000000000E+20
 34
1.000000000000000E+20
 15
-1.000000000000000E+20
 25
-1.000000000000000E+20
 35
-1.000000000000000E+20
146
0.0
 13
0.0
 23
0.0
 33
0.0
 16
1.0
 26
0.0
 36
0.0
 17
0.0
 27
1.0
 37
0.0
 76
     0
330
1C
  0
LAYOUT
  5
2B3
102
{ACAD_XDICTIONARY
360
662
102
}
102
{ACAD_REACTORS
330
2B1
102
}
330
2B1
100
AcDbPlotSettings
  1

  2
\\ingdom02\ITB3
  4

  6

 40
0.0
 41
0.0
 42
0.0
 43
0.0
 44
0.0
 45
0.0
 46
0.0
 47
0.0
 48
0.0
 49
0.0
140
0.0
141
0.0
142
1.0
143
1.0
 70
  1712
 72
     0
 73
     0
 74
     0
  7

 75
     0
147
1.0
148
0.0
149
0.0
100
AcDbLayout
  1
Model
 70
     1
 71
     0
 10
0.0
 20
0.0
 11
12.0
 21
9.0
 12
0.0
 22
0.0
 32
0.0
 14
0.0
 24
0.0
 34
0.0
 15
0.0
 25
0.0
 35
0.0
146
0.0
 13
0.0
 23
0.0
 33
0.0
 16
1.0
 26
0.0
 36
0.0
 17
0.0
 27
1.0
 37
0.0
 76
     0
330
1B
  0
MLINESTYLE
  5
2A7
102
{ACAD_REACTORS
330
2A6
102
}
330
2A6
100
AcDbMlineStyle
  2
STANDARD
 70
     0
  3

 62
   256
 51
90.0
 52
90.0
 71
     2
 49
0.5
 62
   256
  6
BYLAYER
 49
-0.5
 62
   256
  6
BYLAYER
  0
ACDBPLACEHOLDER
  5
2AC
102
{ACAD_REACTORS
330
2AB
102
}
330
2AB
  0
TABLESTYLE
  5
2B0
102
{ACAD_REACTORS
330
2AF
102
}
330
2AF
100
AcDbTableStyle
  3
Standard
 70
     0
 71
     0
 40
1.5
 41
1.5
280
     0
281
     0
  7
STANDARD
140
4.5
170
     2
 62
     0
 63
     7
283
     0
274
    -2
284
     1
 64
     0
275
    -2
285
     1
 65
     0
276
    -2
286
     1
 66
     0
277
    -2
287
     1
 67
     0
278
    -2
288
     1
 68
     0
279
    -2
289
     1
 69
     0
  7
STANDARD
140
6.0
170
     5
 62
     0
 63
     7
283
     0
274
    -2
284
     1
 64
     0
275
    -2
285
     1
 65
     0
276
    -2
286
     1
 66
     0
277
    -2
287
     1
 67
     0
278
    -2
288
     1
 68
     0
279
    -2
289
     1
 69
     0
  7
STANDARD
140
4.5
170
     5
 62
     0
 63
     7
283
     0
274
    -2
284
     1
 64
     0
275
    -2
285
     1
 65
     0
276
    -2
286
     1
 66
     0
277
    -2
287
     1
 67
     0
278
    -2
288
     1
 68
     0
279
    -2
289
     1
 69
     0
  0
DICTIONARYVAR
  5
65D
102
{ACAD_REACTORS
330
65C
102
}
330
65C
100
DictionaryVariables
280
     0
  1
STANDARD
  0
DICTIONARYVAR
  5
65E
102
{ACAD_REACTORS
330
65C
102
}
330
65C
100
DictionaryVariables
280
     0
  1
1
  0
DICTIONARYVAR
  5
65F
102
{ACAD_REACTORS
330
65C
102
}
330
65C
100
DictionaryVariables
280
     0
  1

  0
DICTIONARY
  5
664
330
2B4
100
AcDbDictionary
280
     1
281
     1
  3
ACAD_XREC_ROUNDTRIP
360
665
  0
DICTIONARY
  5
662
330
2B3
100
AcDbDictionary
280
     1
281
     1
  3
ACAD_XREC_ROUNDTRIP
360
663
  0
XRECORD
  5
665
102
{ACAD_REACTORS
330
664
102
}
330
664
100
AcDbXrecord
280
     1
102
SHADEPLOT
 70
     0
102
SHADEPLOTRESLEVEL
 70
     2
102
SHADEPLOTCUSTOMDPI
 70
   300
  0
XRECORD
  5
663
102
{ACAD_REACTORS
330
662
102
}
330
662
100
AcDbXrecord
280
     1
102
SHADEPLOT
 70
     0
102
SHADEPLOTRESLEVEL
 70
     2
102
SHADEPLOTCUSTOMDPI
 70
   300
  0
ENDSEC
  0
EOF
