  0
SECTION
  2
HEADER
  9
$ACADVER
  1
AC1015
  9
$ACADMAINTVER
 70
    20
  9
$DWGCODEPAGE
  3
ANSI_1252
  9
$INSBASE
 10
0.0
 20
0.0
 30
0.0
  9
$EXTMIN
 10
-25.10284328961609
 20
-122.5052484745453
 30
-0.0015258207003583
  9
$EXTMAX
 10
126.2384039562178
 20
147.5936284472626
 30
0.0000000349246037
  9
$LIMMIN
 10
0.0
 20
0.0
  9
$LIMMAX
 10
420.0
 20
297.0
  9
$ORTHOMODE
 70
     0
  9
$REGENMODE
 70
     1
  9
$FILLMODE
 70
     1
  9
$QTEXTMODE
 70
     0
  9
$MIRRTEXT
 70
     0
  9
$LTSCALE
 40
23.1
  9
$ATTMODE
 70
     1
  9
$TEXTSIZE
 40
0.2
  9
$TRACEWID
 40
0.05
  9
$TEXTSTYLE
  7
STANDARD
  9
$CLAYER
  8
0
  9
$CELTYPE
  6
BYLAYER
  9
$CECOLOR
 62
   256
  9
$CELTSCALE
 40
1.0
  9
$DISPSILH
 70
     0
  9
$DIMSCALE
 40
1.0
  9
$DIMASZ
 40
3.5
  9
$DIMEXO
 40
0.625
  9
$DIMDLI
 40
3.75
  9
$DIMRND
 40
0.0
  9
$DIMDLE
 40
0.0
  9
$DIMEXE
 40
2.0
  9
$DIMTP
 40
0.0
  9
$DIMTM
 40
0.0
  9
$DIMTXT
 40
3.5
  9
$DIMCEN
 40
2.5
  9
$DIMTSZ
 40
0.0
  9
$DIMTOL
 70
     0
  9
$DIMLIM
 70
     0
  9
$DIMTIH
 70
     0
  9
$DIMTOH
 70
     0
  9
$DIMSE1
 70
     0
  9
$DIMSE2
 70
     0
  9
$DIMTAD
 70
     1
  9
$DIMZIN
 70
     8
  9
$DIMBLK
  1

  9
$DIMASO
 70
     1
  9
$DIMSHO
 70
     1
  9
$DIMPOST
  1

  9
$DIMAPOST
  1

  9
$DIMALT
 70
     0
  9
$DIMALTD
 70
     3
  9
$DIMALTF
 40
0.03937007874016
  9
$DIMLFAC
 40
1.0
  9
$DIMTOFL
 70
     1
  9
$DIMTVP
 40
0.0
  9
$DIMTIX
 70
     0
  9
$DIMSOXD
 70
     0
  9
$DIMSAH
 70
     0
  9
$DIMBLK1
  1

  9
$DIMBLK2
  1

  9
$DIMSTYLE
  2
ISO-25
  9
$DIMCLRD
 70
   256
  9
$DIMCLRE
 70
   256
  9
$DIMCLRT
 70
   256
  9
$DIMTFAC
 40
1.0
  9
$DIMGAP
 40
0.625
  9
$DIMJUST
 70
     0
  9
$DIMSD1
 70
     0
  9
$DIMSD2
 70
     0
  9
$DIMTOLJ
 70
     0
  9
$DIMTZIN
 70
     8
  9
$DIMALTZ
 70
     0
  9
$DIMALTTZ
 70
     0
  9
$DIMUPT
 70
     0
  9
$DIMDEC
 70
     2
  9
$DIMTDEC
 70
     2
  9
$DIMALTU
 70
     2
  9
$DIMALTTD
 70
     3
  9
$DIMTXSTY
  7
STANDARD
  9
$DIMAUNIT
 70
     0
  9
$DIMADEC
 70
     0
  9
$DIMALTRND
 40
0.0
  9
$DIMAZIN
 70
     0
  9
$DIMDSEP
 70
    46
  9
$DIMATFIT
 70
     3
  9
$DIMFRAC
 70
     0
  9
$DIMLDRBLK
  1

  9
$DIMLUNIT
 70
     2
  9
$DIMLWD
 70
    -2
  9
$DIMLWE
 70
    -2
  9
$DIMTMOVE
 70
     0
  9
$LUNITS
 70
     2
  9
$LUPREC
 70
     4
  9
$SKETCHINC
 40
0.1
  9
$FILLETRAD
 40
0.0
  9
$AUNITS
 70
     0
  9
$AUPREC
 70
     0
  9
$MENU
  1
.
  9
$ELEVATION
 40
0.0
  9
$PELEVATION
 40
0.0
  9
$THICKNESS
 40
0.0
  9
$LIMCHECK
 70
     0
  9
$CHAMFERA
 40
0.0
  9
$CHAMFERB
 40
0.0
  9
$CHAMFERC
 40
0.0
  9
$CHAMFERD
 40
0.0
  9
$SKPOLY
 70
     0
  9
$TDCREATE
 40
2453791.376477720
  9
$TDUCREATE
 40
2453791.334811053
  9
$TDUPDATE
 40
2453791.422479445
  9
$TDUUPDATE
 40
2453791.380812778
  9
$TDINDWG
 40
0.0460019097
  9
$TDUSRTIMER
 40
0.0460019097
  9
$USRTIMER
 70
     1
  9
$ANGBASE
 50
0.0
  9
$ANGDIR
 70
     0
  9
$PDMODE
 70
     3
  9
$PDSIZE
 40
0.3125
  9
$PLINEWID
 40
0.0
  9
$SPLFRAME
 70
     0
  9
$SPLINETYPE
 70
     6
  9
$SPLINESEGS
 70
     8
  9
$HANDSEED
  5
681
  9
$SURFTAB1
 70
     6
  9
$SURFTAB2
 70
     6
  9
$SURFTYPE
 70
     6
  9
$SURFU
 70
     6
  9
$SURFV
 70
     6
  9
$UCSBASE
  2

  9
$UCSNAME
  2

  9
$UCSORG
 10
0.0
 20
0.0
 30
0.0
  9
$UCSXDIR
 10
1.0
 20
0.0
 30
0.0
  9
$UCSYDIR
 10
0.0
 20
1.0
 30
0.0
  9
$UCSORTHOREF
  2

  9
$UCSORTHOVIEW
 70
     0
  9
$UCSORGTOP
 10
0.0
 20
0.0
 30
0.0
  9
$UCSORGBOTTOM
 10
0.0
 20
0.0
 30
0.0
  9
$UCSORGLEFT
 10
0.0
 20
0.0
 30
0.0
  9
$UCSORGRIGHT
 10
0.0
 20
0.0
 30
0.0
  9
$UCSORGFRONT
 10
0.0
 20
0.0
 30
0.0
  9
$UCSORGBACK
 10
0.0
 20
0.0
 30
0.0
  9
$PUCSBASE
  2

  9
$PUCSNAME
  2

  9
$PUCSORG
 10
0.0
 20
0.0
 30
0.0
  9
$PUCSXDIR
 10
1.0
 20
0.0
 30
0.0
  9
$PUCSYDIR
 10
0.0
 20
1.0
 30
0.0
  9
$PUCSORTHOREF
  2

  9
$PUCSORTHOVIEW
 70
     0
  9
$PUCSORGTOP
 10
0.0
 20
0.0
 30
0.0
  9
$PUCSORGBOTTOM
 10
0.0
 20
0.0
 30
0.0
  9
$PUCSORGLEFT
 10
0.0
 20
0.0
 30
0.0
  9
$PUCSORGRIGHT
 10
0.0
 20
0.0
 30
0.0
  9
$PUCSORGFRONT
 10
0.0
 20
0.0
 30
0.0
  9
$PUCSORGBACK
 10
0.0
 20
0.0
 30
0.0
  9
$USERI1
 70
     0
  9
$USERI2
 70
     0
  9
$USERI3
 70
     0
  9
$USERI4
 70
     0
  9
$USERI5
 70
     0
  9
$USERR1
 40
0.0
  9
$USERR2
 40
0.0
  9
$USERR3
 40
0.0
  9
$USERR4
 40
0.0
  9
$USERR5
 40
0.0
  9
$WORLDVIEW
 70
     1
  9
$SHADEDGE
 70
     3
  9
$SHADEDIF
 70
    70
  9
$TILEMODE
 70
     1
  9
$MAXACTVP
 70
    64
  9
$PINSBASE
 10
0.0
 20
0.0
 30
0.0
  9
$PLIMCHECK
 70
     0
  9
$PEXTMIN
 10
1.000000000000000E+20
 20
1.000000000000000E+20
 30
1.000000000000000E+20
  9
$PEXTMAX
 10
-1.000000000000000E+20
 20
-1.000000000000000E+20
 30
-1.000000000000000E+20
  9
$PLIMMIN
 10
0.0
 20
0.0
  9
$PLIMMAX
 10
12.0
 20
9.0
  9
$UNITMODE
 70
     0
  9
$VISRETAIN
 70
     1
  9
$PLINEGEN
 70
     0
  9
$PSLTSCALE
 70
     1
  9
$TREEDEPTH
 70
  3020
  9
$CMLSTYLE
  2
STANDARD
  9
$CMLJUST
 70
     0
  9
$CMLSCALE
 40
1.0
  9
$PROXYGRAPHICS
 70
     1
  9
$MEASUREMENT
 70
     1
  9
$CELWEIGHT
370
    -1
  9
$ENDCAPS
280
     0
  9
$JOINSTYLE
280
     0
  9
$LWDISPLAY
290
     0
  9
$INSUNITS
 70
     0
  9
$HYPERLINKBASE
  1

  9
$STYLESHEET
  1

  9
$XEDIT
290
     1
  9
$CEPSNTYPE
380
     0
  9
$PSTYLEMODE
290
     1
  9
$FINGERPRINTGUID
  2
{3F7A7912-A3DF-47FA-96C5-0678AD6D11ED}
  9
$VERSIONGUID
  2
{28E4EB70-3A78-492C-9354-407CD08CA10A}
  9
$EXTNAMES
290
     1
  9
$PSVPSCALE
 40
0.0
  9
$OLESTARTUP
290
     0
  0
ENDSEC
  0
SECTION
  2
CLASSES
  0
CLASS
  1
ACDBDICTIONARYWDFLT
  2
AcDbDictionaryWithDefault
  3
ObjectDBX Classes
 90
        0
280
     0
281
     0
  0
CLASS
  1
TABLESTYLE
  2
AcDbTableStyle
  3
ObjectDBX Classes
 90
     2047
280
     0
281
     0
  0
CLASS
  1
DICTIONARYVAR
  2
AcDbDictionaryVar
  3
ObjectDBX Classes
 90
        0
280
     0
281
     0
  0
CLASS
  1
ACDBPLACEHOLDER
  2
AcDbPlaceHolder
  3
ObjectDBX Classes
 90
        0
280
     0
281
     0
  0
CLASS
  1
LAYOUT
  2
AcDbLayout
  3
ObjectDBX Classes
 90
        0
280
     0
281
     0
  0
ENDSEC
  0
SECTION
  2
TABLES
  0
TABLE
  2
VPORT
  5
8
330
0
100
AcDbSymbolTable
 70
     2
  0
VPORT
  5
67B
330
8
100
AcDbSymbolTableRecord
100
AcDbViewportTableRecord
  2
*Active
 70
     0
 10
0.0
 20
0.0
 11
1.0
 21
1.0
 12
50.56778033330084
 22
12.54418998635864
 13
0.0
 23
0.0
 14
1.0
 24
1.0
 15
0.0
 25
0.0
 16
0.0
 26
0.0
 36
1.0
 17
0.0
 27
0.0
 37
0.0
 40
272.1246184987215
 41
1.494367959949937
 42
50.0
 43
0.0
 44
0.0
 50
0.0
 51
0.0
 71
     0
 72
   100
 73
     1
 74
     1
 75
     0
 76
     0
 77
     0
 78
     0
281
     0
 65
     1
110
0.0
120
0.0
130
0.0
111
1.0
121
0.0
131
0.0
112
0.0
122
1.0
132
0.0
 79
     0
146
0.0
  0
ENDTAB
  0
TABLE
  2
LTYPE
  5
5
330
0
100
AcDbSymbolTable
 70
     6
  0
LTYPE
  5
14
330
5
100
AcDbSymbolTableRecord
100
AcDbLinetypeTableRecord
  2
BYBLOCK
 70
     0
  3

 72
    65
 73
     0
 40
0.0
  0
LTYPE
  5
15
330
5
100
AcDbSymbolTableRecord
100
AcDbLinetypeTableRecord
  2
BYLAYER
 70
     0
  3

 72
    65
 73
     0
 40
0.0
  0
LTYPE
  5
16
330
5
100
AcDbSymbolTableRecord
100
AcDbLinetypeTableRecord
  2
CONTINUOUS
 70
     0
  3
Solid line
 72
    65
 73
     0
 40
0.0
  0
LTYPE
  5
1F5
330
5
100
AcDbSymbolTableRecord
100
AcDbLinetypeTableRecord
  2
CENTER
 70
     0
  3
____ _ ____ _ ____ _ ____ _ ____ _ ____ _ ____
 72
    65
 73
     4
 40
0.6
 49
0.375
 74
     0
 49
-0.075
 74
     0
 49
0.075
 74
     0
 49
-0.075
 74
     0
  0
LTYPE
  5
1F6
330
5
100
AcDbSymbolTableRecord
100
AcDbLinetypeTableRecord
  2
HIDDEN
 70
     0
  3
- - - - - - - - - - - - - - - - - - - -
 72
    65
 73
     2
 40
0.2
 49
0.1
 74
     0
 49
-0.1
 74
     0
  0
ENDTAB
  0
TABLE
  2
LAYER
  5
2
102
{ACAD_XDICTIONARY
360
2B9
102
}
330
0
100
AcDbSymbolTable
 70
    14
  0
LAYER
  5
10
330
2
100
AcDbSymbolTableRecord
100
AcDbLayerTableRecord
  2
0
 70
     0
 62
     7
  6
CONTINUOUS
370
    -3
390
2AF
  0
LAYER
  5
1FD
330
2
100
AcDbSymbolTableRecord
100
AcDbLayerTableRecord
  2
1
 70
     0
 62
     4
  6
CONTINUOUS
370
    -3
390
2AF
  0
LAYER
  5
1FE
330
2
100
AcDbSymbolTableRecord
100
AcDbLayerTableRecord
  2
2
 70
     0
 62
     7
  6
CONTINUOUS
370
    -3
390
2AF
  0
LAYER
  5
1FF
330
2
100
AcDbSymbolTableRecord
100
AcDbLayerTableRecord
  2
4
 70
     0
 62
     2
  6
CENTER
370
    -3
390
2AF
  0
LAYER
  5
200
330
2
100
AcDbSymbolTableRecord
100
AcDbLayerTableRecord
  2
6
 70
     0
 62
     5
  6
CONTINUOUS
370
    -3
390
2AF
  0
LAYER
  5
201
330
2
100
AcDbSymbolTableRecord
100
AcDbLayerTableRecord
  2
NOCUT
 70
     0
 62
     7
  6
CONTINUOUS
370
    -3
390
2AF
  0
LAYER
  5
202
330
2
100
AcDbSymbolTableRecord
100
AcDbLayerTableRecord
  2
SK1
 70
     0
 62
     4
  6
CONTINUOUS
370
    -3
390
2AF
  0
LAYER
  5
203
330
2
100
AcDbSymbolTableRecord
100
AcDbLayerTableRecord
  2
SK2
 70
     0
 62
     7
  6
CONTINUOUS
370
    -3
390
2AF
  0
LAYER
  5
204
330
2
100
AcDbSymbolTableRecord
100
AcDbLayerTableRecord
  2
SK3
 70
     0
 62
     1
  6
HIDDEN
370
    -3
390
2AF
  0
LAYER
  5
205
330
2
100
AcDbSymbolTableRecord
100
AcDbLayerTableRecord
  2
SK4
 70
     0
 62
     2
  6
CENTER
370
    -3
390
2AF
  0
LAYER
  5
328
330
2
100
AcDbSymbolTableRecord
100
AcDbLayerTableRecord
  2
Defpoints
 70
     0
 62
     7
  6
CONTINUOUS
290
     0
370
    -3
390
2AF
  0
ENDTAB
  0
TABLE
  2
STYLE
  5
3
330
0
100
AcDbSymbolTable
 70
     1
  0
STYLE
  5
11
330
3
100
AcDbSymbolTableRecord
100
AcDbTextStyleTableRecord
  2
STANDARD
 70
     0
 40
0.0
 41
0.8
 50
0.0
 71
     0
 42
0.2
  3
isocp.shx
  4

  0
ENDTAB
  0
TABLE
  2
VIEW
  5
6
330
0
100
AcDbSymbolTable
 70
     0
  0
ENDTAB
  0
TABLE
  2
UCS
  5
7
330
0
100
AcDbSymbolTable
 70
     0
  0
ENDTAB
  0
TABLE
  2
APPID
  5
9
330
0
100
AcDbSymbolTable
 70
     3
  0
APPID
  5
206
330
9
100
AcDbSymbolTableRecord
100
AcDbRegAppTableRecord
  2
ACAD
 70
     0
  0
APPID
  5
32A
330
9
100
AcDbSymbolTableRecord
100
AcDbRegAppTableRecord
  2
ACAD_PSEXT
 70
     0
  0
APPID
  5
553
330
9
100
AcDbSymbolTableRecord
100
AcDbRegAppTableRecord
  2
ACAD_DSTYLE_DIMTEXT_FILL
 70
     0
  0
ENDTAB
  0
TABLE
  2
DIMSTYLE
  5
A
330
0
100
AcDbSymbolTable
 70
     3
100
AcDbDimStyleTable
 71
     2
340
329
340
207
  0
DIMSTYLE
105
207
330
A
100
AcDbSymbolTableRecord
100
AcDbDimStyleTableRecord
  2
STANDARD
 70
     0
 41
2.5
 47
0.005
 48
0.005
 71
     1
 73
     0
 74
     0
 77
     1
 78
     8
140
3.5
178
     2
271
     3
272
     3
284
     8
340
11
341
209
342
209
343
209
344
209
  0
DIMSTYLE
105
329
102
{ACAD_REACTORS
330
32C
330
32D
330
32E
330
32F
330
330
330
331
330
332
330
333
330
334
330
282
330
280
330
27E
330
281
330
27C
330
27F
330
27D
102
}
330
A
100
AcDbSymbolTableRecord
100
AcDbDimStyleTableRecord
  2
ISO-25
 70
     0
 41
3.5
 42
0.625
 43
3.75
 44
2.0
 73
     0
 74
     0
 77
     1
 78
     8
140
3.5
141
2.5
143
0.03937007874016
147
0.625
171
     3
172
     1
176
   256
177
   256
178
   256
271
     2
272
     2
274
     3
283
     0
284
     8
340
11
  0
ENDTAB
  0
TABLE
  2
BLOCK_RECORD
  5
1
330
0
100
AcDbSymbolTable
 70
    29
  0
BLOCK_RECORD
  5
1B
330
1
100
AcDbSymbolTableRecord
100
AcDbBlockTableRecord
  2
*MODEL_SPACE
340
2B6
  0
BLOCK_RECORD
  5
1C
330
1
100
AcDbSymbolTableRecord
100
AcDbBlockTableRecord
  2
*PAPER_SPACE
340
2B7
  0
BLOCK_RECORD
  5
209
330
1
100
AcDbSymbolTableRecord
100
AcDbBlockTableRecord
  2
_FILLED
340
0
  0
BLOCK_RECORD
  5
20A
330
1
100
AcDbSymbolTableRecord
100
AcDbBlockTableRecord
  2
*D1
340
0
  0
BLOCK_RECORD
  5
20B
330
1
100
AcDbSymbolTableRecord
100
AcDbBlockTableRecord
  2
*D2
340
0
  0
BLOCK_RECORD
  5
20C
330
1
100
AcDbSymbolTableRecord
100
AcDbBlockTableRecord
  2
*D3
340
0
  0
BLOCK_RECORD
  5
20D
330
1
100
AcDbSymbolTableRecord
100
AcDbBlockTableRecord
  2
*D4
340
0
  0
BLOCK_RECORD
  5
20E
330
1
100
AcDbSymbolTableRecord
100
AcDbBlockTableRecord
  2
*D5
340
0
  0
BLOCK_RECORD
  5
20F
330
1
100
AcDbSymbolTableRecord
100
AcDbBlockTableRecord
  2
*D6
340
0
  0
BLOCK_RECORD
  5
210
330
1
100
AcDbSymbolTableRecord
100
AcDbBlockTableRecord
  2
*D7
340
0
  0
BLOCK_RECORD
  5
211
330
1
100
AcDbSymbolTableRecord
100
AcDbBlockTableRecord
  2
NULLPUNKT_BL0
340
0
102
{BLKREFS
331
284
331
336
102
}
  0
BLOCK_RECORD
  5
212
330
1
100
AcDbSymbolTableRecord
100
AcDbBlockTableRecord
  2
EINFUEGEPUNKT_BL1
340
0
102
{BLKREFS
331
285
331
337
102
}
  0
BLOCK_RECORD
  5
418
330
1
100
AcDbSymbolTableRecord
100
AcDbBlockTableRecord
  2
*D20
340
0
  0
BLOCK_RECORD
  5
424
330
1
100
AcDbSymbolTableRecord
100
AcDbBlockTableRecord
  2
*D21
340
0
  0
BLOCK_RECORD
  5
430
330
1
100
AcDbSymbolTableRecord
100
AcDbBlockTableRecord
  2
*D22
340
0
  0
BLOCK_RECORD
  5
43C
330
1
100
AcDbSymbolTableRecord
100
AcDbBlockTableRecord
  2
*D23
340
0
  0
BLOCK_RECORD
  5
448
330
1
100
AcDbSymbolTableRecord
100
AcDbBlockTableRecord
  2
*D24
340
0
  0
BLOCK_RECORD
  5
454
330
1
100
AcDbSymbolTableRecord
100
AcDbBlockTableRecord
  2
*D25
340
0
  0
BLOCK_RECORD
  5
460
330
1
100
AcDbSymbolTableRecord
100
AcDbBlockTableRecord
  2
*D26
340
0
  0
BLOCK_RECORD
  5
46C
330
1
100
AcDbSymbolTableRecord
100
AcDbBlockTableRecord
  2
*D27
340
0
  0
BLOCK_RECORD
  5
478
330
1
100
AcDbSymbolTableRecord
100
AcDbBlockTableRecord
  2
*D28
340
0
  0
ENDTAB
  0
ENDSEC
  0
SECTION
  2
BLOCKS
  0
BLOCK
  5
1E
330
1B
100
AcDbEntity
  8
0
100
AcDbBlockBegin
  2
*MODEL_SPACE
 70
     0
 10
0.0
 20
0.0
 30
0.0
  3
*MODEL_SPACE
  1

  0
ENDBLK
  5
1F
330
1B
100
AcDbEntity
  8
0
100
AcDbBlockEnd
  0
BLOCK
  5
20
330
1C
100
AcDbEntity
 67
     1
  8
0
100
AcDbBlockBegin
  2
*PAPER_SPACE
 70
     0
 10
0.0
 20
0.0
 30
0.0
  3
*PAPER_SPACE
  1

  0
ENDBLK
  5
21
330
1C
100
AcDbEntity
 67
     1
  8
0
100
AcDbBlockEnd
  0
BLOCK
  5
279
330
209
100
AcDbEntity
  8
0
100
AcDbBlockBegin
  2
_FILLED
 70
     0
 10
0.0
 20
0.0
 30
0.0
  3
_FILLED
  1

  0
SOLID
  5
27A
330
209
100
AcDbEntity
  8
0
  6
ByBlock
 62
     0
100
AcDbTrace
 10
0.0
 20
0.0
 30
0.0
 11
-1.0
 21
0.132
 31
0.0
 12
-1.0
 22
-0.132
 32
0.0
 13
-1.0
 23
-0.132
 33
0.0
  0
ENDBLK
  5
27B
330
209
100
AcDbEntity
  8
0
  6
ByBlock
 62
     0
100
AcDbBlockEnd
  0
BLOCK
  5
213
330
20A
100
AcDbEntity
  8
SK2
  6
Continuous
 62
     7
100
AcDbBlockBegin
  2
*D1
 70
     1
 10
0.0
 20
0.0
 30
0.0
  3
*D1
  1

  0
LINE
  5
638
330
20A
100
AcDbEntity
  8
SK2
370
    -2
100
AcDbLine
 10
-1.625
 20
-122.5
 30
0.0
 11
-23.12500000000003
 21
-122.5
 31
0.0
  0
LINE
  5
639
330
20A
100
AcDbEntity
  8
SK2
370
    -2
100
AcDbLine
 10
-1.625
 20
122.5
 30
0.0
 11
-23.12499999999997
 21
122.5
 31
0.0
  0
LINE
  5
63A
330
20A
100
AcDbEntity
  8
SK2
370
    -2
100
AcDbLine
 10
-21.12500000000002
 20
-119.0
 30
0.0
 11
-21.12499999999998
 21
119.0
 31
0.0
  0
SOLID
  5
63B
330
20A
100
AcDbEntity
  8
SK2
100
AcDbTrace
 10
-21.70833333333336
 20
-119.0
 30
0.0
 11
-20.54166666666669
 21
-119.0
 31
0.0
 12
-21.12500000000003
 22
-122.5
 32
0.0
 13
-21.12500000000003
 23
-122.5
 33
0.0
  0
SOLID
  5
63C
330
20A
100
AcDbEntity
  8
SK2
100
AcDbTrace
 10
-21.70833333333331
 20
119.0
 30
0.0
 11
-20.54166666666664
 21
119.0
 31
0.0
 12
-21.12499999999997
 22
122.5
 32
0.0
 13
-21.12499999999997
 23
122.5
 33
0.0
  0
MTEXT
  5
63D
330
20A
100
AcDbEntity
  8
SK2
100
AcDbMText
 10
-23.50034448818898
 20
0.0000000000000003
 30
0.0
 40
3.5
 41
0.0
 71
     5
 72
     1
  1
%%c245
 11
0.0000000000000001
 21
1.0
 31
0.0
 73
     1
 44
1.0
1001
ACAD
1000
MTEXTBEGIN
1070
    73
1070
     1
1070
    44
1040
1.0
1070
    74
1070
     0
1000
MTEXTEND
  0
POINT
  5
63E
330
20A
100
AcDbEntity
  8
Defpoints
 62
     0
100
AcDbPoint
 10
-1.0
 20
-122.5
 30
0.0
  0
POINT
  5
63F
330
20A
100
AcDbEntity
  8
Defpoints
 62
     0
100
AcDbPoint
 10
-0.9999999999999998
 20
122.5
 30
0.0
  0
POINT
  5
640
330
20A
100
AcDbEntity
  8
Defpoints
 62
     0
100
AcDbPoint
 10
-21.12499999999997
 20
122.5
 30
0.0
  0
ENDBLK
  5
21C
330
20A
100
AcDbEntity
  8
0
  6
ByBlock
 62
     0
100
AcDbBlockEnd
  0
BLOCK
  5
21D
330
20B
100
AcDbEntity
  8
2
  6
Continuous
 62
     7
100
AcDbBlockBegin
  2
*D2
 70
     1
 10
0.0
 20
0.0
 30
0.0
  3
*D2
  1

  0
LINE
  5
641
330
20B
100
AcDbEntity
  8
2
370
    -2
100
AcDbLine
 10
0.0
 20
124.125
 30
0.0
 11
0.0000000000000008
 21
137.125
 31
0.0
  0
LINE
  5
642
330
20B
100
AcDbEntity
  8
2
370
    -2
100
AcDbLine
 10
42.0
 20
124.125
 30
0.0
 11
42.0
 21
137.125
 31
0.0
  0
LINE
  5
643
330
20B
100
AcDbEntity
  8
2
370
    -2
100
AcDbLine
 10
3.5
 20
135.125
 30
0.0
 11
38.5
 21
135.125
 31
0.0
  0
SOLID
  5
644
330
20B
100
AcDbEntity
  8
2
100
AcDbTrace
 10
3.5
 20
135.7083333333333
 30
0.0
 11
3.5
 21
134.5416666666666
 31
0.0
 12
0.0000000000000007
 22
135.125
 32
0.0
 13
0.0000000000000007
 23
135.125
 33
0.0
  0
SOLID
  5
645
330
20B
100
AcDbEntity
  8
2
100
AcDbTrace
 10
38.5
 20
135.7083333333333
 30
0.0
 11
38.5
 21
134.5416666666666
 31
0.0
 12
42.0
 22
135.125
 32
0.0
 13
42.0
 23
135.125
 33
0.0
  0
MTEXT
  5
646
330
20B
100
AcDbEntity
  8
2
100
AcDbMText
 10
21.0
 20
137.5003444881889
 30
0.0
 40
3.5
 41
0.0
 71
     5
 72
     1
  1
42
 73
     1
 44
1.0
1001
ACAD
1000
MTEXTBEGIN
1070
    73
1070
     1
1070
    44
1040
1.0
1070
    74
1070
     0
1000
MTEXTEND
  0
POINT
  5
647
330
20B
100
AcDbEntity
  8
Defpoints
 62
     0
100
AcDbPoint
 10
0.0
 20
123.5
 30
0.0
  0
POINT
  5
648
330
20B
100
AcDbEntity
  8
Defpoints
 62
     0
100
AcDbPoint
 10
42.0
 20
123.5
 30
0.0
  0
POINT
  5
649
330
20B
100
AcDbEntity
  8
Defpoints
 62
     0
100
AcDbPoint
 10
42.0
 20
135.125
 30
0.0
  0
ENDBLK
  5
225
330
20B
100
AcDbEntity
  8
0
  6
ByBlock
 62
     0
100
AcDbBlockEnd
  0
BLOCK
  5
226
330
20C
100
AcDbEntity
  8
SK2
  6
Continuous
 62
     7
100
AcDbBlockBegin
  2
*D3
 70
     1
 10
0.0
 20
0.0
 30
0.0
  3
*D3
  1

  0
LINE
  5
64A
330
20C
100
AcDbEntity
  8
SK2
370
    -2
100
AcDbLine
 10
71.625
 20
-50.0
 30
0.0
 11
96.37519160929999
 21
-50.0
 31
0.0
  0
LINE
  5
64B
330
20C
100
AcDbEntity
  8
SK2
370
    -2
100
AcDbLine
 10
71.625
 20
50.0
 30
0.0
 11
96.37519160930002
 21
50.0
 31
0.0
  0
LINE
  5
64C
330
20C
100
AcDbEntity
  8
SK2
370
    -2
100
AcDbLine
 10
94.37519160929999
 20
-46.50000000000001
 30
0.0
 11
94.37519160930001
 21
46.49999999999999
 31
0.0
  0
SOLID
  5
64D
330
20C
100
AcDbEntity
  8
SK2
100
AcDbTrace
 10
93.79185827596666
 20
-46.50000000000001
 30
0.0
 11
94.95852494263331
 21
-46.50000000000001
 31
0.0
 12
94.37519160929999
 22
-50.0
 32
0.0
 13
94.37519160929999
 23
-50.0
 33
0.0
  0
SOLID
  5
64E
330
20C
100
AcDbEntity
  8
SK2
100
AcDbTrace
 10
93.79185827596669
 20
46.49999999999999
 30
0.0
 11
94.95852494263335
 21
46.49999999999999
 31
0.0
 12
94.37519160930001
 22
50.0
 32
0.0
 13
94.37519160930001
 23
50.0
 33
0.0
  0
MTEXT
  5
64F
330
20C
100
AcDbEntity
  8
SK2
100
AcDbMText
 10
92.00019160930001
 20
0.0000000000000003
 30
0.0
 40
3.5
 41
0.0
 71
     5
 72
     1
  1
%%c100
 11
0.0000000000000001
 21
1.0
 31
0.0
 73
     1
 44
1.0
1001
ACAD
1000
MTEXTBEGIN
1070
    73
1070
     1
1070
    44
1040
1.0
1070
    74
1070
     0
1000
MTEXTEND
  0
POINT
  5
650
330
20C
100
AcDbEntity
  8
Defpoints
 62
     0
100
AcDbPoint
 10
71.0
 20
-50.0
 30
0.0
  0
POINT
  5
651
330
20C
100
AcDbEntity
  8
Defpoints
 62
     0
100
AcDbPoint
 10
71.0
 20
50.0
 30
0.0
  0
POINT
  5
652
330
20C
100
AcDbEntity
  8
Defpoints
 62
     0
100
AcDbPoint
 10
94.37519160930001
 20
50.0
 30
0.0
  0
ENDBLK
  5
22F
330
20C
100
AcDbEntity
  8
0
  6
ByBlock
 62
     0
100
AcDbBlockEnd
  0
BLOCK
  5
230
330
20D
100
AcDbEntity
  8
SK2
  6
Continuous
 62
     7
100
AcDbBlockBegin
  2
*D4
 70
     1
 10
0.0
 20
0.0
 30
0.0
  3
*D4
  1

  0
LINE
  5
653
330
20D
100
AcDbEntity
  8
SK2
370
    -2
100
AcDbLine
 10
70.0
 20
51.8535938439
 30
0.0
 11
70.0
 21
145.625
 31
0.0
  0
LINE
  5
654
330
20D
100
AcDbEntity
  8
SK2
370
    -2
100
AcDbLine
 10
0.0
 20
123.8535938439
 30
0.0
 11
0.0000000000000014
 21
145.625
 31
0.0
  0
LINE
  5
655
330
20D
100
AcDbEntity
  8
SK2
370
    -2
100
AcDbLine
 10
66.5
 20
143.625
 30
0.0
 11
3.500000000000001
 21
143.625
 31
0.0
  0
SOLID
  5
656
330
20D
100
AcDbEntity
  8
SK2
100
AcDbTrace
 10
66.5
 20
144.2083333333333
 30
0.0
 11
66.5
 21
143.0416666666666
 31
0.0
 12
70.0
 22
143.625
 32
0.0
 13
70.0
 23
143.625
 33
0.0
  0
SOLID
  5
657
330
20D
100
AcDbEntity
  8
SK2
100
AcDbTrace
 10
3.500000000000001
 20
144.2083333333333
 30
0.0
 11
3.500000000000001
 21
143.0416666666666
 31
0.0
 12
0.0000000000000012
 22
143.625
 32
0.0
 13
0.0000000000000012
 23
143.625
 33
0.0
  0
MTEXT
  5
658
330
20D
100
AcDbEntity
  8
SK2
100
AcDbMText
 10
35.0
 20
146.0
 30
0.0
 40
3.5
 41
0.0
 71
     5
 72
     1
  1
70
 73
     1
 44
1.0
1001
ACAD
1000
MTEXTBEGIN
1070
    73
1070
     1
1070
    44
1040
1.0
1070
    74
1070
     0
1000
MTEXTEND
  0
POINT
  5
659
330
20D
100
AcDbEntity
  8
Defpoints
 62
     0
100
AcDbPoint
 10
70.0
 20
51.2285938439
 30
0.0
  0
POINT
  5
65A
330
20D
100
AcDbEntity
  8
Defpoints
 62
     0
100
AcDbPoint
 10
0.0
 20
123.2285938439
 30
0.0
  0
POINT
  5
65B
330
20D
100
AcDbEntity
  8
Defpoints
 62
     0
100
AcDbPoint
 10
0.0000000000000012
 20
143.625
 30
0.0
  0
ENDBLK
  5
238
330
20D
100
AcDbEntity
  8
0
  6
ByBlock
 62
     0
100
AcDbBlockEnd
  0
BLOCK
  5
239
330
20E
100
AcDbEntity
  8
SK2
  6
Continuous
 62
     7
100
AcDbBlockBegin
  2
*D5
 70
     1
 10
0.0
 20
0.0
 30
0.0
  3
*D5
  1

  0
LINE
  5
65C
330
20E
100
AcDbEntity
  8
SK2
370
    -2
100
AcDbLine
 10
71.625
 20
-31.5
 30
0.0
 11
79.3751916093
 21
-31.5
 31
0.0
  0
LINE
  5
65D
330
20E
100
AcDbEntity
  8
SK2
370
    -2
100
AcDbLine
 10
71.625
 20
31.5
 30
0.0
 11
79.3751916093
 21
31.5
 31
0.0
  0
LINE
  5
65E
330
20E
100
AcDbEntity
  8
SK2
370
    -2
100
AcDbLine
 10
77.3751916093
 20
-28.00000000000001
 30
0.0
 11
77.3751916093
 21
28.0
 31
0.0
  0
SOLID
  5
65F
330
20E
100
AcDbEntity
  8
SK2
100
AcDbTrace
 10
76.79185827596668
 20
-28.00000000000001
 30
0.0
 11
77.95852494263333
 21
-28.00000000000001
 31
0.0
 12
77.3751916093
 22
-31.5
 32
0.0
 13
77.3751916093
 23
-31.5
 33
0.0
  0
SOLID
  5
660
330
20E
100
AcDbEntity
  8
SK2
100
AcDbTrace
 10
76.79185827596668
 20
28.0
 30
0.0
 11
77.95852494263333
 21
28.0
 31
0.0
 12
77.3751916093
 22
31.5
 32
0.0
 13
77.3751916093
 23
31.5
 33
0.0
  0
MTEXT
  5
661
330
20E
100
AcDbEntity
  8
SK2
100
AcDbMText
 10
75.0001916093
 20
0.0000000001000163
 30
0.0
 40
3.5
 41
0.0
 71
     5
 72
     1
  1
%%c63
 11
0.0000000000000001
 21
1.0
 31
0.0
 73
     1
 44
1.0
1001
ACAD
1000
MTEXTBEGIN
1070
    73
1070
     1
1070
    44
1040
1.0
1070
    74
1070
     0
1000
MTEXTEND
  0
POINT
  5
662
330
20E
100
AcDbEntity
  8
Defpoints
 62
     0
100
AcDbPoint
 10
71.0
 20
-31.5
 30
0.0
  0
POINT
  5
663
330
20E
100
AcDbEntity
  8
Defpoints
 62
     0
100
AcDbPoint
 10
71.0
 20
31.5
 30
0.0
  0
POINT
  5
664
330
20E
100
AcDbEntity
  8
Defpoints
 62
     0
100
AcDbPoint
 10
77.3751916093
 20
31.5
 30
0.0
  0
ENDBLK
  5
242
330
20E
100
AcDbEntity
  8
0
  6
ByBlock
 62
     0
100
AcDbBlockEnd
  0
BLOCK
  5
243
330
20F
100
AcDbEntity
  8
SK2
  6
Continuous
 62
     7
100
AcDbBlockBegin
  2
*D6
 70
     1
 10
0.0
 20
0.0
 30
0.0
  3
*D6
  1

  0
LINE
  5
665
330
20F
100
AcDbEntity
  8
SK2
370
    -2
100
AcDbLine
 10
-1.625
 20
-30.0
 30
0.0
 11
-14.62500000000001
 21
-30.0
 31
0.0
  0
LINE
  5
666
330
20F
100
AcDbEntity
  8
SK2
370
    -2
100
AcDbLine
 10
-1.625
 20
30.0
 30
0.0
 11
-14.62499999999999
 21
30.0
 31
0.0
  0
LINE
  5
667
330
20F
100
AcDbEntity
  8
SK2
370
    -2
100
AcDbLine
 10
-12.625
 20
-26.5
 30
0.0
 11
-12.62499999999999
 21
26.5
 31
0.0
  0
SOLID
  5
668
330
20F
100
AcDbEntity
  8
SK2
100
AcDbTrace
 10
-13.20833333333334
 20
-26.5
 30
0.0
 11
-12.04166666666667
 21
-26.5
 31
0.0
 12
-12.62500000000001
 22
-30.0
 32
0.0
 13
-12.62500000000001
 23
-30.0
 33
0.0
  0
SOLID
  5
669
330
20F
100
AcDbEntity
  8
SK2
100
AcDbTrace
 10
-13.20833333333333
 20
26.5
 30
0.0
 11
-12.04166666666666
 21
26.5
 31
0.0
 12
-12.62499999999999
 22
30.0
 32
0.0
 13
-12.62499999999999
 23
30.0
 33
0.0
  0
MTEXT
  5
66A
330
20F
100
AcDbEntity
  8
SK2
100
AcDbMText
 10
-15.0
 20
0.0000000001000163
 30
0.0
 40
3.5
 41
0.0
 71
     5
 72
     1
  1
%%c60
 11
0.0000000000000001
 21
1.0
 31
0.0
 73
     1
 44
1.0
1001
ACAD
1000
MTEXTBEGIN
1070
    73
1070
     1
1070
    44
1040
1.0
1070
    74
1070
     0
1000
MTEXTEND
  0
POINT
  5
66B
330
20F
100
AcDbEntity
  8
Defpoints
 62
     0
100
AcDbPoint
 10
-1.0
 20
-30.0
 30
0.0
  0
POINT
  5
66C
330
20F
100
AcDbEntity
  8
Defpoints
 62
     0
100
AcDbPoint
 10
-1.0
 20
30.0
 30
0.0
  0
POINT
  5
66D
330
20F
100
AcDbEntity
  8
Defpoints
 62
     0
100
AcDbPoint
 10
-12.62499999999999
 20
30.0
 30
0.0
  0
ENDBLK
  5
24C
330
20F
100
AcDbEntity
  8
0
  6
ByBlock
 62
     0
100
AcDbBlockEnd
  0
BLOCK
  5
24D
330
210
100
AcDbEntity
  8
SK2
  6
Continuous
 62
     7
100
AcDbBlockBegin
  2
*D7
 70
     1
 10
0.0
 20
0.0
 30
0.0
  3
*D7
  1

  0
LINE
  5
66E
330
210
100
AcDbEntity
  8
SK2
370
    -2
100
AcDbLine
 10
71.625
 20
-35.92102448419999
 30
0.0
 11
87.87519160929999
 21
-35.9210244842
 31
0.0
  0
LINE
  5
66F
330
210
100
AcDbEntity
  8
SK2
370
    -2
100
AcDbLine
 10
71.625
 20
35.92102448430001
 30
0.0
 11
87.87519160930001
 21
35.9210244843
 31
0.0
  0
LINE
  5
670
330
210
100
AcDbEntity
  8
SK2
370
    -2
100
AcDbLine
 10
85.87519160929998
 20
-32.4210244842
 30
0.0
 11
85.87519160930002
 21
32.4210244843
 31
0.0
  0
SOLID
  5
671
330
210
100
AcDbEntity
  8
SK2
100
AcDbTrace
 10
85.29185827596666
 20
-32.4210244842
 30
0.0
 11
86.45852494263332
 21
-32.4210244842
 31
0.0
 12
85.87519160929998
 22
-35.9210244842
 32
0.0
 13
85.87519160929998
 23
-35.9210244842
 33
0.0
  0
SOLID
  5
672
330
210
100
AcDbEntity
  8
SK2
100
AcDbTrace
 10
85.29185827596668
 20
32.4210244843
 30
0.0
 11
86.45852494263335
 21
32.4210244843
 31
0.0
 12
85.87519160930002
 22
35.9210244843
 32
0.0
 13
85.87519160930002
 23
35.9210244843
 33
0.0
  0
MTEXT
  5
673
330
210
100
AcDbEntity
  8
SK2
100
AcDbMText
 10
83.50019160930001
 20
0.0000000000000003
 30
0.0
 40
3.5
 41
0.0
 71
     5
 72
     1
  1
Lk-%%c101.6
 11
0.0000000000000001
 21
1.0
 31
0.0
 73
     1
 44
1.0
1001
ACAD
1000
MTEXTBEGIN
1070
    73
1070
     1
1070
    44
1040
1.0
1070
    74
1070
     0
1000
MTEXTEND
  0
POINT
  5
674
330
210
100
AcDbEntity
  8
Defpoints
 62
     0
100
AcDbPoint
 10
71.0
 20
-35.92102448419999
 30
0.0
  0
POINT
  5
675
330
210
100
AcDbEntity
  8
Defpoints
 62
     0
100
AcDbPoint
 10
71.0
 20
35.92102448430001
 30
0.0
  0
POINT
  5
676
330
210
100
AcDbEntity
  8
Defpoints
 62
     0
100
AcDbPoint
 10
85.87519160930002
 20
35.9210244843
 30
0.0
  0
ENDBLK
  5
256
330
210
100
AcDbEntity
  8
0
  6
ByBlock
 62
     0
100
AcDbBlockEnd
  0
BLOCK
  5
257
330
211
100
AcDbEntity
  8
1
  6
Continuous
 62
     3
100
AcDbBlockBegin
  2
NULLPUNKT_BL0
 70
     0
 10
163.9430989684
 20
143.7714061561
 30
0.0
  3
NULLPUNKT_BL0
  1

  0
LINE
  5
258
330
211
100
AcDbEntity
  8
1
  6
Continuous
 62
     4
100
AcDbLine
 10
163.9430989684
 20
143.7714061561
 30
0.0
 11
165.4430959684
 21
143.7714061561
 31
0.0
  0
ARC
  5
259
330
211
100
AcDbEntity
  8
1
  6
Continuous
 62
     4
100
AcDbCircle
 10
163.9430989684
 20
143.7714061561
 30
0.0
 40
1.499997
100
AcDbArc
 50
180.0
 51
270.0
  0
LINE
  5
25A
330
211
100
AcDbEntity
  8
1
  6
Continuous
 62
     4
100
AcDbLine
 10
163.9430989684
 20
143.7714061561
 30
0.0
 11
163.9430989684
 21
142.2714091561
 31
0.0
  0
ARC
  5
25B
330
211
100
AcDbEntity
  8
1
  6
Continuous
 62
     4
100
AcDbCircle
 10
163.9430989684
 20
143.7714061561
 30
0.0
 40
1.499997
100
AcDbArc
 50
270.0
 51
360.0
  0
ARC
  5
25C
330
211
100
AcDbEntity
  8
1
  6
Continuous
 62
     4
100
AcDbCircle
 10
163.9430989684
 20
143.7714061561
 30
0.0
 40
1.499997
100
AcDbArc
 50
0.0
 51
90.0
  0
ARC
  5
25D
330
211
100
AcDbEntity
  8
1
  6
Continuous
 62
     4
100
AcDbCircle
 10
163.9430989684
 20
143.7714061561
 30
0.0
 40
1.499997
100
AcDbArc
 50
90.0
 51
180.0
  0
LINE
  5
25E
330
211
100
AcDbEntity
  8
1
  6
Continuous
 62
     4
100
AcDbLine
 10
163.9430989684
 20
145.2714031561
 30
0.0
 11
163.9430989684
 21
143.7714061561
 31
0.0
  0
LINE
  5
25F
330
211
100
AcDbEntity
  8
1
  6
Continuous
 62
     4
100
AcDbLine
 10
162.4431019684
 20
143.7714061561
 30
0.0
 11
163.9430989684
 21
143.7714061561
 31
0.0
  0
LWPOLYLINE
  5
260
330
211
100
AcDbEntity
  8
1
  6
Continuous
 62
     4
100
AcDbPolyline
 90
       18
 70
     0
 43
0.0
 10
163.9430989684
 20
143.7714061561
 10
162.4431019684
 20
143.7714061561
 10
162.4513191089
 20
143.9281985374
 10
162.4758805017
 20
144.0832730686
 10
162.5165170471
 20
144.2349307206
 10
162.5727835226
 20
144.3815099005
 10
162.6440634608
 20
144.5214046561
 10
162.7295759038999
 20
144.6530822712
 10
162.8283839596
 20
144.7751000582
 10
162.9394050663
 20
144.8861211649
 10
163.0614228533
 20
144.9849292206
 10
163.1931004684
 20
145.0704416637
 10
163.332995224
 20
145.1417216019
 10
163.4795744039
 20
145.1979880774
 10
163.6312320559
 20
145.2386246228
 10
163.7863065871
 20
145.2631860155999
 10
163.9430989684
 20
145.2714031561
 10
163.9430989684
 20
143.7714061561
  0
HATCH
  5
261
330
211
100
AcDbEntity
  8
1
  6
Continuous
 62
     4
100
AcDbHatch
 10
0.0
 20
0.0
 30
0.0
210
0.0
220
0.0
230
1.0
  2
SOLID
 70
     1
 71
     1
 91
        1
 92
        1
 93
       17
 72
     1
 10
163.9430989684
 20
143.7714061561
 11
162.4431019684
 21
143.7714061561
 72
     1
 10
162.4431019684
 20
143.7714061561
 11
162.4513191089
 21
143.9281985374
 72
     1
 10
162.4513191089
 20
143.9281985374
 11
162.4758805017
 21
144.0832730686
 72
     1
 10
162.4758805017
 20
144.0832730686
 11
162.5165170471
 21
144.2349307206
 72
     1
 10
162.5165170471
 20
144.2349307206
 11
162.5727835226
 21
144.3815099005
 72
     1
 10
162.5727835226
 20
144.3815099005
 11
162.6440634608
 21
144.5214046561
 72
     1
 10
162.6440634608
 20
144.5214046561
 11
162.7295759038999
 21
144.6530822712
 72
     1
 10
162.7295759038999
 20
144.6530822712
 11
162.8283839596
 21
144.7751000582
 72
     1
 10
162.8283839596
 20
144.7751000582
 11
162.9394050663
 21
144.8861211649
 72
     1
 10
162.9394050663
 20
144.8861211649
 11
163.0614228533
 21
144.9849292206
 72
     1
 10
163.0614228533
 20
144.9849292206
 11
163.1931004684
 21
145.0704416637
 72
     1
 10
163.1931004684
 20
145.0704416637
 11
163.332995224
 21
145.1417216019
 72
     1
 10
163.332995224
 20
145.1417216019
 11
163.4795744039
 21
145.1979880774
 72
     1
 10
163.4795744039
 20
145.1979880774
 11
163.6312320559
 21
145.2386246228
 72
     1
 10
163.6312320559
 20
145.2386246228
 11
163.7863065871
 21
145.2631860155999
 72
     1
 10
163.7863065871
 20
145.2631860155999
 11
163.9430989684
 21
145.2714031561
 72
     1
 10
163.9430989684
 20
145.2714031561
 11
163.9430989684
 21
143.7714061561
 97
        1
330
260
 75
     0
 76
     1
 98
        1
 10
0.0
 20
0.0
  0
LWPOLYLINE
  5
262
330
211
100
AcDbEntity
  8
1
  6
Continuous
 62
     4
100
AcDbPolyline
 90
       18
 70
     0
 43
0.0
 10
163.9430989684
 20
143.7714061561
 10
165.4430959684
 20
143.7714061561
 10
165.4348788279
 20
143.6146137748
 10
165.4103174351
 20
143.4595392436
 10
165.3696808897
 20
143.3078815916
 10
165.3134144142
 20
143.1613024117
 10
165.242134476
 20
143.0214076561
 10
165.1566220329
 20
142.889730041
 10
165.0578139772
 20
142.767712254
 10
164.9467928705
 20
142.6566911473
 10
164.8247750835
 20
142.5578830916
 10
164.6930974684
 20
142.4723706485
 10
164.5532027128
 20
142.4010907103
 10
164.4066235329
 20
142.3448242348
 10
164.2549658809
 20
142.3041876894
 10
164.0998913497
 20
142.2796262966
 10
163.9430989684
 20
142.2714091561
 10
163.9430989684
 20
143.7714061561
  0
HATCH
  5
263
330
211
100
AcDbEntity
  8
1
  6
Continuous
 62
     4
100
AcDbHatch
 10
0.0
 20
0.0
 30
0.0
210
0.0
220
0.0
230
1.0
  2
SOLID
 70
     1
 71
     1
 91
        1
 92
        1
 93
       17
 72
     1
 10
163.9430989684
 20
143.7714061561
 11
165.4430959684
 21
143.7714061561
 72
     1
 10
165.4430959684
 20
143.7714061561
 11
165.4348788279
 21
143.6146137748
 72
     1
 10
165.4348788279
 20
143.6146137748
 11
165.4103174351
 21
143.4595392436
 72
     1
 10
165.4103174351
 20
143.4595392436
 11
165.3696808897
 21
143.3078815916
 72
     1
 10
165.3696808897
 20
143.3078815916
 11
165.3134144142
 21
143.1613024117
 72
     1
 10
165.3134144142
 20
143.1613024117
 11
165.242134476
 21
143.0214076561
 72
     1
 10
165.242134476
 20
143.0214076561
 11
165.1566220329
 21
142.889730041
 72
     1
 10
165.1566220329
 20
142.889730041
 11
165.0578139772
 21
142.767712254
 72
     1
 10
165.0578139772
 20
142.767712254
 11
164.9467928705
 21
142.6566911473
 72
     1
 10
164.9467928705
 20
142.6566911473
 11
164.8247750835
 21
142.5578830916
 72
     1
 10
164.8247750835
 20
142.5578830916
 11
164.6930974684
 21
142.4723706485
 72
     1
 10
164.6930974684
 20
142.4723706485
 11
164.5532027128
 21
142.4010907103
 72
     1
 10
164.5532027128
 20
142.4010907103
 11
164.4066235329
 21
142.3448242348
 72
     1
 10
164.4066235329
 20
142.3448242348
 11
164.2549658809
 21
142.3041876894
 72
     1
 10
164.2549658809
 20
142.3041876894
 11
164.0998913497
 21
142.2796262966
 72
     1
 10
164.0998913497
 20
142.2796262966
 11
163.9430989684
 21
142.2714091561
 72
     1
 10
163.9430989684
 20
142.2714091561
 11
163.9430989684
 21
143.7714061561
 97
        1
330
262
 75
     0
 76
     1
 98
        1
 10
0.0
 20
0.0
  0
LINE
  5
264
330
211
100
AcDbEntity
  8
1
  6
Continuous
 62
     4
100
AcDbLine
 10
163.9430989684
 20
142.2714091561
 30
0.0
 11
163.9430989684
 21
143.7714061561
 31
0.0
  0
ARC
  5
265
330
211
100
AcDbEntity
  8
1
  6
Continuous
 62
     4
100
AcDbCircle
 10
163.9430989684
 20
143.7714061561
 30
0.0
 40
1.499997
100
AcDbArc
 50
270.0
 51
360.0
  0
LINE
  5
266
330
211
100
AcDbEntity
  8
1
  6
Continuous
 62
     4
100
AcDbLine
 10
165.4430959684
 20
143.7714061561
 30
0.0
 11
163.9430989684
 21
143.7714061561
 31
0.0
  0
ENDBLK
  5
267
330
211
100
AcDbEntity
  8
0
  6
ByBlock
 62
     0
100
AcDbBlockEnd
  0
BLOCK
  5
268
330
212
100
AcDbEntity
  8
1
  6
Continuous
 62
     3
100
AcDbBlockBegin
  2
EINFUEGEPUNKT_BL1
 70
     0
 10
205.9430989684
 20
143.7714061561
 30
0.0
  3
EINFUEGEPUNKT_BL1
  1

  0
LINE
  5
269
330
212
100
AcDbEntity
  8
1
  6
Continuous
 62
     4
100
AcDbLine
 10
205.9430989684
 20
143.7714061561
 30
0.0
 11
205.9430989684
 21
143.2714071561
 31
0.0
  0
ARC
  5
26A
330
212
100
AcDbEntity
  8
1
  6
Continuous
 62
     4
100
AcDbCircle
 10
205.9430989684
 20
143.7714061561
 30
0.0
 40
0.4999990000000001
100
AcDbArc
 50
90.0
 51
180.0
  0
LINE
  5
26B
330
212
100
AcDbEntity
  8
1
  6
Continuous
 62
     4
100
AcDbLine
 10
205.9430989684
 20
143.7714061561
 30
0.0
 11
205.4430999684
 21
143.7714061561
 31
0.0
  0
ARC
  5
26C
330
212
100
AcDbEntity
  8
1
  6
Continuous
 62
     4
100
AcDbCircle
 10
205.9430989684
 20
143.7714061561
 30
0.0
 40
0.4999990000000001
100
AcDbArc
 50
180.0
 51
270.0
  0
ARC
  5
26D
330
212
100
AcDbEntity
  8
1
  6
Continuous
 62
     4
100
AcDbCircle
 10
205.9430989684
 20
143.7714061561
 30
0.0
 40
0.4999990000000001
100
AcDbArc
 50
270.0
 51
360.0
  0
ARC
  5
26E
330
212
100
AcDbEntity
  8
1
  6
Continuous
 62
     4
100
AcDbCircle
 10
205.9430989684
 20
143.7714061561
 30
0.0
 40
0.4999990000000001
100
AcDbArc
 50
0.0
 51
90.0
  0
LINE
  5
26F
330
212
100
AcDbEntity
  8
1
  6
Continuous
 62
     4
100
AcDbLine
 10
206.4430979684
 20
143.7714061561
 30
0.0
 11
205.9430989684
 21
143.7714061561
 31
0.0
  0
LINE
  5
270
330
212
100
AcDbEntity
  8
1
  6
Continuous
 62
     4
100
AcDbLine
 10
205.9430989684
 20
144.2714051561
 30
0.0
 11
205.9430989684
 21
143.7714061561
 31
0.0
  0
LWPOLYLINE
  5
271
330
212
100
AcDbEntity
  8
1
  6
Continuous
 62
     4
100
AcDbPolyline
 90
       18
 70
     0
 43
0.0
 10
205.9430989684
 20
143.7714061561
 10
205.9430989684
 20
144.2714051561
 10
205.9953630955
 20
144.2686661093
 10
206.0470546059
 20
144.2604789783
 10
206.0976071566
 20
144.2469334632
 10
206.1464668832
 20
144.2281779714
 10
206.1930984684
 20
144.204417992
 10
206.2369910068
 20
144.1759138443
 10
206.2776636024
 20
144.1429778257
 10
206.314670638
 20
144.1059707901
 10
206.3476066566
 20
144.0652981945
 10
206.3761108043
 20
144.0214056561
 10
206.3998707837
 20
143.9747740709
 10
206.4186262755
 20
143.9259143443
 10
206.4321717906
 20
143.8753617936
 10
206.4403589216
 20
143.8236702832
 10
206.4430979684
 20
143.7714061561
 10
205.9430989684
 20
143.7714061561
  0
HATCH
  5
272
330
212
100
AcDbEntity
  8
1
  6
Continuous
 62
     4
100
AcDbHatch
 10
0.0
 20
0.0
 30
0.0
210
0.0
220
0.0
230
1.0
  2
SOLID
 70
     1
 71
     1
 91
        1
 92
        1
 93
       17
 72
     1
 10
205.9430989684
 20
143.7714061561
 11
205.9430989684
 21
144.2714051561
 72
     1
 10
205.9430989684
 20
144.2714051561
 11
205.9953630955
 21
144.2686661093
 72
     1
 10
205.9953630955
 20
144.2686661093
 11
206.0470546059
 21
144.2604789783
 72
     1
 10
206.0470546059
 20
144.2604789783
 11
206.0976071566
 21
144.2469334632
 72
     1
 10
206.0976071566
 20
144.2469334632
 11
206.1464668832
 21
144.2281779714
 72
     1
 10
206.1464668832
 20
144.2281779714
 11
206.1930984684
 21
144.204417992
 72
     1
 10
206.1930984684
 20
144.204417992
 11
206.2369910068
 21
144.1759138443
 72
     1
 10
206.2369910068
 20
144.1759138443
 11
206.2776636024
 21
144.1429778257
 72
     1
 10
206.2776636024
 20
144.1429778257
 11
206.314670638
 21
144.1059707901
 72
     1
 10
206.314670638
 20
144.1059707901
 11
206.3476066566
 21
144.0652981945
 72
     1
 10
206.3476066566
 20
144.0652981945
 11
206.3761108043
 21
144.0214056561
 72
     1
 10
206.3761108043
 20
144.0214056561
 11
206.3998707837
 21
143.9747740709
 72
     1
 10
206.3998707837
 20
143.9747740709
 11
206.4186262755
 21
143.9259143443
 72
     1
 10
206.4186262755
 20
143.9259143443
 11
206.4321717906
 21
143.8753617936
 72
     1
 10
206.4321717906
 20
143.8753617936
 11
206.4403589216
 21
143.8236702832
 72
     1
 10
206.4403589216
 20
143.8236702832
 11
206.4430979684
 21
143.7714061561
 72
     1
 10
206.4430979684
 20
143.7714061561
 11
205.9430989684
 21
143.7714061561
 97
        1
330
271
 75
     0
 76
     1
 98
        1
 10
0.0
 20
0.0
  0
LWPOLYLINE
  5
273
330
212
100
AcDbEntity
  8
1
  6
Continuous
 62
     4
100
AcDbPolyline
 90
       18
 70
     0
 43
0.0
 10
205.9430989684
 20
143.7714061561
 10
205.9430989684
 20
143.2714071561
 10
205.8908348413
 20
143.2741462029
 10
205.8391433309
 20
143.2823333339
 10
205.7885907802
 20
143.295878849
 10
205.7397310536
 20
143.3146343408
 10
205.6930994684
 20
143.3383943202
 10
205.64920693
 20
143.3668984679
 10
205.6085343344
 20
143.3998344865
 10
205.5715272988
 20
143.4368415221
 10
205.5385912802
 20
143.4775141177
 10
205.5100871325
 20
143.5214066561
 10
205.4863271531
 20
143.5680382413
 10
205.4675716613
 20
143.6168979679
 10
205.4540261462
 20
143.6674505186
 10
205.4458390152
 20
143.719142029
 10
205.4430999684
 20
143.7714061561
 10
205.9430989684
 20
143.7714061561
  0
HATCH
  5
274
330
212
100
AcDbEntity
  8
1
  6
Continuous
 62
     4
100
AcDbHatch
 10
0.0
 20
0.0
 30
0.0
210
0.0
220
0.0
230
1.0
  2
SOLID
 70
     1
 71
     1
 91
        1
 92
        1
 93
       17
 72
     1
 10
205.9430989684
 20
143.7714061561
 11
205.9430989684
 21
143.2714071561
 72
     1
 10
205.9430989684
 20
143.2714071561
 11
205.8908348413
 21
143.2741462029
 72
     1
 10
205.8908348413
 20
143.2741462029
 11
205.8391433309
 21
143.2823333339
 72
     1
 10
205.8391433309
 20
143.2823333339
 11
205.7885907802
 21
143.295878849
 72
     1
 10
205.7885907802
 20
143.295878849
 11
205.7397310536
 21
143.3146343408
 72
     1
 10
205.7397310536
 20
143.3146343408
 11
205.6930994684
 21
143.3383943202
 72
     1
 10
205.6930994684
 20
143.3383943202
 11
205.64920693
 21
143.3668984679
 72
     1
 10
205.64920693
 20
143.3668984679
 11
205.6085343344
 21
143.3998344865
 72
     1
 10
205.6085343344
 20
143.3998344865
 11
205.5715272988
 21
143.4368415221
 72
     1
 10
205.5715272988
 20
143.4368415221
 11
205.5385912802
 21
143.4775141177
 72
     1
 10
205.5385912802
 20
143.4775141177
 11
205.5100871325
 21
143.5214066561
 72
     1
 10
205.5100871325
 20
143.5214066561
 11
205.4863271531
 21
143.5680382413
 72
     1
 10
205.4863271531
 20
143.5680382413
 11
205.4675716613
 21
143.6168979679
 72
     1
 10
205.4675716613
 20
143.6168979679
 11
205.4540261462
 21
143.6674505186
 72
     1
 10
205.4540261462
 20
143.6674505186
 11
205.4458390152
 21
143.719142029
 72
     1
 10
205.4458390152
 20
143.719142029
 11
205.4430999684
 21
143.7714061561
 72
     1
 10
205.4430999684
 20
143.7714061561
 11
205.9430989684
 21
143.7714061561
 97
        1
330
273
 75
     0
 76
     1
 98
        1
 10
0.0
 20
0.0
  0
LINE
  5
275
330
212
100
AcDbEntity
  8
1
  6
Continuous
 62
     4
100
AcDbLine
 10
205.4430999684
 20
143.7714061561
 30
0.0
 11
205.9430989684
 21
143.7714061561
 31
0.0
  0
ARC
  5
276
330
212
100
AcDbEntity
  8
1
  6
Continuous
 62
     4
100
AcDbCircle
 10
205.9430989684
 20
143.7714061561
 30
0.0
 40
0.4999990000000001
100
AcDbArc
 50
180.0
 51
270.0
  0
LINE
  5
277
330
212
100
AcDbEntity
  8
1
  6
Continuous
 62
     4
100
AcDbLine
 10
205.9430989684
 20
143.2714071561
 30
0.0
 11
205.9430989684
 21
143.7714061561
 31
0.0
  0
ENDBLK
  5
278
330
212
100
AcDbEntity
  8
0
  6
ByBlock
 62
     0
100
AcDbBlockEnd
  0
BLOCK
  5
422
330
418
100
AcDbEntity
  8
0
100
AcDbBlockBegin
  2
*D20
 70
     1
 10
0.0
 20
0.0
 30
0.0
  3
*D20
  1

  0
LINE
  5
484
330
418
100
AcDbEntity
  8
SK2
370
    -2
100
AcDbLine
 10
539.5962626641155
 20
158.133968538504
 30
0.0
 11
518.0960479641155
 21
158.133968538504
 31
0.0
  0
LINE
  5
485
330
418
100
AcDbEntity
  8
SK2
370
    -2
100
AcDbLine
 10
539.5962626641155
 20
380.533968538504
 30
0.0
 11
518.0960479641156
 21
380.533968538504
 31
0.0
  0
LINE
  5
486
330
418
100
AcDbEntity
  8
SK2
370
    -2
100
AcDbLine
 10
520.0960479641155
 20
161.633968538504
 30
0.0
 11
520.0960479641156
 21
377.033968538504
 31
0.0
  0
SOLID
  5
487
330
418
100
AcDbEntity
  8
SK2
100
AcDbTrace
 10
519.5127146307822
 20
161.633968538504
 30
0.0
 11
520.6793812974488
 21
161.633968538504
 31
0.0
 12
520.0960479641155
 22
158.133968538504
 32
0.0
 13
520.0960479641155
 23
158.133968538504
 33
0.0
  0
SOLID
  5
488
330
418
100
AcDbEntity
  8
SK2
100
AcDbTrace
 10
519.5127146307823
 20
377.033968538504
 30
0.0
 11
520.679381297449
 21
377.033968538504
 31
0.0
 12
520.0960479641156
 22
380.533968538504
 32
0.0
 13
520.0960479641156
 23
380.533968538504
 33
0.0
  0
MTEXT
  5
489
330
418
100
AcDbEntity
  8
SK2
100
AcDbMText
 10
517.7210479641155
 20
269.333968538504
 30
0.0
 40
3.5
 41
0.0
 71
     5
 72
     1
  1
%%c222.4
 11
0.0000000000000001
 21
1.0
 31
0.0
 73
     1
 44
1.0
1001
ACAD
1000
MTEXTBEGIN
1070
    73
1070
     1
1070
    44
1040
1.0
1070
    74
1070
     0
1000
MTEXTEND
  0
POINT
  5
48A
330
418
100
AcDbEntity
  8
Defpoints
 62
     0
100
AcDbPoint
 10
540.2212626641155
 20
158.133968538504
 30
0.0
  0
POINT
  5
48B
330
418
100
AcDbEntity
  8
Defpoints
 62
     0
100
AcDbPoint
 10
540.2212626641155
 20
380.533968538504
 30
0.0
  0
POINT
  5
48C
330
418
100
AcDbEntity
  8
Defpoints
 62
     0
100
AcDbPoint
 10
520.0960479641156
 20
380.533968538504
 30
0.0
  0
ENDBLK
  5
423
330
418
100
AcDbEntity
  8
0
100
AcDbBlockEnd
  0
BLOCK
  5
42E
330
424
100
AcDbEntity
  8
0
100
AcDbBlockBegin
  2
*D21
 70
     1
 10
0.0
 20
0.0
 30
0.0
  3
*D21
  1

  0
LINE
  5
48D
330
424
100
AcDbEntity
  8
2
370
    -2
100
AcDbLine
 10
541.2212626641156
 20
382.158968538504
 30
0.0
 11
541.2212626641156
 21
395.158968538504
 31
0.0
  0
LINE
  5
48E
330
424
100
AcDbEntity
  8
2
370
    -2
100
AcDbLine
 10
558.2212626641156
 20
382.158968538504
 30
0.0
 11
558.2212626641156
 21
395.158968538504
 31
0.0
  0
LINE
  5
48F
330
424
100
AcDbEntity
  8
2
370
    -2
100
AcDbLine
 10
544.7212626641155
 20
393.158968538504
 30
0.0
 11
554.7212626641155
 21
393.158968538504
 31
0.0
  0
SOLID
  5
490
330
424
100
AcDbEntity
  8
2
100
AcDbTrace
 10
544.7212626641155
 20
393.7423018718373
 30
0.0
 11
544.7212626641155
 21
392.5756352051707
 31
0.0
 12
541.2212626641156
 22
393.158968538504
 32
0.0
 13
541.2212626641156
 23
393.158968538504
 33
0.0
  0
SOLID
  5
491
330
424
100
AcDbEntity
  8
2
100
AcDbTrace
 10
554.7212626641155
 20
393.7423018718373
 30
0.0
 11
554.7212626641155
 21
392.5756352051707
 31
0.0
 12
558.2212626641156
 22
393.158968538504
 32
0.0
 13
558.2212626641156
 23
393.158968538504
 33
0.0
  0
MTEXT
  5
492
330
424
100
AcDbEntity
  8
2
100
AcDbMText
 10
549.7212626641156
 20
395.533968538504
 30
0.0
 40
3.5
 41
0.0
 71
     5
 72
     1
  1
17
 73
     1
 44
1.0
1001
ACAD
1000
MTEXTBEGIN
1070
    73
1070
     1
1070
    44
1040
1.0
1070
    74
1070
     0
1000
MTEXTEND
  0
POINT
  5
493
330
424
100
AcDbEntity
  8
Defpoints
 62
     0
100
AcDbPoint
 10
541.2212626641156
 20
381.533968538504
 30
0.0
  0
POINT
  5
494
330
424
100
AcDbEntity
  8
Defpoints
 62
     0
100
AcDbPoint
 10
558.2212626641156
 20
381.533968538504
 30
0.0
  0
POINT
  5
495
330
424
100
AcDbEntity
  8
Defpoints
 62
     0
100
AcDbPoint
 10
558.2212626641156
 20
393.158968538504
 30
0.0
  0
ENDBLK
  5
42F
330
424
100
AcDbEntity
  8
0
100
AcDbBlockEnd
  0
BLOCK
  5
43A
330
430
100
AcDbEntity
  8
0
100
AcDbBlockBegin
  2
*D22
 70
     1
 10
0.0
 20
0.0
 30
0.0
  3
*D22
  1

  0
LINE
  5
496
330
430
100
AcDbEntity
  8
SK2
370
    -2
100
AcDbLine
 10
577.3461553141155
 20
167.983968538504
 30
0.0
 11
643.0962626641155
 21
167.983968538504
 31
0.0
  0
LINE
  5
497
330
430
100
AcDbEntity
  8
SK2
370
    -2
100
AcDbLine
 10
577.3461553141155
 20
370.683968538504
 30
0.0
 11
643.0962626641156
 21
370.683968538504
 31
0.0
  0
LINE
  5
498
330
430
100
AcDbEntity
  8
SK2
370
    -2
100
AcDbLine
 10
641.0962626641155
 20
171.483968538504
 30
0.0
 11
641.0962626641157
 21
367.183968538504
 31
0.0
  0
SOLID
  5
499
330
430
100
AcDbEntity
  8
SK2
100
AcDbTrace
 10
640.5129293307822
 20
171.483968538504
 30
0.0
 11
641.6795959974489
 21
171.483968538504
 31
0.0
 12
641.0962626641155
 22
167.983968538504
 32
0.0
 13
641.0962626641155
 23
167.983968538504
 33
0.0
  0
SOLID
  5
49A
330
430
100
AcDbEntity
  8
SK2
100
AcDbTrace
 10
640.5129293307822
 20
367.183968538504
 30
0.0
 11
641.679595997449
 21
367.183968538504
 31
0.0
 12
641.0962626641157
 22
370.683968538504
 32
0.0
 13
641.0962626641157
 23
370.683968538504
 33
0.0
  0
MTEXT
  5
49B
330
430
100
AcDbEntity
  8
SK2
100
AcDbMText
 10
638.7212626641155
 20
269.333968538504
 30
0.0
 40
3.5
 41
0.0
 71
     5
 72
     1
  1
%%c202.7
 11
0.0000000000000001
 21
1.0
 31
0.0
 73
     1
 44
1.0
1001
ACAD
1000
MTEXTBEGIN
1070
    73
1070
     1
1070
    44
1040
1.0
1070
    74
1070
     0
1000
MTEXTEND
  0
POINT
  5
49C
330
430
100
AcDbEntity
  8
Defpoints
 62
     0
100
AcDbPoint
 10
576.7211553141155
 20
167.983968538504
 30
0.0
  0
POINT
  5
49D
330
430
100
AcDbEntity
  8
Defpoints
 62
     0
100
AcDbPoint
 10
576.7211553141155
 20
370.683968538504
 30
0.0
  0
POINT
  5
49E
330
430
100
AcDbEntity
  8
Defpoints
 62
     0
100
AcDbPoint
 10
641.0962626641157
 20
370.683968538504
 30
0.0
  0
ENDBLK
  5
43B
330
430
100
AcDbEntity
  8
0
100
AcDbBlockEnd
  0
BLOCK
  5
446
330
43C
100
AcDbEntity
  8
0
100
AcDbBlockBegin
  2
*D23
 70
     1
 10
0.0
 20
0.0
 30
0.0
  3
*D23
  1

  0
LINE
  5
49F
330
43C
100
AcDbEntity
  8
SK2
370
    -2
100
AcDbLine
 10
602.3461553141155
 20
187.733968538504
 30
0.0
 11
634.5962626641155
 21
187.733968538504
 31
0.0
  0
LINE
  5
4A0
330
43C
100
AcDbEntity
  8
SK2
370
    -2
100
AcDbLine
 10
602.3461553141155
 20
350.933968538504
 30
0.0
 11
634.5962626641156
 21
350.933968538504
 31
0.0
  0
LINE
  5
4A1
330
43C
100
AcDbEntity
  8
SK2
370
    -2
100
AcDbLine
 10
632.5962626641155
 20
191.233968538504
 30
0.0
 11
632.5962626641157
 21
347.433968538504
 31
0.0
  0
SOLID
  5
4A2
330
43C
100
AcDbEntity
  8
SK2
100
AcDbTrace
 10
632.0129293307822
 20
191.233968538504
 30
0.0
 11
633.1795959974489
 21
191.233968538504
 31
0.0
 12
632.5962626641155
 22
187.733968538504
 32
0.0
 13
632.5962626641155
 23
187.733968538504
 33
0.0
  0
SOLID
  5
4A3
330
43C
100
AcDbEntity
  8
SK2
100
AcDbTrace
 10
632.0129293307823
 20
347.433968538504
 30
0.0
 11
633.179595997449
 21
347.433968538504
 31
0.0
 12
632.5962626641157
 22
350.933968538504
 32
0.0
 13
632.5962626641157
 23
350.933968538504
 33
0.0
  0
MTEXT
  5
4A4
330
43C
100
AcDbEntity
  8
SK2
100
AcDbMText
 10
630.2212626641155
 20
269.333968538504
 30
0.0
 40
3.5
 41
0.0
 71
     5
 72
     1
  1
%%c163.2
 11
0.0000000000000001
 21
1.0
 31
0.0
 73
     1
 44
1.0
1001
ACAD
1000
MTEXTBEGIN
1070
    73
1070
     1
1070
    44
1040
1.0
1070
    74
1070
     0
1000
MTEXTEND
  0
POINT
  5
4A5
330
43C
100
AcDbEntity
  8
Defpoints
 62
     0
100
AcDbPoint
 10
601.7211553141155
 20
187.733968538504
 30
0.0
  0
POINT
  5
4A6
330
43C
100
AcDbEntity
  8
Defpoints
 62
     0
100
AcDbPoint
 10
601.7211553141155
 20
350.933968538504
 30
0.0
  0
POINT
  5
4A7
330
43C
100
AcDbEntity
  8
Defpoints
 62
     0
100
AcDbPoint
 10
632.5962626641157
 20
350.933968538504
 30
0.0
  0
ENDBLK
  5
447
330
43C
100
AcDbEntity
  8
0
100
AcDbBlockEnd
  0
BLOCK
  5
452
330
448
100
AcDbEntity
  8
0
100
AcDbBlockBegin
  2
*D24
 70
     1
 10
0.0
 20
0.0
 30
0.0
  3
*D24
  1

  0
LINE
  5
4A8
330
448
100
AcDbEntity
  8
SK2
370
    -2
100
AcDbLine
 10
541.2212626641156
 20
382.158968538504
 30
0.0
 11
541.2212626641156
 21
403.6589685385039
 31
0.0
  0
LINE
  5
4A9
330
448
100
AcDbEntity
  8
SK2
370
    -2
100
AcDbLine
 10
576.3212626641156
 20
372.308968538504
 30
0.0
 11
576.3212626641156
 21
403.6589685385039
 31
0.0
  0
LINE
  5
4AA
330
448
100
AcDbEntity
  8
SK2
370
    -2
100
AcDbLine
 10
544.7212626641155
 20
401.658968538504
 30
0.0
 11
572.8212626641155
 21
401.658968538504
 31
0.0
  0
SOLID
  5
4AB
330
448
100
AcDbEntity
  8
SK2
100
AcDbTrace
 10
544.7212626641155
 20
402.2423018718373
 30
0.0
 11
544.7212626641155
 21
401.0756352051706
 31
0.0
 12
541.2212626641156
 22
401.658968538504
 32
0.0
 13
541.2212626641156
 23
401.658968538504
 33
0.0
  0
SOLID
  5
4AC
330
448
100
AcDbEntity
  8
SK2
100
AcDbTrace
 10
572.8212626641155
 20
402.2423018718373
 30
0.0
 11
572.8212626641155
 21
401.0756352051706
 31
0.0
 12
576.3212626641156
 22
401.658968538504
 32
0.0
 13
576.3212626641156
 23
401.658968538504
 33
0.0
  0
MTEXT
  5
4AD
330
448
100
AcDbEntity
  8
SK2
100
AcDbMText
 10
558.7712626641155
 20
404.0339685385039
 30
0.0
 40
3.5
 41
0.0
 71
     5
 72
     1
  1
35.1
 73
     1
 44
1.0
1001
ACAD
1000
MTEXTBEGIN
1070
    73
1070
     1
1070
    44
1040
1.0
1070
    74
1070
     0
1000
MTEXTEND
  0
POINT
  5
4AE
330
448
100
AcDbEntity
  8
Defpoints
 62
     0
100
AcDbPoint
 10
541.2212626641156
 20
381.533968538504
 30
0.0
  0
POINT
  5
4AF
330
448
100
AcDbEntity
  8
Defpoints
 62
     0
100
AcDbPoint
 10
576.3212626641156
 20
371.683968538504
 30
0.0
  0
POINT
  5
4B0
330
448
100
AcDbEntity
  8
Defpoints
 62
     0
100
AcDbPoint
 10
576.3212626641156
 20
401.658968538504
 30
0.0
  0
ENDBLK
  5
453
330
448
100
AcDbEntity
  8
0
100
AcDbBlockEnd
  0
BLOCK
  5
45E
330
454
100
AcDbEntity
  8
0
100
AcDbBlockBegin
  2
*D25
 70
     1
 10
0.0
 20
0.0
 30
0.0
  3
*D25
  1

  0
LINE
  5
4B1
330
454
100
AcDbEntity
  8
SK2
370
    -2
100
AcDbLine
 10
601.2212626641155
 20
352.458968538504
 30
0.0
 11
601.2212626641155
 21
412.1589685385039
 31
0.0
  0
LINE
  5
4B2
330
454
100
AcDbEntity
  8
SK2
370
    -2
100
AcDbLine
 10
541.2212626641156
 20
382.458968538504
 30
0.0
 11
541.2212626641156
 21
412.1589685385039
 31
0.0
  0
LINE
  5
4B3
330
454
100
AcDbEntity
  8
SK2
370
    -2
100
AcDbLine
 10
597.7212626641155
 20
410.1589685385039
 30
0.0
 11
544.7212626641155
 21
410.1589685385039
 31
0.0
  0
SOLID
  5
4B4
330
454
100
AcDbEntity
  8
SK2
100
AcDbTrace
 10
597.7212626641155
 20
410.7423018718373
 30
0.0
 11
597.7212626641155
 21
409.5756352051706
 31
0.0
 12
601.2212626641155
 22
410.1589685385039
 32
0.0
 13
601.2212626641155
 23
410.1589685385039
 33
0.0
  0
SOLID
  5
4B5
330
454
100
AcDbEntity
  8
SK2
100
AcDbTrace
 10
544.7212626641155
 20
410.7423018718373
 30
0.0
 11
544.7212626641155
 21
409.5756352051706
 31
0.0
 12
541.2212626641156
 22
410.1589685385039
 32
0.0
 13
541.2212626641156
 23
410.1589685385039
 33
0.0
  0
MTEXT
  5
4B6
330
454
100
AcDbEntity
  8
SK2
100
AcDbMText
 10
571.2212626641155
 20
412.5339685385039
 30
0.0
 40
3.5
 41
0.0
 71
     5
 72
     1
  1
60
 73
     1
 44
1.0
1001
ACAD
1000
MTEXTBEGIN
1070
    73
1070
     1
1070
    44
1040
1.0
1070
    74
1070
     0
1000
MTEXTEND
  0
POINT
  5
4B7
330
454
100
AcDbEntity
  8
Defpoints
 62
     0
100
AcDbPoint
 10
601.2212626641155
 20
351.833968538504
 30
0.0
  0
POINT
  5
4B8
330
454
100
AcDbEntity
  8
Defpoints
 62
     0
100
AcDbPoint
 10
541.2212626641156
 20
381.833968538504
 30
0.0
  0
POINT
  5
4B9
330
454
100
AcDbEntity
  8
Defpoints
 62
     0
100
AcDbPoint
 10
541.2212626641156
 20
410.1589685385039
 30
0.0
  0
ENDBLK
  5
45F
330
454
100
AcDbEntity
  8
0
100
AcDbBlockEnd
  0
BLOCK
  5
46A
330
460
100
AcDbEntity
  8
0
100
AcDbBlockBegin
  2
*D26
 70
     1
 10
0.0
 20
0.0
 30
0.0
  3
*D26
  1

  0
LINE
  5
4BA
330
460
100
AcDbEntity
  8
SK2
370
    -2
100
AcDbLine
 10
602.8462626641156
 20
244.333968538504
 30
0.0
 11
617.5962626641156
 21
244.333968538504
 31
0.0
  0
LINE
  5
4BB
330
460
100
AcDbEntity
  8
SK2
370
    -2
100
AcDbLine
 10
602.8462626641156
 20
294.333968538504
 30
0.0
 11
617.5962626641156
 21
294.333968538504
 31
0.0
  0
LINE
  5
4BC
330
460
100
AcDbEntity
  8
SK2
370
    -2
100
AcDbLine
 10
615.5962626641155
 20
247.833968538504
 30
0.0
 11
615.5962626641156
 21
290.833968538504
 31
0.0
  0
SOLID
  5
4BD
330
460
100
AcDbEntity
  8
SK2
100
AcDbTrace
 10
615.0129293307822
 20
247.833968538504
 30
0.0
 11
616.1795959974489
 21
247.833968538504
 31
0.0
 12
615.5962626641155
 22
244.333968538504
 32
0.0
 13
615.5962626641155
 23
244.333968538504
 33
0.0
  0
SOLID
  5
4BE
330
460
100
AcDbEntity
  8
SK2
100
AcDbTrace
 10
615.0129293307823
 20
290.833968538504
 30
0.0
 11
616.179595997449
 21
290.833968538504
 31
0.0
 12
615.5962626641156
 22
294.333968538504
 32
0.0
 13
615.5962626641156
 23
294.333968538504
 33
0.0
  0
MTEXT
  5
4BF
330
460
100
AcDbEntity
  8
SK2
100
AcDbMText
 10
613.2212626641155
 20
269.333968538504
 30
0.0
 40
3.5
 41
0.0
 71
     5
 72
     1
  1
%%c50
 11
0.0000000000000001
 21
1.0
 31
0.0
 73
     1
 44
1.0
1001
ACAD
1000
MTEXTBEGIN
1070
    73
1070
     1
1070
    44
1040
1.0
1070
    74
1070
     0
1000
MTEXTEND
  0
POINT
  5
4C0
330
460
100
AcDbEntity
  8
Defpoints
 62
     0
100
AcDbPoint
 10
602.2212626641155
 20
244.333968538504
 30
0.0
  0
POINT
  5
4C1
330
460
100
AcDbEntity
  8
Defpoints
 62
     0
100
AcDbPoint
 10
602.2212626641155
 20
294.333968538504
 30
0.0
  0
POINT
  5
4C2
330
460
100
AcDbEntity
  8
Defpoints
 62
     0
100
AcDbPoint
 10
615.5962626641156
 20
294.333968538504
 30
0.0
  0
ENDBLK
  5
46B
330
460
100
AcDbEntity
  8
0
100
AcDbBlockEnd
  0
BLOCK
  5
476
330
46C
100
AcDbEntity
  8
0
100
AcDbBlockBegin
  2
*D27
 70
     1
 10
0.0
 20
0.0
 30
0.0
  3
*D27
  1

  0
LINE
  5
4C3
330
46C
100
AcDbEntity
  8
SK2
370
    -2
100
AcDbLine
 10
539.5962626641155
 20
239.333968538504
 30
0.0
 11
526.5960479641155
 21
239.333968538504
 31
0.0
  0
LINE
  5
4C4
330
46C
100
AcDbEntity
  8
SK2
370
    -2
100
AcDbLine
 10
539.5962626641155
 20
299.333968538504
 30
0.0
 11
526.5960479641156
 21
299.333968538504
 31
0.0
  0
LINE
  5
4C5
330
46C
100
AcDbEntity
  8
SK2
370
    -2
100
AcDbLine
 10
528.5960479641155
 20
242.833968538504
 30
0.0
 11
528.5960479641156
 21
295.833968538504
 31
0.0
  0
SOLID
  5
4C6
330
46C
100
AcDbEntity
  8
SK2
100
AcDbTrace
 10
528.0127146307822
 20
242.833968538504
 30
0.0
 11
529.1793812974488
 21
242.833968538504
 31
0.0
 12
528.5960479641155
 22
239.333968538504
 32
0.0
 13
528.5960479641155
 23
239.333968538504
 33
0.0
  0
SOLID
  5
4C7
330
46C
100
AcDbEntity
  8
SK2
100
AcDbTrace
 10
528.0127146307822
 20
295.833968538504
 30
0.0
 11
529.179381297449
 21
295.833968538504
 31
0.0
 12
528.5960479641156
 22
299.333968538504
 32
0.0
 13
528.5960479641156
 23
299.333968538504
 33
0.0
  0
MTEXT
  5
4C8
330
46C
100
AcDbEntity
  8
SK2
100
AcDbMText
 10
526.2210479641155
 20
269.333968538504
 30
0.0
 40
3.5
 41
0.0
 71
     5
 72
     1
  1
%%c60
 11
0.0000000000000001
 21
1.0
 31
0.0
 73
     1
 44
1.0
1001
ACAD
1000
MTEXTBEGIN
1070
    73
1070
     1
1070
    44
1040
1.0
1070
    74
1070
     0
1000
MTEXTEND
  0
POINT
  5
4C9
330
46C
100
AcDbEntity
  8
Defpoints
 62
     0
100
AcDbPoint
 10
540.2212626641155
 20
239.333968538504
 30
0.0
  0
POINT
  5
4CA
330
46C
100
AcDbEntity
  8
Defpoints
 62
     0
100
AcDbPoint
 10
540.2212626641155
 20
299.333968538504
 30
0.0
  0
POINT
  5
4CB
330
46C
100
AcDbEntity
  8
Defpoints
 62
     0
100
AcDbPoint
 10
528.5960479641156
 20
299.333968538504
 30
0.0
  0
ENDBLK
  5
477
330
46C
100
AcDbEntity
  8
0
100
AcDbBlockEnd
  0
BLOCK
  5
482
330
478
100
AcDbEntity
  8
0
100
AcDbBlockBegin
  2
*D28
 70
     1
 10
0.0
 20
0.0
 30
0.0
  3
*D28
  1

  0
LINE
  5
4CC
330
478
100
AcDbEntity
  8
SK2
370
    -2
100
AcDbLine
 10
605.3462626641155
 20
233.412944054204
 30
0.0
 11
626.0961553141155
 21
233.412944054204
 31
0.0
  0
LINE
  5
4CD
330
478
100
AcDbEntity
  8
SK2
370
    -2
100
AcDbLine
 10
605.3462626641155
 20
305.254993022804
 30
0.0
 11
626.0961553141156
 21
305.254993022804
 31
0.0
  0
LINE
  5
4CE
330
478
100
AcDbEntity
  8
SK2
370
    -2
100
AcDbLine
 10
624.0961553141155
 20
236.912944054204
 30
0.0
 11
624.0961553141156
 21
301.754993022804
 31
0.0
  0
SOLID
  5
4CF
330
478
100
AcDbEntity
  8
SK2
100
AcDbTrace
 10
623.5128219807822
 20
236.912944054204
 30
0.0
 11
624.6794886474489
 21
236.912944054204
 31
0.0
 12
624.0961553141155
 22
233.412944054204
 32
0.0
 13
624.0961553141155
 23
233.412944054204
 33
0.0
  0
SOLID
  5
4D0
330
478
100
AcDbEntity
  8
SK2
100
AcDbTrace
 10
623.5128219807823
 20
301.754993022804
 30
0.0
 11
624.679488647449
 21
301.754993022804
 31
0.0
 12
624.0961553141156
 22
305.254993022804
 32
0.0
 13
624.0961553141156
 23
305.254993022804
 33
0.0
  0
MTEXT
  5
4D1
330
478
100
AcDbEntity
  8
SK2
100
AcDbMText
 10
621.7211553141155
 20
269.333968538504
 30
0.0
 40
3.5
 41
0.0
 71
     5
 72
     1
  1
Lk-%%c101.6
 11
0.0000000000000001
 21
1.0
 31
0.0
 73
     1
 44
1.0
1001
ACAD
1000
MTEXTBEGIN
1070
    73
1070
     1
1070
    44
1040
1.0
1070
    74
1070
     0
1000
MTEXTEND
  0
POINT
  5
4D2
330
478
100
AcDbEntity
  8
Defpoints
 62
     0
100
AcDbPoint
 10
604.7212626641155
 20
233.412944054204
 30
0.0
  0
POINT
  5
4D3
330
478
100
AcDbEntity
  8
Defpoints
 62
     0
100
AcDbPoint
 10
604.7212626641155
 20
305.254993022804
 30
0.0
  0
POINT
  5
4D4
330
478
100
AcDbEntity
  8
Defpoints
 62
     0
100
AcDbPoint
 10
624.0961553141156
 20
305.254993022804
 30
0.0
  0
ENDBLK
  5
483
330
478
100
AcDbEntity
  8
0
100
AcDbBlockEnd
  0
ENDSEC
  0
SECTION
  2
ENTITIES
  0
DIMENSION
  5
27C
330
1B
100
AcDbEntity
  8
SK2
100
AcDbDimension
  2
*D1
 10
-21.12499999999997
 20
122.5
 30
0.0
 11
-21.125
 21
0.0
 31
0.0
 70
   160
  1
%%c245
 71
     5
 42
245.0
  3
ISO-25
100
AcDbAlignedDimension
 13
-1.0
 23
-122.5
 33
0.0
 14
-1.0
 24
122.5
 34
0.0
 50
90.0
100
AcDbRotatedDimension
  0
DIMENSION
  5
27D
330
1B
100
AcDbEntity
  8
2
100
AcDbDimension
  2
*D2
 10
42.0
 20
135.125
 30
0.0
 11
21.0
 21
135.125
 31
0.0
 70
   160
  1
42
 71
     5
 42
42.0
  3
ISO-25
100
AcDbAlignedDimension
 13
0.0
 23
123.5
 33
0.0
 14
42.0
 24
123.5
 34
0.0
100
AcDbRotatedDimension
  0
DIMENSION
  5
27E
330
1B
100
AcDbEntity
  8
SK2
100
AcDbDimension
  2
*D3
 10
94.37519160930001
 20
50.0
 30
0.0
 11
94.37519160929999
 21
0.0
 31
0.0
 70
   160
  1
%%c100
 71
     5
 42
100.0
  3
ISO-25
100
AcDbAlignedDimension
 13
71.0
 23
-50.0
 33
0.0
 14
71.0
 24
50.0
 34
0.0
 50
90.0
100
AcDbRotatedDimension
  0
DIMENSION
  5
27F
330
1B
100
AcDbEntity
  8
SK2
100
AcDbDimension
  2
*D4
 10
0.0000000000000012
 20
143.625
 30
0.0
 11
35.0
 21
143.625
 31
0.0
 70
   160
  1
70
 71
     5
 42
70.0
  3
ISO-25
100
AcDbAlignedDimension
 13
70.0
 23
51.2285938439
 33
0.0
 14
0.0
 24
123.2285938439
 34
0.0
 50
180.0
100
AcDbRotatedDimension
  0
DIMENSION
  5
280
330
1B
100
AcDbEntity
  8
SK2
100
AcDbDimension
  2
*D5
 10
77.3751916093
 20
31.5
 30
0.0
 11
77.3751916093
 21
0.000000000100016
 31
0.0
 70
   160
  1
%%c63
 71
     5
 42
63.0
  3
ISO-25
100
AcDbAlignedDimension
 13
71.0
 23
-31.5
 33
0.0
 14
71.0
 24
31.5
 34
0.0
 50
90.0
100
AcDbRotatedDimension
  0
DIMENSION
  5
281
330
1B
100
AcDbEntity
  8
SK2
100
AcDbDimension
  2
*D6
 10
-12.62499999999999
 20
30.0
 30
0.0
 11
-12.625
 21
0.000000000100016
 31
0.0
 70
   160
  1
%%c60
 71
     5
 42
60.0
  3
ISO-25
100
AcDbAlignedDimension
 13
-1.0
 23
-30.0
 33
0.0
 14
-1.0
 24
30.0
 34
0.0
 50
90.0
100
AcDbRotatedDimension
  0
DIMENSION
  5
282
330
1B
100
AcDbEntity
  8
SK2
100
AcDbDimension
  2
*D7
 10
85.87519160930002
 20
35.9210244843
 30
0.0
 11
85.8751916093
 21
0.0
 31
0.0
 70
   160
  1
Lk-%%c101.6
 71
     5
 42
71.84204896849999
  3
ISO-25
100
AcDbAlignedDimension
 13
71.0
 23
-35.92102448419999
 33
0.0
 14
71.0
 24
35.92102448430001
 34
0.0
 50
90.0
100
AcDbRotatedDimension
  0
TEXT
  5
283
330
1B
100
AcDbEntity
  8
6
100
AcDbText
 10
79.85229130046835
 20
-110.6002510496329
 30
0.0
 40
5.0
  1
FBD60BAJ100LA245
 41
0.8
 72
     1
 11
103.3351340129429
 21
-110.6002510496329
 31
0.0
100
AcDbText
  0
INSERT
  5
284
330
1B
100
AcDbEntity
  8
1
100
AcDbBlockReference
  2
NULLPUNKT_BL0
 10
0.0
 20
0.0
 30
0.0
  0
INSERT
  5
285
330
1B
100
AcDbEntity
  8
1
100
AcDbBlockReference
  2
EINFUEGEPUNKT_BL1
 10
42.0
 20
0.0
 30
0.0
  0
LINE
  5
286
330
1B
100
AcDbEntity
  8
1
100
AcDbLine
 10
40.4
 20
-122.5
 30
0.0
 11
1.599999999999994
 21
-122.5
 31
0.0
  0
LINE
  5
287
330
1B
100
AcDbEntity
  8
1
100
AcDbLine
 10
0.0
 20
-120.9
 30
0.0
 11
0.0
 21
-12.84999999999999
 31
0.0
  0
LINE
  5
288
330
1B
100
AcDbEntity
  8
NOCUT
100
AcDbLine
 10
0.0
 20
0.0
 30
0.0
 11
0.0
 21
120.9
 31
0.0
  0
LINE
  5
289
330
1B
100
AcDbEntity
  8
1
100
AcDbLine
 10
0.0
 20
12.84999999999999
 30
0.0
 11
0.0
 21
120.9
 31
0.0
  0
LINE
  5
28A
330
1B
100
AcDbEntity
  8
SK1
100
AcDbLine
 10
70.0
 20
-50.0
 30
0.0
 11
42.0
 21
-50.0
 31
0.0
  0
LINE
  5
28B
330
1B
100
AcDbEntity
  8
1
100
AcDbLine
 10
14.0
 20
-11.25
 30
0.0
 11
14.0
 21
11.25
 31
0.0
  0
LINE
  5
28C
330
1B
100
AcDbEntity
  8
SK4
100
AcDbLine
 10
73.0
 20
-35.92102448419999
 30
0.0
 11
-3.0
 21
-35.92102448419999
 31
0.0
  0
LINE
  5
28D
330
1B
100
AcDbEntity
  8
SK3
100
AcDbLine
 10
70.0
 20
-31.5
 30
0.0
 11
32.0
 21
-31.5
 31
0.0
  0
LINE
  5
28E
330
1B
100
AcDbEntity
  8
SK3
100
AcDbLine
 10
32.0
 20
-30.0
 30
0.0
 11
0.0
 21
-30.0
 31
0.0
  0
LINE
  5
28F
330
1B
100
AcDbEntity
  8
SK3
100
AcDbLine
 10
32.0
 20
31.5
 30
0.0
 11
32.0
 21
-31.5
 31
0.0
  0
LINE
  5
290
330
1B
100
AcDbEntity
  8
1
100
AcDbLine
 10
12.4
 20
-12.84999999999999
 30
0.0
 11
0.0
 21
-12.84999999999999
 31
0.0
  0
LINE
  5
291
330
1B
100
AcDbEntity
  8
NOCUT
100
AcDbLine
 10
42.0
 20
120.9
 30
0.0
 11
42.0
 21
0.0
 31
0.0
  0
LINE
  5
292
330
1B
100
AcDbEntity
  8
1
100
AcDbLine
 10
42.0
 20
120.9
 30
0.0
 11
42.0
 21
-120.9
 31
0.0
  0
LINE
  5
293
330
1B
100
AcDbEntity
  8
NOCUT
100
AcDbLine
 10
42.0
 20
0.0
 30
0.0
 11
0.0
 21
0.0
 31
0.0
  0
LINE
  5
294
330
1B
100
AcDbEntity
  8
4
100
AcDbLine
 10
73.00020370210001
 20
0.0
 30
0.0
 11
-3.000151100599993
 21
0.0
 31
0.0
  0
LINE
  5
295
330
1B
100
AcDbEntity
  8
1
100
AcDbLine
 10
0.0
 20
12.84999999999999
 30
0.0
 11
12.4
 21
12.84999999999999
 31
0.0
  0
LINE
  5
296
330
1B
100
AcDbEntity
  8
SK3
100
AcDbLine
 10
70.0
 20
-25.15689911919999
 30
0.0
 11
70.0
 21
-25.25152764890001
 31
0.0
  0
LINE
  5
297
330
1B
100
AcDbEntity
  8
SK1
100
AcDbLine
 10
70.0
 20
-49.99939496279999
 30
0.0
 11
70.0
 21
-25.25152764890001
 31
0.0
  0
LINE
  5
298
330
1B
100
AcDbEntity
  8
SK1
100
AcDbLine
 10
70.0
 20
-25.15689911919999
 30
0.0
 11
70.0
 21
49.99940781820001
 31
0.0
  0
LINE
  5
299
330
1B
100
AcDbEntity
  8
SK3
100
AcDbLine
 10
32.0
 20
30.0
 30
0.0
 11
0.0
 21
30.0
 31
0.0
  0
LINE
  5
29A
330
1B
100
AcDbEntity
  8
SK3
100
AcDbLine
 10
70.0
 20
31.5
 30
0.0
 11
32.0
 21
31.5
 31
0.0
  0
LINE
  5
29B
330
1B
100
AcDbEntity
  8
SK4
100
AcDbLine
 10
73.0
 20
35.92102448430001
 30
0.0
 11
-3.0
 21
35.92102448430001
 31
0.0
  0
LINE
  5
29C
330
1B
100
AcDbEntity
  8
SK1
100
AcDbLine
 10
70.0
 20
50.0
 30
0.0
 11
42.0
 21
50.0
 31
0.0
  0
LINE
  5
29D
330
1B
100
AcDbEntity
  8
NOCUT
100
AcDbLine
 10
40.4
 20
122.5
 30
0.0
 11
1.599999999999994
 21
122.5
 31
0.0
  0
LINE
  5
29E
330
1B
100
AcDbEntity
  8
1
100
AcDbLine
 10
40.4
 20
122.5
 30
0.0
 11
1.599999999999994
 21
122.5
 31
0.0
  0
ARC
  5
29F
330
1B
100
AcDbEntity
  8
NOCUT
100
AcDbCircle
 10
40.4
 20
120.9
 30
0.0
 40
1.6
100
AcDbArc
 50
0.0
 51
90.0
  0
ARC
  5
2A0
330
1B
100
AcDbEntity
  8
NOCUT
100
AcDbCircle
 10
1.599999999999994
 20
120.9
 30
0.0
 40
1.6
100
AcDbArc
 50
90.0
 51
180.0
  0
ARC
  5
2A1
330
1B
100
AcDbEntity
  8
1
100
AcDbCircle
 10
40.4
 20
-120.9
 30
0.0
 40
1.6
100
AcDbArc
 50
270.0
 51
0.0
  0
ARC
  5
2A2
330
1B
100
AcDbEntity
  8
1
100
AcDbCircle
 10
40.4
 20
120.9
 30
0.0
 40
1.6
100
AcDbArc
 50
0.0
 51
90.0
  0
ARC
  5
2A3
330
1B
100
AcDbEntity
  8
1
100
AcDbCircle
 10
1.599999999999994
 20
-120.9
 30
0.0
 40
1.6
100
AcDbArc
 50
180.0
 51
270.0
  0
ARC
  5
2A4
330
1B
100
AcDbEntity
  8
1
100
AcDbCircle
 10
1.599999999999994
 20
120.9
 30
0.0
 40
1.6
100
AcDbArc
 50
90.0
 51
180.0
  0
ARC
  5
2A5
330
1B
100
AcDbEntity
  8
1
100
AcDbCircle
 10
12.4
 20
11.25
 30
0.0
 40
1.6
100
AcDbArc
 50
0.0
 51
90.0
  0
ARC
  5
2A6
330
1B
100
AcDbEntity
  8
1
100
AcDbCircle
 10
12.4
 20
-11.25
 30
0.0
 40
1.6
100
AcDbArc
 50
270.0
 51
0.0
  0
ENDSEC
  0
SECTION
  2
OBJECTS
  0
DICTIONARY
  5
2A7
330
0
100
AcDbDictionary
281
     1
  3
ACAD_COLOR
350
2B1
  3
ACAD_GROUP
350
2A8
  3
ACAD_LAYOUT
350
2B4
  3
ACAD_MATERIAL
350
2B0
  3
ACAD_MLINESTYLE
350
2A9
  3
ACAD_PLOTSETTINGS
350
2B5
  3
ACAD_PLOTSTYLENAME
350
2AE
  3
ACAD_TABLESTYLE
350
2B2
  3
ACDBHEADERROUNDTRIPXREC
350
67C
  3
AcDbVariableDictionary
350
677
  0
DICTIONARY
  5
2B9
330
2
100
AcDbDictionary
280
     1
281
     1
  3
ACAD_LAYERFILTERS
360
2BB
  3
ACLYDICTIONARY
360
2BA
  0
DICTIONARY
  5
2B1
102
{ACAD_REACTORS
330
2A7
102
}
330
2A7
100
AcDbDictionary
281
     1
  0
DICTIONARY
  5
2A8
102
{ACAD_REACTORS
330
2A7
102
}
330
2A7
100
AcDbDictionary
281
     1
  0
DICTIONARY
  5
2B4
102
{ACAD_REACTORS
330
2A7
102
}
330
2A7
100
AcDbDictionary
281
     1
  3
Layout1
350
2B7
  3
Model
350
2B6
  0
DICTIONARY
  5
2B0
102
{ACAD_REACTORS
330
2A7
102
}
330
2A7
100
AcDbDictionary
281
     1
  0
DICTIONARY
  5
2A9
102
{ACAD_REACTORS
330
2A7
102
}
330
2A7
100
AcDbDictionary
281
     1
  3
STANDARD
350
2AA
  0
DICTIONARY
  5
2B5
102
{ACAD_REACTORS
330
2A7
102
}
330
2A7
100
AcDbDictionary
281
     1
  0
ACDBDICTIONARYWDFLT
  5
2AE
102
{ACAD_REACTORS
330
2A7
102
}
330
2A7
100
AcDbDictionary
281
     1
  3
Normal
350
2AF
100
AcDbDictionaryWithDefault
340
2AF
  0
DICTIONARY
  5
2B2
102
{ACAD_REACTORS
330
2A7
102
}
330
2A7
100
AcDbDictionary
281
     1
  3
Standard
350
2B3
  0
DICTIONARY
  5
67C
102
{ACAD_REACTORS
330
2A7
102
}
330
2A7
100
AcDbDictionary
281
     1
  0
DICTIONARY
  5
677
102
{ACAD_REACTORS
330
2A7
102
}
330
2A7
100
AcDbDictionary
281
     1
  3
CTABLESTYLE
350
678
  3
DIMASSOC
350
679
  3
PROJECTNAME
350
67A
  0
DICTIONARY
  5
2BB
102
{ACAD_REACTORS
330
2B9
102
}
330
2B9
100
AcDbDictionary
281
     1
  0
DICTIONARY
  5
2BA
102
{ACAD_REACTORS
330
2B9
102
}
330
2B9
100
AcDbDictionary
281
     1
1001
ACAD
1000
<All
  0
LAYOUT
  5
2B7
102
{ACAD_XDICTIONARY
360
67F
102
}
102
{ACAD_REACTORS
330
2B4
102
}
330
2B4
100
AcDbPlotSettings
  1

  2
\\ingdom02\ITB3
  4

  6

 40
0.0
 41
0.0
 42
0.0
 43
0.0
 44
0.0
 45
0.0
 46
0.0
 47
0.0
 48
0.0
 49
0.0
140
0.0
141
0.0
142
1.0
143
1.0
 70
   688
 72
     0
 73
     0
 74
     5
  7

 75
    16
147
1.0
148
0.0
149
0.0
100
AcDbLayout
  1
Layout1
 70
     1
 71
     1
 10
0.0
 20
0.0
 11
12.0
 21
9.0
 12
0.0
 22
0.0
 32
0.0
 14
1.000000000000000E+20
 24
1.000000000000000E+20
 34
1.000000000000000E+20
 15
-1.000000000000000E+20
 25
-1.000000000000000E+20
 35
-1.000000000000000E+20
146
0.0
 13
0.0
 23
0.0
 33
0.0
 16
1.0
 26
0.0
 36
0.0
 17
0.0
 27
1.0
 37
0.0
 76
     0
330
1C
  0
LAYOUT
  5
2B6
102
{ACAD_XDICTIONARY
360
67D
102
}
102
{ACAD_REACTORS
330
2B4
102
}
330
2B4
100
AcDbPlotSettings
  1

  2
\\ingdom02\ITB3
  4

  6

 40
0.0
 41
0.0
 42
0.0
 43
0.0
 44
0.0
 45
0.0
 46
0.0
 47
0.0
 48
0.0
 49
0.0
140
0.0
141
0.0
142
1.0
143
1.0
 70
  1712
 72
     0
 73
     0
 74
     0
  7

 75
     0
147
1.0
148
0.0
149
0.0
100
AcDbLayout
  1
Model
 70
     1
 71
     0
 10
0.0
 20
0.0
 11
12.0
 21
9.0
 12
0.0
 22
0.0
 32
0.0
 14
0.0
 24
0.0
 34
0.0
 15
0.0
 25
0.0
 35
0.0
146
0.0
 13
0.0
 23
0.0
 33
0.0
 16
1.0
 26
0.0
 36
0.0
 17
0.0
 27
1.0
 37
0.0
 76
     0
330
1B
  0
MLINESTYLE
  5
2AA
102
{ACAD_REACTORS
330
2A9
102
}
330
2A9
100
AcDbMlineStyle
  2
STANDARD
 70
     0
  3

 62
   256
 51
90.0
 52
90.0
 71
     2
 49
0.5
 62
   256
  6
BYLAYER
 49
-0.5
 62
   256
  6
BYLAYER
  0
ACDBPLACEHOLDER
  5
2AF
102
{ACAD_REACTORS
330
2AE
102
}
330
2AE
  0
TABLESTYLE
  5
2B3
102
{ACAD_REACTORS
330
2B2
102
}
330
2B2
100
AcDbTableStyle
  3
Standard
 70
     0
 71
     0
 40
1.5
 41
1.5
280
     0
281
     0
  7
STANDARD
140
4.5
170
     2
 62
     0
 63
     7
283
     0
274
    -2
284
     1
 64
     0
275
    -2
285
     1
 65
     0
276
    -2
286
     1
 66
     0
277
    -2
287
     1
 67
     0
278
    -2
288
     1
 68
     0
279
    -2
289
     1
 69
     0
  7
STANDARD
140
6.0
170
     5
 62
     0
 63
     7
283
     0
274
    -2
284
     1
 64
     0
275
    -2
285
     1
 65
     0
276
    -2
286
     1
 66
     0
277
    -2
287
     1
 67
     0
278
    -2
288
     1
 68
     0
279
    -2
289
     1
 69
     0
  7
STANDARD
140
4.5
170
     5
 62
     0
 63
     7
283
     0
274
    -2
284
     1
 64
     0
275
    -2
285
     1
 65
     0
276
    -2
286
     1
 66
     0
277
    -2
287
     1
 67
     0
278
    -2
288
     1
 68
     0
279
    -2
289
     1
 69
     0
  0
DICTIONARYVAR
  5
678
102
{ACAD_REACTORS
330
677
102
}
330
677
100
DictionaryVariables
280
     0
  1
STANDARD
  0
DICTIONARYVAR
  5
679
102
{ACAD_REACTORS
330
677
102
}
330
677
100
DictionaryVariables
280
     0
  1
1
  0
DICTIONARYVAR
  5
67A
102
{ACAD_REACTORS
330
677
102
}
330
677
100
DictionaryVariables
280
     0
  1

  0
DICTIONARY
  5
67F
330
2B7
100
AcDbDictionary
280
     1
281
     1
  3
ACAD_XREC_ROUNDTRIP
360
680
  0
DICTIONARY
  5
67D
330
2B6
100
AcDbDictionary
280
     1
281
     1
  3
ACAD_XREC_ROUNDTRIP
360
67E
  0
XRECORD
  5
680
102
{ACAD_REACTORS
330
67F
102
}
330
67F
100
AcDbXrecord
280
     1
102
SHADEPLOT
 70
     0
102
SHADEPLOTRESLEVEL
 70
     2
102
SHADEPLOTCUSTOMDPI
 70
   300
  0
XRECORD
  5
67E
102
{ACAD_REACTORS
330
67D
102
}
330
67D
100
AcDbXrecord
280
     1
102
SHADEPLOT
 70
     0
102
SHADEPLOTRESLEVEL
 70
     2
102
SHADEPLOTCUSTOMDPI
 70
   300
  0
ENDSEC
  0
EOF
