  0
SECTION
  2
HEADER
  9
$ACADVER
  1
AC1015
  9
$ACADMAINTVER
 70
    20
  9
$DWGCODEPAGE
  3
ANSI_1252
  9
$INSBASE
 10
0.0
 20
0.0
 30
0.0
  9
$EXTMIN
 10
-25.26306057495879
 20
-122.8451380013082
 30
-0.0015258207003583
  9
$EXTMAX
 10
114.9911505251555
 20
147.5936284472626
 30
0.0000000349246037
  9
$LIMMIN
 10
0.0
 20
0.0
  9
$LIMMAX
 10
420.0
 20
297.0
  9
$ORTHOMODE
 70
     0
  9
$REGENMODE
 70
     1
  9
$FILLMODE
 70
     1
  9
$QTEXTMODE
 70
     0
  9
$MIRRTEXT
 70
     0
  9
$LTSCALE
 40
23.1
  9
$ATTMODE
 70
     1
  9
$TEXTSIZE
 40
0.2
  9
$TRACEWID
 40
0.05
  9
$TEXTSTYLE
  7
STANDARD
  9
$CLAYER
  8
0
  9
$CELTYPE
  6
BYLAYER
  9
$CECOLOR
 62
   256
  9
$CELTSCALE
 40
1.0
  9
$DISPSILH
 70
     0
  9
$DIMSCALE
 40
1.0
  9
$DIMASZ
 40
3.5
  9
$DIMEXO
 40
0.625
  9
$DIMDLI
 40
3.75
  9
$DIMRND
 40
0.0
  9
$DIMDLE
 40
0.0
  9
$DIMEXE
 40
2.0
  9
$DIMTP
 40
0.0
  9
$DIMTM
 40
0.0
  9
$DIMTXT
 40
3.5
  9
$DIMCEN
 40
2.5
  9
$DIMTSZ
 40
0.0
  9
$DIMTOL
 70
     0
  9
$DIMLIM
 70
     0
  9
$DIMTIH
 70
     0
  9
$DIMTOH
 70
     0
  9
$DIMSE1
 70
     0
  9
$DIMSE2
 70
     0
  9
$DIMTAD
 70
     1
  9
$DIMZIN
 70
     8
  9
$DIMBLK
  1

  9
$DIMASO
 70
     1
  9
$DIMSHO
 70
     1
  9
$DIMPOST
  1

  9
$DIMAPOST
  1

  9
$DIMALT
 70
     0
  9
$DIMALTD
 70
     3
  9
$DIMALTF
 40
0.03937007874016
  9
$DIMLFAC
 40
1.0
  9
$DIMTOFL
 70
     1
  9
$DIMTVP
 40
0.0
  9
$DIMTIX
 70
     0
  9
$DIMSOXD
 70
     0
  9
$DIMSAH
 70
     0
  9
$DIMBLK1
  1

  9
$DIMBLK2
  1

  9
$DIMSTYLE
  2
ISO-25
  9
$DIMCLRD
 70
   256
  9
$DIMCLRE
 70
   256
  9
$DIMCLRT
 70
   256
  9
$DIMTFAC
 40
1.0
  9
$DIMGAP
 40
0.625
  9
$DIMJUST
 70
     0
  9
$DIMSD1
 70
     0
  9
$DIMSD2
 70
     0
  9
$DIMTOLJ
 70
     0
  9
$DIMTZIN
 70
     8
  9
$DIMALTZ
 70
     0
  9
$DIMALTTZ
 70
     0
  9
$DIMUPT
 70
     0
  9
$DIMDEC
 70
     2
  9
$DIMTDEC
 70
     2
  9
$DIMALTU
 70
     2
  9
$DIMALTTD
 70
     3
  9
$DIMTXSTY
  7
STANDARD
  9
$DIMAUNIT
 70
     0
  9
$DIMADEC
 70
     0
  9
$DIMALTRND
 40
0.0
  9
$DIMAZIN
 70
     0
  9
$DIMDSEP
 70
    46
  9
$DIMATFIT
 70
     3
  9
$DIMFRAC
 70
     0
  9
$DIMLDRBLK
  1

  9
$DIMLUNIT
 70
     2
  9
$DIMLWD
 70
    -2
  9
$DIMLWE
 70
    -2
  9
$DIMTMOVE
 70
     0
  9
$LUNITS
 70
     2
  9
$LUPREC
 70
     4
  9
$SKETCHINC
 40
0.1
  9
$FILLETRAD
 40
0.0
  9
$AUNITS
 70
     0
  9
$AUPREC
 70
     0
  9
$MENU
  1
.
  9
$ELEVATION
 40
0.0
  9
$PELEVATION
 40
0.0
  9
$THICKNESS
 40
0.0
  9
$LIMCHECK
 70
     0
  9
$CHAMFERA
 40
0.0
  9
$CHAMFERB
 40
0.0
  9
$CHAMFERC
 40
0.0
  9
$CHAMFERD
 40
0.0
  9
$SKPOLY
 70
     0
  9
$TDCREATE
 40
2453791.376475011
  9
$TDUCREATE
 40
2453791.334808345
  9
$TDUPDATE
 40
2453791.424947512
  9
$TDUUPDATE
 40
2453791.383280845
  9
$TDINDWG
 40
0.0484726736
  9
$TDUSRTIMER
 40
0.0484726736
  9
$USRTIMER
 70
     1
  9
$ANGBASE
 50
0.0
  9
$ANGDIR
 70
     0
  9
$PDMODE
 70
     3
  9
$PDSIZE
 40
0.3125
  9
$PLINEWID
 40
0.0
  9
$SPLFRAME
 70
     0
  9
$SPLINETYPE
 70
     6
  9
$SPLINESEGS
 70
     8
  9
$HANDSEED
  5
658
  9
$SURFTAB1
 70
     6
  9
$SURFTAB2
 70
     6
  9
$SURFTYPE
 70
     6
  9
$SURFU
 70
     6
  9
$SURFV
 70
     6
  9
$UCSBASE
  2

  9
$UCSNAME
  2

  9
$UCSORG
 10
0.0
 20
0.0
 30
0.0
  9
$UCSXDIR
 10
1.0
 20
0.0
 30
0.0
  9
$UCSYDIR
 10
0.0
 20
1.0
 30
0.0
  9
$UCSORTHOREF
  2

  9
$UCSORTHOVIEW
 70
     0
  9
$UCSORGTOP
 10
0.0
 20
0.0
 30
0.0
  9
$UCSORGBOTTOM
 10
0.0
 20
0.0
 30
0.0
  9
$UCSORGLEFT
 10
0.0
 20
0.0
 30
0.0
  9
$UCSORGRIGHT
 10
0.0
 20
0.0
 30
0.0
  9
$UCSORGFRONT
 10
0.0
 20
0.0
 30
0.0
  9
$UCSORGBACK
 10
0.0
 20
0.0
 30
0.0
  9
$PUCSBASE
  2

  9
$PUCSNAME
  2

  9
$PUCSORG
 10
0.0
 20
0.0
 30
0.0
  9
$PUCSXDIR
 10
1.0
 20
0.0
 30
0.0
  9
$PUCSYDIR
 10
0.0
 20
1.0
 30
0.0
  9
$PUCSORTHOREF
  2

  9
$PUCSORTHOVIEW
 70
     0
  9
$PUCSORGTOP
 10
0.0
 20
0.0
 30
0.0
  9
$PUCSORGBOTTOM
 10
0.0
 20
0.0
 30
0.0
  9
$PUCSORGLEFT
 10
0.0
 20
0.0
 30
0.0
  9
$PUCSORGRIGHT
 10
0.0
 20
0.0
 30
0.0
  9
$PUCSORGFRONT
 10
0.0
 20
0.0
 30
0.0
  9
$PUCSORGBACK
 10
0.0
 20
0.0
 30
0.0
  9
$USERI1
 70
     0
  9
$USERI2
 70
     0
  9
$USERI3
 70
     0
  9
$USERI4
 70
     0
  9
$USERI5
 70
     0
  9
$USERR1
 40
0.0
  9
$USERR2
 40
0.0
  9
$USERR3
 40
0.0
  9
$USERR4
 40
0.0
  9
$USERR5
 40
0.0
  9
$WORLDVIEW
 70
     1
  9
$SHADEDGE
 70
     3
  9
$SHADEDIF
 70
    70
  9
$TILEMODE
 70
     1
  9
$MAXACTVP
 70
    64
  9
$PINSBASE
 10
0.0
 20
0.0
 30
0.0
  9
$PLIMCHECK
 70
     0
  9
$PEXTMIN
 10
1.000000000000000E+20
 20
1.000000000000000E+20
 30
1.000000000000000E+20
  9
$PEXTMAX
 10
-1.000000000000000E+20
 20
-1.000000000000000E+20
 30
-1.000000000000000E+20
  9
$PLIMMIN
 10
0.0
 20
0.0
  9
$PLIMMAX
 10
12.0
 20
9.0
  9
$UNITMODE
 70
     0
  9
$VISRETAIN
 70
     1
  9
$PLINEGEN
 70
     0
  9
$PSLTSCALE
 70
     1
  9
$TREEDEPTH
 70
  3020
  9
$CMLSTYLE
  2
STANDARD
  9
$CMLJUST
 70
     0
  9
$CMLSCALE
 40
1.0
  9
$PROXYGRAPHICS
 70
     1
  9
$MEASUREMENT
 70
     1
  9
$CELWEIGHT
370
    -1
  9
$ENDCAPS
280
     0
  9
$JOINSTYLE
280
     0
  9
$LWDISPLAY
290
     0
  9
$INSUNITS
 70
     0
  9
$HYPERLINKBASE
  1

  9
$STYLESHEET
  1

  9
$XEDIT
290
     1
  9
$CEPSNTYPE
380
     0
  9
$PSTYLEMODE
290
     1
  9
$FINGERPRINTGUID
  2
{AFFBD24B-E456-4C19-AA1A-BE67DB0D77DE}
  9
$VERSIONGUID
  2
{D060C470-0627-426C-B17B-7753936299D7}
  9
$EXTNAMES
290
     1
  9
$PSVPSCALE
 40
0.0
  9
$OLESTARTUP
290
     0
  0
ENDSEC
  0
SECTION
  2
CLASSES
  0
CLASS
  1
ACDBDICTIONARYWDFLT
  2
AcDbDictionaryWithDefault
  3
ObjectDBX Classes
 90
        0
280
     0
281
     0
  0
CLASS
  1
TABLESTYLE
  2
AcDbTableStyle
  3
ObjectDBX Classes
 90
     2047
280
     0
281
     0
  0
CLASS
  1
DICTIONARYVAR
  2
AcDbDictionaryVar
  3
ObjectDBX Classes
 90
        0
280
     0
281
     0
  0
CLASS
  1
ACDBPLACEHOLDER
  2
AcDbPlaceHolder
  3
ObjectDBX Classes
 90
        0
280
     0
281
     0
  0
CLASS
  1
LAYOUT
  2
AcDbLayout
  3
ObjectDBX Classes
 90
        0
280
     0
281
     0
  0
ENDSEC
  0
SECTION
  2
TABLES
  0
TABLE
  2
VPORT
  5
8
330
0
100
AcDbSymbolTable
 70
     4
  0
VPORT
  5
652
330
8
100
AcDbSymbolTableRecord
100
AcDbViewportTableRecord
  2
*Active
 70
     0
 10
0.0
 20
0.0
 11
1.0
 21
1.0
 12
44.86404497509835
 22
12.37424522297721
 13
0.0
 23
0.0
 14
1.0
 24
1.0
 15
0.0
 25
0.0
 16
0.0
 26
0.0
 36
1.0
 17
0.0
 27
0.0
 37
0.0
 40
272.4670571969351
 41
1.494367959949937
 42
50.0
 43
0.0
 44
0.0
 50
0.0
 51
0.0
 71
     0
 72
   100
 73
     1
 74
     1
 75
     0
 76
     0
 77
     0
 78
     0
281
     0
 65
     1
110
0.0
120
0.0
130
0.0
111
1.0
121
0.0
131
0.0
112
0.0
122
1.0
132
0.0
 79
     0
146
0.0
  0
ENDTAB
  0
TABLE
  2
LTYPE
  5
5
330
0
100
AcDbSymbolTable
 70
     6
  0
LTYPE
  5
14
330
5
100
AcDbSymbolTableRecord
100
AcDbLinetypeTableRecord
  2
BYBLOCK
 70
     0
  3

 72
    65
 73
     0
 40
0.0
  0
LTYPE
  5
15
330
5
100
AcDbSymbolTableRecord
100
AcDbLinetypeTableRecord
  2
BYLAYER
 70
     0
  3

 72
    65
 73
     0
 40
0.0
  0
LTYPE
  5
16
330
5
100
AcDbSymbolTableRecord
100
AcDbLinetypeTableRecord
  2
CONTINUOUS
 70
     0
  3
Solid line
 72
    65
 73
     0
 40
0.0
  0
LTYPE
  5
1F5
330
5
100
AcDbSymbolTableRecord
100
AcDbLinetypeTableRecord
  2
CENTER
 70
     0
  3
____ _ ____ _ ____ _ ____ _ ____ _ ____ _ ____
 72
    65
 73
     4
 40
0.6
 49
0.375
 74
     0
 49
-0.075
 74
     0
 49
0.075
 74
     0
 49
-0.075
 74
     0
  0
LTYPE
  5
1F6
330
5
100
AcDbSymbolTableRecord
100
AcDbLinetypeTableRecord
  2
HIDDEN
 70
     0
  3
- - - - - - - - - - - - - - - - - - - -
 72
    65
 73
     2
 40
0.2
 49
0.1
 74
     0
 49
-0.1
 74
     0
  0
ENDTAB
  0
TABLE
  2
LAYER
  5
2
102
{ACAD_XDICTIONARY
360
2A3
102
}
330
0
100
AcDbSymbolTable
 70
    15
  0
LAYER
  5
10
330
2
100
AcDbSymbolTableRecord
100
AcDbLayerTableRecord
  2
0
 70
     0
 62
     7
  6
CONTINUOUS
370
    -3
390
299
  0
LAYER
  5
1FD
330
2
100
AcDbSymbolTableRecord
100
AcDbLayerTableRecord
  2
1
 70
     0
 62
     4
  6
CONTINUOUS
370
    -3
390
299
  0
LAYER
  5
1FE
330
2
100
AcDbSymbolTableRecord
100
AcDbLayerTableRecord
  2
2
 70
     0
 62
     7
  6
CONTINUOUS
370
    -3
390
299
  0
LAYER
  5
1FF
330
2
100
AcDbSymbolTableRecord
100
AcDbLayerTableRecord
  2
4
 70
     0
 62
     2
  6
CENTER
370
    -3
390
299
  0
LAYER
  5
200
330
2
100
AcDbSymbolTableRecord
100
AcDbLayerTableRecord
  2
6
 70
     0
 62
     5
  6
CONTINUOUS
370
    -3
390
299
  0
LAYER
  5
201
330
2
100
AcDbSymbolTableRecord
100
AcDbLayerTableRecord
  2
NOCUT
 70
     0
 62
     7
  6
CONTINUOUS
370
    -3
390
299
  0
LAYER
  5
202
330
2
100
AcDbSymbolTableRecord
100
AcDbLayerTableRecord
  2
SK1
 70
     0
 62
     4
  6
CONTINUOUS
370
    -3
390
299
  0
LAYER
  5
203
330
2
100
AcDbSymbolTableRecord
100
AcDbLayerTableRecord
  2
SK2
 70
     0
 62
     7
  6
CONTINUOUS
370
    -3
390
299
  0
LAYER
  5
204
330
2
100
AcDbSymbolTableRecord
100
AcDbLayerTableRecord
  2
SK3
 70
     0
 62
     1
  6
HIDDEN
370
    -3
390
299
  0
LAYER
  5
312
330
2
100
AcDbSymbolTableRecord
100
AcDbLayerTableRecord
  2
Defpoints
 70
     0
 62
     7
  6
CONTINUOUS
290
     0
370
    -3
390
299
  0
ENDTAB
  0
TABLE
  2
STYLE
  5
3
330
0
100
AcDbSymbolTable
 70
     1
  0
STYLE
  5
11
330
3
100
AcDbSymbolTableRecord
100
AcDbTextStyleTableRecord
  2
STANDARD
 70
     0
 40
0.0
 41
0.8
 50
0.0
 71
     0
 42
0.2
  3
isocp.shx
  4

  0
ENDTAB
  0
TABLE
  2
VIEW
  5
6
330
0
100
AcDbSymbolTable
 70
     0
  0
ENDTAB
  0
TABLE
  2
UCS
  5
7
330
0
100
AcDbSymbolTable
 70
     0
  0
ENDTAB
  0
TABLE
  2
APPID
  5
9
330
0
100
AcDbSymbolTable
 70
     3
  0
APPID
  5
206
330
9
100
AcDbSymbolTableRecord
100
AcDbRegAppTableRecord
  2
ACAD
 70
     0
  0
APPID
  5
315
330
9
100
AcDbSymbolTableRecord
100
AcDbRegAppTableRecord
  2
ACAD_PSEXT
 70
     0
  0
APPID
  5
52C
330
9
100
AcDbSymbolTableRecord
100
AcDbRegAppTableRecord
  2
ACAD_DSTYLE_DIMTEXT_FILL
 70
     0
  0
ENDTAB
  0
TABLE
  2
DIMSTYLE
  5
A
330
0
100
AcDbSymbolTable
 70
     3
100
AcDbDimStyleTable
 71
     2
340
314
340
207
  0
DIMSTYLE
105
207
330
A
100
AcDbSymbolTableRecord
100
AcDbDimStyleTableRecord
  2
STANDARD
 70
     0
 41
2.5
 47
0.005
 48
0.005
 71
     1
 73
     0
 74
     0
 77
     1
 78
     8
140
3.5
178
     2
271
     3
272
     3
284
     8
340
11
341
209
342
209
343
209
344
209
  0
DIMSTYLE
105
314
102
{ACAD_REACTORS
330
317
330
318
330
319
330
31A
330
31B
330
31C
330
31D
330
31E
330
31F
330
275
330
273
330
276
330
271
330
274
330
272
102
}
330
A
100
AcDbSymbolTableRecord
100
AcDbDimStyleTableRecord
  2
ISO-25
 70
     0
 41
3.5
 42
0.625
 43
3.75
 44
2.0
 73
     0
 74
     0
 77
     1
 78
     8
140
3.5
141
2.5
143
0.03937007874016
147
0.625
171
     3
172
     1
176
   256
177
   256
178
   256
271
     2
272
     2
274
     3
283
     0
284
     8
340
11
  0
ENDTAB
  0
TABLE
  2
BLOCK_RECORD
  5
1
330
0
100
AcDbSymbolTable
 70
    28
  0
BLOCK_RECORD
  5
1B
330
1
100
AcDbSymbolTableRecord
100
AcDbBlockTableRecord
  2
*MODEL_SPACE
340
2A0
  0
BLOCK_RECORD
  5
1C
330
1
100
AcDbSymbolTableRecord
100
AcDbBlockTableRecord
  2
*PAPER_SPACE
340
2A1
  0
BLOCK_RECORD
  5
209
330
1
100
AcDbSymbolTableRecord
100
AcDbBlockTableRecord
  2
_FILLED
340
0
  0
BLOCK_RECORD
  5
20A
330
1
100
AcDbSymbolTableRecord
100
AcDbBlockTableRecord
  2
*D1
340
0
  0
BLOCK_RECORD
  5
20B
330
1
100
AcDbSymbolTableRecord
100
AcDbBlockTableRecord
  2
*D2
340
0
  0
BLOCK_RECORD
  5
20C
330
1
100
AcDbSymbolTableRecord
100
AcDbBlockTableRecord
  2
*D3
340
0
  0
BLOCK_RECORD
  5
20D
330
1
100
AcDbSymbolTableRecord
100
AcDbBlockTableRecord
  2
*D4
340
0
  0
BLOCK_RECORD
  5
20E
330
1
100
AcDbSymbolTableRecord
100
AcDbBlockTableRecord
  2
*D5
340
0
  0
BLOCK_RECORD
  5
20F
330
1
100
AcDbSymbolTableRecord
100
AcDbBlockTableRecord
  2
*D6
340
0
  0
BLOCK_RECORD
  5
210
330
1
100
AcDbSymbolTableRecord
100
AcDbBlockTableRecord
  2
NULLPUNKT_BL0
340
0
102
{BLKREFS
331
278
331
321
102
}
  0
BLOCK_RECORD
  5
211
330
1
100
AcDbSymbolTableRecord
100
AcDbBlockTableRecord
  2
EINFUEGEPUNKT_BL1
340
0
102
{BLKREFS
331
279
331
322
102
}
  0
ENDTAB
  0
ENDSEC
  0
SECTION
  2
BLOCKS
  0
BLOCK
  5
1E
330
1B
100
AcDbEntity
  8
0
100
AcDbBlockBegin
  2
*MODEL_SPACE
 70
     0
 10
0.0
 20
0.0
 30
0.0
  3
*MODEL_SPACE
  1

  0
ENDBLK
  5
1F
330
1B
100
AcDbEntity
  8
0
100
AcDbBlockEnd
  0
BLOCK
  5
20
330
1C
100
AcDbEntity
 67
     1
  8
0
100
AcDbBlockBegin
  2
*PAPER_SPACE
 70
     0
 10
0.0
 20
0.0
 30
0.0
  3
*PAPER_SPACE
  1

  0
ENDBLK
  5
21
330
1C
100
AcDbEntity
 67
     1
  8
0
100
AcDbBlockEnd
  0
BLOCK
  5
26E
330
209
100
AcDbEntity
  8
0
100
AcDbBlockBegin
  2
_FILLED
 70
     0
 10
0.0
 20
0.0
 30
0.0
  3
_FILLED
  1

  0
SOLID
  5
26F
330
209
100
AcDbEntity
  8
0
  6
ByBlock
 62
     0
100
AcDbTrace
 10
0.0
 20
0.0
 30
0.0
 11
-1.0
 21
0.132
 31
0.0
 12
-1.0
 22
-0.132
 32
0.0
 13
-1.0
 23
-0.132
 33
0.0
  0
ENDBLK
  5
270
330
209
100
AcDbEntity
  8
0
  6
ByBlock
 62
     0
100
AcDbBlockEnd
  0
BLOCK
  5
212
330
20A
100
AcDbEntity
  8
SK2
  6
Continuous
 62
     7
100
AcDbBlockBegin
  2
*D1
 70
     1
 10
0.0
 20
0.0
 30
0.0
  3
*D1
  1

  0
LINE
  5
5F8
330
20A
100
AcDbEntity
  8
SK2
370
    -2
100
AcDbLine
 10
-1.625
 20
-122.5
 30
0.0
 11
-23.12500000000003
 21
-122.5
 31
0.0
  0
LINE
  5
5F9
330
20A
100
AcDbEntity
  8
SK2
370
    -2
100
AcDbLine
 10
-1.625
 20
122.5
 30
0.0
 11
-23.12499999999997
 21
122.5
 31
0.0
  0
LINE
  5
5FA
330
20A
100
AcDbEntity
  8
SK2
370
    -2
100
AcDbLine
 10
-21.12500000000002
 20
-119.0
 30
0.0
 11
-21.12499999999998
 21
119.0
 31
0.0
  0
SOLID
  5
5FB
330
20A
100
AcDbEntity
  8
SK2
100
AcDbTrace
 10
-21.70833333333336
 20
-119.0
 30
0.0
 11
-20.54166666666669
 21
-119.0
 31
0.0
 12
-21.12500000000003
 22
-122.5
 32
0.0
 13
-21.12500000000003
 23
-122.5
 33
0.0
  0
SOLID
  5
5FC
330
20A
100
AcDbEntity
  8
SK2
100
AcDbTrace
 10
-21.70833333333331
 20
119.0
 30
0.0
 11
-20.54166666666664
 21
119.0
 31
0.0
 12
-21.12499999999997
 22
122.5
 32
0.0
 13
-21.12499999999997
 23
122.5
 33
0.0
  0
MTEXT
  5
5FD
330
20A
100
AcDbEntity
  8
SK2
100
AcDbMText
 10
-23.50034448818898
 20
-0.0000000000999873
 30
0.0
 40
3.5
 41
0.0
 71
     5
 72
     1
  1
%%c245
 11
0.0000000000000001
 21
1.0
 31
0.0
 73
     1
 44
1.0
1001
ACAD
1000
MTEXTBEGIN
1070
    73
1070
     1
1070
    44
1040
1.0
1070
    74
1070
     0
1000
MTEXTEND
  0
POINT
  5
5FE
330
20A
100
AcDbEntity
  8
Defpoints
 62
     0
100
AcDbPoint
 10
-1.0
 20
-122.5
 30
0.0
  0
POINT
  5
5FF
330
20A
100
AcDbEntity
  8
Defpoints
 62
     0
100
AcDbPoint
 10
-0.9999999999999998
 20
122.5
 30
0.0
  0
POINT
  5
600
330
20A
100
AcDbEntity
  8
Defpoints
 62
     0
100
AcDbPoint
 10
-21.12499999999997
 20
122.5
 30
0.0
  0
ENDBLK
  5
21B
330
20A
100
AcDbEntity
  8
0
  6
ByBlock
 62
     0
100
AcDbBlockEnd
  0
BLOCK
  5
21C
330
20B
100
AcDbEntity
  8
2
  6
Continuous
 62
     7
100
AcDbBlockBegin
  2
*D2
 70
     1
 10
0.0
 20
0.0
 30
0.0
  3
*D2
  1

  0
LINE
  5
601
330
20B
100
AcDbEntity
  8
2
370
    -2
100
AcDbLine
 10
0.0
 20
124.125
 30
0.0
 11
0.0000000000000008
 21
137.125
 31
0.0
  0
LINE
  5
602
330
20B
100
AcDbEntity
  8
2
370
    -2
100
AcDbLine
 10
42.0
 20
124.125
 30
0.0
 11
42.0
 21
137.125
 31
0.0
  0
LINE
  5
603
330
20B
100
AcDbEntity
  8
2
370
    -2
100
AcDbLine
 10
3.5
 20
135.125
 30
0.0
 11
38.5
 21
135.125
 31
0.0
  0
SOLID
  5
604
330
20B
100
AcDbEntity
  8
2
100
AcDbTrace
 10
3.5
 20
135.7083333333333
 30
0.0
 11
3.5
 21
134.5416666666666
 31
0.0
 12
0.0000000000000007
 22
135.125
 32
0.0
 13
0.0000000000000007
 23
135.125
 33
0.0
  0
SOLID
  5
605
330
20B
100
AcDbEntity
  8
2
100
AcDbTrace
 10
38.5
 20
135.7083333333333
 30
0.0
 11
38.5
 21
134.5416666666666
 31
0.0
 12
42.0
 22
135.125
 32
0.0
 13
42.0
 23
135.125
 33
0.0
  0
MTEXT
  5
606
330
20B
100
AcDbEntity
  8
2
100
AcDbMText
 10
21.0
 20
137.5003444881889
 30
0.0
 40
3.5
 41
0.0
 71
     5
 72
     1
  1
42
 73
     1
 44
1.0
1001
ACAD
1000
MTEXTBEGIN
1070
    73
1070
     1
1070
    44
1040
1.0
1070
    74
1070
     0
1000
MTEXTEND
  0
POINT
  5
607
330
20B
100
AcDbEntity
  8
Defpoints
 62
     0
100
AcDbPoint
 10
0.0
 20
123.5
 30
0.0
  0
POINT
  5
608
330
20B
100
AcDbEntity
  8
Defpoints
 62
     0
100
AcDbPoint
 10
42.0
 20
123.5
 30
0.0
  0
POINT
  5
609
330
20B
100
AcDbEntity
  8
Defpoints
 62
     0
100
AcDbPoint
 10
42.0
 20
135.125
 30
0.0
  0
ENDBLK
  5
224
330
20B
100
AcDbEntity
  8
0
  6
ByBlock
 62
     0
100
AcDbBlockEnd
  0
BLOCK
  5
225
330
20C
100
AcDbEntity
  8
SK2
  6
Continuous
 62
     7
100
AcDbBlockBegin
  2
*D3
 70
     1
 10
0.0
 20
0.0
 30
0.0
  3
*D3
  1

  0
LINE
  5
63A
330
20C
100
AcDbEntity
  8
SK2
370
    -2
100
AcDbLine
 10
71.625
 20
-50.0
 30
0.0
 11
92.2918212288747
 21
-50.0
 31
0.0
  0
LINE
  5
63B
330
20C
100
AcDbEntity
  8
SK2
370
    -2
100
AcDbLine
 10
71.625
 20
49.99999999999997
 30
0.0
 11
92.29182122887472
 21
49.99999999999996
 31
0.0
  0
LINE
  5
63C
330
20C
100
AcDbEntity
  8
SK2
370
    -2
100
AcDbLine
 10
90.29182122887469
 20
-46.50000000000001
 30
0.0
 11
90.29182122887473
 21
46.49999999999996
 31
0.0
  0
SOLID
  5
63D
330
20C
100
AcDbEntity
  8
SK2
100
AcDbTrace
 10
89.70848789554137
 20
-46.50000000000001
 30
0.0
 11
90.87515456220803
 21
-46.50000000000001
 31
0.0
 12
90.29182122887469
 22
-50.0
 32
0.0
 13
90.29182122887469
 23
-50.0
 33
0.0
  0
SOLID
  5
63E
330
20C
100
AcDbEntity
  8
SK2
100
AcDbTrace
 10
89.70848789554139
 20
46.49999999999996
 30
0.0
 11
90.87515456220804
 21
46.49999999999996
 31
0.0
 12
90.29182122887473
 22
49.99999999999996
 32
0.0
 13
90.29182122887473
 23
49.99999999999996
 33
0.0
  0
MTEXT
  5
63F
330
20C
100
AcDbEntity
  8
SK2
100
AcDbMText
 10
87.9168212288747
 20
-0.0000000000999873
 30
0.0
 40
3.5
 41
0.0
 71
     5
 72
     1
  1
%%c100
 11
0.0000000000000001
 21
1.0
 31
0.0
 73
     1
 44
1.0
1001
ACAD
1000
MTEXTBEGIN
1070
    73
1070
     1
1070
    44
1040
1.0
1070
    74
1070
     0
1000
MTEXTEND
  0
POINT
  5
640
330
20C
100
AcDbEntity
  8
Defpoints
 62
     0
100
AcDbPoint
 10
71.0
 20
-50.0
 30
0.0
  0
POINT
  5
641
330
20C
100
AcDbEntity
  8
Defpoints
 62
     0
100
AcDbPoint
 10
71.0
 20
49.99999999999997
 30
0.0
  0
POINT
  5
642
330
20C
100
AcDbEntity
  8
Defpoints
 62
     0
100
AcDbPoint
 10
90.29182122887473
 20
49.99999999999996
 30
0.0
  0
ENDBLK
  5
22E
330
20C
100
AcDbEntity
  8
0
  6
ByBlock
 62
     0
100
AcDbBlockEnd
  0
BLOCK
  5
22F
330
20D
100
AcDbEntity
  8
SK2
  6
Continuous
 62
     7
100
AcDbBlockBegin
  2
*D4
 70
     1
 10
0.0
 20
0.0
 30
0.0
  3
*D4
  1

  0
LINE
  5
613
330
20D
100
AcDbEntity
  8
SK2
370
    -2
100
AcDbLine
 10
70.0
 20
52.1172711058
 30
0.0
 11
70.0
 21
145.625
 31
0.0
  0
LINE
  5
614
330
20D
100
AcDbEntity
  8
SK2
370
    -2
100
AcDbLine
 10
0.0
 20
124.1172711058
 30
0.0
 11
0.0000000000000014
 21
145.625
 31
0.0
  0
LINE
  5
615
330
20D
100
AcDbEntity
  8
SK2
370
    -2
100
AcDbLine
 10
66.5
 20
143.625
 30
0.0
 11
3.500000000000001
 21
143.625
 31
0.0
  0
SOLID
  5
616
330
20D
100
AcDbEntity
  8
SK2
100
AcDbTrace
 10
66.5
 20
144.2083333333333
 30
0.0
 11
66.5
 21
143.0416666666666
 31
0.0
 12
70.0
 22
143.625
 32
0.0
 13
70.0
 23
143.625
 33
0.0
  0
SOLID
  5
617
330
20D
100
AcDbEntity
  8
SK2
100
AcDbTrace
 10
3.500000000000001
 20
144.2083333333333
 30
0.0
 11
3.500000000000001
 21
143.0416666666666
 31
0.0
 12
0.0000000000000012
 22
143.625
 32
0.0
 13
0.0000000000000012
 23
143.625
 33
0.0
  0
MTEXT
  5
618
330
20D
100
AcDbEntity
  8
SK2
100
AcDbMText
 10
35.0
 20
146.0
 30
0.0
 40
3.5
 41
0.0
 71
     5
 72
     1
  1
70
 73
     1
 44
1.0
1001
ACAD
1000
MTEXTBEGIN
1070
    73
1070
     1
1070
    44
1040
1.0
1070
    74
1070
     0
1000
MTEXTEND
  0
POINT
  5
619
330
20D
100
AcDbEntity
  8
Defpoints
 62
     0
100
AcDbPoint
 10
70.0
 20
51.4922711058
 30
0.0
  0
POINT
  5
61A
330
20D
100
AcDbEntity
  8
Defpoints
 62
     0
100
AcDbPoint
 10
0.0
 20
123.4922711058
 30
0.0
  0
POINT
  5
61B
330
20D
100
AcDbEntity
  8
Defpoints
 62
     0
100
AcDbPoint
 10
0.0000000000000012
 20
143.625
 30
0.0
  0
ENDBLK
  5
237
330
20D
100
AcDbEntity
  8
0
  6
ByBlock
 62
     0
100
AcDbBlockEnd
  0
BLOCK
  5
238
330
20E
100
AcDbEntity
  8
SK2
  6
Continuous
 62
     7
100
AcDbBlockBegin
  2
*D5
 70
     1
 10
0.0
 20
0.0
 30
0.0
  3
*D5
  1

  0
LINE
  5
643
330
20E
100
AcDbEntity
  8
SK2
370
    -2
100
AcDbLine
 10
71.625
 20
-31.5
 30
0.0
 11
85.08759702454506
 21
-31.5
 31
0.0
  0
LINE
  5
644
330
20E
100
AcDbEntity
  8
SK2
370
    -2
100
AcDbLine
 10
71.625
 20
31.49999999999997
 30
0.0
 11
85.08759702454506
 21
31.49999999999997
 31
0.0
  0
LINE
  5
645
330
20E
100
AcDbEntity
  8
SK2
370
    -2
100
AcDbLine
 10
83.08759702454507
 20
-28.00000000000001
 30
0.0
 11
83.08759702454507
 21
27.99999999999997
 31
0.0
  0
SOLID
  5
646
330
20E
100
AcDbEntity
  8
SK2
100
AcDbTrace
 10
82.50426369121173
 20
-28.00000000000001
 30
0.0
 11
83.67093035787839
 21
-28.00000000000001
 31
0.0
 12
83.08759702454507
 22
-31.5
 32
0.0
 13
83.08759702454507
 23
-31.5
 33
0.0
  0
SOLID
  5
647
330
20E
100
AcDbEntity
  8
SK2
100
AcDbTrace
 10
82.50426369121173
 20
27.99999999999997
 30
0.0
 11
83.67093035787839
 21
27.99999999999997
 31
0.0
 12
83.08759702454507
 22
31.49999999999997
 32
0.0
 13
83.08759702454507
 23
31.49999999999997
 33
0.0
  0
MTEXT
  5
648
330
20E
100
AcDbEntity
  8
SK2
100
AcDbMText
 10
80.71259702454506
 20
-0.0000000000999873
 30
0.0
 40
3.5
 41
0.0
 71
     5
 72
     1
  1
%%c63
 11
0.0000000000000001
 21
1.0
 31
0.0
 73
     1
 44
1.0
1001
ACAD
1000
MTEXTBEGIN
1070
    73
1070
     1
1070
    44
1040
1.0
1070
    74
1070
     0
1000
MTEXTEND
  0
POINT
  5
649
330
20E
100
AcDbEntity
  8
Defpoints
 62
     0
100
AcDbPoint
 10
71.0
 20
-31.5
 30
0.0
  0
POINT
  5
64A
330
20E
100
AcDbEntity
  8
Defpoints
 62
     0
100
AcDbPoint
 10
71.0
 20
31.49999999999997
 30
0.0
  0
POINT
  5
64B
330
20E
100
AcDbEntity
  8
Defpoints
 62
     0
100
AcDbPoint
 10
83.08759702454507
 20
31.49999999999997
 30
0.0
  0
ENDBLK
  5
241
330
20E
100
AcDbEntity
  8
0
  6
ByBlock
 62
     0
100
AcDbBlockEnd
  0
BLOCK
  5
242
330
20F
100
AcDbEntity
  8
SK2
  6
Continuous
 62
     7
100
AcDbBlockBegin
  2
*D6
 70
     1
 10
0.0
 20
0.0
 30
0.0
  3
*D6
  1

  0
LINE
  5
625
330
20F
100
AcDbEntity
  8
SK2
370
    -2
100
AcDbLine
 10
-1.625
 20
-30.0
 30
0.0
 11
-14.62500000000001
 21
-30.0
 31
0.0
  0
LINE
  5
626
330
20F
100
AcDbEntity
  8
SK2
370
    -2
100
AcDbLine
 10
-1.625
 20
29.99999999999997
 30
0.0
 11
-14.62499999999999
 21
29.99999999999998
 31
0.0
  0
LINE
  5
627
330
20F
100
AcDbEntity
  8
SK2
370
    -2
100
AcDbLine
 10
-12.625
 20
-26.5
 30
0.0
 11
-12.62499999999999
 21
26.49999999999998
 31
0.0
  0
SOLID
  5
628
330
20F
100
AcDbEntity
  8
SK2
100
AcDbTrace
 10
-13.20833333333334
 20
-26.5
 30
0.0
 11
-12.04166666666667
 21
-26.5
 31
0.0
 12
-12.62500000000001
 22
-30.0
 32
0.0
 13
-12.62500000000001
 23
-30.0
 33
0.0
  0
SOLID
  5
629
330
20F
100
AcDbEntity
  8
SK2
100
AcDbTrace
 10
-13.20833333333333
 20
26.49999999999998
 30
0.0
 11
-12.04166666666666
 21
26.49999999999998
 31
0.0
 12
-12.62499999999999
 22
29.99999999999998
 32
0.0
 13
-12.62499999999999
 23
29.99999999999998
 33
0.0
  0
MTEXT
  5
62A
330
20F
100
AcDbEntity
  8
SK2
100
AcDbMText
 10
-15.0
 20
-0.0000000000999873
 30
0.0
 40
3.5
 41
0.0
 71
     5
 72
     1
  1
%%c60
 11
0.0000000000000001
 21
1.0
 31
0.0
 73
     1
 44
1.0
1001
ACAD
1000
MTEXTBEGIN
1070
    73
1070
     1
1070
    44
1040
1.0
1070
    74
1070
     0
1000
MTEXTEND
  0
POINT
  5
62B
330
20F
100
AcDbEntity
  8
Defpoints
 62
     0
100
AcDbPoint
 10
-1.0
 20
-30.0
 30
0.0
  0
POINT
  5
62C
330
20F
100
AcDbEntity
  8
Defpoints
 62
     0
100
AcDbPoint
 10
-1.0
 20
29.99999999999997
 30
0.0
  0
POINT
  5
62D
330
20F
100
AcDbEntity
  8
Defpoints
 62
     0
100
AcDbPoint
 10
-12.62499999999999
 20
29.99999999999998
 30
0.0
  0
ENDBLK
  5
24B
330
20F
100
AcDbEntity
  8
0
  6
ByBlock
 62
     0
100
AcDbBlockEnd
  0
BLOCK
  5
24C
330
210
100
AcDbEntity
  8
1
  6
Continuous
 62
     3
100
AcDbBlockBegin
  2
NULLPUNKT_BL0
 70
     0
 10
172.2532699168
 20
142.0077288942
 30
0.0
  3
NULLPUNKT_BL0
  1

  0
LINE
  5
24D
330
210
100
AcDbEntity
  8
1
  6
Continuous
 62
     4
100
AcDbLine
 10
172.2532699168
 20
142.0077288942
 30
0.0
 11
173.7532669168
 21
142.0077288942
 31
0.0
  0
ARC
  5
24E
330
210
100
AcDbEntity
  8
1
  6
Continuous
 62
     4
100
AcDbCircle
 10
172.2532699168
 20
142.0077288942
 30
0.0
 40
1.499997
100
AcDbArc
 50
180.0
 51
270.0
  0
LINE
  5
24F
330
210
100
AcDbEntity
  8
1
  6
Continuous
 62
     4
100
AcDbLine
 10
172.2532699168
 20
142.0077288942
 30
0.0
 11
172.2532699168
 21
140.5077318942
 31
0.0
  0
ARC
  5
250
330
210
100
AcDbEntity
  8
1
  6
Continuous
 62
     4
100
AcDbCircle
 10
172.2532699168
 20
142.0077288942
 30
0.0
 40
1.499997
100
AcDbArc
 50
270.0
 51
360.0
  0
ARC
  5
251
330
210
100
AcDbEntity
  8
1
  6
Continuous
 62
     4
100
AcDbCircle
 10
172.2532699168
 20
142.0077288942
 30
0.0
 40
1.499997
100
AcDbArc
 50
0.0
 51
90.0
  0
ARC
  5
252
330
210
100
AcDbEntity
  8
1
  6
Continuous
 62
     4
100
AcDbCircle
 10
172.2532699168
 20
142.0077288942
 30
0.0
 40
1.499997
100
AcDbArc
 50
90.0
 51
180.0
  0
LINE
  5
253
330
210
100
AcDbEntity
  8
1
  6
Continuous
 62
     4
100
AcDbLine
 10
172.2532699168
 20
143.5077258942
 30
0.0
 11
172.2532699168
 21
142.0077288942
 31
0.0
  0
LINE
  5
254
330
210
100
AcDbEntity
  8
1
  6
Continuous
 62
     4
100
AcDbLine
 10
170.7532729168
 20
142.0077288942
 30
0.0
 11
172.2532699168
 21
142.0077288942
 31
0.0
  0
LWPOLYLINE
  5
255
330
210
100
AcDbEntity
  8
1
  6
Continuous
 62
     4
100
AcDbPolyline
 90
       18
 70
     0
 43
0.0
 10
172.2532699168
 20
142.0077288942
 10
170.7532729168
 20
142.0077288942
 10
170.7614900573
 20
142.1645212755
 10
170.7860514501
 20
142.3195958067
 10
170.8266879955
 20
142.4712534587
 10
170.882954471
 20
142.6178326386
 10
170.9542344092
 20
142.7577273942
 10
171.0397468523
 20
142.8894050093
 10
171.138554908
 20
143.0114227963
 10
171.2495760147
 20
143.122443903
 10
171.3715938017
 20
143.2212519587
 10
171.5032714168
 20
143.3067644018
 10
171.6431661724
 20
143.37804434
 10
171.7897453523
 20
143.4343108155
 10
171.9414030043
 20
143.4749473609
 10
172.0964775355
 20
143.4995087537
 10
172.2532699168
 20
143.5077258942
 10
172.2532699168
 20
142.0077288942
  0
HATCH
  5
256
330
210
100
AcDbEntity
  8
1
  6
Continuous
 62
     4
100
AcDbHatch
 10
0.0
 20
0.0
 30
0.0
210
0.0
220
0.0
230
1.0
  2
SOLID
 70
     1
 71
     1
 91
        1
 92
        1
 93
       17
 72
     1
 10
172.2532699168
 20
142.0077288942
 11
170.7532729168
 21
142.0077288942
 72
     1
 10
170.7532729168
 20
142.0077288942
 11
170.7614900573
 21
142.1645212755
 72
     1
 10
170.7614900573
 20
142.1645212755
 11
170.7860514501
 21
142.3195958067
 72
     1
 10
170.7860514501
 20
142.3195958067
 11
170.8266879955
 21
142.4712534587
 72
     1
 10
170.8266879955
 20
142.4712534587
 11
170.882954471
 21
142.6178326386
 72
     1
 10
170.882954471
 20
142.6178326386
 11
170.9542344092
 21
142.7577273942
 72
     1
 10
170.9542344092
 20
142.7577273942
 11
171.0397468523
 21
142.8894050093
 72
     1
 10
171.0397468523
 20
142.8894050093
 11
171.138554908
 21
143.0114227963
 72
     1
 10
171.138554908
 20
143.0114227963
 11
171.2495760147
 21
143.122443903
 72
     1
 10
171.2495760147
 20
143.122443903
 11
171.3715938017
 21
143.2212519587
 72
     1
 10
171.3715938017
 20
143.2212519587
 11
171.5032714168
 21
143.3067644018
 72
     1
 10
171.5032714168
 20
143.3067644018
 11
171.6431661724
 21
143.37804434
 72
     1
 10
171.6431661724
 20
143.37804434
 11
171.7897453523
 21
143.4343108155
 72
     1
 10
171.7897453523
 20
143.4343108155
 11
171.9414030043
 21
143.4749473609
 72
     1
 10
171.9414030043
 20
143.4749473609
 11
172.0964775355
 21
143.4995087537
 72
     1
 10
172.0964775355
 20
143.4995087537
 11
172.2532699168
 21
143.5077258942
 72
     1
 10
172.2532699168
 20
143.5077258942
 11
172.2532699168
 21
142.0077288942
 97
        1
330
255
 75
     0
 76
     1
 98
        1
 10
0.0
 20
0.0
  0
LWPOLYLINE
  5
257
330
210
100
AcDbEntity
  8
1
  6
Continuous
 62
     4
100
AcDbPolyline
 90
       18
 70
     0
 43
0.0
 10
172.2532699168
 20
142.0077288942
 10
173.7532669168
 20
142.0077288942
 10
173.7450497763
 20
141.8509365129
 10
173.7204883835
 20
141.6958619817
 10
173.6798518381
 20
141.5442043297
 10
173.6235853626
 20
141.3976251498
 10
173.5523054244
 20
141.2577303942
 10
173.4667929813
 20
141.1260527791
 10
173.3679849256
 20
141.0040349921
 10
173.2569638189
 20
140.8930138854
 10
173.1349460319
 20
140.7942058297
 10
173.0032684168
 20
140.7086933866
 10
172.8633736612
 20
140.6374134484
 10
172.7167944813
 20
140.5811469729
 10
172.5651368293
 20
140.5405104275
 10
172.4100622981
 20
140.5159490347
 10
172.2532699168
 20
140.5077318942
 10
172.2532699168
 20
142.0077288942
  0
HATCH
  5
258
330
210
100
AcDbEntity
  8
1
  6
Continuous
 62
     4
100
AcDbHatch
 10
0.0
 20
0.0
 30
0.0
210
0.0
220
0.0
230
1.0
  2
SOLID
 70
     1
 71
     1
 91
        1
 92
        1
 93
       17
 72
     1
 10
172.2532699168
 20
142.0077288942
 11
173.7532669168
 21
142.0077288942
 72
     1
 10
173.7532669168
 20
142.0077288942
 11
173.7450497763
 21
141.8509365129
 72
     1
 10
173.7450497763
 20
141.8509365129
 11
173.7204883835
 21
141.6958619817
 72
     1
 10
173.7204883835
 20
141.6958619817
 11
173.6798518381
 21
141.5442043297
 72
     1
 10
173.6798518381
 20
141.5442043297
 11
173.6235853626
 21
141.3976251498
 72
     1
 10
173.6235853626
 20
141.3976251498
 11
173.5523054244
 21
141.2577303942
 72
     1
 10
173.5523054244
 20
141.2577303942
 11
173.4667929813
 21
141.1260527791
 72
     1
 10
173.4667929813
 20
141.1260527791
 11
173.3679849256
 21
141.0040349921
 72
     1
 10
173.3679849256
 20
141.0040349921
 11
173.2569638189
 21
140.8930138854
 72
     1
 10
173.2569638189
 20
140.8930138854
 11
173.1349460319
 21
140.7942058297
 72
     1
 10
173.1349460319
 20
140.7942058297
 11
173.0032684168
 21
140.7086933866
 72
     1
 10
173.0032684168
 20
140.7086933866
 11
172.8633736612
 21
140.6374134484
 72
     1
 10
172.8633736612
 20
140.6374134484
 11
172.7167944813
 21
140.5811469729
 72
     1
 10
172.7167944813
 20
140.5811469729
 11
172.5651368293
 21
140.5405104275
 72
     1
 10
172.5651368293
 20
140.5405104275
 11
172.4100622981
 21
140.5159490347
 72
     1
 10
172.4100622981
 20
140.5159490347
 11
172.2532699168
 21
140.5077318942
 72
     1
 10
172.2532699168
 20
140.5077318942
 11
172.2532699168
 21
142.0077288942
 97
        1
330
257
 75
     0
 76
     1
 98
        1
 10
0.0
 20
0.0
  0
LINE
  5
259
330
210
100
AcDbEntity
  8
1
  6
Continuous
 62
     4
100
AcDbLine
 10
172.2532699168
 20
140.5077318942
 30
0.0
 11
172.2532699168
 21
142.0077288942
 31
0.0
  0
ARC
  5
25A
330
210
100
AcDbEntity
  8
1
  6
Continuous
 62
     4
100
AcDbCircle
 10
172.2532699168
 20
142.0077288942
 30
0.0
 40
1.499997
100
AcDbArc
 50
270.0
 51
360.0
  0
LINE
  5
25B
330
210
100
AcDbEntity
  8
1
  6
Continuous
 62
     4
100
AcDbLine
 10
173.7532669168
 20
142.0077288942
 30
0.0
 11
172.2532699168
 21
142.0077288942
 31
0.0
  0
ENDBLK
  5
25C
330
210
100
AcDbEntity
  8
0
  6
ByBlock
 62
     0
100
AcDbBlockEnd
  0
BLOCK
  5
25D
330
211
100
AcDbEntity
  8
1
  6
Continuous
 62
     3
100
AcDbBlockBegin
  2
EINFUEGEPUNKT_BL1
 70
     0
 10
214.2532699168
 20
142.0077288942
 30
0.0
  3
EINFUEGEPUNKT_BL1
  1

  0
LINE
  5
25E
330
211
100
AcDbEntity
  8
1
  6
Continuous
 62
     4
100
AcDbLine
 10
214.2532699168
 20
142.0077288942
 30
0.0
 11
214.2532699168
 21
141.5077298942
 31
0.0
  0
ARC
  5
25F
330
211
100
AcDbEntity
  8
1
  6
Continuous
 62
     4
100
AcDbCircle
 10
214.2532699168
 20
142.0077288942
 30
0.0
 40
0.4999990000000001
100
AcDbArc
 50
90.0
 51
180.0
  0
LINE
  5
260
330
211
100
AcDbEntity
  8
1
  6
Continuous
 62
     4
100
AcDbLine
 10
214.2532699168
 20
142.0077288942
 30
0.0
 11
213.7532709168
 21
142.0077288942
 31
0.0
  0
ARC
  5
261
330
211
100
AcDbEntity
  8
1
  6
Continuous
 62
     4
100
AcDbCircle
 10
214.2532699168
 20
142.0077288942
 30
0.0
 40
0.4999990000000001
100
AcDbArc
 50
180.0
 51
270.0
  0
ARC
  5
262
330
211
100
AcDbEntity
  8
1
  6
Continuous
 62
     4
100
AcDbCircle
 10
214.2532699168
 20
142.0077288942
 30
0.0
 40
0.4999990000000001
100
AcDbArc
 50
270.0
 51
360.0
  0
ARC
  5
263
330
211
100
AcDbEntity
  8
1
  6
Continuous
 62
     4
100
AcDbCircle
 10
214.2532699168
 20
142.0077288942
 30
0.0
 40
0.4999990000000001
100
AcDbArc
 50
0.0
 51
90.0
  0
LINE
  5
264
330
211
100
AcDbEntity
  8
1
  6
Continuous
 62
     4
100
AcDbLine
 10
214.7532689168
 20
142.0077288942
 30
0.0
 11
214.2532699168
 21
142.0077288942
 31
0.0
  0
LINE
  5
265
330
211
100
AcDbEntity
  8
1
  6
Continuous
 62
     4
100
AcDbLine
 10
214.2532699168
 20
142.5077278942
 30
0.0
 11
214.2532699168
 21
142.0077288942
 31
0.0
  0
LWPOLYLINE
  5
266
330
211
100
AcDbEntity
  8
1
  6
Continuous
 62
     4
100
AcDbPolyline
 90
       18
 70
     0
 43
0.0
 10
214.2532699168
 20
142.0077288942
 10
214.2532699168
 20
142.5077278942
 10
214.3055340439
 20
142.5049888474
 10
214.3572255543
 20
142.4968017164
 10
214.407778105
 20
142.4832562013
 10
214.4566378316
 20
142.4645007095
 10
214.5032694168
 20
142.4407407301
 10
214.5471619552
 20
142.4122365824
 10
214.5878345508
 20
142.3793005638
 10
214.6248415864
 20
142.3422935282
 10
214.657777605
 20
142.3016209326
 10
214.6862817527
 20
142.2577283942
 10
214.7100417321
 20
142.211096809
 10
214.7287972239
 20
142.1622370824
 10
214.742342739
 20
142.1116845317
 10
214.75052987
 20
142.0599930213
 10
214.7532689168
 20
142.0077288942
 10
214.2532699168
 20
142.0077288942
  0
HATCH
  5
267
330
211
100
AcDbEntity
  8
1
  6
Continuous
 62
     4
100
AcDbHatch
 10
0.0
 20
0.0
 30
0.0
210
0.0
220
0.0
230
1.0
  2
SOLID
 70
     1
 71
     1
 91
        1
 92
        1
 93
       17
 72
     1
 10
214.2532699168
 20
142.0077288942
 11
214.2532699168
 21
142.5077278942
 72
     1
 10
214.2532699168
 20
142.5077278942
 11
214.3055340439
 21
142.5049888474
 72
     1
 10
214.3055340439
 20
142.5049888474
 11
214.3572255543
 21
142.4968017164
 72
     1
 10
214.3572255543
 20
142.4968017164
 11
214.407778105
 21
142.4832562013
 72
     1
 10
214.407778105
 20
142.4832562013
 11
214.4566378316
 21
142.4645007095
 72
     1
 10
214.4566378316
 20
142.4645007095
 11
214.5032694168
 21
142.4407407301
 72
     1
 10
214.5032694168
 20
142.4407407301
 11
214.5471619552
 21
142.4122365824
 72
     1
 10
214.5471619552
 20
142.4122365824
 11
214.5878345508
 21
142.3793005638
 72
     1
 10
214.5878345508
 20
142.3793005638
 11
214.6248415864
 21
142.3422935282
 72
     1
 10
214.6248415864
 20
142.3422935282
 11
214.657777605
 21
142.3016209326
 72
     1
 10
214.657777605
 20
142.3016209326
 11
214.6862817527
 21
142.2577283942
 72
     1
 10
214.6862817527
 20
142.2577283942
 11
214.7100417321
 21
142.211096809
 72
     1
 10
214.7100417321
 20
142.211096809
 11
214.7287972239
 21
142.1622370824
 72
     1
 10
214.7287972239
 20
142.1622370824
 11
214.742342739
 21
142.1116845317
 72
     1
 10
214.742342739
 20
142.1116845317
 11
214.75052987
 21
142.0599930213
 72
     1
 10
214.75052987
 20
142.0599930213
 11
214.7532689168
 21
142.0077288942
 72
     1
 10
214.7532689168
 20
142.0077288942
 11
214.2532699168
 21
142.0077288942
 97
        1
330
266
 75
     0
 76
     1
 98
        1
 10
0.0
 20
0.0
  0
LWPOLYLINE
  5
268
330
211
100
AcDbEntity
  8
1
  6
Continuous
 62
     4
100
AcDbPolyline
 90
       18
 70
     0
 43
0.0
 10
214.2532699168
 20
142.0077288942
 10
214.2532699168
 20
141.5077298942
 10
214.2010057897
 20
141.510468941
 10
214.1493142793
 20
141.518656072
 10
214.0987617286
 20
141.5322015871
 10
214.049902002
 20
141.5509570789
 10
214.0032704168
 20
141.5747170583
 10
213.9593778784
 20
141.603221206
 10
213.9187052828
 20
141.6361572246
 10
213.8816982472
 20
141.6731642602
 10
213.8487622286
 20
141.7138368558
 10
213.8202580809
 20
141.7577293942
 10
213.7964981015
 20
141.8043609794
 10
213.7777426097
 20
141.853220706
 10
213.7641970946
 20
141.9037732567
 10
213.7560099636
 20
141.9554647671
 10
213.7532709168
 20
142.0077288942
 10
214.2532699168
 20
142.0077288942
  0
HATCH
  5
269
330
211
100
AcDbEntity
  8
1
  6
Continuous
 62
     4
100
AcDbHatch
 10
0.0
 20
0.0
 30
0.0
210
0.0
220
0.0
230
1.0
  2
SOLID
 70
     1
 71
     1
 91
        1
 92
        1
 93
       17
 72
     1
 10
214.2532699168
 20
142.0077288942
 11
214.2532699168
 21
141.5077298942
 72
     1
 10
214.2532699168
 20
141.5077298942
 11
214.2010057897
 21
141.510468941
 72
     1
 10
214.2010057897
 20
141.510468941
 11
214.1493142793
 21
141.518656072
 72
     1
 10
214.1493142793
 20
141.518656072
 11
214.0987617286
 21
141.5322015871
 72
     1
 10
214.0987617286
 20
141.5322015871
 11
214.049902002
 21
141.5509570789
 72
     1
 10
214.049902002
 20
141.5509570789
 11
214.0032704168
 21
141.5747170583
 72
     1
 10
214.0032704168
 20
141.5747170583
 11
213.9593778784
 21
141.603221206
 72
     1
 10
213.9593778784
 20
141.603221206
 11
213.9187052828
 21
141.6361572246
 72
     1
 10
213.9187052828
 20
141.6361572246
 11
213.8816982472
 21
141.6731642602
 72
     1
 10
213.8816982472
 20
141.6731642602
 11
213.8487622286
 21
141.7138368558
 72
     1
 10
213.8487622286
 20
141.7138368558
 11
213.8202580809
 21
141.7577293942
 72
     1
 10
213.8202580809
 20
141.7577293942
 11
213.7964981015
 21
141.8043609794
 72
     1
 10
213.7964981015
 20
141.8043609794
 11
213.7777426097
 21
141.853220706
 72
     1
 10
213.7777426097
 20
141.853220706
 11
213.7641970946
 21
141.9037732567
 72
     1
 10
213.7641970946
 20
141.9037732567
 11
213.7560099636
 21
141.9554647671
 72
     1
 10
213.7560099636
 20
141.9554647671
 11
213.7532709168
 21
142.0077288942
 72
     1
 10
213.7532709168
 20
142.0077288942
 11
214.2532699168
 21
142.0077288942
 97
        1
330
268
 75
     0
 76
     1
 98
        1
 10
0.0
 20
0.0
  0
LINE
  5
26A
330
211
100
AcDbEntity
  8
1
  6
Continuous
 62
     4
100
AcDbLine
 10
213.7532709168
 20
142.0077288942
 30
0.0
 11
214.2532699168
 21
142.0077288942
 31
0.0
  0
ARC
  5
26B
330
211
100
AcDbEntity
  8
1
  6
Continuous
 62
     4
100
AcDbCircle
 10
214.2532699168
 20
142.0077288942
 30
0.0
 40
0.4999990000000001
100
AcDbArc
 50
180.0
 51
270.0
  0
LINE
  5
26C
330
211
100
AcDbEntity
  8
1
  6
Continuous
 62
     4
100
AcDbLine
 10
214.2532699168
 20
141.5077298942
 30
0.0
 11
214.2532699168
 21
142.0077288942
 31
0.0
  0
ENDBLK
  5
26D
330
211
100
AcDbEntity
  8
0
  6
ByBlock
 62
     0
100
AcDbBlockEnd
  0
ENDSEC
  0
SECTION
  2
ENTITIES
  0
DIMENSION
  5
271
330
1B
100
AcDbEntity
  8
SK2
100
AcDbDimension
  2
*D1
 10
-21.12499999999997
 20
122.5
 30
0.0
 11
-21.125
 21
-0.0000000000999876
 31
0.0
 70
   160
  1
%%c245
 71
     5
 42
245.0
  3
ISO-25
100
AcDbAlignedDimension
 13
-1.0
 23
-122.5
 33
0.0
 14
-1.0
 24
122.5
 34
0.0
 50
90.0
100
AcDbRotatedDimension
  0
DIMENSION
  5
272
330
1B
100
AcDbEntity
  8
2
100
AcDbDimension
  2
*D2
 10
42.0
 20
135.125
 30
0.0
 11
21.0
 21
135.125
 31
0.0
 70
   160
  1
42
 71
     5
 42
42.0
  3
ISO-25
100
AcDbAlignedDimension
 13
0.0
 23
123.5
 33
0.0
 14
42.0
 24
123.5
 34
0.0
100
AcDbRotatedDimension
  0
DIMENSION
  5
273
330
1B
100
AcDbEntity
  8
SK2
100
AcDbDimension
  2
*D3
 10
90.29182122887473
 20
49.99999999999996
 30
0.0
 11
90.29182122887471
 21
-0.0000000000999876
 31
0.0
 70
   160
  1
%%c100
 71
     5
 42
99.99999999999998
  3
ISO-25
100
AcDbAlignedDimension
 13
71.0
 23
-50.0
 33
0.0
 14
71.0
 24
49.99999999999997
 34
0.0
 50
90.0
100
AcDbRotatedDimension
  0
DIMENSION
  5
274
330
1B
100
AcDbEntity
  8
SK2
100
AcDbDimension
  2
*D4
 10
0.0000000000000012
 20
143.625
 30
0.0
 11
35.0
 21
143.625
 31
0.0
 70
   160
  1
70
 71
     5
 42
70.0
  3
ISO-25
100
AcDbAlignedDimension
 13
70.0
 23
51.4922711058
 33
0.0
 14
0.0
 24
123.4922711058
 34
0.0
 50
180.0
100
AcDbRotatedDimension
  0
DIMENSION
  5
275
330
1B
100
AcDbEntity
  8
SK2
100
AcDbDimension
  2
*D5
 10
83.08759702454507
 20
31.49999999999997
 30
0.0
 11
83.08759702454507
 21
-0.0000000000999876
 31
0.0
 70
   160
  1
%%c63
 71
     5
 42
62.99999999999997
  3
ISO-25
100
AcDbAlignedDimension
 13
71.0
 23
-31.5
 33
0.0
 14
71.0
 24
31.49999999999997
 34
0.0
 50
90.0
100
AcDbRotatedDimension
  0
DIMENSION
  5
276
330
1B
100
AcDbEntity
  8
SK2
100
AcDbDimension
  2
*D6
 10
-12.62499999999999
 20
29.99999999999998
 30
0.0
 11
-12.625
 21
-0.0000000000999876
 31
0.0
 70
   160
  1
%%c60
 71
     5
 42
59.99999999999997
  3
ISO-25
100
AcDbAlignedDimension
 13
-1.0
 23
-30.0
 33
0.0
 14
-1.0
 24
29.99999999999997
 34
0.0
 50
90.0
100
AcDbRotatedDimension
  0
TEXT
  5
277
330
1B
100
AcDbEntity
  8
6
100
AcDbText
 10
68.21104046673152
 20
-116.4648199868321
 30
0.0
 40
5.0
  1
FBD60BAJ100GA245
 41
0.8
 72
     1
 11
91.89388317920615
 21
-116.4648199868321
 31
0.0
100
AcDbText
  0
INSERT
  5
278
330
1B
100
AcDbEntity
  8
1
100
AcDbBlockReference
  2
NULLPUNKT_BL0
 10
0.0
 20
0.0
 30
0.0
  0
INSERT
  5
279
330
1B
100
AcDbEntity
  8
1
100
AcDbBlockReference
  2
EINFUEGEPUNKT_BL1
 10
42.0
 20
0.0
 30
0.0
  0
LINE
  5
27A
330
1B
100
AcDbEntity
  8
1
100
AcDbLine
 10
40.4
 20
-122.5
 30
0.0
 11
1.599999999999994
 21
-122.5
 31
0.0
  0
LINE
  5
27B
330
1B
100
AcDbEntity
  8
SK1
100
AcDbLine
 10
70.0
 20
-50.0
 30
0.0
 11
42.0
 21
-50.0
 31
0.0
  0
LINE
  5
27C
330
1B
100
AcDbEntity
  8
NOCUT
100
AcDbLine
 10
0.0
 20
120.9
 30
0.0
 11
0.0
 21
0.0
 31
0.0
  0
LINE
  5
27D
330
1B
100
AcDbEntity
  8
1
100
AcDbLine
 10
0.0
 20
120.9
 30
0.0
 11
0.0
 21
-120.9
 31
0.0
  0
LINE
  5
27E
330
1B
100
AcDbEntity
  8
SK3
100
AcDbLine
 10
70.0
 20
-31.5
 30
0.0
 11
32.0
 21
-31.5
 31
0.0
  0
LINE
  5
27F
330
1B
100
AcDbEntity
  8
SK3
100
AcDbLine
 10
32.0
 20
-30.0
 30
0.0
 11
0.0
 21
-30.0
 31
0.0
  0
LINE
  5
280
330
1B
100
AcDbEntity
  8
SK3
100
AcDbLine
 10
32.0
 20
31.49999999999997
 30
0.0
 11
32.0
 21
-31.5
 31
0.0
  0
LINE
  5
281
330
1B
100
AcDbEntity
  8
NOCUT
100
AcDbLine
 10
42.0
 20
0.0
 30
0.0
 11
0.0
 21
0.0
 31
0.0
  0
LINE
  5
282
330
1B
100
AcDbEntity
  8
4
100
AcDbLine
 10
73.0
 20
0.0
 30
0.0
 11
-3.0
 21
0.0
 31
0.0
  0
LINE
  5
283
330
1B
100
AcDbEntity
  8
NOCUT
100
AcDbLine
 10
42.0
 20
120.9
 30
0.0
 11
42.0
 21
0.0
 31
0.0
  0
LINE
  5
284
330
1B
100
AcDbEntity
  8
1
100
AcDbLine
 10
42.0
 20
120.9
 30
0.0
 11
42.0
 21
-120.9
 31
0.0
  0
LINE
  5
285
330
1B
100
AcDbEntity
  8
SK3
100
AcDbLine
 10
32.0
 20
29.99999999999997
 30
0.0
 11
0.0
 21
29.99999999999997
 31
0.0
  0
LINE
  5
286
330
1B
100
AcDbEntity
  8
SK3
100
AcDbLine
 10
70.0
 20
31.49999999999997
 30
0.0
 11
32.0
 21
31.49999999999997
 31
0.0
  0
LINE
  5
287
330
1B
100
AcDbEntity
  8
SK1
100
AcDbLine
 10
70.0
 20
49.99999999999997
 30
0.0
 11
70.0
 21
-50.0
 31
0.0
  0
LINE
  5
288
330
1B
100
AcDbEntity
  8
SK1
100
AcDbLine
 10
70.0
 20
49.99999999999997
 30
0.0
 11
42.0
 21
49.99999999999997
 31
0.0
  0
LINE
  5
289
330
1B
100
AcDbEntity
  8
NOCUT
100
AcDbLine
 10
40.4
 20
122.5
 30
0.0
 11
1.599999999999994
 21
122.5
 31
0.0
  0
LINE
  5
28A
330
1B
100
AcDbEntity
  8
1
100
AcDbLine
 10
40.4
 20
122.5
 30
0.0
 11
1.599999999999994
 21
122.5
 31
0.0
  0
ARC
  5
28B
330
1B
100
AcDbEntity
  8
NOCUT
100
AcDbCircle
 10
40.4
 20
120.9
 30
0.0
 40
1.6
100
AcDbArc
 50
0.0
 51
90.0
  0
ARC
  5
28C
330
1B
100
AcDbEntity
  8
NOCUT
100
AcDbCircle
 10
1.599999999999994
 20
120.9
 30
0.0
 40
1.6
100
AcDbArc
 50
90.0
 51
180.0
  0
ARC
  5
28D
330
1B
100
AcDbEntity
  8
1
100
AcDbCircle
 10
40.4
 20
-120.9
 30
0.0
 40
1.6
100
AcDbArc
 50
270.0
 51
0.0
  0
ARC
  5
28E
330
1B
100
AcDbEntity
  8
1
100
AcDbCircle
 10
40.4
 20
120.9
 30
0.0
 40
1.6
100
AcDbArc
 50
0.0
 51
90.0
  0
ARC
  5
28F
330
1B
100
AcDbEntity
  8
1
100
AcDbCircle
 10
1.599999999999994
 20
-120.9
 30
0.0
 40
1.6
100
AcDbArc
 50
180.0
 51
270.0
  0
ARC
  5
290
330
1B
100
AcDbEntity
  8
1
100
AcDbCircle
 10
1.599999999999994
 20
120.9
 30
0.0
 40
1.6
100
AcDbArc
 50
90.0
 51
180.0
  0
ENDSEC
  0
SECTION
  2
OBJECTS
  0
DICTIONARY
  5
291
330
0
100
AcDbDictionary
281
     1
  3
ACAD_COLOR
350
29B
  3
ACAD_GROUP
350
292
  3
ACAD_LAYOUT
350
29E
  3
ACAD_MATERIAL
350
29A
  3
ACAD_MLINESTYLE
350
293
  3
ACAD_PLOTSETTINGS
350
29F
  3
ACAD_PLOTSTYLENAME
350
298
  3
ACAD_TABLESTYLE
350
29C
  3
ACDBHEADERROUNDTRIPXREC
350
653
  3
AcDbVariableDictionary
350
630
  0
DICTIONARY
  5
2A3
330
2
100
AcDbDictionary
280
     1
281
     1
  3
ACAD_LAYERFILTERS
360
62F
  3
ACLYDICTIONARY
360
62E
  0
DICTIONARY
  5
29B
102
{ACAD_REACTORS
330
291
102
}
330
291
100
AcDbDictionary
281
     1
  0
DICTIONARY
  5
292
102
{ACAD_REACTORS
330
291
102
}
330
291
100
AcDbDictionary
281
     1
  0
DICTIONARY
  5
29E
102
{ACAD_REACTORS
330
291
102
}
330
291
100
AcDbDictionary
281
     1
  3
Layout1
350
2A1
  3
Model
350
2A0
  0
DICTIONARY
  5
29A
102
{ACAD_REACTORS
330
291
102
}
330
291
100
AcDbDictionary
281
     1
  0
DICTIONARY
  5
293
102
{ACAD_REACTORS
330
291
102
}
330
291
100
AcDbDictionary
281
     1
  3
STANDARD
350
294
  0
DICTIONARY
  5
29F
102
{ACAD_REACTORS
330
291
102
}
330
291
100
AcDbDictionary
281
     1
  0
ACDBDICTIONARYWDFLT
  5
298
102
{ACAD_REACTORS
330
291
102
}
330
291
100
AcDbDictionary
281
     1
  3
Normal
350
299
100
AcDbDictionaryWithDefault
340
299
  0
DICTIONARY
  5
29C
102
{ACAD_REACTORS
330
291
102
}
330
291
100
AcDbDictionary
281
     1
  3
Standard
350
29D
  0
DICTIONARY
  5
653
102
{ACAD_REACTORS
330
291
102
}
330
291
100
AcDbDictionary
281
     1
  0
DICTIONARY
  5
630
102
{ACAD_REACTORS
330
291
102
}
330
291
100
AcDbDictionary
281
     1
  3
CTABLESTYLE
350
631
  3
DIMASSOC
350
632
  3
PROJECTNAME
350
633
  0
DICTIONARY
  5
62F
102
{ACAD_REACTORS
330
2A3
102
}
330
2A3
100
AcDbDictionary
281
     1
  0
DICTIONARY
  5
62E
102
{ACAD_REACTORS
330
2A3
102
}
330
2A3
100
AcDbDictionary
281
     1
1001
ACAD
1000
<All
  0
LAYOUT
  5
2A1
102
{ACAD_XDICTIONARY
360
656
102
}
102
{ACAD_REACTORS
330
29E
102
}
330
29E
100
AcDbPlotSettings
  1

  2
\\ingdom02\ITB3
  4

  6

 40
0.0
 41
0.0
 42
0.0
 43
0.0
 44
0.0
 45
0.0
 46
0.0
 47
0.0
 48
0.0
 49
0.0
140
0.0
141
0.0
142
1.0
143
1.0
 70
   688
 72
     0
 73
     0
 74
     5
  7

 75
    16
147
1.0
148
0.0
149
0.0
100
AcDbLayout
  1
Layout1
 70
     1
 71
     1
 10
0.0
 20
0.0
 11
12.0
 21
9.0
 12
0.0
 22
0.0
 32
0.0
 14
1.000000000000000E+20
 24
1.000000000000000E+20
 34
1.000000000000000E+20
 15
-1.000000000000000E+20
 25
-1.000000000000000E+20
 35
-1.000000000000000E+20
146
0.0
 13
0.0
 23
0.0
 33
0.0
 16
1.0
 26
0.0
 36
0.0
 17
0.0
 27
1.0
 37
0.0
 76
     0
330
1C
  0
LAYOUT
  5
2A0
102
{ACAD_XDICTIONARY
360
654
102
}
102
{ACAD_REACTORS
330
29E
102
}
330
29E
100
AcDbPlotSettings
  1

  2
\\ingdom02\ITB3
  4

  6

 40
0.0
 41
0.0
 42
0.0
 43
0.0
 44
0.0
 45
0.0
 46
0.0
 47
0.0
 48
0.0
 49
0.0
140
0.0
141
0.0
142
1.0
143
1.0
 70
  1712
 72
     0
 73
     0
 74
     0
  7

 75
     0
147
1.0
148
0.0
149
0.0
100
AcDbLayout
  1
Model
 70
     1
 71
     0
 10
0.0
 20
0.0
 11
12.0
 21
9.0
 12
0.0
 22
0.0
 32
0.0
 14
0.0
 24
0.0
 34
0.0
 15
0.0
 25
0.0
 35
0.0
146
0.0
 13
0.0
 23
0.0
 33
0.0
 16
1.0
 26
0.0
 36
0.0
 17
0.0
 27
1.0
 37
0.0
 76
     0
330
1B
  0
MLINESTYLE
  5
294
102
{ACAD_REACTORS
330
293
102
}
330
293
100
AcDbMlineStyle
  2
STANDARD
 70
     0
  3

 62
   256
 51
90.0
 52
90.0
 71
     2
 49
0.5
 62
   256
  6
BYLAYER
 49
-0.5
 62
   256
  6
BYLAYER
  0
ACDBPLACEHOLDER
  5
299
102
{ACAD_REACTORS
330
298
102
}
330
298
  0
TABLESTYLE
  5
29D
102
{ACAD_REACTORS
330
29C
102
}
330
29C
100
AcDbTableStyle
  3
Standard
 70
     0
 71
     0
 40
1.5
 41
1.5
280
     0
281
     0
  7
STANDARD
140
4.5
170
     2
 62
     0
 63
     7
283
     0
274
    -2
284
     1
 64
     0
275
    -2
285
     1
 65
     0
276
    -2
286
     1
 66
     0
277
    -2
287
     1
 67
     0
278
    -2
288
     1
 68
     0
279
    -2
289
     1
 69
     0
  7
STANDARD
140
6.0
170
     5
 62
     0
 63
     7
283
     0
274
    -2
284
     1
 64
     0
275
    -2
285
     1
 65
     0
276
    -2
286
     1
 66
     0
277
    -2
287
     1
 67
     0
278
    -2
288
     1
 68
     0
279
    -2
289
     1
 69
     0
  7
STANDARD
140
4.5
170
     5
 62
     0
 63
     7
283
     0
274
    -2
284
     1
 64
     0
275
    -2
285
     1
 65
     0
276
    -2
286
     1
 66
     0
277
    -2
287
     1
 67
     0
278
    -2
288
     1
 68
     0
279
    -2
289
     1
 69
     0
  0
DICTIONARYVAR
  5
631
102
{ACAD_REACTORS
330
630
102
}
330
630
100
DictionaryVariables
280
     0
  1
STANDARD
  0
DICTIONARYVAR
  5
632
102
{ACAD_REACTORS
330
630
102
}
330
630
100
DictionaryVariables
280
     0
  1
1
  0
DICTIONARYVAR
  5
633
102
{ACAD_REACTORS
330
630
102
}
330
630
100
DictionaryVariables
280
     0
  1

  0
DICTIONARY
  5
656
330
2A1
100
AcDbDictionary
280
     1
281
     1
  3
ACAD_XREC_ROUNDTRIP
360
657
  0
DICTIONARY
  5
654
330
2A0
100
AcDbDictionary
280
     1
281
     1
  3
ACAD_XREC_ROUNDTRIP
360
655
  0
XRECORD
  5
657
102
{ACAD_REACTORS
330
656
102
}
330
656
100
AcDbXrecord
280
     1
102
SHADEPLOT
 70
     0
102
SHADEPLOTRESLEVEL
 70
     2
102
SHADEPLOTCUSTOMDPI
 70
   300
  0
XRECORD
  5
655
102
{ACAD_REACTORS
330
654
102
}
330
654
100
AcDbXrecord
280
     1
102
SHADEPLOT
 70
     0
102
SHADEPLOTRESLEVEL
 70
     2
102
SHADEPLOTCUSTOMDPI
 70
   300
  0
ENDSEC
  0
EOF
