  0
SECTION
  2
HEADER
  9
$ACADVER
  1
AC1015
  9
$ACADMAINTVER
 70
    20
  9
$DWGCODEPAGE
  3
ANSI_1252
  9
$INSBASE
 10
0.0
 20
0.0
 30
0.0
  9
$EXTMIN
 10
-25.30596730963566
 20
-257.6090687411012
 30
-0.0015258207003583
  9
$EXTMAX
 10
110.3992168058166
 20
269.9447947069359
 30
0.0000000349246037
  9
$LIMMIN
 10
0.0
 20
0.0
  9
$LIMMAX
 10
841.0
 20
594.0
  9
$ORTHOMODE
 70
     0
  9
$REGENMODE
 70
     1
  9
$FILLMODE
 70
     1
  9
$QTEXTMODE
 70
     0
  9
$MIRRTEXT
 70
     0
  9
$LTSCALE
 40
46.255
  9
$ATTMODE
 70
     1
  9
$TEXTSIZE
 40
0.2
  9
$TRACEWID
 40
0.05
  9
$TEXTSTYLE
  7
STANDARD
  9
$CLAYER
  8
0
  9
$CELTYPE
  6
BYLAYER
  9
$CECOLOR
 62
   256
  9
$CELTSCALE
 40
1.0
  9
$DISPSILH
 70
     0
  9
$DIMSCALE
 40
1.0
  9
$DIMASZ
 40
3.5
  9
$DIMEXO
 40
0.625
  9
$DIMDLI
 40
3.75
  9
$DIMRND
 40
0.0
  9
$DIMDLE
 40
0.0
  9
$DIMEXE
 40
2.0
  9
$DIMTP
 40
0.0
  9
$DIMTM
 40
0.0
  9
$DIMTXT
 40
3.5
  9
$DIMCEN
 40
2.5
  9
$DIMTSZ
 40
0.0
  9
$DIMTOL
 70
     0
  9
$DIMLIM
 70
     0
  9
$DIMTIH
 70
     0
  9
$DIMTOH
 70
     0
  9
$DIMSE1
 70
     0
  9
$DIMSE2
 70
     0
  9
$DIMTAD
 70
     1
  9
$DIMZIN
 70
     8
  9
$DIMBLK
  1

  9
$DIMASO
 70
     1
  9
$DIMSHO
 70
     1
  9
$DIMPOST
  1

  9
$DIMAPOST
  1

  9
$DIMALT
 70
     0
  9
$DIMALTD
 70
     3
  9
$DIMALTF
 40
0.03937007874016
  9
$DIMLFAC
 40
1.0
  9
$DIMTOFL
 70
     1
  9
$DIMTVP
 40
0.0
  9
$DIMTIX
 70
     0
  9
$DIMSOXD
 70
     0
  9
$DIMSAH
 70
     0
  9
$DIMBLK1
  1

  9
$DIMBLK2
  1

  9
$DIMSTYLE
  2
ISO-25
  9
$DIMCLRD
 70
   256
  9
$DIMCLRE
 70
   256
  9
$DIMCLRT
 70
   256
  9
$DIMTFAC
 40
1.0
  9
$DIMGAP
 40
0.625
  9
$DIMJUST
 70
     0
  9
$DIMSD1
 70
     0
  9
$DIMSD2
 70
     0
  9
$DIMTOLJ
 70
     0
  9
$DIMTZIN
 70
     8
  9
$DIMALTZ
 70
     0
  9
$DIMALTTZ
 70
     0
  9
$DIMUPT
 70
     0
  9
$DIMDEC
 70
     2
  9
$DIMTDEC
 70
     2
  9
$DIMALTU
 70
     2
  9
$DIMALTTD
 70
     3
  9
$DIMTXSTY
  7
STANDARD
  9
$DIMAUNIT
 70
     0
  9
$DIMADEC
 70
     0
  9
$DIMALTRND
 40
0.0
  9
$DIMAZIN
 70
     0
  9
$DIMDSEP
 70
    46
  9
$DIMATFIT
 70
     3
  9
$DIMFRAC
 70
     0
  9
$DIMLDRBLK
  1

  9
$DIMLUNIT
 70
     2
  9
$DIMLWD
 70
    -2
  9
$DIMLWE
 70
    -2
  9
$DIMTMOVE
 70
     0
  9
$LUNITS
 70
     2
  9
$LUPREC
 70
     4
  9
$SKETCHINC
 40
0.1
  9
$FILLETRAD
 40
0.0
  9
$AUNITS
 70
     0
  9
$AUPREC
 70
     0
  9
$MENU
  1
.
  9
$ELEVATION
 40
0.0
  9
$PELEVATION
 40
0.0
  9
$THICKNESS
 40
0.0
  9
$LIMCHECK
 70
     0
  9
$CHAMFERA
 40
0.0
  9
$CHAMFERB
 40
0.0
  9
$CHAMFERC
 40
0.0
  9
$CHAMFERD
 40
0.0
  9
$SKPOLY
 70
     0
  9
$TDCREATE
 40
2453791.364147789
  9
$TDUCREATE
 40
2453791.322481123
  9
$TDUPDATE
 40
2453791.371570694
  9
$TDUUPDATE
 40
2453791.329904028
  9
$TDINDWG
 40
0.0074230903
  9
$TDUSRTIMER
 40
0.0074230903
  9
$USRTIMER
 70
     1
  9
$ANGBASE
 50
0.0
  9
$ANGDIR
 70
     0
  9
$PDMODE
 70
     3
  9
$PDSIZE
 40
0.3125
  9
$PLINEWID
 40
0.0
  9
$SPLFRAME
 70
     0
  9
$SPLINETYPE
 70
     6
  9
$SPLINESEGS
 70
     8
  9
$HANDSEED
  5
AAB
  9
$SURFTAB1
 70
     6
  9
$SURFTAB2
 70
     6
  9
$SURFTYPE
 70
     6
  9
$SURFU
 70
     6
  9
$SURFV
 70
     6
  9
$UCSBASE
  2

  9
$UCSNAME
  2

  9
$UCSORG
 10
0.0
 20
0.0
 30
0.0
  9
$UCSXDIR
 10
1.0
 20
0.0
 30
0.0
  9
$UCSYDIR
 10
0.0
 20
1.0
 30
0.0
  9
$UCSORTHOREF
  2

  9
$UCSORTHOVIEW
 70
     0
  9
$UCSORGTOP
 10
0.0
 20
0.0
 30
0.0
  9
$UCSORGBOTTOM
 10
0.0
 20
0.0
 30
0.0
  9
$UCSORGLEFT
 10
0.0
 20
0.0
 30
0.0
  9
$UCSORGRIGHT
 10
0.0
 20
0.0
 30
0.0
  9
$UCSORGFRONT
 10
0.0
 20
0.0
 30
0.0
  9
$UCSORGBACK
 10
0.0
 20
0.0
 30
0.0
  9
$PUCSBASE
  2

  9
$PUCSNAME
  2

  9
$PUCSORG
 10
0.0
 20
0.0
 30
0.0
  9
$PUCSXDIR
 10
1.0
 20
0.0
 30
0.0
  9
$PUCSYDIR
 10
0.0
 20
1.0
 30
0.0
  9
$PUCSORTHOREF
  2

  9
$PUCSORTHOVIEW
 70
     0
  9
$PUCSORGTOP
 10
0.0
 20
0.0
 30
0.0
  9
$PUCSORGBOTTOM
 10
0.0
 20
0.0
 30
0.0
  9
$PUCSORGLEFT
 10
0.0
 20
0.0
 30
0.0
  9
$PUCSORGRIGHT
 10
0.0
 20
0.0
 30
0.0
  9
$PUCSORGFRONT
 10
0.0
 20
0.0
 30
0.0
  9
$PUCSORGBACK
 10
0.0
 20
0.0
 30
0.0
  9
$USERI1
 70
     0
  9
$USERI2
 70
     0
  9
$USERI3
 70
     0
  9
$USERI4
 70
     0
  9
$USERI5
 70
     0
  9
$USERR1
 40
0.0
  9
$USERR2
 40
0.0
  9
$USERR3
 40
0.0
  9
$USERR4
 40
0.0
  9
$USERR5
 40
0.0
  9
$WORLDVIEW
 70
     1
  9
$SHADEDGE
 70
     3
  9
$SHADEDIF
 70
    70
  9
$TILEMODE
 70
     1
  9
$MAXACTVP
 70
    64
  9
$PINSBASE
 10
0.0
 20
0.0
 30
0.0
  9
$PLIMCHECK
 70
     0
  9
$PEXTMIN
 10
1.000000000000000E+20
 20
1.000000000000000E+20
 30
1.000000000000000E+20
  9
$PEXTMAX
 10
-1.000000000000000E+20
 20
-1.000000000000000E+20
 30
-1.000000000000000E+20
  9
$PLIMMIN
 10
0.0
 20
0.0
  9
$PLIMMAX
 10
12.0
 20
9.0
  9
$UNITMODE
 70
     0
  9
$VISRETAIN
 70
     1
  9
$PLINEGEN
 70
     0
  9
$PSLTSCALE
 70
     1
  9
$TREEDEPTH
 70
  3020
  9
$CMLSTYLE
  2
STANDARD
  9
$CMLJUST
 70
     0
  9
$CMLSCALE
 40
1.0
  9
$PROXYGRAPHICS
 70
     1
  9
$MEASUREMENT
 70
     1
  9
$CELWEIGHT
370
    -1
  9
$ENDCAPS
280
     0
  9
$JOINSTYLE
280
     0
  9
$LWDISPLAY
290
     0
  9
$INSUNITS
 70
     0
  9
$HYPERLINKBASE
  1

  9
$STYLESHEET
  1

  9
$XEDIT
290
     1
  9
$CEPSNTYPE
380
     0
  9
$PSTYLEMODE
290
     1
  9
$FINGERPRINTGUID
  2
{B4EE7630-AE6B-45F9-A260-EA77279A567D}
  9
$VERSIONGUID
  2
{E8A20E6B-2DB2-4012-878A-BBD48705BC07}
  9
$EXTNAMES
290
     1
  9
$PSVPSCALE
 40
0.0
  9
$OLESTARTUP
290
     0
  0
ENDSEC
  0
SECTION
  2
CLASSES
  0
CLASS
  1
ACDBDICTIONARYWDFLT
  2
AcDbDictionaryWithDefault
  3
ObjectDBX Classes
 90
        0
280
     0
281
     0
  0
CLASS
  1
TABLESTYLE
  2
AcDbTableStyle
  3
ObjectDBX Classes
 90
     2047
280
     0
281
     0
  0
CLASS
  1
DICTIONARYVAR
  2
AcDbDictionaryVar
  3
ObjectDBX Classes
 90
        0
280
     0
281
     0
  0
CLASS
  1
SORTENTSTABLE
  2
AcDbSortentsTable
  3
ObjectDBX Classes
 90
        0
280
     0
281
     0
  0
CLASS
  1
ACDBPLACEHOLDER
  2
AcDbPlaceHolder
  3
ObjectDBX Classes
 90
        0
280
     0
281
     0
  0
CLASS
  1
LAYOUT
  2
AcDbLayout
  3
ObjectDBX Classes
 90
        0
280
     0
281
     0
  0
ENDSEC
  0
SECTION
  2
TABLES
  0
TABLE
  2
VPORT
  5
8
330
0
100
AcDbSymbolTable
 70
     5
  0
VPORT
  5
AA5
330
8
100
AcDbSymbolTableRecord
100
AcDbViewportTableRecord
  2
*Active
 70
     0
 10
0.0
 20
0.0
 11
1.0
 21
1.0
 12
42.54662474809049
 22
6.16786298291737
 13
0.0
 23
0.0
 14
1.0
 24
1.0
 15
0.0
 25
0.0
 16
0.0
 26
0.0
 36
1.0
 17
0.0
 27
0.0
 37
0.0
 40
531.5105174238973
 41
1.494367959949937
 42
50.0
 43
0.0
 44
0.0
 50
0.0
 51
0.0
 71
     0
 72
   100
 73
     1
 74
     1
 75
     0
 76
     0
 77
     0
 78
     0
281
     0
 65
     1
110
0.0
120
0.0
130
0.0
111
1.0
121
0.0
131
0.0
112
0.0
122
1.0
132
0.0
 79
     0
146
0.0
  0
ENDTAB
  0
TABLE
  2
LTYPE
  5
5
330
0
100
AcDbSymbolTable
 70
     8
  0
LTYPE
  5
14
330
5
100
AcDbSymbolTableRecord
100
AcDbLinetypeTableRecord
  2
BYBLOCK
 70
     0
  3

 72
    65
 73
     0
 40
0.0
  0
LTYPE
  5
15
330
5
100
AcDbSymbolTableRecord
100
AcDbLinetypeTableRecord
  2
BYLAYER
 70
     0
  3

 72
    65
 73
     0
 40
0.0
  0
LTYPE
  5
16
330
5
100
AcDbSymbolTableRecord
100
AcDbLinetypeTableRecord
  2
CONTINUOUS
 70
     0
  3
Solid line
 72
    65
 73
     0
 40
0.0
  0
LTYPE
  5
85E
330
5
100
AcDbSymbolTableRecord
100
AcDbLinetypeTableRecord
  2
CENTER
 70
     0
  3
____ _ ____ _ ____ _ ____ _ ____ _ ____ _ ____
 72
    65
 73
     4
 40
0.6
 49
0.375
 74
     0
 49
-0.075
 74
     0
 49
0.075
 74
     0
 49
-0.075
 74
     0
  0
LTYPE
  5
85F
330
5
100
AcDbSymbolTableRecord
100
AcDbLinetypeTableRecord
  2
HIDDEN
 70
     0
  3
- - - - - - - - - - - - - - - - - - - -
 72
    65
 73
     2
 40
0.2
 49
0.1
 74
     0
 49
-0.1
 74
     0
  0
ENDTAB
  0
TABLE
  2
LAYER
  5
2
102
{ACAD_XDICTIONARY
360
510
102
}
330
0
100
AcDbSymbolTable
 70
    25
  0
LAYER
  5
10
330
2
100
AcDbSymbolTableRecord
100
AcDbLayerTableRecord
  2
0
 70
     0
 62
     7
  6
CONTINUOUS
370
    -3
390
2FC
  0
LAYER
  5
37E
330
2
100
AcDbSymbolTableRecord
100
AcDbLayerTableRecord
  2
Defpoints
 70
     0
 62
     7
  6
CONTINUOUS
290
     0
370
    -3
390
2FC
  0
LAYER
  5
860
330
2
100
AcDbSymbolTableRecord
100
AcDbLayerTableRecord
  2
1
 70
     0
 62
     4
  6
CONTINUOUS
370
    -3
390
2FC
  0
LAYER
  5
861
330
2
100
AcDbSymbolTableRecord
100
AcDbLayerTableRecord
  2
2
 70
     0
 62
     7
  6
CONTINUOUS
370
    -3
390
2FC
  0
LAYER
  5
862
330
2
100
AcDbSymbolTableRecord
100
AcDbLayerTableRecord
  2
4
 70
     0
 62
     2
  6
CENTER
370
    -3
390
2FC
  0
LAYER
  5
863
330
2
100
AcDbSymbolTableRecord
100
AcDbLayerTableRecord
  2
6
 70
     0
 62
     5
  6
CONTINUOUS
370
    -3
390
2FC
  0
LAYER
  5
864
330
2
100
AcDbSymbolTableRecord
100
AcDbLayerTableRecord
  2
NOCUT
 70
     0
 62
     7
  6
CONTINUOUS
370
    -3
390
2FC
  0
LAYER
  5
865
330
2
100
AcDbSymbolTableRecord
100
AcDbLayerTableRecord
  2
SK1
 70
     0
 62
     4
  6
CONTINUOUS
370
    -3
390
2FC
  0
LAYER
  5
866
330
2
100
AcDbSymbolTableRecord
100
AcDbLayerTableRecord
  2
SK2
 70
     0
 62
     7
  6
CONTINUOUS
370
    -3
390
2FC
  0
LAYER
  5
867
330
2
100
AcDbSymbolTableRecord
100
AcDbLayerTableRecord
  2
SK3
 70
     0
 62
     1
  6
HIDDEN
370
    -3
390
2FC
  0
LAYER
  5
868
330
2
100
AcDbSymbolTableRecord
100
AcDbLayerTableRecord
  2
SK4
 70
     0
 62
     2
  6
HIDDEN
370
    -3
390
2FC
  0
ENDTAB
  0
TABLE
  2
STYLE
  5
3
330
0
100
AcDbSymbolTable
 70
     1
  0
STYLE
  5
11
330
3
100
AcDbSymbolTableRecord
100
AcDbTextStyleTableRecord
  2
STANDARD
 70
     0
 40
0.0
 41
0.8
 50
0.0
 71
     0
 42
0.2
  3
isocp.shx
  4

  0
ENDTAB
  0
TABLE
  2
VIEW
  5
6
330
0
100
AcDbSymbolTable
 70
     0
  0
ENDTAB
  0
TABLE
  2
UCS
  5
7
330
0
100
AcDbSymbolTable
 70
     0
  0
ENDTAB
  0
TABLE
  2
APPID
  5
9
330
0
100
AcDbSymbolTable
 70
     2
  0
APPID
  5
207
330
9
100
AcDbSymbolTableRecord
100
AcDbRegAppTableRecord
  2
ACAD
 70
     0
  0
APPID
  5
67B
330
9
100
AcDbSymbolTableRecord
100
AcDbRegAppTableRecord
  2
ACAD_DSTYLE_DIMTEXT_FILL
 70
     0
  0
ENDTAB
  0
TABLE
  2
DIMSTYLE
  5
A
330
0
100
AcDbSymbolTable
 70
     3
100
AcDbDimStyleTable
 71
     2
340
37F
340
208
  0
DIMSTYLE
105
208
330
A
100
AcDbSymbolTableRecord
100
AcDbDimStyleTableRecord
  2
STANDARD
 70
     0
 41
2.5
 47
0.005
 48
0.005
 71
     1
 73
     0
 74
     0
 77
     1
 78
     8
140
3.5
178
     2
271
     3
272
     3
284
     8
340
11
341
20A
342
20A
343
20A
344
20A
  0
DIMSTYLE
105
37F
102
{ACAD_REACTORS
330
389
330
386
330
385
330
382
330
381
330
388
330
387
330
384
330
38A
330
383
330
8CC
330
8CD
330
8CE
330
8CF
330
8D0
330
8D1
330
8D2
330
8D3
330
8D4
330
8D5
102
}
330
A
100
AcDbSymbolTableRecord
100
AcDbDimStyleTableRecord
  2
ISO-25
 70
     0
 41
3.5
 42
0.625
 43
3.75
 44
2.0
 73
     0
 74
     0
 77
     1
 78
     8
140
3.5
141
2.5
143
0.03937007874016
147
0.625
171
     3
172
     1
176
   256
177
   256
178
   256
271
     2
272
     2
274
     3
283
     0
284
     8
340
11
  0
ENDTAB
  0
TABLE
  2
BLOCK_RECORD
  5
1
330
0
100
AcDbSymbolTable
 70
    57
  0
BLOCK_RECORD
  5
1B
102
{ACAD_XDICTIONARY
360
A71
102
}
330
1
100
AcDbSymbolTableRecord
100
AcDbBlockTableRecord
  2
*MODEL_SPACE
340
303
  0
BLOCK_RECORD
  5
1C
330
1
100
AcDbSymbolTableRecord
100
AcDbBlockTableRecord
  2
*PAPER_SPACE
340
304
  0
BLOCK_RECORD
  5
20A
330
1
100
AcDbSymbolTableRecord
100
AcDbBlockTableRecord
  2
_FILLED
340
0
  0
BLOCK_RECORD
  5
92A
330
1
100
AcDbSymbolTableRecord
100
AcDbBlockTableRecord
  2
*D47
340
0
  0
BLOCK_RECORD
  5
936
330
1
100
AcDbSymbolTableRecord
100
AcDbBlockTableRecord
  2
*D48
340
0
  0
BLOCK_RECORD
  5
942
330
1
100
AcDbSymbolTableRecord
100
AcDbBlockTableRecord
  2
*D49
340
0
  0
BLOCK_RECORD
  5
94E
330
1
100
AcDbSymbolTableRecord
100
AcDbBlockTableRecord
  2
*D50
340
0
  0
BLOCK_RECORD
  5
95A
330
1
100
AcDbSymbolTableRecord
100
AcDbBlockTableRecord
  2
*D51
340
0
  0
BLOCK_RECORD
  5
966
330
1
100
AcDbSymbolTableRecord
100
AcDbBlockTableRecord
  2
*D52
340
0
  0
BLOCK_RECORD
  5
972
330
1
100
AcDbSymbolTableRecord
100
AcDbBlockTableRecord
  2
*D53
340
0
  0
BLOCK_RECORD
  5
97E
330
1
100
AcDbSymbolTableRecord
100
AcDbBlockTableRecord
  2
*D54
340
0
  0
BLOCK_RECORD
  5
98A
330
1
100
AcDbSymbolTableRecord
100
AcDbBlockTableRecord
  2
*D55
340
0
  0
BLOCK_RECORD
  5
996
330
1
100
AcDbSymbolTableRecord
100
AcDbBlockTableRecord
  2
*D56
340
0
  0
ENDTAB
  0
ENDSEC
  0
SECTION
  2
BLOCKS
  0
BLOCK
  5
1E
330
1B
100
AcDbEntity
  8
0
100
AcDbBlockBegin
  2
*MODEL_SPACE
 70
     0
 10
0.0
 20
0.0
 30
0.0
  3
*MODEL_SPACE
  1

  0
ENDBLK
  5
1F
330
1B
100
AcDbEntity
  8
0
100
AcDbBlockEnd
  0
BLOCK
  5
20
330
1C
100
AcDbEntity
 67
     1
  8
0
100
AcDbBlockBegin
  2
*PAPER_SPACE
 70
     0
 10
0.0
 20
0.0
 30
0.0
  3
*PAPER_SPACE
  1

  0
ENDBLK
  5
21
330
1C
100
AcDbEntity
 67
     1
  8
0
100
AcDbBlockEnd
  0
BLOCK
  5
293
330
20A
100
AcDbEntity
  8
0
100
AcDbBlockBegin
  2
_FILLED
 70
     0
 10
0.0
 20
0.0
 30
0.0
  3
_FILLED
  1

  0
SOLID
  5
294
330
20A
100
AcDbEntity
  8
0
  6
ByBlock
 62
     0
100
AcDbTrace
 10
0.0
 20
0.0
 30
0.0
 11
-1.0
 21
0.132
 31
0.0
 12
-1.0
 22
-0.132
 32
0.0
 13
-1.0
 23
-0.132
 33
0.0
  0
ENDBLK
  5
295
330
20A
100
AcDbEntity
  8
0
  6
ByBlock
 62
     0
100
AcDbBlockEnd
  0
BLOCK
  5
934
330
92A
100
AcDbEntity
  8
0
100
AcDbBlockBegin
  2
*D47
 70
     1
 10
0.0
 20
0.0
 30
0.0
  3
*D47
  1

  0
LINE
  5
9FC
330
92A
100
AcDbEntity
  8
SK2
370
    -2
100
AcDbLine
 10
65.125
 20
-35.92102448429995
 30
0.0
 11
84.87499999999998
 21
-35.92102448429996
 31
0.0
  0
LINE
  5
9FD
330
92A
100
AcDbEntity
  8
SK2
370
    -2
100
AcDbLine
 10
65.125
 20
35.92102448430001
 30
0.0
 11
84.87500000000002
 21
35.9210244843
 31
0.0
  0
LINE
  5
9FE
330
92A
100
AcDbEntity
  8
SK2
370
    -2
100
AcDbLine
 10
82.87499999999999
 20
-32.42102448429996
 30
0.0
 11
82.87500000000001
 21
32.4210244843
 31
0.0
  0
SOLID
  5
9FF
330
92A
100
AcDbEntity
  8
SK2
100
AcDbTrace
 10
82.29166666666666
 20
-32.42102448429996
 30
0.0
 11
83.45833333333331
 21
-32.42102448429996
 31
0.0
 12
82.87499999999999
 22
-35.92102448429996
 32
0.0
 13
82.87499999999999
 23
-35.92102448429996
 33
0.0
  0
SOLID
  5
A00
330
92A
100
AcDbEntity
  8
SK2
100
AcDbTrace
 10
82.29166666666669
 20
32.4210244843
 30
0.0
 11
83.45833333333334
 21
32.4210244843
 31
0.0
 12
82.87500000000001
 22
35.9210244843
 32
0.0
 13
82.87500000000001
 23
35.9210244843
 33
0.0
  0
MTEXT
  5
A01
330
92A
100
AcDbEntity
  8
SK2
100
AcDbMText
 10
80.5
 20
3.5
 30
0.0
 40
3.5
 41
0.0
 71
     5
 72
     1
  1
Lk-%%c101.6
 11
0.0000000000000001
 21
1.0
 31
0.0
 73
     1
 44
1.0
1001
ACAD
1000
MTEXTBEGIN
1070
    73
1070
     1
1070
    44
1040
1.0
1070
    74
1070
     0
1000
MTEXTEND
  0
POINT
  5
A02
330
92A
100
AcDbEntity
  8
Defpoints
 62
     0
100
AcDbPoint
 10
64.5
 20
-35.92102448429995
 30
0.0
  0
POINT
  5
A03
330
92A
100
AcDbEntity
  8
Defpoints
 62
     0
100
AcDbPoint
 10
64.5
 20
35.92102448430001
 30
0.0
  0
POINT
  5
A04
330
92A
100
AcDbEntity
  8
Defpoints
 62
     0
100
AcDbPoint
 10
82.87500000000001
 20
35.9210244843
 30
0.0
  0
ENDBLK
  5
935
330
92A
100
AcDbEntity
  8
0
100
AcDbBlockEnd
  0
BLOCK
  5
940
330
936
100
AcDbEntity
  8
0
100
AcDbBlockBegin
  2
*D48
 70
     1
 10
0.0
 20
0.0
 30
0.0
  3
*D48
  1

  0
LINE
  5
A05
330
936
100
AcDbEntity
  8
SK2
370
    -2
100
AcDbLine
 10
65.125
 20
-62.8617928475
 30
0.0
 11
93.37499999999998
 21
-62.86179284750001
 31
0.0
  0
LINE
  5
A06
330
936
100
AcDbEntity
  8
SK2
370
    -2
100
AcDbLine
 10
65.125
 20
62.8617928475
 30
0.0
 11
93.37500000000002
 21
62.86179284749999
 31
0.0
  0
LINE
  5
A07
330
936
100
AcDbEntity
  8
SK2
370
    -2
100
AcDbLine
 10
91.37499999999999
 20
-59.3617928475
 30
0.0
 11
91.37500000000001
 21
59.36179284749999
 31
0.0
  0
SOLID
  5
A08
330
936
100
AcDbEntity
  8
SK2
100
AcDbTrace
 10
90.79166666666665
 20
-59.3617928475
 30
0.0
 11
91.95833333333331
 21
-59.3617928475
 31
0.0
 12
91.37499999999999
 22
-62.86179284750001
 32
0.0
 13
91.37499999999999
 23
-62.86179284750001
 33
0.0
  0
SOLID
  5
A09
330
936
100
AcDbEntity
  8
SK2
100
AcDbTrace
 10
90.79166666666669
 20
59.36179284749999
 30
0.0
 11
91.95833333333334
 21
59.36179284749999
 31
0.0
 12
91.37500000000001
 22
62.86179284749999
 32
0.0
 13
91.37500000000001
 23
62.86179284749999
 33
0.0
  0
MTEXT
  5
A0A
330
936
100
AcDbEntity
  8
SK2
100
AcDbMText
 10
89.0
 20
3.5
 30
0.0
 40
3.5
 41
0.0
 71
     5
 72
     1
  1
Lk-%%c177.8
 11
0.0000000000000001
 21
1.0
 31
0.0
 73
     1
 44
1.0
1001
ACAD
1000
MTEXTBEGIN
1070
    73
1070
     1
1070
    44
1040
1.0
1070
    74
1070
     0
1000
MTEXTEND
  0
POINT
  5
A0B
330
936
100
AcDbEntity
  8
Defpoints
 62
     0
100
AcDbPoint
 10
64.5
 20
-62.8617928475
 30
0.0
  0
POINT
  5
A0C
330
936
100
AcDbEntity
  8
Defpoints
 62
     0
100
AcDbPoint
 10
64.5
 20
62.8617928475
 30
0.0
  0
POINT
  5
A0D
330
936
100
AcDbEntity
  8
Defpoints
 62
     0
100
AcDbPoint
 10
91.37500000000001
 20
62.86179284749999
 30
0.0
  0
ENDBLK
  5
941
330
936
100
AcDbEntity
  8
0
100
AcDbBlockEnd
  0
BLOCK
  5
94C
330
942
100
AcDbEntity
  8
0
100
AcDbBlockBegin
  2
*D49
 70
     1
 10
0.0
 20
0.0
 30
0.0
  3
*D49
  1

  0
LINE
  5
A0E
330
942
100
AcDbEntity
  8
SK2
370
    -2
100
AcDbLine
 10
-2.125
 20
-236.2
 30
0.0
 11
-23.12564460520007
 21
-236.2
 31
0.0
  0
LINE
  5
A0F
330
942
100
AcDbEntity
  8
SK2
370
    -2
100
AcDbLine
 10
-2.125
 20
236.2
 30
0.0
 11
-23.12564460519997
 21
236.2
 31
0.0
  0
LINE
  5
A10
330
942
100
AcDbEntity
  8
SK2
370
    -2
100
AcDbLine
 10
-21.12564460520008
 20
-232.7
 30
0.0
 11
-21.12564460519997
 21
232.7
 31
0.0
  0
SOLID
  5
A11
330
942
100
AcDbEntity
  8
SK2
100
AcDbTrace
 10
-21.70897793853341
 20
-232.7
 30
0.0
 11
-20.54231127186675
 21
-232.7
 31
0.0
 12
-21.12564460520008
 22
-236.2
 32
0.0
 13
-21.12564460520008
 23
-236.2
 33
0.0
  0
SOLID
  5
A12
330
942
100
AcDbEntity
  8
SK2
100
AcDbTrace
 10
-21.7089779385333
 20
232.7
 30
0.0
 11
-20.54231127186664
 21
232.7
 31
0.0
 12
-21.12564460519997
 22
236.2
 32
0.0
 13
-21.12564460519997
 23
236.2
 33
0.0
  0
MTEXT
  5
A13
330
942
100
AcDbEntity
  8
SK2
100
AcDbMText
 10
-23.500989093389
 20
1.75
 30
0.0
 40
3.5
 41
0.0
 71
     5
 72
     1
  1
%%c472.4
 11
0.0000000000000001
 21
1.0
 31
0.0
 73
     1
 44
1.0
1001
ACAD
1000
MTEXTBEGIN
1070
    73
1070
     1
1070
    44
1040
1.0
1070
    74
1070
     0
1000
MTEXTEND
  0
POINT
  5
A14
330
942
100
AcDbEntity
  8
Defpoints
 62
     0
100
AcDbPoint
 10
-1.5
 20
-236.2
 30
0.0
  0
POINT
  5
A15
330
942
100
AcDbEntity
  8
Defpoints
 62
     0
100
AcDbPoint
 10
-1.5
 20
236.2
 30
0.0
  0
POINT
  5
A16
330
942
100
AcDbEntity
  8
Defpoints
 62
     0
100
AcDbPoint
 10
-21.12564460519997
 20
236.2
 30
0.0
  0
ENDBLK
  5
94D
330
942
100
AcDbEntity
  8
0
100
AcDbBlockEnd
  0
BLOCK
  5
958
330
94E
100
AcDbEntity
  8
0
100
AcDbBlockBegin
  2
*D50
 70
     1
 10
0.0
 20
0.0
 30
0.0
  3
*D50
  1

  0
LINE
  5
A17
330
94E
100
AcDbEntity
  8
2
370
    -2
100
AcDbLine
 10
0.0
 20
238.325
 30
0.0
 11
0.0000000000000008
 21
250.825
 31
0.0
  0
LINE
  5
A18
330
94E
100
AcDbEntity
  8
2
370
    -2
100
AcDbLine
 10
17.0
 20
238.325
 30
0.0
 11
17.0
 21
250.825
 31
0.0
  0
LINE
  5
A19
330
94E
100
AcDbEntity
  8
2
370
    -2
100
AcDbLine
 10
3.5
 20
248.825
 30
0.0
 11
13.5
 21
248.825
 31
0.0
  0
SOLID
  5
A1A
330
94E
100
AcDbEntity
  8
2
100
AcDbTrace
 10
3.5
 20
249.4083333333333
 30
0.0
 11
3.5
 21
248.2416666666666
 31
0.0
 12
0.0000000000000007
 22
248.825
 32
0.0
 13
0.0000000000000007
 23
248.825
 33
0.0
  0
SOLID
  5
A1B
330
94E
100
AcDbEntity
  8
2
100
AcDbTrace
 10
13.5
 20
249.4083333333333
 30
0.0
 11
13.5
 21
248.2416666666666
 31
0.0
 12
17.0
 22
248.825
 32
0.0
 13
17.0
 23
248.825
 33
0.0
  0
MTEXT
  5
A1C
330
94E
100
AcDbEntity
  8
2
100
AcDbMText
 10
11.29999999999995
 20
251.2
 30
0.0
 40
3.5
 41
0.0
 71
     5
 72
     1
  1
17
 73
     1
 44
1.0
1001
ACAD
1000
MTEXTBEGIN
1070
    73
1070
     1
1070
    44
1040
1.0
1070
    74
1070
     0
1000
MTEXTEND
  0
POINT
  5
A1D
330
94E
100
AcDbEntity
  8
Defpoints
 62
     0
100
AcDbPoint
 10
0.0
 20
237.7
 30
0.0
  0
POINT
  5
A1E
330
94E
100
AcDbEntity
  8
Defpoints
 62
     0
100
AcDbPoint
 10
17.0
 20
237.7
 30
0.0
  0
POINT
  5
A1F
330
94E
100
AcDbEntity
  8
Defpoints
 62
     0
100
AcDbPoint
 10
17.0
 20
248.825
 30
0.0
  0
ENDBLK
  5
959
330
94E
100
AcDbEntity
  8
0
100
AcDbBlockEnd
  0
BLOCK
  5
964
330
95A
100
AcDbEntity
  8
0
100
AcDbBlockBegin
  2
*D51
 70
     1
 10
0.0
 20
0.0
 30
0.0
  3
*D51
  1

  0
LINE
  5
A20
330
95A
100
AcDbEntity
  8
SK2
370
    -2
100
AcDbLine
 10
37.22500000000002
 20
-226.35
 30
0.0
 11
110.3749999999999
 21
-226.35
 31
0.0
  0
LINE
  5
A21
330
95A
100
AcDbEntity
  8
SK2
370
    -2
100
AcDbLine
 10
37.22500000000002
 20
226.35
 30
0.0
 11
110.375
 21
226.35
 31
0.0
  0
LINE
  5
A22
330
95A
100
AcDbEntity
  8
SK2
370
    -2
100
AcDbLine
 10
108.3749999999999
 20
-222.85
 30
0.0
 11
108.375
 21
222.85
 31
0.0
  0
SOLID
  5
A23
330
95A
100
AcDbEntity
  8
SK2
100
AcDbTrace
 10
107.7916666666666
 20
-222.85
 30
0.0
 11
108.9583333333333
 21
-222.85
 31
0.0
 12
108.3749999999999
 22
-226.35
 32
0.0
 13
108.3749999999999
 23
-226.35
 33
0.0
  0
SOLID
  5
A24
330
95A
100
AcDbEntity
  8
SK2
100
AcDbTrace
 10
107.7916666666667
 20
222.85
 30
0.0
 11
108.9583333333334
 21
222.85
 31
0.0
 12
108.375
 22
226.35
 32
0.0
 13
108.375
 23
226.35
 33
0.0
  0
MTEXT
  5
A25
330
95A
100
AcDbEntity
  8
SK2
100
AcDbMText
 10
105.999655511811
 20
1.75
 30
0.0
 40
3.5
 41
0.0
 71
     5
 72
     1
  1
%%c452.7
 11
0.0000000000000001
 21
1.0
 31
0.0
 73
     1
 44
1.0
1001
ACAD
1000
MTEXTBEGIN
1070
    73
1070
     1
1070
    44
1040
1.0
1070
    74
1070
     0
1000
MTEXTEND
  0
POINT
  5
A26
330
95A
100
AcDbEntity
  8
Defpoints
 62
     0
100
AcDbPoint
 10
36.60000000000002
 20
-226.35
 30
0.0
  0
POINT
  5
A27
330
95A
100
AcDbEntity
  8
Defpoints
 62
     0
100
AcDbPoint
 10
36.60000000000002
 20
226.35
 30
0.0
  0
POINT
  5
A28
330
95A
100
AcDbEntity
  8
Defpoints
 62
     0
100
AcDbPoint
 10
108.375
 20
226.35
 30
0.0
  0
ENDBLK
  5
965
330
95A
100
AcDbEntity
  8
0
100
AcDbBlockEnd
  0
BLOCK
  5
970
330
966
100
AcDbEntity
  8
0
100
AcDbBlockBegin
  2
*D52
 70
     1
 10
0.0
 20
0.0
 30
0.0
  3
*D52
  1

  0
LINE
  5
A29
330
966
100
AcDbEntity
  8
SK2
370
    -2
100
AcDbLine
 10
62.125
 20
-205.1
 30
0.0
 11
101.8749999999999
 21
-205.1
 31
0.0
  0
LINE
  5
A2A
330
966
100
AcDbEntity
  8
SK2
370
    -2
100
AcDbLine
 10
62.125
 20
205.1
 30
0.0
 11
101.875
 21
205.1
 31
0.0
  0
LINE
  5
A2B
330
966
100
AcDbEntity
  8
SK2
370
    -2
100
AcDbLine
 10
99.87499999999997
 20
-201.6
 30
0.0
 11
99.87500000000004
 21
201.6
 31
0.0
  0
SOLID
  5
A2C
330
966
100
AcDbEntity
  8
SK2
100
AcDbTrace
 10
99.29166666666663
 20
-201.6
 30
0.0
 11
100.4583333333333
 21
-201.6
 31
0.0
 12
99.87499999999997
 22
-205.1
 32
0.0
 13
99.87499999999997
 23
-205.1
 33
0.0
  0
SOLID
  5
A2D
330
966
100
AcDbEntity
  8
SK2
100
AcDbTrace
 10
99.29166666666672
 20
201.6
 30
0.0
 11
100.4583333333334
 21
201.6
 31
0.0
 12
99.87500000000004
 22
205.1
 32
0.0
 13
99.87500000000004
 23
205.1
 33
0.0
  0
MTEXT
  5
A2E
330
966
100
AcDbEntity
  8
SK2
100
AcDbMText
 10
97.49965551181103
 20
1.75
 30
0.0
 40
3.5
 41
0.0
 71
     5
 72
     1
  1
%%c410.2
 11
0.0000000000000001
 21
1.0
 31
0.0
 73
     1
 44
1.0
1001
ACAD
1000
MTEXTBEGIN
1070
    73
1070
     1
1070
    44
1040
1.0
1070
    74
1070
     0
1000
MTEXTEND
  0
POINT
  5
A2F
330
966
100
AcDbEntity
  8
Defpoints
 62
     0
100
AcDbPoint
 10
61.5
 20
-205.1
 30
0.0
  0
POINT
  5
A30
330
966
100
AcDbEntity
  8
Defpoints
 62
     0
100
AcDbPoint
 10
61.5
 20
205.1
 30
0.0
  0
POINT
  5
A31
330
966
100
AcDbEntity
  8
Defpoints
 62
     0
100
AcDbPoint
 10
99.87500000000004
 20
205.1
 30
0.0
  0
ENDBLK
  5
971
330
966
100
AcDbEntity
  8
0
100
AcDbBlockEnd
  0
BLOCK
  5
97C
330
972
100
AcDbEntity
  8
0
100
AcDbBlockBegin
  2
*D53
 70
     1
 10
0.0
 20
0.0
 30
0.0
  3
*D53
  1

  0
LINE
  5
A32
330
972
100
AcDbEntity
  8
SK2
370
    -2
100
AcDbLine
 10
0.0
 20
238.325
 30
0.0
 11
0.0000000000000013
 21
259.325
 31
0.0
  0
LINE
  5
A33
330
972
100
AcDbEntity
  8
SK2
370
    -2
100
AcDbLine
 10
35.10000000000002
 20
228.475
 30
0.0
 11
35.10000000000002
 21
259.325
 31
0.0
  0
LINE
  5
A34
330
972
100
AcDbEntity
  8
SK2
370
    -2
100
AcDbLine
 10
3.500000000000001
 20
257.325
 30
0.0
 11
31.60000000000002
 21
257.325
 31
0.0
  0
SOLID
  5
A35
330
972
100
AcDbEntity
  8
SK2
100
AcDbTrace
 10
3.500000000000001
 20
257.9083333333333
 30
0.0
 11
3.500000000000001
 21
256.7416666666667
 31
0.0
 12
0.0000000000000012
 22
257.325
 32
0.0
 13
0.0000000000000012
 23
257.325
 33
0.0
  0
SOLID
  5
A36
330
972
100
AcDbEntity
  8
SK2
100
AcDbTrace
 10
31.60000000000002
 20
257.9083333333333
 30
0.0
 11
31.60000000000002
 21
256.7416666666667
 31
0.0
 12
35.10000000000002
 22
257.325
 32
0.0
 13
35.10000000000002
 23
257.325
 33
0.0
  0
MTEXT
  5
A37
330
972
100
AcDbEntity
  8
SK2
100
AcDbMText
 10
23.14999999999998
 20
259.7
 30
0.0
 40
3.5
 41
0.0
 71
     5
 72
     1
  1
35.1
 73
     1
 44
1.0
1001
ACAD
1000
MTEXTBEGIN
1070
    73
1070
     1
1070
    44
1040
1.0
1070
    74
1070
     0
1000
MTEXTEND
  0
POINT
  5
A38
330
972
100
AcDbEntity
  8
Defpoints
 62
     0
100
AcDbPoint
 10
0.0
 20
237.7
 30
0.0
  0
POINT
  5
A39
330
972
100
AcDbEntity
  8
Defpoints
 62
     0
100
AcDbPoint
 10
35.10000000000002
 20
227.85
 30
0.0
  0
POINT
  5
A3A
330
972
100
AcDbEntity
  8
Defpoints
 62
     0
100
AcDbPoint
 10
35.10000000000002
 20
257.325
 30
0.0
  0
ENDBLK
  5
97D
330
972
100
AcDbEntity
  8
0
100
AcDbBlockEnd
  0
BLOCK
  5
988
330
97E
100
AcDbEntity
  8
0
100
AcDbBlockBegin
  2
*D54
 70
     1
 10
0.0
 20
0.0
 30
0.0
  3
*D54
  1

  0
LINE
  5
A3B
330
97E
100
AcDbEntity
  8
SK2
370
    -2
100
AcDbLine
 10
60.0
 20
207.625
 30
0.0
 11
60.0
 21
267.825
 31
0.0
  0
LINE
  5
A3C
330
97E
100
AcDbEntity
  8
SK2
370
    -2
100
AcDbLine
 10
0.0
 20
238.625
 30
0.0
 11
0.0000000000000018
 21
267.825
 31
0.0
  0
LINE
  5
A3D
330
97E
100
AcDbEntity
  8
SK2
370
    -2
100
AcDbLine
 10
56.50000000000001
 20
265.825
 30
0.0
 11
3.500000000000001
 21
265.825
 31
0.0
  0
SOLID
  5
A3E
330
97E
100
AcDbEntity
  8
SK2
100
AcDbTrace
 10
56.50000000000001
 20
266.4083333333333
 30
0.0
 11
56.50000000000001
 21
265.2416666666667
 31
0.0
 12
60.0
 22
265.825
 32
0.0
 13
60.0
 23
265.825
 33
0.0
  0
SOLID
  5
A3F
330
97E
100
AcDbEntity
  8
SK2
100
AcDbTrace
 10
3.500000000000001
 20
266.4083333333333
 30
0.0
 11
3.500000000000001
 21
265.2416666666667
 31
0.0
 12
0.0000000000000017
 22
265.825
 32
0.0
 13
0.0000000000000017
 23
265.825
 33
0.0
  0
MTEXT
  5
A40
330
97E
100
AcDbEntity
  8
SK2
100
AcDbMText
 10
32.79999999999996
 20
268.2
 30
0.0
 40
3.5
 41
0.0
 71
     5
 72
     1
  1
60
 73
     1
 44
1.0
1001
ACAD
1000
MTEXTBEGIN
1070
    73
1070
     1
1070
    44
1040
1.0
1070
    74
1070
     0
1000
MTEXTEND
  0
POINT
  5
A41
330
97E
100
AcDbEntity
  8
Defpoints
 62
     0
100
AcDbPoint
 10
60.0
 20
207.0
 30
0.0
  0
POINT
  5
A42
330
97E
100
AcDbEntity
  8
Defpoints
 62
     0
100
AcDbPoint
 10
0.0
 20
238.0
 30
0.0
  0
POINT
  5
A43
330
97E
100
AcDbEntity
  8
Defpoints
 62
     0
100
AcDbPoint
 10
0.0000000000000017
 20
265.825
 30
0.0
  0
ENDBLK
  5
989
330
97E
100
AcDbEntity
  8
0
100
AcDbBlockEnd
  0
BLOCK
  5
994
330
98A
100
AcDbEntity
  8
0
100
AcDbBlockBegin
  2
*D55
 70
     1
 10
0.0
 20
0.0
 30
0.0
  3
*D55
  1

  0
LINE
  5
A44
330
98A
100
AcDbEntity
  8
SK2
370
    -2
100
AcDbLine
 10
62.125
 20
-25.0
 30
0.0
 11
76.375
 21
-25.0
 31
0.0
  0
LINE
  5
A45
330
98A
100
AcDbEntity
  8
SK2
370
    -2
100
AcDbLine
 10
62.125
 20
25.0
 30
0.0
 11
76.375
 21
25.0
 31
0.0
  0
LINE
  5
A46
330
98A
100
AcDbEntity
  8
SK2
370
    -2
100
AcDbLine
 10
74.375
 20
-21.5
 30
0.0
 11
74.375
 21
21.5
 31
0.0
  0
SOLID
  5
A47
330
98A
100
AcDbEntity
  8
SK2
100
AcDbTrace
 10
73.79166666666667
 20
-21.5
 30
0.0
 11
74.95833333333333
 21
-21.5
 31
0.0
 12
74.375
 22
-25.0
 32
0.0
 13
74.375
 23
-25.0
 33
0.0
  0
SOLID
  5
A48
330
98A
100
AcDbEntity
  8
SK2
100
AcDbTrace
 10
73.79166666666667
 20
21.5
 30
0.0
 11
74.95833333333333
 21
21.5
 31
0.0
 12
74.375
 22
25.0
 32
0.0
 13
74.375
 23
25.0
 33
0.0
  0
MTEXT
  5
A49
330
98A
100
AcDbEntity
  8
SK2
100
AcDbMText
 10
72.0
 20
1.75
 30
0.0
 40
3.5
 41
0.0
 71
     5
 72
     1
  1
%%c50
 11
0.0000000000000001
 21
1.0
 31
0.0
 73
     1
 44
1.0
1001
ACAD
1000
MTEXTBEGIN
1070
    73
1070
     1
1070
    44
1040
1.0
1070
    74
1070
     0
1000
MTEXTEND
  0
POINT
  5
A4A
330
98A
100
AcDbEntity
  8
Defpoints
 62
     0
100
AcDbPoint
 10
61.5
 20
-25.0
 30
0.0
  0
POINT
  5
A4B
330
98A
100
AcDbEntity
  8
Defpoints
 62
     0
100
AcDbPoint
 10
61.5
 20
25.0
 30
0.0
  0
POINT
  5
A4C
330
98A
100
AcDbEntity
  8
Defpoints
 62
     0
100
AcDbPoint
 10
74.375
 20
25.0
 30
0.0
  0
ENDBLK
  5
995
330
98A
100
AcDbEntity
  8
0
100
AcDbBlockEnd
  0
BLOCK
  5
9A0
330
996
100
AcDbEntity
  8
0
100
AcDbBlockBegin
  2
*D56
 70
     1
 10
0.0
 20
0.0
 30
0.0
  3
*D56
  1

  0
LINE
  5
A4D
330
996
100
AcDbEntity
  8
SK2
370
    -2
100
AcDbLine
 10
-2.125
 20
-30.0
 30
0.0
 11
-14.62564460520003
 21
-30.0
 31
0.0
  0
LINE
  5
A4E
330
996
100
AcDbEntity
  8
SK2
370
    -2
100
AcDbLine
 10
-2.125
 20
30.0
 30
0.0
 11
-14.62564460520001
 21
30.0
 31
0.0
  0
LINE
  5
A4F
330
996
100
AcDbEntity
  8
SK2
370
    -2
100
AcDbLine
 10
-12.62564460520003
 20
-26.5
 30
0.0
 11
-12.62564460520002
 21
26.5
 31
0.0
  0
SOLID
  5
A50
330
996
100
AcDbEntity
  8
SK2
100
AcDbTrace
 10
-13.20897793853336
 20
-26.5
 30
0.0
 11
-12.04231127186669
 21
-26.5
 31
0.0
 12
-12.62564460520003
 22
-30.0
 32
0.0
 13
-12.62564460520003
 23
-30.0
 33
0.0
  0
SOLID
  5
A51
330
996
100
AcDbEntity
  8
SK2
100
AcDbTrace
 10
-13.20897793853335
 20
26.5
 30
0.0
 11
-12.04231127186668
 21
26.5
 31
0.0
 12
-12.62564460520001
 22
30.0
 32
0.0
 13
-12.62564460520001
 23
30.0
 33
0.0
  0
MTEXT
  5
A52
330
996
100
AcDbEntity
  8
SK2
100
AcDbMText
 10
-15.00064460520002
 20
1.75
 30
0.0
 40
3.5
 41
0.0
 71
     5
 72
     1
  1
%%c60
 11
0.0000000000000001
 21
1.0
 31
0.0
 73
     1
 44
1.0
1001
ACAD
1000
MTEXTBEGIN
1070
    73
1070
     1
1070
    44
1040
1.0
1070
    74
1070
     0
1000
MTEXTEND
  0
POINT
  5
A53
330
996
100
AcDbEntity
  8
Defpoints
 62
     0
100
AcDbPoint
 10
-1.5
 20
-30.0
 30
0.0
  0
POINT
  5
A54
330
996
100
AcDbEntity
  8
Defpoints
 62
     0
100
AcDbPoint
 10
-1.5
 20
30.0
 30
0.0
  0
POINT
  5
A55
330
996
100
AcDbEntity
  8
Defpoints
 62
     0
100
AcDbPoint
 10
-12.62564460520001
 20
30.0
 30
0.0
  0
ENDBLK
  5
9A1
330
996
100
AcDbEntity
  8
0
100
AcDbBlockEnd
  0
ENDSEC
  0
SECTION
  2
ENTITIES
  0
DIMENSION
  5
8CC
330
1B
100
AcDbEntity
  8
SK2
100
AcDbDimension
  2
*D47
 10
82.87500000000001
 20
35.9210244843
 30
0.0
 11
82.87499999999999
 21
3.5
 31
0.0
 70
   160
  1
Lk-%%c101.6
 71
     5
 42
71.84204896859995
  3
ISO-25
100
AcDbAlignedDimension
 13
64.5
 23
-35.92102448429995
 33
0.0
 14
64.5
 24
35.92102448430001
 34
0.0
 50
90.0
100
AcDbRotatedDimension
  0
DIMENSION
  5
8CD
330
1B
100
AcDbEntity
  8
SK2
100
AcDbDimension
  2
*D48
 10
91.37500000000001
 20
62.86179284749999
 30
0.0
 11
91.37500000000001
 21
3.5
 31
0.0
 70
   160
  1
Lk-%%c177.8
 71
     5
 42
125.723585695
  3
ISO-25
100
AcDbAlignedDimension
 13
64.5
 23
-62.8617928475
 33
0.0
 14
64.5
 24
62.8617928475
 34
0.0
 50
90.0
100
AcDbRotatedDimension
  0
DIMENSION
  5
8CE
330
1B
100
AcDbEntity
  8
SK2
100
AcDbDimension
  2
*D49
 10
-21.12564460519997
 20
236.2
 30
0.0
 11
-21.12564460520002
 21
1.75
 31
0.0
 70
   160
  1
%%c472.4
 71
     5
 42
472.4
  3
ISO-25
100
AcDbAlignedDimension
 13
-1.5
 23
-236.2
 33
0.0
 14
-1.5
 24
236.2
 34
0.0
 50
90.0
100
AcDbRotatedDimension
  0
DIMENSION
  5
8CF
330
1B
100
AcDbEntity
  8
2
100
AcDbDimension
  2
*D50
 10
17.0
 20
248.825
 30
0.0
 11
11.29999999999995
 21
248.825
 31
0.0
 70
   160
  1
17
 71
     5
 42
17.0
  3
ISO-25
100
AcDbAlignedDimension
 13
0.0
 23
237.7
 33
0.0
 14
17.0
 24
237.7
 34
0.0
100
AcDbRotatedDimension
  0
DIMENSION
  5
8D0
330
1B
100
AcDbEntity
  8
SK2
100
AcDbDimension
  2
*D51
 10
108.375
 20
226.35
 30
0.0
 11
108.375
 21
1.75
 31
0.0
 70
   160
  1
%%c452.7
 71
     5
 42
452.7
  3
ISO-25
100
AcDbAlignedDimension
 13
36.60000000000002
 23
-226.35
 33
0.0
 14
36.60000000000002
 24
226.35
 34
0.0
 50
90.0
100
AcDbRotatedDimension
  0
DIMENSION
  5
8D1
330
1B
100
AcDbEntity
  8
SK2
100
AcDbDimension
  2
*D52
 10
99.87500000000004
 20
205.1
 30
0.0
 11
99.875
 21
1.75
 31
0.0
 70
   160
  1
%%c410.2
 71
     5
 42
410.2
  3
ISO-25
100
AcDbAlignedDimension
 13
61.5
 23
-205.1
 33
0.0
 14
61.5
 24
205.1
 34
0.0
 50
90.0
100
AcDbRotatedDimension
  0
DIMENSION
  5
8D2
330
1B
100
AcDbEntity
  8
SK2
100
AcDbDimension
  2
*D53
 10
35.10000000000002
 20
257.325
 30
0.0
 11
23.14999999999998
 21
257.325
 31
0.0
 70
   160
  1
35.1
 71
     5
 42
35.10000000000002
  3
ISO-25
100
AcDbAlignedDimension
 13
0.0
 23
237.7
 33
0.0
 14
35.10000000000002
 24
227.85
 34
0.0
100
AcDbRotatedDimension
  0
DIMENSION
  5
8D3
330
1B
100
AcDbEntity
  8
SK2
100
AcDbDimension
  2
*D54
 10
0.0000000000000017
 20
265.825
 30
0.0
 11
32.79999999999996
 21
265.825
 31
0.0
 70
   160
  1
60
 71
     5
 42
60.0
  3
ISO-25
100
AcDbAlignedDimension
 13
60.0
 23
207.0
 33
0.0
 14
0.0
 24
238.0
 34
0.0
 50
180.0
100
AcDbRotatedDimension
  0
DIMENSION
  5
8D4
330
1B
100
AcDbEntity
  8
SK2
100
AcDbDimension
  2
*D55
 10
74.375
 20
25.0
 30
0.0
 11
74.375
 21
1.75
 31
0.0
 70
   160
  1
%%c50
 71
     5
 42
50.0
  3
ISO-25
100
AcDbAlignedDimension
 13
61.5
 23
-25.0
 33
0.0
 14
61.5
 24
25.0
 34
0.0
 50
90.0
100
AcDbRotatedDimension
  0
DIMENSION
  5
8D5
330
1B
100
AcDbEntity
  8
SK2
100
AcDbDimension
  2
*D56
 10
-12.62564460520001
 20
30.0
 30
0.0
 11
-12.62564460520002
 21
1.75
 31
0.0
 70
   160
  1
%%c60
 71
     5
 42
60.0
  3
ISO-25
100
AcDbAlignedDimension
 13
-1.5
 23
-30.0
 33
0.0
 14
-1.5
 24
30.0
 34
0.0
 50
90.0
100
AcDbRotatedDimension
  0
TEXT
  5
8D6
330
1B
100
AcDbEntity
  8
6
100
AcDbText
 10
11.48088597779997
 20
-257.8300186392
 30
0.0
 40
5.0
  1
FBD060CAP500SA017
 41
0.8
 72
     1
 11
36.48088597779997
 21
-257.8300186392
 31
0.0
100
AcDbText
  0
LINE
  5
8D9
330
1B
100
AcDbEntity
  8
NOCUT
100
AcDbLine
 10
0.0
 20
235.2
 30
0.0
 11
0.0
 21
0.0
 31
0.0
  0
LINE
  5
8DA
330
1B
100
AcDbEntity
  8
1
100
AcDbLine
 10
0.0
 20
235.2
 30
0.0
 11
0.0
 21
-235.2
 31
0.0
  0
LINE
  5
8DB
330
1B
100
AcDbEntity
  8
SK3
100
AcDbLine
 10
14.0
 20
11.25
 30
0.0
 11
14.0
 21
-11.25
 31
0.0
  0
LINE
  5
8DC
330
1B
100
AcDbEntity
  8
NOCUT
100
AcDbLine
 10
17.0
 20
235.2
 30
0.0
 11
17.0
 21
0.0
 31
0.0
  0
LINE
  5
8DD
330
1B
100
AcDbEntity
  8
1
100
AcDbLine
 10
17.0
 20
235.2
 30
0.0
 11
17.0
 21
-235.2
 31
0.0
  0
LINE
  5
8DE
330
1B
100
AcDbEntity
  8
SK3
100
AcDbLine
 10
27.73819270000001
 20
170.0
 30
0.0
 11
29.0
 21
172.1
 31
0.0
  0
LINE
  5
8DF
330
1B
100
AcDbEntity
  8
SK1
100
AcDbLine
 10
25.0
 20
-226.35
 30
0.0
 11
25.0
 21
226.35
 31
0.0
  0
LINE
  5
8E0
330
1B
100
AcDbEntity
  8
SK3
100
AcDbLine
 10
29.0
 20
172.1
 30
0.0
 11
29.0
 21
167.9
 31
0.0
  0
LINE
  5
8E1
330
1B
100
AcDbEntity
  8
SK3
100
AcDbLine
 10
31.0
 20
30.0
 30
0.0
 11
31.0
 21
-30.0
 31
0.0
  0
LINE
  5
8E2
330
1B
100
AcDbEntity
  8
SK3
100
AcDbLine
 10
34.0
 20
172.5
 30
0.0
 11
34.0
 21
167.5
 31
0.0
  0
LINE
  5
8E3
330
1B
100
AcDbEntity
  8
SK1
100
AcDbLine
 10
35.10000000000002
 20
225.35
 30
0.0
 11
35.10000000000002
 21
-225.35
 31
0.0
  0
LINE
  5
8E4
330
1B
100
AcDbEntity
  8
SK3
100
AcDbLine
 10
42.0
 20
12.5
 30
0.0
 11
42.0
 21
-12.5
 31
0.0
  0
LINE
  5
8E5
330
1B
100
AcDbEntity
  8
SK3
100
AcDbLine
 10
46.0
 20
137.5661606236
 30
0.0
 11
46.0
 21
205.0935578441
 31
0.0
  0
LINE
  5
8E6
330
1B
100
AcDbEntity
  8
SK1
100
AcDbLine
 10
46.0
 20
205.0935578441
 30
0.0
 11
46.0
 21
205.1
 31
0.0
  0
LINE
  5
8E7
330
1B
100
AcDbEntity
  8
SK3
100
AcDbLine
 10
46.5
 20
25.0
 30
0.0
 11
46.5
 21
-25.0
 31
0.0
  0
LINE
  5
8E8
330
1B
100
AcDbEntity
  8
SK3
100
AcDbLine
 10
46.00000003959997
 20
137.5001990646
 30
0.0
 11
46.0
 21
137.5
 31
0.0
  0
LINE
  5
8E9
330
1B
100
AcDbEntity
  8
SK1
100
AcDbLine
 10
60.0
 20
203.9431538444
 30
0.0
 11
60.0
 21
-204.0999999999999
 31
0.0
  0
LINE
  5
8EA
330
1B
100
AcDbEntity
  8
SK1
100
AcDbLine
 10
67.0
 20
145.0
 30
0.0
 11
67.0
 21
195.0
 31
0.0
  0
LINE
  5
8EB
330
1B
100
AcDbEntity
  8
1
100
AcDbLine
 10
16.0
 20
-236.2
 30
0.0
 11
1.0
 21
-236.2
 31
0.0
  0
LINE
  5
8EC
330
1B
100
AcDbEntity
  8
SK1
100
AcDbLine
 10
34.10000000000002
 20
-226.35
 30
0.0
 11
25.0
 21
-226.35
 31
0.0
  0
LINE
  5
8ED
330
1B
100
AcDbEntity
  8
SK1
100
AcDbLine
 10
23.0
 20
-224.35
 30
0.0
 11
18.5
 21
-224.35
 31
0.0
  0
LINE
  5
8EE
330
1B
100
AcDbEntity
  8
SK1
100
AcDbLine
 10
59.0
 20
-205.1
 30
0.0
 11
36.10000000000002
 21
-205.1
 31
0.0
  0
LINE
  5
8EF
330
1B
100
AcDbEntity
  8
SK3
100
AcDbLine
 10
27.73819270000001
 20
170.0
 30
0.0
 11
29.0
 21
167.9
 31
0.0
  0
LINE
  5
8F0
330
1B
100
AcDbEntity
  8
SK4
100
AcDbLine
 10
63.0
 20
-62.8617928475
 30
0.0
 11
-3.0
 21
-62.8617928475
 31
0.0
  0
LINE
  5
8F1
330
1B
100
AcDbEntity
  8
SK4
100
AcDbLine
 10
63.0
 20
-35.92102448429995
 30
0.0
 11
-3.0
 21
-35.92102448429995
 31
0.0
  0
LINE
  5
8F2
330
1B
100
AcDbEntity
  8
SK3
100
AcDbLine
 10
31.0
 20
-30.0
 30
0.0
 11
0.0
 21
-30.0
 31
0.0
  0
LINE
  5
8F3
330
1B
100
AcDbEntity
  8
SK3
100
AcDbLine
 10
60.0
 20
-25.0
 30
0.0
 11
46.5
 21
-25.0
 31
0.0
  0
LINE
  5
8F4
330
1B
100
AcDbEntity
  8
SK3
100
AcDbLine
 10
12.39999999999997
 20
-12.84999999999999
 30
0.0
 11
0.0
 21
-12.84999999999999
 31
0.0
  0
LINE
  5
8F5
330
1B
100
AcDbEntity
  8
SK3
100
AcDbLine
 10
46.5
 20
-12.5
 30
0.0
 11
42.0
 21
-12.5
 31
0.0
  0
LINE
  5
8F6
330
1B
100
AcDbEntity
  8
SK3
100
AcDbLine
 10
42.0
 20
-8.0
 30
0.0
 11
31.0
 21
-8.0
 31
0.0
  0
LINE
  5
8F7
330
1B
100
AcDbEntity
  8
SK3
100
AcDbLine
 10
42.0
 20
-6.5
 30
0.0
 11
31.0
 21
-6.5
 31
0.0
  0
LINE
  5
8F8
330
1B
100
AcDbEntity
  8
4
100
AcDbLine
 10
63.00026510219993
 20
0.0
 30
0.0
 11
-3.0006924722
 21
0.0
 31
0.0
  0
LINE
  5
8F9
330
1B
100
AcDbEntity
  8
NOCUT
100
AcDbLine
 10
0.0
 20
0.0
 30
0.0
 11
17.0
 21
0.0
 31
0.0
  0
LINE
  5
8FA
330
1B
100
AcDbEntity
  8
SK3
100
AcDbLine
 10
42.0
 20
6.5
 30
0.0
 11
31.0
 21
6.5
 31
0.0
  0
LINE
  5
8FB
330
1B
100
AcDbEntity
  8
SK3
100
AcDbLine
 10
42.0
 20
8.0
 30
0.0
 11
31.0
 21
8.0
 31
0.0
  0
LINE
  5
8FC
330
1B
100
AcDbEntity
  8
SK3
100
AcDbLine
 10
46.5
 20
12.5
 30
0.0
 11
42.0
 21
12.5
 31
0.0
  0
LINE
  5
8FD
330
1B
100
AcDbEntity
  8
SK3
100
AcDbLine
 10
12.39999999999997
 20
12.85000000000002
 30
0.0
 11
0.0
 21
12.85000000000002
 31
0.0
  0
LINE
  5
8FE
330
1B
100
AcDbEntity
  8
SK3
100
AcDbLine
 10
60.0
 20
25.0
 30
0.0
 11
46.5
 21
25.0
 31
0.0
  0
LINE
  5
8FF
330
1B
100
AcDbEntity
  8
SK3
100
AcDbLine
 10
31.0
 20
30.0
 30
0.0
 11
0.0
 21
30.0
 31
0.0
  0
LINE
  5
900
330
1B
100
AcDbEntity
  8
SK4
100
AcDbLine
 10
63.0
 20
35.92102448430001
 30
0.0
 11
-3.0
 21
35.92102448430001
 31
0.0
  0
LINE
  5
901
330
1B
100
AcDbEntity
  8
SK4
100
AcDbLine
 10
63.0
 20
62.8617928475
 30
0.0
 11
-3.0
 21
62.8617928475
 31
0.0
  0
LINE
  5
902
330
1B
100
AcDbEntity
  8
SK3
100
AcDbLine
 10
46.5
 20
137.0
 30
0.0
 11
60.0
 21
137.0
 31
0.0
  0
LINE
  5
903
330
1B
100
AcDbEntity
  8
SK3
100
AcDbLine
 10
46.0
 20
145.0
 30
0.0
 11
60.0
 21
145.0
 31
0.0
  0
LINE
  5
904
330
1B
100
AcDbEntity
  8
SK1
100
AcDbLine
 10
60.0
 20
145.0
 30
0.0
 11
67.0
 21
145.0
 31
0.0
  0
LINE
  5
905
330
1B
100
AcDbEntity
  8
SK3
100
AcDbLine
 10
34.0
 20
167.5
 30
0.0
 11
46.0
 21
167.5
 31
0.0
  0
LINE
  5
906
330
1B
100
AcDbEntity
  8
SK3
100
AcDbLine
 10
29.0
 20
167.9
 30
0.0
 11
46.0
 21
167.9
 31
0.0
  0
LINE
  5
907
330
1B
100
AcDbEntity
  8
SK4
100
AcDbLine
 10
70.0
 20
170.0
 30
0.0
 11
25.49967769739999
 21
170.0
 31
0.0
  0
LINE
  5
908
330
1B
100
AcDbEntity
  8
SK3
100
AcDbLine
 10
29.0
 20
172.1
 30
0.0
 11
46.0
 21
172.1
 31
0.0
  0
LINE
  5
909
330
1B
100
AcDbEntity
  8
SK3
100
AcDbLine
 10
34.0
 20
172.5
 30
0.0
 11
46.0
 21
172.5
 31
0.0
  0
LINE
  5
90A
330
1B
100
AcDbEntity
  8
SK3
100
AcDbLine
 10
46.0
 20
195.0
 30
0.0
 11
60.0
 21
195.0
 31
0.0
  0
LINE
  5
90B
330
1B
100
AcDbEntity
  8
SK1
100
AcDbLine
 10
60.0
 20
195.0
 30
0.0
 11
67.0
 21
195.0
 31
0.0
  0
LINE
  5
90C
330
1B
100
AcDbEntity
  8
SK1
100
AcDbLine
 10
59.0
 20
204.9805112688001
 30
0.0
 11
46.5
 21
204.9805112688001
 31
0.0
  0
LINE
  5
90D
330
1B
100
AcDbEntity
  8
SK1
100
AcDbLine
 10
46.0
 20
205.1
 30
0.0
 11
36.10000000000002
 21
205.1
 31
0.0
  0
LINE
  5
90E
330
1B
100
AcDbEntity
  8
SK1
100
AcDbLine
 10
23.0
 20
224.35
 30
0.0
 11
18.5
 21
224.35
 31
0.0
  0
LINE
  5
90F
330
1B
100
AcDbEntity
  8
SK1
100
AcDbLine
 10
34.10000000000002
 20
226.35
 30
0.0
 11
25.0
 21
226.35
 31
0.0
  0
LINE
  5
910
330
1B
100
AcDbEntity
  8
NOCUT
100
AcDbLine
 10
16.0
 20
236.2
 30
0.0
 11
1.0
 21
236.2
 31
0.0
  0
LINE
  5
911
330
1B
100
AcDbEntity
  8
1
100
AcDbLine
 10
16.0
 20
236.2
 30
0.0
 11
1.0
 21
236.2
 31
0.0
  0
ARC
  5
912
330
1B
100
AcDbEntity
  8
SK3
100
AcDbCircle
 10
46.5
 20
137.5
 30
0.0
 40
0.5
100
AcDbArc
 50
180.0
 51
270.0
  0
ARC
  5
913
330
1B
100
AcDbEntity
  8
SK3
100
AcDbCircle
 10
12.39999999999997
 20
11.25
 30
0.0
 40
1.6
100
AcDbArc
 50
0.0
 51
90.0
  0
ARC
  5
914
330
1B
100
AcDbEntity
  8
SK3
100
AcDbCircle
 10
12.39999999999997
 20
-11.25
 30
0.0
 40
1.6
100
AcDbArc
 50
270.0
 51
0.0
  0
ARC
  5
915
330
1B
100
AcDbEntity
  8
NOCUT
100
AcDbCircle
 10
16.0
 20
235.2
 30
0.0
 40
1.0
100
AcDbArc
 50
0.0
 51
90.0
  0
ARC
  5
916
330
1B
100
AcDbEntity
  8
NOCUT
100
AcDbCircle
 10
1.0
 20
235.2
 30
0.0
 40
1.0
100
AcDbArc
 50
90.0
 51
180.0
  0
ARC
  5
917
330
1B
100
AcDbEntity
  8
SK1
100
AcDbCircle
 10
18.5
 20
-226.35
 30
0.0
 40
2.0
100
AcDbArc
 50
90.0
 51
138.8801608828001
  0
ARC
  5
918
330
1B
100
AcDbEntity
  8
SK1
100
AcDbCircle
 10
18.5
 20
226.35
 30
0.0
 40
2.0
100
AcDbArc
 50
221.1198391171999
 51
270.0
  0
ARC
  5
919
330
1B
100
AcDbEntity
  8
SK1
100
AcDbCircle
 10
23.0
 20
-226.35
 30
0.0
 40
2.0
100
AcDbArc
 50
0.0000000001001493
 51
90.0
  0
ARC
  5
91A
330
1B
100
AcDbEntity
  8
SK1
100
AcDbCircle
 10
23.0
 20
226.35
 30
0.0
 40
2.0
100
AcDbArc
 50
270.0
 51
359.9999999997997
  0
ARC
  5
91B
330
1B
100
AcDbEntity
  8
SK1
100
AcDbCircle
 10
59.0
 20
-204.0999999999999
 30
0.0
 40
1.0
100
AcDbArc
 50
270.0
 51
0.0
  0
ARC
  5
91C
330
1B
100
AcDbEntity
  8
SK1
100
AcDbCircle
 10
34.10000000000002
 20
-225.35
 30
0.0
 40
1.0
100
AcDbArc
 50
270.0
 51
0.0
  0
ARC
  5
91D
330
1B
100
AcDbEntity
  8
SK1
100
AcDbCircle
 10
34.10000000000002
 20
225.35
 30
0.0
 40
1.0
100
AcDbArc
 50
0.0
 51
90.0
  0
ARC
  5
91E
330
1B
100
AcDbEntity
  8
1
100
AcDbCircle
 10
16.0
 20
-235.2
 30
0.0
 40
1.0
100
AcDbArc
 50
270.0
 51
0.0
  0
ARC
  5
91F
330
1B
100
AcDbEntity
  8
1
100
AcDbCircle
 10
16.0
 20
235.2
 30
0.0
 40
1.0
100
AcDbArc
 50
0.0
 51
90.0
  0
ARC
  5
920
330
1B
100
AcDbEntity
  8
1
100
AcDbCircle
 10
1.0
 20
-235.2
 30
0.0
 40
1.0
100
AcDbArc
 50
180.0
 51
270.0
  0
ARC
  5
921
330
1B
100
AcDbEntity
  8
1
100
AcDbCircle
 10
1.0
 20
235.2
 30
0.0
 40
1.0
100
AcDbArc
 50
90.0
 51
180.0
  0
ARC
  5
922
330
1B
100
AcDbEntity
  8
SK1
100
AcDbCircle
 10
36.10000000000002
 20
-206.0999999999999
 30
0.0
 40
1.0
100
AcDbArc
 50
90.0
 51
179.9999999997997
  0
ARC
  5
923
330
1B
100
AcDbEntity
  8
SK1
100
AcDbCircle
 10
36.10000000000002
 20
206.1
 30
0.0
 40
1.0
100
AcDbArc
 50
180.0000000001001
 51
270.0
  0
SPLINE
  5
924
330
1B
100
AcDbEntity
  8
SK3
100
AcDbSpline
210
0.0
220
0.0
230
1.0
 70
     8
 71
     3
 72
     8
 73
     4
 74
     2
 42
0.0000000001
 43
0.0000000001
 44
0.0000000001
 12
0.0
 22
-1.0
 32
0.0
 13
0.9857448567583228
 23
0.1682470724099346
 33
0.0
 40
0.0
 40
0.0
 40
0.0
 40
0.0
 40
0.0673616373105246
 40
0.0673616373105246
 40
0.0673616373105246
 40
0.0673616373105246
 10
46.0
 20
204.9969755874001
 30
0.0
 10
46.0
 20
204.9745217082965
 30
0.0
 10
46.04474231045945
 20
204.9851245861766
 30
0.0
 10
46.06687610630001
 20
204.9889023856001
 30
0.0
 11
46.0
 21
204.9969755874001
 31
0.0
 11
46.06687610630001
 21
204.9889023856001
 31
0.0
  0
SPLINE
  5
925
330
1B
100
AcDbEntity
  8
SK3
100
AcDbSpline
210
0.0
220
0.0
230
1.0
 70
     8
 71
     3
 72
     8
 73
     4
 74
     2
 42
0.0000000001
 43
0.0000000001
 44
0.0000000001
 12
0.9857448570380453
 22
0.1682470707710639
 32
0.0
 13
0.999560301964267
 23
-0.0296513530400091
 33
0.0
 40
0.0
 40
0.0
 40
0.0
 40
0.0
 40
0.0794890753511012
 40
0.0794890753511012
 40
0.0794890753511012
 40
0.0794890753511012
 10
46.06687610630001
 20
204.9889023856001
 30
0.0
 10
46.0929947553727
 20
204.9933603202954
 30
0.0
 10
46.11965509564635
 20
204.9956696247787
 30
0.0
 10
46.14613980369995
 20
204.9948839719
 30
0.0
 11
46.06687610630001
 21
204.9889023856001
 31
0.0
 11
46.14613980369995
 21
204.9948839719
 31
0.0
  0
SPLINE
  5
926
330
1B
100
AcDbEntity
  8
SK3
100
AcDbSpline
210
0.0
220
0.0
230
1.0
 70
     8
 71
     3
 72
     8
 73
     4
 74
     2
 42
0.0000000001
 43
0.0000000001
 44
0.0000000001
 12
0.9995603019731992
 22
-0.029651352738899
 32
0.0
 13
0.993436124396705
 23
-0.11438822816905
 33
0.0
 40
0.0
 40
0.0
 40
0.0
 40
0.0
 40
0.1034850091040787
 40
0.1034850091040787
 40
0.1034850091040787
 40
0.1034850091040787
 10
46.14613980369995
 20
204.9948839719
 30
0.0
 10
46.18061963934986
 20
204.9938611483973
 30
0.0
 10
46.21464935307415
 20
204.9867549113779
 30
0.0
 10
46.24891793519998
 20
204.9828090891
 30
0.0
 11
46.14613980369995
 21
204.9948839719
 31
0.0
 11
46.24891793519998
 21
204.9828090891
 31
0.0
  0
SPLINE
  5
927
330
1B
100
AcDbEntity
  8
SK3
100
AcDbSpline
210
0.0
220
0.0
230
1.0
 70
     8
 71
     3
 72
     8
 73
     4
 74
     2
 42
0.0000000001
 43
0.0000000001
 44
0.0000000001
 12
0.9934361243631306
 22
-0.1143882284606354
 32
0.0
 13
0.9999381938651065
 23
0.0111179337014042
 33
0.0
 40
0.0
 40
0.0
 40
0.0
 40
0.0
 40
0.1209041441751132
 40
0.1209041441751132
 40
0.1209041441751132
 40
0.1209041441751132
 10
46.24891793519998
 20
204.9828090891
 30
0.0
 10
46.28895478333624
 20
204.9781990854782
 30
0.0
 10
46.3294435712809
 20
204.9779740117137
 30
0.0
 10
46.3697424618
 20
204.9784220798001
 30
0.0
 11
46.24891793519998
 21
204.9828090891
 31
0.0
 11
46.3697424618
 21
204.9784220798001
 31
0.0
  0
SPLINE
  5
928
330
1B
100
AcDbEntity
  8
SK1
100
AcDbSpline
210
0.0
220
0.0
230
1.0
 70
     8
 71
     3
 72
    11
 73
     7
 74
     5
 42
0.0000000001
 43
0.0000000001
 44
0.0000000001
 12
0.0
 22
1.0
 32
0.0
 13
-0.9994174123316685
 23
0.0341296927655599
 33
0.0
 40
0.0
 40
0.0
 40
0.0
 40
0.0
 40
0.4012685081054423
 40
0.8011888233782668
 40
1.191406619960619
 40
1.580728914114052
 40
1.580728914114052
 40
1.580728914114052
 40
1.580728914114052
 10
60.0
 20
203.9431538444
 30
0.0
 10
60.0
 20
204.0769100137685
 30
0.0
 10
59.94519756080456
 20
204.346701408019
 30
0.0
 10
59.71971873320821
 20
204.6849174781909
 30
0.0
 10
59.39017911451796
 20
204.9151462717584
 30
0.0
 10
59.12969849326195
 20
204.9760821187046
 30
0.0
 10
59.0
 20
204.9805112688001
 30
0.0
 11
60.0
 21
203.9431538444
 31
0.0
 11
59.92081730949997
 21
204.3365321828
 31
0.0
 11
59.69963587439997
 21
204.6697213653
 31
0.0
 11
59.37923483739997
 21
204.8924613578
 31
0.0
 11
59.0
 21
204.9805112688001
 31
0.0
  0
SPLINE
  5
929
330
1B
100
AcDbEntity
  8
SK1
100
AcDbSpline
210
0.0
220
0.0
230
1.0
 70
     8
 71
     3
 72
    10
 73
     6
 74
     4
 42
0.0000000001
 43
0.0000000001
 44
0.0000000001
 12
-1.0
 22
0.0
 32
0.0
 13
0.0
 23
1.0
 33
0.0
 40
0.0
 40
0.0
 40
0.0
 40
0.0
 40
0.251092578926841
 40
0.4332363566627472
 40
0.5005979939732718
 40
0.5005979939732718
 40
0.5005979939732718
 40
0.5005979939732718
 10
46.5
 20
204.9805112688001
 30
0.0
 10
46.41630247369104
 20
204.9805112688001
 30
0.0
 10
46.25628794630503
 20
204.9696463601656
 30
0.0
 10
46.13364215888011
 20
205.0083186836948
 30
0.0
 10
46.0
 20
204.9745217082965
 30
0.0
 10
46.0
 20
204.9969755874001
 30
0.0
 11
46.5
 21
204.9805112688001
 31
0.0
 11
46.24891793530003
 21
204.9828090891
 31
0.0
 11
46.06687610630001
 21
204.9889023856001
 31
0.0
 11
46.0
 21
204.9969755874001
 31
0.0
  0
LINE
  5
A62
102
{ACAD_REACTORS
330
A86
102
}
330
1B
100
AcDbEntity
  8
1
100
AcDbLine
 10
17.0
 20
0.0
 30
0.0
 11
17.0
 21
-0.4999990000000026
 31
0.0
  0
ARC
  5
A63
102
{ACAD_REACTORS
330
A86
102
}
330
1B
100
AcDbEntity
  8
1
100
AcDbCircle
 10
17.0
 20
0.0
 30
0.0
 40
0.4999990000000001
100
AcDbArc
 50
90.0
 51
180.0
  0
LINE
  5
A64
102
{ACAD_REACTORS
330
A86
102
}
330
1B
100
AcDbEntity
  8
1
100
AcDbLine
 10
17.0
 20
0.0
 30
0.0
 11
16.50000099999999
 21
0.0
 31
0.0
  0
ARC
  5
A65
102
{ACAD_REACTORS
330
A86
102
}
330
1B
100
AcDbEntity
  8
1
100
AcDbCircle
 10
17.0
 20
0.0
 30
0.0
 40
0.4999990000000001
100
AcDbArc
 50
180.0
 51
270.0
  0
ARC
  5
A66
102
{ACAD_REACTORS
330
A86
102
}
330
1B
100
AcDbEntity
  8
1
100
AcDbCircle
 10
17.0
 20
0.0
 30
0.0
 40
0.4999990000000001
100
AcDbArc
 50
270.0
 51
0.0
  0
ARC
  5
A67
102
{ACAD_REACTORS
330
A86
102
}
330
1B
100
AcDbEntity
  8
1
100
AcDbCircle
 10
17.0
 20
0.0
 30
0.0
 40
0.4999990000000001
100
AcDbArc
 50
0.0
 51
90.0
  0
LINE
  5
A68
102
{ACAD_REACTORS
330
A86
102
}
330
1B
100
AcDbEntity
  8
1
100
AcDbLine
 10
17.49999899999999
 20
0.0
 30
0.0
 11
17.0
 21
0.0
 31
0.0
  0
LINE
  5
A69
102
{ACAD_REACTORS
330
A86
102
}
330
1B
100
AcDbEntity
  8
1
100
AcDbLine
 10
17.0
 20
0.4999990000000026
 30
0.0
 11
17.0
 21
0.0
 31
0.0
  0
LWPOLYLINE
  5
A6A
102
{ACAD_REACTORS
330
A86
102
}
330
1B
100
AcDbEntity
  8
1
100
AcDbPolyline
 90
       18
 70
     0
 43
0.0
 10
17.0
 20
0.0
 10
17.0
 20
0.4999990000000026
 10
17.05226412709999
 20
0.4972599532000573
 10
17.1039556375
 20
0.4890728222000007
 10
17.1545081882
 20
0.4755273071000375
 10
17.2033679148
 20
0.4567718153000442
 10
17.2499995
 20
0.433011835900004
 10
17.2938920384
 20
0.4045076882000558
 10
17.33456463399999
 20
0.37157166960003
 10
17.3715716696
 20
0.334564634000003
 10
17.4045076882
 20
0.2938920384000312
 10
17.4330118359
 20
0.2499995000000013
 10
17.4567718153
 20
0.203367914800026
 10
17.4755273071
 20
0.1545081882000545
 10
17.48907282219999
 20
0.1039556375000075
 10
17.4972599532
 20
0.0522641271000453
 10
17.49999899999999
 20
0.0
 10
17.0
 20
0.0
  0
HATCH
  5
A6B
102
{ACAD_REACTORS
330
A86
102
}
330
1B
100
AcDbEntity
  8
1
100
AcDbHatch
 10
0.0
 20
0.0
 30
0.0
210
0.0
220
0.0
230
1.0
  2
SOLID
 70
     1
 71
     0
 91
        1
 92
        1
 93
       17
 72
     1
 10
17.0
 20
0.0
 11
17.0
 21
0.4999990000000026
 72
     1
 10
17.0
 20
0.4999990000000026
 11
17.05226412709999
 21
0.4972599532000573
 72
     1
 10
17.05226412709999
 20
0.4972599532000573
 11
17.1039556375
 21
0.4890728222000007
 72
     1
 10
17.1039556375
 20
0.4890728222000007
 11
17.1545081882
 21
0.4755273071000375
 72
     1
 10
17.1545081882
 20
0.4755273071000375
 11
17.2033679148
 21
0.4567718153000442
 72
     1
 10
17.2033679148
 20
0.4567718153000442
 11
17.2499995
 21
0.433011835900004
 72
     1
 10
17.2499995
 20
0.433011835900004
 11
17.2938920384
 21
0.4045076882000558
 72
     1
 10
17.2938920384
 20
0.4045076882000558
 11
17.33456463399999
 21
0.37157166960003
 72
     1
 10
17.33456463399999
 20
0.37157166960003
 11
17.3715716696
 21
0.334564634000003
 72
     1
 10
17.3715716696
 20
0.334564634000003
 11
17.4045076882
 21
0.2938920384000312
 72
     1
 10
17.4045076882
 20
0.2938920384000312
 11
17.4330118359
 21
0.2499995000000013
 72
     1
 10
17.4330118359
 20
0.2499995000000013
 11
17.4567718153
 21
0.203367914800026
 72
     1
 10
17.4567718153
 20
0.203367914800026
 11
17.4755273071
 21
0.1545081882000545
 72
     1
 10
17.4755273071
 20
0.1545081882000545
 11
17.48907282219999
 21
0.1039556375000075
 72
     1
 10
17.48907282219999
 20
0.1039556375000075
 11
17.4972599532
 21
0.0522641271000453
 72
     1
 10
17.4972599532
 20
0.0522641271000453
 11
17.49999899999999
 21
0.0
 72
     1
 10
17.49999899999999
 20
0.0
 11
17.0
 21
0.0
 97
        0
 75
     0
 76
     1
 98
        1
 10
-20.5006446052
 20
-257.8300186392
  0
LWPOLYLINE
  5
A6C
102
{ACAD_REACTORS
330
A86
102
}
330
1B
100
AcDbEntity
  8
1
100
AcDbPolyline
 90
       18
 70
     0
 43
0.0
 10
17.0
 20
0.0
 10
17.0
 20
-0.4999990000000026
 10
16.9477358729
 20
-0.4972599532000004
 10
16.8960443625
 20
-0.4890728221999439
 10
16.84549181179999
 20
-0.4755273070999806
 10
16.79663208519999
 20
-0.4567718152999874
 10
16.7500005
 20
-0.4330118358999471
 10
16.7061079616
 20
-0.404507688199999
 10
16.665435366
 20
-0.3715716695999731
 10
16.6284283304
 20
-0.3345646339999462
 10
16.59549231179999
 20
-0.2938920383999743
 10
16.56698816409999
 20
-0.2499995000000013
 10
16.5432281847
 20
-0.2033679147999692
 10
16.5244726929
 20
-0.1545081881999977
 10
16.5109271778
 20
-0.1039556375000075
 10
16.5027400468
 20
-0.0522641270999884
 10
16.50000099999999
 20
0.0
 10
17.0
 20
0.0
  0
HATCH
  5
A6D
102
{ACAD_REACTORS
330
A86
102
}
330
1B
100
AcDbEntity
  8
1
100
AcDbHatch
 10
0.0
 20
0.0
 30
0.0
210
0.0
220
0.0
230
1.0
  2
SOLID
 70
     1
 71
     0
 91
        1
 92
        1
 93
       17
 72
     1
 10
17.0
 20
0.0
 11
17.0
 21
-0.4999990000000026
 72
     1
 10
17.0
 20
-0.4999990000000026
 11
16.9477358729
 21
-0.4972599532000004
 72
     1
 10
16.9477358729
 20
-0.4972599532000004
 11
16.8960443625
 21
-0.4890728221999439
 72
     1
 10
16.8960443625
 20
-0.4890728221999439
 11
16.84549181179999
 21
-0.4755273070999806
 72
     1
 10
16.84549181179999
 20
-0.4755273070999806
 11
16.79663208519999
 21
-0.4567718152999874
 72
     1
 10
16.79663208519999
 20
-0.4567718152999874
 11
16.7500005
 21
-0.4330118358999471
 72
     1
 10
16.7500005
 20
-0.4330118358999471
 11
16.7061079616
 21
-0.404507688199999
 72
     1
 10
16.7061079616
 20
-0.404507688199999
 11
16.665435366
 21
-0.3715716695999731
 72
     1
 10
16.665435366
 20
-0.3715716695999731
 11
16.6284283304
 21
-0.3345646339999462
 72
     1
 10
16.6284283304
 20
-0.3345646339999462
 11
16.59549231179999
 21
-0.2938920383999743
 72
     1
 10
16.59549231179999
 20
-0.2938920383999743
 11
16.56698816409999
 21
-0.2499995000000013
 72
     1
 10
16.56698816409999
 20
-0.2499995000000013
 11
16.5432281847
 21
-0.2033679147999692
 72
     1
 10
16.5432281847
 20
-0.2033679147999692
 11
16.5244726929
 21
-0.1545081881999977
 72
     1
 10
16.5244726929
 20
-0.1545081881999977
 11
16.5109271778
 21
-0.1039556375000075
 72
     1
 10
16.5109271778
 20
-0.1039556375000075
 11
16.5027400468
 21
-0.0522641270999884
 72
     1
 10
16.5027400468
 20
-0.0522641270999884
 11
16.50000099999999
 21
0.0
 72
     1
 10
16.50000099999999
 20
0.0
 11
17.0
 21
0.0
 97
        0
 75
     0
 76
     1
 98
        1
 10
-20.5006446052
 20
-257.8300186392
  0
LINE
  5
A6E
102
{ACAD_REACTORS
330
A86
102
}
330
1B
100
AcDbEntity
  8
1
100
AcDbLine
 10
16.50000099999999
 20
0.0
 30
0.0
 11
17.0
 21
0.0
 31
0.0
  0
ARC
  5
A6F
102
{ACAD_REACTORS
330
A86
102
}
330
1B
100
AcDbEntity
  8
1
100
AcDbCircle
 10
17.0
 20
0.0
 30
0.0
 40
0.4999990000000001
100
AcDbArc
 50
180.0
 51
270.0
  0
LINE
  5
A70
102
{ACAD_REACTORS
330
A86
102
}
330
1B
100
AcDbEntity
  8
1
100
AcDbLine
 10
17.0
 20
-0.4999990000000026
 30
0.0
 11
17.0
 21
0.0
 31
0.0
  0
LINE
  5
A73
102
{ACAD_REACTORS
330
A87
102
}
330
1B
100
AcDbEntity
  8
1
100
AcDbLine
 10
0.0
 20
0.0
 30
0.0
 11
1.499996999999996
 21
0.0
 31
0.0
  0
ARC
  5
A74
102
{ACAD_REACTORS
330
A87
102
}
330
1B
100
AcDbEntity
  8
1
100
AcDbCircle
 10
0.0
 20
0.0
 30
0.0
 40
1.499997
100
AcDbArc
 50
180.0
 51
270.0
  0
LINE
  5
A75
102
{ACAD_REACTORS
330
A87
102
}
330
1B
100
AcDbEntity
  8
1
100
AcDbLine
 10
0.0
 20
0.0
 30
0.0
 11
0.0
 21
-1.499997000000007
 31
0.0
  0
ARC
  5
A76
102
{ACAD_REACTORS
330
A87
102
}
330
1B
100
AcDbEntity
  8
1
100
AcDbCircle
 10
0.0
 20
0.0
 30
0.0
 40
1.499997
100
AcDbArc
 50
270.0
 51
0.0
  0
ARC
  5
A77
102
{ACAD_REACTORS
330
A87
102
}
330
1B
100
AcDbEntity
  8
1
100
AcDbCircle
 10
0.0
 20
0.0
 30
0.0
 40
1.499997
100
AcDbArc
 50
0.0
 51
90.0
  0
ARC
  5
A78
102
{ACAD_REACTORS
330
A87
102
}
330
1B
100
AcDbEntity
  8
1
100
AcDbCircle
 10
0.0
 20
0.0
 30
0.0
 40
1.499997
100
AcDbArc
 50
90.0
 51
180.0
  0
LINE
  5
A79
102
{ACAD_REACTORS
330
A87
102
}
330
1B
100
AcDbEntity
  8
1
100
AcDbLine
 10
0.0
 20
1.499997000000007
 30
0.0
 11
0.0
 21
0.0
 31
0.0
  0
LINE
  5
A7A
102
{ACAD_REACTORS
330
A87
102
}
330
1B
100
AcDbEntity
  8
1
100
AcDbLine
 10
-1.499997
 20
0.0
 30
0.0
 11
0.0
 21
0.0
 31
0.0
  0
LWPOLYLINE
  5
A7B
102
{ACAD_REACTORS
330
A87
102
}
330
1B
100
AcDbEntity
  8
1
100
AcDbPolyline
 90
       18
 70
     0
 43
0.0
 10
0.0
 20
0.0
 10
-1.499997
 20
0.0
 10
-1.491779859500002
 20
0.156792381300022
 10
-1.467218466700003
 20
0.3118669125000224
 10
-1.426581921300002
 20
0.4635245645000055
 10
-1.370315445799999
 20
0.6101037444000213
 10
-1.299035507600002
 20
0.7499985000000038
 10
-1.213523064500002
 20
0.8816761151000491
 10
-1.114715008800001
 20
1.003693902100053
 10
-1.003693902100003
 20
1.114715008800033
 10
-0.8816761151000029
 20
1.213523064500009
 10
-0.7499985000000003
 20
1.299035507600024
 10
-0.6101037444000035
 20
1.370315445800031
 10
-0.4635245645000019
 20
1.426581921299998
 10
-0.3118669125000011
 20
1.467218466700046
 10
-0.1567923813000007
 20
1.491779859500013
 10
0.0
 20
1.499997000000007
 10
0.0
 20
0.0
  0
HATCH
  5
A7C
102
{ACAD_REACTORS
330
A87
102
}
330
1B
100
AcDbEntity
  8
1
100
AcDbHatch
 10
0.0
 20
0.0
 30
0.0
210
0.0
220
0.0
230
1.0
  2
SOLID
 70
     1
 71
     0
 91
        1
 92
        1
 93
       17
 72
     1
 10
0.0
 20
0.0
 11
-1.499997
 21
0.0
 72
     1
 10
-1.499997
 20
0.0
 11
-1.491779859500002
 21
0.156792381300022
 72
     1
 10
-1.491779859500002
 20
0.156792381300022
 11
-1.467218466700003
 21
0.3118669125000224
 72
     1
 10
-1.467218466700003
 20
0.3118669125000224
 11
-1.426581921300002
 21
0.4635245645000055
 72
     1
 10
-1.426581921300002
 20
0.4635245645000055
 11
-1.370315445799999
 21
0.6101037444000213
 72
     1
 10
-1.370315445799999
 20
0.6101037444000213
 11
-1.299035507600002
 21
0.7499985000000038
 72
     1
 10
-1.299035507600002
 20
0.7499985000000038
 11
-1.213523064500002
 21
0.8816761151000491
 72
     1
 10
-1.213523064500002
 20
0.8816761151000491
 11
-1.114715008800001
 21
1.003693902100053
 72
     1
 10
-1.114715008800001
 20
1.003693902100053
 11
-1.003693902100003
 21
1.114715008800033
 72
     1
 10
-1.003693902100003
 20
1.114715008800033
 11
-0.8816761151000029
 21
1.213523064500009
 72
     1
 10
-0.8816761151000029
 20
1.213523064500009
 11
-0.7499985000000003
 21
1.299035507600024
 72
     1
 10
-0.7499985000000003
 20
1.299035507600024
 11
-0.6101037444000035
 21
1.370315445800031
 72
     1
 10
-0.6101037444000035
 20
1.370315445800031
 11
-0.4635245645000019
 21
1.426581921299998
 72
     1
 10
-0.4635245645000019
 20
1.426581921299998
 11
-0.3118669125000011
 21
1.467218466700046
 72
     1
 10
-0.3118669125000011
 20
1.467218466700046
 11
-0.1567923813000007
 21
1.491779859500013
 72
     1
 10
-0.1567923813000007
 20
1.491779859500013
 11
0.0
 21
1.499997000000007
 72
     1
 10
0.0
 20
1.499997000000007
 11
0.0
 21
0.0
 97
        0
 75
     0
 76
     1
 98
        1
 10
-20.5006446052
 20
-257.8300186392
  0
LWPOLYLINE
  5
A7D
102
{ACAD_REACTORS
330
A87
102
}
330
1B
100
AcDbEntity
  8
1
100
AcDbPolyline
 90
       18
 70
     0
 43
0.0
 10
0.0
 20
0.0
 10
1.499996999999996
 20
0.0
 10
1.491779859499995
 20
-0.1567923812999652
 10
1.4672184667
 20
-0.3118669125000224
 10
1.426581921299998
 20
-0.4635245644999486
 10
1.370315445799995
 20
-0.6101037443999644
 10
1.299035507599999
 20
-0.7499985000000038
 10
1.213523064499995
 20
-0.8816761150999923
 10
1.114715008800001
 20
-1.003693902099996
 10
1.0036939021
 20
-1.114715008799976
 10
0.8816761150999994
 20
-1.213523064499952
 10
0.7499984999999967
 20
-1.299035507599967
 10
0.6101037444
 20
-1.370315445799974
 10
0.4635245644999984
 20
-1.426581921299941
 10
0.3118669124999975
 20
-1.467218466699989
 10
0.1567923813000007
 20
-1.491779859499956
 10
0.0
 20
-1.499997000000007
 10
0.0
 20
0.0
  0
HATCH
  5
A7E
102
{ACAD_REACTORS
330
A87
102
}
330
1B
100
AcDbEntity
  8
1
100
AcDbHatch
 10
0.0
 20
0.0
 30
0.0
210
0.0
220
0.0
230
1.0
  2
SOLID
 70
     1
 71
     0
 91
        1
 92
        1
 93
       17
 72
     1
 10
0.0
 20
0.0
 11
1.499996999999996
 21
0.0
 72
     1
 10
1.499996999999996
 20
0.0
 11
1.491779859499995
 21
-0.1567923812999652
 72
     1
 10
1.491779859499995
 20
-0.1567923812999652
 11
1.4672184667
 21
-0.3118669125000224
 72
     1
 10
1.4672184667
 20
-0.3118669125000224
 11
1.426581921299998
 21
-0.4635245644999486
 72
     1
 10
1.426581921299998
 20
-0.4635245644999486
 11
1.370315445799995
 21
-0.6101037443999644
 72
     1
 10
1.370315445799995
 20
-0.6101037443999644
 11
1.299035507599999
 21
-0.7499985000000038
 72
     1
 10
1.299035507599999
 20
-0.7499985000000038
 11
1.213523064499995
 21
-0.8816761150999923
 72
     1
 10
1.213523064499995
 20
-0.8816761150999923
 11
1.114715008800001
 21
-1.003693902099996
 72
     1
 10
1.114715008800001
 20
-1.003693902099996
 11
1.0036939021
 21
-1.114715008799976
 72
     1
 10
1.0036939021
 20
-1.114715008799976
 11
0.8816761150999994
 21
-1.213523064499952
 72
     1
 10
0.8816761150999994
 20
-1.213523064499952
 11
0.7499984999999967
 21
-1.299035507599967
 72
     1
 10
0.7499984999999967
 20
-1.299035507599967
 11
0.6101037444
 21
-1.370315445799974
 72
     1
 10
0.6101037444
 20
-1.370315445799974
 11
0.4635245644999984
 21
-1.426581921299941
 72
     1
 10
0.4635245644999984
 20
-1.426581921299941
 11
0.3118669124999975
 21
-1.467218466699989
 72
     1
 10
0.3118669124999975
 20
-1.467218466699989
 11
0.1567923813000007
 21
-1.491779859499956
 72
     1
 10
0.1567923813000007
 20
-1.491779859499956
 11
0.0
 21
-1.499997000000007
 72
     1
 10
0.0
 20
-1.499997000000007
 11
0.0
 21
0.0
 97
        0
 75
     0
 76
     1
 98
        1
 10
-20.5006446052
 20
-257.8300186392
  0
LINE
  5
A7F
102
{ACAD_REACTORS
330
A87
102
}
330
1B
100
AcDbEntity
  8
1
100
AcDbLine
 10
0.0
 20
-1.499997000000007
 30
0.0
 11
0.0
 21
0.0
 31
0.0
  0
ARC
  5
A80
102
{ACAD_REACTORS
330
A87
102
}
330
1B
100
AcDbEntity
  8
1
100
AcDbCircle
 10
0.0
 20
0.0
 30
0.0
 40
1.499997
100
AcDbArc
 50
270.0
 51
0.0
  0
LINE
  5
A81
102
{ACAD_REACTORS
330
A87
102
}
330
1B
100
AcDbEntity
  8
1
100
AcDbLine
 10
1.499996999999996
 20
0.0
 30
0.0
 11
0.0
 21
0.0
 31
0.0
  0
ENDSEC
  0
SECTION
  2
OBJECTS
  0
DICTIONARY
  5
2F4
330
0
100
AcDbDictionary
281
     1
  3
ACAD_COLOR
350
2FE
  3
ACAD_GROUP
350
2F5
  3
ACAD_LAYOUT
350
301
  3
ACAD_MATERIAL
350
2FD
  3
ACAD_MLINESTYLE
350
2F6
  3
ACAD_PLOTSETTINGS
350
302
  3
ACAD_PLOTSTYLENAME
350
2FB
  3
ACAD_TABLESTYLE
350
2FF
  3
ACDBHEADERROUNDTRIPXREC
350
AA6
  3
AcDbVariableDictionary
350
A56
  0
DICTIONARY
  5
510
330
2
100
AcDbDictionary
280
     1
281
     1
  3
ACAD_LAYERFILTERS
360
AA4
  3
ACLYDICTIONARY
360
AA3
  0
DICTIONARY
  5
A71
330
1B
100
AcDbDictionary
280
     1
281
     1
  3
ACAD_SORTENTS
360
A72
  0
DICTIONARY
  5
2FE
102
{ACAD_REACTORS
330
2F4
102
}
330
2F4
100
AcDbDictionary
281
     1
  0
DICTIONARY
  5
2F5
102
{ACAD_REACTORS
330
2F4
102
}
330
2F4
100
AcDbDictionary
281
     1
  3
*A1
350
A86
  3
*A2
350
A87
  0
DICTIONARY
  5
301
102
{ACAD_REACTORS
330
2F4
102
}
330
2F4
100
AcDbDictionary
281
     1
  3
Layout1
350
304
  3
Model
350
303
  0
DICTIONARY
  5
2FD
102
{ACAD_REACTORS
330
2F4
102
}
330
2F4
100
AcDbDictionary
281
     1
  0
DICTIONARY
  5
2F6
102
{ACAD_REACTORS
330
2F4
102
}
330
2F4
100
AcDbDictionary
281
     1
  3
STANDARD
350
2F7
  0
DICTIONARY
  5
302
102
{ACAD_REACTORS
330
2F4
102
}
330
2F4
100
AcDbDictionary
281
     1
  0
ACDBDICTIONARYWDFLT
  5
2FB
102
{ACAD_REACTORS
330
2F4
102
}
330
2F4
100
AcDbDictionary
281
     1
  3
Normal
350
2FC
100
AcDbDictionaryWithDefault
340
2FC
  0
DICTIONARY
  5
2FF
102
{ACAD_REACTORS
330
2F4
102
}
330
2F4
100
AcDbDictionary
281
     1
  3
Standard
350
300
  0
DICTIONARY
  5
AA6
102
{ACAD_REACTORS
330
2F4
102
}
330
2F4
100
AcDbDictionary
281
     1
  0
DICTIONARY
  5
A56
102
{ACAD_REACTORS
330
2F4
102
}
330
2F4
100
AcDbDictionary
281
     1
  3
CTABLESTYLE
350
A57
  3
DIMASSOC
350
A58
  3
PROJECTNAME
350
A59
  0
DICTIONARY
  5
AA4
102
{ACAD_REACTORS
330
510
102
}
330
510
100
AcDbDictionary
281
     1
  0
DICTIONARY
  5
AA3
102
{ACAD_REACTORS
330
510
102
}
330
510
100
AcDbDictionary
281
     1
1001
ACAD
1000
<All
  0
SORTENTSTABLE
  5
A72
102
{ACAD_REACTORS
330
A71
102
}
330
A71
100
AcDbSortentsTable
330
1B
331
A6D
  5
A6D
331
91F
  5
91F
331
8FD
  5
8FD
331
90E
  5
90E
331
8EC
  5
8EC
331
8DB
  5
8DB
331
A6B
  5
A6B
331
91D
  5
91D
331
8FB
  5
8FB
331
90C
  5
90C
331
8EA
  5
8EA
331
8D9
  5
8D9
331
A69
  5
A69
331
91B
  5
91B
331
8F9
  5
8F9
331
90A
  5
90A
331
8E8
  5
8E8
331
8CE
  5
8CE
331
A67
  5
A67
331
919
  5
919
331
8F7
  5
8F7
331
8D5
  5
8D5
331
908
  5
908
331
8E6
  5
8E6
331
8CC
  5
8CC
331
A65
  5
A65
331
917
  5
917
331
8F5
  5
8F5
331
928
  5
928
331
906
  5
906
331
8E4
  5
8E4
331
8D3
  5
8D3
331
A63
  5
A63
331
915
  5
915
331
8F3
  5
8F3
331
926
  5
926
331
904
  5
904
331
8E2
  5
8E2
331
8D1
  5
8D1
331
913
  5
913
331
8F1
  5
8F1
331
924
  5
924
331
902
  5
902
331
8E0
  5
8E0
331
911
  5
911
331
A70
  5
A70
331
922
  5
922
331
900
  5
900
331
8EF
  5
8EF
331
8DE
  5
8DE
331
A6E
  5
A6E
331
920
  5
920
331
8FE
  5
8FE
331
90F
  5
90F
331
8ED
  5
8ED
331
8DC
  5
8DC
331
A6C
  5
A6C
331
91E
  5
91E
331
8FC
  5
8FC
331
90D
  5
90D
331
8EB
  5
8EB
331
8DA
  5
8DA
331
A6A
  5
A6A
331
91C
  5
91C
331
8FA
  5
8FA
331
90B
  5
90B
331
8E9
  5
8E9
331
8CF
  5
8CF
331
A68
  5
A68
331
91A
  5
91A
331
8F8
  5
8F8
331
8D6
  5
8D6
331
909
  5
909
331
8E7
  5
8E7
331
8CD
  5
8CD
331
A66
  5
A66
331
918
  5
918
331
8F6
  5
8F6
331
929
  5
929
331
907
  5
907
331
8E5
  5
8E5
331
8D4
  5
8D4
331
A64
  5
A64
331
916
  5
916
331
8F4
  5
8F4
331
927
  5
927
331
905
  5
905
331
8E3
  5
8E3
331
8D2
  5
8D2
331
A62
  5
A62
331
914
  5
914
331
8F2
  5
8F2
331
925
  5
925
331
903
  5
903
331
8E1
  5
8E1
331
8D0
  5
8D0
331
912
  5
912
331
8F0
  5
8F0
331
923
  5
923
331
901
  5
901
331
8DF
  5
8DF
331
910
  5
910
331
A6F
  5
A6F
331
921
  5
921
331
8FF
  5
8FF
331
8EE
  5
8EE
331
8DD
  5
8DD
  0
GROUP
  5
A86
102
{ACAD_REACTORS
330
2F5
102
}
330
2F5
100
AcDbGroup
300

 70
     1
 71
     1
340
A70
340
A6F
340
A6E
340
A6D
340
A6C
340
A6B
340
A6A
340
A69
340
A68
340
A67
340
A66
340
A65
340
A64
340
A63
340
A62
  0
GROUP
  5
A87
102
{ACAD_REACTORS
330
2F5
102
}
330
2F5
100
AcDbGroup
300

 70
     1
 71
     1
340
A81
340
A80
340
A7F
340
A7E
340
A7D
340
A7C
340
A7B
340
A7A
340
A79
340
A78
340
A77
340
A76
340
A75
340
A74
340
A73
  0
LAYOUT
  5
304
102
{ACAD_XDICTIONARY
360
AA9
102
}
102
{ACAD_REACTORS
330
301
102
}
330
301
100
AcDbPlotSettings
  1

  2
\\ingdom02\ITB3
  4

  6

 40
0.0
 41
0.0
 42
0.0
 43
0.0
 44
0.0
 45
0.0
 46
0.0
 47
0.0
 48
0.0
 49
0.0
140
0.0
141
0.0
142
1.0
143
1.0
 70
   688
 72
     0
 73
     0
 74
     5
  7

 75
    16
147
1.0
148
0.0
149
0.0
100
AcDbLayout
  1
Layout1
 70
     1
 71
     1
 10
0.0
 20
0.0
 11
12.0
 21
9.0
 12
0.0
 22
0.0
 32
0.0
 14
1.000000000000000E+20
 24
1.000000000000000E+20
 34
1.000000000000000E+20
 15
-1.000000000000000E+20
 25
-1.000000000000000E+20
 35
-1.000000000000000E+20
146
0.0
 13
0.0
 23
0.0
 33
0.0
 16
1.0
 26
0.0
 36
0.0
 17
0.0
 27
1.0
 37
0.0
 76
     0
330
1C
  0
LAYOUT
  5
303
102
{ACAD_XDICTIONARY
360
AA7
102
}
102
{ACAD_REACTORS
330
301
102
}
330
301
100
AcDbPlotSettings
  1

  2
\\ingdom02\ITB3
  4

  6

 40
0.0
 41
0.0
 42
0.0
 43
0.0
 44
0.0
 45
0.0
 46
0.0
 47
0.0
 48
0.0
 49
0.0
140
0.0
141
0.0
142
1.0
143
1.0
 70
  1712
 72
     0
 73
     0
 74
     0
  7

 75
     0
147
1.0
148
0.0
149
0.0
100
AcDbLayout
  1
Model
 70
     1
 71
     0
 10
0.0
 20
0.0
 11
12.0
 21
9.0
 12
0.0
 22
0.0
 32
0.0
 14
0.0
 24
0.0
 34
0.0
 15
0.0
 25
0.0
 35
0.0
146
0.0
 13
0.0
 23
0.0
 33
0.0
 16
1.0
 26
0.0
 36
0.0
 17
0.0
 27
1.0
 37
0.0
 76
     0
330
1B
  0
MLINESTYLE
  5
2F7
102
{ACAD_REACTORS
330
2F6
102
}
330
2F6
100
AcDbMlineStyle
  2
STANDARD
 70
     0
  3

 62
   256
 51
90.0
 52
90.0
 71
     2
 49
0.5
 62
   256
  6
BYLAYER
 49
-0.5
 62
   256
  6
BYLAYER
  0
ACDBPLACEHOLDER
  5
2FC
102
{ACAD_REACTORS
330
2FB
102
}
330
2FB
  0
TABLESTYLE
  5
300
102
{ACAD_REACTORS
330
2FF
102
}
330
2FF
100
AcDbTableStyle
  3
Standard
 70
     0
 71
     0
 40
1.5
 41
1.5
280
     0
281
     0
  7
STANDARD
140
4.5
170
     2
 62
     0
 63
     7
283
     0
274
    -2
284
     1
 64
     0
275
    -2
285
     1
 65
     0
276
    -2
286
     1
 66
     0
277
    -2
287
     1
 67
     0
278
    -2
288
     1
 68
     0
279
    -2
289
     1
 69
     0
  7
STANDARD
140
6.0
170
     5
 62
     0
 63
     7
283
     0
274
    -2
284
     1
 64
     0
275
    -2
285
     1
 65
     0
276
    -2
286
     1
 66
     0
277
    -2
287
     1
 67
     0
278
    -2
288
     1
 68
     0
279
    -2
289
     1
 69
     0
  7
STANDARD
140
4.5
170
     5
 62
     0
 63
     7
283
     0
274
    -2
284
     1
 64
     0
275
    -2
285
     1
 65
     0
276
    -2
286
     1
 66
     0
277
    -2
287
     1
 67
     0
278
    -2
288
     1
 68
     0
279
    -2
289
     1
 69
     0
  0
DICTIONARYVAR
  5
A57
102
{ACAD_REACTORS
330
A56
102
}
330
A56
100
DictionaryVariables
280
     0
  1
STANDARD
  0
DICTIONARYVAR
  5
A58
102
{ACAD_REACTORS
330
A56
102
}
330
A56
100
DictionaryVariables
280
     0
  1
1
  0
DICTIONARYVAR
  5
A59
102
{ACAD_REACTORS
330
A56
102
}
330
A56
100
DictionaryVariables
280
     0
  1

  0
DICTIONARY
  5
AA9
330
304
100
AcDbDictionary
280
     1
281
     1
  3
ACAD_XREC_ROUNDTRIP
360
AAA
  0
DICTIONARY
  5
AA7
330
303
100
AcDbDictionary
280
     1
281
     1
  3
ACAD_XREC_ROUNDTRIP
360
AA8
  0
XRECORD
  5
AAA
102
{ACAD_REACTORS
330
AA9
102
}
330
AA9
100
AcDbXrecord
280
     1
102
SHADEPLOT
 70
     0
102
SHADEPLOTRESLEVEL
 70
     2
102
SHADEPLOTCUSTOMDPI
 70
   300
  0
XRECORD
  5
AA8
102
{ACAD_REACTORS
330
AA7
102
}
330
AA7
100
AcDbXrecord
280
     1
102
SHADEPLOT
 70
     0
102
SHADEPLOTRESLEVEL
 70
     2
102
SHADEPLOTCUSTOMDPI
 70
   300
  0
ENDSEC
  0
EOF
