  0
SECTION
  2
HEADER
  9
$ACADVER
  1
AC1015
  9
$ACADMAINTVER
 70
    20
  9
$DWGCODEPAGE
  3
ANSI_1252
  9
$INSBASE
 10
0.0
 20
0.0
 30
0.0
  9
$EXTMIN
 10
-25.25125385517795
 20
-196.2822933047315
 30
0.0
  9
$EXTMAX
 10
110.375
 20
219.9320866141731
 30
0.0
  9
$LIMMIN
 10
0.0
 20
0.0
  9
$LIMMAX
 10
594.0
 20
420.0
  9
$ORTHOMODE
 70
     0
  9
$REGENMODE
 70
     1
  9
$FILLMODE
 70
     1
  9
$QTEXTMODE
 70
     0
  9
$MIRRTEXT
 70
     0
  9
$LTSCALE
 40
32.67
  9
$ATTMODE
 70
     1
  9
$TEXTSIZE
 40
0.2
  9
$TRACEWID
 40
0.05
  9
$TEXTSTYLE
  7
STANDARD
  9
$CLAYER
  8
0
  9
$CELTYPE
  6
BYLAYER
  9
$CECOLOR
 62
   256
  9
$CELTSCALE
 40
1.0
  9
$DISPSILH
 70
     0
  9
$DIMSCALE
 40
1.0
  9
$DIMASZ
 40
3.5
  9
$DIMEXO
 40
0.625
  9
$DIMDLI
 40
3.75
  9
$DIMRND
 40
0.0
  9
$DIMDLE
 40
0.0
  9
$DIMEXE
 40
2.0
  9
$DIMTP
 40
0.0
  9
$DIMTM
 40
0.0
  9
$DIMTXT
 40
3.5
  9
$DIMCEN
 40
2.5
  9
$DIMTSZ
 40
0.0
  9
$DIMTOL
 70
     0
  9
$DIMLIM
 70
     0
  9
$DIMTIH
 70
     0
  9
$DIMTOH
 70
     0
  9
$DIMSE1
 70
     0
  9
$DIMSE2
 70
     0
  9
$DIMTAD
 70
     1
  9
$DIMZIN
 70
     8
  9
$DIMBLK
  1

  9
$DIMASO
 70
     1
  9
$DIMSHO
 70
     1
  9
$DIMPOST
  1

  9
$DIMAPOST
  1

  9
$DIMALT
 70
     0
  9
$DIMALTD
 70
     3
  9
$DIMALTF
 40
0.03937007874016
  9
$DIMLFAC
 40
1.0
  9
$DIMTOFL
 70
     1
  9
$DIMTVP
 40
0.0
  9
$DIMTIX
 70
     0
  9
$DIMSOXD
 70
     0
  9
$DIMSAH
 70
     0
  9
$DIMBLK1
  1

  9
$DIMBLK2
  1

  9
$DIMSTYLE
  2
ISO-25
  9
$DIMCLRD
 70
   256
  9
$DIMCLRE
 70
   256
  9
$DIMCLRT
 70
   256
  9
$DIMTFAC
 40
1.0
  9
$DIMGAP
 40
0.625
  9
$DIMJUST
 70
     0
  9
$DIMSD1
 70
     0
  9
$DIMSD2
 70
     0
  9
$DIMTOLJ
 70
     0
  9
$DIMTZIN
 70
     8
  9
$DIMALTZ
 70
     0
  9
$DIMALTTZ
 70
     0
  9
$DIMUPT
 70
     0
  9
$DIMDEC
 70
     2
  9
$DIMTDEC
 70
     2
  9
$DIMALTU
 70
     2
  9
$DIMALTTD
 70
     3
  9
$DIMTXSTY
  7
STANDARD
  9
$DIMAUNIT
 70
     0
  9
$DIMADEC
 70
     0
  9
$DIMALTRND
 40
0.0
  9
$DIMAZIN
 70
     0
  9
$DIMDSEP
 70
    46
  9
$DIMATFIT
 70
     3
  9
$DIMFRAC
 70
     0
  9
$DIMLDRBLK
  1

  9
$DIMLUNIT
 70
     2
  9
$DIMLWD
 70
    -2
  9
$DIMLWE
 70
    -2
  9
$DIMTMOVE
 70
     0
  9
$LUNITS
 70
     2
  9
$LUPREC
 70
     4
  9
$SKETCHINC
 40
0.1
  9
$FILLETRAD
 40
0.0
  9
$AUNITS
 70
     0
  9
$AUPREC
 70
     0
  9
$MENU
  1
.
  9
$ELEVATION
 40
0.0
  9
$PELEVATION
 40
0.0
  9
$THICKNESS
 40
0.0
  9
$LIMCHECK
 70
     0
  9
$CHAMFERA
 40
0.0
  9
$CHAMFERB
 40
0.0
  9
$CHAMFERC
 40
0.0
  9
$CHAMFERD
 40
0.0
  9
$SKPOLY
 70
     0
  9
$TDCREATE
 40
2453791.359822720
  9
$TDUCREATE
 40
2453791.318156053
  9
$TDUPDATE
 40
2453791.373050278
  9
$TDUUPDATE
 40
2453791.331383611
  9
$TDINDWG
 40
0.0047499653
  9
$TDUSRTIMER
 40
0.0047499653
  9
$USRTIMER
 70
     1
  9
$ANGBASE
 50
0.0
  9
$ANGDIR
 70
     0
  9
$PDMODE
 70
     3
  9
$PDSIZE
 40
0.3125
  9
$PLINEWID
 40
0.0
  9
$SPLFRAME
 70
     0
  9
$SPLINETYPE
 70
     6
  9
$SPLINESEGS
 70
     8
  9
$HANDSEED
  5
8D9
  9
$SURFTAB1
 70
     6
  9
$SURFTAB2
 70
     6
  9
$SURFTYPE
 70
     6
  9
$SURFU
 70
     6
  9
$SURFV
 70
     6
  9
$UCSBASE
  2

  9
$UCSNAME
  2

  9
$UCSORG
 10
0.0
 20
0.0
 30
0.0
  9
$UCSXDIR
 10
1.0
 20
0.0
 30
0.0
  9
$UCSYDIR
 10
0.0
 20
1.0
 30
0.0
  9
$UCSORTHOREF
  2

  9
$UCSORTHOVIEW
 70
     0
  9
$UCSORGTOP
 10
0.0
 20
0.0
 30
0.0
  9
$UCSORGBOTTOM
 10
0.0
 20
0.0
 30
0.0
  9
$UCSORGLEFT
 10
0.0
 20
0.0
 30
0.0
  9
$UCSORGRIGHT
 10
0.0
 20
0.0
 30
0.0
  9
$UCSORGFRONT
 10
0.0
 20
0.0
 30
0.0
  9
$UCSORGBACK
 10
0.0
 20
0.0
 30
0.0
  9
$PUCSBASE
  2

  9
$PUCSNAME
  2

  9
$PUCSORG
 10
0.0
 20
0.0
 30
0.0
  9
$PUCSXDIR
 10
1.0
 20
0.0
 30
0.0
  9
$PUCSYDIR
 10
0.0
 20
1.0
 30
0.0
  9
$PUCSORTHOREF
  2

  9
$PUCSORTHOVIEW
 70
     0
  9
$PUCSORGTOP
 10
0.0
 20
0.0
 30
0.0
  9
$PUCSORGBOTTOM
 10
0.0
 20
0.0
 30
0.0
  9
$PUCSORGLEFT
 10
0.0
 20
0.0
 30
0.0
  9
$PUCSORGRIGHT
 10
0.0
 20
0.0
 30
0.0
  9
$PUCSORGFRONT
 10
0.0
 20
0.0
 30
0.0
  9
$PUCSORGBACK
 10
0.0
 20
0.0
 30
0.0
  9
$USERI1
 70
     0
  9
$USERI2
 70
     0
  9
$USERI3
 70
     0
  9
$USERI4
 70
     0
  9
$USERI5
 70
     0
  9
$USERR1
 40
0.0
  9
$USERR2
 40
0.0
  9
$USERR3
 40
0.0
  9
$USERR4
 40
0.0
  9
$USERR5
 40
0.0
  9
$WORLDVIEW
 70
     1
  9
$SHADEDGE
 70
     3
  9
$SHADEDIF
 70
    70
  9
$TILEMODE
 70
     1
  9
$MAXACTVP
 70
    64
  9
$PINSBASE
 10
0.0
 20
0.0
 30
0.0
  9
$PLIMCHECK
 70
     0
  9
$PEXTMIN
 10
1.000000000000000E+20
 20
1.000000000000000E+20
 30
1.000000000000000E+20
  9
$PEXTMAX
 10
-1.000000000000000E+20
 20
-1.000000000000000E+20
 30
-1.000000000000000E+20
  9
$PLIMMIN
 10
0.0
 20
0.0
  9
$PLIMMAX
 10
12.0
 20
9.0
  9
$UNITMODE
 70
     0
  9
$VISRETAIN
 70
     1
  9
$PLINEGEN
 70
     0
  9
$PSLTSCALE
 70
     1
  9
$TREEDEPTH
 70
  3020
  9
$CMLSTYLE
  2
STANDARD
  9
$CMLJUST
 70
     0
  9
$CMLSCALE
 40
1.0
  9
$PROXYGRAPHICS
 70
     1
  9
$MEASUREMENT
 70
     1
  9
$CELWEIGHT
370
    -1
  9
$ENDCAPS
280
     0
  9
$JOINSTYLE
280
     0
  9
$LWDISPLAY
290
     0
  9
$INSUNITS
 70
     0
  9
$HYPERLINKBASE
  1

  9
$STYLESHEET
  1

  9
$XEDIT
290
     1
  9
$CEPSNTYPE
380
     0
  9
$PSTYLEMODE
290
     1
  9
$FINGERPRINTGUID
  2
{E40A3F92-915F-4E68-9FFD-D4D2D95527DE}
  9
$VERSIONGUID
  2
{4A8409C2-28AF-42B4-8FE0-5DEABC0C7EFA}
  9
$EXTNAMES
290
     1
  9
$PSVPSCALE
 40
0.0
  9
$OLESTARTUP
290
     0
  0
ENDSEC
  0
SECTION
  2
CLASSES
  0
CLASS
  1
ACDBDICTIONARYWDFLT
  2
AcDbDictionaryWithDefault
  3
ObjectDBX Classes
 90
        0
280
     0
281
     0
  0
CLASS
  1
TABLESTYLE
  2
AcDbTableStyle
  3
ObjectDBX Classes
 90
     2047
280
     0
281
     0
  0
CLASS
  1
DICTIONARYVAR
  2
AcDbDictionaryVar
  3
ObjectDBX Classes
 90
        0
280
     0
281
     0
  0
CLASS
  1
ACDBPLACEHOLDER
  2
AcDbPlaceHolder
  3
ObjectDBX Classes
 90
        0
280
     0
281
     0
  0
CLASS
  1
LAYOUT
  2
AcDbLayout
  3
ObjectDBX Classes
 90
        0
280
     0
281
     0
  0
ENDSEC
  0
SECTION
  2
TABLES
  0
TABLE
  2
VPORT
  5
8
330
0
100
AcDbSymbolTable
 70
     2
  0
VPORT
  5
8D3
330
8
100
AcDbSymbolTableRecord
100
AcDbViewportTableRecord
  2
*Active
 70
     0
 10
0.0
 20
0.0
 11
1.0
 21
1.0
 12
42.6493388554656
 22
11.9554145656939
 13
0.0
 23
0.0
 14
1.0
 24
1.0
 15
0.0
 25
0.0
 16
0.0
 26
0.0
 36
1.0
 17
0.0
 27
0.0
 37
0.0
 40
419.1311128651658
 41
1.494367959949937
 42
50.0
 43
0.0
 44
0.0
 50
0.0
 51
0.0
 71
     0
 72
   100
 73
     1
 74
     1
 75
     0
 76
     0
 77
     0
 78
     0
281
     0
 65
     1
110
0.0
120
0.0
130
0.0
111
1.0
121
0.0
131
0.0
112
0.0
122
1.0
132
0.0
 79
     0
146
0.0
  0
ENDTAB
  0
TABLE
  2
LTYPE
  5
5
330
0
100
AcDbSymbolTable
 70
     3
  0
LTYPE
  5
14
330
5
100
AcDbSymbolTableRecord
100
AcDbLinetypeTableRecord
  2
BYBLOCK
 70
     0
  3

 72
    65
 73
     0
 40
0.0
  0
LTYPE
  5
15
330
5
100
AcDbSymbolTableRecord
100
AcDbLinetypeTableRecord
  2
BYLAYER
 70
     0
  3

 72
    65
 73
     0
 40
0.0
  0
LTYPE
  5
16
330
5
100
AcDbSymbolTableRecord
100
AcDbLinetypeTableRecord
  2
CONTINUOUS
 70
     0
  3
Solid line
 72
    65
 73
     0
 40
0.0
  0
LTYPE
  5
1F5
330
5
100
AcDbSymbolTableRecord
100
AcDbLinetypeTableRecord
  2
CENTER
 70
     0
  3
____ _ ____ _ ____ _ ____ _ ____ _ ____ _ ____
 72
    65
 73
     4
 40
0.6
 49
0.375
 74
     0
 49
-0.075
 74
     0
 49
0.075
 74
     0
 49
-0.075
 74
     0
  0
LTYPE
  5
1F6
330
5
100
AcDbSymbolTableRecord
100
AcDbLinetypeTableRecord
  2
HIDDEN
 70
     0
  3
- - - - - - - - - - - - - - - - - - - -
 72
    65
 73
     2
 40
0.2
 49
0.1
 74
     0
 49
-0.1
 74
     0
  0
ENDTAB
  0
TABLE
  2
LAYER
  5
2
102
{ACAD_XDICTIONARY
360
30B
102
}
330
0
100
AcDbSymbolTable
 70
    11
  0
LAYER
  5
10
330
2
100
AcDbSymbolTableRecord
100
AcDbLayerTableRecord
  2
0
 70
     0
 62
     7
  6
CONTINUOUS
370
    -3
390
301
  0
LAYER
  5
1FD
330
2
100
AcDbSymbolTableRecord
100
AcDbLayerTableRecord
  2
1
 70
     0
 62
     4
  6
CONTINUOUS
370
    -3
390
301
  0
LAYER
  5
1FE
330
2
100
AcDbSymbolTableRecord
100
AcDbLayerTableRecord
  2
2
 70
     0
 62
     7
  6
CONTINUOUS
370
    -3
390
301
  0
LAYER
  5
1FF
330
2
100
AcDbSymbolTableRecord
100
AcDbLayerTableRecord
  2
4
 70
     0
 62
     2
  6
CENTER
370
    -3
390
301
  0
LAYER
  5
200
330
2
100
AcDbSymbolTableRecord
100
AcDbLayerTableRecord
  2
6
 70
     0
 62
     5
  6
CONTINUOUS
370
    -3
390
301
  0
LAYER
  5
201
330
2
100
AcDbSymbolTableRecord
100
AcDbLayerTableRecord
  2
NOCUT
 70
     0
 62
     7
  6
CONTINUOUS
370
    -3
390
301
  0
LAYER
  5
202
330
2
100
AcDbSymbolTableRecord
100
AcDbLayerTableRecord
  2
SK1
 70
     0
 62
     4
  6
CONTINUOUS
370
    -3
390
301
  0
LAYER
  5
203
330
2
100
AcDbSymbolTableRecord
100
AcDbLayerTableRecord
  2
SK2
 70
     0
 62
     7
  6
CONTINUOUS
370
    -3
390
301
  0
LAYER
  5
204
330
2
100
AcDbSymbolTableRecord
100
AcDbLayerTableRecord
  2
SK3
 70
     0
 62
     1
  6
HIDDEN
370
    -3
390
301
  0
LAYER
  5
205
330
2
100
AcDbSymbolTableRecord
100
AcDbLayerTableRecord
  2
SK4
 70
     0
 62
     2
  6
HIDDEN
370
    -3
390
301
  0
LAYER
  5
3AA
330
2
100
AcDbSymbolTableRecord
100
AcDbLayerTableRecord
  2
Defpoints
 70
     0
 62
     7
  6
CONTINUOUS
290
     0
370
    -3
390
301
  0
ENDTAB
  0
TABLE
  2
STYLE
  5
3
330
0
100
AcDbSymbolTable
 70
     1
  0
STYLE
  5
11
330
3
100
AcDbSymbolTableRecord
100
AcDbTextStyleTableRecord
  2
STANDARD
 70
     0
 40
0.0
 41
0.8
 50
0.0
 71
     0
 42
0.2
  3
isocp.shx
  4

  0
ENDTAB
  0
TABLE
  2
VIEW
  5
6
330
0
100
AcDbSymbolTable
 70
     0
  0
ENDTAB
  0
TABLE
  2
UCS
  5
7
330
0
100
AcDbSymbolTable
 70
     0
  0
ENDTAB
  0
TABLE
  2
APPID
  5
9
330
0
100
AcDbSymbolTable
 70
     2
  0
APPID
  5
206
330
9
100
AcDbSymbolTableRecord
100
AcDbRegAppTableRecord
  2
ACAD
 70
     0
  0
APPID
  5
5DE
330
9
100
AcDbSymbolTableRecord
100
AcDbRegAppTableRecord
  2
ACAD_DSTYLE_DIMTEXT_FILL
 70
     0
  0
ENDTAB
  0
TABLE
  2
DIMSTYLE
  5
A
330
0
100
AcDbSymbolTable
 70
     2
100
AcDbDimStyleTable
 71
     2
340
3AB
340
207
  0
DIMSTYLE
105
207
330
A
100
AcDbSymbolTableRecord
100
AcDbDimStyleTableRecord
  2
STANDARD
 70
     0
 41
2.5
 47
0.005
 48
0.005
 71
     1
 73
     0
 74
     0
 77
     1
 78
     8
140
3.5
178
     2
271
     3
272
     3
284
     8
340
11
341
209
342
209
343
209
344
209
  0
DIMSTYLE
105
3AB
102
{ACAD_REACTORS
330
29D
330
29A
330
299
330
296
330
295
330
29E
330
297
330
29C
330
29B
330
298
102
}
330
A
100
AcDbSymbolTableRecord
100
AcDbDimStyleTableRecord
  2
ISO-25
 70
     0
 41
3.5
 42
0.625
 43
3.75
 44
2.0
 73
     0
 74
     0
 77
     1
 78
     8
140
3.5
141
2.5
143
0.03937007874016
147
0.625
171
     3
172
     1
176
   256
177
   256
178
   256
271
     2
272
     2
274
     3
283
     0
284
     8
340
11
  0
ENDTAB
  0
TABLE
  2
BLOCK_RECORD
  5
1
330
0
100
AcDbSymbolTable
 70
    13
  0
BLOCK_RECORD
  5
1B
330
1
100
AcDbSymbolTableRecord
100
AcDbBlockTableRecord
  2
*MODEL_SPACE
340
308
  0
BLOCK_RECORD
  5
1C
330
1
100
AcDbSymbolTableRecord
100
AcDbBlockTableRecord
  2
*PAPER_SPACE
340
309
  0
BLOCK_RECORD
  5
209
330
1
100
AcDbSymbolTableRecord
100
AcDbBlockTableRecord
  2
_FILLED
340
0
  0
BLOCK_RECORD
  5
20A
330
1
100
AcDbSymbolTableRecord
100
AcDbBlockTableRecord
  2
*D1
340
0
  0
BLOCK_RECORD
  5
20B
330
1
100
AcDbSymbolTableRecord
100
AcDbBlockTableRecord
  2
*D2
340
0
  0
BLOCK_RECORD
  5
20C
330
1
100
AcDbSymbolTableRecord
100
AcDbBlockTableRecord
  2
*D3
340
0
  0
BLOCK_RECORD
  5
20D
330
1
100
AcDbSymbolTableRecord
100
AcDbBlockTableRecord
  2
*D4
340
0
  0
BLOCK_RECORD
  5
20E
330
1
100
AcDbSymbolTableRecord
100
AcDbBlockTableRecord
  2
*D5
340
0
  0
BLOCK_RECORD
  5
20F
330
1
100
AcDbSymbolTableRecord
100
AcDbBlockTableRecord
  2
*D6
340
0
  0
BLOCK_RECORD
  5
210
330
1
100
AcDbSymbolTableRecord
100
AcDbBlockTableRecord
  2
*D7
340
0
  0
BLOCK_RECORD
  5
211
330
1
100
AcDbSymbolTableRecord
100
AcDbBlockTableRecord
  2
*D8
340
0
  0
BLOCK_RECORD
  5
212
330
1
100
AcDbSymbolTableRecord
100
AcDbBlockTableRecord
  2
*D9
340
0
  0
BLOCK_RECORD
  5
213
330
1
100
AcDbSymbolTableRecord
100
AcDbBlockTableRecord
  2
*D10
340
0
  0
BLOCK_RECORD
  5
214
330
1
100
AcDbSymbolTableRecord
100
AcDbBlockTableRecord
  2
NULLPUNKT_BL0
340
0
102
{BLKREFS
331
2A0
102
}
  0
BLOCK_RECORD
  5
215
330
1
100
AcDbSymbolTableRecord
100
AcDbBlockTableRecord
  2
EINFUEGEPUNKT_BL1
340
0
102
{BLKREFS
331
2A1
102
}
  0
ENDTAB
  0
ENDSEC
  0
SECTION
  2
BLOCKS
  0
BLOCK
  5
1E
330
1B
100
AcDbEntity
  8
0
100
AcDbBlockBegin
  2
*MODEL_SPACE
 70
     0
 10
0.0
 20
0.0
 30
0.0
  3
*MODEL_SPACE
  1

  0
ENDBLK
  5
1F
330
1B
100
AcDbEntity
  8
0
100
AcDbBlockEnd
  0
BLOCK
  5
20
330
1C
100
AcDbEntity
 67
     1
  8
0
100
AcDbBlockBegin
  2
*PAPER_SPACE
 70
     0
 10
0.0
 20
0.0
 30
0.0
  3
*PAPER_SPACE
  1

  0
ENDBLK
  5
21
330
1C
100
AcDbEntity
 67
     1
  8
0
100
AcDbBlockEnd
  0
BLOCK
  5
292
330
209
100
AcDbEntity
  8
0
100
AcDbBlockBegin
  2
_FILLED
 70
     0
 10
0.0
 20
0.0
 30
0.0
  3
_FILLED
  1

  0
SOLID
  5
293
330
209
100
AcDbEntity
  8
0
  6
ByBlock
 62
     0
100
AcDbTrace
 10
0.0
 20
0.0
 30
0.0
 11
-1.0
 21
0.132
 31
0.0
 12
-1.0
 22
-0.132
 32
0.0
 13
-1.0
 23
-0.132
 33
0.0
  0
ENDBLK
  5
294
330
209
100
AcDbEntity
  8
0
  6
ByBlock
 62
     0
100
AcDbBlockEnd
  0
BLOCK
  5
216
330
20A
100
AcDbEntity
  8
SK2
  6
Continuous
 62
     7
100
AcDbBlockBegin
  2
*D1
 70
     1
 10
0.0
 20
0.0
 30
0.0
  3
*D1
  1

  0
LINE
  5
840
330
20A
100
AcDbEntity
  8
SK2
370
    -2
100
AcDbLine
 10
65.125
 20
35.92102448430001
 30
0.0
 11
84.875
 21
35.9210244843
 31
0.0
  0
LINE
  5
841
330
20A
100
AcDbEntity
  8
SK2
370
    -2
100
AcDbLine
 10
65.125
 20
-35.92102448430001
 30
0.0
 11
84.87499999999997
 21
-35.92102448430001
 31
0.0
  0
LINE
  5
842
330
20A
100
AcDbEntity
  8
SK2
370
    -2
100
AcDbLine
 10
82.87499999999999
 20
32.4210244843
 30
0.0
 11
82.87499999999997
 21
-32.42102448430002
 31
0.0
  0
SOLID
  5
843
330
20A
100
AcDbEntity
  8
SK2
100
AcDbTrace
 10
82.29166666666667
 20
32.4210244843
 30
0.0
 11
83.45833333333333
 21
32.4210244843
 31
0.0
 12
82.87499999999999
 22
35.9210244843
 32
0.0
 13
82.87499999999999
 23
35.9210244843
 33
0.0
  0
SOLID
  5
844
330
20A
100
AcDbEntity
  8
SK2
100
AcDbTrace
 10
82.29166666666664
 20
-32.42102448430002
 30
0.0
 11
83.45833333333329
 21
-32.42102448430002
 31
0.0
 12
82.87499999999997
 22
-35.92102448430001
 32
0.0
 13
82.87499999999997
 23
-35.92102448430001
 33
0.0
  0
MTEXT
  5
845
330
20A
100
AcDbEntity
  8
SK2
100
AcDbMText
 10
80.49999999999998
 20
3.5
 30
0.0
 40
3.5
 41
0.0
 71
     5
 72
     1
  1
Lk-%%c101.6
 11
0.0000000000000001
 21
1.0
 31
0.0
 73
     1
 44
1.0
1001
ACAD
1000
MTEXTBEGIN
1070
    73
1070
     1
1070
    44
1040
1.0
1070
    74
1070
     0
1000
MTEXTEND
  0
POINT
  5
846
330
20A
100
AcDbEntity
  8
Defpoints
 62
     0
100
AcDbPoint
 10
64.5
 20
35.92102448430001
 30
0.0
  0
POINT
  5
847
330
20A
100
AcDbEntity
  8
Defpoints
 62
     0
100
AcDbPoint
 10
64.5
 20
-35.92102448430001
 30
0.0
  0
POINT
  5
848
330
20A
100
AcDbEntity
  8
Defpoints
 62
     0
100
AcDbPoint
 10
82.87499999999997
 20
-35.92102448430001
 30
0.0
  0
ENDBLK
  5
21E
330
20A
100
AcDbEntity
  8
0
  6
ByBlock
 62
     0
100
AcDbBlockEnd
  0
BLOCK
  5
21F
330
20B
100
AcDbEntity
  8
SK2
  6
Continuous
 62
     7
100
AcDbBlockBegin
  2
*D2
 70
     1
 10
0.0
 20
0.0
 30
0.0
  3
*D2
  1

  0
LINE
  5
837
330
20B
100
AcDbEntity
  8
SK2
370
    -2
100
AcDbLine
 10
65.125
 20
-62.8617928475
 30
0.0
 11
93.37499999999996
 21
-62.86179284750001
 31
0.0
  0
LINE
  5
838
330
20B
100
AcDbEntity
  8
SK2
370
    -2
100
AcDbLine
 10
65.125
 20
62.86179284750001
 30
0.0
 11
93.375
 21
62.86179284750001
 31
0.0
  0
LINE
  5
839
330
20B
100
AcDbEntity
  8
SK2
370
    -2
100
AcDbLine
 10
91.37499999999995
 20
-59.3617928475
 30
0.0
 11
91.37500000000001
 21
59.36179284750002
 31
0.0
  0
SOLID
  5
83A
330
20B
100
AcDbEntity
  8
SK2
100
AcDbTrace
 10
90.79166666666663
 20
-59.3617928475
 30
0.0
 11
91.95833333333331
 21
-59.3617928475
 31
0.0
 12
91.37499999999995
 22
-62.86179284750001
 32
0.0
 13
91.37499999999995
 23
-62.86179284750001
 33
0.0
  0
SOLID
  5
83B
330
20B
100
AcDbEntity
  8
SK2
100
AcDbTrace
 10
90.79166666666669
 20
59.36179284750002
 30
0.0
 11
91.95833333333331
 21
59.36179284750002
 31
0.0
 12
91.37500000000001
 22
62.86179284750001
 32
0.0
 13
91.37500000000001
 23
62.86179284750001
 33
0.0
  0
MTEXT
  5
83C
330
20B
100
AcDbEntity
  8
SK2
100
AcDbMText
 10
88.99999999999998
 20
3.5
 30
0.0
 40
3.5
 41
0.0
 71
     5
 72
     1
  1
Lk-%%c177.8
 11
0.0000000000000001
 21
1.0
 31
0.0
 73
     1
 44
1.0
1001
ACAD
1000
MTEXTBEGIN
1070
    73
1070
     1
1070
    44
1040
1.0
1070
    74
1070
     0
1000
MTEXTEND
  0
POINT
  5
83D
330
20B
100
AcDbEntity
  8
Defpoints
 62
     0
100
AcDbPoint
 10
64.5
 20
-62.8617928475
 30
0.0
  0
POINT
  5
83E
330
20B
100
AcDbEntity
  8
Defpoints
 62
     0
100
AcDbPoint
 10
64.5
 20
62.86179284750001
 30
0.0
  0
POINT
  5
83F
330
20B
100
AcDbEntity
  8
Defpoints
 62
     0
100
AcDbPoint
 10
91.37500000000001
 20
62.86179284750001
 30
0.0
  0
ENDBLK
  5
227
330
20B
100
AcDbEntity
  8
0
  6
ByBlock
 62
     0
100
AcDbBlockEnd
  0
BLOCK
  5
228
330
20C
100
AcDbEntity
  8
SK2
  6
Continuous
 62
     7
100
AcDbBlockBegin
  2
*D3
 70
     1
 10
0.0
 20
0.0
 30
0.0
  3
*D3
  1

  0
LINE
  5
852
330
20C
100
AcDbEntity
  8
SK2
370
    -2
100
AcDbLine
 10
-2.125
 20
-186.2
 30
0.0
 11
-23.12556487880005
 21
-186.2
 31
0.0
  0
LINE
  5
853
330
20C
100
AcDbEntity
  8
SK2
370
    -2
100
AcDbLine
 10
-2.125
 20
186.1999999999999
 30
0.0
 11
-23.12556487879996
 21
186.1999999999999
 31
0.0
  0
LINE
  5
854
330
20C
100
AcDbEntity
  8
SK2
370
    -2
100
AcDbLine
 10
-21.12556487880004
 20
-182.7
 30
0.0
 11
-21.12556487879996
 21
182.6999999999999
 31
0.0
  0
SOLID
  5
855
330
20C
100
AcDbEntity
  8
SK2
100
AcDbTrace
 10
-21.70889821213338
 20
-182.7
 30
0.0
 11
-20.54223154546671
 21
-182.7
 31
0.0
 12
-21.12556487880004
 22
-186.2
 32
0.0
 13
-21.12556487880004
 23
-186.2
 33
0.0
  0
SOLID
  5
856
330
20C
100
AcDbEntity
  8
SK2
100
AcDbTrace
 10
-21.7088982121333
 20
182.6999999999999
 30
0.0
 11
-20.54223154546663
 21
182.6999999999999
 31
0.0
 12
-21.12556487879996
 22
186.1999999999999
 32
0.0
 13
-21.12556487879996
 23
186.1999999999999
 33
0.0
  0
MTEXT
  5
857
330
20C
100
AcDbEntity
  8
SK2
100
AcDbMText
 10
-23.50090936698898
 20
1.75
 30
0.0
 40
3.5
 41
0.0
 71
     5
 72
     1
  1
%%c372.4
 11
0.0000000000000001
 21
1.0
 31
0.0
 73
     1
 44
1.0
1001
ACAD
1000
MTEXTBEGIN
1070
    73
1070
     1
1070
    44
1040
1.0
1070
    74
1070
     0
1000
MTEXTEND
  0
POINT
  5
858
330
20C
100
AcDbEntity
  8
Defpoints
 62
     0
100
AcDbPoint
 10
-1.5
 20
-186.2
 30
0.0
  0
POINT
  5
859
330
20C
100
AcDbEntity
  8
Defpoints
 62
     0
100
AcDbPoint
 10
-1.5
 20
186.1999999999999
 30
0.0
  0
POINT
  5
85A
330
20C
100
AcDbEntity
  8
Defpoints
 62
     0
100
AcDbPoint
 10
-21.12556487879996
 20
186.1999999999999
 30
0.0
  0
ENDBLK
  5
230
330
20C
100
AcDbEntity
  8
0
  6
ByBlock
 62
     0
100
AcDbBlockEnd
  0
BLOCK
  5
231
330
20D
100
AcDbEntity
  8
2
  6
Continuous
 62
     7
100
AcDbBlockBegin
  2
*D4
 70
     1
 10
0.0
 20
0.0
 30
0.0
  3
*D4
  1

  0
LINE
  5
8BE
330
20D
100
AcDbEntity
  8
2
370
    -2
100
AcDbLine
 10
0.0
 20
188.3249999999999
 30
0.0
 11
0.0000000000000008
 21
200.8249999999999
 31
0.0
  0
LINE
  5
8BF
330
20D
100
AcDbEntity
  8
2
370
    -2
100
AcDbLine
 10
17.0
 20
188.3249999999999
 30
0.0
 11
17.0
 21
200.8249999999999
 31
0.0
  0
LINE
  5
8C0
330
20D
100
AcDbEntity
  8
2
370
    -2
100
AcDbLine
 10
3.5
 20
198.8249999999999
 30
0.0
 11
13.49999999999999
 21
198.8249999999999
 31
0.0
  0
SOLID
  5
8C1
330
20D
100
AcDbEntity
  8
2
100
AcDbTrace
 10
3.5
 20
199.4083333333333
 30
0.0
 11
3.5
 21
198.2416666666665
 31
0.0
 12
0.0000000000000007
 22
198.8249999999999
 32
0.0
 13
0.0000000000000007
 23
198.8249999999999
 33
0.0
  0
SOLID
  5
8C2
330
20D
100
AcDbEntity
  8
2
100
AcDbTrace
 10
13.49999999999999
 20
199.4083333333333
 30
0.0
 11
13.49999999999999
 21
198.2416666666665
 31
0.0
 12
17.0
 22
198.8249999999999
 32
0.0
 13
17.0
 23
198.8249999999999
 33
0.0
  0
MTEXT
  5
8C3
330
20D
100
AcDbEntity
  8
2
100
AcDbMText
 10
11.29999999999999
 20
201.2
 30
0.0
 40
3.5
 41
0.0
 71
     5
 72
     1
  1
17
 73
     1
 44
1.0
1001
ACAD
1000
MTEXTBEGIN
1070
    73
1070
     1
1070
    44
1040
1.0
1070
    74
1070
     0
1000
MTEXTEND
  0
POINT
  5
8C4
330
20D
100
AcDbEntity
  8
Defpoints
 62
     0
100
AcDbPoint
 10
0.0
 20
187.6999999999999
 30
0.0
  0
POINT
  5
8C5
330
20D
100
AcDbEntity
  8
Defpoints
 62
     0
100
AcDbPoint
 10
17.0
 20
187.6999999999999
 30
0.0
  0
POINT
  5
8C6
330
20D
100
AcDbEntity
  8
Defpoints
 62
     0
100
AcDbPoint
 10
17.0
 20
198.8249999999999
 30
0.0
  0
ENDBLK
  5
239
330
20D
100
AcDbEntity
  8
0
  6
ByBlock
 62
     0
100
AcDbBlockEnd
  0
BLOCK
  5
23A
330
20E
100
AcDbEntity
  8
SK2
  6
Continuous
 62
     7
100
AcDbBlockBegin
  2
*D5
 70
     1
 10
0.0
 20
0.0
 30
0.0
  3
*D5
  1

  0
LINE
  5
82E
330
20E
100
AcDbEntity
  8
SK2
370
    -2
100
AcDbLine
 10
37.225
 20
-176.35
 30
0.0
 11
110.3749999999999
 21
-176.35
 31
0.0
  0
LINE
  5
82F
330
20E
100
AcDbEntity
  8
SK2
370
    -2
100
AcDbLine
 10
37.225
 20
176.35
 30
0.0
 11
110.375
 21
176.3499999999999
 31
0.0
  0
LINE
  5
830
330
20E
100
AcDbEntity
  8
SK2
370
    -2
100
AcDbLine
 10
108.3749999999999
 20
-172.85
 30
0.0
 11
108.375
 21
172.8499999999999
 31
0.0
  0
SOLID
  5
831
330
20E
100
AcDbEntity
  8
SK2
100
AcDbTrace
 10
107.7916666666666
 20
-172.85
 30
0.0
 11
108.9583333333332
 21
-172.85
 31
0.0
 12
108.3749999999999
 22
-176.35
 32
0.0
 13
108.3749999999999
 23
-176.35
 33
0.0
  0
SOLID
  5
832
330
20E
100
AcDbEntity
  8
SK2
100
AcDbTrace
 10
107.7916666666667
 20
172.8499999999999
 30
0.0
 11
108.9583333333333
 21
172.8499999999999
 31
0.0
 12
108.375
 22
176.3499999999999
 32
0.0
 13
108.375
 23
176.3499999999999
 33
0.0
  0
MTEXT
  5
833
330
20E
100
AcDbEntity
  8
SK2
100
AcDbMText
 10
105.999655511811
 20
1.75
 30
0.0
 40
3.5
 41
0.0
 71
     5
 72
     1
  1
%%c352.7
 11
0.0000000000000001
 21
1.0
 31
0.0
 73
     1
 44
1.0
1001
ACAD
1000
MTEXTBEGIN
1070
    73
1070
     1
1070
    44
1040
1.0
1070
    74
1070
     0
1000
MTEXTEND
  0
POINT
  5
834
330
20E
100
AcDbEntity
  8
Defpoints
 62
     0
100
AcDbPoint
 10
36.6
 20
-176.35
 30
0.0
  0
POINT
  5
835
330
20E
100
AcDbEntity
  8
Defpoints
 62
     0
100
AcDbPoint
 10
36.6
 20
176.35
 30
0.0
  0
POINT
  5
836
330
20E
100
AcDbEntity
  8
Defpoints
 62
     0
100
AcDbPoint
 10
108.375
 20
176.3499999999999
 30
0.0
  0
ENDBLK
  5
242
330
20E
100
AcDbEntity
  8
0
  6
ByBlock
 62
     0
100
AcDbBlockEnd
  0
BLOCK
  5
243
330
20F
100
AcDbEntity
  8
SK2
  6
Continuous
 62
     7
100
AcDbBlockBegin
  2
*D6
 70
     1
 10
0.0
 20
0.0
 30
0.0
  3
*D6
  1

  0
LINE
  5
825
330
20F
100
AcDbEntity
  8
SK2
370
    -2
100
AcDbLine
 10
62.125
 20
-156.6
 30
0.0
 11
101.8749999999999
 21
-156.6
 31
0.0
  0
LINE
  5
826
330
20F
100
AcDbEntity
  8
SK2
370
    -2
100
AcDbLine
 10
62.125
 20
156.6
 30
0.0
 11
101.875
 21
156.5999999999999
 31
0.0
  0
LINE
  5
827
330
20F
100
AcDbEntity
  8
SK2
370
    -2
100
AcDbLine
 10
99.87499999999997
 20
-153.1
 30
0.0
 11
99.87500000000002
 21
153.0999999999999
 31
0.0
  0
SOLID
  5
828
330
20F
100
AcDbEntity
  8
SK2
100
AcDbTrace
 10
99.29166666666665
 20
-153.1
 30
0.0
 11
100.4583333333333
 21
-153.1
 31
0.0
 12
99.87499999999997
 22
-156.6
 32
0.0
 13
99.87499999999997
 23
-156.6
 33
0.0
  0
SOLID
  5
829
330
20F
100
AcDbEntity
  8
SK2
100
AcDbTrace
 10
99.29166666666668
 20
153.0999999999999
 30
0.0
 11
100.4583333333333
 21
153.0999999999999
 31
0.0
 12
99.87500000000002
 22
156.5999999999999
 32
0.0
 13
99.87500000000002
 23
156.5999999999999
 33
0.0
  0
MTEXT
  5
82A
330
20F
100
AcDbEntity
  8
SK2
100
AcDbMText
 10
97.49965551181102
 20
1.75
 30
0.0
 40
3.5
 41
0.0
 71
     5
 72
     1
  1
%%c313.2
 11
0.0000000000000001
 21
1.0
 31
0.0
 73
     1
 44
1.0
1001
ACAD
1000
MTEXTBEGIN
1070
    73
1070
     1
1070
    44
1040
1.0
1070
    74
1070
     0
1000
MTEXTEND
  0
POINT
  5
82B
330
20F
100
AcDbEntity
  8
Defpoints
 62
     0
100
AcDbPoint
 10
61.5
 20
-156.6
 30
0.0
  0
POINT
  5
82C
330
20F
100
AcDbEntity
  8
Defpoints
 62
     0
100
AcDbPoint
 10
61.5
 20
156.6
 30
0.0
  0
POINT
  5
82D
330
20F
100
AcDbEntity
  8
Defpoints
 62
     0
100
AcDbPoint
 10
99.87500000000002
 20
156.5999999999999
 30
0.0
  0
ENDBLK
  5
24B
330
20F
100
AcDbEntity
  8
0
  6
ByBlock
 62
     0
100
AcDbBlockEnd
  0
BLOCK
  5
24C
330
210
100
AcDbEntity
  8
SK2
  6
Continuous
 62
     7
100
AcDbBlockBegin
  2
*D7
 70
     1
 10
0.0
 20
0.0
 30
0.0
  3
*D7
  1

  0
LINE
  5
8B5
330
210
100
AcDbEntity
  8
SK2
370
    -2
100
AcDbLine
 10
0.0
 20
188.3249999999999
 30
0.0
 11
0.0000000000000013
 21
209.325
 31
0.0
  0
LINE
  5
8B6
330
210
100
AcDbEntity
  8
SK2
370
    -2
100
AcDbLine
 10
35.1
 20
178.475
 30
0.0
 11
35.1
 21
209.325
 31
0.0
  0
LINE
  5
8B7
330
210
100
AcDbEntity
  8
SK2
370
    -2
100
AcDbLine
 10
3.500000000000001
 20
207.325
 30
0.0
 11
31.6
 21
207.325
 31
0.0
  0
SOLID
  5
8B8
330
210
100
AcDbEntity
  8
SK2
100
AcDbTrace
 10
3.500000000000001
 20
207.9083333333333
 30
0.0
 11
3.500000000000001
 21
206.7416666666666
 31
0.0
 12
0.0000000000000012
 22
207.325
 32
0.0
 13
0.0000000000000012
 23
207.325
 33
0.0
  0
SOLID
  5
8B9
330
210
100
AcDbEntity
  8
SK2
100
AcDbTrace
 10
31.6
 20
207.9083333333333
 30
0.0
 11
31.6
 21
206.7416666666666
 31
0.0
 12
35.1
 22
207.325
 32
0.0
 13
35.1
 23
207.325
 33
0.0
  0
MTEXT
  5
8BA
330
210
100
AcDbEntity
  8
SK2
100
AcDbMText
 10
23.15
 20
209.6999999999999
 30
0.0
 40
3.5
 41
0.0
 71
     5
 72
     1
  1
35.1
 73
     1
 44
1.0
1001
ACAD
1000
MTEXTBEGIN
1070
    73
1070
     1
1070
    44
1040
1.0
1070
    74
1070
     0
1000
MTEXTEND
  0
POINT
  5
8BB
330
210
100
AcDbEntity
  8
Defpoints
 62
     0
100
AcDbPoint
 10
0.0
 20
187.6999999999999
 30
0.0
  0
POINT
  5
8BC
330
210
100
AcDbEntity
  8
Defpoints
 62
     0
100
AcDbPoint
 10
35.1
 20
177.85
 30
0.0
  0
POINT
  5
8BD
330
210
100
AcDbEntity
  8
Defpoints
 62
     0
100
AcDbPoint
 10
35.1
 20
207.325
 30
0.0
  0
ENDBLK
  5
254
330
210
100
AcDbEntity
  8
0
  6
ByBlock
 62
     0
100
AcDbBlockEnd
  0
BLOCK
  5
255
330
211
100
AcDbEntity
  8
SK2
  6
Continuous
 62
     7
100
AcDbBlockBegin
  2
*D8
 70
     1
 10
0.0
 20
0.0
 30
0.0
  3
*D8
  1

  0
LINE
  5
8AC
330
211
100
AcDbEntity
  8
SK2
370
    -2
100
AcDbLine
 10
60.0
 20
158.8697434818999
 30
0.0
 11
60.0
 21
217.825
 31
0.0
  0
LINE
  5
8AD
330
211
100
AcDbEntity
  8
SK2
370
    -2
100
AcDbLine
 10
0.0
 20
188.8697434818999
 30
0.0
 11
0.0000000000000018
 21
217.825
 31
0.0
  0
LINE
  5
8AE
330
211
100
AcDbEntity
  8
SK2
370
    -2
100
AcDbLine
 10
56.5
 20
215.825
 30
0.0
 11
3.500000000000001
 21
215.825
 31
0.0
  0
SOLID
  5
8AF
330
211
100
AcDbEntity
  8
SK2
100
AcDbTrace
 10
56.5
 20
216.4083333333334
 30
0.0
 11
56.5
 21
215.2416666666666
 31
0.0
 12
60.0
 22
215.825
 32
0.0
 13
60.0
 23
215.825
 33
0.0
  0
SOLID
  5
8B0
330
211
100
AcDbEntity
  8
SK2
100
AcDbTrace
 10
3.500000000000001
 20
216.4083333333334
 30
0.0
 11
3.500000000000001
 21
215.2416666666666
 31
0.0
 12
0.0000000000000017
 22
215.825
 32
0.0
 13
0.0000000000000017
 23
215.825
 33
0.0
  0
MTEXT
  5
8B1
330
211
100
AcDbEntity
  8
SK2
100
AcDbMText
 10
32.8
 20
218.1999999999999
 30
0.0
 40
3.5
 41
0.0
 71
     5
 72
     1
  1
60
 73
     1
 44
1.0
1001
ACAD
1000
MTEXTBEGIN
1070
    73
1070
     1
1070
    44
1040
1.0
1070
    74
1070
     0
1000
MTEXTEND
  0
POINT
  5
8B2
330
211
100
AcDbEntity
  8
Defpoints
 62
     0
100
AcDbPoint
 10
60.0
 20
158.2447434819
 30
0.0
  0
POINT
  5
8B3
330
211
100
AcDbEntity
  8
Defpoints
 62
     0
100
AcDbPoint
 10
0.0
 20
188.2447434818999
 30
0.0
  0
POINT
  5
8B4
330
211
100
AcDbEntity
  8
Defpoints
 62
     0
100
AcDbPoint
 10
0.0000000000000017
 20
215.825
 30
0.0
  0
ENDBLK
  5
25D
330
211
100
AcDbEntity
  8
0
  6
ByBlock
 62
     0
100
AcDbBlockEnd
  0
BLOCK
  5
25E
330
212
100
AcDbEntity
  8
SK2
  6
Continuous
 62
     7
100
AcDbBlockBegin
  2
*D9
 70
     1
 10
0.0
 20
0.0
 30
0.0
  3
*D9
  1

  0
LINE
  5
81C
330
212
100
AcDbEntity
  8
SK2
370
    -2
100
AcDbLine
 10
62.125
 20
-25.0
 30
0.0
 11
76.37499999999999
 21
-25.0
 31
0.0
  0
LINE
  5
81D
330
212
100
AcDbEntity
  8
SK2
370
    -2
100
AcDbLine
 10
62.125
 20
25.0
 30
0.0
 11
76.37499999999999
 21
25.0
 31
0.0
  0
LINE
  5
81E
330
212
100
AcDbEntity
  8
SK2
370
    -2
100
AcDbLine
 10
74.37499999999999
 20
-21.5
 30
0.0
 11
74.37499999999999
 21
21.5
 31
0.0
  0
SOLID
  5
81F
330
212
100
AcDbEntity
  8
SK2
100
AcDbTrace
 10
73.79166666666666
 20
-21.5
 30
0.0
 11
74.95833333333331
 21
-21.5
 31
0.0
 12
74.37499999999999
 22
-25.0
 32
0.0
 13
74.37499999999999
 23
-25.0
 33
0.0
  0
SOLID
  5
820
330
212
100
AcDbEntity
  8
SK2
100
AcDbTrace
 10
73.79166666666666
 20
21.5
 30
0.0
 11
74.95833333333331
 21
21.5
 31
0.0
 12
74.37499999999999
 22
25.0
 32
0.0
 13
74.37499999999999
 23
25.0
 33
0.0
  0
MTEXT
  5
821
330
212
100
AcDbEntity
  8
SK2
100
AcDbMText
 10
71.99999999999999
 20
1.75
 30
0.0
 40
3.5
 41
0.0
 71
     5
 72
     1
  1
%%c50
 11
0.0000000000000001
 21
1.0
 31
0.0
 73
     1
 44
1.0
1001
ACAD
1000
MTEXTBEGIN
1070
    73
1070
     1
1070
    44
1040
1.0
1070
    74
1070
     0
1000
MTEXTEND
  0
POINT
  5
822
330
212
100
AcDbEntity
  8
Defpoints
 62
     0
100
AcDbPoint
 10
61.5
 20
-25.0
 30
0.0
  0
POINT
  5
823
330
212
100
AcDbEntity
  8
Defpoints
 62
     0
100
AcDbPoint
 10
61.5
 20
25.0
 30
0.0
  0
POINT
  5
824
330
212
100
AcDbEntity
  8
Defpoints
 62
     0
100
AcDbPoint
 10
74.37499999999999
 20
25.0
 30
0.0
  0
ENDBLK
  5
266
330
212
100
AcDbEntity
  8
0
  6
ByBlock
 62
     0
100
AcDbBlockEnd
  0
BLOCK
  5
267
330
213
100
AcDbEntity
  8
SK2
  6
Continuous
 62
     7
100
AcDbBlockBegin
  2
*D10
 70
     1
 10
0.0
 20
0.0
 30
0.0
  3
*D10
  1

  0
LINE
  5
849
330
213
100
AcDbEntity
  8
SK2
370
    -2
100
AcDbLine
 10
-2.125
 20
-30.0
 30
0.0
 11
-14.62556487880001
 21
-30.0
 31
0.0
  0
LINE
  5
84A
330
213
100
AcDbEntity
  8
SK2
370
    -2
100
AcDbLine
 10
-2.125
 20
30.0
 30
0.0
 11
-14.62556487879999
 21
30.0
 31
0.0
  0
LINE
  5
84B
330
213
100
AcDbEntity
  8
SK2
370
    -2
100
AcDbLine
 10
-12.62556487880001
 20
-26.5
 30
0.0
 11
-12.62556487879999
 21
26.5
 31
0.0
  0
SOLID
  5
84C
330
213
100
AcDbEntity
  8
SK2
100
AcDbTrace
 10
-13.20889821213334
 20
-26.5
 30
0.0
 11
-12.04223154546667
 21
-26.5
 31
0.0
 12
-12.62556487880001
 22
-30.0
 32
0.0
 13
-12.62556487880001
 23
-30.0
 33
0.0
  0
SOLID
  5
84D
330
213
100
AcDbEntity
  8
SK2
100
AcDbTrace
 10
-13.20889821213333
 20
26.5
 30
0.0
 11
-12.04223154546666
 21
26.5
 31
0.0
 12
-12.62556487879999
 22
30.0
 32
0.0
 13
-12.62556487879999
 23
30.0
 33
0.0
  0
MTEXT
  5
84E
330
213
100
AcDbEntity
  8
SK2
100
AcDbMText
 10
-15.0005648788
 20
1.75
 30
0.0
 40
3.5
 41
0.0
 71
     5
 72
     1
  1
%%c60
 11
0.0000000000000001
 21
1.0
 31
0.0
 73
     1
 44
1.0
1001
ACAD
1000
MTEXTBEGIN
1070
    73
1070
     1
1070
    44
1040
1.0
1070
    74
1070
     0
1000
MTEXTEND
  0
POINT
  5
84F
330
213
100
AcDbEntity
  8
Defpoints
 62
     0
100
AcDbPoint
 10
-1.5
 20
-30.0
 30
0.0
  0
POINT
  5
850
330
213
100
AcDbEntity
  8
Defpoints
 62
     0
100
AcDbPoint
 10
-1.5
 20
30.0
 30
0.0
  0
POINT
  5
851
330
213
100
AcDbEntity
  8
Defpoints
 62
     0
100
AcDbPoint
 10
-12.62556487879999
 20
30.0
 30
0.0
  0
ENDBLK
  5
26F
330
213
100
AcDbEntity
  8
0
  6
ByBlock
 62
     0
100
AcDbBlockEnd
  0
BLOCK
  5
270
330
214
100
AcDbEntity
  8
1
  6
Continuous
 62
     3
100
AcDbBlockBegin
  2
NULLPUNKT_BL0
 70
     0
 10
20.5005648788
 20
196.2475214806
 30
0.0
  3
NULLPUNKT_BL0
  1

  0
LINE
  5
271
330
214
100
AcDbEntity
  8
1
  6
Continuous
 62
     4
100
AcDbLine
 10
20.5005648788
 20
196.2475214806
 30
0.0
 11
22.0005618788
 21
196.2475214806
 31
0.0
  0
ARC
  5
272
330
214
100
AcDbEntity
  8
1
  6
Continuous
 62
     4
100
AcDbCircle
 10
20.5005648788
 20
196.2475214806
 30
0.0
 40
1.499997
100
AcDbArc
 50
180.0
 51
270.0
  0
LINE
  5
273
330
214
100
AcDbEntity
  8
1
  6
Continuous
 62
     4
100
AcDbLine
 10
20.5005648788
 20
196.2475214806
 30
0.0
 11
20.5005648788
 21
194.7475244806
 31
0.0
  0
ARC
  5
274
330
214
100
AcDbEntity
  8
1
  6
Continuous
 62
     4
100
AcDbCircle
 10
20.5005648788
 20
196.2475214806
 30
0.0
 40
1.499997
100
AcDbArc
 50
270.0
 51
360.0
  0
ARC
  5
275
330
214
100
AcDbEntity
  8
1
  6
Continuous
 62
     4
100
AcDbCircle
 10
20.5005648788
 20
196.2475214806
 30
0.0
 40
1.499997
100
AcDbArc
 50
0.0
 51
90.0
  0
ARC
  5
276
330
214
100
AcDbEntity
  8
1
  6
Continuous
 62
     4
100
AcDbCircle
 10
20.5005648788
 20
196.2475214806
 30
0.0
 40
1.499997
100
AcDbArc
 50
90.0
 51
180.0
  0
LINE
  5
277
330
214
100
AcDbEntity
  8
1
  6
Continuous
 62
     4
100
AcDbLine
 10
20.5005648788
 20
197.7475184806
 30
0.0
 11
20.5005648788
 21
196.2475214806
 31
0.0
  0
LINE
  5
278
330
214
100
AcDbEntity
  8
1
  6
Continuous
 62
     4
100
AcDbLine
 10
19.0005678788
 20
196.2475214806
 30
0.0
 11
20.5005648788
 21
196.2475214806
 31
0.0
  0
LWPOLYLINE
  5
279
330
214
100
AcDbEntity
  8
1
  6
Continuous
 62
     4
100
AcDbPolyline
 90
       18
 70
     0
 43
0.0
 10
20.5005648788
 20
196.2475214806
 10
19.0005678788
 20
196.2475214806
 10
19.0087850193
 20
196.4043138619
 10
19.0333464121
 20
196.5593883931
 10
19.0739829575
 20
196.7110460451
 10
19.130249433
 20
196.857625225
 10
19.2015293712
 20
196.9975199806
 10
19.2870418143
 20
197.1291975957
 10
19.38584987
 20
197.2512153827
 10
19.4968709767
 20
197.3622364894
 10
19.6188887637
 20
197.4610445451
 10
19.7505663788
 20
197.5465569882
 10
19.8904611344
 20
197.6178369264
 10
20.0370403143
 20
197.6741034019
 10
20.1886979663
 20
197.7147399473
 10
20.3437724975
 20
197.7393013401
 10
20.5005648788
 20
197.7475184806
 10
20.5005648788
 20
196.2475214806
  0
HATCH
  5
27A
330
214
100
AcDbEntity
  8
1
  6
Continuous
 62
     4
100
AcDbHatch
 10
0.0
 20
0.0
 30
0.0
210
0.0
220
0.0
230
1.0
  2
SOLID
 70
     1
 71
     1
 91
        1
 92
        1
 93
       17
 72
     1
 10
20.5005648788
 20
196.2475214806
 11
19.0005678788
 21
196.2475214806
 72
     1
 10
19.0005678788
 20
196.2475214806
 11
19.0087850193
 21
196.4043138619
 72
     1
 10
19.0087850193
 20
196.4043138619
 11
19.0333464121
 21
196.5593883931
 72
     1
 10
19.0333464121
 20
196.5593883931
 11
19.0739829575
 21
196.7110460451
 72
     1
 10
19.0739829575
 20
196.7110460451
 11
19.130249433
 21
196.857625225
 72
     1
 10
19.130249433
 20
196.857625225
 11
19.2015293712
 21
196.9975199806
 72
     1
 10
19.2015293712
 20
196.9975199806
 11
19.2870418143
 21
197.1291975957
 72
     1
 10
19.2870418143
 20
197.1291975957
 11
19.38584987
 21
197.2512153827
 72
     1
 10
19.38584987
 20
197.2512153827
 11
19.4968709767
 21
197.3622364894
 72
     1
 10
19.4968709767
 20
197.3622364894
 11
19.6188887637
 21
197.4610445451
 72
     1
 10
19.6188887637
 20
197.4610445451
 11
19.7505663788
 21
197.5465569882
 72
     1
 10
19.7505663788
 20
197.5465569882
 11
19.8904611344
 21
197.6178369264
 72
     1
 10
19.8904611344
 20
197.6178369264
 11
20.0370403143
 21
197.6741034019
 72
     1
 10
20.0370403143
 20
197.6741034019
 11
20.1886979663
 21
197.7147399473
 72
     1
 10
20.1886979663
 20
197.7147399473
 11
20.3437724975
 21
197.7393013401
 72
     1
 10
20.3437724975
 20
197.7393013401
 11
20.5005648788
 21
197.7475184806
 72
     1
 10
20.5005648788
 20
197.7475184806
 11
20.5005648788
 21
196.2475214806
 97
        1
330
279
 75
     0
 76
     1
 98
        1
 10
0.0
 20
0.0
  0
LWPOLYLINE
  5
27B
330
214
100
AcDbEntity
  8
1
  6
Continuous
 62
     4
100
AcDbPolyline
 90
       18
 70
     0
 43
0.0
 10
20.5005648788
 20
196.2475214806
 10
22.0005618788
 20
196.2475214806
 10
21.9923447383
 20
196.0907290993
 10
21.9677833455
 20
195.9356545681
 10
21.9271468001
 20
195.7839969161
 10
21.8708803246
 20
195.6374177362
 10
21.7996003864
 20
195.4975229806
 10
21.7140879433
 20
195.3658453655
 10
21.6152798876
 20
195.2438275785
 10
21.5042587809
 20
195.1328064718
 10
21.3822409939
 20
195.0339984161
 10
21.2505633788
 20
194.948485973
 10
21.1106686232
 20
194.8772060348
 10
20.9640894433
 20
194.8209395593
 10
20.8124317913
 20
194.7803030139
 10
20.6573572601
 20
194.7557416211
 10
20.5005648788
 20
194.7475244806
 10
20.5005648788
 20
196.2475214806
  0
HATCH
  5
27C
330
214
100
AcDbEntity
  8
1
  6
Continuous
 62
     4
100
AcDbHatch
 10
0.0
 20
0.0
 30
0.0
210
0.0
220
0.0
230
1.0
  2
SOLID
 70
     1
 71
     1
 91
        1
 92
        1
 93
       17
 72
     1
 10
20.5005648788
 20
196.2475214806
 11
22.0005618788
 21
196.2475214806
 72
     1
 10
22.0005618788
 20
196.2475214806
 11
21.9923447383
 21
196.0907290993
 72
     1
 10
21.9923447383
 20
196.0907290993
 11
21.9677833455
 21
195.9356545681
 72
     1
 10
21.9677833455
 20
195.9356545681
 11
21.9271468001
 21
195.7839969161
 72
     1
 10
21.9271468001
 20
195.7839969161
 11
21.8708803246
 21
195.6374177362
 72
     1
 10
21.8708803246
 20
195.6374177362
 11
21.7996003864
 21
195.4975229806
 72
     1
 10
21.7996003864
 20
195.4975229806
 11
21.7140879433
 21
195.3658453655
 72
     1
 10
21.7140879433
 20
195.3658453655
 11
21.6152798876
 21
195.2438275785
 72
     1
 10
21.6152798876
 20
195.2438275785
 11
21.5042587809
 21
195.1328064718
 72
     1
 10
21.5042587809
 20
195.1328064718
 11
21.3822409939
 21
195.0339984161
 72
     1
 10
21.3822409939
 20
195.0339984161
 11
21.2505633788
 21
194.948485973
 72
     1
 10
21.2505633788
 20
194.948485973
 11
21.1106686232
 21
194.8772060348
 72
     1
 10
21.1106686232
 20
194.8772060348
 11
20.9640894433
 21
194.8209395593
 72
     1
 10
20.9640894433
 20
194.8209395593
 11
20.8124317913
 21
194.7803030139
 72
     1
 10
20.8124317913
 20
194.7803030139
 11
20.6573572601
 21
194.7557416211
 72
     1
 10
20.6573572601
 20
194.7557416211
 11
20.5005648788
 21
194.7475244806
 72
     1
 10
20.5005648788
 20
194.7475244806
 11
20.5005648788
 21
196.2475214806
 97
        1
330
27B
 75
     0
 76
     1
 98
        1
 10
0.0
 20
0.0
  0
LINE
  5
27D
330
214
100
AcDbEntity
  8
1
  6
Continuous
 62
     4
100
AcDbLine
 10
20.5005648788
 20
194.7475244806
 30
0.0
 11
20.5005648788
 21
196.2475214806
 31
0.0
  0
ARC
  5
27E
330
214
100
AcDbEntity
  8
1
  6
Continuous
 62
     4
100
AcDbCircle
 10
20.5005648788
 20
196.2475214806
 30
0.0
 40
1.499997
100
AcDbArc
 50
270.0
 51
360.0
  0
LINE
  5
27F
330
214
100
AcDbEntity
  8
1
  6
Continuous
 62
     4
100
AcDbLine
 10
22.0005618788
 20
196.2475214806
 30
0.0
 11
20.5005648788
 21
196.2475214806
 31
0.0
  0
ENDBLK
  5
280
330
214
100
AcDbEntity
  8
0
  6
ByBlock
 62
     0
100
AcDbBlockEnd
  0
BLOCK
  5
281
330
215
100
AcDbEntity
  8
1
  6
Continuous
 62
     3
100
AcDbBlockBegin
  2
EINFUEGEPUNKT_BL1
 70
     0
 10
37.5005648788
 20
196.2475214806
 30
0.0
  3
EINFUEGEPUNKT_BL1
  1

  0
LINE
  5
282
330
215
100
AcDbEntity
  8
1
  6
Continuous
 62
     4
100
AcDbLine
 10
37.5005648788
 20
196.2475214806
 30
0.0
 11
37.5005648788
 21
195.7475224806
 31
0.0
  0
ARC
  5
283
330
215
100
AcDbEntity
  8
1
  6
Continuous
 62
     4
100
AcDbCircle
 10
37.5005648788
 20
196.2475214806
 30
0.0
 40
0.4999990000000001
100
AcDbArc
 50
90.0
 51
180.0
  0
LINE
  5
284
330
215
100
AcDbEntity
  8
1
  6
Continuous
 62
     4
100
AcDbLine
 10
37.5005648788
 20
196.2475214806
 30
0.0
 11
37.00056587880001
 21
196.2475214806
 31
0.0
  0
ARC
  5
285
330
215
100
AcDbEntity
  8
1
  6
Continuous
 62
     4
100
AcDbCircle
 10
37.5005648788
 20
196.2475214806
 30
0.0
 40
0.4999990000000001
100
AcDbArc
 50
180.0
 51
270.0
  0
ARC
  5
286
330
215
100
AcDbEntity
  8
1
  6
Continuous
 62
     4
100
AcDbCircle
 10
37.5005648788
 20
196.2475214806
 30
0.0
 40
0.4999990000000001
100
AcDbArc
 50
270.0
 51
360.0
  0
ARC
  5
287
330
215
100
AcDbEntity
  8
1
  6
Continuous
 62
     4
100
AcDbCircle
 10
37.5005648788
 20
196.2475214806
 30
0.0
 40
0.4999990000000001
100
AcDbArc
 50
0.0
 51
90.0
  0
LINE
  5
288
330
215
100
AcDbEntity
  8
1
  6
Continuous
 62
     4
100
AcDbLine
 10
38.0005638788
 20
196.2475214806
 30
0.0
 11
37.5005648788
 21
196.2475214806
 31
0.0
  0
LINE
  5
289
330
215
100
AcDbEntity
  8
1
  6
Continuous
 62
     4
100
AcDbLine
 10
37.5005648788
 20
196.7475204806
 30
0.0
 11
37.5005648788
 21
196.2475214806
 31
0.0
  0
LWPOLYLINE
  5
28A
330
215
100
AcDbEntity
  8
1
  6
Continuous
 62
     4
100
AcDbPolyline
 90
       18
 70
     0
 43
0.0
 10
37.5005648788
 20
196.2475214806
 10
37.5005648788
 20
196.7475204806
 10
37.5528290059
 20
196.7447814338
 10
37.6045205163
 20
196.7365943028
 10
37.655073067
 20
196.7230487877
 10
37.7039327936
 20
196.7042932959
 10
37.7505643788
 20
196.6805333165
 10
37.79445691719999
 20
196.6520291688
 10
37.8351295128
 20
196.6190931502
 10
37.8721365484
 20
196.5820861146
 10
37.905072567
 20
196.541413519
 10
37.9335767147
 20
196.4975209806
 10
37.9573366941
 20
196.4508893954
 10
37.9760921859
 20
196.4020296688
 10
37.989637701
 20
196.3514771181
 10
37.997824832
 20
196.2997856077
 10
38.0005638788
 20
196.2475214806
 10
37.5005648788
 20
196.2475214806
  0
HATCH
  5
28B
330
215
100
AcDbEntity
  8
1
  6
Continuous
 62
     4
100
AcDbHatch
 10
0.0
 20
0.0
 30
0.0
210
0.0
220
0.0
230
1.0
  2
SOLID
 70
     1
 71
     1
 91
        1
 92
        1
 93
       17
 72
     1
 10
37.5005648788
 20
196.2475214806
 11
37.5005648788
 21
196.7475204806
 72
     1
 10
37.5005648788
 20
196.7475204806
 11
37.5528290059
 21
196.7447814338
 72
     1
 10
37.5528290059
 20
196.7447814338
 11
37.6045205163
 21
196.7365943028
 72
     1
 10
37.6045205163
 20
196.7365943028
 11
37.655073067
 21
196.7230487877
 72
     1
 10
37.655073067
 20
196.7230487877
 11
37.7039327936
 21
196.7042932959
 72
     1
 10
37.7039327936
 20
196.7042932959
 11
37.7505643788
 21
196.6805333165
 72
     1
 10
37.7505643788
 20
196.6805333165
 11
37.79445691719999
 21
196.6520291688
 72
     1
 10
37.79445691719999
 20
196.6520291688
 11
37.8351295128
 21
196.6190931502
 72
     1
 10
37.8351295128
 20
196.6190931502
 11
37.8721365484
 21
196.5820861146
 72
     1
 10
37.8721365484
 20
196.5820861146
 11
37.905072567
 21
196.541413519
 72
     1
 10
37.905072567
 20
196.541413519
 11
37.9335767147
 21
196.4975209806
 72
     1
 10
37.9335767147
 20
196.4975209806
 11
37.9573366941
 21
196.4508893954
 72
     1
 10
37.9573366941
 20
196.4508893954
 11
37.9760921859
 21
196.4020296688
 72
     1
 10
37.9760921859
 20
196.4020296688
 11
37.989637701
 21
196.3514771181
 72
     1
 10
37.989637701
 20
196.3514771181
 11
37.997824832
 21
196.2997856077
 72
     1
 10
37.997824832
 20
196.2997856077
 11
38.0005638788
 21
196.2475214806
 72
     1
 10
38.0005638788
 20
196.2475214806
 11
37.5005648788
 21
196.2475214806
 97
        1
330
28A
 75
     0
 76
     1
 98
        1
 10
0.0
 20
0.0
  0
LWPOLYLINE
  5
28C
330
215
100
AcDbEntity
  8
1
  6
Continuous
 62
     4
100
AcDbPolyline
 90
       18
 70
     0
 43
0.0
 10
37.5005648788
 20
196.2475214806
 10
37.5005648788
 20
195.7475224806
 10
37.4483007517
 20
195.7502615274
 10
37.3966092413
 20
195.7584486584
 10
37.3460566906
 20
195.7719941735
 10
37.297196964
 20
195.7907496653
 10
37.2505653788
 20
195.8145096447
 10
37.20667284040001
 20
195.8430137924
 10
37.1660002448
 20
195.875949811
 10
37.1289932092
 20
195.9129568466
 10
37.0960571906
 20
195.9536294422
 10
37.0675530429
 20
195.9975219806
 10
37.0437930635
 20
196.0441535658
 10
37.02503757170001
 20
196.0930132924
 10
37.0114920566
 20
196.1435658431
 10
37.0033049256
 20
196.1952573535
 10
37.00056587880001
 20
196.2475214806
 10
37.5005648788
 20
196.2475214806
  0
HATCH
  5
28D
330
215
100
AcDbEntity
  8
1
  6
Continuous
 62
     4
100
AcDbHatch
 10
0.0
 20
0.0
 30
0.0
210
0.0
220
0.0
230
1.0
  2
SOLID
 70
     1
 71
     1
 91
        1
 92
        1
 93
       17
 72
     1
 10
37.5005648788
 20
196.2475214806
 11
37.5005648788
 21
195.7475224806
 72
     1
 10
37.5005648788
 20
195.7475224806
 11
37.4483007517
 21
195.7502615274
 72
     1
 10
37.4483007517
 20
195.7502615274
 11
37.3966092413
 21
195.7584486584
 72
     1
 10
37.3966092413
 20
195.7584486584
 11
37.3460566906
 21
195.7719941735
 72
     1
 10
37.3460566906
 20
195.7719941735
 11
37.297196964
 21
195.7907496653
 72
     1
 10
37.297196964
 20
195.7907496653
 11
37.2505653788
 21
195.8145096447
 72
     1
 10
37.2505653788
 20
195.8145096447
 11
37.20667284040001
 21
195.8430137924
 72
     1
 10
37.20667284040001
 20
195.8430137924
 11
37.1660002448
 21
195.875949811
 72
     1
 10
37.1660002448
 20
195.875949811
 11
37.1289932092
 21
195.9129568466
 72
     1
 10
37.1289932092
 20
195.9129568466
 11
37.0960571906
 21
195.9536294422
 72
     1
 10
37.0960571906
 20
195.9536294422
 11
37.0675530429
 21
195.9975219806
 72
     1
 10
37.0675530429
 20
195.9975219806
 11
37.0437930635
 21
196.0441535658
 72
     1
 10
37.0437930635
 20
196.0441535658
 11
37.02503757170001
 21
196.0930132924
 72
     1
 10
37.02503757170001
 20
196.0930132924
 11
37.0114920566
 21
196.1435658431
 72
     1
 10
37.0114920566
 20
196.1435658431
 11
37.0033049256
 21
196.1952573535
 72
     1
 10
37.0033049256
 20
196.1952573535
 11
37.00056587880001
 21
196.2475214806
 72
     1
 10
37.00056587880001
 20
196.2475214806
 11
37.5005648788
 21
196.2475214806
 97
        1
330
28C
 75
     0
 76
     1
 98
        1
 10
0.0
 20
0.0
  0
LINE
  5
28E
330
215
100
AcDbEntity
  8
1
  6
Continuous
 62
     4
100
AcDbLine
 10
37.00056587880001
 20
196.2475214806
 30
0.0
 11
37.5005648788
 21
196.2475214806
 31
0.0
  0
ARC
  5
28F
330
215
100
AcDbEntity
  8
1
  6
Continuous
 62
     4
100
AcDbCircle
 10
37.5005648788
 20
196.2475214806
 30
0.0
 40
0.4999990000000001
100
AcDbArc
 50
180.0
 51
270.0
  0
LINE
  5
290
330
215
100
AcDbEntity
  8
1
  6
Continuous
 62
     4
100
AcDbLine
 10
37.5005648788
 20
195.7475224806
 30
0.0
 11
37.5005648788
 21
196.2475214806
 31
0.0
  0
ENDBLK
  5
291
330
215
100
AcDbEntity
  8
0
  6
ByBlock
 62
     0
100
AcDbBlockEnd
  0
ENDSEC
  0
SECTION
  2
ENTITIES
  0
DIMENSION
  5
295
330
1B
100
AcDbEntity
  8
SK2
100
AcDbDimension
  2
*D1
 10
82.87499999999997
 20
-35.92102448430001
 30
0.0
 11
82.87499999999999
 21
3.5
 31
0.0
 70
   160
  1
Lk-%%c101.6
 71
     5
 42
71.84204896860001
  3
ISO-25
100
AcDbAlignedDimension
 13
64.5
 23
35.92102448430001
 33
0.0
 14
64.5
 24
-35.92102448430001
 34
0.0
 50
270.0
100
AcDbRotatedDimension
  0
DIMENSION
  5
296
330
1B
100
AcDbEntity
  8
SK2
100
AcDbDimension
  2
*D2
 10
91.37500000000001
 20
62.86179284750001
 30
0.0
 11
91.37500000000001
 21
3.5
 31
0.0
 70
   160
  1
Lk-%%c177.8
 71
     5
 42
125.723585695
  3
ISO-25
100
AcDbAlignedDimension
 13
64.5
 23
-62.8617928475
 33
0.0
 14
64.5
 24
62.86179284750001
 34
0.0
 50
90.0
100
AcDbRotatedDimension
  0
DIMENSION
  5
297
330
1B
100
AcDbEntity
  8
SK2
100
AcDbDimension
  2
*D3
 10
-21.12556487879996
 20
186.1999999999999
 30
0.0
 11
-21.1255648788
 21
1.75
 31
0.0
 70
   160
  1
%%c372.4
 71
     5
 42
372.4
  3
ISO-25
100
AcDbAlignedDimension
 13
-1.5
 23
-186.2
 33
0.0
 14
-1.5
 24
186.1999999999999
 34
0.0
 50
90.0
100
AcDbRotatedDimension
  0
DIMENSION
  5
298
330
1B
100
AcDbEntity
  8
2
100
AcDbDimension
  2
*D4
 10
17.0
 20
198.8249999999999
 30
0.0
 11
11.29999999999999
 21
198.8249999999999
 31
0.0
 70
   160
  1
17
 71
     5
 42
17.0
  3
ISO-25
100
AcDbAlignedDimension
 13
0.0
 23
187.6999999999999
 33
0.0
 14
17.0
 24
187.6999999999999
 34
0.0
100
AcDbRotatedDimension
  0
DIMENSION
  5
299
330
1B
100
AcDbEntity
  8
SK2
100
AcDbDimension
  2
*D5
 10
108.375
 20
176.3499999999999
 30
0.0
 11
108.375
 21
1.75
 31
0.0
 70
   160
  1
%%c352.7
 71
     5
 42
352.7
  3
ISO-25
100
AcDbAlignedDimension
 13
36.6
 23
-176.35
 33
0.0
 14
36.6
 24
176.35
 34
0.0
 50
90.0
100
AcDbRotatedDimension
  0
DIMENSION
  5
29A
330
1B
100
AcDbEntity
  8
SK2
100
AcDbDimension
  2
*D6
 10
99.87500000000002
 20
156.5999999999999
 30
0.0
 11
99.87499999999998
 21
1.75
 31
0.0
 70
   160
  1
%%c313.2
 71
     5
 42
313.2
  3
ISO-25
100
AcDbAlignedDimension
 13
61.5
 23
-156.6
 33
0.0
 14
61.5
 24
156.6
 34
0.0
 50
90.0
100
AcDbRotatedDimension
  0
DIMENSION
  5
29B
330
1B
100
AcDbEntity
  8
SK2
100
AcDbDimension
  2
*D7
 10
35.1
 20
207.325
 30
0.0
 11
23.15
 21
207.325
 31
0.0
 70
   160
  1
35.1
 71
     5
 42
35.1
  3
ISO-25
100
AcDbAlignedDimension
 13
0.0
 23
187.6999999999999
 33
0.0
 14
35.1
 24
177.85
 34
0.0
100
AcDbRotatedDimension
  0
DIMENSION
  5
29C
330
1B
100
AcDbEntity
  8
SK2
100
AcDbDimension
  2
*D8
 10
0.0000000000000017
 20
215.825
 30
0.0
 11
32.8
 21
215.825
 31
0.0
 70
   160
  1
60
 71
     5
 42
60.0
  3
ISO-25
100
AcDbAlignedDimension
 13
60.0
 23
158.2447434819
 33
0.0
 14
0.0
 24
188.2447434818999
 34
0.0
 50
180.0
100
AcDbRotatedDimension
  0
DIMENSION
  5
29D
330
1B
100
AcDbEntity
  8
SK2
100
AcDbDimension
  2
*D9
 10
74.37499999999999
 20
25.0
 30
0.0
 11
74.37499999999999
 21
1.75
 31
0.0
 70
   160
  1
%%c50
 71
     5
 42
50.0
  3
ISO-25
100
AcDbAlignedDimension
 13
61.5
 23
-25.0
 33
0.0
 14
61.5
 24
25.0
 34
0.0
 50
90.0
100
AcDbRotatedDimension
  0
DIMENSION
  5
29E
330
1B
100
AcDbEntity
  8
SK2
100
AcDbDimension
  2
*D10
 10
-12.62556487879999
 20
30.0
 30
0.0
 11
-12.6255648788
 21
1.75
 31
0.0
 70
   160
  1
%%c60
 71
     5
 42
60.0
  3
ISO-25
100
AcDbAlignedDimension
 13
-1.5
 23
-30.0
 33
0.0
 14
-1.5
 24
30.0
 34
0.0
 50
90.0
100
AcDbRotatedDimension
  0
TEXT
  5
29F
330
1B
100
AcDbEntity
  8
6
100
AcDbText
 10
10.64956458730001
 20
-196.2475214806
 30
0.0
 40
5.0
  1
FBD060CAP400SA017
 41
0.8
 72
     1
 11
35.8495645873
 21
-196.2475214806
 31
0.0
100
AcDbText
  0
INSERT
  5
2A0
330
1B
100
AcDbEntity
  8
1
100
AcDbBlockReference
  2
NULLPUNKT_BL0
 10
0.0
 20
0.0
 30
0.0
  0
INSERT
  5
2A1
330
1B
100
AcDbEntity
  8
1
100
AcDbBlockReference
  2
EINFUEGEPUNKT_BL1
 10
17.0
 20
0.0
 30
0.0
  0
LINE
  5
2A2
330
1B
100
AcDbEntity
  8
NOCUT
100
AcDbLine
 10
0.0
 20
185.1999999999999
 30
0.0
 11
0.0
 21
0.0
 31
0.0
  0
LINE
  5
2A3
330
1B
100
AcDbEntity
  8
1
100
AcDbLine
 10
0.0
 20
185.1999999999999
 30
0.0
 11
0.0
 21
-185.2
 31
0.0
  0
LINE
  5
2A4
330
1B
100
AcDbEntity
  8
SK3
100
AcDbLine
 10
27.7381927
 20
123.0
 30
0.0
 11
29.0
 21
125.1
 31
0.0
  0
LINE
  5
2A5
330
1B
100
AcDbEntity
  8
SK3
100
AcDbLine
 10
13.99999999999999
 20
11.25
 30
0.0
 11
13.99999999999999
 21
-11.25
 31
0.0
  0
LINE
  5
2A6
330
1B
100
AcDbEntity
  8
NOCUT
100
AcDbLine
 10
17.0
 20
185.1999999999999
 30
0.0
 11
17.0
 21
0.0
 31
0.0
  0
LINE
  5
2A7
330
1B
100
AcDbEntity
  8
1
100
AcDbLine
 10
17.0
 20
185.1999999999999
 30
0.0
 11
17.0
 21
-185.2
 31
0.0
  0
LINE
  5
2A8
330
1B
100
AcDbEntity
  8
SK1
100
AcDbLine
 10
25.0
 20
-176.35
 30
0.0
 11
25.0
 21
176.35
 31
0.0
  0
LINE
  5
2A9
330
1B
100
AcDbEntity
  8
SK3
100
AcDbLine
 10
29.0
 20
125.1
 30
0.0
 11
29.0
 21
120.9
 31
0.0
  0
LINE
  5
2AA
330
1B
100
AcDbEntity
  8
SK3
100
AcDbLine
 10
31.0
 20
30.0
 30
0.0
 11
31.0
 21
-30.0
 31
0.0
  0
LINE
  5
2AB
330
1B
100
AcDbEntity
  8
SK3
100
AcDbLine
 10
34.0
 20
125.5
 30
0.0
 11
34.0
 21
120.5
 31
0.0
  0
LINE
  5
2AC
330
1B
100
AcDbEntity
  8
SK1
100
AcDbLine
 10
35.1
 20
175.35
 30
0.0
 11
35.1
 21
-175.35
 31
0.0
  0
LINE
  5
2AD
330
1B
100
AcDbEntity
  8
SK3
100
AcDbLine
 10
42.0
 20
12.5
 30
0.0
 11
42.0
 21
-12.5
 31
0.0
  0
LINE
  5
2AE
330
1B
100
AcDbEntity
  8
SK3
100
AcDbLine
 10
46.0
 20
156.4650440193999
 30
0.0
 11
46.0
 21
89.5661606314
 31
0.0
  0
LINE
  5
2AF
330
1B
100
AcDbEntity
  8
SK1
100
AcDbLine
 10
46.0
 20
98.00000000000004
 30
0.0
 11
46.0
 21
147.9999999999999
 31
0.0
  0
LINE
  5
2B0
330
1B
100
AcDbEntity
  8
SK1
100
AcDbLine
 10
46.0
 20
156.4650440193999
 30
0.0
 11
46.0
 21
156.6
 31
0.0
  0
LINE
  5
2B1
330
1B
100
AcDbEntity
  8
SK3
100
AcDbLine
 10
46.5
 20
25.0
 30
0.0
 11
46.5
 21
-25.0
 31
0.0
  0
LINE
  5
2B2
330
1B
100
AcDbEntity
  8
SK1
100
AcDbLine
 10
60.0
 20
155.3942083863
 30
0.0
 11
60.0
 21
-155.5984466866
 31
0.0
  0
LINE
  5
2B3
330
1B
100
AcDbEntity
  8
SK1
100
AcDbLine
 10
61.0
 20
118.0
 30
0.0
 11
61.0
 21
128.0
 31
0.0
  0
LINE
  5
2B4
330
1B
100
AcDbEntity
  8
SK1
100
AcDbLine
 10
66.99999999999999
 20
98.00000000000004
 30
0.0
 11
66.99999999999999
 21
147.9999999999999
 31
0.0
  0
LINE
  5
2B5
330
1B
100
AcDbEntity
  8
1
100
AcDbLine
 10
15.99999999999999
 20
-186.2
 30
0.0
 11
1.0
 21
-186.2
 31
0.0
  0
LINE
  5
2B6
330
1B
100
AcDbEntity
  8
SK1
100
AcDbLine
 10
34.1
 20
-176.35
 30
0.0
 11
25.0
 21
-176.35
 31
0.0
  0
LINE
  5
2B7
330
1B
100
AcDbEntity
  8
SK1
100
AcDbLine
 10
23.0
 20
-174.35
 30
0.0
 11
18.49999999999999
 21
-174.35
 31
0.0
  0
LINE
  5
2B8
330
1B
100
AcDbEntity
  8
SK1
100
AcDbLine
 10
59.0
 20
-156.6
 30
0.0
 11
36.09999999999999
 21
-156.6
 31
0.0
  0
LINE
  5
2B9
330
1B
100
AcDbEntity
  8
SK3
100
AcDbLine
 10
27.7381927
 20
123.0
 30
0.0
 11
29.0
 21
120.9
 31
0.0
  0
LINE
  5
2BA
330
1B
100
AcDbEntity
  8
SK4
100
AcDbLine
 10
63.0
 20
-62.8617928475
 30
0.0
 11
-3.0
 21
-62.8617928475
 31
0.0
  0
LINE
  5
2BB
330
1B
100
AcDbEntity
  8
SK4
100
AcDbLine
 10
63.0
 20
-35.92102448430001
 30
0.0
 11
-3.0
 21
-35.92102448430001
 31
0.0
  0
LINE
  5
2BC
330
1B
100
AcDbEntity
  8
SK3
100
AcDbLine
 10
31.0
 20
-30.0
 30
0.0
 11
0.0
 21
-30.0
 31
0.0
  0
LINE
  5
2BD
330
1B
100
AcDbEntity
  8
SK3
100
AcDbLine
 10
60.0
 20
-25.0
 30
0.0
 11
46.5
 21
-25.0
 31
0.0
  0
LINE
  5
2BE
330
1B
100
AcDbEntity
  8
SK3
100
AcDbLine
 10
12.4
 20
-12.84999999999999
 30
0.0
 11
0.0
 21
-12.84999999999999
 31
0.0
  0
LINE
  5
2BF
330
1B
100
AcDbEntity
  8
SK3
100
AcDbLine
 10
46.5
 20
-12.5
 30
0.0
 11
42.0
 21
-12.5
 31
0.0
  0
LINE
  5
2C0
330
1B
100
AcDbEntity
  8
SK3
100
AcDbLine
 10
42.0
 20
-8.0
 30
0.0
 11
31.0
 21
-8.0
 31
0.0
  0
LINE
  5
2C1
330
1B
100
AcDbEntity
  8
SK3
100
AcDbLine
 10
42.0
 20
-6.5
 30
0.0
 11
31.0
 21
-6.5
 31
0.0
  0
LINE
  5
2C2
330
1B
100
AcDbEntity
  8
4
100
AcDbLine
 10
-3.0
 20
0.0
 30
0.0
 11
63.0
 21
0.0
 31
0.0
  0
LINE
  5
2C3
330
1B
100
AcDbEntity
  8
NOCUT
100
AcDbLine
 10
0.0
 20
0.0
 30
0.0
 11
17.0
 21
0.0
 31
0.0
  0
LINE
  5
2C4
330
1B
100
AcDbEntity
  8
SK3
100
AcDbLine
 10
42.0
 20
6.5
 30
0.0
 11
31.0
 21
6.5
 31
0.0
  0
LINE
  5
2C5
330
1B
100
AcDbEntity
  8
SK3
100
AcDbLine
 10
42.0
 20
8.0
 30
0.0
 11
31.0
 21
8.0
 31
0.0
  0
LINE
  5
2C6
330
1B
100
AcDbEntity
  8
SK3
100
AcDbLine
 10
46.5
 20
12.5
 30
0.0
 11
42.0
 21
12.5
 31
0.0
  0
LINE
  5
2C7
330
1B
100
AcDbEntity
  8
SK3
100
AcDbLine
 10
12.4
 20
12.85000000000002
 30
0.0
 11
0.0
 21
12.85000000000002
 31
0.0
  0
LINE
  5
2C8
330
1B
100
AcDbEntity
  8
SK3
100
AcDbLine
 10
60.0
 20
25.0
 30
0.0
 11
46.5
 21
25.0
 31
0.0
  0
LINE
  5
2C9
330
1B
100
AcDbEntity
  8
SK3
100
AcDbLine
 10
31.0
 20
30.0
 30
0.0
 11
0.0
 21
30.0
 31
0.0
  0
LINE
  5
2CA
330
1B
100
AcDbEntity
  8
SK4
100
AcDbLine
 10
63.0
 20
35.92102448430001
 30
0.0
 11
-3.0
 21
35.92102448430001
 31
0.0
  0
LINE
  5
2CB
330
1B
100
AcDbEntity
  8
SK4
100
AcDbLine
 10
63.0
 20
62.86179284750001
 30
0.0
 11
-3.0
 21
62.86179284750001
 31
0.0
  0
LINE
  5
2CC
330
1B
100
AcDbEntity
  8
SK3
100
AcDbLine
 10
46.5
 20
89.00000000000003
 30
0.0
 11
59.0000778169
 21
89.00000000000003
 31
0.0
  0
LINE
  5
2CD
330
1B
100
AcDbEntity
  8
SK1
100
AcDbLine
 10
46.0
 20
98.00000000000004
 30
0.0
 11
60.0
 21
98.00000000000004
 31
0.0
  0
LINE
  5
2CE
330
1B
100
AcDbEntity
  8
SK1
100
AcDbLine
 10
60.0
 20
98.00000000000004
 30
0.0
 11
66.99999999999999
 21
98.00000000000004
 31
0.0
  0
LINE
  5
2CF
330
1B
100
AcDbEntity
  8
SK1
100
AcDbLine
 10
61.0
 20
118.0
 30
0.0
 11
66.99999999999999
 21
118.0
 31
0.0
  0
LINE
  5
2D0
330
1B
100
AcDbEntity
  8
SK1
100
AcDbLine
 10
46.0
 20
120.25
 30
0.0
 11
61.0
 21
120.25
 31
0.0
  0
LINE
  5
2D1
330
1B
100
AcDbEntity
  8
SK3
100
AcDbLine
 10
34.0
 20
120.5
 30
0.0
 11
46.0
 21
120.5
 31
0.0
  0
LINE
  5
2D2
330
1B
100
AcDbEntity
  8
SK3
100
AcDbLine
 10
29.0
 20
120.9
 30
0.0
 11
46.0
 21
120.9
 31
0.0
  0
LINE
  5
2D3
330
1B
100
AcDbEntity
  8
SK4
100
AcDbLine
 10
69.99999999999999
 20
123.0
 30
0.0
 11
25.9997663237
 21
123.0
 31
0.0
  0
LINE
  5
2D4
330
1B
100
AcDbEntity
  8
SK3
100
AcDbLine
 10
29.0
 20
125.1
 30
0.0
 11
46.0
 21
125.1
 31
0.0
  0
LINE
  5
2D5
330
1B
100
AcDbEntity
  8
SK3
100
AcDbLine
 10
34.0
 20
125.5
 30
0.0
 11
46.0
 21
125.5
 31
0.0
  0
LINE
  5
2D6
330
1B
100
AcDbEntity
  8
SK1
100
AcDbLine
 10
46.0
 20
125.75
 30
0.0
 11
61.0
 21
125.75
 31
0.0
  0
LINE
  5
2D7
330
1B
100
AcDbEntity
  8
SK1
100
AcDbLine
 10
61.0
 20
128.0
 30
0.0
 11
66.99999999999999
 21
128.0
 31
0.0
  0
LINE
  5
2D8
330
1B
100
AcDbEntity
  8
SK1
100
AcDbLine
 10
46.0
 20
147.9999999999999
 30
0.0
 11
60.0
 21
147.9999999999999
 31
0.0
  0
LINE
  5
2D9
330
1B
100
AcDbEntity
  8
SK1
100
AcDbLine
 10
60.0
 20
147.9999999999999
 30
0.0
 11
66.99999999999999
 21
147.9999999999999
 31
0.0
  0
LINE
  5
2DA
330
1B
100
AcDbEntity
  8
SK1
100
AcDbLine
 10
59.0
 20
156.4434722192
 30
0.0
 11
46.5
 21
156.4434722192
 31
0.0
  0
LINE
  5
2DB
330
1B
100
AcDbEntity
  8
SK1
100
AcDbLine
 10
46.0
 20
156.6
 30
0.0
 11
36.09999999999999
 21
156.6
 31
0.0
  0
LINE
  5
2DC
330
1B
100
AcDbEntity
  8
SK1
100
AcDbLine
 10
23.0
 20
174.35
 30
0.0
 11
18.49999999999999
 21
174.35
 31
0.0
  0
LINE
  5
2DD
330
1B
100
AcDbEntity
  8
SK1
100
AcDbLine
 10
34.1
 20
176.35
 30
0.0
 11
25.0
 21
176.35
 31
0.0
  0
LINE
  5
2DE
330
1B
100
AcDbEntity
  8
NOCUT
100
AcDbLine
 10
15.99999999999999
 20
186.1999999999999
 30
0.0
 11
1.0
 21
186.1999999999999
 31
0.0
  0
LINE
  5
2DF
330
1B
100
AcDbEntity
  8
1
100
AcDbLine
 10
15.99999999999999
 20
186.1999999999999
 30
0.0
 11
1.0
 21
186.1999999999999
 31
0.0
  0
ARC
  5
2E0
330
1B
100
AcDbEntity
  8
SK3
100
AcDbCircle
 10
46.5
 20
89.50000000000001
 30
0.0
 40
0.5
100
AcDbArc
 50
180.0
 51
270.0
  0
ARC
  5
2E1
330
1B
100
AcDbEntity
  8
SK3
100
AcDbCircle
 10
12.4
 20
11.25
 30
0.0
 40
1.6
100
AcDbArc
 50
0.0
 51
90.0
  0
ARC
  5
2E2
330
1B
100
AcDbEntity
  8
SK3
100
AcDbCircle
 10
12.4
 20
-11.25
 30
0.0
 40
1.6
100
AcDbArc
 50
270.0
 51
0.0
  0
ARC
  5
2E3
330
1B
100
AcDbEntity
  8
NOCUT
100
AcDbCircle
 10
15.99999999999999
 20
185.1999999999999
 30
0.0
 40
1.0
100
AcDbArc
 50
0.0
 51
90.0
  0
ARC
  5
2E4
330
1B
100
AcDbEntity
  8
NOCUT
100
AcDbCircle
 10
1.0
 20
185.1999999999999
 30
0.0
 40
1.0
100
AcDbArc
 50
90.0
 51
180.0
  0
ARC
  5
2E5
330
1B
100
AcDbEntity
  8
SK1
100
AcDbCircle
 10
18.49999999999999
 20
-176.35
 30
0.0
 40
2.0
100
AcDbArc
 50
90.0
 51
138.8801624336
  0
ARC
  5
2E6
330
1B
100
AcDbEntity
  8
SK1
100
AcDbCircle
 10
18.49999999999999
 20
176.35
 30
0.0
 40
2.0
100
AcDbArc
 50
221.1198375664
 51
270.0
  0
ARC
  5
2E7
330
1B
100
AcDbEntity
  8
SK1
100
AcDbCircle
 10
23.0
 20
-176.35
 30
0.0
 40
2.0
100
AcDbArc
 50
0.0000000001
 51
90.0
  0
ARC
  5
2E8
330
1B
100
AcDbEntity
  8
SK1
100
AcDbCircle
 10
23.0
 20
176.35
 30
0.0
 40
2.0
100
AcDbArc
 50
270.0
 51
359.9999999998999
  0
ARC
  5
2E9
330
1B
100
AcDbEntity
  8
SK1
100
AcDbCircle
 10
59.0
 20
-155.6
 30
0.0
 40
1.0
100
AcDbArc
 50
270.0
 51
0.0
  0
ARC
  5
2EA
330
1B
100
AcDbEntity
  8
SK1
100
AcDbCircle
 10
34.1
 20
-175.35
 30
0.0
 40
1.0
100
AcDbArc
 50
270.0
 51
0.0
  0
ARC
  5
2EB
330
1B
100
AcDbEntity
  8
SK1
100
AcDbCircle
 10
34.1
 20
175.35
 30
0.0
 40
1.0
100
AcDbArc
 50
0.0
 51
90.0
  0
ARC
  5
2EC
330
1B
100
AcDbEntity
  8
1
100
AcDbCircle
 10
15.99999999999999
 20
-185.2
 30
0.0
 40
1.0
100
AcDbArc
 50
270.0
 51
0.0
  0
ARC
  5
2ED
330
1B
100
AcDbEntity
  8
1
100
AcDbCircle
 10
15.99999999999999
 20
185.1999999999999
 30
0.0
 40
1.0
100
AcDbArc
 50
0.0
 51
90.0
  0
ARC
  5
2EE
330
1B
100
AcDbEntity
  8
1
100
AcDbCircle
 10
1.0
 20
-185.2
 30
0.0
 40
1.0
100
AcDbArc
 50
180.0
 51
270.0
  0
ARC
  5
2EF
330
1B
100
AcDbEntity
  8
1
100
AcDbCircle
 10
1.0
 20
185.1999999999999
 30
0.0
 40
1.0
100
AcDbArc
 50
90.0
 51
180.0
  0
ARC
  5
2F0
330
1B
100
AcDbEntity
  8
SK1
100
AcDbCircle
 10
36.09999999999999
 20
-157.6
 30
0.0
 40
1.0
100
AcDbArc
 50
90.0
 51
179.9999999998
  0
ARC
  5
2F1
330
1B
100
AcDbEntity
  8
SK1
100
AcDbCircle
 10
36.09999999999999
 20
157.6
 30
0.0
 40
1.0
100
AcDbArc
 50
180.0000000001
 51
270.0
  0
SPLINE
  5
2F2
330
1B
100
AcDbEntity
  8
SK3
100
AcDbSpline
210
0.0
220
0.0
230
1.0
 70
     8
 71
     3
 72
     8
 73
     4
 74
     2
 42
0.0000000001
 43
0.0000000001
 44
0.0000000001
 12
0.0
 22
-1.0
 32
0.0
 13
0.9902353589815126
 23
-0.1394056448740684
 33
0.0
 40
0.0
 40
0.0
 40
0.0
 40
0.0
 40
0.0216516918791641
 40
0.0216516918791641
 40
0.0216516918791641
 40
0.0216516918791641
 10
46.0
 20
156.4650440193999
 30
0.0
 10
46.0
 20
156.4578267887735
 30
0.0
 10
46.0085890733398
 20
156.4511780404896
 30
0.0
 10
46.01573583029998
 20
156.4501719177999
 30
0.0
 11
46.0
 21
156.4650440193999
 31
0.0
 11
46.01573583029998
 21
156.4501719177999
 31
0.0
  0
SPLINE
  5
2F3
330
1B
100
AcDbEntity
  8
SK3
100
AcDbSpline
210
0.0
220
0.0
230
1.0
 70
     8
 71
     3
 72
     8
 73
     4
 74
     2
 42
0.0000000001
 43
0.0000000001
 44
0.0000000001
 12
0.9902353598682738
 22
-0.1394056385751679
 32
0.0
 13
0.9905006595086428
 23
0.1375079761793605
 33
0.0
 40
0.0
 40
0.0
 40
0.0
 40
0.0
 40
0.0513351710624089
 40
0.0513351710624089
 40
0.0513351710624089
 40
0.0513351710624089
 10
46.01573583029998
 20
156.4501719177999
 30
0.0
 10
46.03268046416361
 20
156.4477864470321
 30
0.0
 10
46.04994196570222
 20
156.4521124201068
 30
0.0
 10
46.06689113929999
 20
156.4544654186
 30
0.0
 11
46.01573583029998
 21
156.4501719177999
 31
0.0
 11
46.06689113929999
 21
156.4544654186
 31
0.0
  0
SPLINE
  5
2F4
330
1B
100
AcDbEntity
  8
SK3
100
AcDbSpline
210
0.0
220
0.0
230
1.0
 70
     8
 71
     3
 72
     8
 73
     4
 74
     2
 42
0.0000000001
 43
0.0000000001
 44
0.0000000001
 12
0.9905006594729165
 22
0.1375079764367057
 32
0.0
 13
0.9991077161545851
 23
-0.0422347193712601
 33
0.0
 40
0.0
 40
0.0
 40
0.0
 40
0.0
 40
0.0794674816467419
 40
0.0794674816467419
 40
0.0794674816467419
 40
0.0794674816467419
 10
46.06689113929999
 20
156.4544654186
 30
0.0
 10
46.09312867029257
 20
156.4581078894645
 30
0.0
 10
46.11978415770112
 20
156.4597437813621
 30
0.0
 10
46.1462496824
 20
156.4586250191
 30
0.0
 11
46.06689113929999
 21
156.4544654186
 31
0.0
 11
46.1462496824
 21
156.4586250191
 31
0.0
  0
SPLINE
  5
2F5
330
1B
100
AcDbEntity
  8
SK3
100
AcDbSpline
210
0.0
220
0.0
230
1.0
 70
     8
 71
     3
 72
     8
 73
     4
 74
     2
 42
0.0000000001
 43
0.0000000001
 44
0.0000000001
 12
0.9991077159303438
 22
-0.0422347246759291
 32
0.0
 13
0.9937251961376919
 23
-0.1118491598587412
 33
0.0
 40
0.0
 40
0.0
 40
0.0
 40
0.0
 40
0.1034095440176591
 40
0.1034095440176591
 40
0.1034095440176591
 40
0.1034095440176591
 10
46.1462496824
 20
156.4586250191
 30
0.0
 10
46.18068877350962
 20
156.4571691945598
 30
0.0
 10
46.2146902706295
 20
156.4503376901399
 30
0.0
 10
46.24894382709999
 20
156.4464822666
 30
0.0
 11
46.1462496824
 21
156.4586250191
 31
0.0
 11
46.24894382709999
 21
156.4464822666
 31
0.0
  0
SPLINE
  5
2F6
330
1B
100
AcDbEntity
  8
SK3
100
AcDbSpline
210
0.0
220
0.0
230
1.0
 70
     8
 71
     3
 72
     8
 73
     4
 74
     2
 42
0.0000000001
 43
0.0000000001
 44
0.0000000001
 12
0.9937251962057029
 22
-0.1118491592544937
 32
0.0
 13
0.9999792477597738
 23
0.0064423636808941
 33
0.0
 40
0.0
 40
0.0
 40
0.0
 40
0.0
 40
0.1208925692769768
 40
0.1208925692769768
 40
0.1208925692769768
 40
0.1208925692769768
 10
46.24894382709999
 20
156.4464822666
 30
0.0
 10
46.28898849114151
 20
156.441975022522
 30
0.0
 10
46.32944948007152
 20
156.4415527511007
 30
0.0
 10
46.36974616689998
 20
156.4418123623999
 30
0.0
 11
46.24894382709999
 21
156.4464822666
 31
0.0
 11
46.36974616689998
 21
156.4418123623999
 31
0.0
  0
SPLINE
  5
2F7
330
1B
100
AcDbEntity
  8
SK1
100
AcDbSpline
210
0.0
220
0.0
230
1.0
 70
     8
 71
     3
 72
    11
 73
     7
 74
     5
 42
0.0000000001
 43
0.0000000001
 44
0.0000000001
 12
0.0
 22
1.0
 32
0.0
 13
-0.9990004611860278
 23
0.0446998719249144
 33
0.0
 40
0.0
 40
0.0
 40
0.0
 40
0.0
 40
0.3957128096945649
 40
0.7945117276841676
 40
1.189590306031724
 40
1.587345882008965
 40
1.587345882008965
 40
1.587345882008965
 40
1.587345882008965
 10
60.0
 20
155.3942083863
 30
0.0
 10
60.0
 20
155.5261126561982
 30
0.0
 10
59.94655742161879
 20
155.7934719524591
 30
0.0
 10
59.72558747118952
 20
156.1334530036235
 30
0.0
 10
59.3966760379428
 20
156.371553934045
 30
0.0
 10
59.13245266794685
 20
156.4375456780988
 30
0.0
 10
59.0
 20
156.4434722192
 30
0.0
 11
60.0
 21
155.3942083863
 31
0.0
 11
59.9234123998
 21
155.7824389456999
 31
0.0
 11
59.7068133894
 21
156.1172903242
 31
0.0
 11
59.3861445896
 21
156.3480685812
 31
0.0
 11
59.0
 21
156.4434722192
 31
0.0
  0
SPLINE
  5
2F8
330
1B
100
AcDbEntity
  8
SK1
100
AcDbSpline
210
0.0
220
0.0
230
1.0
 70
     8
 71
     3
 72
    10
 73
     6
 74
     4
 42
0.0000000001
 43
0.0000000001
 44
0.0000000001
 12
-1.0
 22
0.0
 32
0.0
 13
0.0
 23
1.0
 33
0.0
 40
0.0
 40
0.0
 40
0.0
 40
0.0
 40
0.2510742167896746
 40
0.43330185434082
 40
0.5010243121990219
 40
0.5010243121990219
 40
0.5010243121990219
 40
0.5010243121990219
 10
46.5
 20
156.4434722192
 30
0.0
 10
46.41630859440343
 20
156.4434722192
 30
0.0
 10
46.25649811129632
 20
156.434144327394
 30
0.0
 10
46.13314079486193
 20
156.4709527561384
 30
0.0
 10
46.0
 20
156.4424698667805
 30
0.0
 10
46.0
 20
156.4650440193999
 30
0.0
 11
46.5
 21
156.4434722192
 31
0.0
 11
46.24894382709999
 21
156.4464822666
 31
0.0
 11
46.06689113919999
 21
156.4544654186
 31
0.0
 11
46.0
 21
156.4650440193999
 31
0.0
  0
ENDSEC
  0
SECTION
  2
OBJECTS
  0
DICTIONARY
  5
2F9
330
0
100
AcDbDictionary
281
     1
  3
ACAD_COLOR
350
303
  3
ACAD_GROUP
350
2FA
  3
ACAD_LAYOUT
350
306
  3
ACAD_MATERIAL
350
302
  3
ACAD_MLINESTYLE
350
2FB
  3
ACAD_PLOTSETTINGS
350
307
  3
ACAD_PLOTSTYLENAME
350
300
  3
ACAD_TABLESTYLE
350
304
  3
ACDBHEADERROUNDTRIPXREC
350
8D4
  3
AcDbVariableDictionary
350
7B1
  0
DICTIONARY
  5
30B
330
2
100
AcDbDictionary
280
     1
281
     1
  3
ACAD_LAYERFILTERS
360
8D2
  3
ACLYDICTIONARY
360
8D1
  0
DICTIONARY
  5
303
102
{ACAD_REACTORS
330
2F9
102
}
330
2F9
100
AcDbDictionary
281
     1
  0
DICTIONARY
  5
2FA
102
{ACAD_REACTORS
330
2F9
102
}
330
2F9
100
AcDbDictionary
281
     1
  0
DICTIONARY
  5
306
102
{ACAD_REACTORS
330
2F9
102
}
330
2F9
100
AcDbDictionary
281
     1
  3
Layout1
350
309
  3
Model
350
308
  0
DICTIONARY
  5
302
102
{ACAD_REACTORS
330
2F9
102
}
330
2F9
100
AcDbDictionary
281
     1
  0
DICTIONARY
  5
2FB
102
{ACAD_REACTORS
330
2F9
102
}
330
2F9
100
AcDbDictionary
281
     1
  3
STANDARD
350
2FC
  0
DICTIONARY
  5
307
102
{ACAD_REACTORS
330
2F9
102
}
330
2F9
100
AcDbDictionary
281
     1
  0
ACDBDICTIONARYWDFLT
  5
300
102
{ACAD_REACTORS
330
2F9
102
}
330
2F9
100
AcDbDictionary
281
     1
  3
Normal
350
301
100
AcDbDictionaryWithDefault
340
301
  0
DICTIONARY
  5
304
102
{ACAD_REACTORS
330
2F9
102
}
330
2F9
100
AcDbDictionary
281
     1
  3
Standard
350
305
  0
DICTIONARY
  5
8D4
102
{ACAD_REACTORS
330
2F9
102
}
330
2F9
100
AcDbDictionary
281
     1
  0
DICTIONARY
  5
7B1
102
{ACAD_REACTORS
330
2F9
102
}
330
2F9
100
AcDbDictionary
281
     1
  3
CTABLESTYLE
350
7B2
  3
DIMASSOC
350
7B3
  3
PROJECTNAME
350
7B4
  0
DICTIONARY
  5
8D2
102
{ACAD_REACTORS
330
30B
102
}
330
30B
100
AcDbDictionary
281
     1
  0
DICTIONARY
  5
8D1
102
{ACAD_REACTORS
330
30B
102
}
330
30B
100
AcDbDictionary
281
     1
1001
ACAD
1000
<All
  0
LAYOUT
  5
309
102
{ACAD_XDICTIONARY
360
8D7
102
}
102
{ACAD_REACTORS
330
306
102
}
330
306
100
AcDbPlotSettings
  1

  2
\\ingdom02\ITB3
  4

  6

 40
0.0
 41
0.0
 42
0.0
 43
0.0
 44
0.0
 45
0.0
 46
0.0
 47
0.0
 48
0.0
 49
0.0
140
0.0
141
0.0
142
1.0
143
1.0
 70
   688
 72
     0
 73
     0
 74
     5
  7

 75
    16
147
1.0
148
0.0
149
0.0
100
AcDbLayout
  1
Layout1
 70
     1
 71
     1
 10
0.0
 20
0.0
 11
12.0
 21
9.0
 12
0.0
 22
0.0
 32
0.0
 14
1.000000000000000E+20
 24
1.000000000000000E+20
 34
1.000000000000000E+20
 15
-1.000000000000000E+20
 25
-1.000000000000000E+20
 35
-1.000000000000000E+20
146
0.0
 13
0.0
 23
0.0
 33
0.0
 16
1.0
 26
0.0
 36
0.0
 17
0.0
 27
1.0
 37
0.0
 76
     0
330
1C
  0
LAYOUT
  5
308
102
{ACAD_XDICTIONARY
360
8D5
102
}
102
{ACAD_REACTORS
330
306
102
}
330
306
100
AcDbPlotSettings
  1

  2
\\ingdom02\ITB3
  4

  6

 40
0.0
 41
0.0
 42
0.0
 43
0.0
 44
0.0
 45
0.0
 46
0.0
 47
0.0
 48
0.0
 49
0.0
140
0.0
141
0.0
142
1.0
143
1.0
 70
  1712
 72
     0
 73
     0
 74
     0
  7

 75
     0
147
1.0
148
0.0
149
0.0
100
AcDbLayout
  1
Model
 70
     1
 71
     0
 10
0.0
 20
0.0
 11
12.0
 21
9.0
 12
0.0
 22
0.0
 32
0.0
 14
0.0
 24
0.0
 34
0.0
 15
0.0
 25
0.0
 35
0.0
146
0.0
 13
0.0
 23
0.0
 33
0.0
 16
1.0
 26
0.0
 36
0.0
 17
0.0
 27
1.0
 37
0.0
 76
     0
330
1B
  0
MLINESTYLE
  5
2FC
102
{ACAD_REACTORS
330
2FB
102
}
330
2FB
100
AcDbMlineStyle
  2
STANDARD
 70
     0
  3

 62
   256
 51
90.0
 52
90.0
 71
     2
 49
0.5
 62
   256
  6
BYLAYER
 49
-0.5
 62
   256
  6
BYLAYER
  0
ACDBPLACEHOLDER
  5
301
102
{ACAD_REACTORS
330
300
102
}
330
300
  0
TABLESTYLE
  5
305
102
{ACAD_REACTORS
330
304
102
}
330
304
100
AcDbTableStyle
  3
Standard
 70
     0
 71
     0
 40
1.5
 41
1.5
280
     0
281
     0
  7
STANDARD
140
4.5
170
     2
 62
     0
 63
     7
283
     0
274
    -2
284
     1
 64
     0
275
    -2
285
     1
 65
     0
276
    -2
286
     1
 66
     0
277
    -2
287
     1
 67
     0
278
    -2
288
     1
 68
     0
279
    -2
289
     1
 69
     0
  7
STANDARD
140
6.0
170
     5
 62
     0
 63
     7
283
     0
274
    -2
284
     1
 64
     0
275
    -2
285
     1
 65
     0
276
    -2
286
     1
 66
     0
277
    -2
287
     1
 67
     0
278
    -2
288
     1
 68
     0
279
    -2
289
     1
 69
     0
  7
STANDARD
140
4.5
170
     5
 62
     0
 63
     7
283
     0
274
    -2
284
     1
 64
     0
275
    -2
285
     1
 65
     0
276
    -2
286
     1
 66
     0
277
    -2
287
     1
 67
     0
278
    -2
288
     1
 68
     0
279
    -2
289
     1
 69
     0
  0
DICTIONARYVAR
  5
7B2
102
{ACAD_REACTORS
330
7B1
102
}
330
7B1
100
DictionaryVariables
280
     0
  1
STANDARD
  0
DICTIONARYVAR
  5
7B3
102
{ACAD_REACTORS
330
7B1
102
}
330
7B1
100
DictionaryVariables
280
     0
  1
1
  0
DICTIONARYVAR
  5
7B4
102
{ACAD_REACTORS
330
7B1
102
}
330
7B1
100
DictionaryVariables
280
     0
  1

  0
DICTIONARY
  5
8D7
330
309
100
AcDbDictionary
280
     1
281
     1
  3
ACAD_XREC_ROUNDTRIP
360
8D8
  0
DICTIONARY
  5
8D5
330
308
100
AcDbDictionary
280
     1
281
     1
  3
ACAD_XREC_ROUNDTRIP
360
8D6
  0
XRECORD
  5
8D8
102
{ACAD_REACTORS
330
8D7
102
}
330
8D7
100
AcDbXrecord
280
     1
102
SHADEPLOT
 70
     0
102
SHADEPLOTRESLEVEL
 70
     2
102
SHADEPLOTCUSTOMDPI
 70
   300
  0
XRECORD
  5
8D6
102
{ACAD_REACTORS
330
8D5
102
}
330
8D5
100
AcDbXrecord
280
     1
102
SHADEPLOT
 70
     0
102
SHADEPLOTRESLEVEL
 70
     2
102
SHADEPLOTCUSTOMDPI
 70
   300
  0
ENDSEC
  0
EOF
