  0
SECTION
  2
HEADER
  9
$ACADVER
  1
AC1015
  9
$ACADMAINTVER
 70
    20
  9
$DWGCODEPAGE
  3
ANSI_1252
  9
$INSBASE
 10
0.0
 20
0.0
 30
0.0
  9
$EXTMIN
 10
-25.079313831729
 20
-185.0637809758351
 30
-0.0015258207003583
  9
$EXTMAX
 10
110.3779915426601
 20
197.4389655625437
 30
0.0000000349246037
  9
$LIMMIN
 10
0.0
 20
0.0
  9
$LIMMAX
 10
594.0
 20
420.0
  9
$ORTHOMODE
 70
     0
  9
$REGENMODE
 70
     1
  9
$FILLMODE
 70
     1
  9
$QTEXTMODE
 70
     0
  9
$MIRRTEXT
 70
     0
  9
$LTSCALE
 40
32.67
  9
$ATTMODE
 70
     1
  9
$TEXTSIZE
 40
0.2
  9
$TRACEWID
 40
0.05
  9
$TEXTSTYLE
  7
STANDARD
  9
$CLAYER
  8
0
  9
$CELTYPE
  6
BYLAYER
  9
$CECOLOR
 62
   256
  9
$CELTSCALE
 40
1.0
  9
$DISPSILH
 70
     0
  9
$DIMSCALE
 40
1.0
  9
$DIMASZ
 40
3.5
  9
$DIMEXO
 40
0.625
  9
$DIMDLI
 40
3.75
  9
$DIMRND
 40
0.0
  9
$DIMDLE
 40
0.0
  9
$DIMEXE
 40
2.0
  9
$DIMTP
 40
0.0
  9
$DIMTM
 40
0.0
  9
$DIMTXT
 40
3.5
  9
$DIMCEN
 40
2.5
  9
$DIMTSZ
 40
0.0
  9
$DIMTOL
 70
     0
  9
$DIMLIM
 70
     0
  9
$DIMTIH
 70
     0
  9
$DIMTOH
 70
     0
  9
$DIMSE1
 70
     0
  9
$DIMSE2
 70
     0
  9
$DIMTAD
 70
     1
  9
$DIMZIN
 70
     8
  9
$DIMBLK
  1

  9
$DIMASO
 70
     1
  9
$DIMSHO
 70
     1
  9
$DIMPOST
  1

  9
$DIMAPOST
  1

  9
$DIMALT
 70
     0
  9
$DIMALTD
 70
     3
  9
$DIMALTF
 40
0.03937007874016
  9
$DIMLFAC
 40
1.0
  9
$DIMTOFL
 70
     1
  9
$DIMTVP
 40
0.0
  9
$DIMTIX
 70
     0
  9
$DIMSOXD
 70
     0
  9
$DIMSAH
 70
     0
  9
$DIMBLK1
  1

  9
$DIMBLK2
  1

  9
$DIMSTYLE
  2
ISO-25
  9
$DIMCLRD
 70
   256
  9
$DIMCLRE
 70
   256
  9
$DIMCLRT
 70
   256
  9
$DIMTFAC
 40
1.0
  9
$DIMGAP
 40
0.625
  9
$DIMJUST
 70
     0
  9
$DIMSD1
 70
     0
  9
$DIMSD2
 70
     0
  9
$DIMTOLJ
 70
     0
  9
$DIMTZIN
 70
     8
  9
$DIMALTZ
 70
     0
  9
$DIMALTTZ
 70
     0
  9
$DIMUPT
 70
     0
  9
$DIMDEC
 70
     2
  9
$DIMTDEC
 70
     2
  9
$DIMALTU
 70
     2
  9
$DIMALTTD
 70
     3
  9
$DIMTXSTY
  7
STANDARD
  9
$DIMAUNIT
 70
     0
  9
$DIMADEC
 70
     0
  9
$DIMALTRND
 40
0.0
  9
$DIMAZIN
 70
     0
  9
$DIMDSEP
 70
    46
  9
$DIMATFIT
 70
     3
  9
$DIMFRAC
 70
     0
  9
$DIMLDRBLK
  1

  9
$DIMLUNIT
 70
     2
  9
$DIMLWD
 70
    -2
  9
$DIMLWE
 70
    -2
  9
$DIMTMOVE
 70
     0
  9
$LUNITS
 70
     2
  9
$LUPREC
 70
     4
  9
$SKETCHINC
 40
0.1
  9
$FILLETRAD
 40
0.0
  9
$AUNITS
 70
     0
  9
$AUPREC
 70
     0
  9
$MENU
  1
.
  9
$ELEVATION
 40
0.0
  9
$PELEVATION
 40
0.0
  9
$THICKNESS
 40
0.0
  9
$LIMCHECK
 70
     0
  9
$CHAMFERA
 40
0.0
  9
$CHAMFERB
 40
0.0
  9
$CHAMFERC
 40
0.0
  9
$CHAMFERD
 40
0.0
  9
$SKPOLY
 70
     0
  9
$TDCREATE
 40
2453791.331285243
  9
$TDUCREATE
 40
2453791.289618576
  9
$TDUPDATE
 40
2453791.359624722
  9
$TDUUPDATE
 40
2453791.317958056
  9
$TDINDWG
 40
0.0283398495
  9
$TDUSRTIMER
 40
0.0283398495
  9
$USRTIMER
 70
     1
  9
$ANGBASE
 50
0.0
  9
$ANGDIR
 70
     0
  9
$PDMODE
 70
     3
  9
$PDSIZE
 40
0.3125
  9
$PLINEWID
 40
0.0
  9
$SPLFRAME
 70
     0
  9
$SPLINETYPE
 70
     6
  9
$SPLINESEGS
 70
     8
  9
$HANDSEED
  5
A62
  9
$SURFTAB1
 70
     6
  9
$SURFTAB2
 70
     6
  9
$SURFTYPE
 70
     6
  9
$SURFU
 70
     6
  9
$SURFV
 70
     6
  9
$UCSBASE
  2

  9
$UCSNAME
  2

  9
$UCSORG
 10
0.0
 20
0.0
 30
0.0
  9
$UCSXDIR
 10
1.0
 20
0.0
 30
0.0
  9
$UCSYDIR
 10
0.0
 20
1.0
 30
0.0
  9
$UCSORTHOREF
  2

  9
$UCSORTHOVIEW
 70
     0
  9
$UCSORGTOP
 10
0.0
 20
0.0
 30
0.0
  9
$UCSORGBOTTOM
 10
0.0
 20
0.0
 30
0.0
  9
$UCSORGLEFT
 10
0.0
 20
0.0
 30
0.0
  9
$UCSORGRIGHT
 10
0.0
 20
0.0
 30
0.0
  9
$UCSORGFRONT
 10
0.0
 20
0.0
 30
0.0
  9
$UCSORGBACK
 10
0.0
 20
0.0
 30
0.0
  9
$PUCSBASE
  2

  9
$PUCSNAME
  2

  9
$PUCSORG
 10
0.0
 20
0.0
 30
0.0
  9
$PUCSXDIR
 10
1.0
 20
0.0
 30
0.0
  9
$PUCSYDIR
 10
0.0
 20
1.0
 30
0.0
  9
$PUCSORTHOREF
  2

  9
$PUCSORTHOVIEW
 70
     0
  9
$PUCSORGTOP
 10
0.0
 20
0.0
 30
0.0
  9
$PUCSORGBOTTOM
 10
0.0
 20
0.0
 30
0.0
  9
$PUCSORGLEFT
 10
0.0
 20
0.0
 30
0.0
  9
$PUCSORGRIGHT
 10
0.0
 20
0.0
 30
0.0
  9
$PUCSORGFRONT
 10
0.0
 20
0.0
 30
0.0
  9
$PUCSORGBACK
 10
0.0
 20
0.0
 30
0.0
  9
$USERI1
 70
     0
  9
$USERI2
 70
     0
  9
$USERI3
 70
     0
  9
$USERI4
 70
     0
  9
$USERI5
 70
     0
  9
$USERR1
 40
0.0
  9
$USERR2
 40
0.0
  9
$USERR3
 40
0.0
  9
$USERR4
 40
0.0
  9
$USERR5
 40
0.0
  9
$WORLDVIEW
 70
     1
  9
$SHADEDGE
 70
     3
  9
$SHADEDIF
 70
    70
  9
$TILEMODE
 70
     1
  9
$MAXACTVP
 70
    64
  9
$PINSBASE
 10
0.0
 20
0.0
 30
0.0
  9
$PLIMCHECK
 70
     0
  9
$PEXTMIN
 10
1.000000000000000E+20
 20
1.000000000000000E+20
 30
1.000000000000000E+20
  9
$PEXTMAX
 10
-1.000000000000000E+20
 20
-1.000000000000000E+20
 30
-1.000000000000000E+20
  9
$PLIMMIN
 10
0.0
 20
0.0
  9
$PLIMMAX
 10
12.0
 20
9.0
  9
$UNITMODE
 70
     0
  9
$VISRETAIN
 70
     1
  9
$PLINEGEN
 70
     0
  9
$PSLTSCALE
 70
     1
  9
$TREEDEPTH
 70
  3020
  9
$CMLSTYLE
  2
STANDARD
  9
$CMLJUST
 70
     0
  9
$CMLSCALE
 40
1.0
  9
$PROXYGRAPHICS
 70
     1
  9
$MEASUREMENT
 70
     1
  9
$CELWEIGHT
370
    -1
  9
$ENDCAPS
280
     0
  9
$JOINSTYLE
280
     0
  9
$LWDISPLAY
290
     0
  9
$INSUNITS
 70
     0
  9
$HYPERLINKBASE
  1

  9
$STYLESHEET
  1

  9
$XEDIT
290
     1
  9
$CEPSNTYPE
380
     0
  9
$PSTYLEMODE
290
     1
  9
$FINGERPRINTGUID
  2
{4B2AA31D-7E00-469E-9D41-918361D83F5D}
  9
$VERSIONGUID
  2
{80B4B6F3-AE9C-4565-98C7-BCCA8FBB5B59}
  9
$EXTNAMES
290
     1
  9
$PSVPSCALE
 40
0.0
  9
$OLESTARTUP
290
     0
  0
ENDSEC
  0
SECTION
  2
CLASSES
  0
CLASS
  1
ACDBDICTIONARYWDFLT
  2
AcDbDictionaryWithDefault
  3
ObjectDBX Classes
 90
        0
280
     0
281
     0
  0
CLASS
  1
TABLESTYLE
  2
AcDbTableStyle
  3
ObjectDBX Classes
 90
     2047
280
     0
281
     0
  0
CLASS
  1
DICTIONARYVAR
  2
AcDbDictionaryVar
  3
ObjectDBX Classes
 90
        0
280
     0
281
     0
  0
CLASS
  1
ACDBPLACEHOLDER
  2
AcDbPlaceHolder
  3
ObjectDBX Classes
 90
        0
280
     0
281
     0
  0
CLASS
  1
LAYOUT
  2
AcDbLayout
  3
ObjectDBX Classes
 90
        0
280
     0
281
     0
  0
ENDSEC
  0
SECTION
  2
TABLES
  0
TABLE
  2
VPORT
  5
8
330
0
100
AcDbSymbolTable
 70
     4
  0
VPORT
  5
A5C
330
8
100
AcDbSymbolTableRecord
100
AcDbViewportTableRecord
  2
*Active
 70
     0
 10
0.0
 20
0.0
 11
1.0
 21
1.0
 12
42.64933885546554
 22
6.187592293354271
 13
0.0
 23
0.0
 14
1.0
 24
1.0
 15
0.0
 25
0.0
 16
0.0
 26
0.0
 36
1.0
 17
0.0
 27
0.0
 37
0.0
 40
385.3715171374166
 41
1.494367959949937
 42
50.0
 43
0.0
 44
0.0
 50
0.0
 51
0.0
 71
     0
 72
   100
 73
     1
 74
     1
 75
     0
 76
     0
 77
     0
 78
     0
281
     0
 65
     1
110
0.0
120
0.0
130
0.0
111
1.0
121
0.0
131
0.0
112
0.0
122
1.0
132
0.0
 79
     0
146
0.0
  0
ENDTAB
  0
TABLE
  2
LTYPE
  5
5
330
0
100
AcDbSymbolTable
 70
     6
  0
LTYPE
  5
14
330
5
100
AcDbSymbolTableRecord
100
AcDbLinetypeTableRecord
  2
BYBLOCK
 70
     0
  3

 72
    65
 73
     0
 40
0.0
  0
LTYPE
  5
15
330
5
100
AcDbSymbolTableRecord
100
AcDbLinetypeTableRecord
  2
BYLAYER
 70
     0
  3

 72
    65
 73
     0
 40
0.0
  0
LTYPE
  5
16
330
5
100
AcDbSymbolTableRecord
100
AcDbLinetypeTableRecord
  2
CONTINUOUS
 70
     0
  3
Solid line
 72
    65
 73
     0
 40
0.0
  0
LTYPE
  5
1F5
330
5
100
AcDbSymbolTableRecord
100
AcDbLinetypeTableRecord
  2
CENTER
 70
     0
  3
____ _ ____ _ ____ _ ____ _ ____ _ ____ _ ____
 72
    65
 73
     4
 40
0.6
 49
0.375
 74
     0
 49
-0.075
 74
     0
 49
0.075
 74
     0
 49
-0.075
 74
     0
  0
LTYPE
  5
1F6
330
5
100
AcDbSymbolTableRecord
100
AcDbLinetypeTableRecord
  2
HIDDEN
 70
     0
  3
- - - - - - - - - - - - - - - - - - - -
 72
    65
 73
     2
 40
0.2
 49
0.1
 74
     0
 49
-0.1
 74
     0
  0
ENDTAB
  0
TABLE
  2
LAYER
  5
2
102
{ACAD_XDICTIONARY
360
305
102
}
330
0
100
AcDbSymbolTable
 70
    14
  0
LAYER
  5
10
330
2
100
AcDbSymbolTableRecord
100
AcDbLayerTableRecord
  2
0
 70
     0
 62
     7
  6
CONTINUOUS
370
    -3
390
2FB
  0
LAYER
  5
1FD
330
2
100
AcDbSymbolTableRecord
100
AcDbLayerTableRecord
  2
1
 70
     0
 62
     4
  6
CONTINUOUS
370
    -3
390
2FB
  0
LAYER
  5
1FE
330
2
100
AcDbSymbolTableRecord
100
AcDbLayerTableRecord
  2
2
 70
     0
 62
     7
  6
CONTINUOUS
370
    -3
390
2FB
  0
LAYER
  5
1FF
330
2
100
AcDbSymbolTableRecord
100
AcDbLayerTableRecord
  2
4
 70
     0
 62
     2
  6
CENTER
370
    -3
390
2FB
  0
LAYER
  5
200
330
2
100
AcDbSymbolTableRecord
100
AcDbLayerTableRecord
  2
6
 70
     0
 62
     5
  6
CONTINUOUS
370
    -3
390
2FB
  0
LAYER
  5
201
330
2
100
AcDbSymbolTableRecord
100
AcDbLayerTableRecord
  2
NOCUT
 70
     0
 62
     7
  6
CONTINUOUS
370
    -3
390
2FB
  0
LAYER
  5
202
330
2
100
AcDbSymbolTableRecord
100
AcDbLayerTableRecord
  2
SK1
 70
     0
 62
     4
  6
CONTINUOUS
370
    -3
390
2FB
  0
LAYER
  5
203
330
2
100
AcDbSymbolTableRecord
100
AcDbLayerTableRecord
  2
SK2
 70
     0
 62
     7
  6
CONTINUOUS
370
    -3
390
2FB
  0
LAYER
  5
204
330
2
100
AcDbSymbolTableRecord
100
AcDbLayerTableRecord
  2
SK3
 70
     0
 62
     1
  6
HIDDEN
370
    -3
390
2FB
  0
LAYER
  5
205
330
2
100
AcDbSymbolTableRecord
100
AcDbLayerTableRecord
  2
SK4
 70
     0
 62
     2
  6
CENTER
370
    -3
390
2FB
  0
LAYER
  5
308
330
2
100
AcDbSymbolTableRecord
100
AcDbLayerTableRecord
  2
Defpoints
 70
     0
 62
     7
  6
CONTINUOUS
290
     0
370
    -3
390
2FB
  0
ENDTAB
  0
TABLE
  2
STYLE
  5
3
330
0
100
AcDbSymbolTable
 70
     1
  0
STYLE
  5
11
330
3
100
AcDbSymbolTableRecord
100
AcDbTextStyleTableRecord
  2
STANDARD
 70
     0
 40
0.0
 41
0.8
 50
0.0
 71
     0
 42
0.2
  3
isocp.shx
  4

  0
ENDTAB
  0
TABLE
  2
VIEW
  5
6
330
0
100
AcDbSymbolTable
 70
     0
  0
ENDTAB
  0
TABLE
  2
UCS
  5
7
330
0
100
AcDbSymbolTable
 70
     0
  0
ENDTAB
  0
TABLE
  2
APPID
  5
9
330
0
100
AcDbSymbolTable
 70
     2
  0
APPID
  5
206
330
9
100
AcDbSymbolTableRecord
100
AcDbRegAppTableRecord
  2
ACAD
 70
     0
  0
APPID
  5
745
330
9
100
AcDbSymbolTableRecord
100
AcDbRegAppTableRecord
  2
ACAD_DSTYLE_DIMTEXT_FILL
 70
     0
  0
ENDTAB
  0
TABLE
  2
DIMSTYLE
  5
A
330
0
100
AcDbSymbolTable
 70
     3
100
AcDbDimStyleTable
 71
     2
340
3A5
340
207
  0
DIMSTYLE
105
207
330
A
100
AcDbSymbolTableRecord
100
AcDbDimStyleTableRecord
  2
STANDARD
 70
     0
 41
2.5
 47
0.005
 48
0.005
 71
     1
 73
     0
 74
     0
 77
     1
 78
     8
140
3.5
178
     2
271
     3
272
     3
284
     8
340
11
341
209
342
209
343
209
344
209
  0
DIMSTYLE
105
3A5
102
{ACAD_REACTORS
330
3AF
330
3AC
330
3AB
330
3A8
330
3A7
330
3AE
330
3AD
330
3AA
330
3B0
330
3A9
330
29D
330
29A
330
299
330
296
330
295
330
29E
330
297
330
29C
330
29B
330
298
102
}
330
A
100
AcDbSymbolTableRecord
100
AcDbDimStyleTableRecord
  2
ISO-25
 70
     0
 41
3.5
 42
0.625
 43
3.75
 44
2.0
 73
     0
 74
     0
 77
     1
 78
     8
140
3.5
141
2.5
143
0.03937007874016
147
0.625
171
     3
172
     1
176
   256
177
   256
178
   256
271
     2
272
     2
274
     3
283
     0
284
     8
340
11
  0
ENDTAB
  0
TABLE
  2
BLOCK_RECORD
  5
1
330
0
100
AcDbSymbolTable
 70
    55
  0
BLOCK_RECORD
  5
1B
330
1
100
AcDbSymbolTableRecord
100
AcDbBlockTableRecord
  2
*MODEL_SPACE
340
302
  0
BLOCK_RECORD
  5
1C
330
1
100
AcDbSymbolTableRecord
100
AcDbBlockTableRecord
  2
*PAPER_SPACE
340
303
  0
BLOCK_RECORD
  5
209
330
1
100
AcDbSymbolTableRecord
100
AcDbBlockTableRecord
  2
_FILLED
340
0
  0
BLOCK_RECORD
  5
20A
330
1
100
AcDbSymbolTableRecord
100
AcDbBlockTableRecord
  2
*D1
340
0
  0
BLOCK_RECORD
  5
20B
330
1
100
AcDbSymbolTableRecord
100
AcDbBlockTableRecord
  2
*D2
340
0
  0
BLOCK_RECORD
  5
20C
330
1
100
AcDbSymbolTableRecord
100
AcDbBlockTableRecord
  2
*D3
340
0
  0
BLOCK_RECORD
  5
20D
330
1
100
AcDbSymbolTableRecord
100
AcDbBlockTableRecord
  2
*D4
340
0
  0
BLOCK_RECORD
  5
20E
330
1
100
AcDbSymbolTableRecord
100
AcDbBlockTableRecord
  2
*D5
340
0
  0
BLOCK_RECORD
  5
20F
330
1
100
AcDbSymbolTableRecord
100
AcDbBlockTableRecord
  2
*D6
340
0
  0
BLOCK_RECORD
  5
210
330
1
100
AcDbSymbolTableRecord
100
AcDbBlockTableRecord
  2
*D7
340
0
  0
BLOCK_RECORD
  5
211
330
1
100
AcDbSymbolTableRecord
100
AcDbBlockTableRecord
  2
*D8
340
0
  0
BLOCK_RECORD
  5
212
330
1
100
AcDbSymbolTableRecord
100
AcDbBlockTableRecord
  2
*D9
340
0
  0
BLOCK_RECORD
  5
213
330
1
100
AcDbSymbolTableRecord
100
AcDbBlockTableRecord
  2
*D10
340
0
  0
BLOCK_RECORD
  5
214
330
1
100
AcDbSymbolTableRecord
100
AcDbBlockTableRecord
  2
EINFUEGEPUNKT_BL0
340
0
102
{BLKREFS
331
2A0
331
3B2
331
5BF
102
}
  0
BLOCK_RECORD
  5
215
330
1
100
AcDbSymbolTableRecord
100
AcDbBlockTableRecord
  2
NULLPUNKT_BL1
340
0
102
{BLKREFS
331
2A1
331
3B3
331
5C0
102
}
  0
ENDTAB
  0
ENDSEC
  0
SECTION
  2
BLOCKS
  0
BLOCK
  5
1E
330
1B
100
AcDbEntity
  8
0
100
AcDbBlockBegin
  2
*MODEL_SPACE
 70
     0
 10
0.0
 20
0.0
 30
0.0
  3
*MODEL_SPACE
  1

  0
ENDBLK
  5
1F
330
1B
100
AcDbEntity
  8
0
100
AcDbBlockEnd
  0
BLOCK
  5
20
330
1C
100
AcDbEntity
 67
     1
  8
0
100
AcDbBlockBegin
  2
*PAPER_SPACE
 70
     0
 10
0.0
 20
0.0
 30
0.0
  3
*PAPER_SPACE
  1

  0
ENDBLK
  5
21
330
1C
100
AcDbEntity
 67
     1
  8
0
100
AcDbBlockEnd
  0
BLOCK
  5
292
330
209
100
AcDbEntity
  8
0
100
AcDbBlockBegin
  2
_FILLED
 70
     0
 10
0.0
 20
0.0
 30
0.0
  3
_FILLED
  1

  0
SOLID
  5
293
330
209
100
AcDbEntity
  8
0
  6
ByBlock
 62
     0
100
AcDbTrace
 10
0.0
 20
0.0
 30
0.0
 11
-1.0
 21
0.132
 31
0.0
 12
-1.0
 22
-0.132
 32
0.0
 13
-1.0
 23
-0.132
 33
0.0
  0
ENDBLK
  5
294
330
209
100
AcDbEntity
  8
0
  6
ByBlock
 62
     0
100
AcDbBlockEnd
  0
BLOCK
  5
216
330
20A
100
AcDbEntity
  8
SK2
  6
Continuous
 62
     7
100
AcDbBlockBegin
  2
*D1
 70
     1
 10
0.0
 20
0.0
 30
0.0
  3
*D1
  1

  0
LINE
  5
A0E
330
20A
100
AcDbEntity
  8
SK2
370
    -2
100
AcDbLine
 10
65.125
 20
-35.92102448430001
 30
0.0
 11
84.87499999999998
 21
-35.92102448430001
 31
0.0
  0
LINE
  5
A0F
330
20A
100
AcDbEntity
  8
SK2
370
    -2
100
AcDbLine
 10
65.125
 20
35.92102448420002
 30
0.0
 11
84.87500000000002
 21
35.92102448420001
 31
0.0
  0
LINE
  5
A10
330
20A
100
AcDbEntity
  8
SK2
370
    -2
100
AcDbLine
 10
82.87499999999999
 20
-32.42102448430002
 30
0.0
 11
82.87500000000001
 21
32.42102448420001
 31
0.0
  0
SOLID
  5
A11
330
20A
100
AcDbEntity
  8
SK2
100
AcDbTrace
 10
82.29166666666666
 20
-32.42102448430002
 30
0.0
 11
83.45833333333331
 21
-32.42102448430002
 31
0.0
 12
82.87499999999999
 22
-35.92102448430001
 32
0.0
 13
82.87499999999999
 23
-35.92102448430001
 33
0.0
  0
SOLID
  5
A12
330
20A
100
AcDbEntity
  8
SK2
100
AcDbTrace
 10
82.29166666666669
 20
32.42102448420001
 30
0.0
 11
83.45833333333334
 21
32.42102448420001
 31
0.0
 12
82.87500000000001
 22
35.92102448420001
 32
0.0
 13
82.87500000000001
 23
35.92102448420001
 33
0.0
  0
MTEXT
  5
A13
330
20A
100
AcDbEntity
  8
SK2
100
AcDbMText
 10
80.5
 20
3.5
 30
0.0
 40
3.5
 41
0.0
 71
     5
 72
     1
  1
Lk-%%c101.6
 11
0.0000000000000001
 21
1.0
 31
0.0
 73
     1
 44
1.0
1001
ACAD
1000
MTEXTBEGIN
1070
    73
1070
     1
1070
    44
1040
1.0
1070
    74
1070
     0
1000
MTEXTEND
  0
POINT
  5
A14
330
20A
100
AcDbEntity
  8
Defpoints
 62
     0
100
AcDbPoint
 10
64.5
 20
-35.92102448430001
 30
0.0
  0
POINT
  5
A15
330
20A
100
AcDbEntity
  8
Defpoints
 62
     0
100
AcDbPoint
 10
64.5
 20
35.92102448420002
 30
0.0
  0
POINT
  5
A16
330
20A
100
AcDbEntity
  8
Defpoints
 62
     0
100
AcDbPoint
 10
82.87500000000001
 20
35.92102448420001
 30
0.0
  0
ENDBLK
  5
21E
330
20A
100
AcDbEntity
  8
0
  6
ByBlock
 62
     0
100
AcDbBlockEnd
  0
BLOCK
  5
21F
330
20B
100
AcDbEntity
  8
SK2
  6
Continuous
 62
     7
100
AcDbBlockBegin
  2
*D2
 70
     1
 10
0.0
 20
0.0
 30
0.0
  3
*D2
  1

  0
LINE
  5
A05
330
20B
100
AcDbEntity
  8
SK2
370
    -2
100
AcDbLine
 10
65.125
 20
-62.8617928475
 30
0.0
 11
93.37499999999998
 21
-62.86179284750001
 31
0.0
  0
LINE
  5
A06
330
20B
100
AcDbEntity
  8
SK2
370
    -2
100
AcDbLine
 10
65.125
 20
62.8617928475
 30
0.0
 11
93.37500000000002
 21
62.86179284749999
 31
0.0
  0
LINE
  5
A07
330
20B
100
AcDbEntity
  8
SK2
370
    -2
100
AcDbLine
 10
91.37499999999999
 20
-59.3617928475
 30
0.0
 11
91.37500000000001
 21
59.36179284749999
 31
0.0
  0
SOLID
  5
A08
330
20B
100
AcDbEntity
  8
SK2
100
AcDbTrace
 10
90.79166666666665
 20
-59.3617928475
 30
0.0
 11
91.95833333333331
 21
-59.3617928475
 31
0.0
 12
91.37499999999999
 22
-62.86179284750001
 32
0.0
 13
91.37499999999999
 23
-62.86179284750001
 33
0.0
  0
SOLID
  5
A09
330
20B
100
AcDbEntity
  8
SK2
100
AcDbTrace
 10
90.79166666666669
 20
59.36179284749999
 30
0.0
 11
91.95833333333334
 21
59.36179284749999
 31
0.0
 12
91.37500000000001
 22
62.86179284749999
 32
0.0
 13
91.37500000000001
 23
62.86179284749999
 33
0.0
  0
MTEXT
  5
A0A
330
20B
100
AcDbEntity
  8
SK2
100
AcDbMText
 10
89.0
 20
3.5
 30
0.0
 40
3.5
 41
0.0
 71
     5
 72
     1
  1
Lk-%%c177.8
 11
0.0000000000000001
 21
1.0
 31
0.0
 73
     1
 44
1.0
1001
ACAD
1000
MTEXTBEGIN
1070
    73
1070
     1
1070
    44
1040
1.0
1070
    74
1070
     0
1000
MTEXTEND
  0
POINT
  5
A0B
330
20B
100
AcDbEntity
  8
Defpoints
 62
     0
100
AcDbPoint
 10
64.5
 20
-62.8617928475
 30
0.0
  0
POINT
  5
A0C
330
20B
100
AcDbEntity
  8
Defpoints
 62
     0
100
AcDbPoint
 10
64.5
 20
62.8617928475
 30
0.0
  0
POINT
  5
A0D
330
20B
100
AcDbEntity
  8
Defpoints
 62
     0
100
AcDbPoint
 10
91.37500000000001
 20
62.86179284749999
 30
0.0
  0
ENDBLK
  5
227
330
20B
100
AcDbEntity
  8
0
  6
ByBlock
 62
     0
100
AcDbBlockEnd
  0
BLOCK
  5
228
330
20C
100
AcDbEntity
  8
SK2
  6
Continuous
 62
     7
100
AcDbBlockBegin
  2
*D3
 70
     1
 10
0.0
 20
0.0
 30
0.0
  3
*D3
  1

  0
LINE
  5
A20
330
20C
100
AcDbEntity
  8
SK2
370
    -2
100
AcDbLine
 10
-2.125
 20
-163.7
 30
0.0
 11
-23.12535248850004
 21
-163.7
 31
0.0
  0
LINE
  5
A21
330
20C
100
AcDbEntity
  8
SK2
370
    -2
100
AcDbLine
 10
-2.125
 20
163.7
 30
0.0
 11
-23.12535248849997
 21
163.7
 31
0.0
  0
LINE
  5
A22
330
20C
100
AcDbEntity
  8
SK2
370
    -2
100
AcDbLine
 10
-21.12535248850003
 20
-160.2
 30
0.0
 11
-21.12535248849996
 21
160.2
 31
0.0
  0
SOLID
  5
A23
330
20C
100
AcDbEntity
  8
SK2
100
AcDbTrace
 10
-21.70868582183337
 20
-160.2
 30
0.0
 11
-20.5420191551667
 21
-160.2
 31
0.0
 12
-21.12535248850003
 22
-163.7
 32
0.0
 13
-21.12535248850003
 23
-163.7
 33
0.0
  0
SOLID
  5
A24
330
20C
100
AcDbEntity
  8
SK2
100
AcDbTrace
 10
-21.7086858218333
 20
160.2
 30
0.0
 11
-20.54201915516663
 21
160.2
 31
0.0
 12
-21.12535248849996
 22
163.7
 32
0.0
 13
-21.12535248849996
 23
163.7
 33
0.0
  0
MTEXT
  5
A25
330
20C
100
AcDbEntity
  8
SK2
100
AcDbMText
 10
-23.50069697668898
 20
1.75
 30
0.0
 40
3.5
 41
0.0
 71
     5
 72
     1
  1
%%c327.4
 11
0.0000000000000001
 21
1.0
 31
0.0
 73
     1
 44
1.0
1001
ACAD
1000
MTEXTBEGIN
1070
    73
1070
     1
1070
    44
1040
1.0
1070
    74
1070
     0
1000
MTEXTEND
  0
POINT
  5
A26
330
20C
100
AcDbEntity
  8
Defpoints
 62
     0
100
AcDbPoint
 10
-1.5
 20
-163.7
 30
0.0
  0
POINT
  5
A27
330
20C
100
AcDbEntity
  8
Defpoints
 62
     0
100
AcDbPoint
 10
-1.5
 20
163.7
 30
0.0
  0
POINT
  5
A28
330
20C
100
AcDbEntity
  8
Defpoints
 62
     0
100
AcDbPoint
 10
-21.12535248849996
 20
163.7
 30
0.0
  0
ENDBLK
  5
230
330
20C
100
AcDbEntity
  8
0
  6
ByBlock
 62
     0
100
AcDbBlockEnd
  0
BLOCK
  5
231
330
20D
100
AcDbEntity
  8
2
  6
Continuous
 62
     7
100
AcDbBlockBegin
  2
*D4
 70
     1
 10
0.0
 20
0.0
 30
0.0
  3
*D4
  1

  0
LINE
  5
A3B
330
20D
100
AcDbEntity
  8
2
370
    -2
100
AcDbLine
 10
0.0
 20
165.825
 30
0.0
 11
0.0000000000000008
 21
178.325
 31
0.0
  0
LINE
  5
A3C
330
20D
100
AcDbEntity
  8
2
370
    -2
100
AcDbLine
 10
17.0
 20
165.825
 30
0.0
 11
17.0
 21
178.325
 31
0.0
  0
LINE
  5
A3D
330
20D
100
AcDbEntity
  8
2
370
    -2
100
AcDbLine
 10
3.5
 20
176.325
 30
0.0
 11
13.5
 21
176.325
 31
0.0
  0
SOLID
  5
A3E
330
20D
100
AcDbEntity
  8
2
100
AcDbTrace
 10
3.5
 20
176.9083333333333
 30
0.0
 11
3.5
 21
175.7416666666666
 31
0.0
 12
0.0000000000000007
 22
176.325
 32
0.0
 13
0.0000000000000007
 23
176.325
 33
0.0
  0
SOLID
  5
A3F
330
20D
100
AcDbEntity
  8
2
100
AcDbTrace
 10
13.5
 20
176.9083333333333
 30
0.0
 11
13.5
 21
175.7416666666666
 31
0.0
 12
17.0
 22
176.325
 32
0.0
 13
17.0
 23
176.325
 33
0.0
  0
MTEXT
  5
A40
330
20D
100
AcDbEntity
  8
2
100
AcDbMText
 10
11.3
 20
178.7
 30
0.0
 40
3.5
 41
0.0
 71
     5
 72
     1
  1
17
 73
     1
 44
1.0
1001
ACAD
1000
MTEXTBEGIN
1070
    73
1070
     1
1070
    44
1040
1.0
1070
    74
1070
     0
1000
MTEXTEND
  0
POINT
  5
A41
330
20D
100
AcDbEntity
  8
Defpoints
 62
     0
100
AcDbPoint
 10
0.0
 20
165.2
 30
0.0
  0
POINT
  5
A42
330
20D
100
AcDbEntity
  8
Defpoints
 62
     0
100
AcDbPoint
 10
17.0
 20
165.2
 30
0.0
  0
POINT
  5
A43
330
20D
100
AcDbEntity
  8
Defpoints
 62
     0
100
AcDbPoint
 10
17.0
 20
176.325
 30
0.0
  0
ENDBLK
  5
239
330
20D
100
AcDbEntity
  8
0
  6
ByBlock
 62
     0
100
AcDbBlockEnd
  0
BLOCK
  5
23A
330
20E
100
AcDbEntity
  8
SK2
  6
Continuous
 62
     7
100
AcDbBlockBegin
  2
*D5
 70
     1
 10
0.0
 20
0.0
 30
0.0
  3
*D5
  1

  0
LINE
  5
9FC
330
20E
100
AcDbEntity
  8
SK2
370
    -2
100
AcDbLine
 10
37.225
 20
-153.85
 30
0.0
 11
110.375
 21
-153.85
 31
0.0
  0
LINE
  5
9FD
330
20E
100
AcDbEntity
  8
SK2
370
    -2
100
AcDbLine
 10
37.225
 20
153.85
 30
0.0
 11
110.375
 21
153.85
 31
0.0
  0
LINE
  5
9FE
330
20E
100
AcDbEntity
  8
SK2
370
    -2
100
AcDbLine
 10
108.375
 20
-150.35
 30
0.0
 11
108.375
 21
150.35
 31
0.0
  0
SOLID
  5
9FF
330
20E
100
AcDbEntity
  8
SK2
100
AcDbTrace
 10
107.7916666666666
 20
-150.35
 30
0.0
 11
108.9583333333333
 21
-150.35
 31
0.0
 12
108.375
 22
-153.85
 32
0.0
 13
108.375
 23
-153.85
 33
0.0
  0
SOLID
  5
A00
330
20E
100
AcDbEntity
  8
SK2
100
AcDbTrace
 10
107.7916666666667
 20
150.35
 30
0.0
 11
108.9583333333333
 21
150.35
 31
0.0
 12
108.375
 22
153.85
 32
0.0
 13
108.375
 23
153.85
 33
0.0
  0
MTEXT
  5
A01
330
20E
100
AcDbEntity
  8
SK2
100
AcDbMText
 10
106.0
 20
1.75
 30
0.0
 40
3.5
 41
0.0
 71
     5
 72
     1
  1
%%c307.7
 11
0.0000000000000001
 21
1.0
 31
0.0
 73
     1
 44
1.0
1001
ACAD
1000
MTEXTBEGIN
1070
    73
1070
     1
1070
    44
1040
1.0
1070
    74
1070
     0
1000
MTEXTEND
  0
POINT
  5
A02
330
20E
100
AcDbEntity
  8
Defpoints
 62
     0
100
AcDbPoint
 10
36.6
 20
-153.85
 30
0.0
  0
POINT
  5
A03
330
20E
100
AcDbEntity
  8
Defpoints
 62
     0
100
AcDbPoint
 10
36.6
 20
153.85
 30
0.0
  0
POINT
  5
A04
330
20E
100
AcDbEntity
  8
Defpoints
 62
     0
100
AcDbPoint
 10
108.375
 20
153.85
 30
0.0
  0
ENDBLK
  5
242
330
20E
100
AcDbEntity
  8
0
  6
ByBlock
 62
     0
100
AcDbBlockEnd
  0
BLOCK
  5
243
330
20F
100
AcDbEntity
  8
SK2
  6
Continuous
 62
     7
100
AcDbBlockBegin
  2
*D6
 70
     1
 10
0.0
 20
0.0
 30
0.0
  3
*D6
  1

  0
LINE
  5
9F3
330
20F
100
AcDbEntity
  8
SK2
370
    -2
100
AcDbLine
 10
62.125
 20
-134.05
 30
0.0
 11
101.875
 21
-134.05
 31
0.0
  0
LINE
  5
9F4
330
20F
100
AcDbEntity
  8
SK2
370
    -2
100
AcDbLine
 10
62.125
 20
134.05
 30
0.0
 11
101.875
 21
134.05
 31
0.0
  0
LINE
  5
9F5
330
20F
100
AcDbEntity
  8
SK2
370
    -2
100
AcDbLine
 10
99.87499999999997
 20
-130.55
 30
0.0
 11
99.87500000000004
 21
130.55
 31
0.0
  0
SOLID
  5
9F6
330
20F
100
AcDbEntity
  8
SK2
100
AcDbTrace
 10
99.29166666666665
 20
-130.55
 30
0.0
 11
100.4583333333333
 21
-130.55
 31
0.0
 12
99.87499999999997
 22
-134.05
 32
0.0
 13
99.87499999999997
 23
-134.05
 33
0.0
  0
SOLID
  5
9F7
330
20F
100
AcDbEntity
  8
SK2
100
AcDbTrace
 10
99.2916666666667
 20
130.55
 30
0.0
 11
100.4583333333333
 21
130.55
 31
0.0
 12
99.87500000000004
 22
134.05
 32
0.0
 13
99.87500000000004
 23
134.05
 33
0.0
  0
MTEXT
  5
9F8
330
20F
100
AcDbEntity
  8
SK2
100
AcDbMText
 10
97.49965551181103
 20
1.75
 30
0.0
 40
3.5
 41
0.0
 71
     5
 72
     1
  1
%%c268.1
 11
0.0000000000000001
 21
1.0
 31
0.0
 73
     1
 44
1.0
1001
ACAD
1000
MTEXTBEGIN
1070
    73
1070
     1
1070
    44
1040
1.0
1070
    74
1070
     0
1000
MTEXTEND
  0
POINT
  5
9F9
330
20F
100
AcDbEntity
  8
Defpoints
 62
     0
100
AcDbPoint
 10
61.5
 20
-134.05
 30
0.0
  0
POINT
  5
9FA
330
20F
100
AcDbEntity
  8
Defpoints
 62
     0
100
AcDbPoint
 10
61.5
 20
134.05
 30
0.0
  0
POINT
  5
9FB
330
20F
100
AcDbEntity
  8
Defpoints
 62
     0
100
AcDbPoint
 10
99.87500000000004
 20
134.05
 30
0.0
  0
ENDBLK
  5
24B
330
20F
100
AcDbEntity
  8
0
  6
ByBlock
 62
     0
100
AcDbBlockEnd
  0
BLOCK
  5
24C
330
210
100
AcDbEntity
  8
SK2
  6
Continuous
 62
     7
100
AcDbBlockBegin
  2
*D7
 70
     1
 10
0.0
 20
0.0
 30
0.0
  3
*D7
  1

  0
LINE
  5
A32
330
210
100
AcDbEntity
  8
SK2
370
    -2
100
AcDbLine
 10
0.0
 20
165.825
 30
0.0
 11
0.0000000000000013
 21
186.825
 31
0.0
  0
LINE
  5
A33
330
210
100
AcDbEntity
  8
SK2
370
    -2
100
AcDbLine
 10
35.1
 20
155.975
 30
0.0
 11
35.1
 21
186.825
 31
0.0
  0
LINE
  5
A34
330
210
100
AcDbEntity
  8
SK2
370
    -2
100
AcDbLine
 10
3.500000000000001
 20
184.825
 30
0.0
 11
31.6
 21
184.825
 31
0.0
  0
SOLID
  5
A35
330
210
100
AcDbEntity
  8
SK2
100
AcDbTrace
 10
3.500000000000001
 20
185.4083333333333
 30
0.0
 11
3.500000000000001
 21
184.2416666666666
 31
0.0
 12
0.0000000000000012
 22
184.825
 32
0.0
 13
0.0000000000000012
 23
184.825
 33
0.0
  0
SOLID
  5
A36
330
210
100
AcDbEntity
  8
SK2
100
AcDbTrace
 10
31.6
 20
185.4083333333333
 30
0.0
 11
31.6
 21
184.2416666666666
 31
0.0
 12
35.1
 22
184.825
 32
0.0
 13
35.1
 23
184.825
 33
0.0
  0
MTEXT
  5
A37
330
210
100
AcDbEntity
  8
SK2
100
AcDbMText
 10
23.15000000000001
 20
187.2
 30
0.0
 40
3.5
 41
0.0
 71
     5
 72
     1
  1
35.1
 73
     1
 44
1.0
1001
ACAD
1000
MTEXTBEGIN
1070
    73
1070
     1
1070
    44
1040
1.0
1070
    74
1070
     0
1000
MTEXTEND
  0
POINT
  5
A38
330
210
100
AcDbEntity
  8
Defpoints
 62
     0
100
AcDbPoint
 10
0.0
 20
165.2
 30
0.0
  0
POINT
  5
A39
330
210
100
AcDbEntity
  8
Defpoints
 62
     0
100
AcDbPoint
 10
35.1
 20
155.35
 30
0.0
  0
POINT
  5
A3A
330
210
100
AcDbEntity
  8
Defpoints
 62
     0
100
AcDbPoint
 10
35.1
 20
184.825
 30
0.0
  0
ENDBLK
  5
254
330
210
100
AcDbEntity
  8
0
  6
ByBlock
 62
     0
100
AcDbBlockEnd
  0
BLOCK
  5
255
330
211
100
AcDbEntity
  8
SK2
  6
Continuous
 62
     7
100
AcDbBlockBegin
  2
*D8
 70
     1
 10
0.0
 20
0.0
 30
0.0
  3
*D8
  1

  0
LINE
  5
A29
330
211
100
AcDbEntity
  8
SK2
370
    -2
100
AcDbLine
 10
60.0
 20
136.3943222354
 30
0.0
 11
60.0
 21
195.325
 31
0.0
  0
LINE
  5
A2A
330
211
100
AcDbEntity
  8
SK2
370
    -2
100
AcDbLine
 10
0.0
 20
166.3943222354
 30
0.0
 11
0.0000000000000018
 21
195.325
 31
0.0
  0
LINE
  5
A2B
330
211
100
AcDbEntity
  8
SK2
370
    -2
100
AcDbLine
 10
56.5
 20
193.325
 30
0.0
 11
3.500000000000001
 21
193.325
 31
0.0
  0
SOLID
  5
A2C
330
211
100
AcDbEntity
  8
SK2
100
AcDbTrace
 10
56.5
 20
193.9083333333333
 30
0.0
 11
56.5
 21
192.7416666666666
 31
0.0
 12
60.0
 22
193.325
 32
0.0
 13
60.0
 23
193.325
 33
0.0
  0
SOLID
  5
A2D
330
211
100
AcDbEntity
  8
SK2
100
AcDbTrace
 10
3.500000000000001
 20
193.9083333333333
 30
0.0
 11
3.500000000000001
 21
192.7416666666666
 31
0.0
 12
0.0000000000000017
 22
193.325
 32
0.0
 13
0.0000000000000017
 23
193.325
 33
0.0
  0
MTEXT
  5
A2E
330
211
100
AcDbEntity
  8
SK2
100
AcDbMText
 10
32.80000000000001
 20
195.7
 30
0.0
 40
3.5
 41
0.0
 71
     5
 72
     1
  1
60
 73
     1
 44
1.0
1001
ACAD
1000
MTEXTBEGIN
1070
    73
1070
     1
1070
    44
1040
1.0
1070
    74
1070
     0
1000
MTEXTEND
  0
POINT
  5
A2F
330
211
100
AcDbEntity
  8
Defpoints
 62
     0
100
AcDbPoint
 10
60.0
 20
135.7693222354
 30
0.0
  0
POINT
  5
A30
330
211
100
AcDbEntity
  8
Defpoints
 62
     0
100
AcDbPoint
 10
0.0
 20
165.7693222354
 30
0.0
  0
POINT
  5
A31
330
211
100
AcDbEntity
  8
Defpoints
 62
     0
100
AcDbPoint
 10
0.0000000000000017
 20
193.325
 30
0.0
  0
ENDBLK
  5
25D
330
211
100
AcDbEntity
  8
0
  6
ByBlock
 62
     0
100
AcDbBlockEnd
  0
BLOCK
  5
25E
330
212
100
AcDbEntity
  8
SK2
  6
Continuous
 62
     7
100
AcDbBlockBegin
  2
*D9
 70
     1
 10
0.0
 20
0.0
 30
0.0
  3
*D9
  1

  0
LINE
  5
9EA
330
212
100
AcDbEntity
  8
SK2
370
    -2
100
AcDbLine
 10
62.125
 20
-25.0
 30
0.0
 11
76.375
 21
-25.0
 31
0.0
  0
LINE
  5
9EB
330
212
100
AcDbEntity
  8
SK2
370
    -2
100
AcDbLine
 10
62.125
 20
25.0
 30
0.0
 11
76.375
 21
25.0
 31
0.0
  0
LINE
  5
9EC
330
212
100
AcDbEntity
  8
SK2
370
    -2
100
AcDbLine
 10
74.375
 20
-21.5
 30
0.0
 11
74.375
 21
21.5
 31
0.0
  0
SOLID
  5
9ED
330
212
100
AcDbEntity
  8
SK2
100
AcDbTrace
 10
73.79166666666667
 20
-21.5
 30
0.0
 11
74.95833333333333
 21
-21.5
 31
0.0
 12
74.375
 22
-25.0
 32
0.0
 13
74.375
 23
-25.0
 33
0.0
  0
SOLID
  5
9EE
330
212
100
AcDbEntity
  8
SK2
100
AcDbTrace
 10
73.79166666666667
 20
21.5
 30
0.0
 11
74.95833333333333
 21
21.5
 31
0.0
 12
74.375
 22
25.0
 32
0.0
 13
74.375
 23
25.0
 33
0.0
  0
MTEXT
  5
9EF
330
212
100
AcDbEntity
  8
SK2
100
AcDbMText
 10
72.0
 20
1.75
 30
0.0
 40
3.5
 41
0.0
 71
     5
 72
     1
  1
%%c50
 11
0.0000000000000001
 21
1.0
 31
0.0
 73
     1
 44
1.0
1001
ACAD
1000
MTEXTBEGIN
1070
    73
1070
     1
1070
    44
1040
1.0
1070
    74
1070
     0
1000
MTEXTEND
  0
POINT
  5
9F0
330
212
100
AcDbEntity
  8
Defpoints
 62
     0
100
AcDbPoint
 10
61.5
 20
-25.0
 30
0.0
  0
POINT
  5
9F1
330
212
100
AcDbEntity
  8
Defpoints
 62
     0
100
AcDbPoint
 10
61.5
 20
25.0
 30
0.0
  0
POINT
  5
9F2
330
212
100
AcDbEntity
  8
Defpoints
 62
     0
100
AcDbPoint
 10
74.375
 20
25.0
 30
0.0
  0
ENDBLK
  5
266
330
212
100
AcDbEntity
  8
0
  6
ByBlock
 62
     0
100
AcDbBlockEnd
  0
BLOCK
  5
267
330
213
100
AcDbEntity
  8
SK2
  6
Continuous
 62
     7
100
AcDbBlockBegin
  2
*D10
 70
     1
 10
0.0
 20
0.0
 30
0.0
  3
*D10
  1

  0
LINE
  5
A17
330
213
100
AcDbEntity
  8
SK2
370
    -2
100
AcDbLine
 10
-2.125
 20
-30.0
 30
0.0
 11
-14.6253524885
 21
-30.0
 31
0.0
  0
LINE
  5
A18
330
213
100
AcDbEntity
  8
SK2
370
    -2
100
AcDbLine
 10
-2.125
 20
30.0
 30
0.0
 11
-14.62535248849999
 21
30.0
 31
0.0
  0
LINE
  5
A19
330
213
100
AcDbEntity
  8
SK2
370
    -2
100
AcDbLine
 10
-12.6253524885
 20
-26.5
 30
0.0
 11
-12.62535248849999
 21
26.5
 31
0.0
  0
SOLID
  5
A1A
330
213
100
AcDbEntity
  8
SK2
100
AcDbTrace
 10
-13.20868582183334
 20
-26.5
 30
0.0
 11
-12.04201915516667
 21
-26.5
 31
0.0
 12
-12.62535248850001
 22
-30.0
 32
0.0
 13
-12.62535248850001
 23
-30.0
 33
0.0
  0
SOLID
  5
A1B
330
213
100
AcDbEntity
  8
SK2
100
AcDbTrace
 10
-13.20868582183333
 20
26.5
 30
0.0
 11
-12.04201915516666
 21
26.5
 31
0.0
 12
-12.62535248849999
 22
30.0
 32
0.0
 13
-12.62535248849999
 23
30.0
 33
0.0
  0
MTEXT
  5
A1C
330
213
100
AcDbEntity
  8
SK2
100
AcDbMText
 10
-15.0003524885
 20
1.75
 30
0.0
 40
3.5
 41
0.0
 71
     5
 72
     1
  1
%%c60
 11
0.0000000000000001
 21
1.0
 31
0.0
 73
     1
 44
1.0
1001
ACAD
1000
MTEXTBEGIN
1070
    73
1070
     1
1070
    44
1040
1.0
1070
    74
1070
     0
1000
MTEXTEND
  0
POINT
  5
A1D
330
213
100
AcDbEntity
  8
Defpoints
 62
     0
100
AcDbPoint
 10
-1.5
 20
-30.0
 30
0.0
  0
POINT
  5
A1E
330
213
100
AcDbEntity
  8
Defpoints
 62
     0
100
AcDbPoint
 10
-1.5
 20
30.0
 30
0.0
  0
POINT
  5
A1F
330
213
100
AcDbEntity
  8
Defpoints
 62
     0
100
AcDbPoint
 10
-12.62535248849999
 20
30.0
 30
0.0
  0
ENDBLK
  5
26F
330
213
100
AcDbEntity
  8
0
  6
ByBlock
 62
     0
100
AcDbBlockEnd
  0
BLOCK
  5
270
330
214
100
AcDbEntity
  8
1
  6
Continuous
 62
     3
100
AcDbBlockBegin
  2
EINFUEGEPUNKT_BL0
 70
     0
 10
37.5003524885
 20
185.0056798014
 30
0.0
  3
EINFUEGEPUNKT_BL0
  1

  0
LINE
  5
271
330
214
100
AcDbEntity
  8
1
  6
Continuous
 62
     4
100
AcDbLine
 10
37.5003524885
 20
185.0056798014
 30
0.0
 11
37.5003524885
 21
184.5056808014
 31
0.0
  0
ARC
  5
272
330
214
100
AcDbEntity
  8
1
  6
Continuous
 62
     4
100
AcDbCircle
 10
37.5003524885
 20
185.0056798014
 30
0.0
 40
0.4999990000000001
100
AcDbArc
 50
90.0
 51
180.0
  0
LINE
  5
273
330
214
100
AcDbEntity
  8
1
  6
Continuous
 62
     4
100
AcDbLine
 10
37.5003524885
 20
185.0056798014
 30
0.0
 11
37.0003534885
 21
185.0056798014
 31
0.0
  0
ARC
  5
274
330
214
100
AcDbEntity
  8
1
  6
Continuous
 62
     4
100
AcDbCircle
 10
37.5003524885
 20
185.0056798014
 30
0.0
 40
0.4999990000000001
100
AcDbArc
 50
180.0
 51
270.0
  0
ARC
  5
275
330
214
100
AcDbEntity
  8
1
  6
Continuous
 62
     4
100
AcDbCircle
 10
37.5003524885
 20
185.0056798014
 30
0.0
 40
0.4999990000000001
100
AcDbArc
 50
270.0
 51
360.0
  0
ARC
  5
276
330
214
100
AcDbEntity
  8
1
  6
Continuous
 62
     4
100
AcDbCircle
 10
37.5003524885
 20
185.0056798014
 30
0.0
 40
0.4999990000000001
100
AcDbArc
 50
0.0
 51
90.0
  0
LINE
  5
277
330
214
100
AcDbEntity
  8
1
  6
Continuous
 62
     4
100
AcDbLine
 10
38.0003514885
 20
185.0056798014
 30
0.0
 11
37.5003524885
 21
185.0056798014
 31
0.0
  0
LINE
  5
278
330
214
100
AcDbEntity
  8
1
  6
Continuous
 62
     4
100
AcDbLine
 10
37.5003524885
 20
185.5056788014
 30
0.0
 11
37.5003524885
 21
185.0056798014
 31
0.0
  0
LWPOLYLINE
  5
279
330
214
100
AcDbEntity
  8
1
  6
Continuous
 62
     4
100
AcDbPolyline
 90
       18
 70
     0
 43
0.0
 10
37.5003524885
 20
185.0056798014
 10
37.5003524885
 20
185.5056788014
 10
37.5526166156
 20
185.5029397546
 10
37.604308126
 20
185.4947526236
 10
37.6548606767
 20
185.4812071085
 10
37.7037204033
 20
185.4624516167
 10
37.7503519885
 20
185.4386916373
 10
37.7942445269
 20
185.4101874896
 10
37.8349171225
 20
185.377251471
 10
37.8719241581
 20
185.3402444354
 10
37.9048601767
 20
185.2995718398
 10
37.9333643244
 20
185.2556793014
 10
37.9571243038
 20
185.2090477162
 10
37.9758797956
 20
185.1601879896
 10
37.9894253107
 20
185.1096354389
 10
37.9976124417
 20
185.0579439285
 10
38.0003514885
 20
185.0056798014
 10
37.5003524885
 20
185.0056798014
  0
HATCH
  5
27A
330
214
100
AcDbEntity
  8
1
  6
Continuous
 62
     4
100
AcDbHatch
 10
0.0
 20
0.0
 30
0.0
210
0.0
220
0.0
230
1.0
  2
SOLID
 70
     1
 71
     1
 91
        1
 92
        1
 93
       17
 72
     1
 10
37.5003524885
 20
185.0056798014
 11
37.5003524885
 21
185.5056788014
 72
     1
 10
37.5003524885
 20
185.5056788014
 11
37.5526166156
 21
185.5029397546
 72
     1
 10
37.5526166156
 20
185.5029397546
 11
37.604308126
 21
185.4947526236
 72
     1
 10
37.604308126
 20
185.4947526236
 11
37.6548606767
 21
185.4812071085
 72
     1
 10
37.6548606767
 20
185.4812071085
 11
37.7037204033
 21
185.4624516167
 72
     1
 10
37.7037204033
 20
185.4624516167
 11
37.7503519885
 21
185.4386916373
 72
     1
 10
37.7503519885
 20
185.4386916373
 11
37.7942445269
 21
185.4101874896
 72
     1
 10
37.7942445269
 20
185.4101874896
 11
37.8349171225
 21
185.377251471
 72
     1
 10
37.8349171225
 20
185.377251471
 11
37.8719241581
 21
185.3402444354
 72
     1
 10
37.8719241581
 20
185.3402444354
 11
37.9048601767
 21
185.2995718398
 72
     1
 10
37.9048601767
 20
185.2995718398
 11
37.9333643244
 21
185.2556793014
 72
     1
 10
37.9333643244
 20
185.2556793014
 11
37.9571243038
 21
185.2090477162
 72
     1
 10
37.9571243038
 20
185.2090477162
 11
37.9758797956
 21
185.1601879896
 72
     1
 10
37.9758797956
 20
185.1601879896
 11
37.9894253107
 21
185.1096354389
 72
     1
 10
37.9894253107
 20
185.1096354389
 11
37.9976124417
 21
185.0579439285
 72
     1
 10
37.9976124417
 20
185.0579439285
 11
38.0003514885
 21
185.0056798014
 72
     1
 10
38.0003514885
 20
185.0056798014
 11
37.5003524885
 21
185.0056798014
 97
        1
330
279
 75
     0
 76
     1
 98
        1
 10
0.0
 20
0.0
  0
LWPOLYLINE
  5
27B
330
214
100
AcDbEntity
  8
1
  6
Continuous
 62
     4
100
AcDbPolyline
 90
       18
 70
     0
 43
0.0
 10
37.5003524885
 20
185.0056798014
 10
37.5003524885
 20
184.5056808014
 10
37.4480883614
 20
184.5084198482
 10
37.396396851
 20
184.5166069792
 10
37.3458443003
 20
184.5301524943
 10
37.2969845737
 20
184.5489079861
 10
37.2503529885
 20
184.5726679654999
 10
37.2064604501
 20
184.6011721132
 10
37.1657878545
 20
184.6341081318
 10
37.1287808189
 20
184.6711151674
 10
37.0958448003
 20
184.711787763
 10
37.0673406526
 20
184.7556803014
 10
37.04358067320001
 20
184.8023118866
 10
37.0248251814
 20
184.8511716132
 10
37.0112796663
 20
184.9017241639
 10
37.0030925353
 20
184.9534156743
 10
37.0003534885
 20
185.0056798014
 10
37.5003524885
 20
185.0056798014
  0
HATCH
  5
27C
330
214
100
AcDbEntity
  8
1
  6
Continuous
 62
     4
100
AcDbHatch
 10
0.0
 20
0.0
 30
0.0
210
0.0
220
0.0
230
1.0
  2
SOLID
 70
     1
 71
     1
 91
        1
 92
        1
 93
       17
 72
     1
 10
37.5003524885
 20
185.0056798014
 11
37.5003524885
 21
184.5056808014
 72
     1
 10
37.5003524885
 20
184.5056808014
 11
37.4480883614
 21
184.5084198482
 72
     1
 10
37.4480883614
 20
184.5084198482
 11
37.396396851
 21
184.5166069792
 72
     1
 10
37.396396851
 20
184.5166069792
 11
37.3458443003
 21
184.5301524943
 72
     1
 10
37.3458443003
 20
184.5301524943
 11
37.2969845737
 21
184.5489079861
 72
     1
 10
37.2969845737
 20
184.5489079861
 11
37.2503529885
 21
184.5726679654999
 72
     1
 10
37.2503529885
 20
184.5726679654999
 11
37.2064604501
 21
184.6011721132
 72
     1
 10
37.2064604501
 20
184.6011721132
 11
37.1657878545
 21
184.6341081318
 72
     1
 10
37.1657878545
 20
184.6341081318
 11
37.1287808189
 21
184.6711151674
 72
     1
 10
37.1287808189
 20
184.6711151674
 11
37.0958448003
 21
184.711787763
 72
     1
 10
37.0958448003
 20
184.711787763
 11
37.0673406526
 21
184.7556803014
 72
     1
 10
37.0673406526
 20
184.7556803014
 11
37.04358067320001
 21
184.8023118866
 72
     1
 10
37.04358067320001
 20
184.8023118866
 11
37.0248251814
 21
184.8511716132
 72
     1
 10
37.0248251814
 20
184.8511716132
 11
37.0112796663
 21
184.9017241639
 72
     1
 10
37.0112796663
 20
184.9017241639
 11
37.0030925353
 21
184.9534156743
 72
     1
 10
37.0030925353
 20
184.9534156743
 11
37.0003534885
 21
185.0056798014
 72
     1
 10
37.0003534885
 20
185.0056798014
 11
37.5003524885
 21
185.0056798014
 97
        1
330
27B
 75
     0
 76
     1
 98
        1
 10
0.0
 20
0.0
  0
LINE
  5
27D
330
214
100
AcDbEntity
  8
1
  6
Continuous
 62
     4
100
AcDbLine
 10
37.0003534885
 20
185.0056798014
 30
0.0
 11
37.5003524885
 21
185.0056798014
 31
0.0
  0
ARC
  5
27E
330
214
100
AcDbEntity
  8
1
  6
Continuous
 62
     4
100
AcDbCircle
 10
37.5003524885
 20
185.0056798014
 30
0.0
 40
0.4999990000000001
100
AcDbArc
 50
180.0
 51
270.0
  0
LINE
  5
27F
330
214
100
AcDbEntity
  8
1
  6
Continuous
 62
     4
100
AcDbLine
 10
37.5003524885
 20
184.5056808014
 30
0.0
 11
37.5003524885
 21
185.0056798014
 31
0.0
  0
ENDBLK
  5
280
330
214
100
AcDbEntity
  8
0
  6
ByBlock
 62
     0
100
AcDbBlockEnd
  0
BLOCK
  5
281
330
215
100
AcDbEntity
  8
1
  6
Continuous
 62
     3
100
AcDbBlockBegin
  2
NULLPUNKT_BL1
 70
     0
 10
20.5003524885
 20
185.0056798014
 30
0.0
  3
NULLPUNKT_BL1
  1

  0
LINE
  5
282
330
215
100
AcDbEntity
  8
1
  6
Continuous
 62
     4
100
AcDbLine
 10
20.5003524885
 20
185.0056798014
 30
0.0
 11
22.0003494885
 21
185.0056798014
 31
0.0
  0
ARC
  5
283
330
215
100
AcDbEntity
  8
1
  6
Continuous
 62
     4
100
AcDbCircle
 10
20.5003524885
 20
185.0056798014
 30
0.0
 40
1.499997
100
AcDbArc
 50
180.0
 51
270.0
  0
LINE
  5
284
330
215
100
AcDbEntity
  8
1
  6
Continuous
 62
     4
100
AcDbLine
 10
20.5003524885
 20
185.0056798014
 30
0.0
 11
20.5003524885
 21
183.5056828014
 31
0.0
  0
ARC
  5
285
330
215
100
AcDbEntity
  8
1
  6
Continuous
 62
     4
100
AcDbCircle
 10
20.5003524885
 20
185.0056798014
 30
0.0
 40
1.499997
100
AcDbArc
 50
270.0
 51
360.0
  0
ARC
  5
286
330
215
100
AcDbEntity
  8
1
  6
Continuous
 62
     4
100
AcDbCircle
 10
20.5003524885
 20
185.0056798014
 30
0.0
 40
1.499997
100
AcDbArc
 50
0.0
 51
90.0
  0
ARC
  5
287
330
215
100
AcDbEntity
  8
1
  6
Continuous
 62
     4
100
AcDbCircle
 10
20.5003524885
 20
185.0056798014
 30
0.0
 40
1.499997
100
AcDbArc
 50
90.0
 51
180.0
  0
LINE
  5
288
330
215
100
AcDbEntity
  8
1
  6
Continuous
 62
     4
100
AcDbLine
 10
20.5003524885
 20
186.5056768014
 30
0.0
 11
20.5003524885
 21
185.0056798014
 31
0.0
  0
LINE
  5
289
330
215
100
AcDbEntity
  8
1
  6
Continuous
 62
     4
100
AcDbLine
 10
19.0003554885
 20
185.0056798014
 30
0.0
 11
20.5003524885
 21
185.0056798014
 31
0.0
  0
LWPOLYLINE
  5
28A
330
215
100
AcDbEntity
  8
1
  6
Continuous
 62
     4
100
AcDbPolyline
 90
       18
 70
     0
 43
0.0
 10
20.5003524885
 20
185.0056798014
 10
19.0003554885
 20
185.0056798014
 10
19.008572629
 20
185.1624721827
 10
19.0331340218
 20
185.3175467139
 10
19.0737705672
 20
185.4692043659
 10
19.1300370427
 20
185.6157835458
 10
19.2013169809
 20
185.7556783014
 10
19.286829424
 20
185.8873559165
 10
19.3856374797
 20
186.0093737035
 10
19.4966585864
 20
186.1203948102
 10
19.6186763734
 20
186.2192028659
 10
19.7503539885
 20
186.304715309
 10
19.8902487441
 20
186.3759952472
 10
20.036827924
 20
186.4322617227
 10
20.188485576
 20
186.4728982681
 10
20.3435601072
 20
186.4974596609
 10
20.5003524885
 20
186.5056768014
 10
20.5003524885
 20
185.0056798014
  0
HATCH
  5
28B
330
215
100
AcDbEntity
  8
1
  6
Continuous
 62
     4
100
AcDbHatch
 10
0.0
 20
0.0
 30
0.0
210
0.0
220
0.0
230
1.0
  2
SOLID
 70
     1
 71
     1
 91
        1
 92
        1
 93
       17
 72
     1
 10
20.5003524885
 20
185.0056798014
 11
19.0003554885
 21
185.0056798014
 72
     1
 10
19.0003554885
 20
185.0056798014
 11
19.008572629
 21
185.1624721827
 72
     1
 10
19.008572629
 20
185.1624721827
 11
19.0331340218
 21
185.3175467139
 72
     1
 10
19.0331340218
 20
185.3175467139
 11
19.0737705672
 21
185.4692043659
 72
     1
 10
19.0737705672
 20
185.4692043659
 11
19.1300370427
 21
185.6157835458
 72
     1
 10
19.1300370427
 20
185.6157835458
 11
19.2013169809
 21
185.7556783014
 72
     1
 10
19.2013169809
 20
185.7556783014
 11
19.286829424
 21
185.8873559165
 72
     1
 10
19.286829424
 20
185.8873559165
 11
19.3856374797
 21
186.0093737035
 72
     1
 10
19.3856374797
 20
186.0093737035
 11
19.4966585864
 21
186.1203948102
 72
     1
 10
19.4966585864
 20
186.1203948102
 11
19.6186763734
 21
186.2192028659
 72
     1
 10
19.6186763734
 20
186.2192028659
 11
19.7503539885
 21
186.304715309
 72
     1
 10
19.7503539885
 20
186.304715309
 11
19.8902487441
 21
186.3759952472
 72
     1
 10
19.8902487441
 20
186.3759952472
 11
20.036827924
 21
186.4322617227
 72
     1
 10
20.036827924
 20
186.4322617227
 11
20.188485576
 21
186.4728982681
 72
     1
 10
20.188485576
 20
186.4728982681
 11
20.3435601072
 21
186.4974596609
 72
     1
 10
20.3435601072
 20
186.4974596609
 11
20.5003524885
 21
186.5056768014
 72
     1
 10
20.5003524885
 20
186.5056768014
 11
20.5003524885
 21
185.0056798014
 97
        1
330
28A
 75
     0
 76
     1
 98
        1
 10
0.0
 20
0.0
  0
LWPOLYLINE
  5
28C
330
215
100
AcDbEntity
  8
1
  6
Continuous
 62
     4
100
AcDbPolyline
 90
       18
 70
     0
 43
0.0
 10
20.5003524885
 20
185.0056798014
 10
22.0003494885
 20
185.0056798014
 10
21.992132348
 20
184.8488874200999
 10
21.9675709552
 20
184.6938128889
 10
21.9269344098
 20
184.5421552369
 10
21.8706679343
 20
184.395576057
 10
21.7993879961
 20
184.2556813014
 10
21.713875553
 20
184.1240036863
 10
21.6150674973
 20
184.0019858993
 10
21.5040463906
 20
183.8909647926
 10
21.3820286036
 20
183.7921567369
 10
21.2503509885
 20
183.7066442938
 10
21.1104562329
 20
183.6353643556
 10
20.963877053
 20
183.5790978801
 10
20.812219401
 20
183.5384613347
 10
20.6571448698
 20
183.5138999418999
 10
20.5003524885
 20
183.5056828014
 10
20.5003524885
 20
185.0056798014
  0
HATCH
  5
28D
330
215
100
AcDbEntity
  8
1
  6
Continuous
 62
     4
100
AcDbHatch
 10
0.0
 20
0.0
 30
0.0
210
0.0
220
0.0
230
1.0
  2
SOLID
 70
     1
 71
     1
 91
        1
 92
        1
 93
       17
 72
     1
 10
20.5003524885
 20
185.0056798014
 11
22.0003494885
 21
185.0056798014
 72
     1
 10
22.0003494885
 20
185.0056798014
 11
21.992132348
 21
184.8488874200999
 72
     1
 10
21.992132348
 20
184.8488874200999
 11
21.9675709552
 21
184.6938128889
 72
     1
 10
21.9675709552
 20
184.6938128889
 11
21.9269344098
 21
184.5421552369
 72
     1
 10
21.9269344098
 20
184.5421552369
 11
21.8706679343
 21
184.395576057
 72
     1
 10
21.8706679343
 20
184.395576057
 11
21.7993879961
 21
184.2556813014
 72
     1
 10
21.7993879961
 20
184.2556813014
 11
21.713875553
 21
184.1240036863
 72
     1
 10
21.713875553
 20
184.1240036863
 11
21.6150674973
 21
184.0019858993
 72
     1
 10
21.6150674973
 20
184.0019858993
 11
21.5040463906
 21
183.8909647926
 72
     1
 10
21.5040463906
 20
183.8909647926
 11
21.3820286036
 21
183.7921567369
 72
     1
 10
21.3820286036
 20
183.7921567369
 11
21.2503509885
 21
183.7066442938
 72
     1
 10
21.2503509885
 20
183.7066442938
 11
21.1104562329
 21
183.6353643556
 72
     1
 10
21.1104562329
 20
183.6353643556
 11
20.963877053
 21
183.5790978801
 72
     1
 10
20.963877053
 20
183.5790978801
 11
20.812219401
 21
183.5384613347
 72
     1
 10
20.812219401
 20
183.5384613347
 11
20.6571448698
 21
183.5138999418999
 72
     1
 10
20.6571448698
 20
183.5138999418999
 11
20.5003524885
 21
183.5056828014
 72
     1
 10
20.5003524885
 20
183.5056828014
 11
20.5003524885
 21
185.0056798014
 97
        1
330
28C
 75
     0
 76
     1
 98
        1
 10
0.0
 20
0.0
  0
LINE
  5
28E
330
215
100
AcDbEntity
  8
1
  6
Continuous
 62
     4
100
AcDbLine
 10
20.5003524885
 20
183.5056828014
 30
0.0
 11
20.5003524885
 21
185.0056798014
 31
0.0
  0
ARC
  5
28F
330
215
100
AcDbEntity
  8
1
  6
Continuous
 62
     4
100
AcDbCircle
 10
20.5003524885
 20
185.0056798014
 30
0.0
 40
1.499997
100
AcDbArc
 50
270.0
 51
360.0
  0
LINE
  5
290
330
215
100
AcDbEntity
  8
1
  6
Continuous
 62
     4
100
AcDbLine
 10
22.0003494885
 20
185.0056798014
 30
0.0
 11
20.5003524885
 21
185.0056798014
 31
0.0
  0
ENDBLK
  5
291
330
215
100
AcDbEntity
  8
0
  6
ByBlock
 62
     0
100
AcDbBlockEnd
  0
ENDSEC
  0
SECTION
  2
ENTITIES
  0
DIMENSION
  5
295
330
1B
100
AcDbEntity
  8
SK2
100
AcDbDimension
  2
*D1
 10
82.87500000000001
 20
35.92102448420001
 30
0.0
 11
82.87499999999999
 21
3.5
 31
0.0
 70
   160
  1
Lk-%%c101.6
 71
     5
 42
71.84204896850002
  3
ISO-25
100
AcDbAlignedDimension
 13
64.5
 23
-35.92102448430001
 33
0.0
 14
64.5
 24
35.92102448420002
 34
0.0
 50
90.0
100
AcDbRotatedDimension
  0
DIMENSION
  5
296
330
1B
100
AcDbEntity
  8
SK2
100
AcDbDimension
  2
*D2
 10
91.37500000000001
 20
62.86179284749999
 30
0.0
 11
91.37500000000001
 21
3.5
 31
0.0
 70
   160
  1
Lk-%%c177.8
 71
     5
 42
125.723585695
  3
ISO-25
100
AcDbAlignedDimension
 13
64.5
 23
-62.8617928475
 33
0.0
 14
64.5
 24
62.8617928475
 34
0.0
 50
90.0
100
AcDbRotatedDimension
  0
DIMENSION
  5
297
330
1B
100
AcDbEntity
  8
SK2
100
AcDbDimension
  2
*D3
 10
-21.12535248849996
 20
163.7
 30
0.0
 11
-21.1253524885
 21
1.75
 31
0.0
 70
   160
  1
%%c327.4
 71
     5
 42
327.4
  3
ISO-25
100
AcDbAlignedDimension
 13
-1.5
 23
-163.7
 33
0.0
 14
-1.5
 24
163.7
 34
0.0
 50
90.0
100
AcDbRotatedDimension
  0
DIMENSION
  5
298
330
1B
100
AcDbEntity
  8
2
100
AcDbDimension
  2
*D4
 10
17.0
 20
176.325
 30
0.0
 11
11.3
 21
176.325
 31
0.0
 70
   160
  1
17
 71
     5
 42
17.0
  3
ISO-25
100
AcDbAlignedDimension
 13
0.0
 23
165.2
 33
0.0
 14
17.0
 24
165.2
 34
0.0
100
AcDbRotatedDimension
  0
DIMENSION
  5
299
330
1B
100
AcDbEntity
  8
SK2
100
AcDbDimension
  2
*D5
 10
108.375
 20
153.85
 30
0.0
 11
108.375
 21
1.75
 31
0.0
 70
   160
  1
%%c307.7
 71
     5
 42
307.7
  3
ISO-25
100
AcDbAlignedDimension
 13
36.6
 23
-153.85
 33
0.0
 14
36.6
 24
153.85
 34
0.0
 50
90.0
100
AcDbRotatedDimension
  0
DIMENSION
  5
29A
330
1B
100
AcDbEntity
  8
SK2
100
AcDbDimension
  2
*D6
 10
99.87500000000004
 20
134.05
 30
0.0
 11
99.875
 21
1.75
 31
0.0
 70
   160
  1
%%c268.1
 71
     5
 42
268.1
  3
ISO-25
100
AcDbAlignedDimension
 13
61.5
 23
-134.05
 33
0.0
 14
61.5
 24
134.05
 34
0.0
 50
90.0
100
AcDbRotatedDimension
  0
DIMENSION
  5
29B
330
1B
100
AcDbEntity
  8
SK2
100
AcDbDimension
  2
*D7
 10
35.1
 20
184.825
 30
0.0
 11
23.15000000000001
 21
184.825
 31
0.0
 70
   160
  1
35.1
 71
     5
 42
35.1
  3
ISO-25
100
AcDbAlignedDimension
 13
0.0
 23
165.2
 33
0.0
 14
35.1
 24
155.35
 34
0.0
100
AcDbRotatedDimension
  0
DIMENSION
  5
29C
330
1B
100
AcDbEntity
  8
SK2
100
AcDbDimension
  2
*D8
 10
0.0000000000000017
 20
193.325
 30
0.0
 11
32.80000000000001
 21
193.325
 31
0.0
 70
   160
  1
60
 71
     5
 42
60.0
  3
ISO-25
100
AcDbAlignedDimension
 13
60.0
 23
135.7693222354
 33
0.0
 14
0.0
 24
165.7693222354
 34
0.0
 50
180.0
100
AcDbRotatedDimension
  0
DIMENSION
  5
29D
330
1B
100
AcDbEntity
  8
SK2
100
AcDbDimension
  2
*D9
 10
74.375
 20
25.0
 30
0.0
 11
74.375
 21
1.75
 31
0.0
 70
   160
  1
%%c50
 71
     5
 42
50.0
  3
ISO-25
100
AcDbAlignedDimension
 13
61.5
 23
-25.0
 33
0.0
 14
61.5
 24
25.0
 34
0.0
 50
90.0
100
AcDbRotatedDimension
  0
DIMENSION
  5
29E
330
1B
100
AcDbEntity
  8
SK2
100
AcDbDimension
  2
*D10
 10
-12.62535248849999
 20
30.0
 30
0.0
 11
-12.6253524885
 21
1.75
 31
0.0
 70
   160
  1
%%c60
 71
     5
 42
60.0
  3
ISO-25
100
AcDbAlignedDimension
 13
-1.5
 23
-30.0
 33
0.0
 14
-1.5
 24
30.0
 34
0.0
 50
90.0
100
AcDbRotatedDimension
  0
TEXT
  5
29F
330
1B
100
AcDbEntity
  8
6
100
AcDbText
 10
3.43491978570001
 20
-185.0056798014
 30
0.0
 40
5.0
  1
FBD060CAP355SA017
 41
0.8
 72
     1
 11
28.4349197857
 21
-185.0056798014
 31
0.0
100
AcDbText
  0
INSERT
  5
2A0
330
1B
100
AcDbEntity
  8
1
100
AcDbBlockReference
  2
EINFUEGEPUNKT_BL0
 10
17.0
 20
0.0
 30
0.0
  0
INSERT
  5
2A1
330
1B
100
AcDbEntity
  8
1
100
AcDbBlockReference
  2
NULLPUNKT_BL1
 10
0.0
 20
0.0
 30
0.0
  0
LINE
  5
2A2
330
1B
100
AcDbEntity
  8
NOCUT
100
AcDbLine
 10
0.0
 20
162.7
 30
0.0
 11
0.0
 21
0.0
 31
0.0
  0
LINE
  5
2A3
330
1B
100
AcDbEntity
  8
1
100
AcDbLine
 10
0.0
 20
162.7
 30
0.0
 11
0.0
 21
-162.7
 31
0.0
  0
LINE
  5
2A4
330
1B
100
AcDbEntity
  8
SK3
100
AcDbLine
 10
14.0
 20
11.25
 30
0.0
 11
14.0
 21
-11.25
 31
0.0
  0
LINE
  5
2A5
330
1B
100
AcDbEntity
  8
NOCUT
100
AcDbLine
 10
17.0
 20
162.7
 30
0.0
 11
17.0
 21
0.0
 31
0.0
  0
LINE
  5
2A6
330
1B
100
AcDbEntity
  8
1
100
AcDbLine
 10
17.0
 20
162.7
 30
0.0
 11
17.0
 21
-162.7
 31
0.0
  0
LINE
  5
2A7
330
1B
100
AcDbEntity
  8
SK1
100
AcDbLine
 10
25.00000000000001
 20
-153.85
 30
0.0
 11
25.00000000000001
 21
153.85
 31
0.0
  0
LINE
  5
2A8
330
1B
100
AcDbEntity
  8
SK3
100
AcDbLine
 10
29.00000000000001
 20
102.1
 30
0.0
 11
29.00000000000001
 21
97.89999999999999
 31
0.0
  0
LINE
  5
2A9
330
1B
100
AcDbEntity
  8
SK3
100
AcDbLine
 10
27.73819270000001
 20
100.0
 30
0.0
 11
29.00000000000001
 21
102.1
 31
0.0
  0
LINE
  5
2AA
330
1B
100
AcDbEntity
  8
SK3
100
AcDbLine
 10
31.00000000000001
 20
30.0
 30
0.0
 11
31.00000000000001
 21
-30.0
 31
0.0
  0
LINE
  5
2AB
330
1B
100
AcDbEntity
  8
SK3
100
AcDbLine
 10
34.00000000000001
 20
102.5
 30
0.0
 11
34.00000000000001
 21
97.5
 31
0.0
  0
LINE
  5
2AC
330
1B
100
AcDbEntity
  8
SK1
100
AcDbLine
 10
35.1
 20
152.85
 30
0.0
 11
35.1
 21
-152.85
 31
0.0
  0
LINE
  5
2AD
330
1B
100
AcDbEntity
  8
SK3
100
AcDbLine
 10
42.00000000000001
 20
12.5
 30
0.0
 11
42.00000000000001
 21
-12.5
 31
0.0
  0
LINE
  5
2AE
330
1B
100
AcDbEntity
  8
SK3
100
AcDbLine
 10
46.0
 20
133.8923168072
 30
0.0
 11
46.0
 21
69.30000000000001
 31
0.0
  0
LINE
  5
2AF
330
1B
100
AcDbEntity
  8
SK1
100
AcDbLine
 10
46.0
 20
133.8923168072
 30
0.0
 11
46.0
 21
134.05
 31
0.0
  0
LINE
  5
2B0
330
1B
100
AcDbEntity
  8
SK3
100
AcDbLine
 10
46.5
 20
25.0
 30
0.0
 11
46.5
 21
-25.0
 31
0.0
  0
LINE
  5
2B1
330
1B
100
AcDbEntity
  8
SK1
100
AcDbLine
 10
60.0
 20
132.8092711372
 30
0.0
 11
60.0
 21
-133.0486866087
 31
0.0
  0
LINE
  5
2B2
330
1B
100
AcDbEntity
  8
SK1
100
AcDbLine
 10
67.0
 20
75.0
 30
0.0
 11
67.0
 21
125.0
 31
0.0
  0
LINE
  5
2B3
330
1B
100
AcDbEntity
  8
1
100
AcDbLine
 10
16.0
 20
-163.7
 30
0.0
 11
1.0
 21
-163.7
 31
0.0
  0
LINE
  5
2B4
330
1B
100
AcDbEntity
  8
SK1
100
AcDbLine
 10
34.1
 20
-153.85
 30
0.0
 11
25.00000000000001
 21
-153.85
 31
0.0
  0
LINE
  5
2B5
330
1B
100
AcDbEntity
  8
SK1
100
AcDbLine
 10
23.00000000000001
 20
-151.85
 30
0.0
 11
18.5
 21
-151.85
 31
0.0
  0
LINE
  5
2B6
330
1B
100
AcDbEntity
  8
SK3
100
AcDbLine
 10
27.73819270000001
 20
100.0
 30
0.0
 11
29.00000000000001
 21
97.89999999999999
 31
0.0
  0
LINE
  5
2B7
330
1B
100
AcDbEntity
  8
SK1
100
AcDbLine
 10
59.0
 20
-134.05
 30
0.0
 11
36.1
 21
-134.05
 31
0.0
  0
LINE
  5
2B8
330
1B
100
AcDbEntity
  8
SK4
100
AcDbLine
 10
63.0
 20
-62.8617928475
 30
0.0
 11
-3.0
 21
-62.8617928475
 31
0.0
  0
LINE
  5
2B9
330
1B
100
AcDbEntity
  8
SK4
100
AcDbLine
 10
63.0
 20
-35.92102448430001
 30
0.0
 11
-3.0
 21
-35.92102448430001
 31
0.0
  0
LINE
  5
2BA
330
1B
100
AcDbEntity
  8
SK3
100
AcDbLine
 10
31.00000000000001
 20
-30.0
 30
0.0
 11
0.0
 21
-30.0
 31
0.0
  0
LINE
  5
2BB
330
1B
100
AcDbEntity
  8
SK3
100
AcDbLine
 10
60.0
 20
-25.0
 30
0.0
 11
46.5
 21
-25.0
 31
0.0
  0
LINE
  5
2BC
330
1B
100
AcDbEntity
  8
SK3
100
AcDbLine
 10
12.4
 20
-12.84999999999999
 30
0.0
 11
0.0
 21
-12.84999999999999
 31
0.0
  0
LINE
  5
2BD
330
1B
100
AcDbEntity
  8
SK3
100
AcDbLine
 10
46.5
 20
-12.5
 30
0.0
 11
42.00000000000001
 21
-12.5
 31
0.0
  0
LINE
  5
2BE
330
1B
100
AcDbEntity
  8
SK3
100
AcDbLine
 10
42.00000000000001
 20
-8.0
 30
0.0
 11
31.00000000000001
 21
-8.0
 31
0.0
  0
LINE
  5
2BF
330
1B
100
AcDbEntity
  8
SK3
100
AcDbLine
 10
42.00000000000001
 20
-6.5
 30
0.0
 11
31.00000000000001
 21
-6.5
 31
0.0
  0
LINE
  5
2C0
330
1B
100
AcDbEntity
  8
NOCUT
100
AcDbLine
 10
17.0
 20
0.0
 30
0.0
 11
0.0
 21
0.0
 31
0.0
  0
LINE
  5
2C1
330
1B
100
AcDbEntity
  8
4
100
AcDbLine
 10
-3.0
 20
0.0
 30
0.0
 11
63.0
 21
0.0
 31
0.0
  0
LINE
  5
2C2
330
1B
100
AcDbEntity
  8
SK3
100
AcDbLine
 10
42.00000000000001
 20
6.5
 30
0.0
 11
31.00000000000001
 21
6.5
 31
0.0
  0
LINE
  5
2C3
330
1B
100
AcDbEntity
  8
SK3
100
AcDbLine
 10
42.00000000000001
 20
8.0
 30
0.0
 11
31.00000000000001
 21
8.0
 31
0.0
  0
LINE
  5
2C4
330
1B
100
AcDbEntity
  8
SK3
100
AcDbLine
 10
46.5
 20
12.5
 30
0.0
 11
42.00000000000001
 21
12.5
 31
0.0
  0
LINE
  5
2C5
330
1B
100
AcDbEntity
  8
SK3
100
AcDbLine
 10
12.4
 20
12.84999999999999
 30
0.0
 11
0.0
 21
12.84999999999999
 31
0.0
  0
LINE
  5
2C6
330
1B
100
AcDbEntity
  8
SK3
100
AcDbLine
 10
60.0
 20
25.0
 30
0.0
 11
46.5
 21
25.0
 31
0.0
  0
LINE
  5
2C7
330
1B
100
AcDbEntity
  8
SK3
100
AcDbLine
 10
31.00000000000001
 20
30.0
 30
0.0
 11
0.0
 21
30.0
 31
0.0
  0
LINE
  5
2C8
330
1B
100
AcDbEntity
  8
SK4
100
AcDbLine
 10
63.0
 20
35.92102448420002
 30
0.0
 11
-3.0
 21
35.92102448420002
 31
0.0
  0
LINE
  5
2C9
330
1B
100
AcDbEntity
  8
SK4
100
AcDbLine
 10
63.0
 20
62.8617928475
 30
0.0
 11
-3.0
 21
62.8617928475
 31
0.0
  0
LINE
  5
2CA
330
1B
100
AcDbEntity
  8
SK3
100
AcDbLine
 10
46.5
 20
68.80000000000001
 30
0.0
 11
60.0
 21
68.80000000000001
 31
0.0
  0
LINE
  5
2CB
330
1B
100
AcDbEntity
  8
SK3
100
AcDbLine
 10
46.0
 20
75.0
 30
0.0
 11
60.0
 21
75.0
 31
0.0
  0
LINE
  5
2CC
330
1B
100
AcDbEntity
  8
SK1
100
AcDbLine
 10
60.0
 20
75.0
 30
0.0
 11
67.0
 21
75.0
 31
0.0
  0
LINE
  5
2CD
330
1B
100
AcDbEntity
  8
SK3
100
AcDbLine
 10
34.00000000000001
 20
97.5
 30
0.0
 11
46.0
 21
97.5
 31
0.0
  0
LINE
  5
2CE
330
1B
100
AcDbEntity
  8
SK3
100
AcDbLine
 10
29.00000000000001
 20
97.89999999999999
 30
0.0
 11
46.0
 21
97.89999999999999
 31
0.0
  0
LINE
  5
2CF
330
1B
100
AcDbEntity
  8
SK4
100
AcDbLine
 10
70.0
 20
100.0
 30
0.0
 11
25.73819270000001
 21
100.0
 31
0.0
  0
LINE
  5
2D0
330
1B
100
AcDbEntity
  8
SK3
100
AcDbLine
 10
29.00000000000001
 20
102.1
 30
0.0
 11
46.0
 21
102.1
 31
0.0
  0
LINE
  5
2D1
330
1B
100
AcDbEntity
  8
SK3
100
AcDbLine
 10
34.00000000000001
 20
102.5
 30
0.0
 11
46.0
 21
102.5
 31
0.0
  0
LINE
  5
2D2
330
1B
100
AcDbEntity
  8
SK3
100
AcDbLine
 10
46.0
 20
125.0
 30
0.0
 11
60.0
 21
125.0
 31
0.0
  0
LINE
  5
2D3
330
1B
100
AcDbEntity
  8
SK1
100
AcDbLine
 10
60.0
 20
125.0
 30
0.0
 11
67.0
 21
125.0
 31
0.0
  0
LINE
  5
2D4
330
1B
100
AcDbEntity
  8
SK1
100
AcDbLine
 10
59.0
 20
133.8671076105
 30
0.0
 11
46.5
 21
133.8671076105
 31
0.0
  0
LINE
  5
2D5
330
1B
100
AcDbEntity
  8
SK1
100
AcDbLine
 10
46.0
 20
134.05
 30
0.0
 11
36.1
 21
134.05
 31
0.0
  0
LINE
  5
2D6
330
1B
100
AcDbEntity
  8
SK1
100
AcDbLine
 10
23.00000000000001
 20
151.85
 30
0.0
 11
18.5
 21
151.85
 31
0.0
  0
LINE
  5
2D7
330
1B
100
AcDbEntity
  8
SK1
100
AcDbLine
 10
34.1
 20
153.85
 30
0.0
 11
25.00000000000001
 21
153.85
 31
0.0
  0
LINE
  5
2D8
330
1B
100
AcDbEntity
  8
NOCUT
100
AcDbLine
 10
16.0
 20
163.7
 30
0.0
 11
1.0
 21
163.7
 31
0.0
  0
LINE
  5
2D9
330
1B
100
AcDbEntity
  8
1
100
AcDbLine
 10
16.0
 20
163.7
 30
0.0
 11
1.0
 21
163.7
 31
0.0
  0
ARC
  5
2DA
330
1B
100
AcDbEntity
  8
SK3
100
AcDbCircle
 10
46.5
 20
69.30000000000001
 30
0.0
 40
0.5
100
AcDbArc
 50
180.0
 51
270.0
  0
ARC
  5
2DB
330
1B
100
AcDbEntity
  8
SK3
100
AcDbCircle
 10
12.4
 20
11.25
 30
0.0
 40
1.6
100
AcDbArc
 50
0.0
 51
90.0
  0
ARC
  5
2DC
330
1B
100
AcDbEntity
  8
SK3
100
AcDbCircle
 10
12.4
 20
-11.25
 30
0.0
 40
1.6
100
AcDbArc
 50
270.0
 51
0.0
  0
ARC
  5
2DD
330
1B
100
AcDbEntity
  8
NOCUT
100
AcDbCircle
 10
16.0
 20
162.7
 30
0.0
 40
1.0
100
AcDbArc
 50
0.0
 51
90.0
  0
ARC
  5
2DE
330
1B
100
AcDbEntity
  8
NOCUT
100
AcDbCircle
 10
1.0
 20
162.7
 30
0.0
 40
1.0
100
AcDbArc
 50
90.0
 51
180.0
  0
ARC
  5
2DF
330
1B
100
AcDbEntity
  8
SK1
100
AcDbCircle
 10
18.5
 20
-153.85
 30
0.0
 40
2.0
100
AcDbArc
 50
90.0
 51
138.8801631307
  0
ARC
  5
2E0
330
1B
100
AcDbEntity
  8
SK1
100
AcDbCircle
 10
18.5
 20
153.85
 30
0.0
 40
2.0
100
AcDbArc
 50
221.1198368693001
 51
270.0
  0
ARC
  5
2E1
330
1B
100
AcDbEntity
  8
SK1
100
AcDbCircle
 10
23.00000000000001
 20
-153.85
 30
0.0
 40
2.0
100
AcDbArc
 50
0.0
 51
90.0
  0
ARC
  5
2E2
330
1B
100
AcDbEntity
  8
SK1
100
AcDbCircle
 10
23.00000000000001
 20
153.85
 30
0.0
 40
2.0
100
AcDbArc
 50
270.0
 51
359.9999999998999
  0
ARC
  5
2E3
330
1B
100
AcDbEntity
  8
SK1
100
AcDbCircle
 10
59.0
 20
-133.05
 30
0.0
 40
1.0
100
AcDbArc
 50
270.0
 51
0.0
  0
ARC
  5
2E4
330
1B
100
AcDbEntity
  8
SK1
100
AcDbCircle
 10
34.1
 20
-152.85
 30
0.0
 40
1.0
100
AcDbArc
 50
270.0
 51
0.0
  0
ARC
  5
2E5
330
1B
100
AcDbEntity
  8
SK1
100
AcDbCircle
 10
34.1
 20
152.85
 30
0.0
 40
1.0
100
AcDbArc
 50
0.0
 51
90.0
  0
ARC
  5
2E6
330
1B
100
AcDbEntity
  8
1
100
AcDbCircle
 10
16.0
 20
-162.7
 30
0.0
 40
1.0
100
AcDbArc
 50
270.0
 51
0.0
  0
ARC
  5
2E7
330
1B
100
AcDbEntity
  8
1
100
AcDbCircle
 10
1.0
 20
-162.7
 30
0.0
 40
1.0
100
AcDbArc
 50
180.0
 51
270.0
  0
ARC
  5
2E8
330
1B
100
AcDbEntity
  8
SK1
100
AcDbCircle
 10
36.1
 20
-135.05
 30
0.0
 40
1.0
100
AcDbArc
 50
90.0
 51
179.9999999998
  0
ARC
  5
2E9
330
1B
100
AcDbEntity
  8
SK1
100
AcDbCircle
 10
36.1
 20
135.05
 30
0.0
 40
1.0
100
AcDbArc
 50
180.0000000001
 51
270.0
  0
ARC
  5
2EA
330
1B
100
AcDbEntity
  8
1
100
AcDbCircle
 10
16.0
 20
162.7
 30
0.0
 40
1.0
100
AcDbArc
 50
0.0
 51
90.0
  0
ARC
  5
2EB
330
1B
100
AcDbEntity
  8
1
100
AcDbCircle
 10
1.0
 20
162.7
 30
0.0
 40
1.0
100
AcDbArc
 50
90.0
 51
180.0
  0
SPLINE
  5
2EC
330
1B
100
AcDbEntity
  8
SK3
100
AcDbSpline
210
0.0
220
0.0
230
1.0
 70
     8
 71
     3
 72
     8
 73
     4
 74
     2
 42
0.0000000001
 43
0.0000000001
 44
0.0000000001
 12
0.0
 22
-1.0
 32
0.0
 13
0.9851984261691047
 23
-0.171417796841282
 33
0.0
 40
0.0
 40
0.0
 40
0.0
 40
0.0
 40
0.0218184056150479
 40
0.0218184056150479
 40
0.0218184056150479
 40
0.0218184056150479
 10
46.0
 20
133.8923168072
 30
0.0
 10
46.0
 20
133.8850440053283
 30
0.0
 10
46.00835098024217
 20
133.8782242499737
 30
0.0
 10
46.01551613319999
 20
133.8769775623
 30
0.0
 11
46.0
 21
133.8923168072
 31
0.0
 11
46.01551613319999
 21
133.8769775623
 31
0.0
  0
SPLINE
  5
2ED
330
1B
100
AcDbEntity
  8
SK3
100
AcDbSpline
210
0.0
220
0.0
230
1.0
 70
     8
 71
     3
 72
     9
 73
     5
 74
     3
 42
0.0000000001
 43
0.0000000001
 44
0.0000000001
 12
0.9851984274080166
 22
-0.17141778972082
 32
0.0
 13
0.9986928317821394
 23
-0.0511138703970951
 33
0.0
 40
0.0
 40
0.0
 40
0.0
 40
0.0
 40
0.0514742637956547
 40
0.1309417681780867
 40
0.1309417681780867
 40
0.1309417681780867
 40
0.1309417681780867
 10
46.01551613319999
 20
133.8769775623
 30
0.0
 10
46.03242025444781
 20
133.8740363607908
 30
0.0
 10
46.07637054732393
 20
133.8831527382109
 30
0.0
 10
46.11986539567121
 20
133.8841781263066
 30
0.0
 10
46.14631993799998
 20
133.8828241624
 30
0.0
 11
46.01551613319999
 21
133.8769775623
 31
0.0
 11
46.06690430109999
 21
133.8799534711
 31
0.0
 11
46.14631993799998
 21
133.8828241624
 31
0.0
  0
SPLINE
  5
2EE
330
1B
100
AcDbEntity
  8
SK3
100
AcDbSpline
210
0.0
220
0.0
230
1.0
 70
     8
 71
     3
 72
     8
 73
     4
 74
     2
 42
0.0000000001
 43
0.0000000001
 44
0.0000000001
 12
0.9986928318793424
 22
-0.0511138684978871
 32
0.0
 13
0.993915239382674
 23
-0.110147614240536
 33
0.0
 40
0.0
 40
0.0
 40
0.0
 40
0.0
 40
0.1033689777216491
 40
0.1033689777216491
 40
0.1033689777216491
 40
0.1033689777216491
 10
46.14631993799998
 20
133.8828241624
 30
0.0
 10
46.18073122369643
 20
133.8810629662887
 30
0.0
 10
46.21471983048768
 20
133.8744198831942
 30
0.0
 10
46.2489664979
 20
133.8706246011
 30
0.0
 11
46.14631993799998
 21
133.8828241624
 31
0.0
 11
46.2489664979
 21
133.8706246011
 31
0.0
  0
SPLINE
  5
2EF
330
1B
100
AcDbEntity
  8
SK3
100
AcDbSpline
210
0.0
220
0.0
230
1.0
 70
     8
 71
     3
 72
     8
 73
     4
 74
     2
 42
0.0000000001
 43
0.0000000001
 44
0.0000000001
 12
0.9939152395918624
 22
-0.1101476123529277
 32
0.0
 13
0.9999950766415301
 23
0.0031379440244623
 33
0.0
 40
0.0
 40
0.0
 40
0.0
 40
0.0
 40
0.1208849099149691
 40
0.1208849099149691
 40
0.1208849099149691
 40
0.1208849099149691
 10
46.2489664979
 20
133.8706246011
 30
0.0
 10
46.28901628263372
 20
133.8661862063678
 30
0.0
 10
46.32945831241491
 20
133.8656235230398
 30
0.0
 10
46.36975308399999
 20
133.8657499664
 30
0.0
 11
46.2489664979
 21
133.8706246011
 31
0.0
 11
46.36975308399999
 21
133.8657499664
 31
0.0
  0
SPLINE
  5
2F0
330
1B
100
AcDbEntity
  8
SK3
100
AcDbSpline
210
0.0
220
0.0
230
1.0
 70
     8
 71
     3
 72
     8
 73
     4
 74
     2
 42
0.0000000001
 43
0.0000000001
 44
0.0000000001
 12
0.9999950766445712
 22
0.0031379430552534
 32
0.0
 13
1.0
 23
0.0
 33
0.0
 40
0.0
 40
0.0
 40
0.0
 40
0.0
 40
0.1302539915895648
 40
0.1302539915895648
 40
0.1302539915895648
 40
0.1302539915895648
 10
46.36975308399999
 20
133.8657499664
 30
0.0
 10
46.41317086743429
 20
133.8658862096028
 30
0.0
 10
46.45658200280347
 20
133.8671076105
 30
0.0
 10
46.5
 20
133.8671076105
 30
0.0
 11
46.36975308399999
 21
133.8657499664
 31
0.0
 11
46.5
 21
133.8671076105
 31
0.0
  0
SPLINE
  5
2F1
330
1B
100
AcDbEntity
  8
SK1
100
AcDbSpline
210
0.0
220
0.0
230
1.0
 70
     8
 71
     3
 72
    12
 73
     8
 74
     6
 42
0.0000000001
 43
0.0000000001
 44
0.0000000001
 12
0.0
 22
1.0
 32
0.0
 13
-0.9986356404843911
 23
0.0522193216571228
 33
0.0
 40
0.0
 40
0.0
 40
0.0
 40
0.0
 40
0.3171561781622599
 40
0.6361490996987889
 40
0.9555405387911005
 40
1.275445499141248
 40
1.595622141853027
 40
1.595622141853027
 40
1.595622141853027
 40
1.595622141853027
 10
60.0
 20
132.8092711372
 30
0.0
 10
60.0
 20
132.9149898632541
 30
0.0
 10
59.96599318227223
 20
133.1283566972178
 30
0.0
 10
59.82249834119044
 20
133.417708985036
 30
0.0
 10
59.60058074327048
 20
133.6539757120657
 30
0.0
 10
59.31922018312935
 20
133.8154790086277
 30
0.0
 10
59.10657993555421
 20
133.8615344748024
 30
0.0
 10
59.0
 20
133.8671076105
 30
0.0
 11
60.0
 21
132.8092711372
 31
0.0
 11
59.95079891830001
 21
133.1225877421
 31
0.0
 11
59.8095824121
 21
133.4086198773
 31
0.0
 11
59.59085944849999
 21
133.641366857
 31
0.0
 11
59.31307024609999
 21
133.8000247994
 31
0.0
 11
59.0
 21
133.8671076105
 31
0.0
  0
SPLINE
  5
2F2
330
1B
100
AcDbEntity
  8
SK1
100
AcDbSpline
210
0.0
220
0.0
230
1.0
 70
     8
 71
     3
 72
    10
 73
     6
 74
     4
 42
0.0000000001
 43
0.0000000001
 44
0.0000000001
 12
-1.0
 22
0.0
 32
0.0
 13
0.0
 23
1.0
 33
0.0
 40
0.0
 40
0.0
 40
0.0
 40
0.0
 40
0.2510581374890515
 40
0.4333591833369966
 40
0.5013962143397749
 40
0.5013962143397749
 40
0.5013962143397749
 40
0.5013962143397749
 10
46.5
 20
133.8671076105
 30
0.0
 10
46.41631395417031
 20
133.8671076105
 30
0.0
 10
46.25667856602707
 20
133.8588570755812
 30
0.0
 10
46.13270769985321
 20
133.8943901863991
 30
0.0
 10
46.0
 20
133.8696377968657
 30
0.0
 10
46.0
 20
133.8923168072
 30
0.0
 11
46.5
 21
133.8671076105
 31
0.0
 11
46.2489664979
 21
133.8706246011
 31
0.0
 11
46.06690430109999
 21
133.879953471
 31
0.0
 11
46.0
 21
133.8923168072
 31
0.0
  0
ENDSEC
  0
SECTION
  2
OBJECTS
  0
DICTIONARY
  5
2F3
330
0
100
AcDbDictionary
281
     1
  3
ACAD_COLOR
350
2FD
  3
ACAD_GROUP
350
2F4
  3
ACAD_LAYOUT
350
300
  3
ACAD_MATERIAL
350
2FC
  3
ACAD_MLINESTYLE
350
2F5
  3
ACAD_PLOTSETTINGS
350
301
  3
ACAD_PLOTSTYLENAME
350
2FA
  3
ACAD_TABLESTYLE
350
2FE
  3
ACDBHEADERROUNDTRIPXREC
350
A5D
  3
AcDbVariableDictionary
350
539
  0
DICTIONARY
  5
305
330
2
100
AcDbDictionary
280
     1
281
     1
  3
ACAD_LAYERFILTERS
360
9B0
  3
ACLYDICTIONARY
360
9AF
  0
DICTIONARY
  5
2FD
102
{ACAD_REACTORS
330
2F3
102
}
330
2F3
100
AcDbDictionary
281
     1
  0
DICTIONARY
  5
2F4
102
{ACAD_REACTORS
330
2F3
102
}
330
2F3
100
AcDbDictionary
281
     1
  0
DICTIONARY
  5
300
102
{ACAD_REACTORS
330
2F3
102
}
330
2F3
100
AcDbDictionary
281
     1
  3
Layout1
350
303
  3
Model
350
302
  0
DICTIONARY
  5
2FC
102
{ACAD_REACTORS
330
2F3
102
}
330
2F3
100
AcDbDictionary
281
     1
  0
DICTIONARY
  5
2F5
102
{ACAD_REACTORS
330
2F3
102
}
330
2F3
100
AcDbDictionary
281
     1
  3
STANDARD
350
2F6
  0
DICTIONARY
  5
301
102
{ACAD_REACTORS
330
2F3
102
}
330
2F3
100
AcDbDictionary
281
     1
  0
ACDBDICTIONARYWDFLT
  5
2FA
102
{ACAD_REACTORS
330
2F3
102
}
330
2F3
100
AcDbDictionary
281
     1
  3
Normal
350
2FB
100
AcDbDictionaryWithDefault
340
2FB
  0
DICTIONARY
  5
2FE
102
{ACAD_REACTORS
330
2F3
102
}
330
2F3
100
AcDbDictionary
281
     1
  3
Standard
350
2FF
  0
DICTIONARY
  5
A5D
102
{ACAD_REACTORS
330
2F3
102
}
330
2F3
100
AcDbDictionary
281
     1
  0
DICTIONARY
  5
539
102
{ACAD_REACTORS
330
2F3
102
}
330
2F3
100
AcDbDictionary
281
     1
  3
CTABLESTYLE
350
53A
  3
DIMASSOC
350
A54
  3
PROJECTNAME
350
A55
  0
DICTIONARY
  5
9B0
102
{ACAD_REACTORS
330
305
102
}
330
305
100
AcDbDictionary
281
     1
  0
DICTIONARY
  5
9AF
102
{ACAD_REACTORS
330
305
102
}
330
305
100
AcDbDictionary
281
     1
1001
ACAD
1000
<All
  0
LAYOUT
  5
303
102
{ACAD_XDICTIONARY
360
A60
102
}
102
{ACAD_REACTORS
330
300
102
}
330
300
100
AcDbPlotSettings
  1

  2
\\ingdom02\ITB3
  4

  6

 40
0.0
 41
0.0
 42
0.0
 43
0.0
 44
0.0
 45
0.0
 46
0.0
 47
0.0
 48
0.0
 49
0.0
140
0.0
141
0.0
142
1.0
143
1.0
 70
   688
 72
     0
 73
     0
 74
     5
  7

 75
    16
147
1.0
148
0.0
149
0.0
100
AcDbLayout
  1
Layout1
 70
     1
 71
     1
 10
0.0
 20
0.0
 11
12.0
 21
9.0
 12
0.0
 22
0.0
 32
0.0
 14
1.000000000000000E+20
 24
1.000000000000000E+20
 34
1.000000000000000E+20
 15
-1.000000000000000E+20
 25
-1.000000000000000E+20
 35
-1.000000000000000E+20
146
0.0
 13
0.0
 23
0.0
 33
0.0
 16
1.0
 26
0.0
 36
0.0
 17
0.0
 27
1.0
 37
0.0
 76
     0
330
1C
  0
LAYOUT
  5
302
102
{ACAD_XDICTIONARY
360
A5E
102
}
102
{ACAD_REACTORS
330
300
102
}
330
300
100
AcDbPlotSettings
  1

  2
\\ingdom02\ITB3
  4

  6

 40
0.0
 41
0.0
 42
0.0
 43
0.0
 44
0.0
 45
0.0
 46
0.0
 47
0.0
 48
0.0
 49
0.0
140
0.0
141
0.0
142
1.0
143
1.0
 70
  1712
 72
     0
 73
     0
 74
     0
  7

 75
     0
147
1.0
148
0.0
149
0.0
100
AcDbLayout
  1
Model
 70
     1
 71
     0
 10
0.0
 20
0.0
 11
12.0
 21
9.0
 12
0.0
 22
0.0
 32
0.0
 14
0.0
 24
0.0
 34
0.0
 15
0.0
 25
0.0
 35
0.0
146
0.0
 13
0.0
 23
0.0
 33
0.0
 16
1.0
 26
0.0
 36
0.0
 17
0.0
 27
1.0
 37
0.0
 76
     0
330
1B
  0
MLINESTYLE
  5
2F6
102
{ACAD_REACTORS
330
2F5
102
}
330
2F5
100
AcDbMlineStyle
  2
STANDARD
 70
     0
  3

 62
   256
 51
90.0
 52
90.0
 71
     2
 49
0.5
 62
   256
  6
BYLAYER
 49
-0.5
 62
   256
  6
BYLAYER
  0
ACDBPLACEHOLDER
  5
2FB
102
{ACAD_REACTORS
330
2FA
102
}
330
2FA
  0
TABLESTYLE
  5
2FF
102
{ACAD_REACTORS
330
2FE
102
}
330
2FE
100
AcDbTableStyle
  3
Standard
 70
     0
 71
     0
 40
1.5
 41
1.5
280
     0
281
     0
  7
STANDARD
140
4.5
170
     2
 62
     0
 63
     7
283
     0
274
    -2
284
     1
 64
     0
275
    -2
285
     1
 65
     0
276
    -2
286
     1
 66
     0
277
    -2
287
     1
 67
     0
278
    -2
288
     1
 68
     0
279
    -2
289
     1
 69
     0
  7
STANDARD
140
6.0
170
     5
 62
     0
 63
     7
283
     0
274
    -2
284
     1
 64
     0
275
    -2
285
     1
 65
     0
276
    -2
286
     1
 66
     0
277
    -2
287
     1
 67
     0
278
    -2
288
     1
 68
     0
279
    -2
289
     1
 69
     0
  7
STANDARD
140
4.5
170
     5
 62
     0
 63
     7
283
     0
274
    -2
284
     1
 64
     0
275
    -2
285
     1
 65
     0
276
    -2
286
     1
 66
     0
277
    -2
287
     1
 67
     0
278
    -2
288
     1
 68
     0
279
    -2
289
     1
 69
     0
  0
DICTIONARYVAR
  5
53A
102
{ACAD_REACTORS
330
539
102
}
330
539
100
DictionaryVariables
280
     0
  1
STANDARD
  0
DICTIONARYVAR
  5
A54
102
{ACAD_REACTORS
330
539
102
}
330
539
100
DictionaryVariables
280
     0
  1
1
  0
DICTIONARYVAR
  5
A55
102
{ACAD_REACTORS
330
539
102
}
330
539
100
DictionaryVariables
280
     0
  1

  0
DICTIONARY
  5
A60
330
303
100
AcDbDictionary
280
     1
281
     1
  3
ACAD_XREC_ROUNDTRIP
360
A61
  0
DICTIONARY
  5
A5E
330
302
100
AcDbDictionary
280
     1
281
     1
  3
ACAD_XREC_ROUNDTRIP
360
A5F
  0
XRECORD
  5
A61
102
{ACAD_REACTORS
330
A60
102
}
330
A60
100
AcDbXrecord
280
     1
102
SHADEPLOT
 70
     0
102
SHADEPLOTRESLEVEL
 70
     2
102
SHADEPLOTCUSTOMDPI
 70
   300
  0
XRECORD
  5
A5F
102
{ACAD_REACTORS
330
A5E
102
}
330
A5E
100
AcDbXrecord
280
     1
102
SHADEPLOT
 70
     0
102
SHADEPLOTRESLEVEL
 70
     2
102
SHADEPLOTCUSTOMDPI
 70
   300
  0
ENDSEC
  0
EOF
