  0
SECTION
  2
HEADER
  9
$ACADVER
  1
AC1015
  9
$ACADMAINTVER
 70
    20
  9
$DWGCODEPAGE
  3
ANSI_1252
  9
$INSBASE
 10
0.0
 20
0.0
 30
0.0
  9
$EXTMIN
 10
-25.27948513757747
 20
-167.5539387674785
 30
-0.0000000349181948
  9
$EXTMAX
 10
110.4105479788636
 20
177.4674742693664
 30
0.0000000814935747
  9
$LIMMIN
 10
0.0
 20
0.0
  9
$LIMMAX
 10
594.0
 20
420.0
  9
$ORTHOMODE
 70
     0
  9
$REGENMODE
 70
     1
  9
$FILLMODE
 70
     1
  9
$QTEXTMODE
 70
     0
  9
$MIRRTEXT
 70
     0
  9
$LTSCALE
 40
32.67
  9
$ATTMODE
 70
     1
  9
$TEXTSIZE
 40
0.2
  9
$TRACEWID
 40
0.05
  9
$TEXTSTYLE
  7
STANDARD
  9
$CLAYER
  8
0
  9
$CELTYPE
  6
BYLAYER
  9
$CECOLOR
 62
   256
  9
$CELTSCALE
 40
1.0
  9
$DISPSILH
 70
     0
  9
$DIMSCALE
 40
1.0
  9
$DIMASZ
 40
3.5
  9
$DIMEXO
 40
0.625
  9
$DIMDLI
 40
3.75
  9
$DIMRND
 40
0.0
  9
$DIMDLE
 40
0.0
  9
$DIMEXE
 40
2.0
  9
$DIMTP
 40
0.0
  9
$DIMTM
 40
0.0
  9
$DIMTXT
 40
3.5
  9
$DIMCEN
 40
2.5
  9
$DIMTSZ
 40
0.0
  9
$DIMTOL
 70
     0
  9
$DIMLIM
 70
     0
  9
$DIMTIH
 70
     0
  9
$DIMTOH
 70
     0
  9
$DIMSE1
 70
     0
  9
$DIMSE2
 70
     0
  9
$DIMTAD
 70
     1
  9
$DIMZIN
 70
     8
  9
$DIMBLK
  1

  9
$DIMASO
 70
     1
  9
$DIMSHO
 70
     1
  9
$DIMPOST
  1

  9
$DIMAPOST
  1

  9
$DIMALT
 70
     0
  9
$DIMALTD
 70
     3
  9
$DIMALTF
 40
0.03937007874016
  9
$DIMLFAC
 40
1.0
  9
$DIMTOFL
 70
     1
  9
$DIMTVP
 40
0.0
  9
$DIMTIX
 70
     0
  9
$DIMSOXD
 70
     0
  9
$DIMSAH
 70
     0
  9
$DIMBLK1
  1

  9
$DIMBLK2
  1

  9
$DIMSTYLE
  2
ISO-25
  9
$DIMCLRD
 70
   256
  9
$DIMCLRE
 70
   256
  9
$DIMCLRT
 70
   256
  9
$DIMTFAC
 40
1.0
  9
$DIMGAP
 40
0.625
  9
$DIMJUST
 70
     0
  9
$DIMSD1
 70
     0
  9
$DIMSD2
 70
     0
  9
$DIMTOLJ
 70
     0
  9
$DIMTZIN
 70
     8
  9
$DIMALTZ
 70
     0
  9
$DIMALTTZ
 70
     0
  9
$DIMUPT
 70
     0
  9
$DIMDEC
 70
     2
  9
$DIMTDEC
 70
     2
  9
$DIMALTU
 70
     2
  9
$DIMALTTD
 70
     3
  9
$DIMTXSTY
  7
STANDARD
  9
$DIMAUNIT
 70
     0
  9
$DIMADEC
 70
     0
  9
$DIMALTRND
 40
0.0
  9
$DIMAZIN
 70
     0
  9
$DIMDSEP
 70
    46
  9
$DIMATFIT
 70
     3
  9
$DIMFRAC
 70
     0
  9
$DIMLDRBLK
  1

  9
$DIMLUNIT
 70
     2
  9
$DIMLWD
 70
    -2
  9
$DIMLWE
 70
    -2
  9
$DIMTMOVE
 70
     0
  9
$LUNITS
 70
     2
  9
$LUPREC
 70
     4
  9
$SKETCHINC
 40
0.1
  9
$FILLETRAD
 40
0.0
  9
$AUNITS
 70
     0
  9
$AUPREC
 70
     0
  9
$MENU
  1
.
  9
$ELEVATION
 40
0.0
  9
$PELEVATION
 40
0.0
  9
$THICKNESS
 40
0.0
  9
$LIMCHECK
 70
     0
  9
$CHAMFERA
 40
0.0
  9
$CHAMFERB
 40
0.0
  9
$CHAMFERC
 40
0.0
  9
$CHAMFERD
 40
0.0
  9
$SKPOLY
 70
     0
  9
$TDCREATE
 40
2453791.323630417
  9
$TDUCREATE
 40
2453791.281963750
  9
$TDUPDATE
 40
2453791.373453716
  9
$TDUUPDATE
 40
2453791.331787049
  9
$TDINDWG
 40
0.0087746528
  9
$TDUSRTIMER
 40
0.0087744676
  9
$USRTIMER
 70
     1
  9
$ANGBASE
 50
0.0
  9
$ANGDIR
 70
     0
  9
$PDMODE
 70
     3
  9
$PDSIZE
 40
0.3125
  9
$PLINEWID
 40
0.0
  9
$SPLFRAME
 70
     0
  9
$SPLINETYPE
 70
     6
  9
$SPLINESEGS
 70
     8
  9
$HANDSEED
  5
83F
  9
$SURFTAB1
 70
     6
  9
$SURFTAB2
 70
     6
  9
$SURFTYPE
 70
     6
  9
$SURFU
 70
     6
  9
$SURFV
 70
     6
  9
$UCSBASE
  2

  9
$UCSNAME
  2

  9
$UCSORG
 10
0.0
 20
0.0
 30
0.0
  9
$UCSXDIR
 10
1.0
 20
0.0
 30
0.0
  9
$UCSYDIR
 10
0.0
 20
1.0
 30
0.0
  9
$UCSORTHOREF
  2

  9
$UCSORTHOVIEW
 70
     0
  9
$UCSORGTOP
 10
0.0
 20
0.0
 30
0.0
  9
$UCSORGBOTTOM
 10
0.0
 20
0.0
 30
0.0
  9
$UCSORGLEFT
 10
0.0
 20
0.0
 30
0.0
  9
$UCSORGRIGHT
 10
0.0
 20
0.0
 30
0.0
  9
$UCSORGFRONT
 10
0.0
 20
0.0
 30
0.0
  9
$UCSORGBACK
 10
0.0
 20
0.0
 30
0.0
  9
$PUCSBASE
  2

  9
$PUCSNAME
  2

  9
$PUCSORG
 10
0.0
 20
0.0
 30
0.0
  9
$PUCSXDIR
 10
1.0
 20
0.0
 30
0.0
  9
$PUCSYDIR
 10
0.0
 20
1.0
 30
0.0
  9
$PUCSORTHOREF
  2

  9
$PUCSORTHOVIEW
 70
     0
  9
$PUCSORGTOP
 10
0.0
 20
0.0
 30
0.0
  9
$PUCSORGBOTTOM
 10
0.0
 20
0.0
 30
0.0
  9
$PUCSORGLEFT
 10
0.0
 20
0.0
 30
0.0
  9
$PUCSORGRIGHT
 10
0.0
 20
0.0
 30
0.0
  9
$PUCSORGFRONT
 10
0.0
 20
0.0
 30
0.0
  9
$PUCSORGBACK
 10
0.0
 20
0.0
 30
0.0
  9
$USERI1
 70
     0
  9
$USERI2
 70
     0
  9
$USERI3
 70
     0
  9
$USERI4
 70
     0
  9
$USERI5
 70
     0
  9
$USERR1
 40
0.0
  9
$USERR2
 40
0.0
  9
$USERR3
 40
0.0
  9
$USERR4
 40
0.0
  9
$USERR5
 40
0.0
  9
$WORLDVIEW
 70
     1
  9
$SHADEDGE
 70
     3
  9
$SHADEDIF
 70
    70
  9
$TILEMODE
 70
     1
  9
$MAXACTVP
 70
    64
  9
$PINSBASE
 10
0.0
 20
0.0
 30
0.0
  9
$PLIMCHECK
 70
     0
  9
$PEXTMIN
 10
1.000000000000000E+20
 20
1.000000000000000E+20
 30
1.000000000000000E+20
  9
$PEXTMAX
 10
-1.000000000000000E+20
 20
-1.000000000000000E+20
 30
-1.000000000000000E+20
  9
$PLIMMIN
 10
0.0
 20
0.0
  9
$PLIMMAX
 10
12.0
 20
9.0
  9
$UNITMODE
 70
     0
  9
$VISRETAIN
 70
     1
  9
$PLINEGEN
 70
     0
  9
$PSLTSCALE
 70
     1
  9
$TREEDEPTH
 70
  3020
  9
$CMLSTYLE
  2
STANDARD
  9
$CMLJUST
 70
     0
  9
$CMLSCALE
 40
1.0
  9
$PROXYGRAPHICS
 70
     1
  9
$MEASUREMENT
 70
     1
  9
$CELWEIGHT
370
    -1
  9
$ENDCAPS
280
     0
  9
$JOINSTYLE
280
     0
  9
$LWDISPLAY
290
     0
  9
$INSUNITS
 70
     0
  9
$HYPERLINKBASE
  1

  9
$STYLESHEET
  1

  9
$XEDIT
290
     1
  9
$CEPSNTYPE
380
     0
  9
$PSTYLEMODE
290
     1
  9
$FINGERPRINTGUID
  2
{091D2EC5-8568-4D81-AC68-4233D3DDEA99}
  9
$VERSIONGUID
  2
{B5F51B5C-D7C4-4A61-B8D5-0E6D4F434A23}
  9
$EXTNAMES
290
     1
  9
$PSVPSCALE
 40
0.0
  9
$OLESTARTUP
290
     0
  0
ENDSEC
  0
SECTION
  2
CLASSES
  0
CLASS
  1
ACDBDICTIONARYWDFLT
  2
AcDbDictionaryWithDefault
  3
ObjectDBX Classes
 90
        0
280
     0
281
     0
  0
CLASS
  1
TABLESTYLE
  2
AcDbTableStyle
  3
ObjectDBX Classes
 90
     2047
280
     0
281
     0
  0
CLASS
  1
DICTIONARYVAR
  2
AcDbDictionaryVar
  3
ObjectDBX Classes
 90
        0
280
     0
281
     0
  0
CLASS
  1
ACDBPLACEHOLDER
  2
AcDbPlaceHolder
  3
ObjectDBX Classes
 90
        0
280
     0
281
     0
  0
CLASS
  1
LAYOUT
  2
AcDbLayout
  3
ObjectDBX Classes
 90
        0
280
     0
281
     0
  0
ENDSEC
  0
SECTION
  2
TABLES
  0
TABLE
  2
VPORT
  5
8
330
0
100
AcDbSymbolTable
 70
     2
  0
VPORT
  5
839
330
8
100
AcDbSymbolTableRecord
100
AcDbViewportTableRecord
  2
*Active
 70
     0
 10
0.0
 20
0.0
 11
1.0
 21
1.0
 12
42.56553142064311
 22
4.956767750943981
 13
0.0
 23
0.0
 14
1.0
 24
1.0
 15
0.0
 25
0.0
 16
0.0
 26
0.0
 36
1.0
 17
0.0
 27
0.0
 37
0.0
 40
347.6090736346213
 41
1.494367959949937
 42
50.0
 43
0.0
 44
0.0
 50
0.0
 51
0.0
 71
     0
 72
   100
 73
     1
 74
     1
 75
     0
 76
     0
 77
     0
 78
     0
281
     0
 65
     1
110
0.0
120
0.0
130
0.0
111
1.0
121
0.0
131
0.0
112
0.0
122
1.0
132
0.0
 79
     0
146
0.0
  0
ENDTAB
  0
TABLE
  2
LTYPE
  5
5
330
0
100
AcDbSymbolTable
 70
     3
  0
LTYPE
  5
14
330
5
100
AcDbSymbolTableRecord
100
AcDbLinetypeTableRecord
  2
BYBLOCK
 70
     0
  3

 72
    65
 73
     0
 40
0.0
  0
LTYPE
  5
15
330
5
100
AcDbSymbolTableRecord
100
AcDbLinetypeTableRecord
  2
BYLAYER
 70
     0
  3

 72
    65
 73
     0
 40
0.0
  0
LTYPE
  5
16
330
5
100
AcDbSymbolTableRecord
100
AcDbLinetypeTableRecord
  2
CONTINUOUS
 70
     0
  3
Solid line
 72
    65
 73
     0
 40
0.0
  0
LTYPE
  5
1F5
330
5
100
AcDbSymbolTableRecord
100
AcDbLinetypeTableRecord
  2
CENTER
 70
     0
  3
____ _ ____ _ ____ _ ____ _ ____ _ ____ _ ____
 72
    65
 73
     4
 40
0.6
 49
0.375
 74
     0
 49
-0.075
 74
     0
 49
0.075
 74
     0
 49
-0.075
 74
     0
  0
LTYPE
  5
1F6
330
5
100
AcDbSymbolTableRecord
100
AcDbLinetypeTableRecord
  2
HIDDEN
 70
     0
  3
- - - - - - - - - - - - - - - - - - - -
 72
    65
 73
     2
 40
0.2
 49
0.1
 74
     0
 49
-0.1
 74
     0
  0
ENDTAB
  0
TABLE
  2
LAYER
  5
2
102
{ACAD_XDICTIONARY
360
309
102
}
330
0
100
AcDbSymbolTable
 70
    11
  0
LAYER
  5
10
330
2
100
AcDbSymbolTableRecord
100
AcDbLayerTableRecord
  2
0
 70
     0
 62
     7
  6
CONTINUOUS
370
    -3
390
2FF
  0
LAYER
  5
1FD
330
2
100
AcDbSymbolTableRecord
100
AcDbLayerTableRecord
  2
1
 70
     0
 62
     4
  6
CONTINUOUS
370
    -3
390
2FF
  0
LAYER
  5
1FE
330
2
100
AcDbSymbolTableRecord
100
AcDbLayerTableRecord
  2
2
 70
     0
 62
     7
  6
CONTINUOUS
370
    -3
390
2FF
  0
LAYER
  5
1FF
330
2
100
AcDbSymbolTableRecord
100
AcDbLayerTableRecord
  2
4
 70
     0
 62
     2
  6
CENTER
370
    -3
390
2FF
  0
LAYER
  5
200
330
2
100
AcDbSymbolTableRecord
100
AcDbLayerTableRecord
  2
6
 70
     0
 62
     5
  6
CONTINUOUS
370
    -3
390
2FF
  0
LAYER
  5
201
330
2
100
AcDbSymbolTableRecord
100
AcDbLayerTableRecord
  2
NOCUT
 70
     0
 62
     7
  6
CONTINUOUS
370
    -3
390
2FF
  0
LAYER
  5
202
330
2
100
AcDbSymbolTableRecord
100
AcDbLayerTableRecord
  2
SK1
 70
     0
 62
     4
  6
CONTINUOUS
370
    -3
390
2FF
  0
LAYER
  5
203
330
2
100
AcDbSymbolTableRecord
100
AcDbLayerTableRecord
  2
SK2
 70
     0
 62
     7
  6
CONTINUOUS
370
    -3
390
2FF
  0
LAYER
  5
204
330
2
100
AcDbSymbolTableRecord
100
AcDbLayerTableRecord
  2
SK3
 70
     0
 62
     1
  6
HIDDEN
370
    -3
390
2FF
  0
LAYER
  5
205
330
2
100
AcDbSymbolTableRecord
100
AcDbLayerTableRecord
  2
SK4
 70
     0
 62
     2
  6
CENTER
370
    -3
390
2FF
  0
LAYER
  5
39C
330
2
100
AcDbSymbolTableRecord
100
AcDbLayerTableRecord
  2
Defpoints
 70
     0
 62
     7
  6
CONTINUOUS
290
     0
370
    -3
390
2FF
  0
ENDTAB
  0
TABLE
  2
STYLE
  5
3
330
0
100
AcDbSymbolTable
 70
     1
  0
STYLE
  5
11
330
3
100
AcDbSymbolTableRecord
100
AcDbTextStyleTableRecord
  2
STANDARD
 70
     0
 40
0.0
 41
0.8
 50
0.0
 71
     0
 42
0.2
  3
isocp.shx
  4

  0
ENDTAB
  0
TABLE
  2
VIEW
  5
6
330
0
100
AcDbSymbolTable
 70
     0
  0
ENDTAB
  0
TABLE
  2
UCS
  5
7
330
0
100
AcDbSymbolTable
 70
     0
  0
ENDTAB
  0
TABLE
  2
APPID
  5
9
330
0
100
AcDbSymbolTable
 70
     3
  0
APPID
  5
206
330
9
100
AcDbSymbolTableRecord
100
AcDbRegAppTableRecord
  2
ACAD
 70
     0
  0
APPID
  5
39E
330
9
100
AcDbSymbolTableRecord
100
AcDbRegAppTableRecord
  2
ACAD_PSEXT
 70
     0
  0
APPID
  5
5FC
330
9
100
AcDbSymbolTableRecord
100
AcDbRegAppTableRecord
  2
ACAD_DSTYLE_DIMTEXT_FILL
 70
     0
  0
ENDTAB
  0
TABLE
  2
DIMSTYLE
  5
A
330
0
100
AcDbSymbolTable
 70
     2
100
AcDbDimStyleTable
 71
     2
340
39D
340
207
  0
DIMSTYLE
105
207
330
A
100
AcDbSymbolTableRecord
100
AcDbDimStyleTableRecord
  2
STANDARD
 70
     0
 41
2.5
 47
0.005
 48
0.005
 71
     1
 73
     0
 74
     0
 77
     1
 78
     8
140
3.5
178
     2
271
     3
272
     3
284
     8
340
11
341
209
342
209
343
209
344
209
  0
DIMSTYLE
105
39D
102
{ACAD_REACTORS
330
2A2
330
29F
330
29E
330
29B
330
29A
330
2A1
330
2A0
330
29D
330
2A3
330
29C
102
}
330
A
100
AcDbSymbolTableRecord
100
AcDbDimStyleTableRecord
  2
ISO-25
 70
     0
 41
3.5
 42
0.625
 43
3.75
 44
2.0
 73
     0
 74
     0
 77
     1
 78
     8
140
3.5
141
2.5
143
0.03937007874016
147
0.625
171
     3
172
     1
176
   256
177
   256
178
   256
271
     2
272
     2
274
     3
283
     0
284
     8
340
11
  0
ENDTAB
  0
TABLE
  2
BLOCK_RECORD
  5
1
330
0
100
AcDbSymbolTable
 70
    24
  0
BLOCK_RECORD
  5
1B
330
1
100
AcDbSymbolTableRecord
100
AcDbBlockTableRecord
  2
*MODEL_SPACE
340
306
  0
BLOCK_RECORD
  5
1C
330
1
100
AcDbSymbolTableRecord
100
AcDbBlockTableRecord
  2
*PAPER_SPACE
340
307
  0
BLOCK_RECORD
  5
209
330
1
100
AcDbSymbolTableRecord
100
AcDbBlockTableRecord
  2
_FILLED
340
0
  0
BLOCK_RECORD
  5
20A
330
1
100
AcDbSymbolTableRecord
100
AcDbBlockTableRecord
  2
*D1
340
0
  0
BLOCK_RECORD
  5
20B
330
1
100
AcDbSymbolTableRecord
100
AcDbBlockTableRecord
  2
*D2
340
0
  0
BLOCK_RECORD
  5
20C
330
1
100
AcDbSymbolTableRecord
100
AcDbBlockTableRecord
  2
*D3
340
0
  0
BLOCK_RECORD
  5
20D
330
1
100
AcDbSymbolTableRecord
100
AcDbBlockTableRecord
  2
*D4
340
0
  0
BLOCK_RECORD
  5
20E
330
1
100
AcDbSymbolTableRecord
100
AcDbBlockTableRecord
  2
*D5
340
0
  0
BLOCK_RECORD
  5
20F
330
1
100
AcDbSymbolTableRecord
100
AcDbBlockTableRecord
  2
*D6
340
0
  0
BLOCK_RECORD
  5
210
330
1
100
AcDbSymbolTableRecord
100
AcDbBlockTableRecord
  2
*D7
340
0
  0
BLOCK_RECORD
  5
211
330
1
100
AcDbSymbolTableRecord
100
AcDbBlockTableRecord
  2
*D8
340
0
  0
BLOCK_RECORD
  5
212
330
1
100
AcDbSymbolTableRecord
100
AcDbBlockTableRecord
  2
*D9
340
0
  0
BLOCK_RECORD
  5
213
330
1
100
AcDbSymbolTableRecord
100
AcDbBlockTableRecord
  2
*D10
340
0
  0
BLOCK_RECORD
  5
214
330
1
100
AcDbSymbolTableRecord
100
AcDbBlockTableRecord
  2
EINFUEGEPUNKT_BL0
340
0
102
{BLKREFS
331
2A5
102
}
  0
BLOCK_RECORD
  5
215
330
1
100
AcDbSymbolTableRecord
100
AcDbBlockTableRecord
  2
NULLPUNKT_BL1
340
0
102
{BLKREFS
331
2A6
102
}
  0
BLOCK_RECORD
  5
30C
330
1
100
AcDbSymbolTableRecord
100
AcDbBlockTableRecord
  2
NULLPUNKT_BL0
340
0
  0
BLOCK_RECORD
  5
31E
330
1
100
AcDbSymbolTableRecord
100
AcDbBlockTableRecord
  2
EINFUEGEPUNKT_BL1
340
0
  0
BLOCK_RECORD
  5
48B
330
1
100
AcDbSymbolTableRecord
100
AcDbBlockTableRecord
  2
*D15
340
0
  0
BLOCK_RECORD
  5
497
330
1
100
AcDbSymbolTableRecord
100
AcDbBlockTableRecord
  2
*D16
340
0
  0
BLOCK_RECORD
  5
4A3
330
1
100
AcDbSymbolTableRecord
100
AcDbBlockTableRecord
  2
*D17
340
0
  0
BLOCK_RECORD
  5
4AF
330
1
100
AcDbSymbolTableRecord
100
AcDbBlockTableRecord
  2
*D18
340
0
  0
BLOCK_RECORD
  5
4BB
330
1
100
AcDbSymbolTableRecord
100
AcDbBlockTableRecord
  2
*D19
340
0
  0
BLOCK_RECORD
  5
4C7
330
1
100
AcDbSymbolTableRecord
100
AcDbBlockTableRecord
  2
*D20
340
0
  0
BLOCK_RECORD
  5
4D3
330
1
100
AcDbSymbolTableRecord
100
AcDbBlockTableRecord
  2
*D21
340
0
  0
BLOCK_RECORD
  5
4DF
330
1
100
AcDbSymbolTableRecord
100
AcDbBlockTableRecord
  2
*D22
340
0
  0
BLOCK_RECORD
  5
4EB
330
1
100
AcDbSymbolTableRecord
100
AcDbBlockTableRecord
  2
*D23
340
0
  0
ENDTAB
  0
ENDSEC
  0
SECTION
  2
BLOCKS
  0
BLOCK
  5
1E
330
1B
100
AcDbEntity
  8
0
100
AcDbBlockBegin
  2
*MODEL_SPACE
 70
     0
 10
0.0
 20
0.0
 30
0.0
  3
*MODEL_SPACE
  1

  0
ENDBLK
  5
1F
330
1B
100
AcDbEntity
  8
0
100
AcDbBlockEnd
  0
BLOCK
  5
20
330
1C
100
AcDbEntity
 67
     1
  8
0
100
AcDbBlockBegin
  2
*PAPER_SPACE
 70
     0
 10
0.0
 20
0.0
 30
0.0
  3
*PAPER_SPACE
  1

  0
ENDBLK
  5
21
330
1C
100
AcDbEntity
 67
     1
  8
0
100
AcDbBlockEnd
  0
BLOCK
  5
297
330
209
100
AcDbEntity
  8
0
100
AcDbBlockBegin
  2
_FILLED
 70
     0
 10
0.0
 20
0.0
 30
0.0
  3
_FILLED
  1

  0
SOLID
  5
298
330
209
100
AcDbEntity
  8
0
  6
ByBlock
 62
     0
100
AcDbTrace
 10
0.0
 20
0.0
 30
0.0
 11
-1.0
 21
0.132
 31
0.0
 12
-1.0
 22
-0.132
 32
0.0
 13
-1.0
 23
-0.132
 33
0.0
  0
ENDBLK
  5
299
330
209
100
AcDbEntity
  8
0
  6
ByBlock
 62
     0
100
AcDbBlockEnd
  0
BLOCK
  5
216
330
20A
100
AcDbEntity
  8
SK2
  6
Continuous
 62
     7
100
AcDbBlockBegin
  2
*D1
 70
     1
 10
0.0
 20
0.0
 30
0.0
  3
*D1
  1

  0
LINE
  5
7DA
330
20A
100
AcDbEntity
  8
SK2
370
    -2
100
AcDbLine
 10
64.62500000000002
 20
35.92102448419996
 30
0.0
 11
84.87500000000002
 21
35.92102448419995
 31
0.0
  0
LINE
  5
7DB
330
20A
100
AcDbEntity
  8
SK2
370
    -2
100
AcDbLine
 10
64.625
 20
-35.92102448430003
 30
0.0
 11
84.87499999999998
 21
-35.92102448430004
 31
0.0
  0
LINE
  5
7DC
330
20A
100
AcDbEntity
  8
SK2
370
    -2
100
AcDbLine
 10
82.87500000000001
 20
32.42102448419995
 30
0.0
 11
82.87499999999999
 21
-32.42102448430004
 31
0.0
  0
SOLID
  5
7DD
330
20A
100
AcDbEntity
  8
SK2
100
AcDbTrace
 10
82.29166666666669
 20
32.42102448419995
 30
0.0
 11
83.45833333333334
 21
32.42102448419995
 31
0.0
 12
82.87500000000001
 22
35.92102448419995
 32
0.0
 13
82.87500000000001
 23
35.92102448419995
 33
0.0
  0
SOLID
  5
7DE
330
20A
100
AcDbEntity
  8
SK2
100
AcDbTrace
 10
82.29166666666666
 20
-32.42102448430004
 30
0.0
 11
83.45833333333331
 21
-32.42102448430004
 31
0.0
 12
82.87499999999999
 22
-35.92102448430004
 32
0.0
 13
82.87499999999999
 23
-35.92102448430004
 33
0.0
  0
MTEXT
  5
7DF
330
20A
100
AcDbEntity
  8
SK2
100
AcDbMText
 10
80.5
 20
1.75
 30
0.0
 40
3.5
 41
0.0
 71
     5
 72
     1
  1
Lk-%%c101.6
 11
0.0000000000000001
 21
1.0
 31
0.0
 73
     1
 44
1.0
1001
ACAD
1000
MTEXTBEGIN
1070
    73
1070
     1
1070
    44
1040
1.0
1070
    74
1070
     0
1000
MTEXTEND
  0
POINT
  5
7E0
330
20A
100
AcDbEntity
  8
Defpoints
 62
     0
100
AcDbPoint
 10
64.0
 20
35.92102448419996
 30
0.0
  0
POINT
  5
7E1
330
20A
100
AcDbEntity
  8
Defpoints
 62
     0
100
AcDbPoint
 10
64.0
 20
-35.92102448430003
 30
0.0
  0
POINT
  5
7E2
330
20A
100
AcDbEntity
  8
Defpoints
 62
     0
100
AcDbPoint
 10
82.87499999999999
 20
-35.92102448430004
 30
0.0
  0
ENDBLK
  5
21E
330
20A
100
AcDbEntity
  8
0
  6
ByBlock
 62
     0
100
AcDbBlockEnd
  0
BLOCK
  5
21F
330
20B
100
AcDbEntity
  8
SK2
  6
Continuous
 62
     7
100
AcDbBlockBegin
  2
*D2
 70
     1
 10
0.0
 20
0.0
 30
0.0
  3
*D2
  1

  0
LINE
  5
7D1
330
20B
100
AcDbEntity
  8
SK2
370
    -2
100
AcDbLine
 10
64.625
 20
62.86179284749997
 30
0.0
 11
93.37500000000002
 21
62.86179284749996
 31
0.0
  0
LINE
  5
7D2
330
20B
100
AcDbEntity
  8
SK2
370
    -2
100
AcDbLine
 10
64.625
 20
-62.86179284750001
 30
0.0
 11
93.37499999999998
 21
-62.86179284750002
 31
0.0
  0
LINE
  5
7D3
330
20B
100
AcDbEntity
  8
SK2
370
    -2
100
AcDbLine
 10
91.37500000000001
 20
59.36179284749997
 30
0.0
 11
91.37500000000001
 21
-59.36179284750004
 31
0.0
  0
SOLID
  5
7D4
330
20B
100
AcDbEntity
  8
SK2
100
AcDbTrace
 10
90.79166666666669
 20
59.36179284749997
 30
0.0
 11
91.95833333333334
 21
59.36179284749997
 31
0.0
 12
91.37500000000001
 22
62.86179284749996
 32
0.0
 13
91.37500000000001
 23
62.86179284749996
 33
0.0
  0
SOLID
  5
7D5
330
20B
100
AcDbEntity
  8
SK2
100
AcDbTrace
 10
90.79166666666663
 20
-59.36179284750004
 30
0.0
 11
91.95833333333331
 21
-59.36179284750004
 31
0.0
 12
91.37500000000001
 22
-62.86179284750002
 32
0.0
 13
91.37500000000001
 23
-62.86179284750002
 33
0.0
  0
MTEXT
  5
7D6
330
20B
100
AcDbEntity
  8
SK2
100
AcDbMText
 10
89.0
 20
1.75
 30
0.0
 40
3.5
 41
0.0
 71
     5
 72
     1
  1
Lk-%%c177.8
 11
0.0000000000000001
 21
1.0
 31
0.0
 73
     1
 44
1.0
1001
ACAD
1000
MTEXTBEGIN
1070
    73
1070
     1
1070
    44
1040
1.0
1070
    74
1070
     0
1000
MTEXTEND
  0
POINT
  5
7D7
330
20B
100
AcDbEntity
  8
Defpoints
 62
     0
100
AcDbPoint
 10
64.0
 20
62.86179284749997
 30
0.0
  0
POINT
  5
7D8
330
20B
100
AcDbEntity
  8
Defpoints
 62
     0
100
AcDbPoint
 10
64.0
 20
-62.86179284750001
 30
0.0
  0
POINT
  5
7D9
330
20B
100
AcDbEntity
  8
Defpoints
 62
     0
100
AcDbPoint
 10
91.37500000000001
 20
-62.86179284750002
 30
0.0
  0
ENDBLK
  5
227
330
20B
100
AcDbEntity
  8
0
  6
ByBlock
 62
     0
100
AcDbBlockEnd
  0
BLOCK
  5
228
330
20C
100
AcDbEntity
  8
SK2
  6
Continuous
 62
     7
100
AcDbBlockBegin
  2
*D3
 70
     1
 10
0.0
 20
0.0
 30
0.0
  3
*D3
  1

  0
LINE
  5
807
330
20C
100
AcDbEntity
  8
SK2
370
    -2
100
AcDbLine
 10
-1.625
 20
-143.7
 30
0.0
 11
-23.12536521050004
 21
-143.7
 31
0.0
  0
LINE
  5
808
330
20C
100
AcDbEntity
  8
SK2
370
    -2
100
AcDbLine
 10
-1.625
 20
143.6999999999999
 30
0.0
 11
-23.12536521049997
 21
143.6999999999999
 31
0.0
  0
LINE
  5
809
330
20C
100
AcDbEntity
  8
SK2
370
    -2
100
AcDbLine
 10
-21.12536521050004
 20
-140.2
 30
0.0
 11
-21.12536521049998
 21
140.1999999999999
 31
0.0
  0
SOLID
  5
80A
330
20C
100
AcDbEntity
  8
SK2
100
AcDbTrace
 10
-21.70869854383337
 20
-140.2
 30
0.0
 11
-20.54203187716671
 21
-140.2
 31
0.0
 12
-21.12536521050004
 22
-143.7
 32
0.0
 13
-21.12536521050004
 23
-143.7
 33
0.0
  0
SOLID
  5
80B
330
20C
100
AcDbEntity
  8
SK2
100
AcDbTrace
 10
-21.70869854383331
 20
140.1999999999999
 30
0.0
 11
-20.54203187716664
 21
140.1999999999999
 31
0.0
 12
-21.12536521049998
 22
143.6999999999999
 32
0.0
 13
-21.12536521049998
 23
143.6999999999999
 33
0.0
  0
MTEXT
  5
80C
330
20C
100
AcDbEntity
  8
SK2
100
AcDbMText
 10
-23.50070969868898
 20
0.0000000000000003
 30
0.0
 40
3.5
 41
0.0
 71
     5
 72
     1
  1
%%c287.4
 11
0.0000000000000001
 21
1.0
 31
0.0
 73
     1
 44
1.0
1001
ACAD
1000
MTEXTBEGIN
1070
    73
1070
     1
1070
    44
1040
1.0
1070
    74
1070
     0
1000
MTEXTEND
  0
POINT
  5
80D
330
20C
100
AcDbEntity
  8
Defpoints
 62
     0
100
AcDbPoint
 10
-1.0
 20
-143.7
 30
0.0
  0
POINT
  5
80E
330
20C
100
AcDbEntity
  8
Defpoints
 62
     0
100
AcDbPoint
 10
-1.0
 20
143.6999999999999
 30
0.0
  0
POINT
  5
80F
330
20C
100
AcDbEntity
  8
Defpoints
 62
     0
100
AcDbPoint
 10
-21.12536521049998
 20
143.6999999999999
 30
0.0
  0
ENDBLK
  5
231
330
20C
100
AcDbEntity
  8
0
  6
ByBlock
 62
     0
100
AcDbBlockEnd
  0
BLOCK
  5
232
330
20D
100
AcDbEntity
  8
2
  6
Continuous
 62
     7
100
AcDbBlockBegin
  2
*D4
 70
     1
 10
0.0
 20
0.0
 30
0.0
  3
*D4
  1

  0
LINE
  5
7F5
330
20D
100
AcDbEntity
  8
2
370
    -2
100
AcDbLine
 10
0.0
 20
145.3249999999999
 30
0.0
 11
0.0000000000000008
 21
158.3249999999999
 31
0.0
  0
LINE
  5
7F6
330
20D
100
AcDbEntity
  8
2
370
    -2
100
AcDbLine
 10
17.0
 20
145.3249999999999
 30
0.0
 11
17.0
 21
158.3249999999999
 31
0.0
  0
LINE
  5
7F7
330
20D
100
AcDbEntity
  8
2
370
    -2
100
AcDbLine
 10
3.5
 20
156.3249999999999
 30
0.0
 11
13.5
 21
156.3249999999999
 31
0.0
  0
SOLID
  5
7F8
330
20D
100
AcDbEntity
  8
2
100
AcDbTrace
 10
3.5
 20
156.9083333333333
 30
0.0
 11
3.5
 21
155.7416666666666
 31
0.0
 12
0.0000000000000007
 22
156.3249999999999
 32
0.0
 13
0.0000000000000007
 23
156.3249999999999
 33
0.0
  0
SOLID
  5
7F9
330
20D
100
AcDbEntity
  8
2
100
AcDbTrace
 10
13.5
 20
156.9083333333333
 30
0.0
 11
13.5
 21
155.7416666666666
 31
0.0
 12
17.0
 22
156.3249999999999
 32
0.0
 13
17.0
 23
156.3249999999999
 33
0.0
  0
MTEXT
  5
7FA
330
20D
100
AcDbEntity
  8
2
100
AcDbMText
 10
8.5
 20
158.6999999999999
 30
0.0
 40
3.5
 41
0.0
 71
     5
 72
     1
  1
17
 73
     1
 44
1.0
1001
ACAD
1000
MTEXTBEGIN
1070
    73
1070
     1
1070
    44
1040
1.0
1070
    74
1070
     0
1000
MTEXTEND
  0
POINT
  5
7FB
330
20D
100
AcDbEntity
  8
Defpoints
 62
     0
100
AcDbPoint
 10
0.0
 20
144.6999999999999
 30
0.0
  0
POINT
  5
7FC
330
20D
100
AcDbEntity
  8
Defpoints
 62
     0
100
AcDbPoint
 10
17.0
 20
144.6999999999999
 30
0.0
  0
POINT
  5
7FD
330
20D
100
AcDbEntity
  8
Defpoints
 62
     0
100
AcDbPoint
 10
17.0
 20
156.3249999999999
 30
0.0
  0
ENDBLK
  5
23A
330
20D
100
AcDbEntity
  8
0
  6
ByBlock
 62
     0
100
AcDbBlockEnd
  0
BLOCK
  5
23B
330
20E
100
AcDbEntity
  8
SK2
  6
Continuous
 62
     7
100
AcDbBlockBegin
  2
*D5
 70
     1
 10
0.0
 20
0.0
 30
0.0
  3
*D5
  1

  0
LINE
  5
7C8
330
20E
100
AcDbEntity
  8
SK2
370
    -2
100
AcDbLine
 10
36.72499999999997
 20
-133.9
 30
0.0
 11
110.375
 21
-133.9
 31
0.0
  0
LINE
  5
7C9
330
20E
100
AcDbEntity
  8
SK2
370
    -2
100
AcDbLine
 10
36.72499999999997
 20
133.9
 30
0.0
 11
110.375
 21
133.8999999999999
 31
0.0
  0
LINE
  5
7CA
330
20E
100
AcDbEntity
  8
SK2
370
    -2
100
AcDbLine
 10
108.375
 20
-130.4
 30
0.0
 11
108.375
 21
130.4
 31
0.0
  0
SOLID
  5
7CB
330
20E
100
AcDbEntity
  8
SK2
100
AcDbTrace
 10
107.7916666666666
 20
-130.4
 30
0.0
 11
108.9583333333333
 21
-130.4
 31
0.0
 12
108.375
 22
-133.9
 32
0.0
 13
108.375
 23
-133.9
 33
0.0
  0
SOLID
  5
7CC
330
20E
100
AcDbEntity
  8
SK2
100
AcDbTrace
 10
107.7916666666667
 20
130.4
 30
0.0
 11
108.9583333333333
 21
130.4
 31
0.0
 12
108.375
 22
133.8999999999999
 32
0.0
 13
108.375
 23
133.8999999999999
 33
0.0
  0
MTEXT
  5
7CD
330
20E
100
AcDbEntity
  8
SK2
100
AcDbMText
 10
105.999655511811
 20
0.0000000000000003
 30
0.0
 40
3.5
 41
0.0
 71
     5
 72
     1
  1
%%c267.8
 11
0.0000000000000001
 21
1.0
 31
0.0
 73
     1
 44
1.0
1001
ACAD
1000
MTEXTBEGIN
1070
    73
1070
     1
1070
    44
1040
1.0
1070
    74
1070
     0
1000
MTEXTEND
  0
POINT
  5
7CE
330
20E
100
AcDbEntity
  8
Defpoints
 62
     0
100
AcDbPoint
 10
36.09999999999997
 20
-133.9
 30
0.0
  0
POINT
  5
7CF
330
20E
100
AcDbEntity
  8
Defpoints
 62
     0
100
AcDbPoint
 10
36.09999999999997
 20
133.9
 30
0.0
  0
POINT
  5
7D0
330
20E
100
AcDbEntity
  8
Defpoints
 62
     0
100
AcDbPoint
 10
108.375
 20
133.8999999999999
 30
0.0
  0
ENDBLK
  5
244
330
20E
100
AcDbEntity
  8
0
  6
ByBlock
 62
     0
100
AcDbBlockEnd
  0
BLOCK
  5
245
330
20F
100
AcDbEntity
  8
SK2
  6
Continuous
 62
     7
100
AcDbBlockBegin
  2
*D6
 70
     1
 10
0.0
 20
0.0
 30
0.0
  3
*D6
  1

  0
LINE
  5
7BF
330
20F
100
AcDbEntity
  8
SK2
370
    -2
100
AcDbLine
 10
61.625
 20
-114.1
 30
0.0
 11
101.875
 21
-114.1
 31
0.0
  0
LINE
  5
7C0
330
20F
100
AcDbEntity
  8
SK2
370
    -2
100
AcDbLine
 10
61.625
 20
114.1
 30
0.0
 11
101.875
 21
114.1
 31
0.0
  0
LINE
  5
7C1
330
20F
100
AcDbEntity
  8
SK2
370
    -2
100
AcDbLine
 10
99.87499999999997
 20
-110.6
 30
0.0
 11
99.87500000000004
 21
110.6
 31
0.0
  0
SOLID
  5
7C2
330
20F
100
AcDbEntity
  8
SK2
100
AcDbTrace
 10
99.29166666666665
 20
-110.6
 30
0.0
 11
100.4583333333333
 21
-110.6
 31
0.0
 12
99.87499999999997
 22
-114.1
 32
0.0
 13
99.87499999999997
 23
-114.1
 33
0.0
  0
SOLID
  5
7C3
330
20F
100
AcDbEntity
  8
SK2
100
AcDbTrace
 10
99.2916666666667
 20
110.6
 30
0.0
 11
100.4583333333333
 21
110.6
 31
0.0
 12
99.87500000000004
 22
114.1
 32
0.0
 13
99.87500000000004
 23
114.1
 33
0.0
  0
MTEXT
  5
7C4
330
20F
100
AcDbEntity
  8
SK2
100
AcDbMText
 10
97.49965551181105
 20
0.0000000000000003
 30
0.0
 40
3.5
 41
0.0
 71
     5
 72
     1
  1
%%c228.2
 11
0.0000000000000001
 21
1.0
 31
0.0
 73
     1
 44
1.0
1001
ACAD
1000
MTEXTBEGIN
1070
    73
1070
     1
1070
    44
1040
1.0
1070
    74
1070
     0
1000
MTEXTEND
  0
POINT
  5
7C5
330
20F
100
AcDbEntity
  8
Defpoints
 62
     0
100
AcDbPoint
 10
61.0
 20
-114.1
 30
0.0
  0
POINT
  5
7C6
330
20F
100
AcDbEntity
  8
Defpoints
 62
     0
100
AcDbPoint
 10
61.0
 20
114.1
 30
0.0
  0
POINT
  5
7C7
330
20F
100
AcDbEntity
  8
Defpoints
 62
     0
100
AcDbPoint
 10
99.87500000000004
 20
114.1
 30
0.0
  0
ENDBLK
  5
24E
330
20F
100
AcDbEntity
  8
0
  6
ByBlock
 62
     0
100
AcDbBlockEnd
  0
BLOCK
  5
24F
330
210
100
AcDbEntity
  8
SK2
  6
Continuous
 62
     7
100
AcDbBlockBegin
  2
*D7
 70
     1
 10
0.0
 20
0.0
 30
0.0
  3
*D7
  1

  0
LINE
  5
7EC
330
210
100
AcDbEntity
  8
SK2
370
    -2
100
AcDbLine
 10
0.0
 20
145.3249999999999
 30
0.0
 11
0.0000000000000014
 21
166.8249999999999
 31
0.0
  0
LINE
  5
7ED
330
210
100
AcDbEntity
  8
SK2
370
    -2
100
AcDbLine
 10
35.09999999999997
 20
135.525
 30
0.0
 11
35.09999999999997
 21
166.8249999999999
 31
0.0
  0
LINE
  5
7EE
330
210
100
AcDbEntity
  8
SK2
370
    -2
100
AcDbLine
 10
3.500000000000001
 20
164.8249999999999
 30
0.0
 11
31.59999999999997
 21
164.8249999999999
 31
0.0
  0
SOLID
  5
7EF
330
210
100
AcDbEntity
  8
SK2
100
AcDbTrace
 10
3.500000000000001
 20
165.4083333333333
 30
0.0
 11
3.500000000000001
 21
164.2416666666666
 31
0.0
 12
0.0000000000000012
 22
164.8249999999999
 32
0.0
 13
0.0000000000000012
 23
164.8249999999999
 33
0.0
  0
SOLID
  5
7F0
330
210
100
AcDbEntity
  8
SK2
100
AcDbTrace
 10
31.59999999999997
 20
165.4083333333333
 30
0.0
 11
31.59999999999997
 21
164.2416666666666
 31
0.0
 12
35.09999999999997
 22
164.8249999999999
 32
0.0
 13
35.09999999999997
 23
164.8249999999999
 33
0.0
  0
MTEXT
  5
7F1
330
210
100
AcDbEntity
  8
SK2
100
AcDbMText
 10
17.55
 20
167.1999999999999
 30
0.0
 40
3.5
 41
0.0
 71
     5
 72
     1
  1
35.1
 73
     1
 44
1.0
1001
ACAD
1000
MTEXTBEGIN
1070
    73
1070
     1
1070
    44
1040
1.0
1070
    74
1070
     0
1000
MTEXTEND
  0
POINT
  5
7F2
330
210
100
AcDbEntity
  8
Defpoints
 62
     0
100
AcDbPoint
 10
0.0
 20
144.6999999999999
 30
0.0
  0
POINT
  5
7F3
330
210
100
AcDbEntity
  8
Defpoints
 62
     0
100
AcDbPoint
 10
35.09999999999997
 20
134.9
 30
0.0
  0
POINT
  5
7F4
330
210
100
AcDbEntity
  8
Defpoints
 62
     0
100
AcDbPoint
 10
35.09999999999997
 20
164.8249999999999
 30
0.0
  0
ENDBLK
  5
257
330
210
100
AcDbEntity
  8
0
  6
ByBlock
 62
     0
100
AcDbBlockEnd
  0
BLOCK
  5
258
330
211
100
AcDbEntity
  8
SK2
  6
Continuous
 62
     7
100
AcDbBlockBegin
  2
*D8
 70
     1
 10
0.0
 20
0.0
 30
0.0
  3
*D8
  1

  0
LINE
  5
7E3
330
211
100
AcDbEntity
  8
SK2
370
    -2
100
AcDbLine
 10
60.0
 20
115.8596164625999
 30
0.0
 11
60.0
 21
175.3249999999999
 31
0.0
  0
LINE
  5
7E4
330
211
100
AcDbEntity
  8
SK2
370
    -2
100
AcDbLine
 10
0.0
 20
144.8596164625999
 30
0.0
 11
0.0000000000000019
 21
175.3249999999999
 31
0.0
  0
LINE
  5
7E5
330
211
100
AcDbEntity
  8
SK2
370
    -2
100
AcDbLine
 10
56.50000000000001
 20
173.3249999999999
 30
0.0
 11
3.500000000000001
 21
173.3249999999999
 31
0.0
  0
SOLID
  5
7E6
330
211
100
AcDbEntity
  8
SK2
100
AcDbTrace
 10
56.50000000000001
 20
173.9083333333333
 30
0.0
 11
56.50000000000001
 21
172.7416666666666
 31
0.0
 12
60.0
 22
173.3249999999999
 32
0.0
 13
60.0
 23
173.3249999999999
 33
0.0
  0
SOLID
  5
7E7
330
211
100
AcDbEntity
  8
SK2
100
AcDbTrace
 10
3.500000000000001
 20
173.9083333333333
 30
0.0
 11
3.500000000000001
 21
172.7416666666666
 31
0.0
 12
0.0000000000000018
 22
173.3249999999999
 32
0.0
 13
0.0000000000000018
 23
173.3249999999999
 33
0.0
  0
MTEXT
  5
7E8
330
211
100
AcDbEntity
  8
SK2
100
AcDbMText
 10
30.0
 20
175.6999999999999
 30
0.0
 40
3.5
 41
0.0
 71
     5
 72
     1
  1
60
 73
     1
 44
1.0
1001
ACAD
1000
MTEXTBEGIN
1070
    73
1070
     1
1070
    44
1040
1.0
1070
    74
1070
     0
1000
MTEXTEND
  0
POINT
  5
7E9
330
211
100
AcDbEntity
  8
Defpoints
 62
     0
100
AcDbPoint
 10
60.0
 20
115.2346164626
 30
0.0
  0
POINT
  5
7EA
330
211
100
AcDbEntity
  8
Defpoints
 62
     0
100
AcDbPoint
 10
0.0
 20
144.2346164626
 30
0.0
  0
POINT
  5
7EB
330
211
100
AcDbEntity
  8
Defpoints
 62
     0
100
AcDbPoint
 10
0.0000000000000018
 20
173.3249999999999
 30
0.0
  0
ENDBLK
  5
260
330
211
100
AcDbEntity
  8
0
  6
ByBlock
 62
     0
100
AcDbBlockEnd
  0
BLOCK
  5
261
330
212
100
AcDbEntity
  8
SK2
  6
Continuous
 62
     7
100
AcDbBlockBegin
  2
*D9
 70
     1
 10
0.0
 20
0.0
 30
0.0
  3
*D9
  1

  0
LINE
  5
7B6
330
212
100
AcDbEntity
  8
SK2
370
    -2
100
AcDbLine
 10
61.625
 20
-25.0
 30
0.0
 11
76.375
 21
-25.0
 31
0.0
  0
LINE
  5
7B7
330
212
100
AcDbEntity
  8
SK2
370
    -2
100
AcDbLine
 10
61.625
 20
25.0
 30
0.0
 11
76.375
 21
25.0
 31
0.0
  0
LINE
  5
7B8
330
212
100
AcDbEntity
  8
SK2
370
    -2
100
AcDbLine
 10
74.375
 20
-21.5
 30
0.0
 11
74.375
 21
21.5
 31
0.0
  0
SOLID
  5
7B9
330
212
100
AcDbEntity
  8
SK2
100
AcDbTrace
 10
73.79166666666667
 20
-21.5
 30
0.0
 11
74.95833333333333
 21
-21.5
 31
0.0
 12
74.375
 22
-25.0
 32
0.0
 13
74.375
 23
-25.0
 33
0.0
  0
SOLID
  5
7BA
330
212
100
AcDbEntity
  8
SK2
100
AcDbTrace
 10
73.79166666666667
 20
21.5
 30
0.0
 11
74.95833333333333
 21
21.5
 31
0.0
 12
74.375
 22
25.0
 32
0.0
 13
74.375
 23
25.0
 33
0.0
  0
MTEXT
  5
7BB
330
212
100
AcDbEntity
  8
SK2
100
AcDbMText
 10
72.0
 20
0.0000000000000003
 30
0.0
 40
3.5
 41
0.0
 71
     5
 72
     1
  1
%%c50
 11
0.0000000000000001
 21
1.0
 31
0.0
 73
     1
 44
1.0
1001
ACAD
1000
MTEXTBEGIN
1070
    73
1070
     1
1070
    44
1040
1.0
1070
    74
1070
     0
1000
MTEXTEND
  0
POINT
  5
7BC
330
212
100
AcDbEntity
  8
Defpoints
 62
     0
100
AcDbPoint
 10
61.0
 20
-25.0
 30
0.0
  0
POINT
  5
7BD
330
212
100
AcDbEntity
  8
Defpoints
 62
     0
100
AcDbPoint
 10
61.0
 20
25.0
 30
0.0
  0
POINT
  5
7BE
330
212
100
AcDbEntity
  8
Defpoints
 62
     0
100
AcDbPoint
 10
74.375
 20
25.0
 30
0.0
  0
ENDBLK
  5
26A
330
212
100
AcDbEntity
  8
0
  6
ByBlock
 62
     0
100
AcDbBlockEnd
  0
BLOCK
  5
26B
330
213
100
AcDbEntity
  8
SK2
  6
Continuous
 62
     7
100
AcDbBlockBegin
  2
*D10
 70
     1
 10
0.0
 20
0.0
 30
0.0
  3
*D10
  1

  0
LINE
  5
7FE
330
213
100
AcDbEntity
  8
SK2
370
    -2
100
AcDbLine
 10
-1.625
 20
-30.0
 30
0.0
 11
-14.62536521050001
 21
-30.0
 31
0.0
  0
LINE
  5
7FF
330
213
100
AcDbEntity
  8
SK2
370
    -2
100
AcDbLine
 10
-1.625
 20
30.0
 30
0.0
 11
-14.6253652105
 21
30.0
 31
0.0
  0
LINE
  5
800
330
213
100
AcDbEntity
  8
SK2
370
    -2
100
AcDbLine
 10
-12.62536521050001
 20
-26.5
 30
0.0
 11
-12.6253652105
 21
26.5
 31
0.0
  0
SOLID
  5
801
330
213
100
AcDbEntity
  8
SK2
100
AcDbTrace
 10
-13.20869854383335
 20
-26.5
 30
0.0
 11
-12.04203187716668
 21
-26.5
 31
0.0
 12
-12.62536521050001
 22
-30.0
 32
0.0
 13
-12.62536521050001
 23
-30.0
 33
0.0
  0
SOLID
  5
802
330
213
100
AcDbEntity
  8
SK2
100
AcDbTrace
 10
-13.20869854383333
 20
26.5
 30
0.0
 11
-12.04203187716667
 21
26.5
 31
0.0
 12
-12.6253652105
 22
30.0
 32
0.0
 13
-12.6253652105
 23
30.0
 33
0.0
  0
MTEXT
  5
803
330
213
100
AcDbEntity
  8
SK2
100
AcDbMText
 10
-15.00036521050001
 20
0.0000000000000003
 30
0.0
 40
3.5
 41
0.0
 71
     5
 72
     1
  1
%%c60
 11
0.0000000000000001
 21
1.0
 31
0.0
 73
     1
 44
1.0
1001
ACAD
1000
MTEXTBEGIN
1070
    73
1070
     1
1070
    44
1040
1.0
1070
    74
1070
     0
1000
MTEXTEND
  0
POINT
  5
804
330
213
100
AcDbEntity
  8
Defpoints
 62
     0
100
AcDbPoint
 10
-1.0
 20
-30.0
 30
0.0
  0
POINT
  5
805
330
213
100
AcDbEntity
  8
Defpoints
 62
     0
100
AcDbPoint
 10
-1.0
 20
30.0
 30
0.0
  0
POINT
  5
806
330
213
100
AcDbEntity
  8
Defpoints
 62
     0
100
AcDbPoint
 10
-12.6253652105
 20
30.0
 30
0.0
  0
ENDBLK
  5
274
330
213
100
AcDbEntity
  8
0
  6
ByBlock
 62
     0
100
AcDbBlockEnd
  0
BLOCK
  5
275
330
214
100
AcDbEntity
  8
1
  6
Continuous
 62
     3
100
AcDbBlockBegin
  2
EINFUEGEPUNKT_BL0
 70
     0
 10
274.0093356336
 20
204.2653835374
 30
0.0
  3
EINFUEGEPUNKT_BL0
  1

  0
LINE
  5
276
330
214
100
AcDbEntity
  8
1
  6
Continuous
 62
     4
100
AcDbLine
 10
274.0093356336
 20
204.2653835374
 30
0.0
 11
274.0093356336
 21
203.7653845374
 31
0.0
  0
ARC
  5
277
330
214
100
AcDbEntity
  8
1
  6
Continuous
 62
     4
100
AcDbCircle
 10
274.0093356336
 20
204.2653835374
 30
0.0
 40
0.4999990000000001
100
AcDbArc
 50
90.0
 51
180.0
  0
LINE
  5
278
330
214
100
AcDbEntity
  8
1
  6
Continuous
 62
     4
100
AcDbLine
 10
274.0093356336
 20
204.2653835374
 30
0.0
 11
273.5093366336
 21
204.2653835374
 31
0.0
  0
ARC
  5
279
330
214
100
AcDbEntity
  8
1
  6
Continuous
 62
     4
100
AcDbCircle
 10
274.0093356336
 20
204.2653835374
 30
0.0
 40
0.4999990000000001
100
AcDbArc
 50
180.0
 51
270.0
  0
ARC
  5
27A
330
214
100
AcDbEntity
  8
1
  6
Continuous
 62
     4
100
AcDbCircle
 10
274.0093356336
 20
204.2653835374
 30
0.0
 40
0.4999990000000001
100
AcDbArc
 50
270.0
 51
360.0
  0
ARC
  5
27B
330
214
100
AcDbEntity
  8
1
  6
Continuous
 62
     4
100
AcDbCircle
 10
274.0093356336
 20
204.2653835374
 30
0.0
 40
0.4999990000000001
100
AcDbArc
 50
0.0
 51
90.0
  0
LINE
  5
27C
330
214
100
AcDbEntity
  8
1
  6
Continuous
 62
     4
100
AcDbLine
 10
274.5093346336
 20
204.2653835374
 30
0.0
 11
274.0093356336
 21
204.2653835374
 31
0.0
  0
LINE
  5
27D
330
214
100
AcDbEntity
  8
1
  6
Continuous
 62
     4
100
AcDbLine
 10
274.0093356336
 20
204.7653825374
 30
0.0
 11
274.0093356336
 21
204.2653835374
 31
0.0
  0
LWPOLYLINE
  5
27E
330
214
100
AcDbEntity
  8
1
  6
Continuous
 62
     4
100
AcDbPolyline
 90
       18
 70
     0
 43
0.0
 10
274.0093356336
 20
204.2653835374
 10
274.0093356336
 20
204.7653825374
 10
274.0615997607
 20
204.7626434906
 10
274.1132912711
 20
204.7544563596
 10
274.1638438218
 20
204.7409108445
 10
274.2127035484
 20
204.7221553527
 10
274.2593351336
 20
204.6983953733
 10
274.303227672
 20
204.6698912256
 10
274.3439002676
 20
204.636955207
 10
274.3809073032
 20
204.5999481714
 10
274.4138433218
 20
204.5592755758
 10
274.4423474695
 20
204.5153830374
 10
274.4661074489
 20
204.4687514522
 10
274.4848629407
 20
204.4198917256
 10
274.4984084558
 20
204.3693391749
 10
274.5065955868
 20
204.3176476645
 10
274.5093346336
 20
204.2653835374
 10
274.0093356336
 20
204.2653835374
  0
HATCH
  5
27F
330
214
100
AcDbEntity
  8
1
  6
Continuous
 62
     4
100
AcDbHatch
 10
0.0
 20
0.0
 30
0.0
210
0.0
220
0.0
230
1.0
  2
SOLID
 70
     1
 71
     1
 91
        1
 92
        1
 93
       17
 72
     1
 10
274.0093356336
 20
204.2653835374
 11
274.0093356336
 21
204.7653825374
 72
     1
 10
274.0093356336
 20
204.7653825374
 11
274.0615997607
 21
204.7626434906
 72
     1
 10
274.0615997607
 20
204.7626434906
 11
274.1132912711
 21
204.7544563596
 72
     1
 10
274.1132912711
 20
204.7544563596
 11
274.1638438218
 21
204.7409108445
 72
     1
 10
274.1638438218
 20
204.7409108445
 11
274.2127035484
 21
204.7221553527
 72
     1
 10
274.2127035484
 20
204.7221553527
 11
274.2593351336
 21
204.6983953733
 72
     1
 10
274.2593351336
 20
204.6983953733
 11
274.303227672
 21
204.6698912256
 72
     1
 10
274.303227672
 20
204.6698912256
 11
274.3439002676
 21
204.636955207
 72
     1
 10
274.3439002676
 20
204.636955207
 11
274.3809073032
 21
204.5999481714
 72
     1
 10
274.3809073032
 20
204.5999481714
 11
274.4138433218
 21
204.5592755758
 72
     1
 10
274.4138433218
 20
204.5592755758
 11
274.4423474695
 21
204.5153830374
 72
     1
 10
274.4423474695
 20
204.5153830374
 11
274.4661074489
 21
204.4687514522
 72
     1
 10
274.4661074489
 20
204.4687514522
 11
274.4848629407
 21
204.4198917256
 72
     1
 10
274.4848629407
 20
204.4198917256
 11
274.4984084558
 21
204.3693391749
 72
     1
 10
274.4984084558
 20
204.3693391749
 11
274.5065955868
 21
204.3176476645
 72
     1
 10
274.5065955868
 20
204.3176476645
 11
274.5093346336
 21
204.2653835374
 72
     1
 10
274.5093346336
 20
204.2653835374
 11
274.0093356336
 21
204.2653835374
 97
        1
330
27E
 75
     0
 76
     1
 98
        1
 10
0.0
 20
0.0
  0
LWPOLYLINE
  5
280
330
214
100
AcDbEntity
  8
1
  6
Continuous
 62
     4
100
AcDbPolyline
 90
       18
 70
     0
 43
0.0
 10
274.0093356336
 20
204.2653835374
 10
274.0093356336
 20
203.7653845374
 10
273.9570715065
 20
203.7681235842
 10
273.9053799961
 20
203.7763107152
 10
273.8548274454
 20
203.7898562303
 10
273.8059677188
 20
203.8086117221
 10
273.7593361336
 20
203.8323717015
 10
273.7154435952
 20
203.8608758492
 10
273.6747709996
 20
203.8938118678
 10
273.637763964
 20
203.9308189034
 10
273.6048279454
 20
203.971491499
 10
273.5763237977
 20
204.0153840374
 10
273.5525638183
 20
204.0620156226
 10
273.5338083265
 20
204.1108753492
 10
273.5202628114
 20
204.1614278999
 10
273.5120756804
 20
204.2131194103
 10
273.5093366336
 20
204.2653835374
 10
274.0093356336
 20
204.2653835374
  0
HATCH
  5
281
330
214
100
AcDbEntity
  8
1
  6
Continuous
 62
     4
100
AcDbHatch
 10
0.0
 20
0.0
 30
0.0
210
0.0
220
0.0
230
1.0
  2
SOLID
 70
     1
 71
     1
 91
        1
 92
        1
 93
       17
 72
     1
 10
274.0093356336
 20
204.2653835374
 11
274.0093356336
 21
203.7653845374
 72
     1
 10
274.0093356336
 20
203.7653845374
 11
273.9570715065
 21
203.7681235842
 72
     1
 10
273.9570715065
 20
203.7681235842
 11
273.9053799961
 21
203.7763107152
 72
     1
 10
273.9053799961
 20
203.7763107152
 11
273.8548274454
 21
203.7898562303
 72
     1
 10
273.8548274454
 20
203.7898562303
 11
273.8059677188
 21
203.8086117221
 72
     1
 10
273.8059677188
 20
203.8086117221
 11
273.7593361336
 21
203.8323717015
 72
     1
 10
273.7593361336
 20
203.8323717015
 11
273.7154435952
 21
203.8608758492
 72
     1
 10
273.7154435952
 20
203.8608758492
 11
273.6747709996
 21
203.8938118678
 72
     1
 10
273.6747709996
 20
203.8938118678
 11
273.637763964
 21
203.9308189034
 72
     1
 10
273.637763964
 20
203.9308189034
 11
273.6048279454
 21
203.971491499
 72
     1
 10
273.6048279454
 20
203.971491499
 11
273.5763237977
 21
204.0153840374
 72
     1
 10
273.5763237977
 20
204.0153840374
 11
273.5525638183
 21
204.0620156226
 72
     1
 10
273.5525638183
 20
204.0620156226
 11
273.5338083265
 21
204.1108753492
 72
     1
 10
273.5338083265
 20
204.1108753492
 11
273.5202628114
 21
204.1614278999
 72
     1
 10
273.5202628114
 20
204.1614278999
 11
273.5120756804
 21
204.2131194103
 72
     1
 10
273.5120756804
 20
204.2131194103
 11
273.5093366336
 21
204.2653835374
 72
     1
 10
273.5093366336
 20
204.2653835374
 11
274.0093356336
 21
204.2653835374
 97
        1
330
280
 75
     0
 76
     1
 98
        1
 10
0.0
 20
0.0
  0
LINE
  5
282
330
214
100
AcDbEntity
  8
1
  6
Continuous
 62
     4
100
AcDbLine
 10
273.5093366336
 20
204.2653835374
 30
0.0
 11
274.0093356336
 21
204.2653835374
 31
0.0
  0
ARC
  5
283
330
214
100
AcDbEntity
  8
1
  6
Continuous
 62
     4
100
AcDbCircle
 10
274.0093356336
 20
204.2653835374
 30
0.0
 40
0.4999990000000001
100
AcDbArc
 50
180.0
 51
270.0
  0
LINE
  5
284
330
214
100
AcDbEntity
  8
1
  6
Continuous
 62
     4
100
AcDbLine
 10
274.0093356336
 20
203.7653845374
 30
0.0
 11
274.0093356336
 21
204.2653835374
 31
0.0
  0
ENDBLK
  5
285
330
214
100
AcDbEntity
  8
0
  6
ByBlock
 62
     0
100
AcDbBlockEnd
  0
BLOCK
  5
286
330
215
100
AcDbEntity
  8
1
  6
Continuous
 62
     3
100
AcDbBlockBegin
  2
NULLPUNKT_BL1
 70
     0
 10
257.0093356336
 20
204.2653835374
 30
0.0
  3
NULLPUNKT_BL1
  1

  0
LINE
  5
287
330
215
100
AcDbEntity
  8
1
  6
Continuous
 62
     4
100
AcDbLine
 10
257.0093356336
 20
204.2653835374
 30
0.0
 11
258.5093326336
 21
204.2653835374
 31
0.0
  0
ARC
  5
288
330
215
100
AcDbEntity
  8
1
  6
Continuous
 62
     4
100
AcDbCircle
 10
257.0093356336
 20
204.2653835374
 30
0.0
 40
1.499997
100
AcDbArc
 50
180.0
 51
270.0
  0
LINE
  5
289
330
215
100
AcDbEntity
  8
1
  6
Continuous
 62
     4
100
AcDbLine
 10
257.0093356336
 20
204.2653835374
 30
0.0
 11
257.0093356336
 21
202.7653865374
 31
0.0
  0
ARC
  5
28A
330
215
100
AcDbEntity
  8
1
  6
Continuous
 62
     4
100
AcDbCircle
 10
257.0093356336
 20
204.2653835374
 30
0.0
 40
1.499997
100
AcDbArc
 50
270.0
 51
360.0
  0
ARC
  5
28B
330
215
100
AcDbEntity
  8
1
  6
Continuous
 62
     4
100
AcDbCircle
 10
257.0093356336
 20
204.2653835374
 30
0.0
 40
1.499997
100
AcDbArc
 50
0.0
 51
90.0
  0
ARC
  5
28C
330
215
100
AcDbEntity
  8
1
  6
Continuous
 62
     4
100
AcDbCircle
 10
257.0093356336
 20
204.2653835374
 30
0.0
 40
1.499997
100
AcDbArc
 50
90.0
 51
180.0
  0
LINE
  5
28D
330
215
100
AcDbEntity
  8
1
  6
Continuous
 62
     4
100
AcDbLine
 10
257.0093356336
 20
205.7653805374
 30
0.0
 11
257.0093356336
 21
204.2653835374
 31
0.0
  0
LINE
  5
28E
330
215
100
AcDbEntity
  8
1
  6
Continuous
 62
     4
100
AcDbLine
 10
255.5093386336
 20
204.2653835374
 30
0.0
 11
257.0093356336
 21
204.2653835374
 31
0.0
  0
LWPOLYLINE
  5
28F
330
215
100
AcDbEntity
  8
1
  6
Continuous
 62
     4
100
AcDbPolyline
 90
       18
 70
     0
 43
0.0
 10
257.0093356336
 20
204.2653835374
 10
255.5093386336
 20
204.2653835374
 10
255.5175557741
 20
204.4221759187
 10
255.5421171669
 20
204.5772504499
 10
255.5827537123
 20
204.7289081019
 10
255.6390201878
 20
204.8754872818
 10
255.710300126
 20
205.0153820374
 10
255.7958125691
 20
205.1470596525
 10
255.8946206248
 20
205.2690774395
 10
256.0056417315
 20
205.3800985462
 10
256.1276595185
 20
205.4789066019
 10
256.2593371336
 20
205.564419045
 10
256.3992318892
 20
205.6356989832
 10
256.5458110691
 20
205.6919654587
 10
256.6974687211
 20
205.7326020041
 10
256.8525432523
 20
205.7571633969
 10
257.0093356336
 20
205.7653805374
 10
257.0093356336
 20
204.2653835374
  0
HATCH
  5
290
330
215
100
AcDbEntity
  8
1
  6
Continuous
 62
     4
100
AcDbHatch
 10
0.0
 20
0.0
 30
0.0
210
0.0
220
0.0
230
1.0
  2
SOLID
 70
     1
 71
     1
 91
        1
 92
        1
 93
       17
 72
     1
 10
257.0093356336
 20
204.2653835374
 11
255.5093386336
 21
204.2653835374
 72
     1
 10
255.5093386336
 20
204.2653835374
 11
255.5175557741
 21
204.4221759187
 72
     1
 10
255.5175557741
 20
204.4221759187
 11
255.5421171669
 21
204.5772504499
 72
     1
 10
255.5421171669
 20
204.5772504499
 11
255.5827537123
 21
204.7289081019
 72
     1
 10
255.5827537123
 20
204.7289081019
 11
255.6390201878
 21
204.8754872818
 72
     1
 10
255.6390201878
 20
204.8754872818
 11
255.710300126
 21
205.0153820374
 72
     1
 10
255.710300126
 20
205.0153820374
 11
255.7958125691
 21
205.1470596525
 72
     1
 10
255.7958125691
 20
205.1470596525
 11
255.8946206248
 21
205.2690774395
 72
     1
 10
255.8946206248
 20
205.2690774395
 11
256.0056417315
 21
205.3800985462
 72
     1
 10
256.0056417315
 20
205.3800985462
 11
256.1276595185
 21
205.4789066019
 72
     1
 10
256.1276595185
 20
205.4789066019
 11
256.2593371336
 21
205.564419045
 72
     1
 10
256.2593371336
 20
205.564419045
 11
256.3992318892
 21
205.6356989832
 72
     1
 10
256.3992318892
 20
205.6356989832
 11
256.5458110691
 21
205.6919654587
 72
     1
 10
256.5458110691
 20
205.6919654587
 11
256.6974687211
 21
205.7326020041
 72
     1
 10
256.6974687211
 20
205.7326020041
 11
256.8525432523
 21
205.7571633969
 72
     1
 10
256.8525432523
 20
205.7571633969
 11
257.0093356336
 21
205.7653805374
 72
     1
 10
257.0093356336
 20
205.7653805374
 11
257.0093356336
 21
204.2653835374
 97
        1
330
28F
 75
     0
 76
     1
 98
        1
 10
0.0
 20
0.0
  0
LWPOLYLINE
  5
291
330
215
100
AcDbEntity
  8
1
  6
Continuous
 62
     4
100
AcDbPolyline
 90
       18
 70
     0
 43
0.0
 10
257.0093356336
 20
204.2653835374
 10
258.5093326336
 20
204.2653835374
 10
258.5011154931
 20
204.1085911561
 10
258.4765541003
 20
203.9535166249
 10
258.4359175549
 20
203.8018589729
 10
258.3796510794
 20
203.655279793
 10
258.3083711412
 20
203.5153850374
 10
258.2228586981
 20
203.3837074223
 10
258.1240506424
 20
203.2616896353
 10
258.0130295357
 20
203.1506685286
 10
257.8910117487
 20
203.0518604729
 10
257.7593341336
 20
202.9663480298
 10
257.619439378
 20
202.8950680916
 10
257.4728601981
 20
202.8388016161
 10
257.3212025461
 20
202.7981650707
 10
257.1661280149001
 20
202.7736036779
 10
257.0093356336
 20
202.7653865374
 10
257.0093356336
 20
204.2653835374
  0
HATCH
  5
292
330
215
100
AcDbEntity
  8
1
  6
Continuous
 62
     4
100
AcDbHatch
 10
0.0
 20
0.0
 30
0.0
210
0.0
220
0.0
230
1.0
  2
SOLID
 70
     1
 71
     1
 91
        1
 92
        1
 93
       17
 72
     1
 10
257.0093356336
 20
204.2653835374
 11
258.5093326336
 21
204.2653835374
 72
     1
 10
258.5093326336
 20
204.2653835374
 11
258.5011154931
 21
204.1085911561
 72
     1
 10
258.5011154931
 20
204.1085911561
 11
258.4765541003
 21
203.9535166249
 72
     1
 10
258.4765541003
 20
203.9535166249
 11
258.4359175549
 21
203.8018589729
 72
     1
 10
258.4359175549
 20
203.8018589729
 11
258.3796510794
 21
203.655279793
 72
     1
 10
258.3796510794
 20
203.655279793
 11
258.3083711412
 21
203.5153850374
 72
     1
 10
258.3083711412
 20
203.5153850374
 11
258.2228586981
 21
203.3837074223
 72
     1
 10
258.2228586981
 20
203.3837074223
 11
258.1240506424
 21
203.2616896353
 72
     1
 10
258.1240506424
 20
203.2616896353
 11
258.0130295357
 21
203.1506685286
 72
     1
 10
258.0130295357
 20
203.1506685286
 11
257.8910117487
 21
203.0518604729
 72
     1
 10
257.8910117487
 20
203.0518604729
 11
257.7593341336
 21
202.9663480298
 72
     1
 10
257.7593341336
 20
202.9663480298
 11
257.619439378
 21
202.8950680916
 72
     1
 10
257.619439378
 20
202.8950680916
 11
257.4728601981
 21
202.8388016161
 72
     1
 10
257.4728601981
 20
202.8388016161
 11
257.3212025461
 21
202.7981650707
 72
     1
 10
257.3212025461
 20
202.7981650707
 11
257.1661280149001
 21
202.7736036779
 72
     1
 10
257.1661280149001
 20
202.7736036779
 11
257.0093356336
 21
202.7653865374
 72
     1
 10
257.0093356336
 20
202.7653865374
 11
257.0093356336
 21
204.2653835374
 97
        1
330
291
 75
     0
 76
     1
 98
        1
 10
0.0
 20
0.0
  0
LINE
  5
293
330
215
100
AcDbEntity
  8
1
  6
Continuous
 62
     4
100
AcDbLine
 10
257.0093356336
 20
202.7653865374
 30
0.0
 11
257.0093356336
 21
204.2653835374
 31
0.0
  0
ARC
  5
294
330
215
100
AcDbEntity
  8
1
  6
Continuous
 62
     4
100
AcDbCircle
 10
257.0093356336
 20
204.2653835374
 30
0.0
 40
1.499997
100
AcDbArc
 50
270.0
 51
360.0
  0
LINE
  5
295
330
215
100
AcDbEntity
  8
1
  6
Continuous
 62
     4
100
AcDbLine
 10
258.5093326336
 20
204.2653835374
 30
0.0
 11
257.0093356336
 21
204.2653835374
 31
0.0
  0
ENDBLK
  5
296
330
215
100
AcDbEntity
  8
0
  6
ByBlock
 62
     0
100
AcDbBlockEnd
  0
BLOCK
  5
30D
330
30C
100
AcDbEntity
  8
1
  6
Continuous
 62
     3
100
AcDbBlockBegin
  2
NULLPUNKT_BL0
 70
     0
 10
156.50010735
 20
143.0
 30
0.0
  3
NULLPUNKT_BL0
  1

  0
LINE
  5
30E
330
30C
100
AcDbEntity
  8
1
  6
Continuous
 62
     4
100
AcDbLine
 10
156.50010735
 20
143.0
 30
0.0
 11
158.00010435
 21
143.0
 31
0.0
  0
ARC
  5
30F
330
30C
100
AcDbEntity
  8
1
  6
Continuous
 62
     4
100
AcDbCircle
 10
156.50010735
 20
143.0
 30
0.0
 40
1.499997
100
AcDbArc
 50
180.0
 51
270.0
  0
LINE
  5
310
330
30C
100
AcDbEntity
  8
1
  6
Continuous
 62
     4
100
AcDbLine
 10
156.50010735
 20
143.0
 30
0.0
 11
156.50010735
 21
141.500003
 31
0.0
  0
ARC
  5
311
330
30C
100
AcDbEntity
  8
1
  6
Continuous
 62
     4
100
AcDbCircle
 10
156.50010735
 20
143.0
 30
0.0
 40
1.499997
100
AcDbArc
 50
270.0
 51
360.0
  0
ARC
  5
312
330
30C
100
AcDbEntity
  8
1
  6
Continuous
 62
     4
100
AcDbCircle
 10
156.50010735
 20
143.0
 30
0.0
 40
1.499997
100
AcDbArc
 50
0.0
 51
90.0
  0
ARC
  5
313
330
30C
100
AcDbEntity
  8
1
  6
Continuous
 62
     4
100
AcDbCircle
 10
156.50010735
 20
143.0
 30
0.0
 40
1.499997
100
AcDbArc
 50
90.0
 51
180.0
  0
LINE
  5
314
330
30C
100
AcDbEntity
  8
1
  6
Continuous
 62
     4
100
AcDbLine
 10
156.50010735
 20
144.499997
 30
0.0
 11
156.50010735
 21
143.0
 31
0.0
  0
LINE
  5
315
330
30C
100
AcDbEntity
  8
1
  6
Continuous
 62
     4
100
AcDbLine
 10
155.00011035
 20
143.0
 30
0.0
 11
156.50010735
 21
143.0
 31
0.0
  0
LWPOLYLINE
  5
316
330
30C
100
AcDbEntity
  8
1
  6
Continuous
 62
     4
100
AcDbPolyline
 90
       18
 70
     0
 43
0.0
 10
156.50010735
 20
143.0
 10
155.00011035
 20
143.0
 10
155.0083274905
 20
143.1567923813
 10
155.0328888833
 20
143.3118669125
 10
155.0735254287
 20
143.4635245645
 10
155.1297919042
 20
143.6101037444
 10
155.2010718424
 20
143.7499985
 10
155.2865842855
 20
143.8816761151
 10
155.3853923412
 20
144.0036939021
 10
155.4964134479
 20
144.1147150088
 10
155.6184312349
 20
144.2135230645
 10
155.75010885
 20
144.2990355076
 10
155.8900036056
 20
144.3703154458
 10
156.0365827855
 20
144.4265819213
 10
156.1882404375
 20
144.4672184667
 10
156.3433149687
 20
144.4917798595
 10
156.50010735
 20
144.499997
 10
156.50010735
 20
143.0
  0
HATCH
  5
317
330
30C
100
AcDbEntity
  8
1
  6
Continuous
 62
     4
100
AcDbHatch
 10
0.0
 20
0.0
 30
0.0
210
0.0
220
0.0
230
1.0
  2
SOLID
 70
     1
 71
     0
 91
        1
 92
        1
 93
       17
 72
     1
 10
156.50010735
 20
143.0
 11
155.00011035
 21
143.0
 72
     1
 10
155.00011035
 20
143.0
 11
155.0083274905
 21
143.1567923813
 72
     1
 10
155.0083274905
 20
143.1567923813
 11
155.0328888833
 21
143.3118669125
 72
     1
 10
155.0328888833
 20
143.3118669125
 11
155.0735254287
 21
143.4635245645
 72
     1
 10
155.0735254287
 20
143.4635245645
 11
155.1297919042
 21
143.6101037444
 72
     1
 10
155.1297919042
 20
143.6101037444
 11
155.2010718424
 21
143.7499985
 72
     1
 10
155.2010718424
 20
143.7499985
 11
155.2865842855
 21
143.8816761151
 72
     1
 10
155.2865842855
 20
143.8816761151
 11
155.3853923412
 21
144.0036939021
 72
     1
 10
155.3853923412
 20
144.0036939021
 11
155.4964134479
 21
144.1147150088
 72
     1
 10
155.4964134479
 20
144.1147150088
 11
155.6184312349
 21
144.2135230645
 72
     1
 10
155.6184312349
 20
144.2135230645
 11
155.75010885
 21
144.2990355076
 72
     1
 10
155.75010885
 20
144.2990355076
 11
155.8900036056
 21
144.3703154458
 72
     1
 10
155.8900036056
 20
144.3703154458
 11
156.0365827855
 21
144.4265819213
 72
     1
 10
156.0365827855
 20
144.4265819213
 11
156.1882404375
 21
144.4672184667
 72
     1
 10
156.1882404375
 20
144.4672184667
 11
156.3433149687
 21
144.4917798595
 72
     1
 10
156.3433149687
 20
144.4917798595
 11
156.50010735
 21
144.499997
 72
     1
 10
156.50010735
 20
144.499997
 11
156.50010735
 21
143.0
 97
        0
 75
     0
 76
     1
 98
        1
 10
0.0
 20
0.0
  0
LWPOLYLINE
  5
318
330
30C
100
AcDbEntity
  8
1
  6
Continuous
 62
     4
100
AcDbPolyline
 90
       18
 70
     0
 43
0.0
 10
156.50010735
 20
143.0
 10
158.00010435
 20
143.0
 10
157.9918872095
 20
142.8432076187
 10
157.9673258167
 20
142.6881330875
 10
157.9266892713
 20
142.5364754355
 10
157.8704227958
 20
142.3898962556
 10
157.7991428576
 20
142.2500015
 10
157.7136304145
 20
142.1183238849
 10
157.6148223587999
 20
141.9963060979
 10
157.5038012521
 20
141.8852849912
 10
157.3817834651
 20
141.7864769355
 10
157.25010585
 20
141.7009644924
 10
157.1102110944
 20
141.6296845542
 10
156.9636319145
 20
141.5734180787
 10
156.8119742625
 20
141.5327815333
 10
156.6568997313
 20
141.5082201405
 10
156.50010735
 20
141.500003
 10
156.50010735
 20
143.0
  0
HATCH
  5
319
330
30C
100
AcDbEntity
  8
1
  6
Continuous
 62
     4
100
AcDbHatch
 10
0.0
 20
0.0
 30
0.0
210
0.0
220
0.0
230
1.0
  2
SOLID
 70
     1
 71
     0
 91
        1
 92
        1
 93
       17
 72
     1
 10
156.50010735
 20
143.0
 11
158.00010435
 21
143.0
 72
     1
 10
158.00010435
 20
143.0
 11
157.9918872095
 21
142.8432076187
 72
     1
 10
157.9918872095
 20
142.8432076187
 11
157.9673258167
 21
142.6881330875
 72
     1
 10
157.9673258167
 20
142.6881330875
 11
157.9266892713
 21
142.5364754355
 72
     1
 10
157.9266892713
 20
142.5364754355
 11
157.8704227958
 21
142.3898962556
 72
     1
 10
157.8704227958
 20
142.3898962556
 11
157.7991428576
 21
142.2500015
 72
     1
 10
157.7991428576
 20
142.2500015
 11
157.7136304145
 21
142.1183238849
 72
     1
 10
157.7136304145
 20
142.1183238849
 11
157.6148223587999
 21
141.9963060979
 72
     1
 10
157.6148223587999
 20
141.9963060979
 11
157.5038012521
 21
141.8852849912
 72
     1
 10
157.5038012521
 20
141.8852849912
 11
157.3817834651
 21
141.7864769355
 72
     1
 10
157.3817834651
 20
141.7864769355
 11
157.25010585
 21
141.7009644924
 72
     1
 10
157.25010585
 20
141.7009644924
 11
157.1102110944
 21
141.6296845542
 72
     1
 10
157.1102110944
 20
141.6296845542
 11
156.9636319145
 21
141.5734180787
 72
     1
 10
156.9636319145
 20
141.5734180787
 11
156.8119742625
 21
141.5327815333
 72
     1
 10
156.8119742625
 20
141.5327815333
 11
156.6568997313
 21
141.5082201405
 72
     1
 10
156.6568997313
 20
141.5082201405
 11
156.50010735
 21
141.500003
 72
     1
 10
156.50010735
 20
141.500003
 11
156.50010735
 21
143.0
 97
        0
 75
     0
 76
     1
 98
        1
 10
0.0
 20
0.0
  0
LINE
  5
31A
330
30C
100
AcDbEntity
  8
1
  6
Continuous
 62
     4
100
AcDbLine
 10
156.50010735
 20
141.500003
 30
0.0
 11
156.50010735
 21
143.0
 31
0.0
  0
ARC
  5
31B
330
30C
100
AcDbEntity
  8
1
  6
Continuous
 62
     4
100
AcDbCircle
 10
156.50010735
 20
143.0
 30
0.0
 40
1.499997
100
AcDbArc
 50
270.0
 51
360.0
  0
LINE
  5
31C
330
30C
100
AcDbEntity
  8
1
  6
Continuous
 62
     4
100
AcDbLine
 10
158.00010435
 20
143.0
 30
0.0
 11
156.50010735
 21
143.0
 31
0.0
  0
ENDBLK
  5
31D
330
30C
100
AcDbEntity
  8
0
  6
ByBlock
 62
     0
100
AcDbBlockEnd
  0
BLOCK
  5
31F
330
31E
100
AcDbEntity
  8
1
  6
Continuous
 62
     3
100
AcDbBlockBegin
  2
EINFUEGEPUNKT_BL1
 70
     0
 10
173.50010735
 20
143.0
 30
0.0
  3
EINFUEGEPUNKT_BL1
  1

  0
LINE
  5
320
330
31E
100
AcDbEntity
  8
1
  6
Continuous
 62
     4
100
AcDbLine
 10
173.50010735
 20
143.0
 30
0.0
 11
173.50010735
 21
142.500001
 31
0.0
  0
ARC
  5
321
330
31E
100
AcDbEntity
  8
1
  6
Continuous
 62
     4
100
AcDbCircle
 10
173.50010735
 20
143.0
 30
0.0
 40
0.4999990000000001
100
AcDbArc
 50
90.0
 51
180.0
  0
LINE
  5
322
330
31E
100
AcDbEntity
  8
1
  6
Continuous
 62
     4
100
AcDbLine
 10
173.50010735
 20
143.0
 30
0.0
 11
173.00010835
 21
143.0
 31
0.0
  0
ARC
  5
323
330
31E
100
AcDbEntity
  8
1
  6
Continuous
 62
     4
100
AcDbCircle
 10
173.50010735
 20
143.0
 30
0.0
 40
0.4999990000000001
100
AcDbArc
 50
180.0
 51
270.0
  0
ARC
  5
324
330
31E
100
AcDbEntity
  8
1
  6
Continuous
 62
     4
100
AcDbCircle
 10
173.50010735
 20
143.0
 30
0.0
 40
0.4999990000000001
100
AcDbArc
 50
270.0
 51
360.0
  0
ARC
  5
325
330
31E
100
AcDbEntity
  8
1
  6
Continuous
 62
     4
100
AcDbCircle
 10
173.50010735
 20
143.0
 30
0.0
 40
0.4999990000000001
100
AcDbArc
 50
0.0
 51
90.0
  0
LINE
  5
326
330
31E
100
AcDbEntity
  8
1
  6
Continuous
 62
     4
100
AcDbLine
 10
174.00010635
 20
143.0
 30
0.0
 11
173.50010735
 21
143.0
 31
0.0
  0
LINE
  5
327
330
31E
100
AcDbEntity
  8
1
  6
Continuous
 62
     4
100
AcDbLine
 10
173.50010735
 20
143.499999
 30
0.0
 11
173.50010735
 21
143.0
 31
0.0
  0
LWPOLYLINE
  5
328
330
31E
100
AcDbEntity
  8
1
  6
Continuous
 62
     4
100
AcDbPolyline
 90
       18
 70
     0
 43
0.0
 10
173.50010735
 20
143.0
 10
173.50010735
 20
143.499999
 10
173.5523714771
 20
143.4972599532
 10
173.6040629875
 20
143.4890728222
 10
173.6546155382
 20
143.4755273071
 10
173.7034752648
 20
143.4567718153
 10
173.75010685
 20
143.4330118359
 10
173.7939993884
 20
143.4045076882
 10
173.834671984
 20
143.3715716696
 10
173.8716790196
 20
143.334564634
 10
173.9046150382
 20
143.2938920384
 10
173.9331191859
 20
143.2499995
 10
173.9568791653
 20
143.2033679148
 10
173.9756346571
 20
143.1545081882
 10
173.9891801722
 20
143.1039556375
 10
173.9973673032
 20
143.0522641271
 10
174.00010635
 20
143.0
 10
173.50010735
 20
143.0
  0
HATCH
  5
329
330
31E
100
AcDbEntity
  8
1
  6
Continuous
 62
     4
100
AcDbHatch
 10
0.0
 20
0.0
 30
0.0
210
0.0
220
0.0
230
1.0
  2
SOLID
 70
     1
 71
     0
 91
        1
 92
        1
 93
       17
 72
     1
 10
173.50010735
 20
143.0
 11
173.50010735
 21
143.499999
 72
     1
 10
173.50010735
 20
143.499999
 11
173.5523714771
 21
143.4972599532
 72
     1
 10
173.5523714771
 20
143.4972599532
 11
173.6040629875
 21
143.4890728222
 72
     1
 10
173.6040629875
 20
143.4890728222
 11
173.6546155382
 21
143.4755273071
 72
     1
 10
173.6546155382
 20
143.4755273071
 11
173.7034752648
 21
143.4567718153
 72
     1
 10
173.7034752648
 20
143.4567718153
 11
173.75010685
 21
143.4330118359
 72
     1
 10
173.75010685
 20
143.4330118359
 11
173.7939993884
 21
143.4045076882
 72
     1
 10
173.7939993884
 20
143.4045076882
 11
173.834671984
 21
143.3715716696
 72
     1
 10
173.834671984
 20
143.3715716696
 11
173.8716790196
 21
143.334564634
 72
     1
 10
173.8716790196
 20
143.334564634
 11
173.9046150382
 21
143.2938920384
 72
     1
 10
173.9046150382
 20
143.2938920384
 11
173.9331191859
 21
143.2499995
 72
     1
 10
173.9331191859
 20
143.2499995
 11
173.9568791653
 21
143.2033679148
 72
     1
 10
173.9568791653
 20
143.2033679148
 11
173.9756346571
 21
143.1545081882
 72
     1
 10
173.9756346571
 20
143.1545081882
 11
173.9891801722
 21
143.1039556375
 72
     1
 10
173.9891801722
 20
143.1039556375
 11
173.9973673032
 21
143.0522641271
 72
     1
 10
173.9973673032
 20
143.0522641271
 11
174.00010635
 21
143.0
 72
     1
 10
174.00010635
 20
143.0
 11
173.50010735
 21
143.0
 97
        0
 75
     0
 76
     1
 98
        1
 10
0.0
 20
0.0
  0
LWPOLYLINE
  5
32A
330
31E
100
AcDbEntity
  8
1
  6
Continuous
 62
     4
100
AcDbPolyline
 90
       18
 70
     0
 43
0.0
 10
173.50010735
 20
143.0
 10
173.50010735
 20
142.500001
 10
173.4478432229
 20
142.5027400468
 10
173.3961517125
 20
142.5109271778
 10
173.3455991618
 20
142.5244726929
 10
173.2967394352
 20
142.5432281846999
 10
173.25010785
 20
142.5669881641
 10
173.2062153116
 20
142.5954923118
 10
173.1655427159999
 20
142.6284283304
 10
173.1285356804
 20
142.665435366
 10
173.0955996618
 20
142.7061079616
 10
173.0670955141
 20
142.7500005
 10
173.0433355347
 20
142.7966320852
 10
173.0245800429
 20
142.8454918118
 10
173.0110345277999
 20
142.8960443625
 10
173.0028473968
 20
142.9477358729
 10
173.00010835
 20
143.0
 10
173.50010735
 20
143.0
  0
HATCH
  5
32B
330
31E
100
AcDbEntity
  8
1
  6
Continuous
 62
     4
100
AcDbHatch
 10
0.0
 20
0.0
 30
0.0
210
0.0
220
0.0
230
1.0
  2
SOLID
 70
     1
 71
     0
 91
        1
 92
        1
 93
       17
 72
     1
 10
173.50010735
 20
143.0
 11
173.50010735
 21
142.500001
 72
     1
 10
173.50010735
 20
142.500001
 11
173.4478432229
 21
142.5027400468
 72
     1
 10
173.4478432229
 20
142.5027400468
 11
173.3961517125
 21
142.5109271778
 72
     1
 10
173.3961517125
 20
142.5109271778
 11
173.3455991618
 21
142.5244726929
 72
     1
 10
173.3455991618
 20
142.5244726929
 11
173.2967394352
 21
142.5432281846999
 72
     1
 10
173.2967394352
 20
142.5432281846999
 11
173.25010785
 21
142.5669881641
 72
     1
 10
173.25010785
 20
142.5669881641
 11
173.2062153116
 21
142.5954923118
 72
     1
 10
173.2062153116
 20
142.5954923118
 11
173.1655427159999
 21
142.6284283304
 72
     1
 10
173.1655427159999
 20
142.6284283304
 11
173.1285356804
 21
142.665435366
 72
     1
 10
173.1285356804
 20
142.665435366
 11
173.0955996618
 21
142.7061079616
 72
     1
 10
173.0955996618
 20
142.7061079616
 11
173.0670955141
 21
142.7500005
 72
     1
 10
173.0670955141
 20
142.7500005
 11
173.0433355347
 21
142.7966320852
 72
     1
 10
173.0433355347
 20
142.7966320852
 11
173.0245800429
 21
142.8454918118
 72
     1
 10
173.0245800429
 20
142.8454918118
 11
173.0110345277999
 21
142.8960443625
 72
     1
 10
173.0110345277999
 20
142.8960443625
 11
173.0028473968
 21
142.9477358729
 72
     1
 10
173.0028473968
 20
142.9477358729
 11
173.00010835
 21
143.0
 72
     1
 10
173.00010835
 20
143.0
 11
173.50010735
 21
143.0
 97
        0
 75
     0
 76
     1
 98
        1
 10
0.0
 20
0.0
  0
LINE
  5
32C
330
31E
100
AcDbEntity
  8
1
  6
Continuous
 62
     4
100
AcDbLine
 10
173.00010835
 20
143.0
 30
0.0
 11
173.50010735
 21
143.0
 31
0.0
  0
ARC
  5
32D
330
31E
100
AcDbEntity
  8
1
  6
Continuous
 62
     4
100
AcDbCircle
 10
173.50010735
 20
143.0
 30
0.0
 40
0.4999990000000001
100
AcDbArc
 50
180.0
 51
270.0
  0
LINE
  5
32E
330
31E
100
AcDbEntity
  8
1
  6
Continuous
 62
     4
100
AcDbLine
 10
173.50010735
 20
142.500001
 30
0.0
 11
173.50010735
 21
143.0
 31
0.0
  0
ENDBLK
  5
32F
330
31E
100
AcDbEntity
  8
0
  6
ByBlock
 62
     0
100
AcDbBlockEnd
  0
BLOCK
  5
495
330
48B
100
AcDbEntity
  8
0
100
AcDbBlockBegin
  2
*D15
 70
     1
 10
0.0
 20
0.0
 30
0.0
  3
*D15
  1

  0
LINE
  5
4F7
330
48B
100
AcDbEntity
  8
SK2
370
    -2
100
AcDbLine
 10
697.4766189592531
 20
226.4644260353289
 30
0.0
 11
718.2265116092532
 21
226.4644260353288
 31
0.0
  0
LINE
  5
4F8
330
48B
100
AcDbEntity
  8
SK2
370
    -2
100
AcDbLine
 10
697.4766189592531
 20
298.3064750039289
 30
0.0
 11
718.2265116092532
 21
298.3064750039289
 31
0.0
  0
LINE
  5
4F9
330
48B
100
AcDbEntity
  8
SK2
370
    -2
100
AcDbLine
 10
716.2265116092531
 20
229.9644260353288
 30
0.0
 11
716.2265116092534
 21
294.8064750039289
 31
0.0
  0
SOLID
  5
4FA
330
48B
100
AcDbEntity
  8
SK2
100
AcDbTrace
 10
715.6431782759198
 20
229.9644260353288
 30
0.0
 11
716.8098449425866
 21
229.9644260353288
 31
0.0
 12
716.2265116092531
 22
226.4644260353288
 32
0.0
 13
716.2265116092531
 23
226.4644260353288
 33
0.0
  0
SOLID
  5
4FB
330
48B
100
AcDbEntity
  8
SK2
100
AcDbTrace
 10
715.6431782759199
 20
294.8064750039289
 30
0.0
 11
716.8098449425867
 21
294.8064750039289
 31
0.0
 12
716.2265116092534
 22
298.3064750039289
 32
0.0
 13
716.2265116092534
 23
298.3064750039289
 33
0.0
  0
MTEXT
  5
4FC
330
48B
100
AcDbEntity
  8
SK2
100
AcDbMText
 10
713.8515116092531
 20
262.3854505196289
 30
0.0
 40
3.5
 41
0.0
 71
     5
 72
     1
  1
Lk-%%c101.6
 11
0.0000000000000001
 21
1.0
 31
0.0
 73
     1
 44
1.0
1001
ACAD
1000
MTEXTBEGIN
1070
    73
1070
     1
1070
    44
1040
1.0
1070
    74
1070
     0
1000
MTEXTEND
  0
POINT
  5
4FD
330
48B
100
AcDbEntity
  8
Defpoints
 62
     0
100
AcDbPoint
 10
696.8516189592532
 20
226.4644260353289
 30
0.0
  0
POINT
  5
4FE
330
48B
100
AcDbEntity
  8
Defpoints
 62
     0
100
AcDbPoint
 10
696.8516189592532
 20
298.3064750039289
 30
0.0
  0
POINT
  5
4FF
330
48B
100
AcDbEntity
  8
Defpoints
 62
     0
100
AcDbPoint
 10
716.2265116092534
 20
298.3064750039289
 30
0.0
  0
ENDBLK
  5
496
330
48B
100
AcDbEntity
  8
0
100
AcDbBlockEnd
  0
BLOCK
  5
4A1
330
497
100
AcDbEntity
  8
0
100
AcDbBlockBegin
  2
*D16
 70
     1
 10
0.0
 20
0.0
 30
0.0
  3
*D16
  1

  0
LINE
  5
500
330
497
100
AcDbEntity
  8
SK2
370
    -2
100
AcDbLine
 10
631.7266189592531
 20
151.1854505196289
 30
0.0
 11
610.2264042592532
 21
151.1854505196289
 31
0.0
  0
LINE
  5
501
330
497
100
AcDbEntity
  8
SK2
370
    -2
100
AcDbLine
 10
631.7266189592531
 20
373.5854505196289
 30
0.0
 11
610.2264042592532
 21
373.5854505196289
 31
0.0
  0
LINE
  5
502
330
497
100
AcDbEntity
  8
SK2
370
    -2
100
AcDbLine
 10
612.2264042592533
 20
154.6854505196289
 30
0.0
 11
612.2264042592534
 21
370.0854505196289
 31
0.0
  0
SOLID
  5
503
330
497
100
AcDbEntity
  8
SK2
100
AcDbTrace
 10
611.6430709259199
 20
154.6854505196289
 30
0.0
 11
612.8097375925865
 21
154.6854505196289
 31
0.0
 12
612.2264042592533
 22
151.1854505196289
 32
0.0
 13
612.2264042592533
 23
151.1854505196289
 33
0.0
  0
SOLID
  5
504
330
497
100
AcDbEntity
  8
SK2
100
AcDbTrace
 10
611.64307092592
 20
370.0854505196289
 30
0.0
 11
612.8097375925867
 21
370.0854505196289
 31
0.0
 12
612.2264042592534
 22
373.5854505196289
 32
0.0
 13
612.2264042592534
 23
373.5854505196289
 33
0.0
  0
MTEXT
  5
505
330
497
100
AcDbEntity
  8
SK2
100
AcDbMText
 10
609.8514042592532
 20
262.3854505196289
 30
0.0
 40
3.5
 41
0.0
 71
     5
 72
     1
  1
%%c222.4
 11
0.0000000000000001
 21
1.0
 31
0.0
 73
     1
 44
1.0
1001
ACAD
1000
MTEXTBEGIN
1070
    73
1070
     1
1070
    44
1040
1.0
1070
    74
1070
     0
1000
MTEXTEND
  0
POINT
  5
506
330
497
100
AcDbEntity
  8
Defpoints
 62
     0
100
AcDbPoint
 10
632.3516189592531
 20
151.1854505196289
 30
0.0
  0
POINT
  5
507
330
497
100
AcDbEntity
  8
Defpoints
 62
     0
100
AcDbPoint
 10
632.3516189592531
 20
373.5854505196289
 30
0.0
  0
POINT
  5
508
330
497
100
AcDbEntity
  8
Defpoints
 62
     0
100
AcDbPoint
 10
612.2264042592534
 20
373.5854505196289
 30
0.0
  0
ENDBLK
  5
4A2
330
497
100
AcDbEntity
  8
0
100
AcDbBlockEnd
  0
BLOCK
  5
4AD
330
4A3
100
AcDbEntity
  8
0
100
AcDbBlockBegin
  2
*D17
 70
     1
 10
0.0
 20
0.0
 30
0.0
  3
*D17
  1

  0
LINE
  5
509
330
4A3
100
AcDbEntity
  8
2
370
    -2
100
AcDbLine
 10
633.3516189592532
 20
375.2104505196289
 30
0.0
 11
633.3516189592532
 21
388.2104505196289
 31
0.0
  0
LINE
  5
50A
330
4A3
100
AcDbEntity
  8
2
370
    -2
100
AcDbLine
 10
650.3516189592532
 20
375.2104505196289
 30
0.0
 11
650.3516189592532
 21
388.2104505196289
 31
0.0
  0
LINE
  5
50B
330
4A3
100
AcDbEntity
  8
2
370
    -2
100
AcDbLine
 10
636.8516189592532
 20
386.2104505196289
 30
0.0
 11
646.8516189592532
 21
386.2104505196289
 31
0.0
  0
SOLID
  5
50C
330
4A3
100
AcDbEntity
  8
2
100
AcDbTrace
 10
636.8516189592532
 20
386.7937838529622
 30
0.0
 11
636.8516189592532
 21
385.6271171862955
 31
0.0
 12
633.3516189592532
 22
386.2104505196289
 32
0.0
 13
633.3516189592532
 23
386.2104505196289
 33
0.0
  0
SOLID
  5
50D
330
4A3
100
AcDbEntity
  8
2
100
AcDbTrace
 10
646.8516189592532
 20
386.7937838529622
 30
0.0
 11
646.8516189592532
 21
385.6271171862955
 31
0.0
 12
650.3516189592532
 22
386.2104505196289
 32
0.0
 13
650.3516189592532
 23
386.2104505196289
 33
0.0
  0
MTEXT
  5
50E
330
4A3
100
AcDbEntity
  8
2
100
AcDbMText
 10
641.8516189592532
 20
388.5854505196289
 30
0.0
 40
3.5
 41
0.0
 71
     5
 72
     1
  1
17
 73
     1
 44
1.0
1001
ACAD
1000
MTEXTBEGIN
1070
    73
1070
     1
1070
    44
1040
1.0
1070
    74
1070
     0
1000
MTEXTEND
  0
POINT
  5
50F
330
4A3
100
AcDbEntity
  8
Defpoints
 62
     0
100
AcDbPoint
 10
633.3516189592532
 20
374.5854505196289
 30
0.0
  0
POINT
  5
510
330
4A3
100
AcDbEntity
  8
Defpoints
 62
     0
100
AcDbPoint
 10
650.3516189592532
 20
374.5854505196289
 30
0.0
  0
POINT
  5
511
330
4A3
100
AcDbEntity
  8
Defpoints
 62
     0
100
AcDbPoint
 10
650.3516189592532
 20
386.2104505196289
 30
0.0
  0
ENDBLK
  5
4AE
330
4A3
100
AcDbEntity
  8
0
100
AcDbBlockEnd
  0
BLOCK
  5
4B9
330
4AF
100
AcDbEntity
  8
0
100
AcDbBlockBegin
  2
*D18
 70
     1
 10
0.0
 20
0.0
 30
0.0
  3
*D18
  1

  0
LINE
  5
512
330
4AF
100
AcDbEntity
  8
SK2
370
    -2
100
AcDbLine
 10
669.4765116092532
 20
161.0354505196289
 30
0.0
 11
735.2266189592532
 21
161.0354505196288
 31
0.0
  0
LINE
  5
513
330
4AF
100
AcDbEntity
  8
SK2
370
    -2
100
AcDbLine
 10
669.4765116092532
 20
363.7354505196289
 30
0.0
 11
735.2266189592532
 21
363.7354505196289
 31
0.0
  0
LINE
  5
514
330
4AF
100
AcDbEntity
  8
SK2
370
    -2
100
AcDbLine
 10
733.2266189592531
 20
164.5354505196288
 30
0.0
 11
733.2266189592534
 21
360.2354505196289
 31
0.0
  0
SOLID
  5
515
330
4AF
100
AcDbEntity
  8
SK2
100
AcDbTrace
 10
732.6432856259198
 20
164.5354505196288
 30
0.0
 11
733.8099522925866
 21
164.5354505196288
 31
0.0
 12
733.2266189592531
 22
161.0354505196288
 32
0.0
 13
733.2266189592531
 23
161.0354505196288
 33
0.0
  0
SOLID
  5
516
330
4AF
100
AcDbEntity
  8
SK2
100
AcDbTrace
 10
732.6432856259199
 20
360.2354505196289
 30
0.0
 11
733.8099522925867
 21
360.2354505196289
 31
0.0
 12
733.2266189592534
 22
363.7354505196289
 32
0.0
 13
733.2266189592534
 23
363.7354505196289
 33
0.0
  0
MTEXT
  5
517
330
4AF
100
AcDbEntity
  8
SK2
100
AcDbMText
 10
730.8516189592531
 20
262.3854505196289
 30
0.0
 40
3.5
 41
0.0
 71
     5
 72
     1
  1
%%c202.7
 11
0.0000000000000001
 21
1.0
 31
0.0
 73
     1
 44
1.0
1001
ACAD
1000
MTEXTBEGIN
1070
    73
1070
     1
1070
    44
1040
1.0
1070
    74
1070
     0
1000
MTEXTEND
  0
POINT
  5
518
330
4AF
100
AcDbEntity
  8
Defpoints
 62
     0
100
AcDbPoint
 10
668.8515116092531
 20
161.0354505196289
 30
0.0
  0
POINT
  5
519
330
4AF
100
AcDbEntity
  8
Defpoints
 62
     0
100
AcDbPoint
 10
668.8515116092531
 20
363.7354505196289
 30
0.0
  0
POINT
  5
51A
330
4AF
100
AcDbEntity
  8
Defpoints
 62
     0
100
AcDbPoint
 10
733.2266189592534
 20
363.7354505196289
 30
0.0
  0
ENDBLK
  5
4BA
330
4AF
100
AcDbEntity
  8
0
100
AcDbBlockEnd
  0
BLOCK
  5
4C5
330
4BB
100
AcDbEntity
  8
0
100
AcDbBlockBegin
  2
*D19
 70
     1
 10
0.0
 20
0.0
 30
0.0
  3
*D19
  1

  0
LINE
  5
51B
330
4BB
100
AcDbEntity
  8
SK2
370
    -2
100
AcDbLine
 10
694.4765116092532
 20
180.7854505196289
 30
0.0
 11
726.7266189592532
 21
180.7854505196288
 31
0.0
  0
LINE
  5
51C
330
4BB
100
AcDbEntity
  8
SK2
370
    -2
100
AcDbLine
 10
694.4765116092532
 20
343.9854505196289
 30
0.0
 11
726.7266189592532
 21
343.9854505196289
 31
0.0
  0
LINE
  5
51D
330
4BB
100
AcDbEntity
  8
SK2
370
    -2
100
AcDbLine
 10
724.7266189592531
 20
184.2854505196288
 30
0.0
 11
724.7266189592534
 21
340.4854505196289
 31
0.0
  0
SOLID
  5
51E
330
4BB
100
AcDbEntity
  8
SK2
100
AcDbTrace
 10
724.1432856259198
 20
184.2854505196288
 30
0.0
 11
725.3099522925866
 21
184.2854505196288
 31
0.0
 12
724.7266189592531
 22
180.7854505196288
 32
0.0
 13
724.7266189592531
 23
180.7854505196288
 33
0.0
  0
SOLID
  5
51F
330
4BB
100
AcDbEntity
  8
SK2
100
AcDbTrace
 10
724.1432856259199
 20
340.4854505196289
 30
0.0
 11
725.3099522925867
 21
340.4854505196289
 31
0.0
 12
724.7266189592534
 22
343.9854505196289
 32
0.0
 13
724.7266189592534
 23
343.9854505196289
 33
0.0
  0
MTEXT
  5
520
330
4BB
100
AcDbEntity
  8
SK2
100
AcDbMText
 10
722.3516189592531
 20
262.3854505196289
 30
0.0
 40
3.5
 41
0.0
 71
     5
 72
     1
  1
%%c163.2
 11
0.0000000000000001
 21
1.0
 31
0.0
 73
     1
 44
1.0
1001
ACAD
1000
MTEXTBEGIN
1070
    73
1070
     1
1070
    44
1040
1.0
1070
    74
1070
     0
1000
MTEXTEND
  0
POINT
  5
521
330
4BB
100
AcDbEntity
  8
Defpoints
 62
     0
100
AcDbPoint
 10
693.8515116092531
 20
180.7854505196289
 30
0.0
  0
POINT
  5
522
330
4BB
100
AcDbEntity
  8
Defpoints
 62
     0
100
AcDbPoint
 10
693.8515116092531
 20
343.9854505196289
 30
0.0
  0
POINT
  5
523
330
4BB
100
AcDbEntity
  8
Defpoints
 62
     0
100
AcDbPoint
 10
724.7266189592534
 20
343.9854505196289
 30
0.0
  0
ENDBLK
  5
4C6
330
4BB
100
AcDbEntity
  8
0
100
AcDbBlockEnd
  0
BLOCK
  5
4D1
330
4C7
100
AcDbEntity
  8
0
100
AcDbBlockBegin
  2
*D20
 70
     1
 10
0.0
 20
0.0
 30
0.0
  3
*D20
  1

  0
LINE
  5
524
330
4C7
100
AcDbEntity
  8
SK2
370
    -2
100
AcDbLine
 10
633.3516189592532
 20
375.2104505196289
 30
0.0
 11
633.3516189592532
 21
396.7104505196289
 31
0.0
  0
LINE
  5
525
330
4C7
100
AcDbEntity
  8
SK2
370
    -2
100
AcDbLine
 10
668.4516189592532
 20
365.3604505196289
 30
0.0
 11
668.4516189592532
 21
396.7104505196289
 31
0.0
  0
LINE
  5
526
330
4C7
100
AcDbEntity
  8
SK2
370
    -2
100
AcDbLine
 10
636.8516189592532
 20
394.7104505196289
 30
0.0
 11
664.9516189592532
 21
394.7104505196289
 31
0.0
  0
SOLID
  5
527
330
4C7
100
AcDbEntity
  8
SK2
100
AcDbTrace
 10
636.8516189592532
 20
395.2937838529622
 30
0.0
 11
636.8516189592532
 21
394.1271171862955
 31
0.0
 12
633.3516189592532
 22
394.7104505196289
 32
0.0
 13
633.3516189592532
 23
394.7104505196289
 33
0.0
  0
SOLID
  5
528
330
4C7
100
AcDbEntity
  8
SK2
100
AcDbTrace
 10
664.9516189592532
 20
395.2937838529622
 30
0.0
 11
664.9516189592532
 21
394.1271171862955
 31
0.0
 12
668.4516189592532
 22
394.7104505196289
 32
0.0
 13
668.4516189592532
 23
394.7104505196289
 33
0.0
  0
MTEXT
  5
529
330
4C7
100
AcDbEntity
  8
SK2
100
AcDbMText
 10
650.9016189592532
 20
397.0854505196289
 30
0.0
 40
3.5
 41
0.0
 71
     5
 72
     1
  1
35.1
 73
     1
 44
1.0
1001
ACAD
1000
MTEXTBEGIN
1070
    73
1070
     1
1070
    44
1040
1.0
1070
    74
1070
     0
1000
MTEXTEND
  0
POINT
  5
52A
330
4C7
100
AcDbEntity
  8
Defpoints
 62
     0
100
AcDbPoint
 10
633.3516189592532
 20
374.5854505196289
 30
0.0
  0
POINT
  5
52B
330
4C7
100
AcDbEntity
  8
Defpoints
 62
     0
100
AcDbPoint
 10
668.4516189592532
 20
364.7354505196289
 30
0.0
  0
POINT
  5
52C
330
4C7
100
AcDbEntity
  8
Defpoints
 62
     0
100
AcDbPoint
 10
668.4516189592532
 20
394.7104505196289
 30
0.0
  0
ENDBLK
  5
4D2
330
4C7
100
AcDbEntity
  8
0
100
AcDbBlockEnd
  0
BLOCK
  5
4DD
330
4D3
100
AcDbEntity
  8
0
100
AcDbBlockBegin
  2
*D21
 70
     1
 10
0.0
 20
0.0
 30
0.0
  3
*D21
  1

  0
LINE
  5
52D
330
4D3
100
AcDbEntity
  8
SK2
370
    -2
100
AcDbLine
 10
693.3516189592531
 20
345.5104505196289
 30
0.0
 11
693.3516189592531
 21
405.2104505196288
 31
0.0
  0
LINE
  5
52E
330
4D3
100
AcDbEntity
  8
SK2
370
    -2
100
AcDbLine
 10
633.3516189592532
 20
375.5104505196289
 30
0.0
 11
633.3516189592532
 21
405.2104505196288
 31
0.0
  0
LINE
  5
52F
330
4D3
100
AcDbEntity
  8
SK2
370
    -2
100
AcDbLine
 10
689.8516189592531
 20
403.2104505196287
 30
0.0
 11
636.8516189592532
 21
403.2104505196287
 31
0.0
  0
SOLID
  5
530
330
4D3
100
AcDbEntity
  8
SK2
100
AcDbTrace
 10
689.8516189592531
 20
403.7937838529622
 30
0.0
 11
689.8516189592531
 21
402.6271171862955
 31
0.0
 12
693.3516189592531
 22
403.2104505196287
 32
0.0
 13
693.3516189592531
 23
403.2104505196287
 33
0.0
  0
SOLID
  5
531
330
4D3
100
AcDbEntity
  8
SK2
100
AcDbTrace
 10
636.8516189592532
 20
403.7937838529622
 30
0.0
 11
636.8516189592532
 21
402.6271171862955
 31
0.0
 12
633.3516189592532
 22
403.2104505196287
 32
0.0
 13
633.3516189592532
 23
403.2104505196287
 33
0.0
  0
MTEXT
  5
532
330
4D3
100
AcDbEntity
  8
SK2
100
AcDbMText
 10
663.3516189592532
 20
405.5854505196288
 30
0.0
 40
3.5
 41
0.0
 71
     5
 72
     1
  1
60
 73
     1
 44
1.0
1001
ACAD
1000
MTEXTBEGIN
1070
    73
1070
     1
1070
    44
1040
1.0
1070
    74
1070
     0
1000
MTEXTEND
  0
POINT
  5
533
330
4D3
100
AcDbEntity
  8
Defpoints
 62
     0
100
AcDbPoint
 10
693.3516189592531
 20
344.8854505196289
 30
0.0
  0
POINT
  5
534
330
4D3
100
AcDbEntity
  8
Defpoints
 62
     0
100
AcDbPoint
 10
633.3516189592532
 20
374.8854505196289
 30
0.0
  0
POINT
  5
535
330
4D3
100
AcDbEntity
  8
Defpoints
 62
     0
100
AcDbPoint
 10
633.3516189592532
 20
403.2104505196287
 30
0.0
  0
ENDBLK
  5
4DE
330
4D3
100
AcDbEntity
  8
0
100
AcDbBlockEnd
  0
BLOCK
  5
4E9
330
4DF
100
AcDbEntity
  8
0
100
AcDbBlockBegin
  2
*D22
 70
     1
 10
0.0
 20
0.0
 30
0.0
  3
*D22
  1

  0
LINE
  5
536
330
4DF
100
AcDbEntity
  8
SK2
370
    -2
100
AcDbLine
 10
694.9766189592532
 20
237.3854505196289
 30
0.0
 11
709.7266189592532
 21
237.3854505196288
 31
0.0
  0
LINE
  5
537
330
4DF
100
AcDbEntity
  8
SK2
370
    -2
100
AcDbLine
 10
694.9766189592532
 20
287.3854505196289
 30
0.0
 11
709.7266189592532
 21
287.3854505196289
 31
0.0
  0
LINE
  5
538
330
4DF
100
AcDbEntity
  8
SK2
370
    -2
100
AcDbLine
 10
707.7266189592531
 20
240.8854505196289
 30
0.0
 11
707.7266189592534
 21
283.8854505196289
 31
0.0
  0
SOLID
  5
539
330
4DF
100
AcDbEntity
  8
SK2
100
AcDbTrace
 10
707.1432856259198
 20
240.8854505196289
 30
0.0
 11
708.3099522925866
 21
240.8854505196289
 31
0.0
 12
707.7266189592531
 22
237.3854505196288
 32
0.0
 13
707.7266189592531
 23
237.3854505196288
 33
0.0
  0
SOLID
  5
53A
330
4DF
100
AcDbEntity
  8
SK2
100
AcDbTrace
 10
707.1432856259199
 20
283.8854505196289
 30
0.0
 11
708.3099522925867
 21
283.8854505196289
 31
0.0
 12
707.7266189592534
 22
287.3854505196289
 32
0.0
 13
707.7266189592534
 23
287.3854505196289
 33
0.0
  0
MTEXT
  5
53B
330
4DF
100
AcDbEntity
  8
SK2
100
AcDbMText
 10
705.3516189592532
 20
262.3854505196289
 30
0.0
 40
3.5
 41
0.0
 71
     5
 72
     1
  1
%%c50
 11
0.0000000000000001
 21
1.0
 31
0.0
 73
     1
 44
1.0
1001
ACAD
1000
MTEXTBEGIN
1070
    73
1070
     1
1070
    44
1040
1.0
1070
    74
1070
     0
1000
MTEXTEND
  0
POINT
  5
53C
330
4DF
100
AcDbEntity
  8
Defpoints
 62
     0
100
AcDbPoint
 10
694.3516189592531
 20
237.3854505196289
 30
0.0
  0
POINT
  5
53D
330
4DF
100
AcDbEntity
  8
Defpoints
 62
     0
100
AcDbPoint
 10
694.3516189592531
 20
287.3854505196289
 30
0.0
  0
POINT
  5
53E
330
4DF
100
AcDbEntity
  8
Defpoints
 62
     0
100
AcDbPoint
 10
707.7266189592534
 20
287.3854505196289
 30
0.0
  0
ENDBLK
  5
4EA
330
4DF
100
AcDbEntity
  8
0
100
AcDbBlockEnd
  0
BLOCK
  5
4F5
330
4EB
100
AcDbEntity
  8
0
100
AcDbBlockBegin
  2
*D23
 70
     1
 10
0.0
 20
0.0
 30
0.0
  3
*D23
  1

  0
LINE
  5
53F
330
4EB
100
AcDbEntity
  8
SK2
370
    -2
100
AcDbLine
 10
631.7266189592531
 20
232.3854505196289
 30
0.0
 11
618.7264042592532
 21
232.3854505196289
 31
0.0
  0
LINE
  5
540
330
4EB
100
AcDbEntity
  8
SK2
370
    -2
100
AcDbLine
 10
631.7266189592531
 20
292.3854505196289
 30
0.0
 11
618.7264042592532
 21
292.3854505196289
 31
0.0
  0
LINE
  5
541
330
4EB
100
AcDbEntity
  8
SK2
370
    -2
100
AcDbLine
 10
620.7264042592533
 20
235.8854505196289
 30
0.0
 11
620.7264042592534
 21
288.8854505196288
 31
0.0
  0
SOLID
  5
542
330
4EB
100
AcDbEntity
  8
SK2
100
AcDbTrace
 10
620.1430709259199
 20
235.8854505196289
 30
0.0
 11
621.3097375925865
 21
235.8854505196289
 31
0.0
 12
620.7264042592533
 22
232.3854505196289
 32
0.0
 13
620.7264042592533
 23
232.3854505196289
 33
0.0
  0
SOLID
  5
543
330
4EB
100
AcDbEntity
  8
SK2
100
AcDbTrace
 10
620.14307092592
 20
288.8854505196288
 30
0.0
 11
621.3097375925867
 21
288.8854505196288
 31
0.0
 12
620.7264042592534
 22
292.3854505196289
 32
0.0
 13
620.7264042592534
 23
292.3854505196289
 33
0.0
  0
MTEXT
  5
544
330
4EB
100
AcDbEntity
  8
SK2
100
AcDbMText
 10
618.3514042592532
 20
262.3854505196289
 30
0.0
 40
3.5
 41
0.0
 71
     5
 72
     1
  1
%%c60
 11
0.0000000000000001
 21
1.0
 31
0.0
 73
     1
 44
1.0
1001
ACAD
1000
MTEXTBEGIN
1070
    73
1070
     1
1070
    44
1040
1.0
1070
    74
1070
     0
1000
MTEXTEND
  0
POINT
  5
545
330
4EB
100
AcDbEntity
  8
Defpoints
 62
     0
100
AcDbPoint
 10
632.3516189592531
 20
232.3854505196289
 30
0.0
  0
POINT
  5
546
330
4EB
100
AcDbEntity
  8
Defpoints
 62
     0
100
AcDbPoint
 10
632.3516189592531
 20
292.3854505196289
 30
0.0
  0
POINT
  5
547
330
4EB
100
AcDbEntity
  8
Defpoints
 62
     0
100
AcDbPoint
 10
620.7264042592534
 20
292.3854505196289
 30
0.0
  0
ENDBLK
  5
4F6
330
4EB
100
AcDbEntity
  8
0
100
AcDbBlockEnd
  0
ENDSEC
  0
SECTION
  2
ENTITIES
  0
DIMENSION
  5
29A
330
1B
100
AcDbEntity
  8
SK2
100
AcDbDimension
  2
*D1
 10
82.87499999999999
 20
-35.92102448430004
 30
0.0
 11
82.87499999999999
 21
1.75
 31
0.0
 70
   160
  1
Lk-%%c101.6
 71
     5
 42
71.84204896849998
  3
ISO-25
100
AcDbAlignedDimension
 13
64.0
 23
35.92102448419996
 33
0.0
 14
64.0
 24
-35.92102448430003
 34
0.0
 50
270.0
100
AcDbRotatedDimension
  0
DIMENSION
  5
29B
330
1B
100
AcDbEntity
  8
SK2
100
AcDbDimension
  2
*D2
 10
91.37500000000001
 20
-62.86179284750002
 30
0.0
 11
91.37500000000001
 21
1.75
 31
0.0
 70
   160
  1
Lk-%%c177.8
 71
     5
 42
125.723585695
  3
ISO-25
100
AcDbAlignedDimension
 13
64.0
 23
62.86179284749997
 33
0.0
 14
64.0
 24
-62.86179284750001
 34
0.0
 50
270.0
100
AcDbRotatedDimension
  0
DIMENSION
  5
29C
330
1B
100
AcDbEntity
  8
SK2
100
AcDbDimension
  2
*D3
 10
-21.12536521049998
 20
143.6999999999999
 30
0.0
 11
-21.12536521050001
 21
0.0
 31
0.0
 70
   160
  1
%%c287.4
 71
     5
 42
287.4
  3
ISO-25
100
AcDbAlignedDimension
 13
-1.0
 23
-143.7
 33
0.0
 14
-1.0
 24
143.6999999999999
 34
0.0
 50
90.0
100
AcDbRotatedDimension
  0
DIMENSION
  5
29D
330
1B
100
AcDbEntity
  8
2
100
AcDbDimension
  2
*D4
 10
17.0
 20
156.3249999999999
 30
0.0
 11
8.5
 21
156.3249999999999
 31
0.0
 70
   160
  1
17
 71
     5
 42
17.0
  3
ISO-25
100
AcDbAlignedDimension
 13
0.0
 23
144.6999999999999
 33
0.0
 14
17.0
 24
144.6999999999999
 34
0.0
100
AcDbRotatedDimension
  0
DIMENSION
  5
29E
330
1B
100
AcDbEntity
  8
SK2
100
AcDbDimension
  2
*D5
 10
108.375
 20
133.8999999999999
 30
0.0
 11
108.375
 21
0.0
 31
0.0
 70
   160
  1
%%c267.8
 71
     5
 42
267.8000000000001
  3
ISO-25
100
AcDbAlignedDimension
 13
36.09999999999997
 23
-133.9
 33
0.0
 14
36.09999999999997
 24
133.9
 34
0.0
 50
90.0
100
AcDbRotatedDimension
  0
DIMENSION
  5
29F
330
1B
100
AcDbEntity
  8
SK2
100
AcDbDimension
  2
*D6
 10
99.87500000000004
 20
114.1
 30
0.0
 11
99.875
 21
0.0
 31
0.0
 70
   160
  1
%%c228.2
 71
     5
 42
228.2
  3
ISO-25
100
AcDbAlignedDimension
 13
61.0
 23
-114.1
 33
0.0
 14
61.0
 24
114.1
 34
0.0
 50
90.0
100
AcDbRotatedDimension
  0
DIMENSION
  5
2A0
330
1B
100
AcDbEntity
  8
SK2
100
AcDbDimension
  2
*D7
 10
35.09999999999997
 20
164.8249999999999
 30
0.0
 11
17.55
 21
164.8249999999999
 31
0.0
 70
   160
  1
35.1
 71
     5
 42
35.09999999999997
  3
ISO-25
100
AcDbAlignedDimension
 13
0.0
 23
144.6999999999999
 33
0.0
 14
35.09999999999997
 24
134.9
 34
0.0
100
AcDbRotatedDimension
  0
DIMENSION
  5
2A1
330
1B
100
AcDbEntity
  8
SK2
100
AcDbDimension
  2
*D8
 10
0.0000000000000018
 20
173.3249999999999
 30
0.0
 11
30.0
 21
173.3249999999999
 31
0.0
 70
   160
  1
60
 71
     5
 42
60.0
  3
ISO-25
100
AcDbAlignedDimension
 13
60.0
 23
115.2346164626
 33
0.0
 14
0.0
 24
144.2346164626
 34
0.0
 50
180.0
100
AcDbRotatedDimension
  0
DIMENSION
  5
2A2
330
1B
100
AcDbEntity
  8
SK2
100
AcDbDimension
  2
*D9
 10
74.375
 20
25.0
 30
0.0
 11
74.375
 21
0.0
 31
0.0
 70
   160
  1
%%c50
 71
     5
 42
50.0
  3
ISO-25
100
AcDbAlignedDimension
 13
61.0
 23
-25.0
 33
0.0
 14
61.0
 24
25.0
 34
0.0
 50
90.0
100
AcDbRotatedDimension
  0
DIMENSION
  5
2A3
330
1B
100
AcDbEntity
  8
SK2
100
AcDbDimension
  2
*D10
 10
-12.6253652105
 20
30.0
 30
0.0
 11
-12.62536521050001
 21
0.0
 31
0.0
 70
   160
  1
%%c60
 71
     5
 42
60.0
  3
ISO-25
100
AcDbAlignedDimension
 13
-1.0
 23
-30.0
 33
0.0
 14
-1.0
 24
30.0
 34
0.0
 50
90.0
100
AcDbRotatedDimension
  0
TEXT
  5
2A4
330
1B
100
AcDbEntity
  8
6
100
AcDbText
 10
4.220560283899967
 20
-167.5127154962
 30
0.0
 40
5.0
  1
FBD060CAP315SA017
 41
0.8
 72
     1
 11
28.82056028389996
 21
-167.5127154962
 31
0.0
100
AcDbText
  0
INSERT
  5
2A5
330
1B
100
AcDbEntity
  8
1
100
AcDbBlockReference
  2
EINFUEGEPUNKT_BL0
 10
17.0
 20
0.0
 30
0.0
  0
INSERT
  5
2A6
330
1B
100
AcDbEntity
  8
1
100
AcDbBlockReference
  2
NULLPUNKT_BL1
 10
0.0
 20
0.0
 30
0.0
  0
LINE
  5
2A7
330
1B
100
AcDbEntity
  8
1
100
AcDbLine
 10
16.0
 20
-143.7
 30
0.0
 11
1.0
 21
-143.7
 31
0.0
  0
LINE
  5
2A8
330
1B
100
AcDbEntity
  8
SK1
100
AcDbLine
 10
34.09999999999997
 20
-133.9
 30
0.0
 11
25.0
 21
-133.9
 31
0.0
  0
LINE
  5
2A9
330
1B
100
AcDbEntity
  8
SK1
100
AcDbLine
 10
23.0
 20
-131.9
 30
0.0
 11
18.5
 21
-131.9
 31
0.0
  0
LINE
  5
2AA
330
1B
100
AcDbEntity
  8
SK1
100
AcDbLine
 10
59.0
 20
-114.1
 30
0.0
 11
36.09999999999997
 21
-114.1
 31
0.0
  0
LINE
  5
2AB
330
1B
100
AcDbEntity
  8
SK4
100
AcDbLine
 10
63.0
 20
-62.86179284750001
 30
0.0
 11
-3.0
 21
-62.86179284750001
 31
0.0
  0
LINE
  5
2AC
330
1B
100
AcDbEntity
  8
NOCUT
100
AcDbLine
 10
0.0
 20
142.6999999999999
 30
0.0
 11
0.0
 21
0.0
 31
0.0
  0
LINE
  5
2AD
330
1B
100
AcDbEntity
  8
1
100
AcDbLine
 10
0.0
 20
142.6999999999999
 30
0.0
 11
0.0
 21
-142.7
 31
0.0
  0
LINE
  5
2AE
330
1B
100
AcDbEntity
  8
SK3
100
AcDbLine
 10
27.73819270009994
 20
79.99999999999997
 30
0.0
 11
29.0
 21
82.09999999999999
 31
0.0
  0
LINE
  5
2AF
330
1B
100
AcDbEntity
  8
SK4
100
AcDbLine
 10
63.0
 20
-35.92102448430003
 30
0.0
 11
-3.0
 21
-35.92102448430003
 31
0.0
  0
LINE
  5
2B0
330
1B
100
AcDbEntity
  8
SK3
100
AcDbLine
 10
14.0
 20
11.25
 30
0.0
 11
14.0
 21
-11.25
 31
0.0
  0
LINE
  5
2B1
330
1B
100
AcDbEntity
  8
NOCUT
100
AcDbLine
 10
17.0
 20
142.6999999999999
 30
0.0
 11
17.0
 21
0.0
 31
0.0
  0
LINE
  5
2B2
330
1B
100
AcDbEntity
  8
1
100
AcDbLine
 10
17.0
 20
142.6999999999999
 30
0.0
 11
17.0
 21
-142.7
 31
0.0
  0
LINE
  5
2B3
330
1B
100
AcDbEntity
  8
SK3
100
AcDbLine
 10
31.0
 20
-30.0
 30
0.0
 11
0.0
 21
-30.0
 31
0.0
  0
LINE
  5
2B4
330
1B
100
AcDbEntity
  8
SK3
100
AcDbLine
 10
60.0
 20
-25.0
 30
0.0
 11
46.5
 21
-25.0
 31
0.0
  0
LINE
  5
2B5
330
1B
100
AcDbEntity
  8
SK3
100
AcDbLine
 10
12.39999999999997
 20
-12.85000000000002
 30
0.0
 11
0.0
 21
-12.85000000000002
 31
0.0
  0
LINE
  5
2B6
330
1B
100
AcDbEntity
  8
SK3
100
AcDbLine
 10
46.5
 20
-12.5
 30
0.0
 11
42.0
 21
-12.5
 31
0.0
  0
LINE
  5
2B7
330
1B
100
AcDbEntity
  8
SK1
100
AcDbLine
 10
25.0
 20
-133.9
 30
0.0
 11
25.0
 21
133.9
 31
0.0
  0
LINE
  5
2B8
330
1B
100
AcDbEntity
  8
SK3
100
AcDbLine
 10
29.0
 20
82.09999999999999
 30
0.0
 11
29.0
 21
77.9
 31
0.0
  0
LINE
  5
2B9
330
1B
100
AcDbEntity
  8
SK3
100
AcDbLine
 10
31.0
 20
30.0
 30
0.0
 11
31.0
 21
-30.0
 31
0.0
  0
LINE
  5
2BA
330
1B
100
AcDbEntity
  8
SK3
100
AcDbLine
 10
34.0
 20
82.49999999999998
 30
0.0
 11
34.0
 21
77.49999999999997
 31
0.0
  0
LINE
  5
2BB
330
1B
100
AcDbEntity
  8
SK1
100
AcDbLine
 10
35.09999999999997
 20
132.9
 30
0.0
 11
35.09999999999997
 21
-132.9
 31
0.0
  0
LINE
  5
2BC
330
1B
100
AcDbEntity
  8
SK3
100
AcDbLine
 10
42.0
 20
12.5
 30
0.0
 11
42.0
 21
-12.5
 31
0.0
  0
LINE
  5
2BD
330
1B
100
AcDbEntity
  8
SK3
100
AcDbLine
 10
42.0
 20
-8.0
 30
0.0
 11
31.0
 21
-8.0
 31
0.0
  0
LINE
  5
2BE
330
1B
100
AcDbEntity
  8
SK3
100
AcDbLine
 10
42.0
 20
-6.5
 30
0.0
 11
31.0
 21
-6.5
 31
0.0
  0
LINE
  5
2BF
330
1B
100
AcDbEntity
  8
4
100
AcDbLine
 10
63.00038373959996
 20
0.0
 30
0.0
 11
-3.000367902100008
 21
0.0
 31
0.0
  0
LINE
  5
2C0
330
1B
100
AcDbEntity
  8
NOCUT
100
AcDbLine
 10
0.0
 20
0.0
 30
0.0
 11
17.0
 21
0.0
 31
0.0
  0
LINE
  5
2C1
330
1B
100
AcDbEntity
  8
SK3
100
AcDbLine
 10
42.0
 20
6.5
 30
0.0
 11
31.0
 21
6.5
 31
0.0
  0
LINE
  5
2C2
330
1B
100
AcDbEntity
  8
SK3
100
AcDbLine
 10
42.0
 20
8.0
 30
0.0
 11
31.0
 21
8.0
 31
0.0
  0
LINE
  5
2C3
330
1B
100
AcDbEntity
  8
SK3
100
AcDbLine
 10
46.0
 20
113.9147049330999
 30
0.0
 11
46.0
 21
48.09999999999998
 31
0.0
  0
LINE
  5
2C4
330
1B
100
AcDbEntity
  8
SK1
100
AcDbLine
 10
46.0
 20
113.9147049330999
 30
0.0
 11
46.0
 21
114.1
 31
0.0
  0
LINE
  5
2C5
330
1B
100
AcDbEntity
  8
SK3
100
AcDbLine
 10
46.5
 20
25.0
 30
0.0
 11
46.5
 21
-25.0
 31
0.0
  0
LINE
  5
2C6
330
1B
100
AcDbEntity
  8
SK1
100
AcDbLine
 10
60.0
 20
112.8167097551999
 30
0.0
 11
60.0
 21
-113.0988987341
 31
0.0
  0
LINE
  5
2C7
330
1B
100
AcDbEntity
  8
SK3
100
AcDbLine
 10
46.5
 20
12.5
 30
0.0
 11
42.0
 21
12.5
 31
0.0
  0
LINE
  5
2C8
330
1B
100
AcDbEntity
  8
SK3
100
AcDbLine
 10
12.39999999999997
 20
12.84999999999999
 30
0.0
 11
0.0
 21
12.84999999999999
 31
0.0
  0
LINE
  5
2C9
330
1B
100
AcDbEntity
  8
SK3
100
AcDbLine
 10
60.0
 20
25.0
 30
0.0
 11
46.5
 21
25.0
 31
0.0
  0
LINE
  5
2CA
330
1B
100
AcDbEntity
  8
SK1
100
AcDbLine
 10
67.0
 20
54.99999999999997
 30
0.0
 11
67.0
 21
105.0
 31
0.0
  0
LINE
  5
2CB
330
1B
100
AcDbEntity
  8
SK3
100
AcDbLine
 10
31.0
 20
30.0
 30
0.0
 11
0.0
 21
30.0
 31
0.0
  0
LINE
  5
2CC
330
1B
100
AcDbEntity
  8
SK4
100
AcDbLine
 10
63.0
 20
35.92102448419996
 30
0.0
 11
-3.0
 21
35.92102448419996
 31
0.0
  0
LINE
  5
2CD
330
1B
100
AcDbEntity
  8
SK3
100
AcDbLine
 10
46.5
 20
47.59999999999998
 30
0.0
 11
60.0
 21
47.59999999999998
 31
0.0
  0
LINE
  5
2CE
330
1B
100
AcDbEntity
  8
SK3
100
AcDbLine
 10
27.73819270009994
 20
79.99999999999997
 30
0.0
 11
29.0
 21
77.9
 31
0.0
  0
LINE
  5
2CF
330
1B
100
AcDbEntity
  8
SK3
100
AcDbLine
 10
46.0
 20
54.99999999999997
 30
0.0
 11
60.0
 21
54.99999999999997
 31
0.0
  0
LINE
  5
2D0
330
1B
100
AcDbEntity
  8
SK1
100
AcDbLine
 10
60.0
 20
54.99999999999997
 30
0.0
 11
67.0
 21
54.99999999999997
 31
0.0
  0
LINE
  5
2D1
330
1B
100
AcDbEntity
  8
SK4
100
AcDbLine
 10
63.0
 20
62.86179284749997
 30
0.0
 11
-3.0
 21
62.86179284749997
 31
0.0
  0
LINE
  5
2D2
330
1B
100
AcDbEntity
  8
SK3
100
AcDbLine
 10
34.0
 20
77.49999999999997
 30
0.0
 11
46.0
 21
77.49999999999997
 31
0.0
  0
LINE
  5
2D3
330
1B
100
AcDbEntity
  8
SK3
100
AcDbLine
 10
29.0
 20
77.9
 30
0.0
 11
46.0
 21
77.9
 31
0.0
  0
LINE
  5
2D4
330
1B
100
AcDbEntity
  8
SK4
100
AcDbLine
 10
70.0
 20
79.99999999999997
 30
0.0
 11
25.99066436639998
 21
79.99999999999997
 31
0.0
  0
LINE
  5
2D5
330
1B
100
AcDbEntity
  8
SK3
100
AcDbLine
 10
29.0
 20
82.09999999999999
 30
0.0
 11
46.0
 21
82.09999999999999
 31
0.0
  0
LINE
  5
2D6
330
1B
100
AcDbEntity
  8
SK3
100
AcDbLine
 10
34.0
 20
82.49999999999998
 30
0.0
 11
46.0
 21
82.49999999999998
 31
0.0
  0
LINE
  5
2D7
330
1B
100
AcDbEntity
  8
SK3
100
AcDbLine
 10
46.0
 20
105.0
 30
0.0
 11
60.0
 21
105.0
 31
0.0
  0
LINE
  5
2D8
330
1B
100
AcDbEntity
  8
SK1
100
AcDbLine
 10
60.0
 20
105.0
 30
0.0
 11
67.0
 21
105.0
 31
0.0
  0
LINE
  5
2D9
330
1B
100
AcDbEntity
  8
SK1
100
AcDbLine
 10
59.0
 20
113.8850736488
 30
0.0
 11
46.5
 21
113.8850736488
 31
0.0
  0
LINE
  5
2DA
330
1B
100
AcDbEntity
  8
SK1
100
AcDbLine
 10
46.0
 20
114.1
 30
0.0
 11
36.09999999999997
 21
114.1
 31
0.0
  0
LINE
  5
2DB
330
1B
100
AcDbEntity
  8
SK1
100
AcDbLine
 10
23.0
 20
131.9
 30
0.0
 11
18.5
 21
131.9
 31
0.0
  0
LINE
  5
2DC
330
1B
100
AcDbEntity
  8
SK1
100
AcDbLine
 10
34.09999999999997
 20
133.9
 30
0.0
 11
25.0
 21
133.9
 31
0.0
  0
LINE
  5
2DD
330
1B
100
AcDbEntity
  8
NOCUT
100
AcDbLine
 10
16.0
 20
143.6999999999999
 30
0.0
 11
1.0
 21
143.6999999999999
 31
0.0
  0
LINE
  5
2DE
330
1B
100
AcDbEntity
  8
1
100
AcDbLine
 10
16.0
 20
143.6999999999999
 30
0.0
 11
1.0
 21
143.6999999999999
 31
0.0
  0
ARC
  5
2DF
330
1B
100
AcDbEntity
  8
SK3
100
AcDbCircle
 10
46.5
 20
48.09999999999998
 30
0.0
 40
0.5
100
AcDbArc
 50
180.0
 51
270.0
  0
ARC
  5
2E0
330
1B
100
AcDbEntity
  8
SK3
100
AcDbCircle
 10
12.39999999999997
 20
11.25
 30
0.0
 40
1.6
100
AcDbArc
 50
0.0
 51
90.0
  0
ARC
  5
2E1
330
1B
100
AcDbEntity
  8
SK3
100
AcDbCircle
 10
12.39999999999997
 20
-11.25
 30
0.0
 40
1.6
100
AcDbArc
 50
270.0
 51
0.0
  0
ARC
  5
2E2
330
1B
100
AcDbEntity
  8
NOCUT
100
AcDbCircle
 10
16.0
 20
142.6999999999999
 30
0.0
 40
1.0
100
AcDbArc
 50
0.0
 51
90.0
  0
ARC
  5
2E3
330
1B
100
AcDbEntity
  8
NOCUT
100
AcDbCircle
 10
1.0
 20
142.6999999999999
 30
0.0
 40
1.0
100
AcDbArc
 50
90.0
 51
180.0
  0
ARC
  5
2E4
330
1B
100
AcDbEntity
  8
SK1
100
AcDbCircle
 10
18.5
 20
-133.9
 30
0.0
 40
2.0
100
AcDbArc
 50
90.0
 51
138.8801637484
  0
ARC
  5
2E5
330
1B
100
AcDbEntity
  8
SK1
100
AcDbCircle
 10
18.5
 20
133.9
 30
0.0
 40
2.0
100
AcDbArc
 50
221.1198362516
 51
270.0
  0
ARC
  5
2E6
330
1B
100
AcDbEntity
  8
SK1
100
AcDbCircle
 10
23.0
 20
-133.9
 30
0.0
 40
2.0
100
AcDbArc
 50
0.0
 51
90.0
  0
ARC
  5
2E7
330
1B
100
AcDbEntity
  8
SK1
100
AcDbCircle
 10
23.0
 20
133.9
 30
0.0
 40
2.0
100
AcDbArc
 50
270.0
 51
359.9999999998999
  0
ARC
  5
2E8
330
1B
100
AcDbEntity
  8
SK1
100
AcDbCircle
 10
59.0
 20
-113.1
 30
0.0
 40
1.0
100
AcDbArc
 50
270.0
 51
0.0
  0
ARC
  5
2E9
330
1B
100
AcDbEntity
  8
SK1
100
AcDbCircle
 10
34.09999999999997
 20
-132.9
 30
0.0
 40
1.0
100
AcDbArc
 50
270.0
 51
0.0
  0
ARC
  5
2EA
330
1B
100
AcDbEntity
  8
SK1
100
AcDbCircle
 10
34.09999999999997
 20
132.9
 30
0.0
 40
1.0
100
AcDbArc
 50
0.0
 51
90.0
  0
ARC
  5
2EB
330
1B
100
AcDbEntity
  8
1
100
AcDbCircle
 10
16.0
 20
-142.7
 30
0.0
 40
1.0
100
AcDbArc
 50
270.0
 51
0.0
  0
ARC
  5
2EC
330
1B
100
AcDbEntity
  8
1
100
AcDbCircle
 10
16.0
 20
142.6999999999999
 30
0.0
 40
1.0
100
AcDbArc
 50
0.0
 51
90.0
  0
ARC
  5
2ED
330
1B
100
AcDbEntity
  8
1
100
AcDbCircle
 10
1.0
 20
-142.7
 30
0.0
 40
1.0
100
AcDbArc
 50
180.0
 51
270.0
  0
ARC
  5
2EE
330
1B
100
AcDbEntity
  8
1
100
AcDbCircle
 10
1.0
 20
142.6999999999999
 30
0.0
 40
1.0
100
AcDbArc
 50
90.0
 51
180.0
  0
ARC
  5
2EF
330
1B
100
AcDbEntity
  8
SK1
100
AcDbCircle
 10
36.09999999999997
 20
-115.1
 30
0.0
 40
1.0
100
AcDbArc
 50
90.0
 51
179.9999999998
  0
ARC
  5
2F0
330
1B
100
AcDbEntity
  8
SK1
100
AcDbCircle
 10
36.09999999999997
 20
115.1
 30
0.0
 40
1.0
100
AcDbArc
 50
180.0000000001
 51
270.0
  0
SPLINE
  5
2F1
330
1B
100
AcDbEntity
  8
SK3
100
AcDbSpline
210
0.0
220
0.0
230
1.0
 70
     8
 71
     3
 72
     8
 73
     4
 74
     2
 42
0.0000000001
 43
0.0000000001
 44
0.0000000001
 12
0.0
 22
-1.0
 32
0.0
 13
0.9780012250304064
 23
-0.2085991463046394
 33
0.0
 40
0.0
 40
0.0
 40
0.0
 40
0.0
 40
0.0220748801777011
 40
0.0220748801777011
 40
0.0220748801777011
 40
0.0220748801777011
 10
46.0
 20
113.9147049330999
 30
0.0
 10
46.0
 20
113.9073466397073
 30
0.0
 10
46.00810441844791
 20
113.9003280888199
 30
0.0
 10
46.01530083839997
 20
113.8987931551
 30
0.0
 11
46.0
 21
113.9147049330999
 31
0.0
 11
46.01530083839997
 21
113.8987931551
 31
0.0
  0
SPLINE
  5
2F2
330
1B
100
AcDbEntity
  8
SK3
100
AcDbSpline
210
0.0
220
0.0
230
1.0
 70
     8
 71
     3
 72
     8
 73
     4
 74
     2
 42
0.0000000001
 43
0.0000000001
 44
0.0000000001
 12
0.9780012264008268
 22
-0.2085991398795281
 32
0.0
 13
0.9960335959593907
 23
0.0889779507530115
 33
0.0
 40
0.0
 40
0.0
 40
0.0
 40
0.0
 40
0.0516406019342882
 40
0.0516406019342882
 40
0.0516406019342882
 40
0.0516406019342882
 10
46.01530083839997
 20
113.8987931551
 30
0.0
 10
46.03213569574124
 20
113.8952024267179
 30
0.0
 10
46.0497777917526
 20
113.8986395896213
 30
0.0
 10
46.06692304989997
 20
113.9001712145999
 30
0.0
 11
46.01530083839997
 21
113.8987931551
 31
0.0
 11
46.06692304989997
 21
113.9001712145999
 31
0.0
  0
SPLINE
  5
2F3
330
1B
100
AcDbEntity
  8
SK3
100
AcDbSpline
210
0.0
220
0.0
230
1.0
 70
     8
 71
     3
 72
     8
 73
     4
 74
     2
 42
0.0000000001
 43
0.0000000001
 44
0.0000000001
 12
0.9960335957501062
 22
0.0889779530957775
 32
0.0
 13
0.9941255923897237
 23
-0.1082326501374742
 33
0.0
 40
0.0
 40
0.0
 40
0.0
 40
0.0
 40
0.1824055935976597
 40
0.1824055935976597
 40
0.1824055935976597
 40
0.1824055935976597
 10
46.06692304989997
 20
113.9001712145999
 30
0.0
 10
46.12748374965863
 20
113.9055812400504
 30
0.0
 10
46.18855410540316
 20
113.8957873082315
 30
0.0
 10
46.24899879499998
 20
113.8892065612999
 30
0.0
 11
46.06692304989997
 21
113.9001712145999
 31
0.0
 11
46.24899879499998
 21
113.8892065612999
 31
0.0
  0
SPLINE
  5
2F4
330
1B
100
AcDbEntity
  8
SK3
100
AcDbSpline
210
0.0
220
0.0
230
1.0
 70
     8
 71
     3
 72
     8
 73
     4
 74
     2
 42
0.0000000001
 43
0.0000000001
 44
0.0000000001
 12
0.9941255922570743
 22
-0.10823265135587
 32
0.0
 13
0.9999996435318115
 23
-0.0008443555236312
 33
0.0
 40
0.0
 40
0.0
 40
0.0
 40
0.0
 40
0.1208762623488978
 40
0.1208762623488978
 40
0.1208762623488978
 40
0.1208762623488978
 10
46.24899879499998
 20
113.8892065612999
 30
0.0
 10
46.28905419029912
 20
113.8848456418465
 30
0.0
 10
46.3294741619132
 20
113.8841125966466
 30
0.0
 10
46.36976623499998
 20
113.8840785758
 30
0.0
 11
46.24899879499998
 21
113.8892065612999
 31
0.0
 11
46.36976623499998
 21
113.8840785758
 31
0.0
  0
SPLINE
  5
2F5
330
1B
100
AcDbEntity
  8
SK1
100
AcDbSpline
210
0.0
220
0.0
230
1.0
 70
     8
 71
     3
 72
    12
 73
     8
 74
     6
 42
0.0000000001
 43
0.0000000001
 44
0.0000000001
 12
0.0
 22
1.0
 32
0.0
 13
-0.9981163334783742
 23
0.0613496931018138
 33
0.0
 40
0.0
 40
0.0
 40
0.0
 40
0.0
 40
0.3167606312809466
 40
0.6367109800623617
 40
0.9580141411604438
 40
1.280012553787333
 40
1.601597375127893
 40
1.601597375127893
 40
1.601597375127893
 40
1.601597375127893
 10
60.0
 20
112.8167097551999
 30
0.0
 10
60.0
 20
112.9222966322935
 30
0.0
 10
59.96607224642951
 20
113.1358096301376
 30
0.0
 10
59.82322796096589
 20
113.4263051416547
 30
0.0
 10
59.60177048503285
 20
113.6651752888873
 30
0.0
 10
59.3203321718078
 20
113.8300801306668
 30
0.0
 10
59.10699302092624
 20
113.8784972721015
 30
0.0
 10
59.0
 20
113.8850736488
 30
0.0
 11
60.0
 21
112.8167097551999
 31
0.0
 11
59.95114245729997
 21
113.1296797826
 31
0.0
 11
59.81053070489998
 21
113.4170759565
 31
0.0
 11
59.5920169341
 21
113.6526337059
 31
0.0
 11
59.31379864429999
 21
113.8147372559999
 31
0.0
 11
59.0
 21
113.8850736488
 31
0.0
  0
SPLINE
  5
2F6
330
1B
100
AcDbEntity
  8
SK1
100
AcDbSpline
210
0.0
220
0.0
230
1.0
 70
     8
 71
     3
 72
    10
 73
     6
 74
     4
 42
0.0000000001
 43
0.0000000001
 44
0.0000000001
 12
-1.0
 22
0.0
 32
0.0
 13
0.0
 23
1.0
 33
0.0
 40
0.0
 40
0.0
 40
0.0
 40
0.0
 40
0.2510352283588738
 40
0.4334408219565336
 40
0.5019238386931726
 40
0.5019238386931726
 40
0.5019238386931726
 40
0.5019238386931726
 10
46.5
 20
113.8850736488
 30
0.0
 10
46.41632159054704
 20
113.8850736488
 30
0.0
 10
46.25693005371735
 20
113.8781095225255
 30
0.0
 10
46.13209997639073
 20
113.9121611622382
 30
0.0
 10
46.0
 20
113.8918772608543
 30
0.0
 10
46.0
 20
113.9147049330999
 30
0.0
 11
46.5
 21
113.8850736488
 31
0.0
 11
46.24899879499998
 21
113.8892065612999
 31
0.0
 11
46.06692304989997
 21
113.9001712145999
 31
0.0
 11
46.0
 21
113.9147049330999
 31
0.0
  0
ENDSEC
  0
SECTION
  2
OBJECTS
  0
DICTIONARY
  5
2F7
330
0
100
AcDbDictionary
281
     1
  3
ACAD_COLOR
350
301
  3
ACAD_GROUP
350
2F8
  3
ACAD_LAYOUT
350
304
  3
ACAD_MATERIAL
350
300
  3
ACAD_MLINESTYLE
350
2F9
  3
ACAD_PLOTSETTINGS
350
305
  3
ACAD_PLOTSTYLENAME
350
2FE
  3
ACAD_TABLESTYLE
350
302
  3
ACDBHEADERROUNDTRIPXREC
350
83A
  3
AcDbVariableDictionary
350
820
  0
DICTIONARY
  5
309
330
2
100
AcDbDictionary
280
     1
281
     1
  3
ACAD_LAYERFILTERS
360
838
  3
ACLYDICTIONARY
360
837
  0
DICTIONARY
  5
301
102
{ACAD_REACTORS
330
2F7
102
}
330
2F7
100
AcDbDictionary
281
     1
  0
DICTIONARY
  5
2F8
102
{ACAD_REACTORS
330
2F7
102
}
330
2F7
100
AcDbDictionary
281
     1
  0
DICTIONARY
  5
304
102
{ACAD_REACTORS
330
2F7
102
}
330
2F7
100
AcDbDictionary
281
     1
  3
Layout1
350
307
  3
Model
350
306
  0
DICTIONARY
  5
300
102
{ACAD_REACTORS
330
2F7
102
}
330
2F7
100
AcDbDictionary
281
     1
  0
DICTIONARY
  5
2F9
102
{ACAD_REACTORS
330
2F7
102
}
330
2F7
100
AcDbDictionary
281
     1
  3
STANDARD
350
2FA
  0
DICTIONARY
  5
305
102
{ACAD_REACTORS
330
2F7
102
}
330
2F7
100
AcDbDictionary
281
     1
  0
ACDBDICTIONARYWDFLT
  5
2FE
102
{ACAD_REACTORS
330
2F7
102
}
330
2F7
100
AcDbDictionary
281
     1
  3
Normal
350
2FF
100
AcDbDictionaryWithDefault
340
2FF
  0
DICTIONARY
  5
302
102
{ACAD_REACTORS
330
2F7
102
}
330
2F7
100
AcDbDictionary
281
     1
  3
Standard
350
303
  0
DICTIONARY
  5
83A
102
{ACAD_REACTORS
330
2F7
102
}
330
2F7
100
AcDbDictionary
281
     1
  0
DICTIONARY
  5
820
102
{ACAD_REACTORS
330
2F7
102
}
330
2F7
100
AcDbDictionary
281
     1
  3
CTABLESTYLE
350
821
  3
DIMASSOC
350
822
  3
PROJECTNAME
350
823
  0
DICTIONARY
  5
838
102
{ACAD_REACTORS
330
309
102
}
330
309
100
AcDbDictionary
281
     1
  0
DICTIONARY
  5
837
102
{ACAD_REACTORS
330
309
102
}
330
309
100
AcDbDictionary
281
     1
1001
ACAD
1000
<All
  0
LAYOUT
  5
307
102
{ACAD_XDICTIONARY
360
83D
102
}
102
{ACAD_REACTORS
330
304
102
}
330
304
100
AcDbPlotSettings
  1

  2
\\ingdom02\ITB3
  4

  6

 40
0.0
 41
0.0
 42
0.0
 43
0.0
 44
0.0
 45
0.0
 46
0.0
 47
0.0
 48
0.0
 49
0.0
140
0.0
141
0.0
142
1.0
143
1.0
 70
   688
 72
     0
 73
     0
 74
     5
  7

 75
    16
147
1.0
148
0.0
149
0.0
100
AcDbLayout
  1
Layout1
 70
     1
 71
     1
 10
0.0
 20
0.0
 11
12.0
 21
9.0
 12
0.0
 22
0.0
 32
0.0
 14
1.000000000000000E+20
 24
1.000000000000000E+20
 34
1.000000000000000E+20
 15
-1.000000000000000E+20
 25
-1.000000000000000E+20
 35
-1.000000000000000E+20
146
0.0
 13
0.0
 23
0.0
 33
0.0
 16
1.0
 26
0.0
 36
0.0
 17
0.0
 27
1.0
 37
0.0
 76
     0
330
1C
  0
LAYOUT
  5
306
102
{ACAD_XDICTIONARY
360
83B
102
}
102
{ACAD_REACTORS
330
304
102
}
330
304
100
AcDbPlotSettings
  1

  2
\\ingdom02\ITB3
  4

  6

 40
0.0
 41
0.0
 42
0.0
 43
0.0
 44
0.0
 45
0.0
 46
0.0
 47
0.0
 48
0.0
 49
0.0
140
0.0
141
0.0
142
1.0
143
1.0
 70
  1712
 72
     0
 73
     0
 74
     0
  7

 75
     0
147
1.0
148
0.0
149
0.0
100
AcDbLayout
  1
Model
 70
     1
 71
     0
 10
0.0
 20
0.0
 11
12.0
 21
9.0
 12
0.0
 22
0.0
 32
0.0
 14
0.0
 24
0.0
 34
0.0
 15
0.0
 25
0.0
 35
0.0
146
0.0
 13
0.0
 23
0.0
 33
0.0
 16
1.0
 26
0.0
 36
0.0
 17
0.0
 27
1.0
 37
0.0
 76
     0
330
1B
  0
MLINESTYLE
  5
2FA
102
{ACAD_REACTORS
330
2F9
102
}
330
2F9
100
AcDbMlineStyle
  2
STANDARD
 70
     0
  3

 62
   256
 51
90.0
 52
90.0
 71
     2
 49
0.5
 62
   256
  6
BYLAYER
 49
-0.5
 62
   256
  6
BYLAYER
  0
ACDBPLACEHOLDER
  5
2FF
102
{ACAD_REACTORS
330
2FE
102
}
330
2FE
  0
TABLESTYLE
  5
303
102
{ACAD_REACTORS
330
302
102
}
330
302
100
AcDbTableStyle
  3
Standard
 70
     0
 71
     0
 40
1.5
 41
1.5
280
     0
281
     0
  7
STANDARD
140
4.5
170
     2
 62
     0
 63
     7
283
     0
274
    -2
284
     1
 64
     0
275
    -2
285
     1
 65
     0
276
    -2
286
     1
 66
     0
277
    -2
287
     1
 67
     0
278
    -2
288
     1
 68
     0
279
    -2
289
     1
 69
     0
  7
STANDARD
140
6.0
170
     5
 62
     0
 63
     7
283
     0
274
    -2
284
     1
 64
     0
275
    -2
285
     1
 65
     0
276
    -2
286
     1
 66
     0
277
    -2
287
     1
 67
     0
278
    -2
288
     1
 68
     0
279
    -2
289
     1
 69
     0
  7
STANDARD
140
4.5
170
     5
 62
     0
 63
     7
283
     0
274
    -2
284
     1
 64
     0
275
    -2
285
     1
 65
     0
276
    -2
286
     1
 66
     0
277
    -2
287
     1
 67
     0
278
    -2
288
     1
 68
     0
279
    -2
289
     1
 69
     0
  0
DICTIONARYVAR
  5
821
102
{ACAD_REACTORS
330
820
102
}
330
820
100
DictionaryVariables
280
     0
  1
STANDARD
  0
DICTIONARYVAR
  5
822
102
{ACAD_REACTORS
330
820
102
}
330
820
100
DictionaryVariables
280
     0
  1
1
  0
DICTIONARYVAR
  5
823
102
{ACAD_REACTORS
330
820
102
}
330
820
100
DictionaryVariables
280
     0
  1

  0
DICTIONARY
  5
83D
330
307
100
AcDbDictionary
280
     1
281
     1
  3
ACAD_XREC_ROUNDTRIP
360
83E
  0
DICTIONARY
  5
83B
330
306
100
AcDbDictionary
280
     1
281
     1
  3
ACAD_XREC_ROUNDTRIP
360
83C
  0
XRECORD
  5
83E
102
{ACAD_REACTORS
330
83D
102
}
330
83D
100
AcDbXrecord
280
     1
102
SHADEPLOT
 70
     0
102
SHADEPLOTRESLEVEL
 70
     2
102
SHADEPLOTCUSTOMDPI
 70
   300
  0
XRECORD
  5
83C
102
{ACAD_REACTORS
330
83B
102
}
330
83B
100
AcDbXrecord
280
     1
102
SHADEPLOT
 70
     0
102
SHADEPLOTRESLEVEL
 70
     2
102
SHADEPLOTCUSTOMDPI
 70
   300
  0
ENDSEC
  0
EOF
