  0
SECTION
  2
HEADER
  9
$ACADVER
  1
AC1015
  9
$ACADMAINTVER
 70
    20
  9
$DWGCODEPAGE
  3
ANSI_1252
  9
$INSBASE
 10
0.0
 20
0.0
 30
0.0
  9
$EXTMIN
 10
-25.27664788850314
 20
-119.1734589136492
 30
-0.0000000349181948
  9
$EXTMAX
 10
103.3710576142894
 20
144.9391854909754
 30
0.0000000814935747
  9
$LIMMIN
 10
0.0
 20
0.0
  9
$LIMMAX
 10
420.0
 20
297.0
  9
$ORTHOMODE
 70
     0
  9
$REGENMODE
 70
     1
  9
$FILLMODE
 70
     1
  9
$QTEXTMODE
 70
     0
  9
$MIRRTEXT
 70
     0
  9
$LTSCALE
 40
23.1
  9
$ATTMODE
 70
     1
  9
$TEXTSIZE
 40
0.2
  9
$TRACEWID
 40
0.05
  9
$TEXTSTYLE
  7
STANDARD
  9
$CLAYER
  8
0
  9
$CELTYPE
  6
BYLAYER
  9
$CECOLOR
 62
   256
  9
$CELTSCALE
 40
1.0
  9
$DISPSILH
 70
     0
  9
$DIMSCALE
 40
1.0
  9
$DIMASZ
 40
3.5
  9
$DIMEXO
 40
0.625
  9
$DIMDLI
 40
3.75
  9
$DIMRND
 40
0.0
  9
$DIMDLE
 40
0.0
  9
$DIMEXE
 40
2.0
  9
$DIMTP
 40
0.0
  9
$DIMTM
 40
0.0
  9
$DIMTXT
 40
3.5
  9
$DIMCEN
 40
2.5
  9
$DIMTSZ
 40
0.0
  9
$DIMTOL
 70
     0
  9
$DIMLIM
 70
     0
  9
$DIMTIH
 70
     0
  9
$DIMTOH
 70
     0
  9
$DIMSE1
 70
     0
  9
$DIMSE2
 70
     0
  9
$DIMTAD
 70
     1
  9
$DIMZIN
 70
     8
  9
$DIMBLK
  1

  9
$DIMASO
 70
     1
  9
$DIMSHO
 70
     1
  9
$DIMPOST
  1

  9
$DIMAPOST
  1

  9
$DIMALT
 70
     0
  9
$DIMALTD
 70
     3
  9
$DIMALTF
 40
0.03937007874016
  9
$DIMLFAC
 40
1.0
  9
$DIMTOFL
 70
     1
  9
$DIMTVP
 40
0.0
  9
$DIMTIX
 70
     0
  9
$DIMSOXD
 70
     0
  9
$DIMSAH
 70
     0
  9
$DIMBLK1
  1

  9
$DIMBLK2
  1

  9
$DIMSTYLE
  2
ISO-25
  9
$DIMCLRD
 70
   256
  9
$DIMCLRE
 70
   256
  9
$DIMCLRT
 70
   256
  9
$DIMTFAC
 40
1.0
  9
$DIMGAP
 40
0.625
  9
$DIMJUST
 70
     0
  9
$DIMSD1
 70
     0
  9
$DIMSD2
 70
     0
  9
$DIMTOLJ
 70
     0
  9
$DIMTZIN
 70
     8
  9
$DIMALTZ
 70
     0
  9
$DIMALTTZ
 70
     0
  9
$DIMUPT
 70
     0
  9
$DIMDEC
 70
     2
  9
$DIMTDEC
 70
     2
  9
$DIMALTU
 70
     2
  9
$DIMALTTD
 70
     3
  9
$DIMTXSTY
  7
STANDARD
  9
$DIMAUNIT
 70
     0
  9
$DIMADEC
 70
     0
  9
$DIMALTRND
 40
0.0
  9
$DIMAZIN
 70
     0
  9
$DIMDSEP
 70
    46
  9
$DIMATFIT
 70
     3
  9
$DIMFRAC
 70
     0
  9
$DIMLDRBLK
  1

  9
$DIMLUNIT
 70
     2
  9
$DIMLWD
 70
    -2
  9
$DIMLWE
 70
    -2
  9
$DIMTMOVE
 70
     0
  9
$LUNITS
 70
     2
  9
$LUPREC
 70
     4
  9
$SKETCHINC
 40
0.1
  9
$FILLETRAD
 40
0.0
  9
$AUNITS
 70
     0
  9
$AUPREC
 70
     0
  9
$MENU
  1
.
  9
$ELEVATION
 40
0.0
  9
$PELEVATION
 40
0.0
  9
$THICKNESS
 40
0.0
  9
$LIMCHECK
 70
     0
  9
$CHAMFERA
 40
0.0
  9
$CHAMFERB
 40
0.0
  9
$CHAMFERC
 40
0.0
  9
$CHAMFERD
 40
0.0
  9
$SKPOLY
 70
     0
  9
$TDCREATE
 40
2453791.287715405
  9
$TDUCREATE
 40
2453791.246048738
  9
$TDUPDATE
 40
2453791.373700764
  9
$TDUUPDATE
 40
2453791.332034097
  9
$TDINDWG
 40
0.0448986227
  9
$TDUSRTIMER
 40
0.0448986227
  9
$USRTIMER
 70
     1
  9
$ANGBASE
 50
0.0
  9
$ANGDIR
 70
     0
  9
$PDMODE
 70
     3
  9
$PDSIZE
 40
0.3125
  9
$PLINEWID
 40
0.0
  9
$SPLFRAME
 70
     0
  9
$SPLINETYPE
 70
     6
  9
$SPLINESEGS
 70
     8
  9
$HANDSEED
  5
F6B
  9
$SURFTAB1
 70
     6
  9
$SURFTAB2
 70
     6
  9
$SURFTYPE
 70
     6
  9
$SURFU
 70
     6
  9
$SURFV
 70
     6
  9
$UCSBASE
  2

  9
$UCSNAME
  2

  9
$UCSORG
 10
0.0
 20
0.0
 30
0.0
  9
$UCSXDIR
 10
1.0
 20
0.0
 30
0.0
  9
$UCSYDIR
 10
0.0
 20
1.0
 30
0.0
  9
$UCSORTHOREF
  2

  9
$UCSORTHOVIEW
 70
     0
  9
$UCSORGTOP
 10
0.0
 20
0.0
 30
0.0
  9
$UCSORGBOTTOM
 10
0.0
 20
0.0
 30
0.0
  9
$UCSORGLEFT
 10
0.0
 20
0.0
 30
0.0
  9
$UCSORGRIGHT
 10
0.0
 20
0.0
 30
0.0
  9
$UCSORGFRONT
 10
0.0
 20
0.0
 30
0.0
  9
$UCSORGBACK
 10
0.0
 20
0.0
 30
0.0
  9
$PUCSBASE
  2

  9
$PUCSNAME
  2

  9
$PUCSORG
 10
0.0
 20
0.0
 30
0.0
  9
$PUCSXDIR
 10
1.0
 20
0.0
 30
0.0
  9
$PUCSYDIR
 10
0.0
 20
1.0
 30
0.0
  9
$PUCSORTHOREF
  2

  9
$PUCSORTHOVIEW
 70
     0
  9
$PUCSORGTOP
 10
0.0
 20
0.0
 30
0.0
  9
$PUCSORGBOTTOM
 10
0.0
 20
0.0
 30
0.0
  9
$PUCSORGLEFT
 10
0.0
 20
0.0
 30
0.0
  9
$PUCSORGRIGHT
 10
0.0
 20
0.0
 30
0.0
  9
$PUCSORGFRONT
 10
0.0
 20
0.0
 30
0.0
  9
$PUCSORGBACK
 10
0.0
 20
0.0
 30
0.0
  9
$USERI1
 70
     0
  9
$USERI2
 70
     0
  9
$USERI3
 70
     0
  9
$USERI4
 70
     0
  9
$USERI5
 70
     0
  9
$USERR1
 40
0.0
  9
$USERR2
 40
0.0
  9
$USERR3
 40
0.0
  9
$USERR4
 40
0.0
  9
$USERR5
 40
0.0
  9
$WORLDVIEW
 70
     1
  9
$SHADEDGE
 70
     3
  9
$SHADEDIF
 70
    70
  9
$TILEMODE
 70
     1
  9
$MAXACTVP
 70
    64
  9
$PINSBASE
 10
0.0
 20
0.0
 30
0.0
  9
$PLIMCHECK
 70
     0
  9
$PEXTMIN
 10
1.000000000000000E+20
 20
1.000000000000000E+20
 30
1.000000000000000E+20
  9
$PEXTMAX
 10
-1.000000000000000E+20
 20
-1.000000000000000E+20
 30
-1.000000000000000E+20
  9
$PLIMMIN
 10
0.0
 20
0.0
  9
$PLIMMAX
 10
12.0
 20
9.0
  9
$UNITMODE
 70
     0
  9
$VISRETAIN
 70
     1
  9
$PLINEGEN
 70
     0
  9
$PSLTSCALE
 70
     1
  9
$TREEDEPTH
 70
  3020
  9
$CMLSTYLE
  2
STANDARD
  9
$CMLJUST
 70
     0
  9
$CMLSCALE
 40
1.0
  9
$PROXYGRAPHICS
 70
     1
  9
$MEASUREMENT
 70
     1
  9
$CELWEIGHT
370
    -1
  9
$ENDCAPS
280
     0
  9
$JOINSTYLE
280
     0
  9
$LWDISPLAY
290
     0
  9
$INSUNITS
 70
     0
  9
$HYPERLINKBASE
  1

  9
$STYLESHEET
  1
A1-A2.CTB
  9
$XEDIT
290
     1
  9
$CEPSNTYPE
380
     0
  9
$PSTYLEMODE
290
     1
  9
$FINGERPRINTGUID
  2
{6887437D-87BF-41D7-AC42-05EB31B6FDF4}
  9
$VERSIONGUID
  2
{649054A4-B8AC-4436-B16E-DE303538B2A9}
  9
$EXTNAMES
290
     1
  9
$PSVPSCALE
 40
0.0
  9
$OLESTARTUP
290
     0
  0
ENDSEC
  0
SECTION
  2
CLASSES
  0
CLASS
  1
ACDBDICTIONARYWDFLT
  2
AcDbDictionaryWithDefault
  3
ObjectDBX Classes
 90
        0
280
     0
281
     0
  0
CLASS
  1
TABLESTYLE
  2
AcDbTableStyle
  3
ObjectDBX Classes
 90
     2047
280
     0
281
     0
  0
CLASS
  1
DICTIONARYVAR
  2
AcDbDictionaryVar
  3
ObjectDBX Classes
 90
        0
280
     0
281
     0
  0
CLASS
  1
ACDBPLACEHOLDER
  2
AcDbPlaceHolder
  3
ObjectDBX Classes
 90
        0
280
     0
281
     0
  0
CLASS
  1
LAYOUT
  2
AcDbLayout
  3
ObjectDBX Classes
 90
        0
280
     0
281
     0
  0
ENDSEC
  0
SECTION
  2
TABLES
  0
TABLE
  2
VPORT
  5
8
330
0
100
AcDbSymbolTable
 70
     2
  0
VPORT
  5
F65
330
8
100
AcDbSymbolTableRecord
100
AcDbViewportTableRecord
  2
*Active
 70
     0
 10
0.0
 20
0.0
 11
1.0
 21
1.0
 12
39.04720486289316
 22
12.88286328866307
 13
0.0
 23
0.0
 14
1.0
 24
1.0
 15
0.0
 25
0.0
 16
0.0
 26
0.0
 36
1.0
 17
0.0
 27
0.0
 37
0.0
 40
266.0934892376594
 41
1.494367959949937
 42
50.0
 43
0.0
 44
0.0
 50
0.0
 51
0.0
 71
     0
 72
   100
 73
     1
 74
     1
 75
     0
 76
     0
 77
     0
 78
     0
281
     0
 65
     1
110
0.0
120
0.0
130
0.0
111
1.0
121
0.0
131
0.0
112
0.0
122
1.0
132
0.0
 79
     0
146
0.0
  0
ENDTAB
  0
TABLE
  2
LTYPE
  5
5
330
0
100
AcDbSymbolTable
 70
     3
  0
LTYPE
  5
14
330
5
100
AcDbSymbolTableRecord
100
AcDbLinetypeTableRecord
  2
BYBLOCK
 70
     0
  3

 72
    65
 73
     0
 40
0.0
  0
LTYPE
  5
15
330
5
100
AcDbSymbolTableRecord
100
AcDbLinetypeTableRecord
  2
BYLAYER
 70
     0
  3

 72
    65
 73
     0
 40
0.0
  0
LTYPE
  5
16
330
5
100
AcDbSymbolTableRecord
100
AcDbLinetypeTableRecord
  2
CONTINUOUS
 70
     0
  3
Solid line
 72
    65
 73
     0
 40
0.0
  0
LTYPE
  5
CA6
330
5
100
AcDbSymbolTableRecord
100
AcDbLinetypeTableRecord
  2
CENTER
 70
     0
  3
____ _ ____ _ ____ _ ____ _ ____ _ ____ _ ____
 72
    65
 73
     4
 40
0.6
 49
0.375
 74
     0
 49
-0.075
 74
     0
 49
0.075
 74
     0
 49
-0.075
 74
     0
  0
LTYPE
  5
CA7
330
5
100
AcDbSymbolTableRecord
100
AcDbLinetypeTableRecord
  2
HIDDEN
 70
     0
  3
- - - - - - - - - - - - - - - - - - - -
 72
    65
 73
     2
 40
0.2
 49
0.1
 74
     0
 49
-0.1
 74
     0
  0
ENDTAB
  0
TABLE
  2
LAYER
  5
2
102
{ACAD_XDICTIONARY
360
59B
102
}
330
0
100
AcDbSymbolTable
 70
    11
  0
LAYER
  5
10
330
2
100
AcDbSymbolTableRecord
100
AcDbLayerTableRecord
  2
0
 70
     0
 62
     7
  6
CONTINUOUS
370
    -3
390
30E
  0
LAYER
  5
36C
330
2
100
AcDbSymbolTableRecord
100
AcDbLayerTableRecord
  2
Defpoints
 70
     0
 62
     7
  6
CONTINUOUS
290
     0
370
    -3
390
30E
  0
LAYER
  5
CA8
330
2
100
AcDbSymbolTableRecord
100
AcDbLayerTableRecord
  2
1
 70
     0
 62
     4
  6
CONTINUOUS
370
    -3
390
30E
  0
LAYER
  5
CA9
330
2
100
AcDbSymbolTableRecord
100
AcDbLayerTableRecord
  2
2
 70
     0
 62
     7
  6
CONTINUOUS
370
    -3
390
30E
  0
LAYER
  5
CAA
330
2
100
AcDbSymbolTableRecord
100
AcDbLayerTableRecord
  2
4
 70
     0
 62
     2
  6
CENTER
370
    -3
390
30E
  0
LAYER
  5
CAB
330
2
100
AcDbSymbolTableRecord
100
AcDbLayerTableRecord
  2
6
 70
     0
 62
     5
  6
CONTINUOUS
370
    -3
390
30E
  0
LAYER
  5
CAC
330
2
100
AcDbSymbolTableRecord
100
AcDbLayerTableRecord
  2
NOCUT
 70
     0
 62
     7
  6
CONTINUOUS
370
    -3
390
30E
  0
LAYER
  5
CAD
330
2
100
AcDbSymbolTableRecord
100
AcDbLayerTableRecord
  2
SK1
 70
     0
 62
     4
  6
CONTINUOUS
370
    -3
390
30E
  0
LAYER
  5
CAE
330
2
100
AcDbSymbolTableRecord
100
AcDbLayerTableRecord
  2
SK2
 70
     0
 62
     7
  6
CONTINUOUS
370
    -3
390
30E
  0
LAYER
  5
CAF
330
2
100
AcDbSymbolTableRecord
100
AcDbLayerTableRecord
  2
SK3
 70
     0
 62
     1
  6
HIDDEN
370
    -3
390
30E
  0
LAYER
  5
CB0
330
2
100
AcDbSymbolTableRecord
100
AcDbLayerTableRecord
  2
SK4
 70
     0
 62
     2
  6
CENTER
370
    -3
390
30E
  0
ENDTAB
  0
TABLE
  2
STYLE
  5
3
330
0
100
AcDbSymbolTable
 70
     1
  0
STYLE
  5
11
330
3
100
AcDbSymbolTableRecord
100
AcDbTextStyleTableRecord
  2
STANDARD
 70
     0
 40
0.0
 41
0.8
 50
0.0
 71
     0
 42
0.2
  3
isocp.shx
  4

  0
ENDTAB
  0
TABLE
  2
VIEW
  5
6
330
0
100
AcDbSymbolTable
 70
     0
  0
ENDTAB
  0
TABLE
  2
UCS
  5
7
330
0
100
AcDbSymbolTable
 70
     0
  0
ENDTAB
  0
TABLE
  2
APPID
  5
9
330
0
100
AcDbSymbolTable
 70
     3
  0
APPID
  5
207
330
9
100
AcDbSymbolTableRecord
100
AcDbRegAppTableRecord
  2
ACAD
 70
     0
  0
APPID
  5
643
330
9
100
AcDbSymbolTableRecord
100
AcDbRegAppTableRecord
  2
ACAD_DSTYLE_DIMTEXT_FILL
 70
     0
  0
APPID
  5
BEE
330
9
100
AcDbSymbolTableRecord
100
AcDbRegAppTableRecord
  2
ACAD_PSEXT
 70
     0
  0
ENDTAB
  0
TABLE
  2
DIMSTYLE
  5
A
330
0
100
AcDbSymbolTable
 70
     2
100
AcDbDimStyleTable
 71
     2
340
36D
340
208
  0
DIMSTYLE
105
208
330
A
100
AcDbSymbolTableRecord
100
AcDbDimStyleTableRecord
  2
STANDARD
 70
     0
 41
2.5
 47
0.005
 48
0.005
 71
     1
 73
     0
 74
     0
 77
     1
 78
     8
140
3.5
178
     2
271
     3
272
     3
284
     8
340
11
341
20B
342
20B
343
20B
344
20B
  0
DIMSTYLE
105
36D
102
{ACAD_REACTORS
330
D29
330
D2A
330
D2B
330
D2C
330
D2D
330
D2E
330
D2F
330
D30
330
D31
102
}
330
A
100
AcDbSymbolTableRecord
100
AcDbDimStyleTableRecord
  2
ISO-25
 70
     0
 41
3.5
 42
0.625
 43
3.75
 44
2.0
 73
     0
 74
     0
 77
     1
 78
     8
140
3.5
141
2.5
143
0.03937007874016
147
0.625
171
     3
172
     1
176
   256
177
   256
178
   256
271
     2
272
     2
274
     3
283
     0
284
     8
340
11
  0
ENDTAB
  0
TABLE
  2
BLOCK_RECORD
  5
1
330
0
100
AcDbSymbolTable
 70
    21
  0
BLOCK_RECORD
  5
1B
330
1
100
AcDbSymbolTableRecord
100
AcDbBlockTableRecord
  2
*MODEL_SPACE
340
315
  0
BLOCK_RECORD
  5
1C
330
1
100
AcDbSymbolTableRecord
100
AcDbBlockTableRecord
  2
*PAPER_SPACE
340
316
  0
BLOCK_RECORD
  5
20B
330
1
100
AcDbSymbolTableRecord
100
AcDbBlockTableRecord
  2
_FILLED
340
0
  0
BLOCK_RECORD
  5
C16
330
1
100
AcDbSymbolTableRecord
100
AcDbBlockTableRecord
  2
NULLPUNKT_BL0
340
0
102
{BLKREFS
331
D33
102
}
  0
BLOCK_RECORD
  5
C28
330
1
100
AcDbSymbolTableRecord
100
AcDbBlockTableRecord
  2
EINFUEGEPUNKT_BL1
340
0
102
{BLKREFS
331
D34
102
}
  0
BLOCK_RECORD
  5
C3A
330
1
100
AcDbSymbolTableRecord
100
AcDbBlockTableRecord
  2
*D3
340
0
  0
BLOCK_RECORD
  5
C46
330
1
100
AcDbSymbolTableRecord
100
AcDbBlockTableRecord
  2
*D4
340
0
  0
BLOCK_RECORD
  5
C52
330
1
100
AcDbSymbolTableRecord
100
AcDbBlockTableRecord
  2
*D5
340
0
  0
BLOCK_RECORD
  5
C5E
330
1
100
AcDbSymbolTableRecord
100
AcDbBlockTableRecord
  2
*D6
340
0
  0
BLOCK_RECORD
  5
C6A
330
1
100
AcDbSymbolTableRecord
100
AcDbBlockTableRecord
  2
*D7
340
0
  0
BLOCK_RECORD
  5
C76
330
1
100
AcDbSymbolTableRecord
100
AcDbBlockTableRecord
  2
*D8
340
0
  0
BLOCK_RECORD
  5
C82
330
1
100
AcDbSymbolTableRecord
100
AcDbBlockTableRecord
  2
*D9
340
0
  0
BLOCK_RECORD
  5
C8E
330
1
100
AcDbSymbolTableRecord
100
AcDbBlockTableRecord
  2
*D10
340
0
  0
BLOCK_RECORD
  5
C9A
330
1
100
AcDbSymbolTableRecord
100
AcDbBlockTableRecord
  2
*D11
340
0
  0
BLOCK_RECORD
  5
D9D
330
1
100
AcDbSymbolTableRecord
100
AcDbBlockTableRecord
  2
*D12
340
0
  0
BLOCK_RECORD
  5
DA9
330
1
100
AcDbSymbolTableRecord
100
AcDbBlockTableRecord
  2
*D13
340
0
  0
BLOCK_RECORD
  5
DB5
330
1
100
AcDbSymbolTableRecord
100
AcDbBlockTableRecord
  2
*D14
340
0
  0
BLOCK_RECORD
  5
DC1
330
1
100
AcDbSymbolTableRecord
100
AcDbBlockTableRecord
  2
*D15
340
0
  0
BLOCK_RECORD
  5
DCD
330
1
100
AcDbSymbolTableRecord
100
AcDbBlockTableRecord
  2
*D16
340
0
  0
BLOCK_RECORD
  5
DD9
330
1
100
AcDbSymbolTableRecord
100
AcDbBlockTableRecord
  2
*D17
340
0
  0
BLOCK_RECORD
  5
DE5
330
1
100
AcDbSymbolTableRecord
100
AcDbBlockTableRecord
  2
*D18
340
0
  0
BLOCK_RECORD
  5
DF1
330
1
100
AcDbSymbolTableRecord
100
AcDbBlockTableRecord
  2
*D19
340
0
  0
BLOCK_RECORD
  5
DFD
330
1
100
AcDbSymbolTableRecord
100
AcDbBlockTableRecord
  2
*D20
340
0
  0
ENDTAB
  0
ENDSEC
  0
SECTION
  2
BLOCKS
  0
BLOCK
  5
1E
330
1B
100
AcDbEntity
  8
0
100
AcDbBlockBegin
  2
*MODEL_SPACE
 70
     0
 10
0.0
 20
0.0
 30
0.0
  3
*MODEL_SPACE
  1

  0
ENDBLK
  5
1F
330
1B
100
AcDbEntity
  8
0
100
AcDbBlockEnd
  0
BLOCK
  5
20
330
1C
100
AcDbEntity
 67
     1
  8
0
100
AcDbBlockBegin
  2
*PAPER_SPACE
 70
     0
 10
0.0
 20
0.0
 30
0.0
  3
*PAPER_SPACE
  1

  0
ENDBLK
  5
21
330
1C
100
AcDbEntity
 67
     1
  8
0
100
AcDbBlockEnd
  0
BLOCK
  5
28F
330
20B
100
AcDbEntity
  8
0
100
AcDbBlockBegin
  2
_FILLED
 70
     0
 10
0.0
 20
0.0
 30
0.0
  3
_FILLED
  1

  0
SOLID
  5
290
330
20B
100
AcDbEntity
  8
0
  6
ByBlock
 62
     0
100
AcDbTrace
 10
0.0
 20
0.0
 30
0.0
 11
-1.0
 21
0.132
 31
0.0
 12
-1.0
 22
-0.132
 32
0.0
 13
-1.0
 23
-0.132
 33
0.0
  0
ENDBLK
  5
291
330
20B
100
AcDbEntity
  8
0
  6
ByBlock
 62
     0
100
AcDbBlockEnd
  0
BLOCK
  5
C17
330
C16
100
AcDbEntity
  8
1
  6
Continuous
 62
     3
100
AcDbBlockBegin
  2
NULLPUNKT_BL0
 70
     0
 10
156.50010735
 20
143.0
 30
0.0
  3
NULLPUNKT_BL0
  1

  0
LINE
  5
C18
330
C16
100
AcDbEntity
  8
1
  6
Continuous
 62
     4
100
AcDbLine
 10
156.50010735
 20
143.0
 30
0.0
 11
158.00010435
 21
143.0
 31
0.0
  0
ARC
  5
C19
330
C16
100
AcDbEntity
  8
1
  6
Continuous
 62
     4
100
AcDbCircle
 10
156.50010735
 20
143.0
 30
0.0
 40
1.499997
100
AcDbArc
 50
180.0
 51
270.0
  0
LINE
  5
C1A
330
C16
100
AcDbEntity
  8
1
  6
Continuous
 62
     4
100
AcDbLine
 10
156.50010735
 20
143.0
 30
0.0
 11
156.50010735
 21
141.500003
 31
0.0
  0
ARC
  5
C1B
330
C16
100
AcDbEntity
  8
1
  6
Continuous
 62
     4
100
AcDbCircle
 10
156.50010735
 20
143.0
 30
0.0
 40
1.499997
100
AcDbArc
 50
270.0
 51
360.0
  0
ARC
  5
C1C
330
C16
100
AcDbEntity
  8
1
  6
Continuous
 62
     4
100
AcDbCircle
 10
156.50010735
 20
143.0
 30
0.0
 40
1.499997
100
AcDbArc
 50
0.0
 51
90.0
  0
ARC
  5
C1D
330
C16
100
AcDbEntity
  8
1
  6
Continuous
 62
     4
100
AcDbCircle
 10
156.50010735
 20
143.0
 30
0.0
 40
1.499997
100
AcDbArc
 50
90.0
 51
180.0
  0
LINE
  5
C1E
330
C16
100
AcDbEntity
  8
1
  6
Continuous
 62
     4
100
AcDbLine
 10
156.50010735
 20
144.499997
 30
0.0
 11
156.50010735
 21
143.0
 31
0.0
  0
LINE
  5
C1F
330
C16
100
AcDbEntity
  8
1
  6
Continuous
 62
     4
100
AcDbLine
 10
155.00011035
 20
143.0
 30
0.0
 11
156.50010735
 21
143.0
 31
0.0
  0
LWPOLYLINE
  5
C20
330
C16
100
AcDbEntity
  8
1
  6
Continuous
 62
     4
100
AcDbPolyline
 90
       18
 70
     0
 43
0.0
 10
156.50010735
 20
143.0
 10
155.00011035
 20
143.0
 10
155.0083274905
 20
143.1567923813
 10
155.0328888833
 20
143.3118669125
 10
155.0735254287
 20
143.4635245645
 10
155.1297919042
 20
143.6101037444
 10
155.2010718424
 20
143.7499985
 10
155.2865842855
 20
143.8816761151
 10
155.3853923412
 20
144.0036939021
 10
155.4964134479
 20
144.1147150088
 10
155.6184312349
 20
144.2135230645
 10
155.75010885
 20
144.2990355076
 10
155.8900036056
 20
144.3703154458
 10
156.0365827855
 20
144.4265819213
 10
156.1882404375
 20
144.4672184667
 10
156.3433149687
 20
144.4917798595
 10
156.50010735
 20
144.499997
 10
156.50010735
 20
143.0
  0
HATCH
  5
C21
330
C16
100
AcDbEntity
  8
1
  6
Continuous
 62
     4
100
AcDbHatch
 10
0.0
 20
0.0
 30
0.0
210
0.0
220
0.0
230
1.0
  2
SOLID
 70
     1
 71
     0
 91
        1
 92
        1
 93
       17
 72
     1
 10
156.50010735
 20
143.0
 11
155.00011035
 21
143.0
 72
     1
 10
155.00011035
 20
143.0
 11
155.0083274905
 21
143.1567923813
 72
     1
 10
155.0083274905
 20
143.1567923813
 11
155.0328888833
 21
143.3118669125
 72
     1
 10
155.0328888833
 20
143.3118669125
 11
155.0735254287
 21
143.4635245645
 72
     1
 10
155.0735254287
 20
143.4635245645
 11
155.1297919042
 21
143.6101037444
 72
     1
 10
155.1297919042
 20
143.6101037444
 11
155.2010718424
 21
143.7499985
 72
     1
 10
155.2010718424
 20
143.7499985
 11
155.2865842855
 21
143.8816761151
 72
     1
 10
155.2865842855
 20
143.8816761151
 11
155.3853923412
 21
144.0036939021
 72
     1
 10
155.3853923412
 20
144.0036939021
 11
155.4964134479
 21
144.1147150088
 72
     1
 10
155.4964134479
 20
144.1147150088
 11
155.6184312349
 21
144.2135230645
 72
     1
 10
155.6184312349
 20
144.2135230645
 11
155.75010885
 21
144.2990355076
 72
     1
 10
155.75010885
 20
144.2990355076
 11
155.8900036056
 21
144.3703154458
 72
     1
 10
155.8900036056
 20
144.3703154458
 11
156.0365827855
 21
144.4265819213
 72
     1
 10
156.0365827855
 20
144.4265819213
 11
156.1882404375
 21
144.4672184667
 72
     1
 10
156.1882404375
 20
144.4672184667
 11
156.3433149687
 21
144.4917798595
 72
     1
 10
156.3433149687
 20
144.4917798595
 11
156.50010735
 21
144.499997
 72
     1
 10
156.50010735
 20
144.499997
 11
156.50010735
 21
143.0
 97
        0
 75
     0
 76
     1
 98
        1
 10
0.0
 20
0.0
  0
LWPOLYLINE
  5
C22
330
C16
100
AcDbEntity
  8
1
  6
Continuous
 62
     4
100
AcDbPolyline
 90
       18
 70
     0
 43
0.0
 10
156.50010735
 20
143.0
 10
158.00010435
 20
143.0
 10
157.9918872095
 20
142.8432076187
 10
157.9673258167
 20
142.6881330875
 10
157.9266892713
 20
142.5364754355
 10
157.8704227958
 20
142.3898962556
 10
157.7991428576
 20
142.2500015
 10
157.7136304145
 20
142.1183238849
 10
157.6148223587999
 20
141.9963060979
 10
157.5038012521
 20
141.8852849912
 10
157.3817834651
 20
141.7864769355
 10
157.25010585
 20
141.7009644924
 10
157.1102110944
 20
141.6296845542
 10
156.9636319145
 20
141.5734180787
 10
156.8119742625
 20
141.5327815333
 10
156.6568997313
 20
141.5082201405
 10
156.50010735
 20
141.500003
 10
156.50010735
 20
143.0
  0
HATCH
  5
C23
330
C16
100
AcDbEntity
  8
1
  6
Continuous
 62
     4
100
AcDbHatch
 10
0.0
 20
0.0
 30
0.0
210
0.0
220
0.0
230
1.0
  2
SOLID
 70
     1
 71
     0
 91
        1
 92
        1
 93
       17
 72
     1
 10
156.50010735
 20
143.0
 11
158.00010435
 21
143.0
 72
     1
 10
158.00010435
 20
143.0
 11
157.9918872095
 21
142.8432076187
 72
     1
 10
157.9918872095
 20
142.8432076187
 11
157.9673258167
 21
142.6881330875
 72
     1
 10
157.9673258167
 20
142.6881330875
 11
157.9266892713
 21
142.5364754355
 72
     1
 10
157.9266892713
 20
142.5364754355
 11
157.8704227958
 21
142.3898962556
 72
     1
 10
157.8704227958
 20
142.3898962556
 11
157.7991428576
 21
142.2500015
 72
     1
 10
157.7991428576
 20
142.2500015
 11
157.7136304145
 21
142.1183238849
 72
     1
 10
157.7136304145
 20
142.1183238849
 11
157.6148223587999
 21
141.9963060979
 72
     1
 10
157.6148223587999
 20
141.9963060979
 11
157.5038012521
 21
141.8852849912
 72
     1
 10
157.5038012521
 20
141.8852849912
 11
157.3817834651
 21
141.7864769355
 72
     1
 10
157.3817834651
 20
141.7864769355
 11
157.25010585
 21
141.7009644924
 72
     1
 10
157.25010585
 20
141.7009644924
 11
157.1102110944
 21
141.6296845542
 72
     1
 10
157.1102110944
 20
141.6296845542
 11
156.9636319145
 21
141.5734180787
 72
     1
 10
156.9636319145
 20
141.5734180787
 11
156.8119742625
 21
141.5327815333
 72
     1
 10
156.8119742625
 20
141.5327815333
 11
156.6568997313
 21
141.5082201405
 72
     1
 10
156.6568997313
 20
141.5082201405
 11
156.50010735
 21
141.500003
 72
     1
 10
156.50010735
 20
141.500003
 11
156.50010735
 21
143.0
 97
        0
 75
     0
 76
     1
 98
        1
 10
0.0
 20
0.0
  0
LINE
  5
C24
330
C16
100
AcDbEntity
  8
1
  6
Continuous
 62
     4
100
AcDbLine
 10
156.50010735
 20
141.500003
 30
0.0
 11
156.50010735
 21
143.0
 31
0.0
  0
ARC
  5
C25
330
C16
100
AcDbEntity
  8
1
  6
Continuous
 62
     4
100
AcDbCircle
 10
156.50010735
 20
143.0
 30
0.0
 40
1.499997
100
AcDbArc
 50
270.0
 51
360.0
  0
LINE
  5
C26
330
C16
100
AcDbEntity
  8
1
  6
Continuous
 62
     4
100
AcDbLine
 10
158.00010435
 20
143.0
 30
0.0
 11
156.50010735
 21
143.0
 31
0.0
  0
ENDBLK
  5
C27
330
C16
100
AcDbEntity
  8
0
  6
ByBlock
 62
     0
100
AcDbBlockEnd
  0
BLOCK
  5
C29
330
C28
100
AcDbEntity
  8
1
  6
Continuous
 62
     3
100
AcDbBlockBegin
  2
EINFUEGEPUNKT_BL1
 70
     0
 10
173.50010735
 20
143.0
 30
0.0
  3
EINFUEGEPUNKT_BL1
  1

  0
LINE
  5
C2A
330
C28
100
AcDbEntity
  8
1
  6
Continuous
 62
     4
100
AcDbLine
 10
173.50010735
 20
143.0
 30
0.0
 11
173.50010735
 21
142.500001
 31
0.0
  0
ARC
  5
C2B
330
C28
100
AcDbEntity
  8
1
  6
Continuous
 62
     4
100
AcDbCircle
 10
173.50010735
 20
143.0
 30
0.0
 40
0.4999990000000001
100
AcDbArc
 50
90.0
 51
180.0
  0
LINE
  5
C2C
330
C28
100
AcDbEntity
  8
1
  6
Continuous
 62
     4
100
AcDbLine
 10
173.50010735
 20
143.0
 30
0.0
 11
173.00010835
 21
143.0
 31
0.0
  0
ARC
  5
C2D
330
C28
100
AcDbEntity
  8
1
  6
Continuous
 62
     4
100
AcDbCircle
 10
173.50010735
 20
143.0
 30
0.0
 40
0.4999990000000001
100
AcDbArc
 50
180.0
 51
270.0
  0
ARC
  5
C2E
330
C28
100
AcDbEntity
  8
1
  6
Continuous
 62
     4
100
AcDbCircle
 10
173.50010735
 20
143.0
 30
0.0
 40
0.4999990000000001
100
AcDbArc
 50
270.0
 51
360.0
  0
ARC
  5
C2F
330
C28
100
AcDbEntity
  8
1
  6
Continuous
 62
     4
100
AcDbCircle
 10
173.50010735
 20
143.0
 30
0.0
 40
0.4999990000000001
100
AcDbArc
 50
0.0
 51
90.0
  0
LINE
  5
C30
330
C28
100
AcDbEntity
  8
1
  6
Continuous
 62
     4
100
AcDbLine
 10
174.00010635
 20
143.0
 30
0.0
 11
173.50010735
 21
143.0
 31
0.0
  0
LINE
  5
C31
330
C28
100
AcDbEntity
  8
1
  6
Continuous
 62
     4
100
AcDbLine
 10
173.50010735
 20
143.499999
 30
0.0
 11
173.50010735
 21
143.0
 31
0.0
  0
LWPOLYLINE
  5
C32
330
C28
100
AcDbEntity
  8
1
  6
Continuous
 62
     4
100
AcDbPolyline
 90
       18
 70
     0
 43
0.0
 10
173.50010735
 20
143.0
 10
173.50010735
 20
143.499999
 10
173.5523714771
 20
143.4972599532
 10
173.6040629875
 20
143.4890728222
 10
173.6546155382
 20
143.4755273071
 10
173.7034752648
 20
143.4567718153
 10
173.75010685
 20
143.4330118359
 10
173.7939993884
 20
143.4045076882
 10
173.834671984
 20
143.3715716696
 10
173.8716790196
 20
143.334564634
 10
173.9046150382
 20
143.2938920384
 10
173.9331191859
 20
143.2499995
 10
173.9568791653
 20
143.2033679148
 10
173.9756346571
 20
143.1545081882
 10
173.9891801722
 20
143.1039556375
 10
173.9973673032
 20
143.0522641271
 10
174.00010635
 20
143.0
 10
173.50010735
 20
143.0
  0
HATCH
  5
C33
330
C28
100
AcDbEntity
  8
1
  6
Continuous
 62
     4
100
AcDbHatch
 10
0.0
 20
0.0
 30
0.0
210
0.0
220
0.0
230
1.0
  2
SOLID
 70
     1
 71
     0
 91
        1
 92
        1
 93
       17
 72
     1
 10
173.50010735
 20
143.0
 11
173.50010735
 21
143.499999
 72
     1
 10
173.50010735
 20
143.499999
 11
173.5523714771
 21
143.4972599532
 72
     1
 10
173.5523714771
 20
143.4972599532
 11
173.6040629875
 21
143.4890728222
 72
     1
 10
173.6040629875
 20
143.4890728222
 11
173.6546155382
 21
143.4755273071
 72
     1
 10
173.6546155382
 20
143.4755273071
 11
173.7034752648
 21
143.4567718153
 72
     1
 10
173.7034752648
 20
143.4567718153
 11
173.75010685
 21
143.4330118359
 72
     1
 10
173.75010685
 20
143.4330118359
 11
173.7939993884
 21
143.4045076882
 72
     1
 10
173.7939993884
 20
143.4045076882
 11
173.834671984
 21
143.3715716696
 72
     1
 10
173.834671984
 20
143.3715716696
 11
173.8716790196
 21
143.334564634
 72
     1
 10
173.8716790196
 20
143.334564634
 11
173.9046150382
 21
143.2938920384
 72
     1
 10
173.9046150382
 20
143.2938920384
 11
173.9331191859
 21
143.2499995
 72
     1
 10
173.9331191859
 20
143.2499995
 11
173.9568791653
 21
143.2033679148
 72
     1
 10
173.9568791653
 20
143.2033679148
 11
173.9756346571
 21
143.1545081882
 72
     1
 10
173.9756346571
 20
143.1545081882
 11
173.9891801722
 21
143.1039556375
 72
     1
 10
173.9891801722
 20
143.1039556375
 11
173.9973673032
 21
143.0522641271
 72
     1
 10
173.9973673032
 20
143.0522641271
 11
174.00010635
 21
143.0
 72
     1
 10
174.00010635
 20
143.0
 11
173.50010735
 21
143.0
 97
        0
 75
     0
 76
     1
 98
        1
 10
0.0
 20
0.0
  0
LWPOLYLINE
  5
C34
330
C28
100
AcDbEntity
  8
1
  6
Continuous
 62
     4
100
AcDbPolyline
 90
       18
 70
     0
 43
0.0
 10
173.50010735
 20
143.0
 10
173.50010735
 20
142.500001
 10
173.4478432229
 20
142.5027400468
 10
173.3961517125
 20
142.5109271778
 10
173.3455991618
 20
142.5244726929
 10
173.2967394352
 20
142.5432281846999
 10
173.25010785
 20
142.5669881641
 10
173.2062153116
 20
142.5954923118
 10
173.1655427159999
 20
142.6284283304
 10
173.1285356804
 20
142.665435366
 10
173.0955996618
 20
142.7061079616
 10
173.0670955141
 20
142.7500005
 10
173.0433355347
 20
142.7966320852
 10
173.0245800429
 20
142.8454918118
 10
173.0110345277999
 20
142.8960443625
 10
173.0028473968
 20
142.9477358729
 10
173.00010835
 20
143.0
 10
173.50010735
 20
143.0
  0
HATCH
  5
C35
330
C28
100
AcDbEntity
  8
1
  6
Continuous
 62
     4
100
AcDbHatch
 10
0.0
 20
0.0
 30
0.0
210
0.0
220
0.0
230
1.0
  2
SOLID
 70
     1
 71
     0
 91
        1
 92
        1
 93
       17
 72
     1
 10
173.50010735
 20
143.0
 11
173.50010735
 21
142.500001
 72
     1
 10
173.50010735
 20
142.500001
 11
173.4478432229
 21
142.5027400468
 72
     1
 10
173.4478432229
 20
142.5027400468
 11
173.3961517125
 21
142.5109271778
 72
     1
 10
173.3961517125
 20
142.5109271778
 11
173.3455991618
 21
142.5244726929
 72
     1
 10
173.3455991618
 20
142.5244726929
 11
173.2967394352
 21
142.5432281846999
 72
     1
 10
173.2967394352
 20
142.5432281846999
 11
173.25010785
 21
142.5669881641
 72
     1
 10
173.25010785
 20
142.5669881641
 11
173.2062153116
 21
142.5954923118
 72
     1
 10
173.2062153116
 20
142.5954923118
 11
173.1655427159999
 21
142.6284283304
 72
     1
 10
173.1655427159999
 20
142.6284283304
 11
173.1285356804
 21
142.665435366
 72
     1
 10
173.1285356804
 20
142.665435366
 11
173.0955996618
 21
142.7061079616
 72
     1
 10
173.0955996618
 20
142.7061079616
 11
173.0670955141
 21
142.7500005
 72
     1
 10
173.0670955141
 20
142.7500005
 11
173.0433355347
 21
142.7966320852
 72
     1
 10
173.0433355347
 20
142.7966320852
 11
173.0245800429
 21
142.8454918118
 72
     1
 10
173.0245800429
 20
142.8454918118
 11
173.0110345277999
 21
142.8960443625
 72
     1
 10
173.0110345277999
 20
142.8960443625
 11
173.0028473968
 21
142.9477358729
 72
     1
 10
173.0028473968
 20
142.9477358729
 11
173.00010835
 21
143.0
 72
     1
 10
173.00010835
 20
143.0
 11
173.50010735
 21
143.0
 97
        0
 75
     0
 76
     1
 98
        1
 10
0.0
 20
0.0
  0
LINE
  5
C36
330
C28
100
AcDbEntity
  8
1
  6
Continuous
 62
     4
100
AcDbLine
 10
173.00010835
 20
143.0
 30
0.0
 11
173.50010735
 21
143.0
 31
0.0
  0
ARC
  5
C37
330
C28
100
AcDbEntity
  8
1
  6
Continuous
 62
     4
100
AcDbCircle
 10
173.50010735
 20
143.0
 30
0.0
 40
0.4999990000000001
100
AcDbArc
 50
180.0
 51
270.0
  0
LINE
  5
C38
330
C28
100
AcDbEntity
  8
1
  6
Continuous
 62
     4
100
AcDbLine
 10
173.50010735
 20
142.500001
 30
0.0
 11
173.50010735
 21
143.0
 31
0.0
  0
ENDBLK
  5
C39
330
C28
100
AcDbEntity
  8
0
  6
ByBlock
 62
     0
100
AcDbBlockEnd
  0
BLOCK
  5
C3B
330
C3A
100
AcDbEntity
  8
0
100
AcDbBlockBegin
  2
*D3
 70
     1
 10
0.0
 20
0.0
 30
0.0
  3
*D3
  1

  0
LINE
  5
C3C
330
C3A
100
AcDbEntity
  8
SK2
 62
     0
370
    -2
100
AcDbLine
 10
217.5369951273944
 20
90.05853468341834
 30
0.0
 11
196.7867804273944
 21
90.05853468341834
 31
0.0
  0
LINE
  5
C3D
330
C3A
100
AcDbEntity
  8
SK2
 62
     0
370
    -2
100
AcDbLine
 10
217.5369951273944
 20
312.4585346834184
 30
0.0
 11
196.7867804273945
 21
312.4585346834184
 31
0.0
  0
LINE
  5
C3E
330
C3A
100
AcDbEntity
  8
SK2
 62
     0
370
    -2
100
AcDbLine
 10
198.0367804273944
 20
92.55853468341834
 30
0.0
 11
198.0367804273945
 21
309.9585346834183
 31
0.0
  0
SOLID
  5
C3F
330
C3A
100
AcDbEntity
  8
SK2
 62
     0
100
AcDbTrace
 10
197.6201137607278
 20
92.55853468341834
 30
0.0
 11
198.4534470940611
 21
92.55853468341834
 31
0.0
 12
198.0367804273944
 22
90.05853468341834
 32
0.0
 13
198.0367804273944
 23
90.05853468341834
 33
0.0
  0
SOLID
  5
C40
330
C3A
100
AcDbEntity
  8
SK2
 62
     0
100
AcDbTrace
 10
197.6201137607278
 20
309.9585346834183
 30
0.0
 11
198.4534470940611
 21
309.9585346834183
 31
0.0
 12
198.0367804273945
 22
312.4585346834184
 32
0.0
 13
198.0367804273945
 23
312.4585346834184
 33
0.0
  0
MTEXT
  5
C41
330
C3A
100
AcDbEntity
  8
SK2
 62
     0
100
AcDbMText
 10
196.1617804273944
 20
201.2585346834184
 30
0.0
 40
2.5
 41
0.0
 71
     5
 72
     1
  1
%%c222.4
 11
0.0000000000000001
 21
1.0
 31
0.0
 73
     1
 44
1.0
1001
ACAD
1000
MTEXTBEGIN
1070
    73
1070
     1
1070
    44
1040
1.0
1070
    74
1070
     0
1000
MTEXTEND
  0
POINT
  5
C42
330
C3A
100
AcDbEntity
  8
Defpoints
 62
     0
100
AcDbPoint
 10
218.1619951273944
 20
90.05853468341834
 30
0.0
  0
POINT
  5
C43
330
C3A
100
AcDbEntity
  8
Defpoints
 62
     0
100
AcDbPoint
 10
218.1619951273944
 20
312.4585346834184
 30
0.0
  0
POINT
  5
C44
330
C3A
100
AcDbEntity
  8
Defpoints
 62
     0
100
AcDbPoint
 10
198.0367804273945
 20
312.4585346834184
 30
0.0
  0
ENDBLK
  5
C45
330
C3A
100
AcDbEntity
  8
0
100
AcDbBlockEnd
  0
BLOCK
  5
C47
330
C46
100
AcDbEntity
  8
0
100
AcDbBlockBegin
  2
*D4
 70
     1
 10
0.0
 20
0.0
 30
0.0
  3
*D4
  1

  0
LINE
  5
C48
330
C46
100
AcDbEntity
  8
2
 62
     0
370
    -2
100
AcDbLine
 10
219.1619951273945
 20
314.0835346834184
 30
0.0
 11
219.1619951273945
 21
326.3335346834184
 31
0.0
  0
LINE
  5
C49
330
C46
100
AcDbEntity
  8
2
 62
     0
370
    -2
100
AcDbLine
 10
236.1619951273945
 20
314.0835346834184
 30
0.0
 11
236.1619951273945
 21
326.3335346834184
 31
0.0
  0
LINE
  5
C4A
330
C46
100
AcDbEntity
  8
2
 62
     0
370
    -2
100
AcDbLine
 10
221.6619951273945
 20
325.0835346834183
 30
0.0
 11
233.6619951273945
 21
325.0835346834183
 31
0.0
  0
SOLID
  5
C4B
330
C46
100
AcDbEntity
  8
2
 62
     0
100
AcDbTrace
 10
221.6619951273945
 20
325.500201350085
 30
0.0
 11
221.6619951273945
 21
324.6668680167517
 31
0.0
 12
219.1619951273945
 22
325.0835346834183
 32
0.0
 13
219.1619951273945
 23
325.0835346834183
 33
0.0
  0
SOLID
  5
C4C
330
C46
100
AcDbEntity
  8
2
 62
     0
100
AcDbTrace
 10
233.6619951273945
 20
325.500201350085
 30
0.0
 11
233.6619951273945
 21
324.6668680167517
 31
0.0
 12
236.1619951273945
 22
325.0835346834183
 32
0.0
 13
236.1619951273945
 23
325.0835346834183
 33
0.0
  0
MTEXT
  5
C4D
330
C46
100
AcDbEntity
  8
2
 62
     0
100
AcDbMText
 10
227.6619951273945
 20
326.9585346834184
 30
0.0
 40
2.5
 41
0.0
 71
     5
 72
     1
  1
17
 73
     1
 44
1.0
1001
ACAD
1000
MTEXTBEGIN
1070
    73
1070
     1
1070
    44
1040
1.0
1070
    74
1070
     0
1000
MTEXTEND
  0
POINT
  5
C4E
330
C46
100
AcDbEntity
  8
Defpoints
 62
     0
100
AcDbPoint
 10
219.1619951273945
 20
313.4585346834183
 30
0.0
  0
POINT
  5
C4F
330
C46
100
AcDbEntity
  8
Defpoints
 62
     0
100
AcDbPoint
 10
236.1619951273945
 20
313.4585346834183
 30
0.0
  0
POINT
  5
C50
330
C46
100
AcDbEntity
  8
Defpoints
 62
     0
100
AcDbPoint
 10
236.1619951273945
 20
325.0835346834183
 30
0.0
  0
ENDBLK
  5
C51
330
C46
100
AcDbEntity
  8
0
100
AcDbBlockEnd
  0
BLOCK
  5
C53
330
C52
100
AcDbEntity
  8
0
100
AcDbBlockBegin
  2
*D5
 70
     1
 10
0.0
 20
0.0
 30
0.0
  3
*D5
  1

  0
LINE
  5
C54
330
C52
100
AcDbEntity
  8
SK2
 62
     0
370
    -2
100
AcDbLine
 10
255.2868877773944
 20
99.90853468341835
 30
0.0
 11
320.2869951273945
 21
99.90853468341835
 31
0.0
  0
LINE
  5
C55
330
C52
100
AcDbEntity
  8
SK2
 62
     0
370
    -2
100
AcDbLine
 10
255.2868877773944
 20
302.6085346834184
 30
0.0
 11
320.2869951273945
 21
302.6085346834184
 31
0.0
  0
LINE
  5
C56
330
C52
100
AcDbEntity
  8
SK2
 62
     0
370
    -2
100
AcDbLine
 10
319.0369951273944
 20
102.4085346834183
 30
0.0
 11
319.0369951273945
 21
300.1085346834184
 31
0.0
  0
SOLID
  5
C57
330
C52
100
AcDbEntity
  8
SK2
 62
     0
100
AcDbTrace
 10
318.6203284607278
 20
102.4085346834183
 30
0.0
 11
319.4536617940611
 21
102.4085346834183
 31
0.0
 12
319.0369951273944
 22
99.90853468341835
 32
0.0
 13
319.0369951273944
 23
99.90853468341835
 33
0.0
  0
SOLID
  5
C58
330
C52
100
AcDbEntity
  8
SK2
 62
     0
100
AcDbTrace
 10
318.6203284607278
 20
300.1085346834184
 30
0.0
 11
319.4536617940612
 21
300.1085346834184
 31
0.0
 12
319.0369951273945
 22
302.6085346834184
 32
0.0
 13
319.0369951273945
 23
302.6085346834184
 33
0.0
  0
MTEXT
  5
C59
330
C52
100
AcDbEntity
  8
SK2
 62
     0
100
AcDbMText
 10
317.1619951273945
 20
201.2585346834184
 30
0.0
 40
2.5
 41
0.0
 71
     5
 72
     1
  1
%%c202.7
 11
0.0000000000000001
 21
1.0
 31
0.0
 73
     1
 44
1.0
1001
ACAD
1000
MTEXTBEGIN
1070
    73
1070
     1
1070
    44
1040
1.0
1070
    74
1070
     0
1000
MTEXTEND
  0
POINT
  5
C5A
330
C52
100
AcDbEntity
  8
Defpoints
 62
     0
100
AcDbPoint
 10
254.6618877773944
 20
99.90853468341835
 30
0.0
  0
POINT
  5
C5B
330
C52
100
AcDbEntity
  8
Defpoints
 62
     0
100
AcDbPoint
 10
254.6618877773944
 20
302.6085346834184
 30
0.0
  0
POINT
  5
C5C
330
C52
100
AcDbEntity
  8
Defpoints
 62
     0
100
AcDbPoint
 10
319.0369951273945
 20
302.6085346834184
 30
0.0
  0
ENDBLK
  5
C5D
330
C52
100
AcDbEntity
  8
0
100
AcDbBlockEnd
  0
BLOCK
  5
C5F
330
C5E
100
AcDbEntity
  8
0
100
AcDbBlockBegin
  2
*D6
 70
     1
 10
0.0
 20
0.0
 30
0.0
  3
*D6
  1

  0
LINE
  5
C60
330
C5E
100
AcDbEntity
  8
SK2
 62
     0
370
    -2
100
AcDbLine
 10
280.2868877773944
 20
119.6585346834183
 30
0.0
 11
311.7869951273945
 21
119.6585346834183
 31
0.0
  0
LINE
  5
C61
330
C5E
100
AcDbEntity
  8
SK2
 62
     0
370
    -2
100
AcDbLine
 10
280.2868877773944
 20
282.8585346834184
 30
0.0
 11
311.7869951273945
 21
282.8585346834184
 31
0.0
  0
LINE
  5
C62
330
C5E
100
AcDbEntity
  8
SK2
 62
     0
370
    -2
100
AcDbLine
 10
310.5369951273944
 20
122.1585346834183
 30
0.0
 11
310.5369951273945
 21
280.3585346834184
 31
0.0
  0
SOLID
  5
C63
330
C5E
100
AcDbEntity
  8
SK2
 62
     0
100
AcDbTrace
 10
310.1203284607278
 20
122.1585346834183
 30
0.0
 11
310.9536617940611
 21
122.1585346834183
 31
0.0
 12
310.5369951273944
 22
119.6585346834183
 32
0.0
 13
310.5369951273944
 23
119.6585346834183
 33
0.0
  0
SOLID
  5
C64
330
C5E
100
AcDbEntity
  8
SK2
 62
     0
100
AcDbTrace
 10
310.1203284607278
 20
280.3585346834184
 30
0.0
 11
310.9536617940612
 21
280.3585346834184
 31
0.0
 12
310.5369951273945
 22
282.8585346834184
 32
0.0
 13
310.5369951273945
 23
282.8585346834184
 33
0.0
  0
MTEXT
  5
C65
330
C5E
100
AcDbEntity
  8
SK2
 62
     0
100
AcDbMText
 10
308.6619951273945
 20
201.2585346834184
 30
0.0
 40
2.5
 41
0.0
 71
     5
 72
     1
  1
%%c163.2
 11
0.0000000000000001
 21
1.0
 31
0.0
 73
     1
 44
1.0
1001
ACAD
1000
MTEXTBEGIN
1070
    73
1070
     1
1070
    44
1040
1.0
1070
    74
1070
     0
1000
MTEXTEND
  0
POINT
  5
C66
330
C5E
100
AcDbEntity
  8
Defpoints
 62
     0
100
AcDbPoint
 10
279.6618877773944
 20
119.6585346834183
 30
0.0
  0
POINT
  5
C67
330
C5E
100
AcDbEntity
  8
Defpoints
 62
     0
100
AcDbPoint
 10
279.6618877773944
 20
282.8585346834184
 30
0.0
  0
POINT
  5
C68
330
C5E
100
AcDbEntity
  8
Defpoints
 62
     0
100
AcDbPoint
 10
310.5369951273945
 20
282.8585346834184
 30
0.0
  0
ENDBLK
  5
C69
330
C5E
100
AcDbEntity
  8
0
100
AcDbBlockEnd
  0
BLOCK
  5
C6B
330
C6A
100
AcDbEntity
  8
0
100
AcDbBlockBegin
  2
*D7
 70
     1
 10
0.0
 20
0.0
 30
0.0
  3
*D7
  1

  0
LINE
  5
C6C
330
C6A
100
AcDbEntity
  8
SK2
 62
     0
370
    -2
100
AcDbLine
 10
219.1619951273945
 20
314.0835346834184
 30
0.0
 11
219.1619951273945
 21
334.8335346834184
 31
0.0
  0
LINE
  5
C6D
330
C6A
100
AcDbEntity
  8
SK2
 62
     0
370
    -2
100
AcDbLine
 10
254.2619951273945
 20
304.2335346834184
 30
0.0
 11
254.2619951273945
 21
334.8335346834184
 31
0.0
  0
LINE
  5
C6E
330
C6A
100
AcDbEntity
  8
SK2
 62
     0
370
    -2
100
AcDbLine
 10
221.6619951273945
 20
333.5835346834183
 30
0.0
 11
251.7619951273944
 21
333.5835346834183
 31
0.0
  0
SOLID
  5
C6F
330
C6A
100
AcDbEntity
  8
SK2
 62
     0
100
AcDbTrace
 10
221.6619951273945
 20
334.000201350085
 30
0.0
 11
221.6619951273945
 21
333.1668680167517
 31
0.0
 12
219.1619951273945
 22
333.5835346834183
 32
0.0
 13
219.1619951273945
 23
333.5835346834183
 33
0.0
  0
SOLID
  5
C70
330
C6A
100
AcDbEntity
  8
SK2
 62
     0
100
AcDbTrace
 10
251.7619951273944
 20
334.000201350085
 30
0.0
 11
251.7619951273944
 21
333.1668680167517
 31
0.0
 12
254.2619951273945
 22
333.5835346834183
 32
0.0
 13
254.2619951273945
 23
333.5835346834183
 33
0.0
  0
MTEXT
  5
C71
330
C6A
100
AcDbEntity
  8
SK2
 62
     0
100
AcDbMText
 10
236.7119951273944
 20
335.4585346834184
 30
0.0
 40
2.5
 41
0.0
 71
     5
 72
     1
  1
35.1
 73
     1
 44
1.0
1001
ACAD
1000
MTEXTBEGIN
1070
    73
1070
     1
1070
    44
1040
1.0
1070
    74
1070
     0
1000
MTEXTEND
  0
POINT
  5
C72
330
C6A
100
AcDbEntity
  8
Defpoints
 62
     0
100
AcDbPoint
 10
219.1619951273945
 20
313.4585346834183
 30
0.0
  0
POINT
  5
C73
330
C6A
100
AcDbEntity
  8
Defpoints
 62
     0
100
AcDbPoint
 10
254.2619951273945
 20
303.6085346834184
 30
0.0
  0
POINT
  5
C74
330
C6A
100
AcDbEntity
  8
Defpoints
 62
     0
100
AcDbPoint
 10
254.2619951273945
 20
333.5835346834183
 30
0.0
  0
ENDBLK
  5
C75
330
C6A
100
AcDbEntity
  8
0
100
AcDbBlockEnd
  0
BLOCK
  5
C77
330
C76
100
AcDbEntity
  8
0
100
AcDbBlockBegin
  2
*D8
 70
     1
 10
0.0
 20
0.0
 30
0.0
  3
*D8
  1

  0
LINE
  5
C78
330
C76
100
AcDbEntity
  8
SK2
 62
     0
370
    -2
100
AcDbLine
 10
279.1619951273944
 20
284.3835346834183
 30
0.0
 11
279.1619951273944
 21
343.3335346834184
 31
0.0
  0
LINE
  5
C79
330
C76
100
AcDbEntity
  8
SK2
 62
     0
370
    -2
100
AcDbLine
 10
219.1619951273945
 20
314.3835346834184
 30
0.0
 11
219.1619951273945
 21
343.3335346834184
 31
0.0
  0
LINE
  5
C7A
330
C76
100
AcDbEntity
  8
SK2
 62
     0
370
    -2
100
AcDbLine
 10
276.6619951273944
 20
342.0835346834183
 30
0.0
 11
221.6619951273945
 21
342.0835346834183
 31
0.0
  0
SOLID
  5
C7B
330
C76
100
AcDbEntity
  8
SK2
 62
     0
100
AcDbTrace
 10
276.6619951273944
 20
342.500201350085
 30
0.0
 11
276.6619951273944
 21
341.6668680167517
 31
0.0
 12
279.1619951273944
 22
342.0835346834183
 32
0.0
 13
279.1619951273944
 23
342.0835346834183
 33
0.0
  0
SOLID
  5
C7C
330
C76
100
AcDbEntity
  8
SK2
 62
     0
100
AcDbTrace
 10
221.6619951273945
 20
342.500201350085
 30
0.0
 11
221.6619951273945
 21
341.6668680167517
 31
0.0
 12
219.1619951273945
 22
342.0835346834183
 32
0.0
 13
219.1619951273945
 23
342.0835346834183
 33
0.0
  0
MTEXT
  5
C7D
330
C76
100
AcDbEntity
  8
SK2
 62
     0
100
AcDbMText
 10
249.1619951273944
 20
343.9585346834184
 30
0.0
 40
2.5
 41
0.0
 71
     5
 72
     1
  1
60
 73
     1
 44
1.0
1001
ACAD
1000
MTEXTBEGIN
1070
    73
1070
     1
1070
    44
1040
1.0
1070
    74
1070
     0
1000
MTEXTEND
  0
POINT
  5
C7E
330
C76
100
AcDbEntity
  8
Defpoints
 62
     0
100
AcDbPoint
 10
279.1619951273944
 20
283.7585346834184
 30
0.0
  0
POINT
  5
C7F
330
C76
100
AcDbEntity
  8
Defpoints
 62
     0
100
AcDbPoint
 10
219.1619951273945
 20
313.7585346834184
 30
0.0
  0
POINT
  5
C80
330
C76
100
AcDbEntity
  8
Defpoints
 62
     0
100
AcDbPoint
 10
219.1619951273945
 20
342.0835346834183
 30
0.0
  0
ENDBLK
  5
C81
330
C76
100
AcDbEntity
  8
0
100
AcDbBlockEnd
  0
BLOCK
  5
C83
330
C82
100
AcDbEntity
  8
0
100
AcDbBlockBegin
  2
*D9
 70
     1
 10
0.0
 20
0.0
 30
0.0
  3
*D9
  1

  0
LINE
  5
C84
330
C82
100
AcDbEntity
  8
SK2
 62
     0
370
    -2
100
AcDbLine
 10
280.7869951273945
 20
176.2585346834183
 30
0.0
 11
294.7869951273945
 21
176.2585346834183
 31
0.0
  0
LINE
  5
C85
330
C82
100
AcDbEntity
  8
SK2
 62
     0
370
    -2
100
AcDbLine
 10
280.7869951273945
 20
226.2585346834184
 30
0.0
 11
294.7869951273945
 21
226.2585346834184
 31
0.0
  0
LINE
  5
C86
330
C82
100
AcDbEntity
  8
SK2
 62
     0
370
    -2
100
AcDbLine
 10
293.5369951273945
 20
178.7585346834183
 30
0.0
 11
293.5369951273945
 21
223.7585346834184
 31
0.0
  0
SOLID
  5
C87
330
C82
100
AcDbEntity
  8
SK2
 62
     0
100
AcDbTrace
 10
293.1203284607278
 20
178.7585346834183
 30
0.0
 11
293.9536617940612
 21
178.7585346834183
 31
0.0
 12
293.5369951273945
 22
176.2585346834183
 32
0.0
 13
293.5369951273945
 23
176.2585346834183
 33
0.0
  0
SOLID
  5
C88
330
C82
100
AcDbEntity
  8
SK2
 62
     0
100
AcDbTrace
 10
293.1203284607278
 20
223.7585346834184
 30
0.0
 11
293.9536617940612
 21
223.7585346834184
 31
0.0
 12
293.5369951273945
 22
226.2585346834184
 32
0.0
 13
293.5369951273945
 23
226.2585346834184
 33
0.0
  0
MTEXT
  5
C89
330
C82
100
AcDbEntity
  8
SK2
 62
     0
100
AcDbMText
 10
291.6619951273944
 20
201.2585346834184
 30
0.0
 40
2.5
 41
0.0
 71
     5
 72
     1
  1
%%c50
 11
0.0000000000000001
 21
1.0
 31
0.0
 73
     1
 44
1.0
1001
ACAD
1000
MTEXTBEGIN
1070
    73
1070
     1
1070
    44
1040
1.0
1070
    74
1070
     0
1000
MTEXTEND
  0
POINT
  5
C8A
330
C82
100
AcDbEntity
  8
Defpoints
 62
     0
100
AcDbPoint
 10
280.1619951273945
 20
176.2585346834183
 30
0.0
  0
POINT
  5
C8B
330
C82
100
AcDbEntity
  8
Defpoints
 62
     0
100
AcDbPoint
 10
280.1619951273945
 20
226.2585346834184
 30
0.0
  0
POINT
  5
C8C
330
C82
100
AcDbEntity
  8
Defpoints
 62
     0
100
AcDbPoint
 10
293.5369951273945
 20
226.2585346834184
 30
0.0
  0
ENDBLK
  5
C8D
330
C82
100
AcDbEntity
  8
0
100
AcDbBlockEnd
  0
BLOCK
  5
C8F
330
C8E
100
AcDbEntity
  8
0
100
AcDbBlockBegin
  2
*D10
 70
     1
 10
0.0
 20
0.0
 30
0.0
  3
*D10
  1

  0
LINE
  5
C90
330
C8E
100
AcDbEntity
  8
SK2
 62
     0
370
    -2
100
AcDbLine
 10
217.5369951273944
 20
171.2585346834183
 30
0.0
 11
205.2867804273945
 21
171.2585346834183
 31
0.0
  0
LINE
  5
C91
330
C8E
100
AcDbEntity
  8
SK2
 62
     0
370
    -2
100
AcDbLine
 10
217.5369951273944
 20
231.2585346834183
 30
0.0
 11
205.2867804273945
 21
231.2585346834183
 31
0.0
  0
LINE
  5
C92
330
C8E
100
AcDbEntity
  8
SK2
 62
     0
370
    -2
100
AcDbLine
 10
206.5367804273944
 20
173.7585346834183
 30
0.0
 11
206.5367804273945
 21
228.7585346834184
 31
0.0
  0
SOLID
  5
C93
330
C8E
100
AcDbEntity
  8
SK2
 62
     0
100
AcDbTrace
 10
206.1201137607278
 20
173.7585346834183
 30
0.0
 11
206.9534470940611
 21
173.7585346834183
 31
0.0
 12
206.5367804273944
 22
171.2585346834183
 32
0.0
 13
206.5367804273944
 23
171.2585346834183
 33
0.0
  0
SOLID
  5
C94
330
C8E
100
AcDbEntity
  8
SK2
 62
     0
100
AcDbTrace
 10
206.1201137607278
 20
228.7585346834184
 30
0.0
 11
206.9534470940611
 21
228.7585346834184
 31
0.0
 12
206.5367804273945
 22
231.2585346834183
 32
0.0
 13
206.5367804273945
 23
231.2585346834183
 33
0.0
  0
MTEXT
  5
C95
330
C8E
100
AcDbEntity
  8
SK2
 62
     0
100
AcDbMText
 10
204.6617804273944
 20
201.2585346834184
 30
0.0
 40
2.5
 41
0.0
 71
     5
 72
     1
  1
%%c60
 11
0.0000000000000001
 21
1.0
 31
0.0
 73
     1
 44
1.0
1001
ACAD
1000
MTEXTBEGIN
1070
    73
1070
     1
1070
    44
1040
1.0
1070
    74
1070
     0
1000
MTEXTEND
  0
POINT
  5
C96
330
C8E
100
AcDbEntity
  8
Defpoints
 62
     0
100
AcDbPoint
 10
218.1619951273944
 20
171.2585346834183
 30
0.0
  0
POINT
  5
C97
330
C8E
100
AcDbEntity
  8
Defpoints
 62
     0
100
AcDbPoint
 10
218.1619951273944
 20
231.2585346834183
 30
0.0
  0
POINT
  5
C98
330
C8E
100
AcDbEntity
  8
Defpoints
 62
     0
100
AcDbPoint
 10
206.5367804273945
 20
231.2585346834183
 30
0.0
  0
ENDBLK
  5
C99
330
C8E
100
AcDbEntity
  8
0
100
AcDbBlockEnd
  0
BLOCK
  5
C9B
330
C9A
100
AcDbEntity
  8
0
100
AcDbBlockBegin
  2
*D11
 70
     1
 10
0.0
 20
0.0
 30
0.0
  3
*D11
  1

  0
LINE
  5
C9C
330
C9A
100
AcDbEntity
  8
SK2
 62
     0
370
    -2
100
AcDbLine
 10
283.2869951273945
 20
165.3375101991183
 30
0.0
 11
303.2868877773945
 21
165.3375101991183
 31
0.0
  0
LINE
  5
C9D
330
C9A
100
AcDbEntity
  8
SK2
 62
     0
370
    -2
100
AcDbLine
 10
283.2869951273945
 20
237.1795591677184
 30
0.0
 11
303.2868877773945
 21
237.1795591677184
 31
0.0
  0
LINE
  5
C9E
330
C9A
100
AcDbEntity
  8
SK2
 62
     0
370
    -2
100
AcDbLine
 10
302.0368877773945
 20
167.8375101991183
 30
0.0
 11
302.0368877773945
 21
234.6795591677184
 31
0.0
  0
SOLID
  5
C9F
330
C9A
100
AcDbEntity
  8
SK2
 62
     0
100
AcDbTrace
 10
301.6202211107278
 20
167.8375101991183
 30
0.0
 11
302.4535544440612
 21
167.8375101991183
 31
0.0
 12
302.0368877773945
 22
165.3375101991183
 32
0.0
 13
302.0368877773945
 23
165.3375101991183
 33
0.0
  0
SOLID
  5
CA0
330
C9A
100
AcDbEntity
  8
SK2
 62
     0
100
AcDbTrace
 10
301.6202211107278
 20
234.6795591677184
 30
0.0
 11
302.4535544440612
 21
234.6795591677184
 31
0.0
 12
302.0368877773945
 22
237.1795591677184
 32
0.0
 13
302.0368877773945
 23
237.1795591677184
 33
0.0
  0
MTEXT
  5
CA1
330
C9A
100
AcDbEntity
  8
SK2
 62
     0
100
AcDbMText
 10
300.1618877773944
 20
201.2585346834184
 30
0.0
 40
2.5
 41
0.0
 71
     5
 72
     1
  1
Lk-%%c101.6
 11
0.0000000000000001
 21
1.0
 31
0.0
 73
     1
 44
1.0
1001
ACAD
1000
MTEXTBEGIN
1070
    73
1070
     1
1070
    44
1040
1.0
1070
    74
1070
     0
1000
MTEXTEND
  0
POINT
  5
CA2
330
C9A
100
AcDbEntity
  8
Defpoints
 62
     0
100
AcDbPoint
 10
282.6619951273944
 20
165.3375101991183
 30
0.0
  0
POINT
  5
CA3
330
C9A
100
AcDbEntity
  8
Defpoints
 62
     0
100
AcDbPoint
 10
282.6619951273944
 20
237.1795591677184
 30
0.0
  0
POINT
  5
CA4
330
C9A
100
AcDbEntity
  8
Defpoints
 62
     0
100
AcDbPoint
 10
302.0368877773945
 20
237.1795591677184
 30
0.0
  0
ENDBLK
  5
CA5
330
C9A
100
AcDbEntity
  8
0
100
AcDbBlockEnd
  0
BLOCK
  5
DA7
330
D9D
100
AcDbEntity
  8
0
100
AcDbBlockBegin
  2
*D12
 70
     1
 10
0.0
 20
0.0
 30
0.0
  3
*D12
  1

  0
LINE
  5
EF8
330
D9D
100
AcDbEntity
  8
SK2
370
    -2
100
AcDbLine
 10
-1.625
 20
-111.2
 30
0.0
 11
-23.12521470000004
 21
-111.2
 31
0.0
  0
LINE
  5
EF9
330
D9D
100
AcDbEntity
  8
SK2
370
    -2
100
AcDbLine
 10
-1.625
 20
111.2
 30
0.0
 11
-23.12521469999999
 21
111.2
 31
0.0
  0
LINE
  5
EFA
330
D9D
100
AcDbEntity
  8
SK2
370
    -2
100
AcDbLine
 10
-21.12521470000004
 20
-107.7
 30
0.0
 11
-21.12521469999999
 21
107.7
 31
0.0
  0
SOLID
  5
EFB
330
D9D
100
AcDbEntity
  8
SK2
100
AcDbTrace
 10
-21.70854803333337
 20
-107.7
 30
0.0
 11
-20.54188136666671
 21
-107.7
 31
0.0
 12
-21.12521470000004
 22
-111.2
 32
0.0
 13
-21.12521470000004
 23
-111.2
 33
0.0
  0
SOLID
  5
EFC
330
D9D
100
AcDbEntity
  8
SK2
100
AcDbTrace
 10
-21.70854803333332
 20
107.7
 30
0.0
 11
-20.54188136666666
 21
107.7
 31
0.0
 12
-21.12521469999999
 22
111.2
 32
0.0
 13
-21.12521469999999
 23
111.2
 33
0.0
  0
MTEXT
  5
EFD
330
D9D
100
AcDbEntity
  8
SK2
100
AcDbMText
 10
-23.50055918818899
 20
0.0000000000000003
 30
0.0
 40
3.5
 41
0.0
 71
     5
 72
     1
  1
%%c222.4
 11
0.0000000000000001
 21
1.0
 31
0.0
 73
     1
 44
1.0
1001
ACAD
1000
MTEXTBEGIN
1070
    73
1070
     1
1070
    44
1040
1.0
1070
    74
1070
     0
1000
MTEXTEND
  0
POINT
  5
EFE
330
D9D
100
AcDbEntity
  8
Defpoints
 62
     0
100
AcDbPoint
 10
-1.0
 20
-111.2
 30
0.0
  0
POINT
  5
EFF
330
D9D
100
AcDbEntity
  8
Defpoints
 62
     0
100
AcDbPoint
 10
-1.0
 20
111.2
 30
0.0
  0
POINT
  5
F00
330
D9D
100
AcDbEntity
  8
Defpoints
 62
     0
100
AcDbPoint
 10
-21.12521469999999
 20
111.2
 30
0.0
  0
ENDBLK
  5
DA8
330
D9D
100
AcDbEntity
  8
0
100
AcDbBlockEnd
  0
BLOCK
  5
DB3
330
DA9
100
AcDbEntity
  8
0
100
AcDbBlockBegin
  2
*D13
 70
     1
 10
0.0
 20
0.0
 30
0.0
  3
*D13
  1

  0
LINE
  5
F01
330
DA9
100
AcDbEntity
  8
2
370
    -2
100
AcDbLine
 10
0.0
 20
112.825
 30
0.0
 11
0.0000000000000008
 21
125.825
 31
0.0
  0
LINE
  5
F02
330
DA9
100
AcDbEntity
  8
2
370
    -2
100
AcDbLine
 10
17.0
 20
112.825
 30
0.0
 11
17.0
 21
125.825
 31
0.0
  0
LINE
  5
F03
330
DA9
100
AcDbEntity
  8
2
370
    -2
100
AcDbLine
 10
3.5
 20
123.825
 30
0.0
 11
13.5
 21
123.825
 31
0.0
  0
SOLID
  5
F04
330
DA9
100
AcDbEntity
  8
2
100
AcDbTrace
 10
3.5
 20
124.4083333333333
 30
0.0
 11
3.5
 21
123.2416666666666
 31
0.0
 12
0.0000000000000007
 22
123.825
 32
0.0
 13
0.0000000000000007
 23
123.825
 33
0.0
  0
SOLID
  5
F05
330
DA9
100
AcDbEntity
  8
2
100
AcDbTrace
 10
13.5
 20
124.4083333333333
 30
0.0
 11
13.5
 21
123.2416666666666
 31
0.0
 12
17.0
 22
123.825
 32
0.0
 13
17.0
 23
123.825
 33
0.0
  0
MTEXT
  5
F06
330
DA9
100
AcDbEntity
  8
2
100
AcDbMText
 10
8.5
 20
126.2
 30
0.0
 40
3.5
 41
0.0
 71
     5
 72
     1
  1
17
 73
     1
 44
1.0
1001
ACAD
1000
MTEXTBEGIN
1070
    73
1070
     1
1070
    44
1040
1.0
1070
    74
1070
     0
1000
MTEXTEND
  0
POINT
  5
F07
330
DA9
100
AcDbEntity
  8
Defpoints
 62
     0
100
AcDbPoint
 10
0.0
 20
112.2
 30
0.0
  0
POINT
  5
F08
330
DA9
100
AcDbEntity
  8
Defpoints
 62
     0
100
AcDbPoint
 10
17.0
 20
112.2
 30
0.0
  0
POINT
  5
F09
330
DA9
100
AcDbEntity
  8
Defpoints
 62
     0
100
AcDbPoint
 10
17.0
 20
123.825
 30
0.0
  0
ENDBLK
  5
DB4
330
DA9
100
AcDbEntity
  8
0
100
AcDbBlockEnd
  0
BLOCK
  5
DBF
330
DB5
100
AcDbEntity
  8
0
100
AcDbBlockBegin
  2
*D14
 70
     1
 10
0.0
 20
0.0
 30
0.0
  3
*D14
  1

  0
LINE
  5
F0A
330
DB5
100
AcDbEntity
  8
SK2
370
    -2
100
AcDbLine
 10
36.12489264999999
 20
-101.35
 30
0.0
 11
101.875
 21
-101.35
 31
0.0
  0
LINE
  5
F0B
330
DB5
100
AcDbEntity
  8
SK2
370
    -2
100
AcDbLine
 10
36.12489264999999
 20
101.35
 30
0.0
 11
101.875
 21
101.35
 31
0.0
  0
LINE
  5
F0C
330
DB5
100
AcDbEntity
  8
SK2
370
    -2
100
AcDbLine
 10
99.87499999999997
 20
-97.85
 30
0.0
 11
99.87500000000004
 21
97.85
 31
0.0
  0
SOLID
  5
F0D
330
DB5
100
AcDbEntity
  8
SK2
100
AcDbTrace
 10
99.29166666666665
 20
-97.85
 30
0.0
 11
100.4583333333333
 21
-97.85
 31
0.0
 12
99.87499999999997
 22
-101.35
 32
0.0
 13
99.87499999999997
 23
-101.35
 33
0.0
  0
SOLID
  5
F0E
330
DB5
100
AcDbEntity
  8
SK2
100
AcDbTrace
 10
99.2916666666667
 20
97.85
 30
0.0
 11
100.4583333333333
 21
97.85
 31
0.0
 12
99.87500000000004
 22
101.35
 32
0.0
 13
99.87500000000004
 23
101.35
 33
0.0
  0
MTEXT
  5
F0F
330
DB5
100
AcDbEntity
  8
SK2
100
AcDbMText
 10
97.49965551181105
 20
0.0000000000000003
 30
0.0
 40
3.5
 41
0.0
 71
     5
 72
     1
  1
%%c202.7
 11
0.0000000000000001
 21
1.0
 31
0.0
 73
     1
 44
1.0
1001
ACAD
1000
MTEXTBEGIN
1070
    73
1070
     1
1070
    44
1040
1.0
1070
    74
1070
     0
1000
MTEXTEND
  0
POINT
  5
F10
330
DB5
100
AcDbEntity
  8
Defpoints
 62
     0
100
AcDbPoint
 10
35.49989264999999
 20
-101.35
 30
0.0
  0
POINT
  5
F11
330
DB5
100
AcDbEntity
  8
Defpoints
 62
     0
100
AcDbPoint
 10
35.49989264999999
 20
101.35
 30
0.0
  0
POINT
  5
F12
330
DB5
100
AcDbEntity
  8
Defpoints
 62
     0
100
AcDbPoint
 10
99.87500000000004
 20
101.35
 30
0.0
  0
ENDBLK
  5
DC0
330
DB5
100
AcDbEntity
  8
0
100
AcDbBlockEnd
  0
BLOCK
  5
DCB
330
DC1
100
AcDbEntity
  8
0
100
AcDbBlockBegin
  2
*D15
 70
     1
 10
0.0
 20
0.0
 30
0.0
  3
*D15
  1

  0
LINE
  5
F13
330
DC1
100
AcDbEntity
  8
SK2
370
    -2
100
AcDbLine
 10
61.12489264999999
 20
-81.6
 30
0.0
 11
93.37499999999998
 21
-81.6
 31
0.0
  0
LINE
  5
F14
330
DC1
100
AcDbEntity
  8
SK2
370
    -2
100
AcDbLine
 10
61.12489264999999
 20
81.60000000000001
 30
0.0
 11
93.37500000000002
 21
81.60000000000001
 31
0.0
  0
LINE
  5
F15
330
DC1
100
AcDbEntity
  8
SK2
370
    -2
100
AcDbLine
 10
91.37500000000001
 20
-78.09999999999998
 30
0.0
 11
91.37500000000001
 21
78.10000000000002
 31
0.0
  0
SOLID
  5
F16
330
DC1
100
AcDbEntity
  8
SK2
100
AcDbTrace
 10
90.79166666666663
 20
-78.09999999999998
 30
0.0
 11
91.95833333333331
 21
-78.09999999999998
 31
0.0
 12
91.37500000000001
 22
-81.6
 32
0.0
 13
91.37500000000001
 23
-81.6
 33
0.0
  0
SOLID
  5
F17
330
DC1
100
AcDbEntity
  8
SK2
100
AcDbTrace
 10
90.79166666666669
 20
78.10000000000002
 30
0.0
 11
91.95833333333334
 21
78.10000000000002
 31
0.0
 12
91.37500000000001
 22
81.60000000000001
 32
0.0
 13
91.37500000000001
 23
81.60000000000001
 33
0.0
  0
MTEXT
  5
F18
330
DC1
100
AcDbEntity
  8
SK2
100
AcDbMText
 10
88.99965551181102
 20
0.0000000000000003
 30
0.0
 40
3.5
 41
0.0
 71
     5
 72
     1
  1
%%c163.2
 11
0.0000000000000001
 21
1.0
 31
0.0
 73
     1
 44
1.0
1001
ACAD
1000
MTEXTBEGIN
1070
    73
1070
     1
1070
    44
1040
1.0
1070
    74
1070
     0
1000
MTEXTEND
  0
POINT
  5
F19
330
DC1
100
AcDbEntity
  8
Defpoints
 62
     0
100
AcDbPoint
 10
60.49989264999999
 20
-81.6
 30
0.0
  0
POINT
  5
F1A
330
DC1
100
AcDbEntity
  8
Defpoints
 62
     0
100
AcDbPoint
 10
60.49989264999999
 20
81.60000000000001
 30
0.0
  0
POINT
  5
F1B
330
DC1
100
AcDbEntity
  8
Defpoints
 62
     0
100
AcDbPoint
 10
91.37500000000001
 20
81.60000000000001
 30
0.0
  0
ENDBLK
  5
DCC
330
DC1
100
AcDbEntity
  8
0
100
AcDbBlockEnd
  0
BLOCK
  5
DD7
330
DCD
100
AcDbEntity
  8
0
100
AcDbBlockBegin
  2
*D16
 70
     1
 10
0.0
 20
0.0
 30
0.0
  3
*D16
  1

  0
LINE
  5
F1C
330
DCD
100
AcDbEntity
  8
SK2
370
    -2
100
AcDbLine
 10
0.0
 20
112.825
 30
0.0
 11
0.0000000000000014
 21
134.325
 31
0.0
  0
LINE
  5
F1D
330
DCD
100
AcDbEntity
  8
SK2
370
    -2
100
AcDbLine
 10
35.1
 20
102.975
 30
0.0
 11
35.1
 21
134.325
 31
0.0
  0
LINE
  5
F1E
330
DCD
100
AcDbEntity
  8
SK2
370
    -2
100
AcDbLine
 10
3.500000000000001
 20
132.325
 30
0.0
 11
31.6
 21
132.325
 31
0.0
  0
SOLID
  5
F1F
330
DCD
100
AcDbEntity
  8
SK2
100
AcDbTrace
 10
3.500000000000001
 20
132.9083333333333
 30
0.0
 11
3.500000000000001
 21
131.7416666666666
 31
0.0
 12
0.0000000000000012
 22
132.325
 32
0.0
 13
0.0000000000000012
 23
132.325
 33
0.0
  0
SOLID
  5
F20
330
DCD
100
AcDbEntity
  8
SK2
100
AcDbTrace
 10
31.6
 20
132.9083333333333
 30
0.0
 11
31.6
 21
131.7416666666666
 31
0.0
 12
35.1
 22
132.325
 32
0.0
 13
35.1
 23
132.325
 33
0.0
  0
MTEXT
  5
F21
330
DCD
100
AcDbEntity
  8
SK2
100
AcDbMText
 10
17.54999999999998
 20
134.7
 30
0.0
 40
3.5
 41
0.0
 71
     5
 72
     1
  1
35.1
 73
     1
 44
1.0
1001
ACAD
1000
MTEXTBEGIN
1070
    73
1070
     1
1070
    44
1040
1.0
1070
    74
1070
     0
1000
MTEXTEND
  0
POINT
  5
F22
330
DCD
100
AcDbEntity
  8
Defpoints
 62
     0
100
AcDbPoint
 10
0.0
 20
112.2
 30
0.0
  0
POINT
  5
F23
330
DCD
100
AcDbEntity
  8
Defpoints
 62
     0
100
AcDbPoint
 10
35.1
 20
102.35
 30
0.0
  0
POINT
  5
F24
330
DCD
100
AcDbEntity
  8
Defpoints
 62
     0
100
AcDbPoint
 10
35.1
 20
132.325
 30
0.0
  0
ENDBLK
  5
DD8
330
DCD
100
AcDbEntity
  8
0
100
AcDbBlockEnd
  0
BLOCK
  5
DE3
330
DD9
100
AcDbEntity
  8
0
100
AcDbBlockBegin
  2
*D17
 70
     1
 10
0.0
 20
0.0
 30
0.0
  3
*D17
  1

  0
LINE
  5
F25
330
DD9
100
AcDbEntity
  8
SK2
370
    -2
100
AcDbLine
 10
60.0
 20
83.125
 30
0.0
 11
60.0
 21
142.825
 31
0.0
  0
LINE
  5
F26
330
DD9
100
AcDbEntity
  8
SK2
370
    -2
100
AcDbLine
 10
0.0
 20
113.125
 30
0.0
 11
0.0000000000000019
 21
142.825
 31
0.0
  0
LINE
  5
F27
330
DD9
100
AcDbEntity
  8
SK2
370
    -2
100
AcDbLine
 10
56.50000000000001
 20
140.825
 30
0.0
 11
3.500000000000001
 21
140.825
 31
0.0
  0
SOLID
  5
F28
330
DD9
100
AcDbEntity
  8
SK2
100
AcDbTrace
 10
56.50000000000001
 20
141.4083333333333
 30
0.0
 11
56.50000000000001
 21
140.2416666666666
 31
0.0
 12
60.0
 22
140.825
 32
0.0
 13
60.0
 23
140.825
 33
0.0
  0
SOLID
  5
F29
330
DD9
100
AcDbEntity
  8
SK2
100
AcDbTrace
 10
3.500000000000001
 20
141.4083333333333
 30
0.0
 11
3.500000000000001
 21
140.2416666666666
 31
0.0
 12
0.0000000000000017
 22
140.825
 32
0.0
 13
0.0000000000000017
 23
140.825
 33
0.0
  0
MTEXT
  5
F2A
330
DD9
100
AcDbEntity
  8
SK2
100
AcDbMText
 10
30.0
 20
143.2
 30
0.0
 40
3.5
 41
0.0
 71
     5
 72
     1
  1
60
 73
     1
 44
1.0
1001
ACAD
1000
MTEXTBEGIN
1070
    73
1070
     1
1070
    44
1040
1.0
1070
    74
1070
     0
1000
MTEXTEND
  0
POINT
  5
F2B
330
DD9
100
AcDbEntity
  8
Defpoints
 62
     0
100
AcDbPoint
 10
60.0
 20
82.5
 30
0.0
  0
POINT
  5
F2C
330
DD9
100
AcDbEntity
  8
Defpoints
 62
     0
100
AcDbPoint
 10
0.0
 20
112.5
 30
0.0
  0
POINT
  5
F2D
330
DD9
100
AcDbEntity
  8
Defpoints
 62
     0
100
AcDbPoint
 10
0.0000000000000017
 20
140.825
 30
0.0
  0
ENDBLK
  5
DE4
330
DD9
100
AcDbEntity
  8
0
100
AcDbBlockEnd
  0
BLOCK
  5
DEF
330
DE5
100
AcDbEntity
  8
0
100
AcDbBlockBegin
  2
*D18
 70
     1
 10
0.0
 20
0.0
 30
0.0
  3
*D18
  1

  0
LINE
  5
F2E
330
DE5
100
AcDbEntity
  8
SK2
370
    -2
100
AcDbLine
 10
61.625
 20
-25.0
 30
0.0
 11
76.375
 21
-25.0
 31
0.0
  0
LINE
  5
F2F
330
DE5
100
AcDbEntity
  8
SK2
370
    -2
100
AcDbLine
 10
61.625
 20
25.0
 30
0.0
 11
76.375
 21
25.0
 31
0.0
  0
LINE
  5
F30
330
DE5
100
AcDbEntity
  8
SK2
370
    -2
100
AcDbLine
 10
74.375
 20
-21.5
 30
0.0
 11
74.375
 21
21.5
 31
0.0
  0
SOLID
  5
F31
330
DE5
100
AcDbEntity
  8
SK2
100
AcDbTrace
 10
73.79166666666667
 20
-21.5
 30
0.0
 11
74.95833333333333
 21
-21.5
 31
0.0
 12
74.375
 22
-25.0
 32
0.0
 13
74.375
 23
-25.0
 33
0.0
  0
SOLID
  5
F32
330
DE5
100
AcDbEntity
  8
SK2
100
AcDbTrace
 10
73.79166666666667
 20
21.5
 30
0.0
 11
74.95833333333333
 21
21.5
 31
0.0
 12
74.375
 22
25.0
 32
0.0
 13
74.375
 23
25.0
 33
0.0
  0
MTEXT
  5
F33
330
DE5
100
AcDbEntity
  8
SK2
100
AcDbMText
 10
72.0
 20
0.0000000000000003
 30
0.0
 40
3.5
 41
0.0
 71
     5
 72
     1
  1
%%c50
 11
0.0000000000000001
 21
1.0
 31
0.0
 73
     1
 44
1.0
1001
ACAD
1000
MTEXTBEGIN
1070
    73
1070
     1
1070
    44
1040
1.0
1070
    74
1070
     0
1000
MTEXTEND
  0
POINT
  5
F34
330
DE5
100
AcDbEntity
  8
Defpoints
 62
     0
100
AcDbPoint
 10
61.0
 20
-25.0
 30
0.0
  0
POINT
  5
F35
330
DE5
100
AcDbEntity
  8
Defpoints
 62
     0
100
AcDbPoint
 10
61.0
 20
25.0
 30
0.0
  0
POINT
  5
F36
330
DE5
100
AcDbEntity
  8
Defpoints
 62
     0
100
AcDbPoint
 10
74.375
 20
25.0
 30
0.0
  0
ENDBLK
  5
DF0
330
DE5
100
AcDbEntity
  8
0
100
AcDbBlockEnd
  0
BLOCK
  5
DFB
330
DF1
100
AcDbEntity
  8
0
100
AcDbBlockBegin
  2
*D19
 70
     1
 10
0.0
 20
0.0
 30
0.0
  3
*D19
  1

  0
LINE
  5
F37
330
DF1
100
AcDbEntity
  8
SK2
370
    -2
100
AcDbLine
 10
-1.625
 20
-30.0
 30
0.0
 11
-14.62521470000002
 21
-30.0
 31
0.0
  0
LINE
  5
F38
330
DF1
100
AcDbEntity
  8
SK2
370
    -2
100
AcDbLine
 10
-1.625
 20
30.0
 30
0.0
 11
-14.62521470000001
 21
30.0
 31
0.0
  0
LINE
  5
F39
330
DF1
100
AcDbEntity
  8
SK2
370
    -2
100
AcDbLine
 10
-12.62521470000002
 20
-26.5
 30
0.0
 11
-12.62521470000001
 21
26.5
 31
0.0
  0
SOLID
  5
F3A
330
DF1
100
AcDbEntity
  8
SK2
100
AcDbTrace
 10
-13.20854803333335
 20
-26.5
 30
0.0
 11
-12.04188136666668
 21
-26.5
 31
0.0
 12
-12.62521470000002
 22
-30.0
 32
0.0
 13
-12.62521470000002
 23
-30.0
 33
0.0
  0
SOLID
  5
F3B
330
DF1
100
AcDbEntity
  8
SK2
100
AcDbTrace
 10
-13.20854803333334
 20
26.5
 30
0.0
 11
-12.04188136666667
 21
26.5
 31
0.0
 12
-12.62521470000001
 22
30.0
 32
0.0
 13
-12.62521470000001
 23
30.0
 33
0.0
  0
MTEXT
  5
F3C
330
DF1
100
AcDbEntity
  8
SK2
100
AcDbMText
 10
-15.00021470000001
 20
0.0000000000000003
 30
0.0
 40
3.5
 41
0.0
 71
     5
 72
     1
  1
%%c60
 11
0.0000000000000001
 21
1.0
 31
0.0
 73
     1
 44
1.0
1001
ACAD
1000
MTEXTBEGIN
1070
    73
1070
     1
1070
    44
1040
1.0
1070
    74
1070
     0
1000
MTEXTEND
  0
POINT
  5
F3D
330
DF1
100
AcDbEntity
  8
Defpoints
 62
     0
100
AcDbPoint
 10
-1.0
 20
-30.0
 30
0.0
  0
POINT
  5
F3E
330
DF1
100
AcDbEntity
  8
Defpoints
 62
     0
100
AcDbPoint
 10
-1.0
 20
30.0
 30
0.0
  0
POINT
  5
F3F
330
DF1
100
AcDbEntity
  8
Defpoints
 62
     0
100
AcDbPoint
 10
-12.62521470000001
 20
30.0
 30
0.0
  0
ENDBLK
  5
DFC
330
DF1
100
AcDbEntity
  8
0
100
AcDbBlockEnd
  0
BLOCK
  5
E07
330
DFD
100
AcDbEntity
  8
0
100
AcDbBlockBegin
  2
*D20
 70
     1
 10
0.0
 20
0.0
 30
0.0
  3
*D20
  1

  0
LINE
  5
F40
330
DFD
100
AcDbEntity
  8
SK2
370
    -2
100
AcDbLine
 10
64.12499999999998
 20
-35.92102448430001
 30
0.0
 11
84.87489264999998
 21
-35.92102448430001
 31
0.0
  0
LINE
  5
F41
330
DFD
100
AcDbEntity
  8
SK2
370
    -2
100
AcDbLine
 10
64.12500000000001
 20
35.92102448430001
 30
0.0
 11
84.87489265
 21
35.9210244843
 31
0.0
  0
LINE
  5
F42
330
DFD
100
AcDbEntity
  8
SK2
370
    -2
100
AcDbLine
 10
82.87489264999997
 20
-32.42102448430002
 30
0.0
 11
82.87489265000003
 21
32.4210244843
 31
0.0
  0
SOLID
  5
F43
330
DFD
100
AcDbEntity
  8
SK2
100
AcDbTrace
 10
82.29155931666666
 20
-32.42102448430002
 30
0.0
 11
83.45822598333331
 21
-32.42102448430002
 31
0.0
 12
82.87489264999997
 22
-35.92102448430001
 32
0.0
 13
82.87489264999997
 23
-35.92102448430001
 33
0.0
  0
SOLID
  5
F44
330
DFD
100
AcDbEntity
  8
SK2
100
AcDbTrace
 10
82.29155931666666
 20
32.4210244843
 30
0.0
 11
83.45822598333333
 21
32.4210244843
 31
0.0
 12
82.87489265000003
 22
35.9210244843
 32
0.0
 13
82.87489265000003
 23
35.9210244843
 33
0.0
  0
MTEXT
  5
F45
330
DFD
100
AcDbEntity
  8
SK2
100
AcDbMText
 10
80.49989264999998
 20
0.0000000000000003
 30
0.0
 40
3.5
 41
0.0
 71
     5
 72
     1
  1
Lk-%%c101.6
 11
0.0000000000000001
 21
1.0
 31
0.0
 73
     1
 44
1.0
1001
ACAD
1000
MTEXTBEGIN
1070
    73
1070
     1
1070
    44
1040
1.0
1070
    74
1070
     0
1000
MTEXTEND
  0
POINT
  5
F46
330
DFD
100
AcDbEntity
  8
Defpoints
 62
     0
100
AcDbPoint
 10
63.5
 20
-35.92102448430001
 30
0.0
  0
POINT
  5
F47
330
DFD
100
AcDbEntity
  8
Defpoints
 62
     0
100
AcDbPoint
 10
63.5
 20
35.92102448430001
 30
0.0
  0
POINT
  5
F48
330
DFD
100
AcDbEntity
  8
Defpoints
 62
     0
100
AcDbPoint
 10
82.87489265000003
 20
35.9210244843
 30
0.0
  0
ENDBLK
  5
E08
330
DFD
100
AcDbEntity
  8
0
100
AcDbBlockEnd
  0
ENDSEC
  0
SECTION
  2
ENTITIES
  0
DIMENSION
  5
D29
330
1B
100
AcDbEntity
  8
SK2
100
AcDbDimension
  2
*D12
 10
-21.12521469999999
 20
111.2
 30
0.0
 11
-21.12521470000002
 21
0.0
 31
0.0
 70
   160
  1
%%c222.4
 71
     5
 42
222.4
  3
ISO-25
100
AcDbAlignedDimension
 13
-1.0
 23
-111.2
 33
0.0
 14
-1.0
 24
111.2
 34
0.0
 50
90.0
100
AcDbRotatedDimension
1001
ACAD
1000
DSTYLE
1002
{
1070
   340
1005
11
1002
}
  0
DIMENSION
  5
D2A
330
1B
100
AcDbEntity
  8
2
100
AcDbDimension
  2
*D13
 10
17.0
 20
123.825
 30
0.0
 11
8.5
 21
123.825
 31
0.0
 70
   160
  1
17
 71
     5
 42
17.0
  3
ISO-25
100
AcDbAlignedDimension
 13
0.0
 23
112.2
 33
0.0
 14
17.0
 24
112.2
 34
0.0
100
AcDbRotatedDimension
1001
ACAD
1000
DSTYLE
1002
{
1070
   340
1005
11
1002
}
  0
DIMENSION
  5
D2B
330
1B
100
AcDbEntity
  8
SK2
100
AcDbDimension
  2
*D14
 10
99.87500000000004
 20
101.35
 30
0.0
 11
99.875
 21
0.0
 31
0.0
 70
   160
  1
%%c202.7
 71
     5
 42
202.7
  3
ISO-25
100
AcDbAlignedDimension
 13
35.49989264999999
 23
-101.35
 33
0.0
 14
35.49989264999999
 24
101.35
 34
0.0
 50
90.0
100
AcDbRotatedDimension
1001
ACAD
1000
DSTYLE
1002
{
1070
   340
1005
11
1002
}
  0
DIMENSION
  5
D2C
330
1B
100
AcDbEntity
  8
SK2
100
AcDbDimension
  2
*D15
 10
91.37500000000001
 20
81.60000000000001
 30
0.0
 11
91.37500000000001
 21
0.0
 31
0.0
 70
   160
  1
%%c163.2
 71
     5
 42
163.2
  3
ISO-25
100
AcDbAlignedDimension
 13
60.49989264999999
 23
-81.6
 33
0.0
 14
60.49989264999999
 24
81.60000000000001
 34
0.0
 50
90.0
100
AcDbRotatedDimension
1001
ACAD
1000
DSTYLE
1002
{
1070
   340
1005
11
1002
}
  0
DIMENSION
  5
D2D
330
1B
100
AcDbEntity
  8
SK2
100
AcDbDimension
  2
*D16
 10
35.1
 20
132.325
 30
0.0
 11
17.54999999999998
 21
132.325
 31
0.0
 70
   160
  1
35.1
 71
     5
 42
35.1
  3
ISO-25
100
AcDbAlignedDimension
 13
0.0
 23
112.2
 33
0.0
 14
35.1
 24
102.35
 34
0.0
100
AcDbRotatedDimension
1001
ACAD
1000
DSTYLE
1002
{
1070
   340
1005
11
1002
}
  0
DIMENSION
  5
D2E
330
1B
100
AcDbEntity
  8
SK2
100
AcDbDimension
  2
*D17
 10
0.0000000000000017
 20
140.825
 30
0.0
 11
30.0
 21
140.825
 31
0.0
 70
   160
  1
60
 71
     5
 42
60.0
  3
ISO-25
100
AcDbAlignedDimension
 13
60.0
 23
82.5
 33
0.0
 14
0.0
 24
112.5
 34
0.0
 50
180.0
100
AcDbRotatedDimension
1001
ACAD
1000
DSTYLE
1002
{
1070
   340
1005
11
1002
}
  0
DIMENSION
  5
D2F
330
1B
100
AcDbEntity
  8
SK2
100
AcDbDimension
  2
*D18
 10
74.375
 20
25.0
 30
0.0
 11
74.375
 21
0.0
 31
0.0
 70
   160
  1
%%c50
 71
     5
 42
50.0
  3
ISO-25
100
AcDbAlignedDimension
 13
61.0
 23
-25.0
 33
0.0
 14
61.0
 24
25.0
 34
0.0
 50
90.0
100
AcDbRotatedDimension
1001
ACAD
1000
DSTYLE
1002
{
1070
   340
1005
11
1002
}
  0
DIMENSION
  5
D30
330
1B
100
AcDbEntity
  8
SK2
100
AcDbDimension
  2
*D19
 10
-12.62521470000001
 20
30.0
 30
0.0
 11
-12.62521470000001
 21
0.0
 31
0.0
 70
   160
  1
%%c60
 71
     5
 42
60.0
  3
ISO-25
100
AcDbAlignedDimension
 13
-1.0
 23
-30.0
 33
0.0
 14
-1.0
 24
30.0
 34
0.0
 50
90.0
100
AcDbRotatedDimension
1001
ACAD
1000
DSTYLE
1002
{
1070
   340
1005
11
1002
}
  0
DIMENSION
  5
D31
330
1B
100
AcDbEntity
  8
SK2
100
AcDbDimension
  2
*D20
 10
82.87489265000003
 20
35.9210244843
 30
0.0
 11
82.87489264999997
 21
0.0
 31
0.0
 70
   160
  1
Lk-%%c101.6
 71
     5
 42
71.84204896860001
  3
ISO-25
100
AcDbAlignedDimension
 13
63.5
 23
-35.92102448430001
 33
0.0
 14
63.5
 24
35.92102448430001
 34
0.0
 50
90.0
100
AcDbRotatedDimension
1001
ACAD
1000
DSTYLE
1002
{
1070
   340
1005
11
1002
}
  0
TEXT
  5
D32
330
1B
100
AcDbEntity
  8
6
100
AcDbText
 10
53.95440452739079
 20
-119.1101067961785
 30
0.0
 40
5.0
  1
FBD060CAP250SA017
 41
0.8
 72
     1
 11
78.95440452739079
 21
-119.1101067961785
 31
0.0
100
AcDbText
  0
INSERT
  5
D33
330
1B
100
AcDbEntity
  8
1
100
AcDbBlockReference
  2
NULLPUNKT_BL0
 10
0.0
 20
0.0
 30
0.0
  0
INSERT
  5
D34
330
1B
100
AcDbEntity
  8
1
100
AcDbBlockReference
  2
EINFUEGEPUNKT_BL1
 10
17.0
 20
0.0
 30
0.0
  0
LINE
  5
D35
330
1B
100
AcDbEntity
  8
1
100
AcDbLine
 10
16.0
 20
-111.2
 30
0.0
 11
1.0
 21
-111.2
 31
0.0
  0
LINE
  5
D36
330
1B
100
AcDbEntity
  8
SK1
100
AcDbLine
 10
34.1
 20
-101.35
 30
0.0
 11
25.0
 21
-101.35
 31
0.0
  0
LINE
  5
D37
330
1B
100
AcDbEntity
  8
SK1
100
AcDbLine
 10
23.0
 20
-99.35
 30
0.0
 11
18.5
 21
-99.35
 31
0.0
  0
LINE
  5
D38
330
1B
100
AcDbEntity
  8
SK1
100
AcDbLine
 10
46.0
 20
-81.6
 30
0.0
 11
36.09999999999999
 21
-81.6
 31
0.0
  0
LINE
  5
D39
330
1B
100
AcDbEntity
  8
SK1
100
AcDbLine
 10
59.0
 20
-81.29920048810001
 30
0.0
 11
46.5
 21
-81.29920048810001
 31
0.0
  0
LINE
  5
D3A
330
1B
100
AcDbEntity
  8
SK3
100
AcDbLine
 10
46.0
 20
-75.5
 30
0.0
 11
60.0
 21
-75.5
 31
0.0
  0
LINE
  5
D3B
330
1B
100
AcDbEntity
  8
SK1
100
AcDbLine
 10
60.0
 20
-75.5
 30
0.0
 11
67.0
 21
-75.5
 31
0.0
  0
LINE
  5
D3C
330
1B
100
AcDbEntity
  8
SK3
100
AcDbLine
 10
46.0
 20
-65.0
 30
0.0
 11
34.0
 21
-65.0
 31
0.0
  0
LINE
  5
D3D
330
1B
100
AcDbEntity
  8
SK3
100
AcDbLine
 10
46.0
 20
-64.59999999999999
 30
0.0
 11
29.0
 21
-64.59999999999999
 31
0.0
  0
LINE
  5
D3E
330
1B
100
AcDbEntity
  8
SK4
100
AcDbLine
 10
70.0
 20
-62.5
 30
0.0
 11
25.49989264999999
 21
-62.5
 31
0.0
  0
LINE
  5
D3F
330
1B
100
AcDbEntity
  8
SK3
100
AcDbLine
 10
46.0
 20
-60.4
 30
0.0
 11
29.0
 21
-60.4
 31
0.0
  0
LINE
  5
D40
330
1B
100
AcDbEntity
  8
SK3
100
AcDbLine
 10
46.0
 20
-60.0
 30
0.0
 11
34.0
 21
-60.0
 31
0.0
  0
LINE
  5
D41
330
1B
100
AcDbEntity
  8
SK3
100
AcDbLine
 10
29.0
 20
-64.59999999999999
 30
0.0
 11
27.73819270009997
 21
-62.5
 31
0.0
  0
LINE
  5
D42
330
1B
100
AcDbEntity
  8
NOCUT
100
AcDbLine
 10
0.0
 20
110.2
 30
0.0
 11
0.0
 21
0.0
 31
0.0
  0
LINE
  5
D43
330
1B
100
AcDbEntity
  8
1
100
AcDbLine
 10
0.0
 20
110.2
 30
0.0
 11
0.0
 21
-110.2
 31
0.0
  0
LINE
  5
D44
330
1B
100
AcDbEntity
  8
SK3
100
AcDbLine
 10
27.73819270009997
 20
62.5
 30
0.0
 11
29.0
 21
64.60000000000002
 31
0.0
  0
LINE
  5
D45
330
1B
100
AcDbEntity
  8
SK3
100
AcDbLine
 10
46.0
 20
-49.5
 30
0.0
 11
60.0
 21
-49.5
 31
0.0
  0
LINE
  5
D46
330
1B
100
AcDbEntity
  8
SK1
100
AcDbLine
 10
60.0
 20
-49.5
 30
0.0
 11
67.0
 21
-49.5
 31
0.0
  0
LINE
  5
D47
330
1B
100
AcDbEntity
  8
SK3
100
AcDbLine
 10
60.0
 20
-42.5
 30
0.0
 11
46.5
 21
-42.5
 31
0.0
  0
LINE
  5
D48
330
1B
100
AcDbEntity
  8
SK3
100
AcDbLine
 10
14.0
 20
11.25
 30
0.0
 11
14.0
 21
-11.25
 31
0.0
  0
LINE
  5
D49
330
1B
100
AcDbEntity
  8
NOCUT
100
AcDbLine
 10
17.0
 20
110.2
 30
0.0
 11
17.0
 21
0.0
 31
0.0
  0
LINE
  5
D4A
330
1B
100
AcDbEntity
  8
1
100
AcDbLine
 10
17.0
 20
110.2
 30
0.0
 11
17.0
 21
-110.2
 31
0.0
  0
LINE
  5
D4B
330
1B
100
AcDbEntity
  8
SK1
100
AcDbLine
 10
25.0
 20
-101.35
 30
0.0
 11
25.0
 21
101.35
 31
0.0
  0
LINE
  5
D4C
330
1B
100
AcDbEntity
  8
SK4
100
AcDbLine
 10
63.0
 20
-35.92102448430001
 30
0.0
 11
-3.0
 21
-35.92102448430001
 31
0.0
  0
LINE
  5
D4D
330
1B
100
AcDbEntity
  8
SK3
100
AcDbLine
 10
31.0
 20
-30.0
 30
0.0
 11
0.0
 21
-30.0
 31
0.0
  0
LINE
  5
D4E
330
1B
100
AcDbEntity
  8
SK3
100
AcDbLine
 10
60.0
 20
-25.0
 30
0.0
 11
46.5
 21
-25.0
 31
0.0
  0
LINE
  5
D4F
330
1B
100
AcDbEntity
  8
SK3
100
AcDbLine
 10
29.0
 20
64.60000000000002
 30
0.0
 11
29.0
 21
60.39999999999999
 31
0.0
  0
LINE
  5
D50
330
1B
100
AcDbEntity
  8
SK3
100
AcDbLine
 10
29.0
 20
-60.4
 30
0.0
 11
29.0
 21
-64.59999999999999
 31
0.0
  0
LINE
  5
D51
330
1B
100
AcDbEntity
  8
SK3
100
AcDbLine
 10
31.0
 20
30.0
 30
0.0
 11
31.0
 21
-30.0
 31
0.0
  0
LINE
  5
D52
330
1B
100
AcDbEntity
  8
SK3
100
AcDbLine
 10
34.0
 20
65.0
 30
0.0
 11
34.0
 21
60.0
 31
0.0
  0
LINE
  5
D53
330
1B
100
AcDbEntity
  8
SK3
100
AcDbLine
 10
34.0
 20
-60.0
 30
0.0
 11
34.0
 21
-65.0
 31
0.0
  0
LINE
  5
D54
330
1B
100
AcDbEntity
  8
SK1
100
AcDbLine
 10
35.1
 20
100.35
 30
0.0
 11
35.1
 21
-100.35
 31
0.0
  0
LINE
  5
D55
330
1B
100
AcDbEntity
  8
SK3
100
AcDbLine
 10
12.4
 20
-12.84999999999999
 30
0.0
 11
0.0
 21
-12.84999999999999
 31
0.0
  0
LINE
  5
D56
330
1B
100
AcDbEntity
  8
SK3
100
AcDbLine
 10
46.5
 20
-12.5
 30
0.0
 11
42.0
 21
-12.5
 31
0.0
  0
LINE
  5
D57
330
1B
100
AcDbEntity
  8
SK3
100
AcDbLine
 10
42.0
 20
-8.0
 30
0.0
 11
31.0
 21
-8.0
 31
0.0
  0
LINE
  5
D58
330
1B
100
AcDbEntity
  8
SK3
100
AcDbLine
 10
42.0
 20
12.5
 30
0.0
 11
42.0
 21
-12.5
 31
0.0
  0
LINE
  5
D59
330
1B
100
AcDbEntity
  8
SK3
100
AcDbLine
 10
46.0
 20
81.34070321799999
 30
0.0
 11
46.0
 21
43.047392319
 31
0.0
  0
LINE
  5
D5A
330
1B
100
AcDbEntity
  8
SK3
100
AcDbLine
 10
46.0
 20
-43.04739231880001
 30
0.0
 11
46.0
 21
-81.34070321800001
 31
0.0
  0
LINE
  5
D5B
330
1B
100
AcDbEntity
  8
SK1
100
AcDbLine
 10
46.0
 20
-81.6
 30
0.0
 11
46.0
 21
-81.34070321800001
 31
0.0
  0
LINE
  5
D5C
330
1B
100
AcDbEntity
  8
SK1
100
AcDbLine
 10
46.0
 20
81.34070321799999
 30
0.0
 11
46.0
 21
81.60000000000001
 31
0.0
  0
LINE
  5
D5D
330
1B
100
AcDbEntity
  8
SK3
100
AcDbLine
 10
46.5
 20
25.0
 30
0.0
 11
46.5
 21
-25.0
 31
0.0
  0
LINE
  5
D5E
330
1B
100
AcDbEntity
  8
SK3
100
AcDbLine
 10
42.0
 20
-6.5
 30
0.0
 11
31.0
 21
-6.5
 31
0.0
  0
LINE
  5
D5F
330
1B
100
AcDbEntity
  8
4
100
AcDbLine
 10
-3.0
 20
0.0
 30
0.0
 11
63.0
 21
0.0
 31
0.0
  0
LINE
  5
D60
330
1B
100
AcDbEntity
  8
NOCUT
100
AcDbLine
 10
0.0
 20
0.0
 30
0.0
 11
17.0
 21
0.0
 31
0.0
  0
LINE
  5
D61
330
1B
100
AcDbEntity
  8
SK3
100
AcDbLine
 10
42.0
 20
6.5
 30
0.0
 11
31.0
 21
6.5
 31
0.0
  0
LINE
  5
D62
330
1B
100
AcDbEntity
  8
SK1
100
AcDbLine
 10
60.0
 20
80.20199498770002
 30
0.0
 11
60.0
 21
-80.20199498770002
 31
0.0
  0
LINE
  5
D63
330
1B
100
AcDbEntity
  8
SK1
100
AcDbLine
 10
67.0
 20
-75.5
 30
0.0
 11
67.0
 21
-49.5
 31
0.0
  0
LINE
  5
D64
330
1B
100
AcDbEntity
  8
SK1
100
AcDbLine
 10
67.0
 20
49.5
 30
0.0
 11
67.0
 21
75.5
 31
0.0
  0
LINE
  5
D65
330
1B
100
AcDbEntity
  8
SK3
100
AcDbLine
 10
29.0
 20
-60.4
 30
0.0
 11
27.73819270009997
 21
-62.5
 31
0.0
  0
LINE
  5
D66
330
1B
100
AcDbEntity
  8
SK3
100
AcDbLine
 10
42.0
 20
8.0
 30
0.0
 11
31.0
 21
8.0
 31
0.0
  0
LINE
  5
D67
330
1B
100
AcDbEntity
  8
SK3
100
AcDbLine
 10
46.5
 20
12.5
 30
0.0
 11
42.0
 21
12.5
 31
0.0
  0
LINE
  5
D68
330
1B
100
AcDbEntity
  8
SK3
100
AcDbLine
 10
12.4
 20
12.84999999999999
 30
0.0
 11
0.0
 21
12.84999999999999
 31
0.0
  0
LINE
  5
D69
330
1B
100
AcDbEntity
  8
SK3
100
AcDbLine
 10
27.73819270009997
 20
62.5
 30
0.0
 11
29.0
 21
60.39999999999999
 31
0.0
  0
LINE
  5
D6A
330
1B
100
AcDbEntity
  8
SK3
100
AcDbLine
 10
60.0
 20
25.0
 30
0.0
 11
46.5
 21
25.0
 31
0.0
  0
LINE
  5
D6B
330
1B
100
AcDbEntity
  8
SK3
100
AcDbLine
 10
31.0
 20
30.0
 30
0.0
 11
0.0
 21
30.0
 31
0.0
  0
LINE
  5
D6C
330
1B
100
AcDbEntity
  8
SK4
100
AcDbLine
 10
63.0
 20
35.92102448430001
 30
0.0
 11
-3.0
 21
35.92102448430001
 31
0.0
  0
LINE
  5
D6D
330
1B
100
AcDbEntity
  8
SK3
100
AcDbLine
 10
46.5
 20
42.5
 30
0.0
 11
60.0
 21
42.5
 31
0.0
  0
LINE
  5
D6E
330
1B
100
AcDbEntity
  8
SK3
100
AcDbLine
 10
46.0
 20
49.5
 30
0.0
 11
60.0
 21
49.5
 31
0.0
  0
LINE
  5
D6F
330
1B
100
AcDbEntity
  8
SK1
100
AcDbLine
 10
60.0
 20
49.5
 30
0.0
 11
67.0
 21
49.5
 31
0.0
  0
LINE
  5
D70
330
1B
100
AcDbEntity
  8
SK3
100
AcDbLine
 10
34.0
 20
60.0
 30
0.0
 11
46.0
 21
60.0
 31
0.0
  0
LINE
  5
D71
330
1B
100
AcDbEntity
  8
SK3
100
AcDbLine
 10
29.0
 20
60.39999999999999
 30
0.0
 11
46.0
 21
60.39999999999999
 31
0.0
  0
LINE
  5
D72
330
1B
100
AcDbEntity
  8
SK4
100
AcDbLine
 10
70.0
 20
62.5
 30
0.0
 11
25.49989264999999
 21
62.5
 31
0.0
  0
LINE
  5
D73
330
1B
100
AcDbEntity
  8
SK3
100
AcDbLine
 10
29.0
 20
64.60000000000002
 30
0.0
 11
46.0
 21
64.60000000000002
 31
0.0
  0
LINE
  5
D74
330
1B
100
AcDbEntity
  8
SK3
100
AcDbLine
 10
34.0
 20
65.0
 30
0.0
 11
46.0
 21
65.0
 31
0.0
  0
LINE
  5
D75
330
1B
100
AcDbEntity
  8
SK3
100
AcDbLine
 10
46.0
 20
75.5
 30
0.0
 11
60.0
 21
75.5
 31
0.0
  0
LINE
  5
D76
330
1B
100
AcDbEntity
  8
SK1
100
AcDbLine
 10
60.0
 20
75.5
 30
0.0
 11
67.0
 21
75.5
 31
0.0
  0
LINE
  5
D77
330
1B
100
AcDbEntity
  8
SK1
100
AcDbLine
 10
59.0
 20
81.29920048810005
 30
0.0
 11
46.5
 21
81.29920048810005
 31
0.0
  0
LINE
  5
D78
330
1B
100
AcDbEntity
  8
SK1
100
AcDbLine
 10
46.0
 20
81.60000000000001
 30
0.0
 11
36.09999999999999
 21
81.60000000000001
 31
0.0
  0
LINE
  5
D79
330
1B
100
AcDbEntity
  8
SK1
100
AcDbLine
 10
23.0
 20
99.35000000000002
 30
0.0
 11
18.5
 21
99.35000000000002
 31
0.0
  0
LINE
  5
D7A
330
1B
100
AcDbEntity
  8
SK1
100
AcDbLine
 10
34.1
 20
101.35
 30
0.0
 11
25.0
 21
101.35
 31
0.0
  0
LINE
  5
D7B
330
1B
100
AcDbEntity
  8
NOCUT
100
AcDbLine
 10
16.0
 20
111.2
 30
0.0
 11
1.0
 21
111.2
 31
0.0
  0
LINE
  5
D7C
330
1B
100
AcDbEntity
  8
1
100
AcDbLine
 10
16.0
 20
111.2
 30
0.0
 11
1.0
 21
111.2
 31
0.0
  0
ARC
  5
D7D
330
1B
100
AcDbEntity
  8
SK3
100
AcDbCircle
 10
46.5
 20
43.0
 30
0.0
 40
0.5
100
AcDbArc
 50
180.0
 51
270.0
  0
ARC
  5
D7E
330
1B
100
AcDbEntity
  8
SK3
100
AcDbCircle
 10
46.5
 20
-43.0
 30
0.0
 40
0.5
100
AcDbArc
 50
90.0
 51
180.0
  0
ARC
  5
D7F
330
1B
100
AcDbEntity
  8
SK3
100
AcDbCircle
 10
12.4
 20
11.25
 30
0.0
 40
1.6
100
AcDbArc
 50
0.0
 51
90.0
  0
ARC
  5
D80
330
1B
100
AcDbEntity
  8
SK3
100
AcDbCircle
 10
12.4
 20
-11.25
 30
0.0
 40
1.6
100
AcDbArc
 50
270.0
 51
0.0
  0
ARC
  5
D81
330
1B
100
AcDbEntity
  8
NOCUT
100
AcDbCircle
 10
16.0
 20
110.2
 30
0.0
 40
1.0
100
AcDbArc
 50
0.0
 51
90.0
  0
ARC
  5
D82
330
1B
100
AcDbEntity
  8
NOCUT
100
AcDbCircle
 10
1.0
 20
110.2
 30
0.0
 40
1.0
100
AcDbArc
 50
90.0
 51
180.0
  0
ARC
  5
D83
330
1B
100
AcDbEntity
  8
SK1
100
AcDbCircle
 10
18.5
 20
-101.35
 30
0.0
 40
2.0
100
AcDbArc
 50
90.0
 51
138.7880302156004
  0
ARC
  5
D84
330
1B
100
AcDbEntity
  8
SK1
100
AcDbCircle
 10
18.5
 20
101.35
 30
0.0
 40
2.0
100
AcDbArc
 50
221.2119697843996
 51
270.0
  0
ARC
  5
D85
330
1B
100
AcDbEntity
  8
SK1
100
AcDbCircle
 10
23.0
 20
-101.35
 30
0.0
 40
2.0
100
AcDbArc
 50
0.0
 51
90.0
  0
ARC
  5
D86
330
1B
100
AcDbEntity
  8
SK1
100
AcDbCircle
 10
23.0
 20
101.35
 30
0.0
 40
2.0
100
AcDbArc
 50
270.0
 51
0.0
  0
ARC
  5
D87
330
1B
100
AcDbEntity
  8
SK1
100
AcDbCircle
 10
34.1
 20
-100.35
 30
0.0
 40
1.0
100
AcDbArc
 50
270.0
 51
0.0
  0
ARC
  5
D88
330
1B
100
AcDbEntity
  8
SK1
100
AcDbCircle
 10
34.1
 20
100.35
 30
0.0
 40
1.0
100
AcDbArc
 50
0.0
 51
90.0
  0
ARC
  5
D89
330
1B
100
AcDbEntity
  8
1
100
AcDbCircle
 10
16.0
 20
-110.2
 30
0.0
 40
1.0
100
AcDbArc
 50
270.0
 51
0.0
  0
ARC
  5
D8A
330
1B
100
AcDbEntity
  8
1
100
AcDbCircle
 10
16.0
 20
110.2
 30
0.0
 40
1.0
100
AcDbArc
 50
0.0
 51
90.0
  0
ARC
  5
D8B
330
1B
100
AcDbEntity
  8
1
100
AcDbCircle
 10
1.0
 20
-110.2
 30
0.0
 40
1.0
100
AcDbArc
 50
180.0
 51
270.0
  0
ARC
  5
D8C
330
1B
100
AcDbEntity
  8
1
100
AcDbCircle
 10
1.0
 20
110.2
 30
0.0
 40
1.0
100
AcDbArc
 50
90.0
 51
180.0
  0
ARC
  5
D8D
330
1B
100
AcDbEntity
  8
SK1
100
AcDbCircle
 10
36.09999999999999
 20
-82.59999999999998
 30
0.0
 40
1.0
100
AcDbArc
 50
90.0
 51
179.9999999998998
  0
ARC
  5
D8E
330
1B
100
AcDbEntity
  8
SK1
100
AcDbCircle
 10
36.09999999999999
 20
82.60000000000003
 30
0.0
 40
1.0
100
AcDbArc
 50
180.0000000001001
 51
270.0
  0
SPLINE
  5
D8F
330
1B
100
AcDbEntity
  8
SK3
100
AcDbSpline
210
0.0
220
0.0
230
1.0
 70
     8
 71
     3
 72
     8
 73
     4
 74
     2
 42
0.0000000001
 43
0.0000000001
 44
0.0000000001
 12
0.0
 22
-1.0
 32
0.0
 13
0.9166644644460792
 23
-0.3996576780468289
 33
0.0
 40
0.0
 40
0.0
 40
0.0
 40
0.0
 40
0.0136736531853291
 40
0.0136736531853291
 40
0.0136736531853291
 40
0.0136736531853291
 10
46.0
 20
81.34070321799999
 30
0.0
 10
46.0
 20
81.33614533360487
 30
0.0
 10
46.00399949114197
 20
81.33156595199411
 30
0.0
 10
46.00817754180002
 20
81.32974435849995
 30
0.0
 11
46.0
 21
81.34070321799999
 31
0.0
 11
46.00817754180002
 21
81.32974435849995
 31
0.0
  0
SPLINE
  5
D90
330
1B
100
AcDbEntity
  8
SK3
100
AcDbSpline
210
0.0
220
0.0
230
1.0
 70
     8
 71
     3
 72
     8
 73
     4
 74
     2
 42
0.0000000001
 43
0.0000000001
 44
0.0000000001
 12
0.9166644697569562
 22
-0.3996576658656731
 32
0.0
 13
0.9978557197582023
 23
-0.0654519865690868
 33
0.0
 40
0.0
 40
0.0
 40
0.0
 40
0.0
 40
0.0298835051887956
 40
0.0298835051887956
 40
0.0298835051887956
 40
0.0298835051887956
 10
46.00817754180002
 20
81.32974435849995
 30
0.0
 10
46.01730859094614
 20
81.32576330118942
 30
0.0
 10
46.02778191984028
 20
81.32590580196007
 30
0.0
 10
46.03772172869997
 20
81.32525382369998
 30
0.0
 11
46.00817754180002
 21
81.32974435849995
 31
0.0
 11
46.03772172869997
 21
81.32525382369998
 31
0.0
  0
SPLINE
  5
D91
330
1B
100
AcDbEntity
  8
SK3
100
AcDbSpline
210
0.0
220
0.0
230
1.0
 70
     8
 71
     3
 72
     8
 73
     4
 74
     2
 42
0.0000000001
 43
0.0000000001
 44
0.0000000001
 12
0.9978557200493165
 22
-0.065451982130873
 32
0.0
 13
0.99162154513845
 23
-0.1291770537565909
 33
0.0
 40
0.0
 40
0.0
 40
0.0
 40
0.0
 40
0.0467192887522756
 40
0.0467192887522756
 40
0.0467192887522756
 40
0.0467192887522756
 10
46.03772172869997
 20
81.32525382369998
 30
0.0
 10
46.05326143187267
 20
81.32423453368245
 30
0.0
 10
46.06877558873323
 20
81.32270815439159
 30
0.0
 10
46.0842182065
 20
81.32069646770004
 30
0.0
 11
46.03772172869997
 21
81.32525382369998
 31
0.0
 11
46.0842182065
 21
81.32069646770004
 31
0.0
  0
SPLINE
  5
D92
330
1B
100
AcDbEntity
  8
SK3
100
AcDbSpline
210
0.0
220
0.0
230
1.0
 70
     8
 71
     3
 72
     8
 73
     4
 74
     2
 42
0.0000000001
 43
0.0000000001
 44
0.0000000001
 12
0.9916215446079165
 22
-0.1291770578292047
 32
0.0
 13
0.9919600806884545
 23
-0.1265511687838355
 33
0.0
 40
0.0
 40
0.0
 40
0.0
 40
0.0
 40
0.062686156276717
 40
0.062686156276717
 40
0.062686156276717
 40
0.062686156276717
 10
46.0842182065
 20
81.32069646770004
 30
0.0
 10
46.10493852087087
 20
81.31799726328855
 30
0.0
 10
46.1255270519872
 20
81.31433747614774
 30
0.0
 10
46.14625444019997
 20
81.31169314069994
 30
0.0
 11
46.0842182065
 21
81.32069646770004
 31
0.0
 11
46.14625444019997
 21
81.31169314069994
 31
0.0
  0
SPLINE
  5
D93
330
1B
100
AcDbEntity
  8
SK3
100
AcDbSpline
210
0.0
220
0.0
230
1.0
 70
     8
 71
     3
 72
     8
 73
     4
 74
     2
 42
0.0000000001
 43
0.0000000001
 44
0.0000000001
 12
0.9919600804566982
 22
-0.1265511706004365
 32
0.0
 13
0.9987331245480802
 23
-0.0503204325341976
 33
0.0
 40
0.0
 40
0.0
 40
0.0
 40
0.0
 40
0.076430352567434
 40
0.076430352567434
 40
0.076430352567434
 40
0.076430352567434
 10
46.14625444019997
 20
81.31169314069994
 30
0.0
 10
46.17152639309401
 20
81.30846902383767
 30
0.0
 10
46.19698146142332
 20
81.30669048860005
 30
0.0
 10
46.22242596969999
 20
81.30540848580007
 30
0.0
 11
46.14625444019997
 21
81.31169314069994
 31
0.0
 11
46.22242596969999
 21
81.30540848580007
 31
0.0
  0
SPLINE
  5
D94
330
1B
100
AcDbEntity
  8
SK3
100
AcDbSpline
210
0.0
220
0.0
230
1.0
 70
     8
 71
     3
 72
     8
 73
     4
 74
     2
 42
0.0000000001
 43
0.0000000001
 44
0.0000000001
 12
0.998733124550956
 22
-0.0503204324771225
 32
0.0
 13
0.999663249243267
 23
-0.025949722780681
 33
0.0
 40
0.0
 40
0.0
 40
0.0
 40
0.0
 40
0.0869611365767597
 40
0.0869611365767597
 40
0.0869611365767597
 40
0.0869611365767597
 10
46.22242596969999
 20
81.30540848580007
 30
0.0
 10
46.25137629224925
 20
81.303949845133
 30
0.0
 10
46.28035929708393
 20
81.30319676119565
 30
0.0
 10
46.3093365812
 20
81.30244455540003
 30
0.0
 11
46.22242596969999
 21
81.30540848580007
 31
0.0
 11
46.3093365812
 21
81.30244455540003
 31
0.0
  0
SPLINE
  5
D95
330
1B
100
AcDbEntity
  8
SK3
100
AcDbSpline
210
0.0
220
0.0
230
1.0
 70
     8
 71
     3
 72
     8
 73
     4
 74
     2
 42
0.0000000001
 43
0.0000000001
 44
0.0000000001
 12
0.9996632492198113
 22
-0.0259497236842615
 32
0.0
 13
0.9998138631185085
 23
-0.0192934993208648
 33
0.0
 40
0.0
 40
0.0
 40
0.0
 40
0.0
 40
0.0937207588601056
 40
0.0937207588601056
 40
0.0937207588601056
 40
0.0937207588601056
 10
46.3093365812
 20
81.30244455540003
 30
0.0
 10
46.34056631397381
 20
81.30163387946806
 30
0.0
 10
46.37179675590989
 20
81.30083365139908
 30
0.0
 10
46.4030311939
 20
81.30023091759992
 30
0.0
 11
46.3093365812
 21
81.30244455540003
 31
0.0
 11
46.4030311939
 21
81.30023091759992
 31
0.0
  0
SPLINE
  5
D96
330
1B
100
AcDbEntity
  8
SK3
100
AcDbSpline
210
0.0
220
0.0
230
1.0
 70
     8
 71
     3
 72
     8
 73
     4
 74
     2
 42
0.0000000001
 43
0.0000000001
 44
0.0000000001
 12
0.9998138631998035
 22
-0.0192934951080684
 32
0.0
 13
1.0
 23
0.0
 33
0.0
 40
0.0
 40
0.0
 40
0.0
 40
0.0
 40
0.0969742808244152
 40
0.0969742808244152
 40
0.0969742808244152
 40
0.0969742808244152
 10
46.4030311939
 20
81.30023091759992
 30
0.0
 10
46.43534993734736
 20
81.2996072599957
 30
0.0
 10
46.4676752397252
 20
81.29920048810005
 30
0.0
 10
46.5
 20
81.29920048810005
 30
0.0
 11
46.4030311939
 21
81.30023091759992
 31
0.0
 11
46.5
 21
81.29920048810005
 31
0.0
  0
SPLINE
  5
D97
330
1B
100
AcDbEntity
  8
SK3
100
AcDbSpline
210
0.0
220
0.0
230
1.0
 70
     8
 71
     3
 72
    11
 73
     7
 74
     5
 42
0.0000000001
 43
0.0000000001
 44
0.0000000001
 12
-1.0
 22
0.0
 32
0.0
 13
0.0
 23
-1.0
 33
0.0
 40
0.0
 40
0.0
 40
0.0
 40
0.0
 40
0.1906910151033626
 40
0.354035194807457
 40
0.4634117992024073
 40
0.5041746818329593
 40
0.5041746818329593
 40
0.5041746818329593
 40
0.5041746818329593
 10
46.5
 20
-81.29920048810001
 30
0.0
 10
46.43643632829888
 20
-81.29920048810001
 30
0.0
 10
46.32151765670415
 20
-81.30208102938704
 30
0.0
 10
46.15618687509456
 20
-81.30648776796141
 30
0.0
 10
46.07421412721414
 20
-81.32450367781485
 30
0.0
 10
46.0
 20
-81.32711559045651
 30
0.0
 10
46.0
 20
-81.34070321800001
 30
0.0
 11
46.5
 21
-81.29920048810001
 31
0.0
 11
46.3093365812
 21
-81.30244455539999
 31
0.0
 11
46.14625444019997
 21
-81.31169314069998
 31
0.0
 11
46.03772172869997
 21
-81.32525382369998
 31
0.0
 11
46.0
 21
-81.34070321800001
 31
0.0
  0
SPLINE
  5
D98
330
1B
100
AcDbEntity
  8
SK1
100
AcDbSpline
210
0.0
220
0.0
230
1.0
 70
     8
 71
     3
 72
    12
 73
     8
 74
     6
 42
0.0000000001
 43
0.0000000001
 44
0.0000000001
 12
0.9963137314485079
 22
0.0857843139924221
 32
0.0
 13
0.0
 23
1.0
 33
0.0
 40
0.0
 40
0.0
 40
0.0
 40
0.0
 40
0.3250132862226495
 40
0.6560079593601498
 40
0.9800037235507206
 40
1.306451774735512
 40
1.618374813519789
 40
1.618374813519789
 40
1.618374813519789
 40
1.618374813519789
 10
59.0
 20
-81.29920048810001
 30
0.0
 10
59.10793839998895
 20
-81.28990680750099
 30
0.0
 10
59.32401528598284
 20
-81.23490185499042
 30
0.0
 10
59.60560198074165
 20
-81.06040375697615
 30
0.0
 10
59.82646775289097
 20
-80.81314927388254
 30
0.0
 10
59.96674172266244
 20
-80.51988642981777
 30
0.0
 10
60.0
 20
-80.30596933396145
 30
0.0
 10
60.0
 20
-80.20199498770002
 30
0.0
 11
59.0
 21
-81.29920048810001
 31
0.0
 11
59.31527415339997
 21
-81.2202331251
 31
0.0
 11
59.59719411569995
 21
-81.04680126959998
 31
0.0
 11
59.81312053819999
 21
-80.80524581989999
 31
0.0
 11
59.95322335929995
 21
-80.5103907205
 31
0.0
 11
60.0
 21
-80.20199498770002
 31
0.0
  0
SPLINE
  5
D99
330
1B
100
AcDbEntity
  8
SK1
100
AcDbSpline
210
0.0
220
0.0
230
1.0
 70
     8
 71
     3
 72
    10
 73
     6
 74
     4
 42
0.0000000001
 43
0.0000000001
 44
0.0000000001
 12
0.0
 22
1.0
 32
0.0
 13
0.9996632492722099
 23
0.0259497216657019
 33
0.0
 40
0.0
 40
0.0
 40
0.0
 40
0.0
 40
0.040762882630552
 40
0.1501394870255022
 40
0.3134836667295966
 40
0.3134836667295966
 40
0.3134836667295966
 40
0.3134836667295966
 10
46.0
 20
-81.34070321800001
 30
0.0
 10
46.0
 20
-81.32711559045651
 30
0.0
 10
46.07425120898443
 20
-81.32450271522783
 30
0.0
 10
46.1557310329913
 20
-81.30649960093707
 30
0.0
 10
46.25490685672243
 20
-81.30385746739966
 30
0.0
 10
46.3093365812
 20
-81.30244455539999
 30
0.0
 11
46.0
 21
-81.34070321800001
 31
0.0
 11
46.03772172869997
 21
-81.32525382369998
 31
0.0
 11
46.14625444019997
 21
-81.31169314069998
 31
0.0
 11
46.3093365812
 21
-81.30244455539999
 31
0.0
  0
SPLINE
  5
D9A
330
1B
100
AcDbEntity
  8
SK1
100
AcDbSpline
210
0.0
220
0.0
230
1.0
 70
     8
 71
     3
 72
     8
 73
     4
 74
     2
 42
0.0000000001
 43
0.0000000001
 44
0.0000000001
 12
0.999663249228103
 22
0.0259497233648388
 32
0.0
 13
1.0
 23
0.0
 33
0.0
 40
0.0
 40
0.0
 40
0.0
 40
0.0
 40
0.1906910151033626
 40
0.1906910151033626
 40
0.1906910151033626
 40
0.1906910151033626
 10
46.3093365812
 20
-81.30244455539999
 30
0.0
 10
46.37287884778561
 20
-81.30079509570329
 30
0.0
 10
46.43643632829888
 20
-81.29920048810001
 30
0.0
 10
46.5
 20
-81.29920048810001
 30
0.0
 11
46.3093365812
 21
-81.30244455539999
 31
0.0
 11
46.5
 21
-81.29920048810001
 31
0.0
  0
SPLINE
  5
D9B
330
1B
100
AcDbEntity
  8
SK1
100
AcDbSpline
210
0.0
220
0.0
230
1.0
 70
     8
 71
     3
 72
    12
 73
     8
 74
     6
 42
0.0000000001
 43
0.0000000001
 44
0.0000000001
 12
0.0
 22
1.0
 32
0.0
 13
-0.9963137314345825
 23
0.085784314154157
 33
0.0
 40
0.0
 40
0.0
 40
0.0
 40
0.0
 40
0.3142194551017696
 40
0.6426740424663383
 40
0.9666210451085458
 40
1.29563991654352
 40
1.618377904941391
 40
1.618377904941391
 40
1.618377904941391
 40
1.618377904941391
 10
60.0
 20
80.20199498770002
 30
0.0
 10
60.0
 20
80.30673480606727
 30
0.0
 10
59.96626581690112
 20
80.52210854213649
 30
0.0
 10
59.82447556138493
 20
80.81629435039278
 30
0.0
 10
59.60269102634436
 20
81.06271622298592
 30
0.0
 10
59.32186551815551
 20
81.23558303735721
 30
0.0
 10
59.10718276316546
 20
81.28997186910464
 30
0.0
 10
59.0
 20
81.29920048810005
 30
0.0
 11
60.0
 21
80.20199498770002
 31
0.0
 11
59.95254169079998
 21
80.51260982129997
 31
0.0
 11
59.81070170039998
 21
80.80885943409999
 31
0.0
 11
59.59389931810001
 21
81.0495633758
 31
0.0
 11
59.31315279220001
 21
81.22112912400002
 31
0.0
 11
59.0
 21
81.29920048810005
 31
0.0
  0
SPLINE
  5
D9C
330
1B
100
AcDbEntity
  8
SK1
100
AcDbSpline
210
0.0
220
0.0
230
1.0
 70
     8
 71
     3
 72
    11
 73
     7
 74
     5
 42
0.0000000001
 43
0.0000000001
 44
0.0000000001
 12
-1.0
 22
0.0
 32
0.0
 13
0.0
 23
1.0
 33
0.0
 40
0.0
 40
0.0
 40
0.0
 40
0.0
 40
0.1906910151033629
 40
0.3540351948074524
 40
0.463411799202408
 40
0.5041746818329492
 40
0.5041746818329492
 40
0.5041746818329492
 40
0.5041746818329492
 10
46.5
 20
81.29920048810005
 30
0.0
 10
46.43643632829888
 20
81.29920048810005
 30
0.0
 10
46.32151765670414
 20
81.30208102938714
 30
0.0
 10
46.15618687509455
 20
81.30648776796133
 30
0.0
 10
46.07421412721416
 20
81.32450367781485
 30
0.0
 10
46.0
 20
81.32711559045647
 30
0.0
 10
46.0
 20
81.34070321799999
 30
0.0
 11
46.5
 21
81.29920048810005
 31
0.0
 11
46.3093365812
 21
81.30244455540003
 31
0.0
 11
46.14625444019997
 21
81.31169314069994
 31
0.0
 11
46.03772172869997
 21
81.32525382369998
 31
0.0
 11
46.0
 21
81.34070321799999
 31
0.0
  0
ENDSEC
  0
SECTION
  2
OBJECTS
  0
DICTIONARY
  5
306
330
0
100
AcDbDictionary
281
     1
  3
ACAD_COLOR
350
310
  3
ACAD_GROUP
350
307
  3
ACAD_LAYOUT
350
313
  3
ACAD_MATERIAL
350
30F
  3
ACAD_MLINESTYLE
350
308
  3
ACAD_PLOTSETTINGS
350
314
  3
ACAD_PLOTSTYLENAME
350
30D
  3
ACAD_TABLESTYLE
350
311
  3
ACDBHEADERROUNDTRIPXREC
350
F66
  3
AcDbVariableDictionary
350
59F
  0
DICTIONARY
  5
59B
330
2
100
AcDbDictionary
280
     1
281
     1
  3
ACAD_LAYERFILTERS
360
F64
  3
ACLYDICTIONARY
360
F63
  0
DICTIONARY
  5
310
102
{ACAD_REACTORS
330
306
102
}
330
306
100
AcDbDictionary
281
     1
  0
DICTIONARY
  5
307
102
{ACAD_REACTORS
330
306
102
}
330
306
100
AcDbDictionary
281
     1
  0
DICTIONARY
  5
313
102
{ACAD_REACTORS
330
306
102
}
330
306
100
AcDbDictionary
281
     1
  3
Layout1
350
316
  3
Model
350
315
  0
DICTIONARY
  5
30F
102
{ACAD_REACTORS
330
306
102
}
330
306
100
AcDbDictionary
281
     1
  0
DICTIONARY
  5
308
102
{ACAD_REACTORS
330
306
102
}
330
306
100
AcDbDictionary
281
     1
  3
STANDARD
350
309
  0
DICTIONARY
  5
314
102
{ACAD_REACTORS
330
306
102
}
330
306
100
AcDbDictionary
281
     1
  0
ACDBDICTIONARYWDFLT
  5
30D
102
{ACAD_REACTORS
330
306
102
}
330
306
100
AcDbDictionary
281
     1
  3
Normal
350
30E
100
AcDbDictionaryWithDefault
340
30E
  0
DICTIONARY
  5
311
102
{ACAD_REACTORS
330
306
102
}
330
306
100
AcDbDictionary
281
     1
  3
Standard
350
312
  0
DICTIONARY
  5
F66
102
{ACAD_REACTORS
330
306
102
}
330
306
100
AcDbDictionary
281
     1
  0
DICTIONARY
  5
59F
102
{ACAD_REACTORS
330
306
102
}
330
306
100
AcDbDictionary
281
     1
  3
CTABLESTYLE
350
5A0
  3
DIMASSOC
350
BF7
  3
PROJECTNAME
350
BF8
  0
DICTIONARY
  5
F64
102
{ACAD_REACTORS
330
59B
102
}
330
59B
100
AcDbDictionary
281
     1
  0
DICTIONARY
  5
F63
102
{ACAD_REACTORS
330
59B
102
}
330
59B
100
AcDbDictionary
281
     1
1001
ACAD
1000
<All
  0
LAYOUT
  5
316
102
{ACAD_XDICTIONARY
360
F69
102
}
102
{ACAD_REACTORS
330
313
102
}
330
313
100
AcDbPlotSettings
  1

  2
\\ingdom02\ITB3
  4

  6

 40
0.0
 41
0.0
 42
0.0
 43
0.0
 44
0.0
 45
0.0
 46
0.0
 47
0.0
 48
0.0
 49
0.0
140
0.0
141
0.0
142
1.0
143
1.0
 70
   688
 72
     0
 73
     0
 74
     5
  7
A1-A2.ctb
 75
    16
147
1.0
148
0.0
149
0.0
100
AcDbLayout
  1
Layout1
 70
     1
 71
     1
 10
0.0
 20
0.0
 11
12.0
 21
9.0
 12
0.0
 22
0.0
 32
0.0
 14
1.000000000000000E+20
 24
1.000000000000000E+20
 34
1.000000000000000E+20
 15
-1.000000000000000E+20
 25
-1.000000000000000E+20
 35
-1.000000000000000E+20
146
0.0
 13
0.0
 23
0.0
 33
0.0
 16
1.0
 26
0.0
 36
0.0
 17
0.0
 27
1.0
 37
0.0
 76
     0
330
1C
  0
LAYOUT
  5
315
102
{ACAD_XDICTIONARY
360
F67
102
}
102
{ACAD_REACTORS
330
313
102
}
330
313
100
AcDbPlotSettings
  1

  2
\\ingdom02\ITB3
  4
A4
  6

 40
4.233333110809326
 41
4.233341693878172
 42
7.789321899414062
 43
4.23333740234375
 44
209.9733276367186
 45
296.9259948730469
 46
0.0
 47
0.0
 48
0.0
 49
0.0
140
0.0
141
0.0
142
1.0
143
1.386859677784339
 70
 11952
 72
     1
 73
     1
 74
     0
  7
A1-A2.ctb
 75
     0
147
0.7210534822078106
148
157.5014242569753
149
120.1473704596609
100
AcDbLayout
  1
Model
 70
     1
 71
     0
 10
0.0
 20
0.0
 11
12.0
 21
9.0
 12
0.0
 22
0.0
 32
0.0
 14
0.0
 24
0.0
 34
0.0
 15
0.0
 25
0.0
 35
0.0
146
0.0
 13
0.0
 23
0.0
 33
0.0
 16
1.0
 26
0.0
 36
0.0
 17
0.0
 27
1.0
 37
0.0
 76
     0
330
1B
1001
ACAD_PSEXT
1000
\\ingdom02\ITB3
1000
HP LaserJet 5000 Series PCL 6
1000
TB
1000

1070
     0
  0
MLINESTYLE
  5
309
102
{ACAD_REACTORS
330
308
102
}
330
308
100
AcDbMlineStyle
  2
STANDARD
 70
     0
  3

 62
   256
 51
90.0
 52
90.0
 71
     2
 49
0.5
 62
   256
  6
BYLAYER
 49
-0.5
 62
   256
  6
BYLAYER
  0
ACDBPLACEHOLDER
  5
30E
102
{ACAD_REACTORS
330
30D
102
}
330
30D
  0
TABLESTYLE
  5
312
102
{ACAD_REACTORS
330
311
102
}
330
311
100
AcDbTableStyle
  3
Standard
 70
     0
 71
     0
 40
1.5
 41
1.5
280
     0
281
     0
  7
STANDARD
140
4.5
170
     2
 62
     0
 63
     7
283
     0
274
    -2
284
     1
 64
     0
275
    -2
285
     1
 65
     0
276
    -2
286
     1
 66
     0
277
    -2
287
     1
 67
     0
278
    -2
288
     1
 68
     0
279
    -2
289
     1
 69
     0
  7
STANDARD
140
6.0
170
     5
 62
     0
 63
     7
283
     0
274
    -2
284
     1
 64
     0
275
    -2
285
     1
 65
     0
276
    -2
286
     1
 66
     0
277
    -2
287
     1
 67
     0
278
    -2
288
     1
 68
     0
279
    -2
289
     1
 69
     0
  7
STANDARD
140
4.5
170
     5
 62
     0
 63
     7
283
     0
274
    -2
284
     1
 64
     0
275
    -2
285
     1
 65
     0
276
    -2
286
     1
 66
     0
277
    -2
287
     1
 67
     0
278
    -2
288
     1
 68
     0
279
    -2
289
     1
 69
     0
  0
DICTIONARYVAR
  5
5A0
102
{ACAD_REACTORS
330
59F
102
}
330
59F
100
DictionaryVariables
280
     0
  1
STANDARD
  0
DICTIONARYVAR
  5
BF7
102
{ACAD_REACTORS
330
59F
102
}
330
59F
100
DictionaryVariables
280
     0
  1
1
  0
DICTIONARYVAR
  5
BF8
102
{ACAD_REACTORS
330
59F
102
}
330
59F
100
DictionaryVariables
280
     0
  1

  0
DICTIONARY
  5
F69
330
316
100
AcDbDictionary
280
     1
281
     1
  3
ACAD_XREC_ROUNDTRIP
360
F6A
  0
DICTIONARY
  5
F67
330
315
100
AcDbDictionary
280
     1
281
     1
  3
ACAD_XREC_ROUNDTRIP
360
F68
  0
XRECORD
  5
F6A
102
{ACAD_REACTORS
330
F69
102
}
330
F69
100
AcDbXrecord
280
     1
102
SHADEPLOT
 70
     0
102
SHADEPLOTRESLEVEL
 70
     2
102
SHADEPLOTCUSTOMDPI
 70
   300
  0
XRECORD
  5
F68
102
{ACAD_REACTORS
330
F67
102
}
330
F67
100
AcDbXrecord
280
     1
102
SHADEPLOT
 70
     0
102
SHADEPLOTRESLEVEL
 70
     2
102
SHADEPLOTCUSTOMDPI
 70
   300
  0
ENDSEC
  0
EOF
