  0
SECTION
  2
HEADER
  9
$ACADVER
  1
AC1015
  9
$ACADMAINTVER
 70
    20
  9
$DWGCODEPAGE
  3
ANSI_1252
  9
$INSBASE
 10
0.0
 20
0.0
 30
0.0
  9
$EXTMIN
 10
-94.13676571328869
 20
-32.11311970509973
 30
-0.0000000349181948
  9
$EXTMAX
 10
171.7622407106867
 20
61.87548285999617
 30
0.0000000814935747
  9
$LIMMIN
 10
0.0
 20
0.0
  9
$LIMMAX
 10
420.0
 20
297.0
  9
$ORTHOMODE
 70
     0
  9
$REGENMODE
 70
     1
  9
$FILLMODE
 70
     1
  9
$QTEXTMODE
 70
     0
  9
$MIRRTEXT
 70
     0
  9
$LTSCALE
 40
10.0
  9
$ATTMODE
 70
     1
  9
$TEXTSIZE
 40
0.2
  9
$TRACEWID
 40
0.05
  9
$TEXTSTYLE
  7
STANDARD
  9
$CLAYER
  8
0
  9
$CELTYPE
  6
ByLayer
  9
$CECOLOR
 62
   256
  9
$CELTSCALE
 40
1.0
  9
$DISPSILH
 70
     0
  9
$DIMSCALE
 40
1.0
  9
$DIMASZ
 40
3.5
  9
$DIMEXO
 40
0.625
  9
$DIMDLI
 40
3.75
  9
$DIMRND
 40
0.0
  9
$DIMDLE
 40
0.0
  9
$DIMEXE
 40
2.0
  9
$DIMTP
 40
0.0
  9
$DIMTM
 40
0.0
  9
$DIMTXT
 40
3.5
  9
$DIMCEN
 40
2.5
  9
$DIMTSZ
 40
0.0
  9
$DIMTOL
 70
     0
  9
$DIMLIM
 70
     0
  9
$DIMTIH
 70
     0
  9
$DIMTOH
 70
     0
  9
$DIMSE1
 70
     0
  9
$DIMSE2
 70
     0
  9
$DIMTAD
 70
     1
  9
$DIMZIN
 70
     8
  9
$DIMBLK
  1

  9
$DIMASO
 70
     1
  9
$DIMSHO
 70
     1
  9
$DIMPOST
  1

  9
$DIMAPOST
  1

  9
$DIMALT
 70
     0
  9
$DIMALTD
 70
     3
  9
$DIMALTF
 40
0.03937007874016
  9
$DIMLFAC
 40
1.0
  9
$DIMTOFL
 70
     1
  9
$DIMTVP
 40
0.0
  9
$DIMTIX
 70
     0
  9
$DIMSOXD
 70
     0
  9
$DIMSAH
 70
     0
  9
$DIMBLK1
  1

  9
$DIMBLK2
  1

  9
$DIMSTYLE
  2
ISO-25
  9
$DIMCLRD
 70
   256
  9
$DIMCLRE
 70
   256
  9
$DIMCLRT
 70
   256
  9
$DIMTFAC
 40
1.0
  9
$DIMGAP
 40
0.625
  9
$DIMJUST
 70
     0
  9
$DIMSD1
 70
     0
  9
$DIMSD2
 70
     0
  9
$DIMTOLJ
 70
     0
  9
$DIMTZIN
 70
     8
  9
$DIMALTZ
 70
     0
  9
$DIMALTTZ
 70
     0
  9
$DIMUPT
 70
     0
  9
$DIMDEC
 70
     2
  9
$DIMTDEC
 70
     2
  9
$DIMALTU
 70
     2
  9
$DIMALTTD
 70
     3
  9
$DIMTXSTY
  7
STANDARD
  9
$DIMAUNIT
 70
     0
  9
$DIMADEC
 70
     0
  9
$DIMALTRND
 40
0.0
  9
$DIMAZIN
 70
     0
  9
$DIMDSEP
 70
    46
  9
$DIMATFIT
 70
     3
  9
$DIMFRAC
 70
     0
  9
$DIMLDRBLK
  1

  9
$DIMLUNIT
 70
     2
  9
$DIMLWD
 70
    -2
  9
$DIMLWE
 70
    -2
  9
$DIMTMOVE
 70
     0
  9
$LUNITS
 70
     2
  9
$LUPREC
 70
     4
  9
$SKETCHINC
 40
0.1
  9
$FILLETRAD
 40
0.6
  9
$AUNITS
 70
     0
  9
$AUPREC
 70
     0
  9
$MENU
  1

  9
$ELEVATION
 40
0.0
  9
$PELEVATION
 40
0.0
  9
$THICKNESS
 40
0.0
  9
$LIMCHECK
 70
     0
  9
$CHAMFERA
 40
0.0
  9
$CHAMFERB
 40
0.0
  9
$CHAMFERC
 40
0.0
  9
$CHAMFERD
 40
0.0
  9
$SKPOLY
 70
     0
  9
$TDCREATE
 40
2453812.468301632
  9
$TDUCREATE
 40
2453812.426634966
  9
$TDUPDATE
 40
2453812.611314549
  9
$TDUUPDATE
 40
2453812.569647882
  9
$TDINDWG
 40
0.0682212963
  9
$TDUSRTIMER
 40
0.0635141435
  9
$USRTIMER
 70
     1
  9
$ANGBASE
 50
0.0
  9
$ANGDIR
 70
     0
  9
$PDMODE
 70
     0
  9
$PDSIZE
 40
0.3125
  9
$PLINEWID
 40
0.0
  9
$SPLFRAME
 70
     0
  9
$SPLINETYPE
 70
     6
  9
$SPLINESEGS
 70
     8
  9
$HANDSEED
  5
1870
  9
$SURFTAB1
 70
     6
  9
$SURFTAB2
 70
     6
  9
$SURFTYPE
 70
     6
  9
$SURFU
 70
     6
  9
$SURFV
 70
     6
  9
$UCSBASE
  2

  9
$UCSNAME
  2

  9
$UCSORG
 10
0.0
 20
0.0
 30
0.0
  9
$UCSXDIR
 10
1.0
 20
0.0
 30
0.0
  9
$UCSYDIR
 10
0.0
 20
1.0
 30
0.0
  9
$UCSORTHOREF
  2

  9
$UCSORTHOVIEW
 70
     0
  9
$UCSORGTOP
 10
0.0
 20
0.0
 30
0.0
  9
$UCSORGBOTTOM
 10
0.0
 20
0.0
 30
0.0
  9
$UCSORGLEFT
 10
0.0
 20
0.0
 30
0.0
  9
$UCSORGRIGHT
 10
0.0
 20
0.0
 30
0.0
  9
$UCSORGFRONT
 10
0.0
 20
0.0
 30
0.0
  9
$UCSORGBACK
 10
0.0
 20
0.0
 30
0.0
  9
$PUCSBASE
  2

  9
$PUCSNAME
  2

  9
$PUCSORG
 10
0.0
 20
0.0
 30
0.0
  9
$PUCSXDIR
 10
1.0
 20
0.0
 30
0.0
  9
$PUCSYDIR
 10
0.0
 20
1.0
 30
0.0
  9
$PUCSORTHOREF
  2

  9
$PUCSORTHOVIEW
 70
     0
  9
$PUCSORGTOP
 10
0.0
 20
0.0
 30
0.0
  9
$PUCSORGBOTTOM
 10
0.0
 20
0.0
 30
0.0
  9
$PUCSORGLEFT
 10
0.0
 20
0.0
 30
0.0
  9
$PUCSORGRIGHT
 10
0.0
 20
0.0
 30
0.0
  9
$PUCSORGFRONT
 10
0.0
 20
0.0
 30
0.0
  9
$PUCSORGBACK
 10
0.0
 20
0.0
 30
0.0
  9
$USERI1
 70
     0
  9
$USERI2
 70
     0
  9
$USERI3
 70
     0
  9
$USERI4
 70
     0
  9
$USERI5
 70
     0
  9
$USERR1
 40
0.0
  9
$USERR2
 40
0.0
  9
$USERR3
 40
0.0
  9
$USERR4
 40
0.0
  9
$USERR5
 40
0.0
  9
$WORLDVIEW
 70
     1
  9
$SHADEDGE
 70
     3
  9
$SHADEDIF
 70
    70
  9
$TILEMODE
 70
     1
  9
$MAXACTVP
 70
    64
  9
$PINSBASE
 10
0.0
 20
0.0
 30
0.0
  9
$PLIMCHECK
 70
     0
  9
$PEXTMIN
 10
100.0
 20
100.0
 30
100.0
  9
$PEXTMAX
 10
-100.0
 20
-100.0
 30
-100.0
  9
$PLIMMIN
 10
0.0
 20
0.0
  9
$PLIMMAX
 10
12.0
 20
9.0
  9
$UNITMODE
 70
     0
  9
$VISRETAIN
 70
     1
  9
$PLINEGEN
 70
     1
  9
$PSLTSCALE
 70
     1
  9
$TREEDEPTH
 70
  3020
  9
$CMLSTYLE
  2
Standard
  9
$CMLJUST
 70
     0
  9
$CMLSCALE
 40
1.0
  9
$PROXYGRAPHICS
 70
     1
  9
$MEASUREMENT
 70
     0
  9
$CELWEIGHT
370
    -1
  9
$ENDCAPS
280
     0
  9
$JOINSTYLE
280
     0
  9
$LWDISPLAY
290
     0
  9
$INSUNITS
 70
     0
  9
$HYPERLINKBASE
  1

  9
$STYLESHEET
  1

  9
$XEDIT
290
     1
  9
$CEPSNTYPE
380
     0
  9
$PSTYLEMODE
290
     1
  9
$FINGERPRINTGUID
  2
{A3225A0A-FCCE-4C01-A3B3-F01DC6762510}
  9
$VERSIONGUID
  2
{D832C35C-EABC-4B03-A702-9D805F1B7940}
  9
$EXTNAMES
290
     1
  9
$PSVPSCALE
 40
0.0
  9
$OLESTARTUP
290
     0
  0
ENDSEC
  0
SECTION
  2
CLASSES
  0
CLASS
  1
ACDBDICTIONARYWDFLT
  2
AcDbDictionaryWithDefault
  3
ObjectDBX Classes
 90
        0
280
     0
281
     0
  0
CLASS
  1
TABLESTYLE
  2
AcDbTableStyle
  3
ObjectDBX Classes
 90
     2047
280
     0
281
     0
  0
CLASS
  1
DICTIONARYVAR
  2
AcDbDictionaryVar
  3
ObjectDBX Classes
 90
        0
280
     0
281
     0
  0
CLASS
  1
SORTENTSTABLE
  2
AcDbSortentsTable
  3
ObjectDBX Classes
 90
        0
280
     0
281
     0
  0
CLASS
  1
ACDBPLACEHOLDER
  2
AcDbPlaceHolder
  3
ObjectDBX Classes
 90
        0
280
     0
281
     0
  0
CLASS
  1
LAYOUT
  2
AcDbLayout
  3
ObjectDBX Classes
 90
        0
280
     0
281
     0
  0
ENDSEC
  0
SECTION
  2
TABLES
  0
TABLE
  2
VPORT
  5
8
330
0
100
AcDbSymbolTable
 70
     2
  0
VPORT
  5
186A
330
8
100
AcDbSymbolTableRecord
100
AcDbViewportTableRecord
  2
*Active
 70
     0
 10
0.0
 20
0.0
 11
1.0
 21
1.0
 12
38.812737498699
 22
14.88118157744821
 13
0.0
 23
0.0
 14
1.0
 24
1.0
 15
0.0
 25
0.0
 16
0.0
 26
0.0
 36
1.0
 17
0.0
 27
0.0
 37
0.0
 40
175.4879049199877
 41
1.522727272727272
 42
50.0
 43
0.0
 44
0.0
 50
0.0
 51
0.0
 71
     0
 72
  1000
 73
     1
 74
     1
 75
     0
 76
     0
 77
     0
 78
     0
281
     0
 65
     1
110
0.0
120
0.0
130
0.0
111
1.0
121
0.0
131
0.0
112
0.0
122
1.0
132
0.0
 79
     0
146
0.0
  0
ENDTAB
  0
TABLE
  2
LTYPE
  5
5
330
0
100
AcDbSymbolTable
 70
     3
  0
LTYPE
  5
13
330
5
100
AcDbSymbolTableRecord
100
AcDbLinetypeTableRecord
  2
ByBlock
 70
     0
  3

 72
    65
 73
     0
 40
0.0
  0
LTYPE
  5
14
330
5
100
AcDbSymbolTableRecord
100
AcDbLinetypeTableRecord
  2
ByLayer
 70
     0
  3

 72
    65
 73
     0
 40
0.0
  0
LTYPE
  5
15
330
5
100
AcDbSymbolTableRecord
100
AcDbLinetypeTableRecord
  2
CONTINUOUS
 70
     0
  3
Solid line
 72
    65
 73
     0
 40
0.0
  0
LTYPE
  5
27
330
5
100
AcDbSymbolTableRecord
100
AcDbLinetypeTableRecord
  2
CENTER
 70
     0
  3
____ _ ____ _ ____ _ ____ _ ____ _ ____ _ ____
 72
    65
 73
     4
 40
0.6
 49
0.375
 74
     0
 49
-0.075
 74
     0
 49
0.075
 74
     0
 49
-0.075
 74
     0
  0
LTYPE
  5
28
330
5
100
AcDbSymbolTableRecord
100
AcDbLinetypeTableRecord
  2
HIDDEN
 70
     0
  3
- - - - - - - - - - - - - - - - - - - -
 72
    65
 73
     2
 40
0.2
 49
0.1
 74
     0
 49
-0.1
 74
     0
  0
ENDTAB
  0
TABLE
  2
LAYER
  5
2
330
0
100
AcDbSymbolTable
 70
    11
  0
LAYER
  5
10
330
2
100
AcDbSymbolTableRecord
100
AcDbLayerTableRecord
  2
0
 70
     0
 62
     7
  6
CONTINUOUS
370
    -3
390
F
  0
LAYER
  5
2C
330
2
100
AcDbSymbolTableRecord
100
AcDbLayerTableRecord
  2
SK1
 70
     0
 62
     4
  6
CONTINUOUS
370
    -3
390
F
  0
LAYER
  5
2D
330
2
100
AcDbSymbolTableRecord
100
AcDbLayerTableRecord
  2
1
 70
     0
 62
     4
  6
CONTINUOUS
370
    -3
390
F
  0
LAYER
  5
2E
330
2
100
AcDbSymbolTableRecord
100
AcDbLayerTableRecord
  2
2
 70
     0
 62
     7
  6
CONTINUOUS
370
    -3
390
F
  0
LAYER
  5
2F
330
2
100
AcDbSymbolTableRecord
100
AcDbLayerTableRecord
  2
SK2
 70
     0
 62
     7
  6
CONTINUOUS
370
    -3
390
F
  0
LAYER
  5
31
330
2
100
AcDbSymbolTableRecord
100
AcDbLayerTableRecord
  2
SK3
 70
     0
 62
     1
  6
HIDDEN
370
    -3
390
F
  0
LAYER
  5
32
330
2
100
AcDbSymbolTableRecord
100
AcDbLayerTableRecord
  2
4
 70
     0
 62
     2
  6
CENTER
370
    -3
390
F
  0
LAYER
  5
33
330
2
100
AcDbSymbolTableRecord
100
AcDbLayerTableRecord
  2
SK4
 70
     0
 62
     2
  6
CENTER
370
    -3
390
F
  0
LAYER
  5
36
330
2
100
AcDbSymbolTableRecord
100
AcDbLayerTableRecord
  2
6
 70
     0
 62
     5
  6
CONTINUOUS
370
    -3
390
F
  0
LAYER
  5
499
330
2
100
AcDbSymbolTableRecord
100
AcDbLayerTableRecord
  2
DEFPOINTS
 70
     0
 62
     7
  6
CONTINUOUS
290
     0
370
    -3
390
F
  0
LAYER
  5
FFB
330
2
100
AcDbSymbolTableRecord
100
AcDbLayerTableRecord
  2
NOCUT
 70
     0
 62
     7
  6
CONTINUOUS
370
    -3
390
F
  0
ENDTAB
  0
TABLE
  2
STYLE
  5
3
330
0
100
AcDbSymbolTable
 70
     1
  0
STYLE
  5
11
330
3
100
AcDbSymbolTableRecord
100
AcDbTextStyleTableRecord
  2
STANDARD
 70
     0
 40
0.0
 41
0.8
 50
0.0
 71
     0
 42
0.2
  3
ISOCP
  4

  0
ENDTAB
  0
TABLE
  2
VIEW
  5
6
330
0
100
AcDbSymbolTable
 70
     0
  0
ENDTAB
  0
TABLE
  2
UCS
  5
7
330
0
100
AcDbSymbolTable
 70
     0
  0
ENDTAB
  0
TABLE
  2
APPID
  5
9
330
0
100
AcDbSymbolTable
 70
     2
  0
APPID
  5
12
330
9
100
AcDbSymbolTableRecord
100
AcDbRegAppTableRecord
  2
ACAD
 70
     0
  0
APPID
  5
159E
330
9
100
AcDbSymbolTableRecord
100
AcDbRegAppTableRecord
  2
ACAD_DSTYLE_DIMTEXT_FILL
 70
     0
  0
ENDTAB
  0
TABLE
  2
DIMSTYLE
  5
A
330
0
100
AcDbSymbolTable
 70
     2
100
AcDbDimStyleTable
 71
     2
340
FFC
340
39
  0
DIMSTYLE
105
39
330
A
100
AcDbSymbolTableRecord
100
AcDbDimStyleTableRecord
  2
STANDARD
 70
     0
279
     2
340
11
  0
DIMSTYLE
105
FFC
102
{ACAD_REACTORS
330
5F4
330
5F5
330
5F2
330
5F8
330
5F9
330
5F6
330
5F0
330
5F3
330
5F1
102
}
330
A
100
AcDbSymbolTableRecord
100
AcDbDimStyleTableRecord
  2
ISO-25
 70
     0
 41
3.5
 42
0.625
 43
3.75
 44
2.0
 73
     0
 74
     0
 77
     1
 78
     8
140
3.5
141
2.5
143
0.03937007874016
147
0.625
171
     3
172
     1
176
   256
177
   256
178
   256
271
     2
272
     2
274
     3
283
     0
284
     8
340
11
  0
ENDTAB
  0
TABLE
  2
BLOCK_RECORD
  5
1
330
0
100
AcDbSymbolTable
 70
    11
  0
BLOCK_RECORD
  5
22
102
{ACAD_XDICTIONARY
360
17E5
102
}
330
1
100
AcDbSymbolTableRecord
100
AcDbBlockTableRecord
  2
*Model_Space
340
25
  0
BLOCK_RECORD
  5
1E
330
1
100
AcDbSymbolTableRecord
100
AcDbBlockTableRecord
  2
*Paper_Space
340
21
  0
BLOCK_RECORD
  5
1237
330
1
100
AcDbSymbolTableRecord
100
AcDbBlockTableRecord
  2
nullpunkt_1
340
0
310
2800000020000000200000000100080000000000000400000000000000000000000000000000000000000000000080000080000000808000800000008000800080800000C0C0C000C0DCC000F0CAA6000020400000206000002080000020A0000020C0000020E00000400000004020000040400000406000004080000040A0
310
000040C0000040E00000600000006020000060400000606000006080000060A0000060C0000060E00000800000008020000080400000806000008080000080A0000080C0000080E00000A0000000A0200000A0400000A0600000A0800000A0A00000A0C00000A0E00000C0000000C0200000C0400000C0600000C0800000C0
310
A00000C0C00000C0E00000E0000000E0200000E0400000E0600000E0800000E0A00000E0C00000E0E00040000000400020004000400040006000400080004000A0004000C0004000E00040200000402020004020400040206000402080004020A0004020C0004020E000404000004040200040404000404060004040800040
310
40A0004040C0004040E00040600000406020004060400040606000406080004060A0004060C0004060E00040800000408020004080400040806000408080004080A0004080C0004080E00040A0000040A0200040A0400040A0600040A0800040A0A00040A0C00040A0E00040C0000040C0200040C0400040C0600040C08000
310
40C0A00040C0C00040C0E00040E0000040E0200040E0400040E0600040E0800040E0A00040E0C00040E0E00080000000800020008000400080006000800080008000A0008000C0008000E00080200000802020008020400080206000802080008020A0008020C0008020E00080400000804020008040400080406000804080
310
008040A0008040C0008040E00080600000806020008060400080606000806080008060A0008060C0008060E00080800000808020008080400080806000808080008080A0008080C0008080E00080A0000080A0200080A0400080A0600080A0800080A0A00080A0C00080A0E00080C0000080C0200080C0400080C0600080C0
310
800080C0A00080C0C00080C0E00080E0000080E0200080E0400080E0600080E0800080E0A00080E0C00080E0E000C0000000C0002000C0004000C0006000C0008000C000A000C000C000C000E000C0200000C0202000C0204000C0206000C0208000C020A000C020C000C020E000C0400000C0402000C0404000C0406000C0
310
408000C040A000C040C000C040E000C0600000C0602000C0604000C0606000C0608000C060A000C060C000C060E000C0800000C0802000C0804000C0806000C0808000C080A000C080C000C080E000C0A00000C0A02000C0A04000C0A06000C0A08000C0A0A000C0A0C000C0A0E000C0C00000C0C02000C0C04000C0C06000
310
C0C08000C0C0A000F0FBFF00A4A0A000808080000000FF0000FF000000FFFF00FF000000FF00FF00FFFF0000FFFFFF0000000000000000000000000000000000000000000000000000000000000000000000000000000000000000000000FEFE0000000000000000000000000000000000000000000000000000FEFEFEFEFE
310
FEFEFE00000000000000000000000000000000000000000000FEFEFEFEFEFE00FE0000FEFE00000000000000000000000000000000000000FEFEFEFE00FE0000FE00000000FEFE00000000000000000000000000000000FEFEFE0000FE000000FE000000000000FEFE00000000000000000000000000FEFE000000FE000000
310
00FE0000000000000000FEFE00000000000000000000FEFE000000FE0000000000FE00000000000000000000FE0000000000000000FEFEFE0000FE000000000000FE00000000000000000000FE0000000000000000FEFE0000FE00000000000000FE0000000000000000000000FE000000000000FEFEFE00FE000000000000
310
0000FE0000000000000000000000FE000000000000FEFE00FE000000000000000000FE000000000000000000000000FE0000000000FEFEFE00000000000000000000FE000000000000000000000000FE0000000000FEFE0000000000000000000000FE00000000000000000000000000FE000000FEFE000000000000000000
310
000000FE00000000000000000000000000FE000000FEFEFEFEFEFEFEFEFEFEFEFEFEFEFEFEFEFEFEFEFEFEFEFEFEFEFEFEFEFE000000FE000000000000000000000000FE00000000000000000000000000FEFE000000FE000000000000000000000000FE000000000000000000000000FEFEFE00000000FE00000000000000
310
00000000FE0000000000000000000000FE00FE0000000000FE0000000000000000000000FE00000000000000000000FE00FEFE000000000000FE00000000000000000000FE000000000000000000FE0000FEFE000000000000FE00000000000000000000FE0000000000000000FE0000FEFEFE00000000000000FE00000000
310
0000000000FE00000000000000FE000000FEFE0000000000000000FE000000000000000000FE000000000000FE000000FEFEFE000000000000000000FE0000000000000000FE0000000000FE00000000FEFE00000000000000000000FE0000000000000000FE00000000FE00000000FEFE000000000000000000000000FEFE
310
000000000000FE000000FE000000FEFEFE000000000000000000000000000000FEFE00000000FE0000FE0000FEFEFEFE000000000000000000000000000000000000FEFE0000FE00FE00FEFEFEFEFE000000000000000000000000000000000000000000FEFEFEFEFEFEFEFEFE000000000000000000000000000000000000
310
00000000000000FEFEFE00000000000000000000000000000000000000000000000000000000000000000000000000000000000000000000
102
{BLKREFS
331
1375
102
}
  0
BLOCK_RECORD
  5
1240
330
1
100
AcDbSymbolTableRecord
100
AcDbBlockTableRecord
  2
nullpunkt_2
340
0
310
2800000020000000200000000100080000000000000400000000000000000000000000000000000000000000000080000080000000808000800000008000800080800000C0C0C000C0DCC000F0CAA6000020400000206000002080000020A0000020C0000020E00000400000004020000040400000406000004080000040A0
310
000040C0000040E00000600000006020000060400000606000006080000060A0000060C0000060E00000800000008020000080400000806000008080000080A0000080C0000080E00000A0000000A0200000A0400000A0600000A0800000A0A00000A0C00000A0E00000C0000000C0200000C0400000C0600000C0800000C0
310
A00000C0C00000C0E00000E0000000E0200000E0400000E0600000E0800000E0A00000E0C00000E0E00040000000400020004000400040006000400080004000A0004000C0004000E00040200000402020004020400040206000402080004020A0004020C0004020E000404000004040200040404000404060004040800040
310
40A0004040C0004040E00040600000406020004060400040606000406080004060A0004060C0004060E00040800000408020004080400040806000408080004080A0004080C0004080E00040A0000040A0200040A0400040A0600040A0800040A0A00040A0C00040A0E00040C0000040C0200040C0400040C0600040C08000
310
40C0A00040C0C00040C0E00040E0000040E0200040E0400040E0600040E0800040E0A00040E0C00040E0E00080000000800020008000400080006000800080008000A0008000C0008000E00080200000802020008020400080206000802080008020A0008020C0008020E00080400000804020008040400080406000804080
310
008040A0008040C0008040E00080600000806020008060400080606000806080008060A0008060C0008060E00080800000808020008080400080806000808080008080A0008080C0008080E00080A0000080A0200080A0400080A0600080A0800080A0A00080A0C00080A0E00080C0000080C0200080C0400080C0600080C0
310
800080C0A00080C0C00080C0E00080E0000080E0200080E0400080E0600080E0800080E0A00080E0C00080E0E000C0000000C0002000C0004000C0006000C0008000C000A000C000C000C000E000C0200000C0202000C0204000C0206000C0208000C020A000C020C000C020E000C0400000C0402000C0404000C0406000C0
310
408000C040A000C040C000C040E000C0600000C0602000C0604000C0606000C0608000C060A000C060C000C060E000C0800000C0802000C0804000C0806000C0808000C080A000C080C000C080E000C0A00000C0A02000C0A04000C0A06000C0A08000C0A0A000C0A0C000C0A0E000C0C00000C0C02000C0C04000C0C06000
310
C0C08000C0C0A000F0FBFF00A4A0A000808080000000FF0000FF000000FFFF00FF000000FF00FF00FFFF0000FFFFFF0000000000000000000000000000000000000000000000000000000000000000000000000000000000000000000000FEFE0000000000000000000000000000000000000000000000000000FEFEFEFEFE
310
FEFEFE00000000000000000000000000000000000000000000FEFEFEFEFEFE00FE0000FEFE00000000000000000000000000000000000000FEFEFEFE00FE0000FE00000000FEFE00000000000000000000000000000000FEFEFE0000FE000000FE000000000000FEFE00000000000000000000000000FEFE000000FE000000
310
00FE0000000000000000FEFE00000000000000000000FEFE000000FE0000000000FE00000000000000000000FE0000000000000000FEFEFE0000FE000000000000FE00000000000000000000FE0000000000000000FEFE0000FE00000000000000FE0000000000000000000000FE000000000000FEFEFE00FE000000000000
310
0000FE0000000000000000000000FE000000000000FEFE00FE000000000000000000FE000000000000000000000000FE0000000000FEFEFE00000000000000000000FE000000000000000000000000FE0000000000FEFE0000000000000000000000FE00000000000000000000000000FE000000FEFE000000000000000000
310
000000FE00000000000000000000000000FE000000FEFEFEFEFEFEFEFEFEFEFEFEFEFEFEFEFEFEFEFEFEFEFEFEFEFEFEFEFEFE000000FE000000000000000000000000FE00000000000000000000000000FEFE000000FE000000000000000000000000FE000000000000000000000000FEFEFE00000000FE00000000000000
310
00000000FE0000000000000000000000FE00FE0000000000FE0000000000000000000000FE00000000000000000000FE00FEFE000000000000FE00000000000000000000FE000000000000000000FE0000FEFE000000000000FE00000000000000000000FE0000000000000000FE0000FEFEFE00000000000000FE00000000
310
0000000000FE00000000000000FE000000FEFE0000000000000000FE000000000000000000FE000000000000FE000000FEFEFE000000000000000000FE0000000000000000FE0000000000FE00000000FEFE00000000000000000000FE0000000000000000FE00000000FE00000000FEFE000000000000000000000000FEFE
310
000000000000FE000000FE000000FEFEFE000000000000000000000000000000FEFE00000000FE0000FE0000FEFEFEFE000000000000000000000000000000000000FEFE0000FE00FE00FEFEFEFEFE000000000000000000000000000000000000000000FEFEFEFEFEFEFEFEFE000000000000000000000000000000000000
310
00000000000000FEFEFE00000000000000000000000000000000000000000000000000000000000000000000000000000000000000000000
102
{BLKREFS
331
139D
102
}
  0
BLOCK_RECORD
  5
147C
330
1
100
AcDbSymbolTableRecord
100
AcDbBlockTableRecord
  2
*D2
340
0
  0
BLOCK_RECORD
  5
1488
330
1
100
AcDbSymbolTableRecord
100
AcDbBlockTableRecord
  2
*D3
340
0
  0
BLOCK_RECORD
  5
1495
330
1
100
AcDbSymbolTableRecord
100
AcDbBlockTableRecord
  2
*D4
340
0
  0
BLOCK_RECORD
  5
14A1
330
1
100
AcDbSymbolTableRecord
100
AcDbBlockTableRecord
  2
*D5
340
0
  0
BLOCK_RECORD
  5
14AE
330
1
100
AcDbSymbolTableRecord
100
AcDbBlockTableRecord
  2
*D6
340
0
  0
BLOCK_RECORD
  5
14BB
330
1
100
AcDbSymbolTableRecord
100
AcDbBlockTableRecord
  2
*D7
340
0
  0
BLOCK_RECORD
  5
14C8
330
1
100
AcDbSymbolTableRecord
100
AcDbBlockTableRecord
  2
*D8
340
0
  0
BLOCK_RECORD
  5
14D6
330
1
100
AcDbSymbolTableRecord
100
AcDbBlockTableRecord
  2
*D9
340
0
  0
BLOCK_RECORD
  5
14E3
330
1
100
AcDbSymbolTableRecord
100
AcDbBlockTableRecord
  2
*D10
340
0
  0
ENDTAB
  0
ENDSEC
  0
SECTION
  2
BLOCKS
  0
BLOCK
  5
23
330
22
100
AcDbEntity
  8
0
100
AcDbBlockBegin
  2
*Model_Space
 70
     0
 10
0.0
 20
0.0
 30
0.0
  3
*Model_Space
  1

  0
ENDBLK
  5
24
330
22
100
AcDbEntity
  8
0
100
AcDbBlockEnd
  0
BLOCK
  5
1F
330
1E
100
AcDbEntity
 67
     1
  8
0
100
AcDbBlockBegin
  2
*Paper_Space
 70
     0
 10
0.0
 20
0.0
 30
0.0
  3
*Paper_Space
  1

  0
ENDBLK
  5
20
330
1E
100
AcDbEntity
 67
     1
  8
0
100
AcDbBlockEnd
  0
BLOCK
  5
1238
330
1237
100
AcDbEntity
  8
0
100
AcDbBlockBegin
  2
nullpunkt_1
 70
     0
 10
0.0
 20
0.0
 30
0.0
  3
nullpunkt_1
  1

  0
LWPOLYLINE
  5
1239
102
{ACAD_REACTORS
330
123A
102
}
330
1237
100
AcDbEntity
  8
1
100
AcDbPolyline
 90
        3
 70
     1
 43
0.0
 10
0.0
 20
2.950972054112752
 10
0.0
 20
0.0
 10
2.950972054112638
 20
0.0
 42
0.4142135623730966
  0
HATCH
  5
123A
330
1237
100
AcDbEntity
  8
1
100
AcDbHatch
 10
0.0
 20
0.0
 30
0.0
210
0.0
220
0.0
230
1.0
  2
SOLID
 70
     1
 71
     1
 91
        2
 92
        7
 72
     1
 73
     1
 93
        3
 10
0.0
 20
0.0
 42
0.0
 10
2.950972054112638
 20
0.0
 42
0.4142135623730968
 10
0.0
 20
2.950972054112752
 42
0.0
 97
        1
330
1239
 92
        7
 72
     1
 73
     1
 93
        3
 10
0.0
 20
-2.950972054112412
 42
0.0
 10
0.0
 20
0.0
 42
0.0
 10
-2.950972054112583
 20
0.0
 42
0.4142135623730966
 97
        1
330
123C
 75
     0
 76
     1
 47
0.1190009775223266
 98
        2
 10
0.7445530588119596
 20
0.9212244733765826
 10
-1.27946460185285
 20
-1.696796923046235
  0
CIRCLE
  5
123B
330
1237
100
AcDbEntity
  8
1
100
AcDbCircle
 10
0.0
 20
0.0
 30
0.0
 40
2.950972054112601
  0
LWPOLYLINE
  5
123C
102
{ACAD_REACTORS
330
123A
102
}
330
1237
100
AcDbEntity
  8
1
100
AcDbPolyline
 90
        3
 70
     1
 43
0.0
 10
0.0
 20
0.0
 10
-2.950972054112583
 20
0.0
 42
0.4142135623730966
 10
0.0
 20
-2.950972054112412
  0
LINE
  5
123D
330
1237
100
AcDbEntity
  8
1
100
AcDbLine
 10
-2.950972054112752
 20
0.0
 30
0.0
 11
2.950972054112583
 21
0.0
 31
0.0
  0
LINE
  5
123E
330
1237
100
AcDbEntity
  8
1
100
AcDbLine
 10
0.0
 20
2.950972054112752
 30
0.0
 11
0.0
 21
-2.950972054112412
 31
0.0
  0
ENDBLK
  5
123F
330
1237
100
AcDbEntity
  8
0
100
AcDbBlockEnd
  0
BLOCK
  5
1241
330
1240
100
AcDbEntity
  8
0
100
AcDbBlockBegin
  2
nullpunkt_2
 70
     0
 10
0.0
 20
0.0
 30
0.0
  3
nullpunkt_2
  1

  0
CIRCLE
  5
1242
330
1240
100
AcDbEntity
  8
1
100
AcDbCircle
 10
0.0
 20
0.0
 30
0.0
 40
1.0
  0
HATCH
  5
1243
330
1240
100
AcDbEntity
  8
1
100
AcDbHatch
 10
0.0
 20
0.0
 30
0.0
210
0.0
220
0.0
230
1.0
  2
SOLID
 70
     1
 71
     0
 91
        2
 92
        1
 93
        3
 72
     1
 10
0.0
 20
0.0
 11
-1.0
 21
0.0
 72
     2
 10
0.0
 20
0.0
 40
1.0
 50
180.0
 51
270.0
 73
     1
 72
     1
 10
0.0
 20
-0.9999999999998864
 11
0.0
 21
0.0
 97
        0
 92
        1
 93
        3
 72
     1
 10
0.0
 20
1.000000000000113
 11
0.0
 21
0.0
 72
     1
 10
0.0
 20
0.0
 11
1.0
 21
0.0
 72
     2
 10
0.0
 20
0.0
 40
1.0
 50
0.0
 51
90.0
 73
     1
 97
        0
 75
     0
 76
     1
 98
        1
 10
-109.9295341761981
 20
-32.53620011044962
  0
LINE
  5
1244
330
1240
100
AcDbEntity
  8
1
100
AcDbLine
 10
-1.0
 20
0.0
 30
0.0
 11
1.0
 21
0.0
 31
0.0
  0
LWPOLYLINE
  5
1245
330
1240
100
AcDbEntity
  8
1
100
AcDbPolyline
 90
        3
 70
     1
 43
0.0
 10
0.0
 20
0.0
 10
-1.0
 20
0.0
 42
0.4142135623730951
 10
0.0
 20
-0.9999999999998864
  0
LWPOLYLINE
  5
1246
330
1240
100
AcDbEntity
  8
1
100
AcDbPolyline
 90
        3
 70
     1
 43
0.0
 10
0.0
 20
1.000000000000113
 10
0.0
 20
0.0
 10
1.0
 20
0.0
 42
0.4142135623730951
  0
ENDBLK
  5
1247
330
1240
100
AcDbEntity
  8
0
100
AcDbBlockEnd
  0
BLOCK
  5
1486
330
147C
100
AcDbEntity
  8
0
100
AcDbBlockBegin
  2
*D2
 70
     1
 10
0.0
 20
0.0
 30
0.0
  3
*D2
  1

  0
LINE
  5
180A
330
147C
100
AcDbEntity
  8
SK2
370
    -2
100
AcDbLine
 10
146.0
 20
13.53299282652043
 30
0.0
 11
146.0
 21
59.74393045203638
 31
0.0
  0
LINE
  5
180B
330
147C
100
AcDbEntity
  8
SK2
370
    -2
100
AcDbLine
 10
127.0
 20
22.05269828356134
 30
0.0
 11
127.0
 21
59.74393045203638
 31
0.0
  0
LINE
  5
180C
330
147C
100
AcDbEntity
  8
SK2
370
    -2
100
AcDbLine
 10
142.5
 20
57.74393045203638
 30
0.0
 11
130.5
 21
57.74393045203638
 31
0.0
  0
SOLID
  5
180D
330
147C
100
AcDbEntity
  8
SK2
100
AcDbTrace
 10
142.5
 20
58.32726378536971
 30
0.0
 11
142.5
 21
57.16059711870304
 31
0.0
 12
146.0
 22
57.74393045203638
 32
0.0
 13
146.0
 23
57.74393045203638
 33
0.0
  0
SOLID
  5
180E
330
147C
100
AcDbEntity
  8
SK2
100
AcDbTrace
 10
130.5
 20
58.32726378536971
 30
0.0
 11
130.5
 21
57.16059711870304
 31
0.0
 12
127.0
 22
57.74393045203638
 32
0.0
 13
127.0
 23
57.74393045203638
 33
0.0
  0
MTEXT
  5
180F
330
147C
100
AcDbEntity
  8
SK2
100
AcDbMText
 10
136.5
 20
60.11893045203638
 30
0.0
 40
3.5
 41
0.0
 71
     5
 72
     1
  1
19
 73
     1
 44
1.0
1001
ACAD
1000
MTEXTBEGIN
1070
    73
1070
     1
1070
    44
1040
1.0
1070
    74
1070
     0
1000
MTEXTEND
  0
POINT
  5
1810
330
147C
100
AcDbEntity
  8
DEFPOINTS
 62
     0
100
AcDbPoint
 10
146.0
 20
12.90799282652043
 30
0.0
  0
POINT
  5
1811
330
147C
100
AcDbEntity
  8
DEFPOINTS
 62
     0
100
AcDbPoint
 10
127.0
 20
21.42769828356134
 30
0.0
  0
POINT
  5
1812
330
147C
100
AcDbEntity
  8
DEFPOINTS
 62
     0
100
AcDbPoint
 10
127.0
 20
57.74393045203638
 30
0.0
  0
ENDBLK
  5
1487
330
147C
100
AcDbEntity
  8
0
100
AcDbBlockEnd
  0
BLOCK
  5
1493
330
1488
100
AcDbEntity
  8
0
100
AcDbBlockBegin
  2
*D3
 70
     1
 10
0.0
 20
0.0
 30
0.0
  3
*D3
  1

  0
LINE
  5
1813
330
1488
100
AcDbEntity
  8
SK2
370
    -2
100
AcDbLine
 10
1.24059308849999
 20
31.77500000000001
 30
0.0
 11
-92.00937499999994
 21
31.77500000000004
 31
0.0
  0
LINE
  5
1814
330
1488
100
AcDbEntity
  8
SK2
370
    -2
100
AcDbLine
 10
0.950312310999976
 20
-31.77500000000001
 30
0.0
 11
-92.00937499999994
 21
-31.77499999999998
 31
0.0
  0
LINE
  5
1815
330
1488
100
AcDbEntity
  8
SK2
370
    -2
100
AcDbLine
 10
-90.00937499999997
 20
28.27500000000004
 30
0.0
 11
-90.00937499999997
 21
-28.27499999999998
 31
0.0
  0
SOLID
  5
1816
330
1488
100
AcDbEntity
  8
SK2
100
AcDbTrace
 10
-90.59270833333327
 20
28.27500000000004
 30
0.0
 11
-89.42604166666662
 21
28.27500000000004
 31
0.0
 12
-90.00937499999997
 22
31.77500000000004
 32
0.0
 13
-90.00937499999997
 23
31.77500000000004
 33
0.0
  0
SOLID
  5
1817
330
1488
100
AcDbEntity
  8
SK2
100
AcDbTrace
 10
-90.59270833333327
 20
-28.27499999999998
 30
0.0
 11
-89.42604166666662
 21
-28.27499999999998
 31
0.0
 12
-90.00937499999997
 22
-31.77499999999998
 32
0.0
 13
-90.00937499999997
 23
-31.77499999999998
 33
0.0
  0
MTEXT
  5
1818
330
1488
100
AcDbEntity
  8
SK2
100
AcDbMText
 10
-92.38437499999994
 20
-1.820503035400007
 30
0.0
 40
3.5
 41
0.0
 71
     5
 72
     1
  1
%%c63.55
 11
0.0000000000000001
 21
1.0
 31
0.0
 73
     1
 44
1.0
1001
ACAD
1000
MTEXTBEGIN
1070
    73
1070
     1
1070
    44
1040
1.0
1070
    74
1070
     0
1000
MTEXTEND
  0
POINT
  5
1819
330
1488
100
AcDbEntity
  8
DEFPOINTS
 62
     0
100
AcDbPoint
 10
1.86559308849999
 20
31.77500000000001
 30
0.0
  0
POINT
  5
181A
330
1488
100
AcDbEntity
  8
DEFPOINTS
 62
     0
100
AcDbPoint
 10
1.575312310999975
 20
-31.77500000000001
 30
0.0
  0
POINT
  5
181B
330
1488
100
AcDbEntity
  8
DEFPOINTS
 62
     0
100
AcDbPoint
 10
-90.00937499999997
 20
-31.77499999999998
 30
0.0
  0
ENDBLK
  5
1494
330
1488
100
AcDbEntity
  8
0
100
AcDbBlockEnd
  0
BLOCK
  5
149F
330
1495
100
AcDbEntity
  8
0
100
AcDbBlockBegin
  2
*D4
 70
     1
 10
0.0
 20
0.0
 30
0.0
  3
*D4
  1

  0
LINE
  5
181C
330
1495
100
AcDbEntity
  8
2
370
    -2
100
AcDbLine
 10
0.0
 20
-4.763304109857215
 30
0.0
 11
0.0000000000000031
 21
45.97161396519246
 31
0.0
  0
LINE
  5
181D
330
1495
100
AcDbEntity
  8
2
370
    -2
100
AcDbLine
 10
19.09999999999999
 20
32.75866188785418
 30
0.0
 11
19.09999999999999
 21
45.97161396519246
 31
0.0
  0
LINE
  5
181E
330
1495
100
AcDbEntity
  8
2
370
    -2
100
AcDbLine
 10
3.500000000000003
 20
43.97161396519246
 30
0.0
 11
15.59999999999999
 21
43.97161396519246
 31
0.0
  0
SOLID
  5
181F
330
1495
100
AcDbEntity
  8
2
100
AcDbTrace
 10
3.500000000000003
 20
44.55494729852579
 30
0.0
 11
3.500000000000003
 21
43.38828063185911
 31
0.0
 12
0.000000000000003
 22
43.97161396519246
 32
0.0
 13
0.000000000000003
 23
43.97161396519246
 33
0.0
  0
SOLID
  5
1820
330
1495
100
AcDbEntity
  8
2
100
AcDbTrace
 10
15.59999999999999
 20
44.55494729852579
 30
0.0
 11
15.59999999999999
 21
43.38828063185911
 31
0.0
 12
19.09999999999999
 22
43.97161396519246
 32
0.0
 13
19.09999999999999
 23
43.97161396519246
 33
0.0
  0
MTEXT
  5
1821
330
1495
100
AcDbEntity
  8
2
100
AcDbMText
 10
7.792559830918576
 20
46.34661396519246
 30
0.0
 40
3.5
 41
0.0
 71
     5
 72
     1
  1
19.1
 73
     1
 44
1.0
1001
ACAD
1000
MTEXTBEGIN
1070
    73
1070
     1
1070
    44
1040
1.0
1070
    74
1070
     0
1000
MTEXTEND
  0
POINT
  5
1822
330
1495
100
AcDbEntity
  8
DEFPOINTS
 62
     0
100
AcDbPoint
 10
0.0
 20
-5.388304109857215
 30
0.0
  0
POINT
  5
1823
330
1495
100
AcDbEntity
  8
DEFPOINTS
 62
     0
100
AcDbPoint
 10
19.09999999999999
 20
32.13366188785418
 30
0.0
  0
POINT
  5
1824
330
1495
100
AcDbEntity
  8
DEFPOINTS
 62
     0
100
AcDbPoint
 10
19.09999999999999
 20
43.97161396519246
 30
0.0
  0
ENDBLK
  5
14A0
330
1495
100
AcDbEntity
  8
0
100
AcDbBlockEnd
  0
BLOCK
  5
14AC
330
14A1
100
AcDbEntity
  8
0
100
AcDbBlockBegin
  2
*D5
 70
     1
 10
0.0
 20
0.0
 30
0.0
  3
*D5
  1

  0
LINE
  5
1825
330
14A1
100
AcDbEntity
  8
SK2
370
    -2
100
AcDbLine
 10
-1.125
 20
22.225
 30
0.0
 11
-81.02499999999995
 21
22.22500000000001
 31
0.0
  0
LINE
  5
1826
330
14A1
100
AcDbEntity
  8
SK2
370
    -2
100
AcDbLine
 10
-1.125
 20
-22.225
 30
0.0
 11
-81.02499999999995
 21
-22.22499999999997
 31
0.0
  0
LINE
  5
1827
330
14A1
100
AcDbEntity
  8
SK2
370
    -2
100
AcDbLine
 10
-79.02499999999995
 20
18.72500000000001
 30
0.0
 11
-79.02499999999995
 21
-18.72499999999997
 31
0.0
  0
SOLID
  5
1828
330
14A1
100
AcDbEntity
  8
SK2
100
AcDbTrace
 10
-79.60833333333328
 20
18.72500000000001
 30
0.0
 11
-78.44166666666662
 21
18.72500000000001
 31
0.0
 12
-79.02499999999995
 22
22.22500000000001
 32
0.0
 13
-79.02499999999995
 23
22.22500000000001
 33
0.0
  0
SOLID
  5
1829
330
14A1
100
AcDbEntity
  8
SK2
100
AcDbTrace
 10
-79.60833333333328
 20
-18.72499999999997
 30
0.0
 11
-78.44166666666662
 21
-18.72499999999997
 31
0.0
 12
-79.02499999999995
 22
-22.22499999999997
 32
0.0
 13
-79.02499999999995
 23
-22.22499999999997
 33
0.0
  0
MTEXT
  5
182A
330
14A1
100
AcDbEntity
  8
SK2
100
AcDbMText
 10
-81.39999999999995
 20
-0.6382941315000039
 30
0.0
 40
3.5
 41
0.0
 71
     5
 72
     1
  1
%%c44.45
 11
0.0000000000000001
 21
1.0
 31
0.0
 73
     1
 44
1.0
1001
ACAD
1000
MTEXTBEGIN
1070
    73
1070
     1
1070
    44
1040
1.0
1070
    74
1070
     0
1000
MTEXTEND
  0
POINT
  5
182B
330
14A1
100
AcDbEntity
  8
DEFPOINTS
 62
     0
100
AcDbPoint
 10
-0.5
 20
22.225
 30
0.0
  0
POINT
  5
182C
330
14A1
100
AcDbEntity
  8
DEFPOINTS
 62
     0
100
AcDbPoint
 10
-0.5
 20
-22.225
 30
0.0
  0
POINT
  5
182D
330
14A1
100
AcDbEntity
  8
DEFPOINTS
 62
     0
100
AcDbPoint
 10
-79.02499999999995
 20
-22.22499999999997
 30
0.0
  0
ENDBLK
  5
14AD
330
14A1
100
AcDbEntity
  8
0
100
AcDbBlockEnd
  0
BLOCK
  5
14B9
330
14AE
100
AcDbEntity
  8
0
100
AcDbBlockBegin
  2
*D6
 70
     1
 10
0.0
 20
0.0
 30
0.0
  3
*D6
  1

  0
LINE
  5
182E
330
14AE
100
AcDbEntity
  8
SK2
370
    -2
100
AcDbLine
 10
0.0
 20
-12.1215191382
 30
0.0
 11
0.0000000000000044
 21
59.75666984808359
 31
0.0
  0
LINE
  5
182F
330
14AE
100
AcDbEntity
  8
SK2
370
    -2
100
AcDbLine
 10
-68.39999999999995
 20
-12.1215191382
 30
0.0
 11
-68.39999999999995
 21
59.75666984808359
 31
0.0
  0
LINE
  5
1830
330
14AE
100
AcDbEntity
  8
SK2
370
    -2
100
AcDbLine
 10
-3.499999999999995
 20
57.75666984808359
 30
0.0
 11
-64.89999999999993
 21
57.75666984808359
 31
0.0
  0
SOLID
  5
1831
330
14AE
100
AcDbEntity
  8
SK2
100
AcDbTrace
 10
-3.499999999999995
 20
58.34000318141693
 30
0.0
 11
-3.499999999999995
 21
57.17333651475025
 31
0.0
 12
0.0000000000000043
 22
57.75666984808359
 32
0.0
 13
0.0000000000000043
 23
57.75666984808359
 33
0.0
  0
SOLID
  5
1832
330
14AE
100
AcDbEntity
  8
SK2
100
AcDbTrace
 10
-64.89999999999993
 20
58.34000318141693
 30
0.0
 11
-64.89999999999993
 21
57.17333651475025
 31
0.0
 12
-68.39999999999995
 22
57.75666984808359
 32
0.0
 13
-68.39999999999995
 23
57.75666984808359
 33
0.0
  0
MTEXT
  5
1833
330
14AE
100
AcDbEntity
  8
SK2
100
AcDbMText
 10
-32.88209315079998
 20
60.13166984808359
 30
0.0
 40
3.5
 41
0.0
 71
     5
 72
     1
  1
68.4
 73
     1
 44
1.0
1001
ACAD
1000
MTEXTBEGIN
1070
    73
1070
     1
1070
    44
1040
1.0
1070
    74
1070
     0
1000
MTEXTEND
  0
POINT
  5
1834
330
14AE
100
AcDbEntity
  8
DEFPOINTS
 62
     0
100
AcDbPoint
 10
0.0
 20
-12.7465191382
 30
0.0
  0
POINT
  5
1835
330
14AE
100
AcDbEntity
  8
DEFPOINTS
 62
     0
100
AcDbPoint
 10
-68.39999999999995
 20
-12.7465191382
 30
0.0
  0
POINT
  5
1836
330
14AE
100
AcDbEntity
  8
DEFPOINTS
 62
     0
100
AcDbPoint
 10
-68.39999999999995
 20
57.75666984808359
 30
0.0
  0
ENDBLK
  5
14BA
330
14AE
100
AcDbEntity
  8
0
100
AcDbBlockEnd
  0
BLOCK
  5
14C6
330
14BB
100
AcDbEntity
  8
0
100
AcDbBlockBegin
  2
*D7
 70
     1
 10
0.0
 20
0.0
 30
0.0
  3
*D7
  1

  0
LINE
  5
1837
330
14BB
100
AcDbEntity
  8
2
370
    -2
100
AcDbLine
 10
127.0
 20
22.67769828356134
 30
0.0
 11
127.0
 21
59.74393045203638
 31
0.0
  0
LINE
  5
1838
330
14BB
100
AcDbEntity
  8
2
370
    -2
100
AcDbLine
 10
0.0
 20
32.40000000000001
 30
0.0
 11
0.0000000000000017
 21
59.74393045203638
 31
0.0
  0
LINE
  5
1839
330
14BB
100
AcDbEntity
  8
2
370
    -2
100
AcDbLine
 10
123.5
 20
57.74393045203638
 30
0.0
 11
3.500000000000001
 21
57.74393045203638
 31
0.0
  0
SOLID
  5
183A
330
14BB
100
AcDbEntity
  8
2
100
AcDbTrace
 10
123.5
 20
58.32726378536971
 30
0.0
 11
123.5
 21
57.16059711870304
 31
0.0
 12
127.0
 22
57.74393045203638
 32
0.0
 13
127.0
 23
57.74393045203638
 33
0.0
  0
SOLID
  5
183B
330
14BB
100
AcDbEntity
  8
2
100
AcDbTrace
 10
3.500000000000001
 20
58.32726378536971
 30
0.0
 11
3.500000000000001
 21
57.16059711870304
 31
0.0
 12
0.0000000000000016
 22
57.74393045203638
 32
0.0
 13
0.0000000000000016
 23
57.74393045203638
 33
0.0
  0
MTEXT
  5
183C
330
14BB
100
AcDbEntity
  8
2
100
AcDbMText
 10
52.397685746858
 20
60.11927494022536
 30
0.0
 40
3.5
 41
0.0
 71
     5
 72
     1
  1
127
 73
     1
 44
1.0
1001
ACAD
1000
MTEXTBEGIN
1070
    73
1070
     1
1070
    44
1040
1.0
1070
    74
1070
     0
1000
MTEXTEND
  0
POINT
  5
183D
330
14BB
100
AcDbEntity
  8
DEFPOINTS
 62
     0
100
AcDbPoint
 10
127.0
 20
22.05269828356134
 30
0.0
  0
POINT
  5
183E
330
14BB
100
AcDbEntity
  8
DEFPOINTS
 62
     0
100
AcDbPoint
 10
0.0
 20
31.77500000000001
 30
0.0
  0
POINT
  5
183F
330
14BB
100
AcDbEntity
  8
DEFPOINTS
 62
     0
100
AcDbPoint
 10
0.0000000000000016
 20
57.74393045203638
 30
0.0
  0
ENDBLK
  5
14C7
330
14BB
100
AcDbEntity
  8
0
100
AcDbBlockEnd
  0
BLOCK
  5
14D4
330
14C8
100
AcDbEntity
  8
0
100
AcDbBlockBegin
  2
*D8
 70
     1
 10
0.0
 20
0.0
 30
0.0
  3
*D8
  1

  0
LINE
  5
1840
330
14C8
100
AcDbEntity
  8
SK2
370
    -2
100
AcDbLine
 10
144.125
 20
10.99999999999997
 30
0.0
 11
163.8276437834423
 21
10.99999999999996
 31
0.0
  0
LINE
  5
1841
330
14C8
100
AcDbEntity
  8
SK2
370
    -2
100
AcDbLine
 10
144.125
 20
-11.00000000000003
 30
0.0
 11
163.8276437834423
 21
-11.00000000000003
 31
0.0
  0
LINE
  5
1842
330
14C8
100
AcDbEntity
  8
SK2
370
    -2
100
AcDbLine
 10
161.8276437834423
 20
7.499999999999965
 30
0.0
 11
161.8276437834423
 21
-7.500000000000031
 31
0.0
  0
SOLID
  5
1843
330
14C8
100
AcDbEntity
  8
SK2
100
AcDbTrace
 10
161.244310450109
 20
7.499999999999965
 30
0.0
 11
162.4109771167757
 21
7.499999999999965
 31
0.0
 12
161.8276437834423
 22
10.99999999999996
 32
0.0
 13
161.8276437834423
 23
10.99999999999996
 33
0.0
  0
SOLID
  5
1844
330
14C8
100
AcDbEntity
  8
SK2
100
AcDbTrace
 10
161.244310450109
 20
-7.500000000000031
 30
0.0
 11
162.4109771167757
 21
-7.500000000000034
 31
0.0
 12
161.8276437834423
 22
-11.00000000000003
 32
0.0
 13
161.8276437834423
 23
-11.00000000000003
 33
0.0
  0
MTEXT
  5
1845
330
14C8
100
AcDbEntity
  8
SK2
100
AcDbMText
 10
159.4522992952534
 20
-0.0594370555807868
 30
0.0
 40
3.5
 41
0.0
 71
     5
 72
     1
  1
%%c22
 11
0.0000000000000001
 21
1.0
 31
0.0
 73
     1
 44
1.0
1001
ACAD
1000
MTEXTBEGIN
1070
    73
1070
     1
1070
    44
1040
1.0
1070
    74
1070
     0
1000
MTEXTEND
  0
POINT
  5
1846
330
14C8
100
AcDbEntity
  8
DEFPOINTS
 62
     0
100
AcDbPoint
 10
143.5
 20
10.99999999999997
 30
0.0
  0
POINT
  5
1847
330
14C8
100
AcDbEntity
  8
DEFPOINTS
 62
     0
100
AcDbPoint
 10
143.5
 20
-11.00000000000003
 30
0.0
  0
POINT
  5
1848
330
14C8
100
AcDbEntity
  8
DEFPOINTS
 62
     0
100
AcDbPoint
 10
161.8276437834423
 20
-11.00000000000003
 30
0.0
  0
ENDBLK
  5
14D5
330
14C8
100
AcDbEntity
  8
0
100
AcDbBlockEnd
  0
BLOCK
  5
14E1
330
14D6
100
AcDbEntity
  8
0
100
AcDbBlockBegin
  2
*D9
 70
     1
 10
0.0
 20
0.0
 30
0.0
  3
*D9
  1

  0
LINE
  5
1849
330
14D6
100
AcDbEntity
  8
SK2
370
    -2
100
AcDbLine
 10
20.22499999999999
 20
25.0
 30
0.0
 11
45.71816747170002
 21
25.0
 31
0.0
  0
LINE
  5
184A
330
14D6
100
AcDbEntity
  8
SK2
370
    -2
100
AcDbLine
 10
20.22499999999999
 20
-25.0
 30
0.0
 11
45.71816747169999
 21
-25.00000000000001
 31
0.0
  0
LINE
  5
184B
330
14D6
100
AcDbEntity
  8
SK2
370
    -2
100
AcDbLine
 10
43.71816747170002
 20
21.49999999999999
 30
0.0
 11
43.7181674717
 21
-21.50000000000001
 31
0.0
  0
SOLID
  5
184C
330
14D6
100
AcDbEntity
  8
SK2
100
AcDbTrace
 10
43.13483413836667
 20
21.49999999999999
 30
0.0
 11
44.30150080503334
 21
21.49999999999999
 31
0.0
 12
43.71816747170002
 22
25.0
 32
0.0
 13
43.71816747170002
 23
25.0
 33
0.0
  0
SOLID
  5
184D
330
14D6
100
AcDbEntity
  8
SK2
100
AcDbTrace
 10
43.13483413836665
 20
-21.50000000000001
 30
0.0
 11
44.30150080503334
 21
-21.50000000000001
 31
0.0
 12
43.7181674717
 22
-25.00000000000001
 32
0.0
 13
43.7181674717
 23
-25.00000000000001
 33
0.0
  0
MTEXT
  5
184E
330
14D6
100
AcDbEntity
  8
SK2
100
AcDbMText
 10
41.3431674717
 20
-6.302192564599978
 30
0.0
 40
3.5
 41
0.0
 71
     5
 72
     1
  1
%%c50
 11
0.0000000000000001
 21
1.0
 31
0.0
 73
     1
 44
1.0
1001
ACAD
1000
MTEXTBEGIN
1070
    73
1070
     1
1070
    44
1040
1.0
1070
    74
1070
     0
1000
MTEXTEND
  0
POINT
  5
184F
330
14D6
100
AcDbEntity
  8
DEFPOINTS
 62
     0
100
AcDbPoint
 10
19.59999999999999
 20
25.0
 30
0.0
  0
POINT
  5
1850
330
14D6
100
AcDbEntity
  8
DEFPOINTS
 62
     0
100
AcDbPoint
 10
19.59999999999999
 20
-25.0
 30
0.0
  0
POINT
  5
1851
330
14D6
100
AcDbEntity
  8
DEFPOINTS
 62
     0
100
AcDbPoint
 10
43.7181674717
 20
-25.00000000000001
 30
0.0
  0
ENDBLK
  5
14E2
330
14D6
100
AcDbEntity
  8
0
100
AcDbBlockEnd
  0
BLOCK
  5
14EE
330
14E3
100
AcDbEntity
  8
0
100
AcDbBlockBegin
  2
*D10
 70
     1
 10
0.0
 20
0.0
 30
0.0
  3
*D10
  1

  0
LINE
  5
1852
330
14E3
100
AcDbEntity
  8
SK2
370
    -2
100
AcDbLine
 10
128.125
 20
19.99999999999997
 30
0.0
 11
171.750799791205
 21
19.99999999999996
 31
0.0
  0
LINE
  5
1853
330
14E3
100
AcDbEntity
  8
SK2
370
    -2
100
AcDbLine
 10
128.125
 20
-20.00000000000003
 30
0.0
 11
171.750799791205
 21
-20.00000000000004
 31
0.0
  0
LINE
  5
1854
330
14E3
100
AcDbEntity
  8
SK2
370
    -2
100
AcDbLine
 10
169.7507997912049
 20
16.49999999999996
 30
0.0
 11
169.7507997912049
 21
-16.50000000000004
 31
0.0
  0
SOLID
  5
1855
330
14E3
100
AcDbEntity
  8
SK2
100
AcDbTrace
 10
169.1674664578716
 20
16.49999999999996
 30
0.0
 11
170.3341331245383
 21
16.49999999999996
 31
0.0
 12
169.7507997912049
 22
19.99999999999996
 32
0.0
 13
169.7507997912049
 23
19.99999999999996
 33
0.0
  0
SOLID
  5
1856
330
14E3
100
AcDbEntity
  8
SK2
100
AcDbTrace
 10
169.1674664578716
 20
-16.50000000000004
 30
0.0
 11
170.3341331245383
 21
-16.50000000000004
 31
0.0
 12
169.7507997912049
 22
-20.00000000000004
 32
0.0
 13
169.7507997912049
 23
-20.00000000000004
 33
0.0
  0
MTEXT
  5
1857
330
14E3
100
AcDbEntity
  8
SK2
100
AcDbMText
 10
167.375799791205
 20
-0.3747867924000443
 30
0.0
 40
3.5
 41
0.0
 71
     5
 72
     1
  1
%%c40
 11
0.0000000000000001
 21
1.0
 31
0.0
 73
     1
 44
1.0
1001
ACAD
1000
MTEXTBEGIN
1070
    73
1070
     1
1070
    44
1040
1.0
1070
    74
1070
     0
1000
MTEXTEND
  0
POINT
  5
1858
330
14E3
100
AcDbEntity
  8
DEFPOINTS
 62
     0
100
AcDbPoint
 10
127.5
 20
19.99999999999997
 30
0.0
  0
POINT
  5
1859
330
14E3
100
AcDbEntity
  8
DEFPOINTS
 62
     0
100
AcDbPoint
 10
127.5
 20
-20.00000000000003
 30
0.0
  0
POINT
  5
185A
330
14E3
100
AcDbEntity
  8
DEFPOINTS
 62
     0
100
AcDbPoint
 10
169.7507997912049
 20
-20.00000000000004
 30
0.0
  0
ENDBLK
  5
14EF
330
14E3
100
AcDbEntity
  8
0
100
AcDbBlockEnd
  0
ENDSEC
  0
SECTION
  2
ENTITIES
  0
DIMENSION
  5
5F0
330
22
100
AcDbEntity
  8
SK2
100
AcDbDimension
  2
*D2
 10
127.0
 20
57.74393045203638
 30
0.0
 11
136.5
 21
57.74393045203638
 31
0.0
 70
   160
 71
     5
 42
19.0
  3
ISO-25
100
AcDbAlignedDimension
 13
146.0
 23
12.90799282652043
 33
0.0
 14
127.0
 24
21.42769828356134
 34
0.0
 50
180.0
100
AcDbRotatedDimension
  0
DIMENSION
  5
5F1
330
22
100
AcDbEntity
  8
SK2
100
AcDbDimension
  2
*D3
 10
-90.00937499999997
 20
-31.77499999999998
 30
0.0
 11
-90.00937499999997
 21
-1.820503035400007
 31
0.0
 70
   160
  1
%%c<>
 71
     5
 42
63.55000000000001
  3
ISO-25
100
AcDbAlignedDimension
 13
1.86559308849999
 23
31.77500000000001
 33
0.0
 14
1.575312310999975
 24
-31.77500000000001
 34
0.0
 50
270.0
100
AcDbRotatedDimension
  0
DIMENSION
  5
5F2
330
22
100
AcDbEntity
  8
2
100
AcDbDimension
  2
*D4
 10
19.09999999999999
 20
43.97161396519246
 30
0.0
 11
7.792559830918576
 21
43.97161396519246
 31
0.0
 70
   160
 71
     5
 42
19.09999999999999
  3
ISO-25
100
AcDbAlignedDimension
 13
0.0
 23
-5.388304109857215
 33
0.0
 14
19.09999999999999
 24
32.13366188785418
 34
0.0
100
AcDbRotatedDimension
  0
DIMENSION
  5
5F3
330
22
100
AcDbEntity
  8
SK2
100
AcDbDimension
  2
*D5
 10
-79.02499999999995
 20
-22.22499999999997
 30
0.0
 11
-79.02499999999995
 21
-0.638294131500004
 31
0.0
 70
   160
  1
%%c<>
 71
     5
 42
44.44999999999999
  3
ISO-25
100
AcDbAlignedDimension
 13
-0.5
 23
22.225
 33
0.0
 14
-0.5
 24
-22.225
 34
0.0
 50
270.0
100
AcDbRotatedDimension
  0
DIMENSION
  5
5F4
330
22
100
AcDbEntity
  8
SK2
100
AcDbDimension
  2
*D6
 10
-68.39999999999995
 20
57.75666984808359
 30
0.0
 11
-32.88209315079998
 21
57.75666984808359
 31
0.0
 70
   160
 71
     5
 42
68.39999999999995
  3
ISO-25
100
AcDbAlignedDimension
 13
0.0
 23
-12.7465191382
 33
0.0
 14
-68.39999999999995
 24
-12.7465191382
 34
0.0
 50
180.0
100
AcDbRotatedDimension
  0
DIMENSION
  5
5F5
330
22
100
AcDbEntity
  8
2
100
AcDbDimension
  2
*D7
 10
0.0000000000000016
 20
57.74393045203638
 30
0.0
 11
52.397685746858
 21
57.74393045203638
 31
0.0
 70
   160
 71
     5
 42
127.0
  3
ISO-25
100
AcDbAlignedDimension
 13
127.0
 23
22.05269828356134
 33
0.0
 14
0.0
 24
31.77500000000001
 34
0.0
 50
180.0
100
AcDbRotatedDimension
  0
DIMENSION
  5
5F6
330
22
100
AcDbEntity
  8
SK2
100
AcDbDimension
  2
*D8
 10
161.8276437834423
 20
-11.00000000000003
 30
0.0
 11
161.8276437834423
 21
-0.0594370555807871
 31
0.0
 70
   160
  1
%%c<>
 71
     5
 42
22.0
  3
ISO-25
100
AcDbAlignedDimension
 13
143.5
 23
10.99999999999997
 33
0.0
 14
143.5
 24
-11.00000000000003
 34
0.0
 50
270.0
100
AcDbRotatedDimension
  0
DIMENSION
  5
5F8
330
22
100
AcDbEntity
  8
SK2
100
AcDbDimension
  2
*D9
 10
43.7181674717
 20
-25.00000000000001
 30
0.0
 11
43.71816747170001
 21
-6.302192564599978
 31
0.0
 70
   160
  1
%%c<>
 71
     5
 42
50.0
  3
ISO-25
100
AcDbAlignedDimension
 13
19.59999999999999
 23
25.0
 33
0.0
 14
19.59999999999999
 24
-25.0
 34
0.0
 50
270.0
100
AcDbRotatedDimension
  0
DIMENSION
  5
5F9
330
22
100
AcDbEntity
  8
SK2
100
AcDbDimension
  2
*D10
 10
169.7507997912049
 20
-20.00000000000004
 30
0.0
 11
169.7507997912049
 21
-0.3747867924000445
 31
0.0
 70
   160
  1
%%c<>
 71
     5
 42
40.0
  3
ISO-25
100
AcDbAlignedDimension
 13
127.5
 23
19.99999999999997
 33
0.0
 14
127.5
 24
-20.00000000000003
 34
0.0
 50
270.0
100
AcDbRotatedDimension
  0
TEXT
  5
5FC
330
22
100
AcDbEntity
  8
6
100
AcDbText
 10
-39.22257902991461
 20
-13.4922830660349
 30
0.0
 40
3.5
  1
DIN 69871-A40
 41
1.199999999999999
100
AcDbText
  0
LINE
  5
5FE
330
22
100
AcDbEntity
  8
SK1
100
AcDbLine
 10
146.0
 20
-9.370000000000032
 30
0.0
 11
146.0
 21
9.369999999999976
 31
0.0
  0
LINE
  5
5FF
330
22
100
AcDbEntity
  8
SK1
100
AcDbLine
 10
143.0
 20
-11.00000000000003
 30
0.0
 11
143.0
 21
10.99999999999997
 31
0.0
  0
LINE
  5
600
330
22
100
AcDbEntity
  8
SK3
100
AcDbLine
 10
141.5
 20
-5.250000000000028
 30
0.0
 11
141.5
 21
5.249999999999971
 31
0.0
  0
LINE
  5
601
330
22
100
AcDbEntity
  8
SK1
100
AcDbLine
 10
132.0
 20
11.99999999999997
 30
0.0
 11
132.0
 21
18.99999999999996
 31
0.0
  0
LINE
  5
602
330
22
100
AcDbEntity
  8
SK1
100
AcDbLine
 10
132.0
 20
-12.00000000000003
 30
0.0
 11
132.0
 21
-19.00000000000003
 31
0.0
  0
LINE
  5
603
330
22
100
AcDbEntity
  8
SK1
100
AcDbLine
 10
131.5
 20
11.99999999999997
 30
0.0
 11
131.5
 21
18.99999999999996
 31
0.0
  0
LINE
  5
604
330
22
100
AcDbEntity
  8
SK1
100
AcDbLine
 10
131.5
 20
-12.00000000000003
 30
0.0
 11
131.5
 21
-19.00000000000003
 31
0.0
  0
LINE
  5
605
330
22
100
AcDbEntity
  8
SK1
100
AcDbLine
 10
129.5
 20
-11.00000000000003
 30
0.0
 11
129.5
 21
10.99999999999997
 31
0.0
  0
LINE
  5
606
330
22
100
AcDbEntity
  8
SK3
100
AcDbLine
 10
126.8058391587
 20
-11.38350386050001
 30
0.0
 11
126.8
 21
-11.30000000000001
 31
0.0
  0
LINE
  5
607
330
22
100
AcDbEntity
  8
1
100
AcDbLine
 10
127.0
 20
-18.77270712680001
 30
0.0
 11
127.0
 21
18.77270712689997
 31
0.0
  0
LINE
  5
608
330
22
100
AcDbEntity
  8
SK3
100
AcDbLine
 10
126.8
 20
-11.30000000000001
 30
0.0
 11
126.8
 21
11.29999999999998
 31
0.0
  0
LINE
  5
609
330
22
100
AcDbEntity
  8
SK3
100
AcDbLine
 10
126.8058391587
 20
11.38350386059994
 30
0.0
 11
126.8
 21
11.29999999999998
 31
0.0
  0
LINE
  5
60A
330
22
100
AcDbEntity
  8
SK3
100
AcDbLine
 10
126.8222116234
 20
11.49999999999997
 30
0.0
 11
126.8058391587
 21
11.38350386059994
 31
0.0
  0
LINE
  5
60B
330
22
100
AcDbEntity
  8
SK3
100
AcDbLine
 10
126.8222116234
 20
-11.50000000000003
 30
0.0
 11
126.8058391587
 21
-11.38350386050001
 31
0.0
  0
LINE
  5
60C
330
22
100
AcDbEntity
  8
SK3
100
AcDbLine
 10
119.5
 20
-5.000000000000028
 30
0.0
 11
119.5
 21
4.999999999999971
 31
0.0
  0
LINE
  5
60D
330
22
100
AcDbEntity
  8
SK3
100
AcDbLine
 10
119.0
 20
14.89999999999997
 30
0.0
 11
119.0
 21
19.49999999999997
 31
0.0
  0
LINE
  5
60E
330
22
100
AcDbEntity
  8
SK3
100
AcDbLine
 10
119.0
 20
-14.90000000000003
 30
0.0
 11
119.0
 21
-19.50000000000003
 31
0.0
  0
LINE
  5
60F
330
22
100
AcDbEntity
  8
SK3
100
AcDbLine
 10
117.25
 20
11.49999999999997
 30
0.0
 11
117.25
 21
14.89999999999997
 31
0.0
  0
LINE
  5
610
330
22
100
AcDbEntity
  8
SK3
100
AcDbLine
 10
117.25
 20
-11.50000000000003
 30
0.0
 11
117.25
 21
-14.90000000000003
 31
0.0
  0
LINE
  5
611
330
22
100
AcDbEntity
  8
SK3
100
AcDbLine
 10
117.0
 20
11.24999999999997
 30
0.0
 11
117.0
 21
2.799999999999982
 31
0.0
  0
LINE
  5
612
330
22
100
AcDbEntity
  8
SK3
100
AcDbLine
 10
117.0
 20
-2.800000000000011
 30
0.0
 11
117.0
 21
-11.25000000000003
 31
0.0
  0
LINE
  5
613
330
22
100
AcDbEntity
  8
SK3
100
AcDbLine
 10
116.65
 20
10.89999999999998
 30
0.0
 11
116.65
 21
3.749999999999971
 31
0.0
  0
LINE
  5
614
330
22
100
AcDbEntity
  8
SK3
100
AcDbLine
 10
116.65
 20
-3.750000000000028
 30
0.0
 11
116.65
 21
-10.90000000000003
 31
0.0
  0
LINE
  5
615
330
22
100
AcDbEntity
  8
SK4
100
AcDbLine
 10
115.0
 20
-22.85604327481641
 30
0.0
 11
115.0
 21
-0.3674916481000423
 31
0.0
  0
LINE
  5
616
330
22
100
AcDbEntity
  8
SK4
100
AcDbLine
 10
115.0
 20
2.029492530999958
 30
0.0
 11
115.0
 21
22.57396323353353
 31
0.0
  0
LINE
  5
617
330
22
100
AcDbEntity
  8
SK3
100
AcDbLine
 10
113.35
 20
10.89999999999998
 30
0.0
 11
113.35
 21
3.749999999999971
 31
0.0
  0
LINE
  5
618
330
22
100
AcDbEntity
  8
SK3
100
AcDbLine
 10
113.35
 20
-3.750000000000028
 30
0.0
 11
113.35
 21
-10.90000000000003
 31
0.0
  0
LINE
  5
619
330
22
100
AcDbEntity
  8
SK3
100
AcDbLine
 10
113.0
 20
11.24999999999997
 30
0.0
 11
113.0
 21
2.799999999999982
 31
0.0
  0
LINE
  5
61A
330
22
100
AcDbEntity
  8
SK3
100
AcDbLine
 10
113.0
 20
-2.800000000000011
 30
0.0
 11
113.0
 21
-11.25000000000003
 31
0.0
  0
LINE
  5
61B
330
22
100
AcDbEntity
  8
SK3
100
AcDbLine
 10
112.75
 20
11.49999999999997
 30
0.0
 11
112.75
 21
14.89999999999997
 31
0.0
  0
LINE
  5
61C
330
22
100
AcDbEntity
  8
SK3
100
AcDbLine
 10
112.75
 20
-11.50000000000003
 30
0.0
 11
112.75
 21
-14.90000000000003
 31
0.0
  0
LINE
  5
61D
330
22
100
AcDbEntity
  8
SK1
100
AcDbLine
 10
131.5
 20
-19.50000000000003
 30
0.0
 11
132.0
 21
-19.00000000000003
 31
0.0
  0
LINE
  5
61E
330
22
100
AcDbEntity
  8
SK1
100
AcDbLine
 10
131.5
 20
-12.00000000000003
 30
0.0
 11
131.75
 21
-11.75000000000003
 31
0.0
  0
LINE
  5
61F
330
22
100
AcDbEntity
  8
SK1
100
AcDbLine
 10
131.5
 20
19.49999999999997
 30
0.0
 11
132.0
 21
18.99999999999996
 31
0.0
  0
LINE
  5
620
330
22
100
AcDbEntity
  8
SK1
100
AcDbLine
 10
131.75
 20
11.74999999999997
 30
0.0
 11
131.5
 21
11.99999999999997
 31
0.0
  0
LINE
  5
621
330
22
100
AcDbEntity
  8
SK3
100
AcDbLine
 10
112.0
 20
-3.750000000000028
 30
0.0
 11
112.0
 21
3.749999999999971
 31
0.0
  0
LINE
  5
622
330
22
100
AcDbEntity
  8
SK3
100
AcDbLine
 10
111.0
 20
14.89999999999997
 30
0.0
 11
111.0
 21
19.49999999999997
 31
0.0
  0
LINE
  5
623
330
22
100
AcDbEntity
  8
SK3
100
AcDbLine
 10
111.0
 20
-14.90000000000003
 30
0.0
 11
111.0
 21
-19.50000000000003
 31
0.0
  0
LINE
  5
624
330
22
100
AcDbEntity
  8
SK3
100
AcDbLine
 10
105.5
 20
12.0
 30
0.0
 11
105.5
 21
19.0
 31
0.0
  0
LINE
  5
625
330
22
100
AcDbEntity
  8
SK3
100
AcDbLine
 10
105.5
 20
20.99629286380002
 30
0.0
 11
105.5
 21
11.80000000000001
 31
0.0
  0
LINE
  5
626
330
22
100
AcDbEntity
  8
SK3
100
AcDbLine
 10
105.5
 20
-12.0
 30
0.0
 11
105.5
 21
-19.0
 31
0.0
  0
LINE
  5
627
330
22
100
AcDbEntity
  8
SK3
100
AcDbLine
 10
105.5
 20
-11.79999999999998
 30
0.0
 11
105.5
 21
-20.99629286369998
 31
0.0
  0
LINE
  5
628
330
22
100
AcDbEntity
  8
SK3
100
AcDbLine
 10
112.0
 20
3.749999999999971
 30
0.0
 11
109.7467726786
 21
-0.0000000000000284
 31
0.0
  0
LINE
  5
629
330
22
100
AcDbEntity
  8
SK3
100
AcDbLine
 10
113.35
 20
-10.90000000000003
 30
0.0
 11
112.75
 21
-11.50000000000003
 31
0.0
  0
LINE
  5
62A
330
22
100
AcDbEntity
  8
SK3
100
AcDbLine
 10
112.75
 20
11.49999999999997
 30
0.0
 11
113.35
 21
10.89999999999998
 31
0.0
  0
LINE
  5
62B
330
22
100
AcDbEntity
  8
SK3
100
AcDbLine
 10
112.0
 20
-3.750000000000028
 30
0.0
 11
109.7467726786
 21
-0.0000000000000284
 31
0.0
  0
LINE
  5
62C
330
22
100
AcDbEntity
  8
SK1
100
AcDbLine
 10
131.5
 20
11.49999999999997
 30
0.0
 11
132.0
 21
11.99999999999997
 31
0.0
  0
LINE
  5
62D
330
22
100
AcDbEntity
  8
SK3
100
AcDbLine
 10
106.0
 20
-11.5
 30
0.0
 11
105.5
 21
-12.0
 31
0.0
  0
LINE
  5
62E
330
22
100
AcDbEntity
  8
SK1
100
AcDbLine
 10
131.75
 20
19.24999999999997
 30
0.0
 11
131.5
 21
18.99999999999996
 31
0.0
  0
LINE
  5
62F
330
22
100
AcDbEntity
  8
SK1
100
AcDbLine
 10
131.5
 20
-11.50000000000003
 30
0.0
 11
132.0
 21
-12.00000000000003
 31
0.0
  0
LINE
  5
630
330
22
100
AcDbEntity
  8
SK3
100
AcDbLine
 10
106.0
 20
11.5
 30
0.0
 11
105.5
 21
12.0
 31
0.0
  0
LINE
  5
631
330
22
100
AcDbEntity
  8
SK1
100
AcDbLine
 10
131.5
 20
-19.00000000000003
 30
0.0
 11
131.75
 21
-19.25000000000003
 31
0.0
  0
LINE
  5
632
330
22
100
AcDbEntity
  8
SK3
100
AcDbLine
 10
117.25
 20
11.49999999999997
 30
0.0
 11
116.65
 21
10.89999999999998
 31
0.0
  0
LINE
  5
633
330
22
100
AcDbEntity
  8
SK3
100
AcDbLine
 10
116.65
 20
-10.90000000000003
 30
0.0
 11
117.25
 21
-11.50000000000003
 31
0.0
  0
LINE
  5
634
330
22
100
AcDbEntity
  8
SK3
100
AcDbLine
 10
105.5
 20
19.0
 30
0.0
 11
106.0
 21
19.5
 31
0.0
  0
LINE
  5
635
330
22
100
AcDbEntity
  8
1
100
AcDbLine
 10
17.5
 20
31.77500000000001
 30
0.0
 11
14.3475
 21
31.77500000000001
 31
0.0
  0
LINE
  5
636
330
22
100
AcDbEntity
  8
1
100
AcDbLine
 10
7.852499999999992
 20
31.77500000000001
 30
0.0
 11
4.800000000000012
 21
31.77500000000001
 31
0.0
  0
LINE
  5
637
330
22
100
AcDbEntity
  8
SK3
100
AcDbLine
 10
105.5
 20
-19.0
 30
0.0
 11
106.0
 21
-19.5
 31
0.0
  0
LINE
  5
638
330
22
100
AcDbEntity
  8
1
100
AcDbLine
 10
-0.7999999999999829
 20
22.10829262149997
 30
0.0
 11
-67.37322744119992
 21
12.39630905529998
 31
0.0
  0
LINE
  5
639
330
22
100
AcDbEntity
  8
1
100
AcDbLine
 10
9.724999999999994
 20
28.125
 30
0.0
 11
12.47499999999999
 21
28.125
 31
0.0
  0
LINE
  5
63A
330
22
100
AcDbEntity
  8
SK3
100
AcDbLine
 10
17.50000000220001
 20
25.83409810700002
 30
0.0
 11
14.3475
 21
25.83409810700002
 31
0.0
  0
LINE
  5
63B
330
22
100
AcDbEntity
  8
SK3
100
AcDbLine
 10
7.852499999999992
 20
25.83409810700002
 30
0.0
 11
4.800000147799976
 21
25.83409810700002
 31
0.0
  0
LINE
  5
63C
330
22
100
AcDbEntity
  8
1
100
AcDbLine
 10
0.3196152422000296
 20
21.80829262149999
 30
0.0
 11
2.409731931199984
 21
21.80829262149999
 31
0.0
  0
LINE
  5
63D
330
22
100
AcDbEntity
  8
1
100
AcDbLine
 10
105.5
 20
20.99629286380002
 30
0.0
 11
20.05371046959999
 21
24.95580581700003
 31
0.0
  0
LINE
  5
63E
330
22
100
AcDbEntity
  8
SK3
100
AcDbLine
 10
9.724999999999994
 20
21.18408895849999
 30
0.0
 11
12.47499999999999
 21
21.18408895849999
 31
0.0
  0
LINE
  5
63F
330
22
100
AcDbEntity
  8
SK3
100
AcDbLine
 10
106.0001226568
 20
19.5
 30
0.0
 11
124.1767859732
 21
19.49999999999997
 31
0.0
  0
LINE
  5
640
330
22
100
AcDbEntity
  8
SK1
100
AcDbLine
 10
124.1767859732
 20
19.49999999999997
 30
0.0
 11
131.5
 21
19.49999999999997
 31
0.0
  0
LINE
  5
641
330
22
100
AcDbEntity
  8
SK1
100
AcDbLine
 10
126.9577857187
 20
18.99999999999996
 30
0.0
 11
131.5
 21
18.99999999999996
 31
0.0
  0
LINE
  5
642
330
22
100
AcDbEntity
  8
SK3
100
AcDbLine
 10
126.9577857187
 20
18.99999999999996
 30
0.0
 11
105.5
 21
19.0
 31
0.0
  0
LINE
  5
643
330
22
100
AcDbEntity
  8
SK3
100
AcDbLine
 10
19.09999999999999
 20
18.5
 30
0.0
 11
3.200000000000017
 21
18.5
 31
0.0
  0
LINE
  5
644
330
22
100
AcDbEntity
  8
SK3
100
AcDbLine
 10
119.0
 20
14.89999999999997
 30
0.0
 11
111.0
 21
14.89999999999997
 31
0.0
  0
LINE
  5
645
330
22
100
AcDbEntity
  8
SK1
100
AcDbLine
 10
127.0
 20
11.99999999999997
 30
0.0
 11
131.5
 21
11.99999999999997
 31
0.0
  0
LINE
  5
646
330
22
100
AcDbEntity
  8
SK3
100
AcDbLine
 10
127.0
 20
11.99999999999997
 30
0.0
 11
105.5
 21
12.0
 31
0.0
  0
LINE
  5
647
330
22
100
AcDbEntity
  8
SK3
100
AcDbLine
 10
105.8342682921
 20
11.5
 30
0.0
 11
126.951982123
 21
11.49999999999997
 31
0.0
  0
LINE
  5
648
330
22
100
AcDbEntity
  8
SK3
100
AcDbLine
 10
106.0001226568
 20
11.5
 30
0.0
 11
127.0
 21
11.49999999999997
 31
0.0
  0
LINE
  5
649
330
22
100
AcDbEntity
  8
SK1
100
AcDbLine
 10
127.0
 20
11.49999999999997
 30
0.0
 11
131.5
 21
11.49999999999997
 31
0.0
  0
LINE
  5
64A
330
22
100
AcDbEntity
  8
SK3
100
AcDbLine
 10
113.0
 20
11.24999999999997
 30
0.0
 11
117.0
 21
11.24999999999997
 31
0.0
  0
LINE
  5
64B
330
22
100
AcDbEntity
  8
SK1
100
AcDbLine
 10
143.0
 20
10.99999999999997
 30
0.0
 11
129.5
 21
10.99999999999997
 31
0.0
  0
LINE
  5
64C
330
22
100
AcDbEntity
  8
SK1
100
AcDbLine
 10
144.4
 20
10.96999999999997
 30
0.0
 11
143.0
 21
10.96999999999997
 31
0.0
  0
LINE
  5
64D
330
22
100
AcDbEntity
  8
SK3
100
AcDbLine
 10
113.35
 20
10.89999999999998
 30
0.0
 11
116.65
 21
10.89999999999998
 31
0.0
  0
LINE
  5
64E
330
22
100
AcDbEntity
  8
SK1
100
AcDbLine
 10
128.3013932592
 20
10.69999999999999
 30
0.0
 11
127.4
 21
10.69999999999999
 31
0.0
  0
LINE
  5
656
330
22
100
AcDbEntity
  8
SK3
100
AcDbLine
 10
-60.19999999999996
 20
8.5
 30
0.0
 11
-67.39999999999993
 21
8.5
 31
0.0
  0
LINE
  5
657
330
22
100
AcDbEntity
  8
1
100
AcDbLine
 10
19.13468993730001
 20
8.050000000000011
 30
0.0
 11
3.200000000000017
 21
8.050000000000011
 31
0.0
  0
LINE
  5
658
330
22
100
AcDbEntity
  8
SK3
100
AcDbLine
 10
-36.19999999999996
 20
8.0
 30
0.0
 11
-60.19999999999996
 21
8.0
 31
0.0
  0
LINE
  5
659
330
22
100
AcDbEntity
  8
SK3
100
AcDbLine
 10
-25.40000000000001
 20
6.920000000000014
 30
0.0
 11
-60.19999999999996
 21
6.920000000000014
 31
0.0
  0
LINE
  5
65A
330
22
100
AcDbEntity
  8
SK1
100
AcDbLine
 10
129.5
 20
-11.00000000000003
 30
0.0
 11
128.4566846862
 21
-10.72044450420003
 31
0.0
  0
LINE
  5
65B
330
22
100
AcDbEntity
  8
1
100
AcDbLine
 10
-0.7999999999999829
 20
22.10829262149997
 30
0.0
 11
0.3196152422000296
 21
21.80829262149999
 31
0.0
  0
LINE
  5
65C
330
22
100
AcDbEntity
  8
SK3
100
AcDbLine
 10
145.0
 20
5.249999999999971
 30
0.0
 11
141.5
 21
5.249999999999971
 31
0.0
  0
LINE
  5
65D
330
22
100
AcDbEntity
  8
SK3
100
AcDbLine
 10
119.5
 20
4.999999999999971
 30
0.0
 11
141.5
 21
4.999999999999971
 31
0.0
  0
LINE
  5
65E
330
22
100
AcDbEntity
  8
SK3
100
AcDbLine
 10
141.5
 20
3.749999999999971
 30
0.0
 11
116.65
 21
3.749999999999971
 31
0.0
  0
LINE
  5
65F
330
22
100
AcDbEntity
  8
SK3
100
AcDbLine
 10
113.35
 20
3.749999999999971
 30
0.0
 11
112.0
 21
3.749999999999971
 31
0.0
  0
LINE
  5
660
330
22
100
AcDbEntity
  8
SK3
100
AcDbLine
 10
113.0
 20
2.799999952399957
 30
0.0
 11
117.0
 21
2.799999952399957
 31
0.0
  0
LINE
  5
661
330
22
100
AcDbEntity
  8
4
100
AcDbLine
 10
149.0
 20
-0.0000000000000284
 30
0.0
 11
-71.39999999999995
 21
0.0
 31
0.0
  0
LINE
  5
662
330
22
100
AcDbEntity
  8
SK1
100
AcDbLine
 10
128.3013932592
 20
-10.70000000000002
 30
0.0
 11
128.4566846862
 21
-10.72044450420003
 31
0.0
  0
LINE
  5
663
330
22
100
AcDbEntity
  8
SK1
100
AcDbLine
 10
128.3013932592
 20
10.69999999999999
 30
0.0
 11
128.4566846862
 21
10.72044450429999
 31
0.0
  0
LINE
  5
664
330
22
100
AcDbEntity
  8
SK3
100
AcDbLine
 10
113.0
 20
-2.799999952300025
 30
0.0
 11
117.0
 21
-2.799999952300025
 31
0.0
  0
LINE
  5
665
330
22
100
AcDbEntity
  8
SK3
100
AcDbLine
 10
141.5
 20
-3.750000000000028
 30
0.0
 11
116.65
 21
-3.750000000000028
 31
0.0
  0
LINE
  5
666
330
22
100
AcDbEntity
  8
SK3
100
AcDbLine
 10
113.35
 20
-3.750000000000028
 30
0.0
 11
112.0
 21
-3.750000000000028
 31
0.0
  0
LINE
  5
667
330
22
100
AcDbEntity
  8
SK3
100
AcDbLine
 10
119.5
 20
-5.000000000000028
 30
0.0
 11
141.5
 21
-5.000000000000028
 31
0.0
  0
LINE
  5
668
330
22
100
AcDbEntity
  8
SK3
100
AcDbLine
 10
145.0
 20
-5.250000000000028
 30
0.0
 11
141.5
 21
-5.250000000000028
 31
0.0
  0
LINE
  5
669
330
22
100
AcDbEntity
  8
SK3
100
AcDbLine
 10
-25.40000000000001
 20
-6.919999999999986
 30
0.0
 11
-60.19999999999996
 21
-6.919999999999986
 31
0.0
  0
LINE
  5
66A
330
22
100
AcDbEntity
  8
SK3
100
AcDbLine
 10
-36.19999999999996
 20
-8.0
 30
0.0
 11
-60.19999999999996
 21
-8.0
 31
0.0
  0
LINE
  5
66B
330
22
100
AcDbEntity
  8
1
100
AcDbLine
 10
19.13468993730001
 20
-8.049999999999982
 30
0.0
 11
3.200000000000017
 21
-8.049999999999982
 31
0.0
  0
LINE
  5
66C
330
22
100
AcDbEntity
  8
1
100
AcDbLine
 10
7.852499999999992
 20
-31.77500000000001
 30
0.0
 11
9.224999999999994
 21
-29.39776026659999
 31
0.0
  0
LINE
  5
66D
330
22
100
AcDbEntity
  8
1
100
AcDbLine
 10
-0.7999999999999829
 20
-22.1082926215
 30
0.0
 11
0.3196152422000296
 21
-21.80829262150002
 31
0.0
  0
LINE
  5
66E
330
22
100
AcDbEntity
  8
SK1
100
AcDbLine
 10
129.5
 20
10.99999999999997
 30
0.0
 11
128.4566846862
 21
10.72044450429999
 31
0.0
  0
LINE
  5
66F
330
22
100
AcDbEntity
  8
SK3
100
AcDbLine
 10
-60.19999999999996
 20
-8.5
 30
0.0
 11
-67.39999999999993
 21
-8.5
 31
0.0
  0
LINE
  5
670
330
22
100
AcDbEntity
  8
SK1
100
AcDbLine
 10
128.3013932592
 20
-10.70000000000002
 30
0.0
 11
127.4
 21
-10.70000000000002
 31
0.0
  0
LINE
  5
671
330
22
100
AcDbEntity
  8
SK3
100
AcDbLine
 10
113.35
 20
-10.90000000000003
 30
0.0
 11
116.65
 21
-10.90000000000003
 31
0.0
  0
LINE
  5
672
330
22
100
AcDbEntity
  8
SK1
100
AcDbLine
 10
144.4
 20
-10.97000000000003
 30
0.0
 11
143.0
 21
-10.97000000000003
 31
0.0
  0
LINE
  5
673
330
22
100
AcDbEntity
  8
SK1
100
AcDbLine
 10
143.0
 20
-11.00000000000003
 30
0.0
 11
129.5
 21
-11.00000000000003
 31
0.0
  0
LINE
  5
674
330
22
100
AcDbEntity
  8
SK3
100
AcDbLine
 10
113.0
 20
-11.25000000000003
 30
0.0
 11
117.0
 21
-11.25000000000003
 31
0.0
  0
LINE
  5
675
330
22
100
AcDbEntity
  8
SK3
100
AcDbLine
 10
105.8342682922
 20
-11.5
 30
0.0
 11
126.951982123
 21
-11.50000000000003
 31
0.0
  0
LINE
  5
676
330
22
100
AcDbEntity
  8
SK1
100
AcDbLine
 10
131.5
 20
-11.50000000000003
 30
0.0
 11
127.0
 21
-11.50000000000003
 31
0.0
  0
LINE
  5
677
330
22
100
AcDbEntity
  8
SK3
100
AcDbLine
 10
127.0
 20
-11.50000000000003
 30
0.0
 11
106.0001226568
 21
-11.5
 31
0.0
  0
LINE
  5
678
330
22
100
AcDbEntity
  8
SK3
100
AcDbLine
 10
105.5
 20
-12.0
 30
0.0
 11
127.0
 21
-12.00000000000003
 31
0.0
  0
LINE
  5
679
330
22
100
AcDbEntity
  8
SK1
100
AcDbLine
 10
131.5
 20
-12.00000000000003
 30
0.0
 11
127.0
 21
-12.00000000000003
 31
0.0
  0
LINE
  5
67A
330
22
100
AcDbEntity
  8
SK3
100
AcDbLine
 10
119.0
 20
-14.90000000000003
 30
0.0
 11
111.0
 21
-14.90000000000003
 31
0.0
  0
LINE
  5
67B
330
22
100
AcDbEntity
  8
1
100
AcDbLine
 10
7.852499999999992
 20
31.77500000000001
 30
0.0
 11
9.224999999999994
 21
29.39776026669998
 31
0.0
  0
LINE
  5
67C
330
22
100
AcDbEntity
  8
1
100
AcDbLine
 10
19.09999999999999
 20
8.050000000000011
 30
0.0
 11
19.09999999999999
 21
30.1748559891
 31
0.0
  0
LINE
  5
67F
330
22
100
AcDbEntity
  8
1
100
AcDbLine
 10
19.09999999999999
 20
-8.049999999999982
 30
0.0
 11
19.09999999999999
 21
-30.17436039380001
 31
0.0
  0
LINE
  5
680
330
22
100
AcDbEntity
  8
SK3
100
AcDbLine
 10
105.5
 20
-19.0
 30
0.0
 11
126.9573571665
 21
-19.00000000000003
 31
0.0
  0
LINE
  5
681
330
22
100
AcDbEntity
  8
SK1
100
AcDbLine
 10
131.5
 20
-19.00000000000003
 30
0.0
 11
126.9573571665
 21
-19.00000000000003
 31
0.0
  0
LINE
  5
682
330
22
100
AcDbEntity
  8
SK1
100
AcDbLine
 10
131.5
 20
-19.50000000000003
 30
0.0
 11
124.1767859351
 21
-19.50000000000003
 31
0.0
  0
LINE
  5
683
330
22
100
AcDbEntity
  8
SK3
100
AcDbLine
 10
124.1767859351
 20
-19.50000000000003
 30
0.0
 11
106.0001226568
 21
-19.5
 31
0.0
  0
LINE
  5
684
330
22
100
AcDbEntity
  8
1
100
AcDbLine
 10
0.3196152422000296
 20
-21.80829262150002
 30
0.0
 11
2.409731931199984
 21
-21.80829262150002
 31
0.0
  0
LINE
  5
685
330
22
100
AcDbEntity
  8
1
100
AcDbLine
 10
14.3475
 20
31.77500000000001
 30
0.0
 11
14.3475
 21
8.050000000000011
 31
0.0
  0
LINE
  5
686
330
22
100
AcDbEntity
  8
1
100
AcDbLine
 10
14.3475
 20
-8.049999999999982
 30
0.0
 11
14.3475
 21
-31.77500000000001
 31
0.0
  0
LINE
  5
687
330
22
100
AcDbEntity
  8
1
100
AcDbLine
 10
12.97499999999999
 20
-29.39715233729998
 30
0.0
 11
12.97499999999999
 21
-8.049999999999982
 31
0.0
  0
LINE
  5
688
330
22
100
AcDbEntity
  8
1
100
AcDbLine
 10
12.97499999999999
 20
8.050000000000011
 30
0.0
 11
12.97499999999999
 21
29.39764392940001
 31
0.0
  0
LINE
  5
689
330
22
100
AcDbEntity
  8
1
100
AcDbLine
 10
9.224999999999994
 20
29.39764392940001
 30
0.0
 11
9.224999999999994
 21
8.050000000000011
 31
0.0
  0
LINE
  5
68A
330
22
100
AcDbEntity
  8
1
100
AcDbLine
 10
9.224999999999994
 20
-8.049999999999982
 30
0.0
 11
9.224999999999994
 21
-29.39715233729998
 31
0.0
  0
LINE
  5
68B
330
22
100
AcDbEntity
  8
1
100
AcDbLine
 10
105.5
 20
-20.99629286369998
 30
0.0
 11
20.05371046959999
 21
-24.95580581690001
 31
0.0
  0
LINE
  5
68C
330
22
100
AcDbEntity
  8
1
100
AcDbLine
 10
9.724999999999994
 20
-28.125
 30
0.0
 11
12.47499999999999
 21
-28.125
 31
0.0
  0
LINE
  5
68D
330
22
100
AcDbEntity
  8
1
100
AcDbLine
 10
-0.7999999999999829
 20
-22.1082926215
 30
0.0
 11
-67.37322744119992
 21
-12.39630905519999
 31
0.0
  0
LINE
  5
68F
330
22
100
AcDbEntity
  8
1
100
AcDbLine
 10
7.852499999999992
 20
-31.77500000000001
 30
0.0
 11
7.852499999999992
 21
-8.049999999999982
 31
0.0
  0
LINE
  5
690
330
22
100
AcDbEntity
  8
1
100
AcDbLine
 10
7.852499999999992
 20
8.050000000000011
 30
0.0
 11
7.852499999999992
 21
31.77500000000001
 31
0.0
  0
LINE
  5
692
330
22
100
AcDbEntity
  8
1
100
AcDbLine
 10
3.200000000000017
 20
-30.17436039380001
 30
0.0
 11
3.200000000000017
 21
-7.495841386000022
 31
0.0
  0
LINE
  5
694
330
22
100
AcDbEntity
  8
1
100
AcDbLine
 10
3.200000000000017
 20
7.495841385999995
 30
0.0
 11
3.200000000000017
 21
30.17497472439999
 31
0.0
  0
LINE
  5
697
330
22
100
AcDbEntity
  8
1
100
AcDbLine
 10
12.97499999999999
 20
29.39776026669998
 30
0.0
 11
14.3475
 21
31.77500000000001
 31
0.0
  0
LINE
  5
698
330
22
100
AcDbEntity
  8
1
100
AcDbLine
 10
17.5
 20
-31.77500000000001
 30
0.0
 11
14.3475
 21
-31.77500000000001
 31
0.0
  0
LINE
  5
699
330
22
100
AcDbEntity
  8
1
100
AcDbLine
 10
7.852499999999992
 20
-31.77500000000001
 30
0.0
 11
4.800000000000012
 21
-31.77500000000001
 31
0.0
  0
LINE
  5
69A
330
22
100
AcDbEntity
  8
1
100
AcDbLine
 10
12.97499999999999
 20
-29.39776026659999
 30
0.0
 11
14.3475
 21
-31.77500000000001
 31
0.0
  0
LINE
  5
69C
330
22
100
AcDbEntity
  8
1
100
AcDbLine
 10
0.3196152422000296
 20
-21.80829262150002
 30
0.0
 11
0.3196152422000296
 21
21.80829262149999
 31
0.0
  0
LINE
  5
69E
330
22
100
AcDbEntity
  8
1
100
AcDbLine
 10
-0.7999999999999829
 20
-22.1082926215
 30
0.0
 11
-0.7999999999999829
 21
22.10829262149997
 31
0.0
  0
LINE
  5
69F
330
22
100
AcDbEntity
  8
SK3
100
AcDbLine
 10
-21.40473613720002
 20
0.0
 30
0.0
 11
-25.40000000000001
 21
-6.919999999999986
 31
0.0
  0
LINE
  5
6A0
330
22
100
AcDbEntity
  8
SK3
100
AcDbLine
 10
-21.40473613720002
 20
0.0
 30
0.0
 11
-25.40000000000001
 21
6.920000000000014
 31
0.0
  0
LINE
  5
6A1
330
22
100
AcDbEntity
  8
SK3
100
AcDbLine
 10
-25.40000000000001
 20
-6.919999999999986
 30
0.0
 11
-25.40000000000001
 21
6.920000000000014
 31
0.0
  0
LINE
  5
6A2
330
22
100
AcDbEntity
  8
SK3
100
AcDbLine
 10
-36.20000076299997
 20
-8.0
 30
0.0
 11
-36.20000076299997
 21
8.0
 31
0.0
  0
LINE
  5
6A3
330
22
100
AcDbEntity
  8
SK3
100
AcDbLine
 10
-60.19999999999996
 20
8.5
 30
0.0
 11
-60.19999999999996
 21
-8.5
 31
0.0
  0
LINE
  5
6A4
330
22
100
AcDbEntity
  8
1
100
AcDbLine
 10
-68.39999999999995
 20
11.2088781084
 30
0.0
 11
-68.39999999999995
 21
-11.2088781084
 31
0.0
  0
ARC
  5
6A5
330
22
100
AcDbEntity
  8
SK3
100
AcDbCircle
 10
105.8
 20
11.80000000000001
 30
0.0
 40
0.3
100
AcDbArc
 50
180.0
 51
270.0
  0
ARC
  5
6A6
330
22
100
AcDbEntity
  8
SK3
100
AcDbCircle
 10
105.8
 20
-11.79999999999998
 30
0.0
 40
0.3
100
AcDbArc
 50
90.0
 51
180.0
  0
ARC
  5
6A7
330
22
100
AcDbEntity
  8
SK3
100
AcDbCircle
 10
145.0
 20
-6.25
 30
0.0
 40
1.0
100
AcDbArc
 50
0.000000169400014
 51
90.0
  0
ARC
  5
6A8
330
22
100
AcDbEntity
  8
SK3
100
AcDbCircle
 10
145.0
 20
6.25
 30
0.0
 40
1.0
100
AcDbArc
 50
270.0
 51
359.9999996603
  0
ARC
  5
6A9
330
22
100
AcDbEntity
  8
SK3
100
AcDbCircle
 10
-67.39999999999998
 20
9.500000000000026
 30
0.0
 40
1.0
100
AcDbArc
 50
180.0
 51
270.0
  0
ARC
  5
6AA
330
22
100
AcDbEntity
  8
SK3
100
AcDbCircle
 10
-67.39999999999998
 20
-9.499999999999973
 30
0.0
 40
1.0
100
AcDbArc
 50
90.0
 51
180.0
  0
ARC
  5
6AB
330
22
100
AcDbEntity
  8
SK3
100
AcDbCircle
 10
127.4
 20
-11.29999999999998
 30
0.0
 40
0.6
100
AcDbArc
 50
132.1033933472001
 51
180.0
  0
ARC
  5
6AC
330
22
100
AcDbEntity
  8
SK3
100
AcDbCircle
 10
127.4
 20
11.30000000000001
 30
0.0
 40
0.6
100
AcDbArc
 50
180.0
 51
227.8966066528
  0
ARC
  5
6AF
330
22
100
AcDbEntity
  8
1
100
AcDbCircle
 10
19.5
 20
0.0
 30
0.0
 40
8.05
100
AcDbArc
 50
282.7382120443
 51
77.26176191370005
  0
ARC
  5
6B0
330
22
100
AcDbEntity
  8
1
100
AcDbCircle
 10
20.09999999999999
 20
-25.95473388209999
 30
0.0
 40
1.0
100
AcDbArc
 50
92.65314279180001
 51
180.0
  0
ARC
  5
6B1
330
22
100
AcDbEntity
  8
1
100
AcDbCircle
 10
20.09999999999999
 20
25.95473388220003
 30
0.0
 40
1.0
100
AcDbArc
 50
180.0
 51
267.3468572082
  0
ARC
  5
6B2
330
22
100
AcDbEntity
  8
SK1
100
AcDbCircle
 10
127.4
 20
-11.29999999999998
 30
0.0
 40
0.6
100
AcDbArc
 50
90.0
 51
132.1033933472001
  0
ARC
  5
6B3
330
22
100
AcDbEntity
  8
SK1
100
AcDbCircle
 10
127.4
 20
11.30000000000001
 30
0.0
 40
0.6
100
AcDbArc
 50
227.8966066528
 51
270.0
  0
ARC
  5
6B4
330
22
100
AcDbEntity
  8
SK1
100
AcDbCircle
 10
144.4
 20
-9.370000000000002
 30
0.0
 40
1.6
100
AcDbArc
 50
270.0
 51
0.0
  0
ARC
  5
6B5
330
22
100
AcDbEntity
  8
SK1
100
AcDbCircle
 10
144.4
 20
9.370000000000002
 30
0.0
 40
1.6
100
AcDbArc
 50
0.0
 51
90.0
  0
ARC
  5
6B6
330
22
100
AcDbEntity
  8
1
100
AcDbCircle
 10
9.724999999999994
 20
28.625
 30
0.0
 40
0.5
100
AcDbArc
 50
180.0
 51
270.0
  0
ARC
  5
6B7
330
22
100
AcDbEntity
  8
1
100
AcDbCircle
 10
9.724999999999994
 20
-28.625
 30
0.0
 40
0.5
100
AcDbArc
 50
90.0
 51
180.0
  0
ARC
  5
6B8
330
22
100
AcDbEntity
  8
1
100
AcDbCircle
 10
12.47499999999999
 20
28.625
 30
0.0
 40
0.5
100
AcDbArc
 50
270.0
 51
0.0
  0
ARC
  5
6B9
330
22
100
AcDbEntity
  8
1
100
AcDbCircle
 10
12.47499999999999
 20
-28.625
 30
0.0
 40
0.5
100
AcDbArc
 50
0.0
 51
90.0
  0
ARC
  5
6BA
330
22
100
AcDbEntity
  8
1
100
AcDbCircle
 10
2.409731931199984
 20
22.80829262149999
 30
0.0
 40
1.0
100
AcDbArc
 50
270.0
 51
322.4620664206
  0
ARC
  5
6BB
330
22
100
AcDbEntity
  8
1
100
AcDbCircle
 10
2.409731931199984
 20
-22.80829262150001
 30
0.0
 40
1.0
100
AcDbArc
 50
36.54551625360003
 51
90.0
  0
ARC
  5
6BC
330
22
100
AcDbEntity
  8
1
100
AcDbCircle
 10
-67.19999999999997
 20
-11.20887810839997
 30
0.0
 40
1.199999999999999
100
AcDbArc
 50
180.0
 51
261.7
  0
ARC
  5
6BD
330
22
100
AcDbEntity
  8
1
100
AcDbCircle
 10
-67.19999999999997
 20
11.20887810840003
 30
0.0
 40
1.199999999999999
100
AcDbArc
 50
98.30000000000001
 51
180.0
  0
ARC
  5
6BE
330
22
100
AcDbEntity
  8
1
100
AcDbCircle
 10
4.800000000000012
 20
-30.17499999999998
 30
0.0
 40
1.6
100
AcDbArc
 50
180.0
 51
270.0
  0
ARC
  5
6BF
330
22
100
AcDbEntity
  8
1
100
AcDbCircle
 10
4.800000000000012
 20
30.17500000000001
 30
0.0
 40
1.6
100
AcDbArc
 50
90.0
 51
180.0
  0
ARC
  5
6C0
330
22
100
AcDbEntity
  8
1
100
AcDbCircle
 10
17.5
 20
-30.17499999999998
 30
0.0
 40
1.6
100
AcDbArc
 50
270.0
 51
0.0
  0
ARC
  5
6C1
330
22
100
AcDbEntity
  8
1
100
AcDbCircle
 10
17.5
 20
30.17500000000001
 30
0.0
 40
1.6
100
AcDbArc
 50
0.0
 51
90.0
  0
LWPOLYLINE
  5
6C2
330
22
100
AcDbEntity
  8
SK3
100
AcDbPolyline
 90
      118
 70
     0
 43
0.0
 10
4.800000147799976
 20
25.83409810700002
 10
4.783052349819
 20
25.833984343179
 10
4.766097638902009
 20
25.83364373609501
 10
4.749139247406019
 20
25.83307731231599
 10
4.732180407689013
 20
25.83228609841001
 10
4.715224352109003
 20
25.83127112094499
 10
4.698274313023005
 20
25.83003340648901
 10
4.681333522790993
 20
25.82857398160999
 10
4.664405213768019
 20
25.82689387287701
 10
4.647492618314031
 20
25.824994106856
 10
4.630598968785021
 20
25.82287571011699
 10
4.613727497539968
 20
25.820539709228
 10
4.596881436936995
 20
25.81798713075599
 10
4.580064019334002
 20
25.81521900126901
 10
4.563278477086981
 20
25.81223634733499
 10
4.546528042555991
 20
25.80904019552401
 10
4.52981594809799
 20
25.80563157240101
 10
4.513145426069995
 20
25.80201150453701
 10
4.496519708830986
 20
25.79818101849801
 10
4.47994202873798
 20
25.79414114085301
 10
4.463415618148985
 20
25.789892898169
 10
4.446943709421987
 20
25.785437317016
 10
4.430529534915023
 20
25.78077542396
 10
4.414176326986023
 20
25.77590824557001
 10
4.397887317992029
 20
25.770836808415
 10
4.378968926791002
 20
25.76466334089798
 10
4.36014744993801
 20
25.75821488193
 10
4.341428020296035
 20
25.75149306166299
 10
4.322815360877001
 20
25.74449974120702
 10
4.304312160461022
 20
25.73723792797901
 10
4.285920477891011
 20
25.729710984377
 10
4.267642371819988
 20
25.72192227290299
 10
4.249479900899017
 20
25.713875156061
 10
4.231435123783001
 20
25.705572996353
 10
4.213510099123992
 20
25.69701915628201
 10
4.195706885574991
 20
25.68821699835098
 10
4.17802754178902
 20
25.67916988506298
 10
4.160474126417994
 20
25.66988117892103
 10
4.14304869811599
 20
25.66035424242798
 10
4.125753315536002
 20
25.65059243808702
 10
4.106149044511993
 20
25.63915281040002
 10
4.086720390951994
 20
25.62741582763002
 10
4.067470427829022
 20
25.615386509025
 10
4.048402228120011
 20
25.60306987382901
 10
4.029518864798006
 20
25.59047094129102
 10
4.010823410838013
 20
25.57759473065599
 10
3.992318939214015
 20
25.56444626117002
 10
3.974008522901982
 20
25.55103055207999
 10
3.955895234874986
 20
25.537352622632
 10
3.935757241962022
 20
25.52165776628098
 10
3.915877004156982
 20
25.50564453631699
 10
3.896258830253002
 20
25.48932006252301
 10
3.876905372645977
 20
25.47269105774701
 10
3.857817554921012
 20
25.45576379968
 10
3.838996219579995
 20
25.43854454560398
 10
3.818397190537978
 20
25.419077187211
 10
3.798129347913031
 20
25.39926564833101
 10
3.778193847397004
 20
25.37911851233997
 10
3.758591844686008
 20
25.35864436261201
 10
3.739324495472998
 20
25.33785178252498
 10
3.720392955452011
 20
25.316749355453
 10
3.701798380317001
 20
25.29534566477102
 10
3.683541925764018
 20
25.27364929385701
 10
3.665624747485026
 20
25.251668826085
 10
3.648048001174998
 20
25.22941284483201
 10
3.630812842528996
 20
25.20688993347198
 10
3.613920427239008
 20
25.18410867538202
 10
3.597371911001998
 20
25.16107765393702
 10
3.581168449509021
 20
25.137805452512
 10
3.565311198457009
 20
25.11430065448499
 10
3.549801313539006
 20
25.09057184322899
 10
3.534639858506011
 20
25.06662745708402
 10
3.519826755203013
 20
25.04247413303299
 10
3.50536115249801
 20
25.018117288703
 10
3.491242184649023
 20
24.99356231866699
 10
3.477468985913019
 20
24.968814617497
 10
3.464040690544009
 20
24.94387957976802
 10
3.450956432801035
 20
24.918762600051
 10
3.438215346939017
 20
24.89346907291901
 10
3.425816567214013
 20
24.868004392947
 10
3.413759227882991
 20
24.84237395470501
 10
3.402042463203002
 20
24.81658315276798
 10
3.390665407429025
 20
24.790637381708
 10
3.379627194818993
 20
24.76454203609899
 10
3.368926959627998
 20
24.73830251051203
 10
3.358563836113006
 20
24.71192419952198
 10
3.348536958530018
 20
24.68541249770002
 10
3.338845461136031
 20
24.658772799621
 10
3.329488478186988
 20
24.63201049985599
 10
3.320465143939031
 20
24.60513099297799
 10
3.311774592649014
 20
24.57813967356202
 10
3.303415958572998
 20
24.55104193617902
 10
3.295388375968029
 20
24.52384317540199
 10
3.287690987830017
 20
24.496548714162
 10
3.280323006165018
 20
24.46916330972002
 10
3.273283675723006
 20
24.441691450924
 10
3.266572241454013
 20
24.41413762499798
 10
3.260187948306991
 20
24.38650631916798
 10
3.254130041230013
 20
24.35880202066102
 10
3.248397765172001
 20
24.33102921670201
 10
3.242990365082021
 20
24.303192394518
 10
3.237907085909
 20
24.27529604133301
 10
3.233147172602002
 20
24.24734464437401
 10
3.228709870108986
 20
24.21934269086702
 10
3.224594423380011
 20
24.19129466803799
 10
3.220800077361984
 20
24.163205063112
 10
3.217326077006986
 20
24.13507836331601
 10
3.214171667261011
 20
24.10691905587498
 10
3.211336093073015
 20
24.07873162801499
 10
3.208818599393993
 20
24.05052056696198
 10
3.206618431169998
 20
24.02229035994199
 10
3.204734833353001
 20
23.99404549418
 10
3.203167050889021
 20
23.96579045690399
 10
3.20191432872798
 20
23.93752973533799
 10
3.200975911819
 20
23.90926781670799
 10
3.200305774631003
 20
23.878183679111
 10
3.200014028214012
 20
23.84710949510798
 10
3.200000000020024
 20
23.83864723040099
  0
LWPOLYLINE
  5
73A
330
22
100
AcDbEntity
  8
SK3
100
AcDbPolyline
 90
      102
 70
     0
 43
0.0
 10
126.951982123
 20
11.49999999999997
 10
126.9524785841012
 20
11.50001143146596
 10
126.9529595146292
 20
11.50004546373895
 10
126.953425173268
 20
11.50010170362898
 10
126.9538758187013
 20
11.50017975794995
 10
126.9543117096131
 20
11.50027923351197
 10
126.9547331046872
 20
11.50039973712697
 10
126.9551402626075
 20
11.50054087560599
 10
126.9555334420578
 20
11.50070225576195
 10
126.9559129017219
 20
11.50088348440596
 10
126.9562789002838
 20
11.50108416834896
 10
126.9566316964274
 20
11.50130391440296
 10
126.9569715488364
 20
11.50154232937999
 10
126.9572987161947
 20
11.50179902009097
 10
126.9576134571863
 20
11.50207359334797
 10
126.9579160304949
 20
11.50236565596296
 10
126.9582066948044
 20
11.50267481474699
 10
126.9584857087987
 20
11.50300067651196
 10
126.9587533311617
 20
11.50334284806897
 10
126.9590098205772
 20
11.50370093622999
 10
126.959255435729
 20
11.50407454780699
 10
126.9594904353012
 20
11.50446328961095
 10
126.9597150779772
 20
11.50486676845395
 10
126.9599296224415
 20
11.50528459114798
 10
126.9601343273775
 20
11.50571636450297
 10
126.9603294514692
 20
11.50616169533296
 10
126.9605152534004
 20
11.50662019044796
 10
126.960691991855
 20
11.50709145665999
 10
126.9608599255169
 20
11.50757510077997
 10
126.96101931307
 20
11.50807072962098
 10
126.961170413198
 20
11.50857794999297
 10
126.9613134845849
 20
11.50909636870898
 10
126.9614487859145
 20
11.50962559257996
 10
126.9615765758707
 20
11.51016522841797
 10
126.9617547428509
 20
11.51099334451297
 10
126.9619174643375
 20
11.51184267584798
 10
126.9620656133888
 20
11.51271189541296
 10
126.9622000630626
 20
11.51359967619694
 10
126.9623216864171
 20
11.51450469118899
 10
126.9624313565104
 20
11.51542561337797
 10
126.9625299464003
 20
11.51636111575297
 10
126.9626183291449
 20
11.51730987130497
 10
126.9627218040122
 20
11.51859320115895
 10
126.9628107544175
 20
11.51989458757697
 10
126.9629046701093
 20
11.52154192065896
 10
126.9629973715654
 20
11.52354082426797
 10
126.96315533352
 20
11.52790594553298
 10
126.9632478135397
 20
11.53057825437696
 10
126.9633128506595
 20
11.53222928261993
 10
126.9633865358808
 20
11.53386092484098
 10
126.9634688619914
 20
11.53547328183995
 10
126.9635596627977
 20
11.53706669958697
 10
126.9636587721064
 20
11.53864152405299
 10
126.9637660237239
 20
11.54019810120897
 10
126.9638812514568
 20
11.54173677702596
 10
126.9640042891118
 20
11.54325789747494
 10
126.9641349704952
 20
11.54476180852597
 10
126.9642731294136
 20
11.54624885615197
 10
126.9644185996737
 20
11.54771938632197
 10
126.9645712150819
 20
11.54917374500897
 10
126.9647635511669
 20
11.55089811619996
 10
126.9649656497644
 20
11.55260029648997
 10
126.965177223692
 20
11.55428088371599
 10
126.9653979857676
 20
11.55594047571597
 10
126.9656276488087
 20
11.55757967032895
 10
126.9658659256331
 20
11.55919906539097
 10
126.9661125290586
 20
11.56079925874098
 10
126.9663671719028
 20
11.56238084821595
 10
126.9666740330217
 20
11.56420332028497
 10
126.9669909897609
 20
11.56600223348096
 10
126.9673175860855
 20
11.56777853714999
 10
126.967653365961
 20
11.56953318063398
 10
126.968047774553
 20
11.57151318261597
 10
126.9684529016209
 20
11.57346755080297
 10
126.9688680664364
 20
11.57539770229195
 10
126.9693462775123
 20
11.57754194064497
 10
126.9698353618253
 20
11.57965934095497
 10
126.9703903625363
 20
11.58198298533696
 10
126.9710133988691
 20
11.58450690551896
 10
126.9717060341566
 20
11.58722613479196
 10
126.9725282155022
 20
11.59035975881795
 10
126.9736020127117
 20
11.59433898121796
 10
126.9755347026605
 20
11.60132227211898
 10
126.9789901560391
 20
11.61394304296098
 10
126.9800734524539
 20
11.61814078060297
 10
126.9809014264947
 20
11.62149830559397
 10
126.9817031511084
 20
11.62489892875098
 10
126.9825304315735
 20
11.62857187987299
 10
126.9833301697045
 20
11.63228962440496
 10
126.9841511410199
 20
11.63628618323494
 10
126.9849897869905
 20
11.64056693457695
 10
126.985842830593
 20
11.64513667059697
 10
126.9867497310532
 20
11.65024391520998
 10
126.9877030186822
 20
11.65589952527096
 10
126.9887349441947
 20
11.66236231004797
 10
126.9899092690694
 20
11.67015081475494
 10
126.9913487527745
 20
11.68030739483995
 10
126.9944383639
 20
11.70393559864698
 10
126.9975800119874
 20
11.72885172580396
 10
126.9989060800169
 20
11.73900771145497
 10
126.9999652557885
 20
11.74679561264295
 10
126.9999986213659
 20
11.74703550411698
  0
LWPOLYLINE
  5
7A2
330
22
100
AcDbEntity
  8
SK3
100
AcDbPolyline
 90
      116
 70
     0
 43
0.0
 10
9.724999999999994
 20
21.18408895849999
 10
9.72044484200299
 20
21.184117789021
 10
9.715887782219994
 20
21.18420406452302
 10
9.711329535885994
 20
21.18434746091401
 10
9.705859081087991
 20
21.18459447983497
 10
9.700389183520996
 20
21.18492272611403
 10
9.694921079110002
 20
21.18533163971902
 10
9.689456003781003
 20
21.18582066062002
 10
9.683995193460019
 20
21.18638922878702
 10
9.678539884074012
 20
21.187036784188
 10
9.673091311548004
 20
21.18776276679199
 10
9.667650711806999
 20
21.18856661656997
 10
9.662219320778007
 20
21.18944777349
 10
9.656798374388015
 20
21.19040567752202
 10
9.651389108560039
 20
21.19143976863498
 10
9.645992759222993
 20
21.19254948679901
 10
9.640610562300992
 20
21.19373427198201
 10
9.635243753719977
 20
21.19499356415397
 10
9.629893569407016
 20
21.196326803284
 10
9.624561245286002
 20
21.19773342934201
 10
9.619248017285002
 20
21.19921288229699
 10
9.613955121330008
 20
21.200764602118
 10
9.608683793344994
 20
21.20238802877401
 10
9.60343526925601
 20
21.20408260223598
 10
9.598210784991008
 20
21.20584776247103
 10
9.593011576473998
 20
21.20768294945
 10
9.587838879631988
 20
21.20958760314199
 10
9.582693930391002
 20
21.21156116351497
 10
9.577577964676008
 20
21.21360307054101
 10
9.572492218413003
 20
21.21571276418598
 10
9.567437808730003
 20
21.21788964287498
 10
9.562415217999983
 20
21.22013288304299
 10
9.556596106288992
 20
21.22283267287599
 10
9.550821103390999
 20
21.22562014146999
 10
9.545090639800006
 20
21.22849386370399
 10
9.539405146010011
 20
21.23145241445698
 10
9.533765052515974
 20
21.23449436860901
 10
9.528170789810019
 20
21.237618301038
 10
9.522622788386994
 20
21.24082278662499
 10
9.517121478741984
 20
21.244106400248
 10
9.511667291367983
 20
21.24746771678701
 10
9.506260656760019
 20
21.25090531111999
 10
9.500140425892
 20
21.254925563596
 10
9.494083509640006
 20
21.25904145553602
 10
9.488090550607012
 20
21.26325085964602
 10
9.482162191397007
 20
21.26755164863098
 10
9.476299074611999
 20
21.271941695198
 10
9.470501842857032
 20
21.276418872053
 10
9.464771138735015
 20
21.28098105190202
 10
9.458404418025024
 20
21.28621246064199
 10
9.452123624601
 20
21.29154573003899
 10
9.445929673421034
 20
21.29697783119099
 10
9.439823479441995
 20
21.302505735198
 10
9.433142853585023
 20
21.30875653196802
 10
9.426572492561007
 20
21.31511817018898
 10
9.420112315732012
 20
21.321587826447
 10
9.413762142335032
 20
21.32816277713502
 10
9.407521791605999
 20
21.33484029864801
 10
9.401391082781003
 20
21.34161766738001
 10
9.395369835096031
 20
21.348492159724
 10
9.389457867788024
 20
21.35546105207402
 10
9.383655000093
 20
21.36252162082502
 10
9.377961051246984
 20
21.36967114237001
 10
9.372375840485998
 20
21.37690689310298
 10
9.366899187047009
 20
21.38422614941899
 10
9.36153091016601
 20
21.39162618771002
 10
9.356270829077999
 20
21.39910428437099
 10
9.35111876302102
 20
21.40665771579604
 10
9.346074531230016
 20
21.41428375837898
 10
9.341137952942004
 20
21.421979688514
 10
9.336308847392018
 20
21.42974278259399
 10
9.33158703381801
 20
21.43757031701401
 10
9.32697233145501
 20
21.445459568167
 10
9.32246455183801
 20
21.45340786376999
 10
9.318063403446018
 20
21.46141321828901
 10
9.31376852122699
 20
21.46947413618099
 10
9.30957953854701
 20
21.47758913246201
 10
9.305496088769984
 20
21.48575672214798
 10
9.30151780525901
 20
21.49397542025602
 10
9.297644321381
 20
21.50224374180101
 10
9.293875270499
 20
21.51056020179902
 10
9.29021028597802
 20
21.51892331526799
 10
9.286649001181983
 20
21.527331597222
 10
9.283191049477011
 20
21.53578356267801
 10
9.279836064226003
 20
21.54427772665201
 10
9.276583678793995
 20
21.55281260416101
 10
9.273433526545003
 20
21.56138671022
 10
9.270385240845
 20
21.569998559846
 10
9.267438455057996
 20
21.57864666805402
 10
9.264313785511006
 20
21.588199693419
 10
9.261310999238018
 20
21.59779281832403
 10
9.258429608246984
 20
21.60742406625698
 10
9.255669124546015
 20
21.61709146070402
 10
9.253029060143004
 20
21.62679302515099
 10
9.250508929988001
 20
21.63652678563099
 10
9.248108388377003
 20
21.646290888755
 10
9.245827286582994
 20
21.65608365158502
 10
9.243665490780983
 20
21.665903404077
 10
9.241622867145991
 20
21.67574847618801
 10
9.239699281852011
 20
21.685617197873
 10
9.237894601075025
 20
21.69550789908996
 10
9.236208690988007
 20
21.70541890979402
 10
9.234641417767988
 20
21.71534855994099
 10
9.233192647587998
 20
21.725295179489
 10
9.23186224662399
 20
21.73525709839299
 10
9.230650081049985
 20
21.745232646609
 10
9.229556017041003
 20
21.75522015409502
 10
9.228579920772999
 20
21.76521795080498
 10
9.227721658419
 20
21.77522436669702
 10
9.226981096153991
 20
21.78523773172699
 10
9.226358100154982
 20
21.79525637585201
 10
9.225852536594002
 20
21.80527862902599
 10
9.225464271647012
 20
21.81530282120801
 10
9.225193171489992
 20
21.82532728235299
 10
9.225039102295992
 20
21.835350342417
 10
9.225000000057974
 20
21.84353881889803
  0
LWPOLYLINE
  5
818
330
22
100
AcDbEntity
  8
SK3
100
AcDbPolyline
 90
        3
 70
     0
 43
0.0
 10
12.97499999999999
 20
22.84684461130002
 10
13.81173014170301
 20
24.68377217162302
 10
14.34749575080602
 20
25.83408905468801
  0
LWPOLYLINE
  5
81D
330
22
100
AcDbEntity
  8
SK3
100
AcDbPolyline
 90
        3
 70
     0
 43
0.0
 10
9.224999999999994
 20
22.84684461130002
 10
8.388269858286006
 20
24.68377217161901
 10
7.852504249193997
 20
25.83408905468801
  0
LWPOLYLINE
  5
822
330
22
100
AcDbEntity
  8
SK3
100
AcDbPolyline
 90
      116
 70
     0
 43
0.0
 10
12.97499999999999
 20
21.84354881889999
 10
12.97494158427
 20
21.83352810666599
 10
12.97476624756601
 20
21.82350462658502
 10
12.97447385561801
 20
21.81348004811198
 10
12.97406427415802
 20
21.80345604070197
 10
12.97353736891497
 20
21.79343427381298
 10
12.97289300561999
 20
21.78341641689801
 10
12.97213105000301
 20
21.773404139414
 10
12.97125136779399
 20
21.76339911081701
 10
12.970253824725
 20
21.75340300056303
 10
12.96913828652401
 20
21.74341747810601
 10
12.967904618923
 20
21.73344421290398
 10
12.96655268765201
 20
21.72348487441102
 10
12.96508235844101
 20
21.71354113208298
 10
12.963493497021
 20
21.70361465537599
 10
12.96178596912202
 20
21.693707113746
 10
12.95995964047401
 20
21.683820176649
 10
12.95801437680802
 20
21.67395551353999
 10
12.95595004385399
 20
21.664114793875
 10
12.953766507343
 20
21.65429968710899
 10
12.95146363300401
 20
21.644511862699
 10
12.94904128656799
 20
21.634752990099
 10
12.94649930434701
 20
21.62502476454301
 10
12.943837300295
 20
21.61532907607702
 10
12.94105478674899
 20
21.60566790378499
 10
12.93815127552
 20
21.596043227206
 10
12.93512627842202
 20
21.58645702588299
 10
12.931979307266
 20
21.57691127935501
 10
12.929012168344
 20
21.56827009909699
 10
12.92594345417302
 20
21.55966547579601
 10
12.92277279797003
 20
21.55109889671201
 10
12.91949983295299
 20
21.54257184910301
 10
12.916124192338
 20
21.534085820227
 10
12.912645509344
 20
21.52564229734199
 10
12.90906341718801
 20
21.51724276770599
 10
12.905377549087
 20
21.50888871857899
 10
12.90158753826
 20
21.50058163721798
 10
12.89769301792202
 20
21.49232301088102
 10
12.89369362129201
 20
21.484114326828
 10
12.88958898158802
 20
21.475957072315
 10
12.885378732026
 20
21.46785273460202
 10
12.88106250582501
 20
21.45980280094798
 10
12.87663993620103
 20
21.45180875860902
 10
12.87211066036701
 20
21.44387212120301
 10
12.86747440613601
 20
21.43599500022802
 10
12.86273099122903
 20
21.42818010047299
 10
12.85788023722099
 20
21.42043015216402
 10
12.85292196568801
 20
21.41274788552499
 10
12.84785599820401
 20
21.40513603078301
 10
12.84268215634603
 20
21.39759731816301
 10
12.83740026168701
 20
21.39013447789102
 10
12.83201013580398
 20
21.38275024019299
 10
12.826511600271
 20
21.37544733529501
 10
12.82090447666499
 20
21.36822849342099
 10
12.815188586559
 20
21.36109644479902
 10
12.80936375153001
 20
21.35405391965298
 10
12.80342979315202
 20
21.34710364820902
 10
12.79738653300202
 20
21.34024836069298
 10
12.791233792653
 20
21.33349078733102
 10
12.78497139368099
 20
21.32683365834802
 10
12.77859915766299
 20
21.32027970396999
 10
12.77211690617099
 20
21.31383165442298
 10
12.76552446078301
 20
21.307492239932
 10
12.758821801202
 20
21.30126434643699
 10
12.75269592633501
 20
21.29575773490399
 10
12.74648244966701
 20
21.29034757376999
 10
12.74018229676201
 20
21.28503689288601
 10
12.73379639318298
 20
21.27982872210498
 10
12.728048794464
 20
21.27528774420398
 10
12.72223482349
 20
21.27083228385899
 10
12.71635513031199
 20
21.266464469032
 10
12.71041036498502
 20
21.262186427686
 10
12.70440117756001
 20
21.25800028778198
 10
12.698328218092
 20
21.253908177282
 10
12.692192136633
 20
21.24991222414897
 10
12.686771796626
 20
21.24649631710801
 10
12.68130406202701
 20
21.24315708533996
 10
12.67578936832001
 20
21.23989595441299
 10
12.67022815099
 20
21.23671434989601
 10
12.66462084552199
 20
21.23361369735699
 10
12.65896788740002
 20
21.23059542236299
 10
12.65326971210899
 20
21.22766095048502
 10
12.647526755135
 20
21.22481170728901
 10
12.64173945196097
 20
21.22204911834402
 10
12.635908238072
 20
21.21937460921799
 10
12.6308754355
 20
21.21715335777698
 10
12.625810972072
 20
21.21499876105199
 10
12.62071548375701
 20
21.21291158912701
 10
12.61559015953997
 20
21.21089241692897
 10
12.61043623614799
 20
21.20894180253799
 10
12.60525495030899
 20
21.207060304034
 10
12.60004753875199
 20
21.20524847949602
 10
12.59481523820301
 20
21.20350688700501
 10
12.589559285392
 20
21.20183608463898
 10
12.58428091704601
 20
21.20023663047797
 10
12.578981369893
 20
21.19870908260299
 10
12.57366188066001
 20
21.197253999092
 10
12.56832368607601
 20
21.19587193802602
 10
12.562968022869
 20
21.19456345748298
 10
12.557596127766
 20
21.193329115545
 10
12.55220923749502
 20
21.192169470289
 10
12.54680858878501
 20
21.19108507979698
 10
12.54139541836301
 20
21.19007650214797
 10
12.53597096295701
 20
21.18914429542099
 10
12.530536459295
 20
21.18828901769601
 10
12.525093144105
 20
21.187511227052
 10
12.51964225411498
 20
21.18681148156998
 10
12.51418502605202
 20
21.18619033932899
 10
12.50872269664501
 20
21.185648358409
 10
12.50325650262201
 20
21.185186096889
 10
12.49778768070899
 20
21.18480411284901
 10
12.49231746763698
 20
21.18450296436799
 10
12.486847100131
 20
21.184283209527
 10
12.48228923481102
 20
21.184162658817
 10
12.47773283678501
 20
21.18409934198499
 10
12.47501000000599
 20
21.184088958639
  0
LWPOLYLINE
  5
8D9
330
22
100
AcDbEntity
  8
SK3
100
AcDbPolyline
 90
      118
 70
     0
 43
0.0
 10
19.09999999999999
 20
23.83863723040002
 10
19.09981127412601
 20
23.86970751874299
 10
19.09924442809699
 20
23.90078940324599
 10
19.09829845930801
 20
23.931876905487
 10
19.09710865319002
 20
23.96013811538103
 10
19.09560394060102
 20
23.98839453551202
 10
19.093783568269
 20
24.01664167420398
 10
19.09164678291802
 20
24.04487503978101
 10
19.08919283127701
 20
24.07309014056401
 10
19.08642096007
 20
24.10128248487899
 10
19.08333041602501
 20
24.12944758104698
 10
19.079920445868
 20
24.157580937392
 10
19.07619029632499
 20
24.18567806223697
 10
19.07213921412202
 20
24.21373446390499
 10
19.06776644598702
 20
24.241745650719
 10
19.06307123864502
 20
24.269707131003
 10
19.05805283882301
 20
24.29761441308
 10
19.05271049324599
 20
24.32546300527298
 10
19.047043448642
 20
24.353248415905
 10
19.04105095173699
 20
24.380966153299
 10
19.03473224925702
 20
24.408611725778
 10
19.02808658792901
 20
24.436180641666
 10
19.02111321447899
 20
24.46366840928602
 10
19.01381137563203
 20
24.49107053696
 10
19.00618031811299
 20
24.518382532983
 10
18.99821926670199
 20
24.54559973017101
 10
18.98992737243702
 20
24.57271687156004
 10
18.98130377087602
 20
24.59972857641702
 10
18.97234759758203
 20
24.62662946400801
 10
18.96305798811403
 20
24.653414153601
 10
18.95343407803298
 20
24.68007726446098
 10
18.94347500290101
 20
24.706613415855
 10
18.93317989827702
 20
24.73301722705
 10
18.92254789972199
 20
24.75928331731302
 10
18.91157814279603
 20
24.78540630590902
 10
18.90026976306099
 20
24.811380812105
 10
18.88862189607701
 20
24.83720145516802
 10
18.87663367740399
 20
24.86286285436501
 10
18.86430424260399
 20
24.88835962896099
 10
18.85163272723598
 20
24.913686398224
 10
18.838618266861
 20
24.93883778141998
 10
18.82525999703998
 20
24.96380839781604
 10
18.81155705333302
 20
24.98859286667698
 10
18.79750857130198
 20
25.01318580727101
 10
18.783113686506
 20
25.03758183886399
 10
18.768371534506
 20
25.06177558072302
 10
18.75328126271702
 20
25.08576163315499
 10
18.73784274441101
 20
25.10953343546899
 10
18.72205698644501
 20
25.13308261382599
 10
18.70592509419103
 20
25.15640063681499
 10
18.68944817302
 20
25.17947897302602
 10
18.672627328304
 20
25.20230909104902
 10
18.655463665414
 20
25.22488245947302
 10
18.63795828972098
 20
25.24719054688902
 10
18.62011230659598
 20
25.26922482188599
 10
18.60192682141101
 20
25.29097675305403
 10
18.58340293953702
 20
25.31243780898203
 10
18.56454176634602
 20
25.33359945826001
 10
18.54534440720797
 20
25.35445316947801
 10
18.525811967495
 20
25.37499041122601
 10
18.50594555257803
 20
25.39520265209401
 10
18.48574626782903
 20
25.41508136066997
 10
18.46521521861802
 20
25.43461800554502
 10
18.44645452930402
 20
25.45190147025798
 10
18.42742681194198
 20
25.46889473353199
 10
18.40813287235002
 20
25.48559157597001
 10
18.38857368565601
 20
25.50198573118402
 10
18.36875220163898
 20
25.51807038478401
 10
18.34867264706199
 20
25.53383836798599
 10
18.33061093656502
 20
25.54758270615497
 10
18.31235165868999
 20
25.56106612765402
 10
18.29389779707199
 20
25.574283593442
 10
18.27525233534601
 20
25.58723006448102
 10
18.25641825714803
 20
25.59990050172903
 10
18.23739854611199
 20
25.61228986614603
 10
18.21819618587298
 20
25.62439311869198
 10
18.198814160067
 20
25.63620522032702
 10
18.17925545233001
 20
25.64772113201099
 10
18.16199899419499
 20
25.65755062505898
 10
18.144611547104
 20
25.66714611389802
 10
18.12709510985999
 20
25.67650422276398
 10
18.109451681264
 20
25.68562157589298
 10
18.09168326011903
 20
25.69449479752203
 10
18.07379184522801
 20
25.70312051188802
 10
18.05577943539299
 20
25.71149534322799
 10
18.037648029416
 20
25.71961591577801
 10
18.019399626101
 20
25.72747885377598
 10
18.00103622424802
 20
25.73508078145699
 10
17.98255982266201
 20
25.74241832305901
 10
17.963972424865
 20
25.749488105393
 10
17.94527693639
 20
25.75628724710501
 10
17.92647822875702
 20
25.76281393882999
 10
17.90758143243701
 20
25.76906651239998
 10
17.88859167789798
 20
25.775043299647
 10
17.87224464726901
 20
25.77994549224201
 10
17.85583632098098
 20
25.78464279021199
 10
17.83936992988302
 20
25.78913414304901
 10
17.82284870482601
 20
25.79341850024301
 10
17.80627587665802
 20
25.79749481128701
 10
17.78965467623001
 20
25.80136202567202
 10
17.77298833439099
 20
25.80501909288799
 10
17.75628008199101
 20
25.80846496242902
 10
17.73953314988
 20
25.81169858378499
 10
17.72275076890702
 20
25.81471890644798
 10
17.70593616992198
 20
25.81752487990897
 10
17.68909258377499
 20
25.820115453661
 10
17.67222324131501
 20
25.82248957719301
 10
17.65533137339298
 20
25.82464619999902
 10
17.63842021085702
 20
25.826584271569
 10
17.62149298455799
 20
25.82830274139499
 10
17.60455292534598
 20
25.82980055896801
 10
17.587603264069
 20
25.83107667378099
 10
17.57064723157799
 20
25.83213003532399
 10
17.553688058723
 20
25.83295959308899
 10
17.536728976353
 20
25.833564296568
 10
17.519773215317
 20
25.83394309525103
 10
17.502824006466
 20
25.83409493863098
 10
17.500010002202
 20
25.83409810696001
  0
LWPOLYLINE
  5
951
330
22
100
AcDbEntity
  8
SK3
100
AcDbPolyline
 90
      102
 70
     0
 43
0.0
 10
127.0
 20
-11.74704540860003
 10
126.9989397541086
 20
-11.73926018257003
 10
126.9976455010045
 20
-11.72936188977101
 10
126.9951515618595
 20
-11.70960430085901
 10
126.9914886908831
 20
-11.68132841684104
 10
126.9900199959225
 20
-11.67090874058104
 10
126.9888511264253
 20
-11.66311232905403
 10
126.9877840572111
 20
-11.65639415907302
 10
126.9868342348842
 20
-11.65073322805904
 10
126.9859307863497
 20
-11.64562059576903
 10
126.9850354905697
 20
-11.64080616953501
 10
126.984198542767
 20
-11.63652270697204
 10
126.9833792679895
 20
-11.63252341708804
 10
126.9825812088728
 20
-11.62880295089101
 10
126.9817556872018
 20
-11.62512713142604
 10
126.9809556839137
 20
-11.62172368598501
 10
126.9801294571416
 20
-11.61836329971601
 10
126.9791057702116
 20
-11.61438249680003
 10
126.9772814575957
 20
-11.60761486413102
 10
126.973602012736
 20
-11.59433898116805
 10
126.972528215528
 20
-11.59035975877
 10
126.9717060341835
 20
-11.58722613474603
 10
126.9710133988967
 20
-11.58450690547403
 10
126.9703903625645
 20
-11.58198298529302
 10
126.9698353618539
 20
-11.57965934091302
 10
126.9693462775411
 20
-11.57754194060504
 10
126.9688680664653
 20
-11.57539770225301
 10
126.9684529016497
 20
-11.57346755076602
 10
126.9680477745817
 20
-11.57151318258002
 10
126.9676533659894
 20
-11.56953318060004
 10
126.9673175861138
 20
-11.56777853711702
 10
126.9669909897887
 20
-11.56600223345003
 10
126.966674033049
 20
-11.56420332025504
 10
126.9663671719295
 20
-11.56238084818804
 10
126.9661125290847
 20
-11.56079925871401
 10
126.9658659256587
 20
-11.55919906536604
 10
126.9656276488335
 20
-11.55757967030604
 10
126.9653979857915
 20
-11.55594047569502
 10
126.965177223715
 20
-11.55428088369603
 10
126.9649656497865
 20
-11.55260029647203
 10
126.964763551188
 20
-11.55089811618401
 10
126.9645712151018
 20
-11.54917374499402
 10
126.9644185996926
 20
-11.54771938631003
 10
126.9642731294314
 20
-11.54624885614103
 10
126.9641349705118
 20
-11.54476180851702
 10
126.9640042891272
 20
-11.54325789746701
 10
126.963881251471
 20
-11.54173677702002
 10
126.9637660237367
 20
-11.54019810120505
 10
126.9636587721178
 20
-11.53864152405103
 10
126.9635596628076
 20
-11.53706669958705
 10
126.9634688619997
 20
-11.53547328184203
 10
126.9633865358875
 20
-11.53386092484504
 10
126.9633128506645
 20
-11.53222928262602
 10
126.9632478135429
 20
-11.530578254385
 10
126.9631665623497
 20
-11.52824136689204
 10
126.9629973715632
 20
-11.52354082428104
 10
126.9629046701061
 20
-11.521541920672
 10
126.9628107544137
 20
-11.51989458759001
 10
126.9627218040079
 20
-11.51859320117202
 10
126.9626183291402
 20
-11.51730987131805
 10
126.9625299463954
 20
-11.51636111576704
 10
126.9624313565053
 20
-11.51542561339101
 10
126.9623216864119
 20
-11.51450469120104
 10
126.9622000630572
 20
-11.51359967620902
 10
126.9620656133834
 20
-11.51271189542501
 10
126.9619174643321
 20
-11.51184267586004
 10
126.9617547428455
 20
-11.51099334452402
 10
126.9615765758654
 20
-11.510165228429
 10
126.9614487859092
 20
-11.50962559259
 10
126.9613134845797
 20
-11.50909636871904
 10
126.9611704131928
 20
-11.50857795000303
 10
126.9610193130649
 20
-11.50807072963005
 10
126.9608599255119
 20
-11.50757510078801
 10
126.9606919918501
 20
-11.50709145666803
 10
126.9605152533956
 20
-11.50662019045504
 10
126.9603294514645
 20
-11.50616169534004
 10
126.9601343273729
 20
-11.50571636451002
 10
126.9599296224371
 20
-11.50528459115403
 10
126.9597150779731
 20
-11.50486676846003
 10
126.9594904352971
 20
-11.50446328961604
 10
126.9592554357251
 20
-11.50407454781202
 10
126.9590098205734
 20
-11.50370093623502
 10
126.9587533311581
 20
-11.50334284807303
 10
126.9584857087953
 20
-11.50300067651503
 10
126.9582066948012
 20
-11.50267481475004
 10
126.9579160304919
 20
-11.50236565596603
 10
126.9576134571834
 20
-11.50207359335104
 10
126.9572987161921
 20
-11.50179902009301
 10
126.956971548834
 20
-11.50154232938203
 10
126.9566316964251
 20
-11.50130391440504
 10
126.9562789002818
 20
-11.50108416835002
 10
126.9559129017201
 20
-11.50088348440704
 10
126.9555334420562
 20
-11.50070225576303
 10
126.9551402626061
 20
-11.50054087560701
 10
126.9547331046859
 20
-11.50039973712702
 10
126.9543117096122
 20
-11.50027923351203
 10
126.9538758187006
 20
-11.50017975795003
 10
126.9534251732674
 20
-11.50010170363003
 10
126.9529595146289
 20
-11.50004546373904
 10
126.952478584101
 20
-11.50001143146602
 10
126.951982123
 20
-11.50000000000003
 10
126.9519921198962
 20
-11.50000000452002
  0
LWPOLYLINE
  5
9B9
330
22
100
AcDbEntity
  8
SK3
100
AcDbPolyline
 90
        5
 70
     0
 43
0.0
 10
110.5
 20
-20.15362206400005
 10
110.296568094066
 20
-20.16436222810302
 10
110.092463119908
 20
-20.17719853596603
 10
109.886935535492
 20
-20.19220383457303
 10
109.718275013498
 20
-20.20607285058401
  0
LWPOLYLINE
  5
9C0
330
22
100
AcDbEntity
  8
SK3
100
AcDbPolyline
 90
       19
 70
     0
 43
0.0
 10
109.7182650506
 20
-20.20607371120002
 10
109.506451746882
 20
-20.22547359058803
 10
109.294843115206
 20
-20.24705530405001
 10
109.07931490491
 20
-20.27129086706503
 10
108.864042051486
 20
-20.29775790255803
 10
108.6449168242429
 20
-20.32700819661204
 10
108.426106936683
 20
-20.35853209953803
 10
108.203518689605
 20
-20.39296568818
 10
107.98130503119
 20
-20.42970891071803
 10
107.755379516197
 20
-20.46947638363802
 10
107.525783292231
 20
-20.51236519138004
 10
107.29255994312
 20
-20.55847122440702
 10
107.055754357472
 20
-20.60788705075902
 10
106.81541234983
 20
-20.66070099379903
 10
106.571582080645
 20
-20.71699910106397
 10
106.324312964479
 20
-20.77686461568502
 10
106.073652781806
 20
-20.84037663813999
 10
105.819650590802
 20
-20.90761094589002
 10
105.622602006527
 20
-20.96174577358298
  0
LWPOLYLINE
  5
9D5
330
22
100
AcDbEntity
  8
SK3
100
AcDbPolyline
 90
        2
 70
     0
 43
0.0
 10
105.6225923746
 20
-20.96174846170001
 10
105.500009618378
 20
-20.99629012749801
  0
LWPOLYLINE
  5
9D9
330
22
100
AcDbEntity
  8
SK3
100
AcDbPolyline
 90
        2
 70
     0
 43
0.0
 10
126.4277737182
 20
-19.39230165600006
 10
121.1416746102869
 20
-19.64516483008
  0
LWPOLYLINE
  5
9DD
330
22
100
AcDbEntity
  8
SK3
100
AcDbPolyline
 90
        2
 70
     0
 43
0.0
 10
121.1416646217
 20
-19.64516530770003
 10
119.879408484192
 20
-19.70551640306902
  0
LWPOLYLINE
  5
9E1
330
22
100
AcDbEntity
  8
SK3
100
AcDbPolyline
 90
        2
 70
     0
 43
0.0
 10
119.8793984956
 20
-19.70551688060004
 10
118.489928916196
 20
-19.77193739466605
  0
LWPOLYLINE
  5
9E5
330
22
100
AcDbEntity
  8
SK3
100
AcDbPolyline
 90
        2
 70
     0
 43
0.0
 10
118.4899189276
 20
-19.77193787210001
 10
117.068172820301
 20
-19.83988741436403
  0
LWPOLYLINE
  5
9E9
330
22
100
AcDbEntity
  8
SK3
100
AcDbPolyline
 90
        2
 70
     0
 43
0.0
 10
117.0681628317
 20
-19.83988789170004
 10
115.832394656705
 20
-19.89893769354802
  0
LWPOLYLINE
  5
9ED
330
22
100
AcDbEntity
  8
SK3
100
AcDbPolyline
 90
        2
 70
     0
 43
0.0
 10
115.8323846681
 20
-19.89893817080005
 10
110.500009988622
 20
-20.15362158710303
  0
LWPOLYLINE
  5
9F1
330
22
100
AcDbEntity
  8
SK3
100
AcDbPolyline
 90
        2
 70
     0
 43
0.0
 10
110.5
 20
20.15362206399996
 10
115.832374679395
 20
19.89893864815198
  0
LWPOLYLINE
  5
9F5
330
22
100
AcDbEntity
  8
SK3
100
AcDbPolyline
 90
        2
 70
     0
 43
0.0
 10
115.832384668
 20
19.89893817089998
 10
117.068140995899
 20
19.83988893523596
  0
LWPOLYLINE
  5
9F9
330
22
100
AcDbEntity
  8
SK3
100
AcDbPolyline
 90
        2
 70
     0
 43
0.0
 10
117.0681509845
 20
19.83988845789997
 10
118.489908940704
 20
19.77193834953397
  0
LWPOLYLINE
  5
9FD
330
22
100
AcDbEntity
  8
SK3
100
AcDbPolyline
 90
        2
 70
     0
 43
0.0
 10
118.4899189293
 20
19.77193787209995
 10
119.879376726308
 20
19.70551792143098
  0
LWPOLYLINE
  5
A01
330
22
100
AcDbEntity
  8
SK3
100
AcDbPolyline
 90
        2
 70
     0
 43
0.0
 10
119.8793867149
 20
19.70551744389996
 10
121.141654633013
 20
19.64516578541998
  0
LWPOLYLINE
  5
A05
330
22
100
AcDbEntity
  8
SK3
100
AcDbPolyline
 90
        2
 70
     0
 43
0.0
 10
121.1416646215999
 20
19.64516530779997
 10
126.4277637296307
 20
19.39230213409996
  0
LWPOLYLINE
  5
A09
330
22
100
AcDbEntity
  8
SK3
100
AcDbPolyline
 90
      195
 70
     0
 43
0.0
 10
-36.19999999999996
 20
0.0
 10
-36.19999999999996
 20
0.1084147142269956
 10
-36.19999999999996
 20
0.2168619686040074
 10
-36.19999999999996
 20
0.3253102210589986
 10
-36.19999999999996
 20
0.4337279295209841
 10
-36.19999999999996
 20
0.5420835519160221
 10
-36.19999999999996
 20
0.650345546171991
 10
-36.19999999999996
 20
0.7584823702180188
 10
-36.19999999999996
 20
0.8664624819799938
 10
-36.19999999999996
 20
0.974254339386988
 10
-36.19999999999996
 20
1.08182640036702
 10
-36.19999999999996
 20
1.189147122847002
 10
-36.19999999999996
 20
1.29618496475399
 10
-36.19999999999996
 20
1.402908384017989
 10
-36.19999999999996
 20
1.50928583856401
 10
-36.19999999999996
 20
1.615285786321975
 10
-36.19999999999996
 20
1.720876685218995
 10
-36.19999999999996
 20
1.826027042557001
 10
-36.19999999999996
 20
1.93070832815701
 10
-36.19999999999996
 20
2.034896603741997
 10
-36.19999999999996
 20
2.138568326034004
 10
-36.19999999999996
 20
2.241699951757027
 10
-36.19999999999996
 20
2.344267937636003
 10
-36.19999999999996
 20
2.44624874039502
 10
-36.19999999999996
 20
2.547618816757021
 10
-36.19999999999996
 20
2.648354623447005
 10
-36.19999999999996
 20
2.748432617188
 10
-36.19999999999996
 20
2.847829254703981
 10
-36.19999999999996
 20
2.946520992719996
 10
-36.19999999999996
 20
3.044484287958993
 10
-36.19999999999996
 20
3.141695597145996
 10
-36.19999999999996
 20
3.238131377002986
 10
-36.19999999999996
 20
3.333768084255978
 10
-36.19999999999996
 20
3.42858217562798
 10
-36.19999999999996
 20
3.522550199417991
 10
-36.19999999999996
 20
3.61564976848598
 10
-36.19999999999996
 20
3.707859182504988
 10
-36.19999999999996
 20
3.79915675259599
 10
-36.19999999999996
 20
3.889520789876968
 10
-36.19999999999996
 20
3.978929605469971
 10
-36.19999999999996
 20
4.067361510494008
 10
-36.19999999999996
 20
4.154794816068998
 10
-36.19999999999996
 20
4.258366093543997
 10
-36.19999999999996
 20
4.360430677441001
 10
-36.19999999999996
 20
4.460951089375014
 10
-36.19999999999996
 20
4.559889850962973
 10
-36.19999999999996
 20
4.657209483817978
 10
-36.19999999999996
 20
4.752872509556993
 10
-36.19999999999996
 20
4.846841449795988
 10
-36.19999999999996
 20
4.939079020869995
 10
-36.19999999999996
 20
5.029552417724005
 10
-36.19999999999996
 20
5.118233313901981
 10
-36.19999999999996
 20
5.205093577674971
 10
-36.19999999999996
 20
5.290105077310983
 10
-36.19999999999996
 20
5.37323968107799
 10
-36.19999999999996
 20
5.454469257245988
 10
-36.19999999999996
 20
5.53376567408398
 10
-36.19999999999996
 20
5.598349006861012
 10
-36.19999999999996
 20
5.661554052017976
 10
-36.19999999999996
 20
5.723364529619998
 10
-36.19999999999996
 20
5.783764159729003
 10
-36.19999999999996
 20
5.842736662407985
 10
-36.19999999999996
 20
5.900265757720005
 10
-36.19999999999996
 20
5.956335165728006
 10
-36.19999999999996
 20
6.010928643292999
 10
-36.19999999999996
 20
6.064032155160987
 10
-36.19999999999996
 20
6.115635088296016
 10
-36.19999999999996
 20
6.165727124050986
 10
-36.19999999999996
 20
6.214297943773999
 10
-36.19999999999996
 20
6.261337228816983
 10
-36.19999999999996
 20
6.306834660531022
 10
-36.19999999999996
 20
6.350779920265011
 10
-36.19999999999996
 20
6.393162689370996
 10
-36.19999999999996
 20
6.433972649198011
 10
-36.19999999999996
 20
6.473199481096997
 10
-36.19999999999996
 20
6.510832866419007
 10
-36.19999999999996
 20
6.546862486515009
 10
-36.19999999999996
 20
6.581278022734011
 10
-36.19999999999996
 20
6.614069156427007
 10
-36.19999999999996
 20
6.645225568945022
 10
-36.19999999999996
 20
6.674736941638002
 10
-36.19999999999996
 20
6.70259329246997
 10
-36.19999999999996
 20
6.728788552538985
 10
-36.19999999999996
 20
6.753319177543004
 10
-36.19999999999996
 20
6.776181665256017
 10
-36.19999999999996
 20
6.797372513455996
 10
-36.19999999999996
 20
6.81688821991699
 10
-36.19999999999996
 20
6.834725282413983
 10
-36.19999999999996
 20
6.850880198723984
 10
-36.19999999999996
 20
6.865349466620982
 10
-36.19999999999996
 20
6.878129583880991
 10
-36.19999999999996
 20
6.889217048279987
 10
-36.19999999999996
 20
6.898608357592023
 10
-36.19999999999996
 20
6.906300009593023
 10
-36.19999999999996
 20
6.912288502058999
 10
-36.19999999999996
 20
6.916570332766013
 10
-36.19999999999996
 20
6.91914199948701
 10
-36.19999999999996
 20
6.920000000000014
 10
-36.19999999999996
 20
6.91914199948701
 10
-36.19999999999996
 20
6.916570332766013
 10
-36.19999999999996
 20
6.912288502058999
 10
-36.19999999999996
 20
6.906300009593023
 10
-36.19999999999996
 20
6.898608357592023
 10
-36.19999999999996
 20
6.889217048279987
 10
-36.19999999999996
 20
6.878129583880991
 10
-36.19999999999996
 20
6.865349466620982
 10
-36.19999999999996
 20
6.850880198723984
 10
-36.19999999999996
 20
6.834725282413983
 10
-36.19999999999996
 20
6.81688821991699
 10
-36.19999999999996
 20
6.797372513455996
 10
-36.19999999999996
 20
6.776181665256017
 10
-36.19999999999996
 20
6.753319177543004
 10
-36.19999999999996
 20
6.728788552538985
 10
-36.19999999999996
 20
6.70259329246997
 10
-36.19999999999996
 20
6.674736941638002
 10
-36.19999999999996
 20
6.645225568945022
 10
-36.19999999999996
 20
6.614069156427007
 10
-36.19999999999996
 20
6.581278022734011
 10
-36.19999999999996
 20
6.546862486515009
 10
-36.19999999999996
 20
6.510832866419007
 10
-36.19999999999996
 20
6.473199481096997
 10
-36.19999999999996
 20
6.433972649198011
 10
-36.19999999999996
 20
6.393162689370996
 10
-36.19999999999996
 20
6.350779920265011
 10
-36.19999999999996
 20
6.306834660531022
 10
-36.19999999999996
 20
6.261337228816983
 10
-36.19999999999996
 20
6.214297943773999
 10
-36.19999999999996
 20
6.165727124050986
 10
-36.19999999999996
 20
6.115635088296016
 10
-36.19999999999996
 20
6.064032155160987
 10
-36.19999999999996
 20
6.010928643292999
 10
-36.19999999999996
 20
5.956335165728006
 10
-36.19999999999996
 20
5.900265757720005
 10
-36.19999999999996
 20
5.842736662407985
 10
-36.19999999999996
 20
5.783764159729003
 10
-36.19999999999996
 20
5.723364529619998
 10
-36.19999999999996
 20
5.661554052017976
 10
-36.19999999999996
 20
5.598349006861012
 10
-36.19999999999996
 20
5.53376567408398
 10
-36.19999999999996
 20
5.454469257247011
 10
-36.19999999999996
 20
5.37323968107799
 10
-36.19999999999996
 20
5.290105077310983
 10
-36.19999999999996
 20
5.205093577674971
 10
-36.19999999999996
 20
5.118233313901981
 10
-36.19999999999996
 20
5.029552417724005
 10
-36.19999999999996
 20
4.939079020871019
 10
-36.19999999999996
 20
4.846841449795988
 10
-36.19999999999996
 20
4.752872509557987
 10
-36.19999999999996
 20
4.657209483817978
 10
-36.19999999999996
 20
4.559889850962973
 10
-36.19999999999996
 20
4.460951089376009
 10
-36.19999999999996
 20
4.360430677441001
 10
-36.19999999999996
 20
4.258366093543997
 10
-36.19999999999996
 20
4.154794816068998
 10
-36.19999999999996
 20
4.067361510494008
 10
-36.19999999999996
 20
3.978929605469971
 10
-36.19999999999996
 20
3.889520789876968
 10
-36.19999999999996
 20
3.79915675259599
 10
-36.19999999999996
 20
3.707859182504988
 10
-36.19999999999996
 20
3.61564976848598
 10
-36.19999999999996
 20
3.522550199417991
 10
-36.19999999999996
 20
3.42858217562798
 10
-36.19999999999996
 20
3.333768084255978
 10
-36.19999999999996
 20
3.238131377002986
 10
-36.19999999999996
 20
3.141695597145996
 10
-36.19999999999996
 20
3.044484287958993
 10
-36.19999999999996
 20
2.946520992719996
 10
-36.19999999999996
 20
2.847829254703981
 10
-36.19999999999996
 20
2.748432617188
 10
-36.19999999999996
 20
2.648354623447005
 10
-36.19999999999996
 20
2.547618816757021
 10
-36.19999999999996
 20
2.44624874039502
 10
-36.19999999999996
 20
2.344267937636003
 10
-36.19999999999996
 20
2.241699951757027
 10
-36.19999999999996
 20
2.13856832603298
 10
-36.19999999999996
 20
2.034896603741997
 10
-36.19999999999996
 20
1.93070832815701
 10
-36.19999999999996
 20
1.826027042557001
 10
-36.19999999999996
 20
1.720876685218001
 10
-36.19999999999996
 20
1.615285786321975
 10
-36.19999999999996
 20
1.50928583856401
 10
-36.19999999999996
 20
1.402908384016995
 10
-36.19999999999996
 20
1.29618496475399
 10
-36.19999999999996
 20
1.189147122847002
 10
-36.19999999999996
 20
1.08182640036702
 10
-36.19999999999996
 20
0.974254339386988
 10
-36.19999999999996
 20
0.8664624819799938
 10
-36.19999999999996
 20
0.7584823702180188
 10
-36.19999999999996
 20
0.650345546171991
 10
-36.19999999999996
 20
0.5420835519160221
 10
-36.19999999999996
 20
0.4337279295209841
 10
-36.19999999999996
 20
0.3253102210589986
 10
-36.19999999999996
 20
0.2168619686040074
 10
-36.19999999999996
 20
0.1084147142269956
 10
-36.19999999999996
 20
0.0000099999060126
  0
LWPOLYLINE
  5
ACE
330
22
100
AcDbEntity
  8
SK3
100
AcDbPolyline
 90
      196
 70
     0
 43
0.0
 10
-36.19999999999996
 20
0.0
 10
-36.19999999999996
 20
-0.1084147142260008
 10
-36.19999999999996
 20
-0.2168619686019895
 10
-36.19999999999996
 20
-0.3253102210570091
 10
-36.19999999999996
 20
-0.4337279295170049
 10
-36.19999999999996
 20
-0.5420835519109915
 10
-36.19999999999996
 20
-0.6503455461659941
 10
-36.19999999999996
 20
-0.7584823702100039
 10
-36.19999999999996
 20
-0.8664624819720073
 10
-36.19999999999996
 20
-0.9742543393780067
 10
-36.19999999999996
 20
-1.081826400355992
 10
-36.19999999999996
 20
-1.189147122835009
 10
-36.19999999999996
 20
-1.296184964741001
 10
-36.19999999999996
 20
-1.402908384004007
 10
-36.19999999999996
 20
-1.509285838549004
 10
-36.19999999999996
 20
-1.615285786306998
 10
-36.19999999999996
 20
-1.720876685203023
 10
-36.19999999999996
 20
-1.826027042540999
 10
-36.19999999999996
 20
-1.930708328142003
 10
-36.19999999999996
 20
-2.034896603725997
 10
-36.19999999999996
 20
-2.138568326019025
 10
-36.19999999999996
 20
-2.241699951743015
 10
-36.19999999999996
 20
-2.344267937621991
 10
-36.19999999999996
 20
-2.446248740382003
 10
-36.19999999999996
 20
-2.547618816744004
 10
-36.19999999999996
 20
-2.64835462343501
 10
-36.19999999999996
 20
-2.748432617176006
 10
-36.19999999999996
 20
-2.847829254692981
 10
-36.19999999999996
 20
-2.946520992708997
 10
-36.19999999999996
 20
-3.044484287947994
 10
-36.19999999999996
 20
-3.141695597134003
 10
-36.19999999999996
 20
-3.238131376990991
 10
-36.19999999999996
 20
-3.333768084243017
 10
-36.19999999999996
 20
-3.428582175613029
 10
-36.19999999999996
 20
-3.52255019940199
 10
-36.19999999999996
 20
-3.615649768468017
 10
-36.19999999999996
 20
-3.707859182484013
 10
-36.19999999999996
 20
-3.799156752572002
 10
-36.19999999999996
 20
-3.889520789849996
 10
-36.19999999999996
 20
-3.978929605439986
 10
-36.19999999999996
 20
-4.067361510461011
 10
-36.19999999999996
 20
-4.154794816031993
 10
-36.19999999999996
 20
-4.258366093502984
 10
-36.19999999999996
 20
-4.360430677396009
 10
-36.19999999999996
 20
-4.460951089326016
 10
-36.19999999999996
 20
-4.559889850909002
 10
-36.19999999999996
 20
-4.657209483761021
 10
-36.19999999999996
 20
-4.752872509496994
 10
-36.19999999999996
 20
-4.846841449732011
 10
-36.19999999999996
 20
-4.93907902080403
 10
-36.19999999999996
 20
-5.029552417656018
 10
-36.19999999999996
 20
-5.118233313832006
 10
-36.19999999999996
 20
-5.205093577603974
 10
-36.19999999999996
 20
-5.290105077238989
 10
-36.19999999999996
 20
-5.373239681005003
 10
-36.19999999999996
 20
-5.454469257173001
 10
-36.19999999999996
 20
-5.533765674009997
 10
-36.19999999999996
 20
-5.598349006786007
 10
-36.19999999999996
 20
-5.661554051942998
 10
-36.19999999999996
 20
-5.723364529543972
 10
-36.19999999999996
 20
-5.783764159653003
 10
-36.19999999999996
 20
-5.842736662330992
 10
-36.19999999999996
 20
-5.900265757642017
 10
-36.19999999999996
 20
-5.956335165647999
 10
-36.19999999999996
 20
-6.010928643211002
 10
-36.19999999999996
 20
-6.064032155077001
 10
-36.19999999999996
 20
-6.115635088210012
 10
-36.19999999999996
 20
-6.165727123962026
 10
-36.19999999999996
 20
-6.21429794368302
 10
-36.19999999999996
 20
-6.261337228724016
 10
-36.19999999999996
 20
-6.306834660434986
 10
-36.19999999999996
 20
-6.350779920167012
 10
-36.19999999999996
 20
-6.393162689271007
 10
-36.19999999999996
 20
-6.433972649097027
 10
-36.19999999999996
 20
-6.473199480994992
 10
-36.19999999999996
 20
-6.510832866315978
 10
-36.19999999999996
 20
-6.54686248641201
 10
-36.19999999999996
 20
-6.581278022631977
 10
-36.19999999999996
 20
-6.614069156325996
 10
-36.19999999999996
 20
-6.645225568846996
 10
-36.19999999999996
 20
-6.674736941542987
 10
-36.19999999999996
 20
-6.702593292380014
 10
-36.19999999999996
 20
-6.728788552453978
 10
-36.19999999999996
 20
-6.753319177462997
 10
-36.19999999999996
 20
-6.776181665184027
 10
-36.19999999999996
 20
-6.79737251339
 10
-36.19999999999996
 20
-6.816888219859008
 10
-36.19999999999996
 20
-6.83472528236399
 10
-36.19999999999996
 20
-6.850880198680982
 10
-36.19999999999996
 20
-6.865349466585001
 10
-36.19999999999996
 20
-6.878129583852995
 10
-36.19999999999996
 20
-6.889217048258017
 10
-36.19999999999996
 20
-6.898608357575994
 10
-36.19999999999996
 20
-6.906300009583018
 10
-36.19999999999996
 20
-6.912288502053002
 10
-36.19999999999996
 20
-6.916570332763027
 10
-36.19999999999996
 20
-6.919141999486981
 10
-36.19999999999996
 20
-6.919999999999986
 10
-36.19999999999996
 20
-6.919141999486981
 10
-36.19999999999996
 20
-6.916570332763027
 10
-36.19999999999996
 20
-6.912288502053002
 10
-36.19999999999996
 20
-6.906300009583018
 10
-36.19999999999996
 20
-6.898608357575994
 10
-36.19999999999996
 20
-6.889217048258017
 10
-36.19999999999996
 20
-6.878129583852995
 10
-36.19999999999996
 20
-6.865349466585001
 10
-36.19999999999996
 20
-6.850880198680982
 10
-36.19999999999996
 20
-6.83472528236399
 10
-36.19999999999996
 20
-6.816888219859008
 10
-36.19999999999996
 20
-6.79737251339
 10
-36.19999999999996
 20
-6.776181665184027
 10
-36.19999999999996
 20
-6.753319177462997
 10
-36.19999999999996
 20
-6.728788552453978
 10
-36.19999999999996
 20
-6.702593292380014
 10
-36.19999999999996
 20
-6.674736941542987
 10
-36.19999999999996
 20
-6.645225568846996
 10
-36.19999999999996
 20
-6.614069156325996
 10
-36.19999999999996
 20
-6.581278022631977
 10
-36.19999999999996
 20
-6.54686248641201
 10
-36.19999999999996
 20
-6.510832866315978
 10
-36.19999999999996
 20
-6.473199480994992
 10
-36.19999999999996
 20
-6.433972649097027
 10
-36.19999999999996
 20
-6.393162689271007
 10
-36.19999999999996
 20
-6.350779920167012
 10
-36.19999999999996
 20
-6.306834660434986
 10
-36.19999999999996
 20
-6.261337228724016
 10
-36.19999999999996
 20
-6.21429794368302
 10
-36.19999999999996
 20
-6.165727123962026
 10
-36.19999999999996
 20
-6.115635088210012
 10
-36.19999999999996
 20
-6.064032155077001
 10
-36.19999999999996
 20
-6.010928643211002
 10
-36.19999999999996
 20
-5.956335165647999
 10
-36.19999999999996
 20
-5.900265757642017
 10
-36.19999999999996
 20
-5.842736662330992
 10
-36.19999999999996
 20
-5.783764159653003
 10
-36.19999999999996
 20
-5.723364529543972
 10
-36.19999999999996
 20
-5.661554051942998
 10
-36.19999999999996
 20
-5.598349006786007
 10
-36.19999999999996
 20
-5.533765674009997
 10
-36.19999999999996
 20
-5.454469257173001
 10
-36.19999999999996
 20
-5.373239681005003
 10
-36.19999999999996
 20
-5.290105077238989
 10
-36.19999999999996
 20
-5.205093577603974
 10
-36.19999999999996
 20
-5.118233313832006
 10
-36.19999999999996
 20
-5.029552417656018
 10
-36.19999999999996
 20
-4.93907902080403
 10
-36.19999999999996
 20
-4.846841449732011
 10
-36.19999999999996
 20
-4.752872509496994
 10
-36.19999999999996
 20
-4.657209483761021
 10
-36.19999999999996
 20
-4.559889850909002
 10
-36.19999999999996
 20
-4.460951089326016
 10
-36.19999999999996
 20
-4.360430677396009
 10
-36.19999999999996
 20
-4.258366093502984
 10
-36.19999999999996
 20
-4.154794816031993
 10
-36.19999999999996
 20
-4.067361510461011
 10
-36.19999999999996
 20
-3.978929605439986
 10
-36.19999999999996
 20
-3.88952078985099
 10
-36.19999999999996
 20
-3.799156752572002
 10
-36.19999999999996
 20
-3.707859182484013
 10
-36.19999999999996
 20
-3.615649768468017
 10
-36.19999999999996
 20
-3.52255019940199
 10
-36.19999999999996
 20
-3.428582175613029
 10
-36.19999999999996
 20
-3.333768084243017
 10
-36.19999999999996
 20
-3.238131376990991
 10
-36.19999999999996
 20
-3.141695597134003
 10
-36.19999999999996
 20
-3.044484287947994
 10
-36.19999999999996
 20
-2.946520992708997
 10
-36.19999999999996
 20
-2.847829254692981
 10
-36.19999999999996
 20
-2.748432617176006
 10
-36.19999999999996
 20
-2.64835462343501
 10
-36.19999999999996
 20
-2.547618816745
 10
-36.19999999999996
 20
-2.446248740382003
 10
-36.19999999999996
 20
-2.344267937623015
 10
-36.19999999999996
 20
-2.241699951743015
 10
-36.19999999999996
 20
-2.138568326019025
 10
-36.19999999999996
 20
-2.034896603725997
 10
-36.19999999999996
 20
-1.930708328142003
 10
-36.19999999999996
 20
-1.826027042540999
 10
-36.19999999999996
 20
-1.720876685203023
 10
-36.19999999999996
 20
-1.615285786306998
 10
-36.19999999999996
 20
-1.509285838549998
 10
-36.19999999999996
 20
-1.402908384004007
 10
-36.19999999999996
 20
-1.296184964741001
 10
-36.19999999999996
 20
-1.189147122835009
 10
-36.19999999999996
 20
-1.081826400355992
 10
-36.19999999999996
 20
-0.9742543393780067
 10
-36.19999999999996
 20
-0.8664624819720073
 10
-36.19999999999996
 20
-0.7584823702109988
 10
-36.19999999999996
 20
-0.6503455461659941
 10
-36.19999999999996
 20
-0.5420835519109915
 10
-36.19999999999996
 20
-0.4337279295170049
 10
-36.19999999999996
 20
-0.3253102210570091
 10
-36.19999999999996
 20
-0.2168619686030127
 10
-36.19999999999996
 20
-0.1084147142260008
 10
-36.19999999999996
 20
0.0
 10
-36.19999999999996
 20
-0.0000099999060126
  0
LWPOLYLINE
  5
B94
330
22
100
AcDbEntity
  8
SK3
100
AcDbPolyline
 90
       20
 70
     0
 43
0.0
 10
126.4277737182
 20
19.39230165609999
 10
126.4335761000182
 20
19.39199405658297
 10
126.4393774637957
 20
19.39162679535397
 10
126.4451769678414
 20
19.39120013184097
 10
126.4510874005924
 20
19.39070421040196
 10
126.4569941327635
 20
19.39014707902794
 10
126.4628962721751
 20
19.38952901270997
 10
126.4687929266473
 20
19.38885028643696
 10
126.4747964101822
 20
19.38809637154398
 10
126.4807923243178
 20
19.38728001801496
 10
126.4867797244064
 20
19.38640151701196
 10
126.4927576658002
 20
19.38546115969495
 10
126.4988376928018
 20
19.38443974314896
 10
126.5049059210444
 20
19.38335472427496
 10
126.5109613513943
 20
19.38220641102796
 10
126.5170029847177
 20
19.38099511136198
 10
126.5231412840981
 20
19.37969695189397
 10
126.5292631785628
 20
19.37833409642599
 10
126.5353676124365
 20
19.37690687033796
 10
126.540449259782
 20
19.37566640877699
  0
LWPOLYLINE
  5
BAA
330
22
100
AcDbEntity
  8
SK3
100
AcDbPolyline
 90
        6
 70
     0
 43
0.0
 10
126.5404589638999
 20
19.37566399419995
 10
126.5464095055692
 20
19.37415051815094
 10
126.5523729802031
 20
19.37256759784796
 10
126.5583481907075
 20
19.37091461752297
 10
126.564333911018
 20
19.36919096513097
 10
126.5689071844882
 20
19.36782794579898
  0
LWPOLYLINE
  5
BB2
330
22
100
AcDbEntity
  8
SK3
100
AcDbPolyline
 90
       14
 70
     0
 43
0.0
 10
126.5689167563
 20
19.36782505089997
 10
126.5748499180261
 20
19.36599652265298
 10
126.5808431348367
 20
19.36407991390095
 10
126.5868171765816
 20
19.36209914662297
 10
126.5927709942183
 20
19.36005450287095
 10
126.5987804401744
 20
19.35791846791397
 10
126.6047669663941
 20
19.35571746919595
 10
126.6108057643084
 20
19.35342233426595
 10
126.6168187995183
 20
19.35106116451996
 10
126.6228049390959
 20
19.34863426456397
 10
126.6288382847269
 20
19.34610997256297
 10
126.6348417112252
 20
19.34351890445597
 10
126.640814042093
 20
19.34086137656496
 10
126.6452630977603
 20
19.33882900022095
  0
LWPOLYLINE
  5
BC2
330
22
100
AcDbEntity
  8
SK3
100
AcDbPolyline
 90
        6
 70
     0
 43
0.0
 10
126.645272176
 20
19.33882480669996
 10
126.6511077615501
 20
19.336089707247
 10
126.6569683233832
 20
19.333262929136
 10
126.6628519763962
 20
19.33034332519796
 10
126.668756769827
 20
19.32732977136098
 10
126.672773624482
 20
19.32523131351198
  0
LWPOLYLINE
  5
BCA
330
22
100
AcDbEntity
  8
SK3
100
AcDbPolyline
 90
       15
 70
     0
 43
0.0
 10
126.6727824699
 20
19.32522664889997
 10
126.6786564159409
 20
19.32208614268296
 10
126.6845835573247
 20
19.31882954713995
 10
126.6905613218383
 20
19.31545462954995
 10
126.696501221087
 20
19.31200962496197
 10
126.7024874220007
 20
19.30844396007498
 10
126.7085170735416
 20
19.30475550129597
 10
126.714587202961
 20
19.30094215023595
 10
126.7206947123523
 20
19.29700184651196
 10
126.7268363751577
 20
19.29293257057597
 10
126.7330088326238
 20
19.28873234658994
 10
126.7392085902109
 20
19.28439924534098
 10
126.7454320139525
 20
19.279931387191
 10
126.7517549644254
 20
19.27526740581999
 10
126.7565062461033
 20
19.27167780804598
  0
LWPOLYLINE
  5
BDB
330
22
100
AcDbEntity
  8
SK3
100
AcDbPolyline
 90
       14
 70
     0
 43
0.0
 10
126.756514195
 20
19.27167174049998
 10
126.7625063290974
 20
19.26703782081597
 10
126.7685211848408
 20
19.26226363318795
 10
126.7745551067916
 20
19.25734733572096
 10
126.780604300384
 20
19.25228714627096
 10
126.7867411102695
 20
19.24701493478
 10
126.792883392383
 20
19.24159341826998
 10
126.7991012678577
 20
19.23595256153695
 10
126.8053138727665
 20
19.23015730825096
 10
126.8115889228574
 20
19.22413574863199
 10
126.8177041209585
 20
19.21809815810297
 10
126.8235902541558
 20
19.21212176157698
 10
126.8293210787533
 20
19.20614051143498
 10
126.8313895947654
 20
19.20394077599198
  0
LWPOLYLINE
  5
BEB
330
22
100
AcDbEntity
  8
SK3
100
AcDbPolyline
 90
       32
 70
     0
 43
0.0
 10
126.8313964269
 20
19.20393347379999
 10
126.8371295767259
 20
19.19771750210299
 10
126.8429361196779
 20
19.19123725161299
 10
126.8486543843719
 20
19.18466635997197
 10
126.8542831184818
 20
19.17800707415696
 10
126.8598210696818
 20
19.17126164114495
 10
126.8651210196624
 20
19.16461796819899
 10
126.870332688551
 20
19.15789693856297
 10
126.875313856439
 20
19.15129040671198
 10
126.8802094292845
 20
19.14461461430295
 10
126.8848821616382
 20
19.13806504216399
 10
126.8894721481657
 20
19.13145364901899
 10
126.8939784171295
 20
19.12478217840098
 10
126.8982711682428
 20
19.11825112554396
 10
126.9024832500247
 20
19.11166671386598
 10
126.9066137739823
 20
19.10503053753797
 10
126.9105404025066
 20
19.09854752904698
 10
126.914388695608
 20
19.09201879823698
 10
126.9181578431425
 20
19.08544579870298
 10
126.9217329660365
 20
19.07903736188896
 10
126.9252323158287
 20
19.07259006561394
 10
126.928655155977
 20
19.06610523141199
 10
126.93200074994
 20
19.05958418081599
 10
126.935164179115
 20
19.05324024860897
 10
126.9382539080212
 20
19.04686483423796
 10
126.9412692691209
 20
19.04045913542899
 10
126.944209594876
 20
19.03402434990698
 10
126.9469799570273
 20
19.02777753455296
 10
126.9496789760561
 20
19.02150574038896
 10
126.9523060489776
 20
19.01521004931695
 10
126.9548605728074
 20
19.00889154323497
 10
126.9563204452763
 20
19.00518673350697
  0
LWPOLYLINE
  5
C0D
330
22
100
AcDbEntity
  8
SK3
100
AcDbPolyline
 90
       36
 70
     0
 43
0.0
 10
126.9563240809
 20
19.00517741779995
 10
126.958867008037
 20
18.99854892272299
 10
126.9613359857909
 20
18.99188542717596
 10
126.9637307942378
 20
18.98518823542096
 10
126.9660512134542
 20
18.97845865172198
 10
126.968297023516
 20
18.97169798034295
 10
126.9704680044997
 20
18.96490752554598
 10
126.9725639364814
 20
18.95808859159598
 10
126.9745845995372
 20
18.95124248275499
 10
126.9765297737436
 20
18.94437050328699
 10
126.9783992391765
 20
18.93747395745595
 10
126.9801342169731
 20
18.93078517079297
 10
126.9817980449641
 20
18.92407582512499
 10
126.9833905244932
 20
18.91734709858994
 10
126.9849114569041
 20
18.91060016932397
 10
126.9863606435406
 20
18.90383621546297
 10
126.9877378857462
 20
18.89705641514399
 10
126.9890429848645
 20
18.89026194650196
 10
126.9902757422394
 20
18.88345398767494
 10
126.9914359592144
 20
18.87663371679795
 10
126.9925234371333
 20
18.86980231200795
 10
126.9935379773395
 20
18.86296095144098
 10
126.9944793811771
 20
18.85611081323395
 10
126.9953474499894
 20
18.84925307552197
 10
126.9961419851202
 20
18.84238891644196
 10
126.9968391622222
 20
18.83575646450697
 10
126.9974674254967
 20
18.82912018512198
 10
126.9980265961376
 20
18.82248113870199
 10
126.9985164953388
 20
18.81584038566197
 10
126.998936944294
 20
18.80919898641497
 10
126.999287764197
 20
18.80255800137698
 10
126.9995687762417
 20
18.79591849096198
 10
126.999779801622
 20
18.78928151558497
 10
126.9999206615316
 20
18.78264813565897
 10
126.9999911771642
 20
18.77601941159997
 10
126.9999999999195
 20
18.77271712690697
  0
LWPOLYLINE
  5
C33
330
22
100
AcDbEntity
  8
SK3
100
AcDbPolyline
 90
       36
 70
     0
 43
0.0
 10
127.0
 20
-18.77270712680001
 10
126.9999640648973
 20
-18.77939509859104
 10
126.9998563818058
 20
-18.78608831065503
 10
126.9996771340509
 20
-18.79278567523505
 10
126.9994265049577
 20
-18.79948610457305
 10
126.9991046778516
 20
-18.80618851091005
 10
126.9987118360575
 20
-18.81289180648801
 10
126.9982481629009
 20
-18.81959490355001
 10
126.9977138417069
 20
-18.82629671433702
 10
126.9971090558008
 20
-18.83299615109104
 10
126.9964339885076
 20
-18.83969212605302
 10
126.9956888231527
 20
-18.84638355146703
 10
126.9948737430613
 20
-18.85306933957403
 10
126.9939889315585
 20
-18.85974840261502
 10
126.9930345719697
 20
-18.86641965283402
 10
126.9919730054426
 20
-18.87331976526201
 10
126.9908372347305
 20
-18.88020912148505
 10
126.9896274635103
 20
-18.88708651298705
 10
126.9883438954591
 20
-18.89395073125303
 10
126.9869867342541
 20
-18.90080056776701
 10
126.9855561835722
 20
-18.90763481401305
 10
126.9840524470904
 20
-18.91445226147704
 10
126.9824757284859
 20
-18.92125170164203
 10
126.9808262314358
 20
-18.92803192599402
 10
126.9791041596169
 20
-18.93479172601601
 10
126.9773097167065
 20
-18.94152989319403
 10
126.9754431063815
 20
-18.94824521901103
 10
126.9735045323191
 20
-18.95493649495302
 10
126.9714235988874
 20
-18.96183191005303
 10
126.9692660965808
 20
-18.96869895687601
 10
126.9670322508808
 20
-18.97553629752605
 10
126.9647222872697
 20
-18.98234259410802
 10
126.9623364312294
 20
-18.98911650872802
 10
126.9598749082419
 20
-18.99585670349106
 10
126.9573379437891
 20
-19.00256184050103
 10
126.9555209318173
 20
-19.00722475257007
  0
LWPOLYLINE
  5
C59
330
22
100
AcDbEntity
  8
SK3
100
AcDbPolyline
 90
       31
 70
     0
 43
0.0
 10
126.9555172634
 20
-19.00723405540003
 10
126.9530322985236
 20
-19.01343609173403
 10
126.9504775779926
 20
-19.01961629167303
 10
126.9477650173147
 20
-19.02597847477804
 10
126.9449791982354
 20
-19.032315127547
 10
126.9421207433649
 20
-19.03862512487402
 10
126.9391902753138
 20
-19.04490734165304
 10
126.9360904009605
 20
-19.051361878541
 10
126.9329151407333
 20
-19.05778437727804
 10
126.9296651794597
 20
-19.06417360032503
 10
126.926341201967
 20
-19.07052831014602
 10
126.9228365530425
 20
-19.07704414710801
 10
126.919254668959
 20
-19.08352060675003
 10
126.915596300774
 20
-19.08995633185003
 10
126.9117478706547
 20
-19.09654304023703
 10
126.9078198694912
 20
-19.10308358281503
 10
126.9038131187085
 20
-19.10957647520303
 10
126.8996071308183
 20
-19.11620899629
 10
126.8953194593673
 20
-19.12278783078901
 10
126.890951000412
 20
-19.12931135945604
 10
126.8863743892711
 20
-19.13596187060804
 10
126.8817142313159
 20
-19.14255039531005
 10
126.8768385898539
 20
-19.14925548831405
 10
126.8718767842338
 20
-19.15589132906103
 10
126.8666922988311
 20
-19.16263242259702
 10
126.8614191922007
 20
-19.16929637979601
 10
126.8560586111274
 20
-19.175881128327
 10
126.8504672073709
 20
-19.18255462320903
 10
126.8446392748672
 20
-19.18930794999804
 10
126.8388674765913
 20
-19.19580115396101
 10
126.8382772559298
 20
-19.19645452184903
  0
LWPOLYLINE
  5
C7A
330
22
100
AcDbEntity
  8
SK3
100
AcDbPolyline
 90
        7
 70
     0
 43
0.0
 10
126.838270547
 20
-19.19646193740003
 10
126.8326757527868
 20
-19.20256186269103
 10
126.826962958227
 20
-19.20862173177602
 10
126.8210613135645
 20
-19.21471056523202
 10
126.8149679430106
 20
-19.220822398481
 10
126.8088609497786
 20
-19.22677718222903
 10
126.803118545105
 20
-19.23222672202303
  0
LWPOLYLINE
  5
C83
330
22
100
AcDbEntity
  8
SK3
100
AcDbPolyline
 90
       27
 70
     0
 43
0.0
 10
126.8031112467
 20
-19.23223355820002
 10
126.7969415421152
 20
-19.23793152386003
 10
126.7905428045807
 20
-19.24367497027304
 10
126.7839111874042
 20
-19.24945646678503
 10
126.7773371314028
 20
-19.25502290309703
 10
126.7708283493435
 20
-19.26037851955004
 10
126.7643921600886
 20
-19.26552764587404
 10
126.7578833237448
 20
-19.27059147225603
 10
126.7514574541379
 20
-19.27545375938501
 10
126.7451210038413
 20
-19.28011908052701
 10
126.7387233211432
 20
-19.28470287954303
 10
126.7324241664185
 20
-19.28909507911501
 10
126.7262292004089
 20
-19.29330043460001
 10
126.7199829785451
 20
-19.29742860409902
 10
126.7138489006133
 20
-19.30137561944303
 10
126.707668688742
 20
-19.30524727092202
 10
126.7016079730226
 20
-19.30894364155503
 10
126.6955058531396
 20
-19.31256663692903
 10
126.6895300097237
 20
-19.31602038248502
 10
126.6835171202368
 20
-19.31940289099401
 10
126.6774682450876
 20
-19.32271328739904
 10
126.6715539013262
 20
-19.32586176192905
 10
126.6656075201284
 20
-19.32894044368001
 10
126.6598012822779
 20
-19.33186357027603
 10
126.6539666244441
 20
-19.33471933926401
 10
126.6481044399382
 20
-19.33750701347904
 10
126.6449991718138
 20
-19.33895083278003
  0
LWPOLYLINE
  5
CA0
330
22
100
AcDbEntity
  8
SK3
100
AcDbPolyline
 90
       12
 70
     0
 43
0.0
 10
126.6449900914
 20
-19.33895502160001
 10
126.6390138300762
 20
-19.34167093083903
 10
126.6330654619877
 20
-19.34429395515605
 10
126.6270871390049
 20
-19.34685100134703
 10
126.6211402342594
 20
-19.34931718029801
 10
126.6151662395964
 20
-19.35171808811904
 10
126.6092270154157
 20
-19.35403016293304
 10
126.6032634467493
 20
-19.35627769074404
 10
126.5972766284735
 20
-19.35846037913504
 10
126.5913290797298
 20
-19.36055665786006
 10
126.5853608877844
 20
-19.36258884362704
 10
126.5845690035441
 20
-19.36285315335002
  0
LWPOLYLINE
  5
CAE
330
22
100
AcDbEntity
  8
SK3
100
AcDbPolyline
 90
        9
 70
     0
 43
0.0
 10
126.5845595157
 20
-19.36285631260003
 10
126.578550349377
 20
-19.36482156676104
 10
126.5725637188937
 20
-19.36670916097205
 10
126.5665568592735
 20
-19.36853338291803
 10
126.5605751644559
 20
-19.37028123186903
 10
126.5545755336056
 20
-19.37196607071502
 10
126.5486035884476
 20
-19.37357583923003
 10
126.542660664591
 20
-19.37511166064604
 10
126.5402532509791
 20
-19.37571514249805
  0
LWPOLYLINE
  5
CB9
330
22
100
AcDbEntity
  8
SK3
100
AcDbPolyline
 90
       20
 70
     0
 43
0.0
 10
126.540243546
 20
-19.37571755360002
 10
126.5341658035705
 20
-19.37719327698801
 10
126.5280698166407
 20
-19.37860514156603
 10
126.5219566348427
 20
-19.37995282379202
 10
126.5158273078088
 20
-19.38123600012701
 10
126.5097947304951
 20
-19.38243277581603
 10
126.5037485949329
 20
-19.38356675186202
 10
126.4976898945363
 20
-19.38463762205302
 10
126.4916196227195
 20
-19.38564508017603
 10
126.4856514713949
 20
-19.38657192425106
 10
126.4796740694551
 20
-19.387437098616
 10
126.4736883561404
 20
-19.38824031375901
 10
126.4676952706912
 20
-19.38898128016504
 10
126.4618090046085
 20
-19.38964748841101
 10
126.4559174331649
 20
-19.39025322264402
 10
126.4500214434327
 20
-19.39079820942999
 10
126.4441219224844
 20
-19.39128217533601
 10
126.4382197573929
 20
-19.39170484692903
 10
126.4324293832416
 20
-19.39205958878602
 10
126.427783706769
 20
-19.39230117791101
  0
LWPOLYLINE
  5
CCF
330
22
100
AcDbEntity
  8
SK3
100
AcDbPolyline
 90
        2
 70
     0
 43
0.0
 10
105.5
 20
20.99629286380002
 10
105.616516943541
 20
20.96344483241001
  0
LWPOLYLINE
  5
CD3
330
22
100
AcDbEntity
  8
SK3
100
AcDbPolyline
 90
       18
 70
     0
 43
0.0
 10
105.6165265748
 20
20.96344214190001
 10
105.873036202404
 20
20.89324088989801
 10
106.126549583899
 20
20.826738151457
 10
106.373275650945
 20
20.76478980741601
 10
106.616892293309
 20
20.706331288033
 10
106.857354899971
 20
20.65129221413702
 10
107.094617007181
 20
20.59959836515898
 10
107.328633689915
 20
20.55117308454297
 10
107.559362082115
 20
20.50593739859795
 10
107.786760284025
 20
20.46380785767897
 10
108.01078796863
 20
20.42469822054696
 10
108.235214021424
 20
20.38791724683199
 10
108.456207328978
 20
20.35405863092797
 10
108.67372706652
 20
20.32302976512196
 10
108.891554333863
 20
20.29424981684698
 10
109.105834165147
 20
20.26818640547097
 10
109.320360649179
 20
20.24433627539199
 10
109.397022342585
 20
20.23635978827696
  0
LWPOLYLINE
  5
CE7
330
22
100
AcDbEntity
  8
SK3
100
AcDbPolyline
 90
        7
 70
     0
 43
0.0
 10
109.3970322908
 20
20.23635877189997
 10
109.605113070211
 20
20.21616313101396
 10
109.812303481953
 20
20.19816856146696
 10
110.018568983397
 20
20.18235390014595
 10
110.223876045196
 20
20.16869777293095
 10
110.4281921380229
 20
20.15717859986697
 10
110.499990011378
 20
20.15362254089899
  0
LWPOLYLINE
  5
CF0
330
22
100
AcDbEntity
  8
SK3
100
AcDbPolyline
 90
       39
 70
     0
 43
0.0
 10
115.0
 20
3.367491648099957
 10
114.964184023875
 20
3.367684705434952
 10
114.928364959712
 20
3.368262437210971
 10
114.892547417932
 20
3.369222683084955
 10
114.856736008955
 20
3.37056328271197
 10
114.820935343202
 20
3.372282075749977
 10
114.783446430074
 20
3.374485998209961
 10
114.74597966857
 20
3.377100135199981
 10
114.708540359604
 20
3.380122002824975
 10
114.671133804089
 20
3.383549117192956
 10
114.633765302937
 20
3.387378994410993
 10
114.596440157062
 20
3.391609150583973
 10
114.559163667378
 20
3.396237101819962
 10
114.521941134796
 20
3.401260364224981
 10
114.48309009483
 20
3.406931913776986
 10
114.444308559776
 20
3.413028657473971
 10
114.405599235487
 20
3.419544410022978
 10
114.365286612784
 20
3.42678329845097
 10
114.325058226937
 20
3.434464251155985
 10
114.284916942826
 20
3.442580031270948
 10
114.243198815147
 20
3.451488548128991
 10
114.201581545612
 20
3.460852850721976
 10
114.158410056411
 20
3.471066430212998
 10
114.115354800172
 20
3.481754939354998
 10
114.070770501924
 20
3.493347362186995
 10
114.0263195498
 20
3.505431722158987
 10
113.980366504433
 20
3.518472007663973
 10
113.93456191927
 20
3.532017850904963
 10
113.887279459885
 20
3.546567382665954
 10
113.838537397519
 20
3.56216102197095
 10
113.788354916086
 20
3.578838114674964
 10
113.738361654911
 20
3.596071683389935
 10
113.686956199733
 20
3.614427257468975
 10
113.634159620697
 20
3.633939745459997
 10
113.579991845732
 20
3.654643436148973
 10
113.522889526653
 20
3.677206885173973
 10
113.464469562923
 20
3.701060883238966
 10
113.404752488574
 20
3.726233511608966
 10
113.350009153208
 20
3.749995972744953
  0
LWPOLYLINE
  5
D19
330
22
100
AcDbEntity
  8
SK3
100
AcDbPolyline
 90
       39
 70
     0
 43
0.0
 10
115.0
 20
-3.367491648100041
 10
115.035815973288
 20
-3.36768466732002
 10
115.071634978687
 20
-3.368262294752041
 10
115.107452407812
 20
-3.369222385057013
 10
115.143263652279
 20
-3.370562792895043
 10
115.179064103701
 20
-3.372281372924021
 10
115.216552741075
 20
-3.374485065821999
 10
115.25401917672
 20
-3.377098983678051
 10
115.291458112063
 20
-3.380120659851029
 10
115.328864248532
 20
-3.383547627696032
 10
115.366232287553
 20
-3.387377420570004
 10
115.4035569305529
 20
-3.391607571832024
 10
115.44083287896
 20
-3.396235614836028
 10
115.478054834201
 20
-3.401259082941038
 10
115.51690525153
 20
-3.406930970781046
 10
115.555686329764
 20
-3.413028001149058
 10
115.594395393882
 20
-3.419543947090004
 10
115.634707927593
 20
-3.426782951873036
 10
115.67493638268
 20
-3.434463948182012
 10
115.715077865727
 20
-3.442579713860026
 10
115.756796307775
 20
-3.451488169829018
 10
115.798413969184
 20
-3.460852381152021
 10
115.841585913478
 20
-3.471065851374048
 10
115.884641637469
 20
-3.481754255084013
 10
115.92757746243
 20
-3.492908409947033
 10
115.972033822769
 20
-3.504974691714038
 10
116.017992514369
 20
-3.517996698556031
 10
116.063802772567
 20
-3.531524738420017
 10
116.111091137578
 20
-3.546056324639038
 10
116.159839343208
 20
-3.561631920112033
 10
116.20841215799
 20
-3.57774474409004
 10
116.258417979041
 20
-3.594943052426003
 10
116.309836509114
 20
-3.613263354604015
 10
116.362646611466
 20
-3.632740608696053
 10
116.416828131589
 20
-3.653409067215021
 10
116.472361749324
 20
-3.675301931080042
 10
116.530803728868
 20
-3.699102276444051
 10
116.590543299169
 20
-3.724221964883013
 10
116.649990846794
 20
-3.749995972741031
  0
LWPOLYLINE
  5
D42
330
22
100
AcDbEntity
  8
SK3
100
AcDbPolyline
 90
       39
 70
     0
 43
0.0
 10
113.35
 20
-3.750000000000028
 10
113.412593655904
 20
-3.722883303405011
 10
113.472348084849
 20
-3.697799048235026
 10
113.530804636339
 20
-3.674034575998035
 10
113.586352076591
 20
-3.652176924182043
 10
113.640547014258
 20
-3.631543887731027
 10
113.693370079026
 20
-3.612102189576006
 10
113.744801013698
 20
-3.593817533862022
 10
113.794818687531
 20
-3.576654855051031
 10
113.843402832215
 20
-3.560577526317046
 10
113.892162242313
 20
-3.545038412128008
 10
113.939461330978
 20
-3.530543016929044
 10
113.985281853781
 20
-3.517050773179049
 10
114.031250732695
 20
-3.504065390473043
 10
114.075716724876
 20
-3.492035172016016
 10
114.118661454378
 20
-3.480916401276032
 10
114.161725761464
 20
-3.470264051517006
 10
114.20490601422
 20
-3.460087331752048
 10
114.246531449126
 20
-3.450759139077006
 10
114.288257495658
 20
-3.441887394093043
 10
114.328406158633
 20
-3.43380754432104
 10
114.368641713062
 20
-3.426163144813017
 10
114.408961302348
 20
-3.418961438705053
 10
114.447677121061
 20
-3.412481915359023
 10
114.486464979919
 20
-3.406421989923046
 10
114.52532207386
 20
-3.400787747340046
 10
114.5625498928759
 20
-3.395800377941042
 10
114.599831163662
 20
-3.391208514767015
 10
114.637160586206
 20
-3.387014646358011
 10
114.674532860494
 20
-3.383221261257034
 10
114.711942686512
 20
-3.379830848003023
 10
114.749384764244
 20
-3.376845895140036
 10
114.786853793679
 20
-3.374268891207036
 10
114.8243444748
 20
-3.372102324747031
 10
114.860146362643
 20
-3.370419401950015
 10
114.895958539788
 20
-3.369114883978028
 10
114.931776396599
 20
-3.368190935215011
 10
114.967595323437
 20
-3.367649720048006
 10
114.99999
 20
-3.367491648115019
  0
LWPOLYLINE
  5
D6B
330
22
100
AcDbEntity
  8
SK3
100
AcDbPolyline
 90
       29
 70
     0
 43
0.0
 10
126.9632864735
 20
-11.53158719130002
 10
126.9633762140055
 20
-11.53354709946202
 10
126.9634883437085
 20
-11.53550438377703
 10
126.9636222034947
 20
-11.53745912184703
 10
126.9637899058616
 20
-11.53956146582004
 10
126.9639812223471
 20
-11.54166104367704
 10
126.9642114734683
 20
-11.54390763195502
 10
126.9644668750912
 20
-11.54615127532102
 10
126.964765884106
 20
-11.54854138328204
 10
126.9651122987187
 20
-11.55107751211201
 10
126.965486856063
 20
-11.55361034835403
 10
126.9659124827601
 20
-11.55628877901503
 10
126.9663922583658
 20
-11.55911244541502
 10
126.9669565479882
 20
-11.56222936577703
 10
126.9676123671539
 20
-11.56563872320802
 10
126.9683658815025
 20
-11.56933980174705
 10
126.969254470304
 20
-11.57347980599203
 10
126.9703877295344
 20
-11.57850064185202
 10
126.9719244477447
 20
-11.584990059082
 10
126.9804459035882
 20
-11.61961484661901
 10
126.9817118073348
 20
-11.62522734762504
 10
126.9829498707087
 20
-11.63099509078603
 10
126.9841875482585
 20
-11.63706679092902
 10
126.9854186088256
 20
-11.64344359921003
 10
126.9866636396878
 20
-11.65027533006804
 10
126.9879129399566
 20
-11.65756390319305
 10
126.9891577557252
 20
-11.66531132804701
 10
126.9904338795489
 20
-11.67381845195603
 10
126.9912978139914
 20
-11.67993714460703
  0
LWPOLYLINE
  5
D8A
330
22
100
AcDbEntity
  8
SK3
100
AcDbPolyline
 90
       39
 70
     0
 43
0.0
 10
116.65
 20
3.749999999999971
 10
116.587406094637
 20
3.722883193342994
 10
116.527651436436
 20
3.697798846890946
 10
116.46919466526
 20
3.674034296162971
 10
116.413646984733
 20
3.652176563587971
 10
116.359451749948
 20
3.631543427675977
 10
116.30662830587
 20
3.612101599239962
 10
116.255196906313
 20
3.593816780362971
 10
116.205178719309
 20
3.57665392473595
 10
116.156594048943
 20
3.560576423959986
 10
116.107834113244
 20
3.545037152832975
 10
116.060534543233
 20
3.530541635170975
 10
116.014713604924
 20
3.517049314039978
 10
115.96874438221
 20
3.504063907124958
 10
115.9242780555419
 20
3.492033745772998
 10
115.881332891912
 20
3.48091511869299
 10
115.8382680948
 20
3.470262965561971
 10
115.79508735222
 20
3.46008646109999
 10
115.753461498748
 20
3.450758461135961
 10
115.711735135581
 20
3.441886863941959
 10
115.671586310826
 20
3.433807085488978
 10
115.631350778644
 20
3.426162660832943
 10
115.591031439757
 20
3.418960806141996
 10
115.55231611593
 20
3.412480999617968
 10
115.513529040855
 20
3.406420629130991
 10
115.47467294195
 20
3.400785869766963
 10
115.437446006054
 20
3.395798192451991
 10
115.400165536042
 20
3.391206192158988
 10
115.362836831491
 20
3.387012331383998
 10
115.325465191974
 20
3.383219072624996
 10
115.288055917065
 20
3.379828878379981
 10
115.25061430634
 20
3.376844211143975
 10
115.213145659372
 20
3.37426753341694
 10
115.175655275737
 20
3.372101307695969
 10
115.139853592181
 20
3.370418699779974
 10
115.104041541108
 20
3.369114463548982
 10
115.068223731774
 20
3.368190740736963
 10
115.032404773436
 20
3.367649673077977
 10
115.00001
 20
3.367491648114991
  0
LWPOLYLINE
  5
DB3
330
22
100
AcDbEntity
  8
SK3
100
AcDbPolyline
 90
       22
 70
     0
 43
0.0
 10
127.0
 20
11.74704540869996
 10
126.9983093428416
 20
11.73437823886897
 10
126.9911138431497
 20
11.67716279438596
 10
126.9897791131293
 20
11.66789666310197
 10
126.9885947402585
 20
11.660250911053
 10
126.9874762748824
 20
11.65350914187996
 10
126.9864108393852
 20
11.64749057677599
 10
126.9853805578984
 20
11.64201543418798
 10
126.9843615131869
 20
11.63690517542096
 10
126.9833612048306
 20
11.63215824660696
 10
126.982347923388
 20
11.62759772891996
 10
126.9813665350258
 20
11.62339779514798
 10
126.9803824290579
 20
11.61938212873696
 10
126.9791742944523
 20
11.61467931537996
 10
126.9771662640069
 20
11.60720725135897
 10
126.9721008207855
 20
11.58862478648595
 10
126.9708925691357
 20
11.58391947008695
 10
126.9699931489164
 20
11.58025067563397
 10
126.9692165893825
 20
11.57692293758299
 10
126.9685942399902
 20
11.57411356057997
 10
126.9680401247658
 20
11.57147321829495
 10
126.9677939770829
 20
11.57024852727895
  0
LWPOLYLINE
  5
DCB
330
22
100
AcDbEntity
  8
1
100
AcDbPolyline
 90
        2
 70
     0
 43
0.0
 10
126.4277737182
 20
19.39230165609999
 10
110.500009988622
 20
20.15362158710297
  0
LWPOLYLINE
  5
DCF
330
22
100
AcDbEntity
  8
1
100
AcDbPolyline
 90
        2
 70
     0
 43
0.0
 10
110.5
 20
-20.15362206400005
 10
126.4277637296307
 20
-19.39230213400003
  0
LWPOLYLINE
  5
DD3
330
22
100
AcDbEntity
  8
1
100
AcDbPolyline
 90
       23
 70
     0
 43
0.0
 10
110.5
 20
20.15362206399996
 10
110.291948400234
 20
20.16462986691397
 10
110.07893799487
 20
20.17812175072496
 10
109.866071334794
 20
20.19384349815999
 10
109.653375362399
 20
20.21178258156698
 10
109.440877020078
 20
20.23192647329495
 10
109.223551283583
 20
20.25482040209397
 10
109.006482503787
 20
20.27999251561394
 10
108.789690462701
 20
20.30742155688898
 10
108.568163837409
 20
20.33780256568395
 10
108.346968854545
 20
20.37050164308297
 10
108.121111424439
 20
20.40631686604996
 10
107.895643088594
 20
20.44450221678599
 10
107.665587259964
 20
20.48595361583597
 10
107.435980130278
 20
20.52981623943697
 10
107.201866663023
 20
20.57708804777897
 10
106.963297542534
 20
20.62788781615799
 10
106.720324942845
 20
20.68233130462301
 10
106.477944264416
 20
20.73934219913997
 10
106.231245324876
 20
20.80011535712498
 10
105.98028284629
 20
20.86475661511798
 10
105.725113568958
 20
20.93336844601998
 10
105.500009618378
 20
20.996290127598
  0
LWPOLYLINE
  5
DEC
330
22
100
AcDbEntity
  8
1
100
AcDbPolyline
 90
      115
 70
     0
 43
0.0
 10
127.0
 20
18.77270712689997
 10
126.9999565436433
 20
18.78011033872698
 10
126.9998262645114
 20
18.78751701171396
 10
126.9996092975117
 20
18.79492596263796
 10
126.9993057775516
 20
18.80233600827498
 10
126.9989158395385
 20
18.80974596540096
 10
126.9984396183798
 20
18.81715465079398
 10
126.9978772489828
 20
18.82456088122998
 10
126.9972288662549
 20
18.83196347348595
 10
126.9964946051035
 20
18.83936124433796
 10
126.995674600436
 20
18.84675301056299
 10
126.9947689871597
 20
18.85413758893696
 10
126.9937779001821
 20
18.86151379623797
 10
126.9927014744106
 20
18.86888044924197
 10
126.9915398447524
 20
18.87623636472497
 10
126.990293146115
 20
18.88358035946495
 10
126.9889615134058
 20
18.890911250237
 10
126.9875450815322
 20
18.89822785381898
 10
126.9860439854015
 20
18.90552898698698
 10
126.9842542199852
 20
18.91372279657099
 10
126.9823576641957
 20
18.92189384418799
 10
126.9803545101177
 20
18.93004044513096
 10
126.9782449498364
 20
18.93816091469597
 10
126.9760291754366
 20
18.94625356817298
 10
126.9737073790033
 20
18.95431672085797
 10
126.9712797526212
 20
18.96234868804296
 10
126.9687464883755
 20
18.970347785022
 10
126.966107778351
 20
18.97831232708696
 10
126.9633638146326
 20
18.98624062953198
 10
126.9605147893053
 20
18.99413100765096
 10
126.9575608944539
 20
19.00198177673695
 10
126.9545023380243
 20
19.00979126405198
 10
126.9513395943366
 20
19.01755799788597
 10
126.9480733587188
 20
19.02528067331795
 10
126.9447043331876
 20
19.03295799047296
 10
126.9412332197598
 20
19.04058864947697
 10
126.9376607204519
 20
19.04817135045599
 10
126.9339875372807
 20
19.05570479353596
 10
126.9302143722626
 20
19.06318767884396
 10
126.9263419274144
 20
19.070618706505
 10
126.922370904753
 20
19.07799657664394
 10
126.9183020062945
 20
19.08531998938897
 10
126.9141359340562
 20
19.09258764486498
 10
126.9098733900542
 20
19.09979824319794
 10
126.9055150763054
 20
19.10695048451399
 10
126.9010616948264
 20
19.11404306893897
 10
126.8965139476339
 20
19.12107469659898
 10
126.8913510732082
 20
19.12881454271095
 10
126.8860735275748
 20
19.13647574568196
 10
126.8806822737192
 20
19.14405652242198
 10
126.8751782746273
 20
19.15155508983696
 10
126.869562493285
 20
19.15896966483697
 10
126.8638358926779
 20
19.16629846432798
 10
126.857999435792
 20
19.17353970521998
 10
126.8520540856131
 20
19.18069160441996
 10
126.8460008051269
 20
19.18775237883597
 10
126.8398405573192
 20
19.19472024537697
 10
126.8335743051758
 20
19.20159342094999
 10
126.8272030460438
 20
19.20837013637697
 10
126.8207281489837
 20
19.21504877300097
 10
126.8134879657577
 20
19.22228017029096
 10
126.8061264412582
 20
19.22938901482598
 10
126.7993306416568
 20
19.23574354499098
 10
126.7924379191573
 20
19.24199358874296
 10
126.785449873353
 20
19.24813762077596
 10
126.7783681038372
 20
19.25417411578198
 10
126.7711942102032
 20
19.26010154845499
 10
126.7639297920443
 20
19.26591839348798
 10
126.756576448954
 20
19.27162312557397
 10
126.7491357805255
 20
19.27721421940697
 10
126.7423658378395
 20
19.28214778248294
 10
126.7355276234039
 20
19.28698695112595
 10
126.7286223033219
 20
19.29173061338795
 10
126.7216510436972
 20
19.29637765731996
 10
126.7146150106333
 20
19.30092697097297
 10
126.7075153702338
 20
19.30537744239896
 10
126.7003532886022
 20
19.30972795964899
 10
126.693129931842
 20
19.31397741077399
 10
126.6858464660568
 20
19.31812468382597
 10
126.6785040573502
 20
19.32216866685599
 10
126.6711038718255
 20
19.32610824791499
 10
126.6636470755865
 20
19.32994231505395
 10
126.6569722299124
 20
19.33326089623296
 10
126.6502543951424
 20
19.33649444885495
 10
126.6434943924271
 20
19.33964219360898
 10
126.6366932343124
 20
19.34270349708899
 10
126.629852272422
 20
19.34567798437399
 10
126.6229728931379
 20
19.34856530704095
 10
126.6160564828425
 20
19.35136511666694
 10
126.6091044279178
 20
19.35407706482999
 10
126.6021181147461
 20
19.35670080310696
 10
126.5950989297096
 20
19.35923598307397
 10
126.5880482591905
 20
19.36168225630797
 10
126.5809674895708
 20
19.36403927438695
 10
126.5738580072329
 20
19.36630668888796
 10
126.5667211985588
 20
19.36848415138794
 10
126.5595584499309
 20
19.37057131346296
 10
126.5523711477312
 20
19.37256782669095
 10
126.545160678342
 20
19.37447334264897
 10
126.5379284281454
 20
19.37628751291297
 10
126.5306757835236
 20
19.37800998906198
 10
126.5234041308589
 20
19.37964042267197
 10
126.5161148565334
 20
19.38117846531895
 10
126.5088093469292
 20
19.38262376858196
 10
126.5014889884286
 20
19.38397598403696
 10
126.4941551674138
 20
19.38523476325997
 10
126.4868092702669
 20
19.38639975783098
 10
126.4794526833702
 20
19.38747061932398
 10
126.4720867931057
 20
19.38844699931798
 10
126.4647129858557
 20
19.38932854938897
 10
126.4573326480025
 20
19.39011492111399
 10
126.4499471659281
 20
19.39080576607094
 10
126.4425579260147
 20
19.39140073583596
 10
126.4351663146447
 20
19.39189948198697
 10
126.4277837067696
 20
19.39230117801199
  0
LWPOLYLINE
  5
E61
330
22
100
AcDbEntity
  8
1
100
AcDbPolyline
 90
        4
 70
     0
 43
0.0
 10
3.399999998699995
 20
-2.59734176240002
 10
3.364623624903003
 20
-4.285090632718008
 10
3.310130560229993
 20
-6.041739916315008
 10
3.29497195909002
 20
-6.449990007310019
  0
LWPOLYLINE
  5
E67
330
22
100
AcDbEntity
  8
1
100
AcDbPolyline
 90
        4
 70
     0
 43
0.0
 10
3.29497156779999
 20
6.450000000000017
 10
3.354189282894026
 20
4.670365912589004
 10
3.393632105686009
 20
2.971140925328994
 10
3.399999849147008
 20
2.597351155034998
  0
LWPOLYLINE
  5
E6D
330
22
100
AcDbEntity
  8
1
100
AcDbPolyline
 90
       13
 70
     0
 43
0.0
 10
3.200000000000017
 20
-7.495841386000022
 10
3.209076098144008
 20
-7.43664542727501
 10
3.218129294948993
 20
-7.373194963581993
 10
3.227214086091008
 20
-7.304442195320008
 10
3.236478505906005
 20
-7.22829501544399
 10
3.246007567092021
 20
-7.142659371178012
 10
3.255193507796036
 20
-7.051709270624002
 10
3.263926822289022
 20
-6.955440610166021
 10
3.272182559280024
 20
-6.852803765819999
 10
3.279763573058005
 20
-6.744846397385032
 10
3.286373303737973
 20
-6.63471948059299
 10
3.291966984632977
 20
-6.522433902861022
 10
3.294971739705004
 20
-6.450009992690012
  0
LWPOLYLINE
  5
E7C
330
22
100
AcDbEntity
  8
1
100
AcDbPolyline
 90
       13
 70
     0
 43
0.0
 10
3.294972122000018
 20
6.450000000000017
 10
3.290060439998028
 20
6.563366600061982
 10
3.284110444710022
 20
6.674582611648986
 10
3.277166377211983
 20
6.783636222611021
 10
3.269271236516998
 20
6.890517096106008
 10
3.260813387148033
 20
6.991028559989985
 10
3.251922295878983
 20
7.085172735685006
 10
3.242507336379019
 20
7.175044587925014
 10
3.233016797269015
 20
7.257513451796995
 10
3.223855562928008
 20
7.330496227352994
 10
3.214792661572005
 20
7.397130241701005
 10
3.205803875553016
 20
7.458465625611013
 10
3.200001567655988
 20
7.495831509641987
  0
LWPOLYLINE
  5
E8B
330
22
100
AcDbEntity
  8
1
100
AcDbPolyline
 90
      115
 70
     0
 43
0.0
 10
126.4277737182
 20
-19.39230165600006
 10
126.4351663010677
 20
-19.39189949633103
 10
126.4425578849071
 20
-19.391400791438
 10
126.449947083429
 20
-19.39080588757005
 10
126.4573325103441
 20
-19.39011513097705
 10
126.4647127793631
 20
-19.38932886791102
 10
126.4720865041963
 20
-19.38844744462102
 10
126.4794522985545
 20
-19.38747120735803
 10
126.4868087761483
 20
-19.38640050237203
 10
126.4941545506883
 20
-19.38523567591403
 10
126.5014882358852
 20
-19.38397707423502
 10
126.5088084454495
 20
-19.382625043583
 10
126.5161137930919
 20
-19.381179930211
 10
126.5234028925231
 20
-19.37964208036803
 10
126.5306743574535
 20
-19.37801184030402
 10
126.5379268015939
 20
-19.37628955627104
 10
126.5451588386549
 20
-19.37447557451804
 10
126.5523690823471
 20
-19.37257024129602
 10
126.5595561463811
 20
-19.37057390285503
 10
126.5667186444675
 20
-19.36848690544605
 10
126.573855190317
 20
-19.36630959531905
 10
126.5809643976402
 20
-19.36404231872404
 10
126.5880448801477
 20
-19.36168542191203
 10
126.5950952515501
 20
-19.35923925113303
 10
126.6021141255581
 20
-19.35670415263803
 10
126.6091001158822
 20
-19.35408047267702
 10
126.6160518362331
 20
-19.35136855750102
 10
126.6229679003215
 20
-19.34856875335902
 10
126.6298469218578
 20
-19.34568140650202
 10
126.6366875145529
 20
-19.34270686318103
 10
126.6434882921172
 20
-19.33964546964603
 10
126.6502479162182
 20
-19.33649760926104
 10
126.6569654046922
 20
-19.33326394103304
 10
126.6636399356942
 20
-19.32994524803905
 10
126.6710964131347
 20
-19.32611106302204
 10
126.6784963142844
 20
-19.32217137619105
 10
126.6858384700748
 20
-19.31812730336503
 10
126.6931217114377
 20
-19.31397996035903
 10
126.7003448693047
 20
-19.30973046299303
 10
126.7075067746074
 20
-19.30537992708403
 10
126.7146062582774
 20
-19.30092946844905
 10
126.7216421512463
 20
-19.29638020290602
 10
126.7286132844458
 20
-19.29173324627302
 10
126.7355184888074
 20
-19.28698971436702
 10
126.7423565952629
 20
-19.28215072300605
 10
126.7491264347439
 20
-19.27721738800804
 10
126.7565669904946
 20
-19.27162661187503
 10
126.7639202190753
 20
-19.26592227028303
 10
126.7711845168255
 20
-19.26010589384503
 10
126.7783582800851
 20
-19.25417901317505
 10
126.7854399051935
 20
-19.24814315888704
 10
126.7924277884905
 20
-19.24199986159502
 10
126.7993203263158
 20
-19.23575065191405
 10
126.8061159150089
 20
-19.22939706045602
 10
126.8134771723555
 20
-19.22228937569002
 10
126.8207170463513
 20
-19.21505927826501
 10
126.8271916212246
 20
-19.20838195085204
 10
126.8335625213773
 20
-19.20160667377902
 10
126.8398284384486
 20
-19.19473508441604
 10
126.84598838787
 20
-19.18776893719303
 10
126.8520414025511
 20
-19.18070999285501
 10
126.8579865154014
 20
-19.17356001214904
 10
126.8638227593307
 20
-19.16632075582103
 10
126.8695491672486
 20
-19.15899398461801
 10
126.8751647720647
 20
-19.15158145928504
 10
126.8806686066885
 20
-19.14408494057105
 10
126.8860597040298
 20
-19.13650618922003
 10
126.8913370969982
 20
-19.12884696598101
 10
126.8964998185032
 20
-19.12110903159802
 10
126.9010474244565
 20
-19.11407904788302
 10
126.9055006581723
 20
-19.10698801793106
 10
126.9098588146419
 20
-19.09983722532601
 10
126.9141211888564
 20
-19.09262795365302
 10
126.9182870758067
 20
-19.08536148649503
 10
126.9223557704844
 20
-19.07803910743703
 10
126.9263265678802
 20
-19.07066210006303
 10
126.9301987629854
 20
-19.06323174795702
 10
126.933971650791
 20
-19.05574933470302
 10
126.9376445262882
 20
-19.04821614388501
 10
126.9412166844681
 20
-19.04063345908804
 10
126.9446874203218
 20
-19.03300256389602
 10
126.9480560288404
 20
-19.02532474189203
 10
126.951321805015
 20
-19.01760127666202
 10
126.9544840438369
 20
-19.00983345178903
 10
126.9575421101922
 20
-19.00202260858504
 10
126.9604957004561
 20
-18.99417036213703
 10
126.9633446091758
 20
-18.98627840861601
 10
126.9660886309136
 20
-18.97834844420401
 10
126.9687275602317
 20
-18.97038216508204
 10
126.9712611916927
 20
-18.96238126743404
 10
126.9736893198587
 20
-18.95434744744003
 10
126.976011739292
 20
-18.94628240128301
 10
126.9782282445549
 20
-18.938187825146
 10
126.9803386302099
 20
-18.93006541520904
 10
126.9823426908191
 20
-18.92191686765605
 10
126.9842402209448
 20
-18.91374387866804
 10
126.9860310151495
 20
-18.90554814442805
 10
126.9877148679954
 20
-18.89733136111704
 10
126.9891216820713
 20
-18.89001125412105
 10
126.9904436926644
 20
-18.88267704723702
 10
126.9916807554894
 20
-18.87532993174704
 10
126.9928327262609
 20
-18.86797109893504
 10
126.9938994606933
 20
-18.86060174008304
 10
126.9948808145011
 20
-18.85322304647502
 10
126.995776643399
 20
-18.84583620939304
 10
126.9965868031016
 20
-18.83844242012003
 10
126.9973111493233
 20
-18.83104286993904
 10
126.9979495377787
 20
-18.82363875013303
 10
126.9985018241823
 20
-18.81623125198405
 10
126.9989678642486
 20
-18.80882156677603
 10
126.9993475136923
 20
-18.80141088579202
 10
126.9996406282278
 20
-18.79400040031402
 10
126.9998470635697
 20
-18.78659130162503
 10
126.9999666754327
 20
-18.77918478100801
 10
126.9999999999205
 20
-18.77271712680402
  0
LWPOLYLINE
  5
F00
330
22
100
AcDbEntity
  8
1
100
AcDbPolyline
 90
       23
 70
     0
 43
0.0
 10
105.5
 20
-20.99629286369998
 10
105.759420708226
 20
-20.92397532609599
 10
106.014687932993
 20
-20.85572762109601
 10
106.265744312514
 20
-20.79145095339101
 10
106.512533040291
 20
-20.73104233817801
 10
106.754999406663
 20
-20.67439545247501
 10
106.993088862906
 20
-20.621399919483
 10
107.231725315883
 20
-20.57091647683103
 10
107.4659024686269
 20
-20.52395950065605
 10
107.695569301071
 20
-20.48040951014204
 10
107.925682050806
 20
-20.43927505247603
 10
108.151203385522
 20
-20.40140393083206
 10
108.377111163038
 20
-20.36590707074103
 10
108.5983525974379
 20
-20.33352275327303
 10
108.81992279464
 20
-20.30345959620703
 10
109.036754648019
 20
-20.27634418268602
 10
109.253860515201
 20
-20.25148867486402
 10
109.471220576226
 20
-20.228914298994
 10
109.683748886758
 20
-20.20908461708004
 10
109.896470962303
 20
-20.19146151961104
 10
110.109359856332
 20
-20.17605754191703
 10
110.322388622312
 20
-20.16288521932901
 10
110.499990011378
 20
-20.15362254089902
  0
LWPOLYLINE
  5
F19
330
22
100
AcDbEntity
  8
1
100
AcDbPolyline
 90
       48
 70
     0
 43
0.0
 10
20.05371046959999
 20
7.878605355400026
 10
20.03028657563399
 20
7.879223460643004
 10
20.00686719373601
 20
7.880089007912005
 10
19.98345494499301
 20
7.881200999210022
 10
19.96005245049599
 20
7.882558436543008
 10
19.93572702104703
 20
7.884229467732012
 10
19.91141792512798
 20
7.886163771310008
 10
19.88712811110801
 20
7.888360224666995
 10
19.86286052735698
 20
7.890817705193001
 10
19.83861812224201
 20
7.893535090280009
 10
19.81440384413201
 20
7.896511257317
 10
19.79022064139701
 20
7.899745083694996
 10
19.766071462404
 20
7.903235446804018
 10
19.741959255523
 20
7.906981224036003
 10
19.71696185565
 20
7.911139612896023
 10
19.69108622474999
 20
7.915731444446976
 10
19.663417810276
 20
7.920949974493992
 10
19.6339701187
 20
7.926836356645026
 10
19.602758233168
 20
7.933427605228017
 10
19.56888473915902
 20
7.940963625027022
 10
19.53146577652802
 20
7.949715063299976
 10
19.48872745225398
 20
7.960205660564013
 10
19.43893448691298
 20
7.973012631182
 10
19.39023228893501
 20
7.986097759534003
 10
19.34340201684798
 20
7.999199226375027
 10
19.29923977277801
 20
8.012018024310007
 10
19.25676671592603
 20
8.024765362900012
 10
19.22773770341303
 20
8.033538696019974
 10
19.21772541296002
 20
8.036408046855996
 10
19.21042993601503
 20
8.038402445888976
 10
19.20403578803902
 20
8.040067751014987
 10
19.19854657226698
 20
8.041426301447984
 10
19.19304896048902
 20
8.042713294841007
 10
19.187542447103
 20
8.043921152682996
 10
19.18294652134102
 20
8.044861782594011
 10
19.178343770199
 20
8.045737808694012
 10
19.17373390108298
 20
8.046544845270998
 10
19.16911662139901
 20
8.047278506611972
 10
19.16541726541999
 20
8.047809658316992
 10
19.161712829609
 20
8.048288797529977
 10
19.15800316415698
 20
8.048713678765977
 10
19.15428811925801
 20
8.049082056541976
 10
19.15056754510201
 20
8.049391685371999
 10
19.146841291881
 20
8.049640319772008
 10
19.14310920978698
 20
8.049825714257025
 10
19.13937114901199
 20
8.049945623341981
 10
19.13562695974801
 20
8.049997801543014
 10
19.13469993727798
 20
8.04999999974899
  0
LWPOLYLINE
  5
F4B
330
22
100
AcDbEntity
  8
1
100
AcDbPolyline
 90
       29
 70
     0
 43
0.0
 10
19.13468993730001
 20
-8.049999999999982
 10
19.13690956637001
 20
-8.04998758924998
 10
19.13912774812198
 20
-8.049950676574013
 10
19.14134447160703
 20
-8.049889741329991
 10
19.143682752263
 20
-8.049799888950985
 10
19.14601938305
 20
-8.049684368560036
 10
19.14835435109401
 20
-8.049543743929008
 10
19.15081040172501
 20
-8.049369216827017
 10
19.15326458070001
 20
-8.04916815562899
 10
19.15583943782201
 20
-8.048929203540977
 10
19.15841219750302
 20
-8.048662483775016
 10
19.16110520097402
 20
-8.048354109897985
 10
19.163918110318
 20
-8.048000977719992
 10
19.16672843814898
 20
-8.047617406661968
 10
19.16965817713199
 20
-8.047185787490008
 10
19.17270694516101
 20
-8.046703323640997
 10
19.17587433846302
 20
-8.046167353750007
 10
19.17915993088701
 20
-8.045575382475021
 10
19.18256327318102
 20
-8.044925112546991
 10
19.18620521482103
 20
-8.044189323206012
 10
19.18996361511499
 20
-8.043388850842999
 10
19.19395891407501
 20
-8.042494604958989
 10
19.19831078292301
 20
-8.041472916058012
 10
19.20301739089001
 20
-8.040316073092981
 10
19.20831738990901
 20
-8.038954426412004
 10
19.21432702481601
 20
-8.037342962572013
 10
19.221639591316
 20
-8.035298954207007
 10
19.23167409553503
 20
-8.032376440321003
 10
19.25550363285998
 20
-8.025150655315997
  0
LWPOLYLINE
  5
F6A
330
22
100
AcDbEntity
  8
1
100
AcDbPolyline
 90
        3
 70
     0
 43
0.0
 10
19.25551319740003
 20
-8.025147736399986
 10
19.30610168778801
 20
-8.009997081454997
 10
19.34760034706298
 20
-7.998003952883976
  0
LWPOLYLINE
  5
F6F
330
22
100
AcDbEntity
  8
1
100
AcDbPolyline
 90
       26
 70
     0
 43
0.0
 10
19.34760996610001
 20
-7.998001219000003
 10
19.39670843463003
 20
-7.984326959294008
 10
19.44595191189202
 20
-7.971173118096003
 10
19.49325312412401
 20
-7.959069631724019
 10
19.53371019599103
 20
-7.949173718094016
 10
19.57007446258598
 20
-7.940686169976004
 10
19.603020798908
 20
-7.933363617788018
 10
19.63393455751702
 20
-7.926836891894992
 10
19.66280399756402
 20
-7.921063689994013
 10
19.68961743537602
 20
-7.915996868432983
 10
19.71507113785901
 20
-7.911463794197003
 10
19.73986709991701
 20
-7.907319076812995
 10
19.76400076494201
 20
-7.903549273460981
 10
19.78817661252103
 20
-7.900034293328018
 10
19.81239103634999
 20
-7.896775441143972
 10
19.83664043012601
 20
-7.893774021642003
 10
19.86020663376999
 20
-7.891108301390005
 10
19.88379908590301
 20
-7.888687515485997
 10
19.90741448915599
 20
-7.886512856892011
 10
19.93104954616402
 20
-7.884585518568003
 10
19.95470095956003
 20
-7.882906693475972
 10
19.97836543197601
 20
-7.88147757457699
 10
20.00203966604499
 20
-7.880299354832004
 10
20.02500270431301
 20
-7.87939757633498
 10
20.04796881443002
 20
-7.878733930896969
 10
20.05370047182302
 20
-7.878605566180992
  0
LWPOLYLINE
  5
F8B
330
22
100
AcDbEntity
  8
1
100
AcDbPolyline
 90
        2
 70
     0
 43
0.0
 10
21.27504956130002
 20
-7.851859592099996
 10
20.05372046737702
 20
-7.878605144442018
  0
LWPOLYLINE
  5
F8F
330
22
100
AcDbEntity
  8
1
100
AcDbPolyline
 90
        2
 70
     0
 43
0.0
 10
20.05371046959999
 20
7.878605355400026
 10
21.27503956387798
 20
7.851859819260994
  0
LWPOLYLINE
  5
F93
330
22
100
AcDbEntity
  8
1
100
AcDbPolyline
 90
        5
 70
     0
 43
0.0
 10
3.399999998699995
 20
-2.59734176240002
 10
3.407473809931985
 20
-1.880512033861009
 10
3.408256984860997
 20
1.72466966361901
 10
3.401336820242988
 20
2.50904095623798
 10
3.400000167252017
 20
2.597331157565008
  0
INSERT
  5
1375
330
22
100
AcDbEntity
  8
1
100
AcDbBlockReference
  2
nullpunkt_1
 10
0.0
 20
-0.0000000000738396
 30
0.0
  0
INSERT
  5
139D
330
22
100
AcDbEntity
  8
1
100
AcDbBlockReference
  2
nullpunkt_2
 10
127.0
 20
-0.0000000000015064
 30
0.0
  0
LINE
  5
17EC
330
22
100
AcDbEntity
  8
NOCUT
100
AcDbLine
 10
127.0
 20
-0.000000000073868
 30
0.0
 11
0.0
 21
-0.0000000000738396
 31
0.0
  0
LINE
  5
17ED
330
22
100
AcDbEntity
  8
NOCUT
100
AcDbLine
 10
127.0
 20
-0.000000000073868
 30
0.0
 11
127.0
 21
19.42715967063077
 31
0.0
  0
LINE
  5
17EE
330
22
100
AcDbEntity
  8
NOCUT
100
AcDbLine
 10
0.0
 20
-0.0000000000738396
 30
0.0
 11
0.0
 21
21.89393326741774
 31
0.0
  0
LINE
  5
17EF
330
22
100
AcDbEntity
  8
NOCUT
100
AcDbLine
 10
126.4277737182158
 20
20.02651650973121
 30
0.0
 11
20.05371046959999
 21
24.95580581687619
 31
0.0
  0
LINE
  5
17F0
330
22
100
AcDbEntity
  8
NOCUT
100
AcDbLine
 10
0.0
 20
21.89393326741774
 30
0.0
 11
0.3196152422000296
 21
21.80829262137615
 31
0.0
  0
ARC
  5
17F1
330
22
100
AcDbEntity
  8
NOCUT
100
AcDbCircle
 10
20.08267607621244
 20
25.93819414503125
 30
0.0
 40
0.9828152591722115
100
AcDbArc
 50
179.0357273604757
 51
268.3111298434937
  0
LINE
  5
17F2
330
22
100
AcDbEntity
  8
NOCUT
100
AcDbLine
 10
0.3196152422000296
 20
21.80829262137615
 30
0.0
 11
2.409731931199984
 21
21.80829262137615
 31
0.0
  0
LINE
  5
17F3
330
22
100
AcDbEntity
  8
NOCUT
100
AcDbLine
 10
19.10000000000002
 20
25.9547338820762
 30
0.0
 11
19.09999999999999
 21
30.17499999987618
 31
0.0
  0
ARC
  5
17F4
330
22
100
AcDbEntity
  8
NOCUT
100
AcDbCircle
 10
2.409578985083953
 20
22.8086047503648
 30
0.0
 40
1.000312140681245
100
AcDbArc
 50
270.0087604324884
 51
322.2018095655983
  0
ARC
  5
17F5
330
22
100
AcDbEntity
  8
NOCUT
100
AcDbCircle
 10
17.5
 20
30.17499999987618
 30
0.0
 40
1.6
100
AcDbArc
 50
0.0
 51
90.0
  0
LINE
  5
17F6
330
22
100
AcDbEntity
  8
NOCUT
100
AcDbLine
 10
3.200000000000044
 20
22.19553134695104
 30
0.0
 11
3.200000000000017
 21
30.17499999987618
 31
0.0
  0
LINE
  5
17F7
330
22
100
AcDbEntity
  8
NOCUT
100
AcDbLine
 10
17.5
 20
31.77499999987617
 30
0.0
 11
14.3475
 21
31.77499999987617
 31
0.0
  0
ARC
  5
17F8
330
22
100
AcDbEntity
  8
NOCUT
100
AcDbCircle
 10
4.800000000000012
 20
30.17499999987618
 30
0.0
 40
1.6
100
AcDbArc
 50
90.0
 51
180.0
  0
LINE
  5
17F9
330
22
100
AcDbEntity
  8
NOCUT
100
AcDbLine
 10
12.97500000000002
 20
29.39776026657611
 30
0.0
 11
14.3475
 21
31.77499999987617
 31
0.0
  0
LINE
  5
17FA
330
22
100
AcDbEntity
  8
NOCUT
100
AcDbLine
 10
7.852499999999992
 20
31.77499999987617
 30
0.0
 11
4.800000000000012
 21
31.77499999987617
 31
0.0
  0
LINE
  5
17FB
330
22
100
AcDbEntity
  8
NOCUT
100
AcDbLine
 10
12.97499999999999
 20
28.62499999987617
 30
0.0
 11
12.97500000000002
 21
29.39776026657611
 31
0.0
  0
LINE
  5
17FC
330
22
100
AcDbEntity
  8
NOCUT
100
AcDbLine
 10
7.852499999999992
 20
31.77499999987617
 30
0.0
 11
9.224999999999994
 21
29.39776026657614
 31
0.0
  0
ARC
  5
17FD
330
22
100
AcDbEntity
  8
NOCUT
100
AcDbCircle
 10
12.47499999999999
 20
28.62499999987617
 30
0.0
 40
0.5
100
AcDbArc
 50
270.0
 51
0.0
  0
LINE
  5
17FE
330
22
100
AcDbEntity
  8
NOCUT
100
AcDbLine
 10
9.224999999999994
 20
29.39776026657614
 30
0.0
 11
9.224999999999994
 21
28.62499999987617
 31
0.0
  0
LINE
  5
17FF
330
22
100
AcDbEntity
  8
NOCUT
100
AcDbLine
 10
9.724999999999994
 20
28.12499999987617
 30
0.0
 11
12.47499999999999
 21
28.12499999987617
 31
0.0
  0
ARC
  5
1800
330
22
100
AcDbEntity
  8
NOCUT
100
AcDbCircle
 10
9.724999999999994
 20
28.62499999987617
 30
0.0
 40
0.5
100
AcDbArc
 50
180.0
 51
270.0
  0
ARC
  5
1801
330
22
100
AcDbEntity
  8
NOCUT
100
AcDbCircle
 10
126.3999999999999
 20
19.42715967063077
 30
0.0
 40
0.6
100
AcDbArc
 50
0.0
 51
87.34685720825543
  0
ENDSEC
  0
SECTION
  2
OBJECTS
  0
DICTIONARY
  5
C
330
0
100
AcDbDictionary
281
     1
  3
ACAD_COLOR
350
1B
  3
ACAD_GROUP
350
D
  3
ACAD_LAYOUT
350
19
  3
ACAD_MATERIAL
350
1A
  3
ACAD_MLINESTYLE
350
16
  3
ACAD_PLOTSETTINGS
350
18
  3
ACAD_PLOTSTYLENAME
350
E
  3
ACAD_TABLESTYLE
350
1C
  3
ACDBHEADERROUNDTRIPXREC
350
186B
  3
AcDbVariableDictionary
350
1672
  0
DICTIONARY
  5
17E5
330
22
100
AcDbDictionary
280
     1
281
     1
  3
ACAD_SORTENTS
360
17E6
  0
DICTIONARY
  5
1B
102
{ACAD_REACTORS
330
C
102
}
330
C
100
AcDbDictionary
281
     1
  0
DICTIONARY
  5
D
102
{ACAD_REACTORS
330
C
102
}
330
C
100
AcDbDictionary
281
     1
  0
DICTIONARY
  5
19
102
{ACAD_REACTORS
330
C
102
}
330
C
100
AcDbDictionary
281
     1
  3
Layout1
350
21
  3
Model
350
25
  0
DICTIONARY
  5
1A
102
{ACAD_REACTORS
330
C
102
}
330
C
100
AcDbDictionary
281
     1
  0
DICTIONARY
  5
16
102
{ACAD_REACTORS
330
C
102
}
330
C
100
AcDbDictionary
281
     1
  3
Standard
350
17
  0
DICTIONARY
  5
18
102
{ACAD_REACTORS
330
C
102
}
330
C
100
AcDbDictionary
281
     1
  0
ACDBDICTIONARYWDFLT
  5
E
102
{ACAD_REACTORS
330
C
102
}
330
C
100
AcDbDictionary
281
     1
  3
Normal
350
F
100
AcDbDictionaryWithDefault
340
F
  0
DICTIONARY
  5
1C
102
{ACAD_REACTORS
330
C
102
}
330
C
100
AcDbDictionary
281
     1
  3
Standard
350
1D
  0
DICTIONARY
  5
186B
102
{ACAD_REACTORS
330
C
102
}
330
C
100
AcDbDictionary
281
     1
  0
DICTIONARY
  5
1672
102
{ACAD_REACTORS
330
C
102
}
330
C
100
AcDbDictionary
281
     1
  3
CTABLESTYLE
350
1673
  3
DIMASSOC
350
1802
  3
PROJECTNAME
350
1803
  0
SORTENTSTABLE
  5
17E6
102
{ACAD_REACTORS
330
17E5
102
}
330
17E5
100
AcDbSortentsTable
330
22
331
F4B
  5
F4B
331
DEC
  5
DEC
331
F8B
  5
F8B
331
E7C
  5
E7C
331
F93
  5
F93
331
6B8
  5
6B8
331
603
  5
603
331
642
  5
642
331
679
  5
679
331
6C0
  5
6C0
331
60B
  5
60B
331
64A
  5
64A
331
681
  5
681
331
689
  5
689
331
613
  5
613
331
65A
  5
65A
331
61B
  5
61B
331
ACE
  5
ACE
331
17F3
  5
17F4
331
17FB
  5
17FC
331
818
  5
818
331
662
  5
662
331
699
  5
699
331
623
  5
623
331
C0D
  5
C0D
331
5F0
  5
5F0
331
62B
  5
62B
331
66A
  5
66A
331
6A1
  5
6A1
331
6A9
  5
6A9
331
5F8
  5
5F8
331
633
  5
633
331
672
  5
672
331
6B1
  5
6B1
331
63B
  5
63B
331
E6D
  5
E6D
331
67A
  5
67A
331
6B9
  5
6B9
331
604
  5
604
331
643
  5
643
331
64B
  5
64B
331
682
  5
682
331
60C
  5
60C
331
6C1
  5
6C1
331
9C0
  5
9C0
331
614
  5
614
331
68A
  5
68A
331
61C
  5
61C
331
65B
  5
65B
331
692
  5
692
331
17EC
  5
17EC
331
17F4
  5
17F5
331
17FC
  5
17FD
331
69A
  5
69A
331
624
  5
624
331
663
  5
663
331
5F1
  5
5F1
331
66B
  5
66B
331
6A2
  5
6A2
331
62C
  5
62C
331
8D9
  5
8D9
331
5F9
  5
5F9
331
673
  5
673
331
6AA
  5
6AA
331
634
  5
634
331
63C
  5
63C
331
6B2
  5
6B2
331
6BA
  5
6BA
331
951
  5
951
331
605
  5
605
331
644
  5
644
331
67B
  5
67B
331
683
  5
683
331
6C2
  5
6C2
331
60D
  5
60D
331
64C
  5
64C
331
9B9
  5
9B9
331
68B
  5
68B
331
615
  5
615
331
73A
  5
73A
331
CAE
  5
CAE
331
65C
  5
65C
331
61D
  5
61D
331
7A2
  5
7A2
331
17ED
  5
17ED
331
17F5
  5
17F6
331
17FD
  5
17FE
331
DCF
  5
DCF
331
625
  5
625
331
1375
  5
1375
331
664
  5
664
331
9D9
  5
9D9
331
822
  5
822
331
5F2
  5
5F2
331
9E1
  5
9E1
331
62D
  5
62D
331
66C
  5
66C
331
6A3
  5
6A3
331
6AB
  5
6AB
331
635
  5
635
331
674
  5
674
331
9E9
  5
9E9
331
9F1
  5
9F1
331
6B3
  5
6B3
331
139D
  5
139D
331
63D
  5
63D
331
CF0
  5
CF0
331
E67
  5
E67
331
9F9
  5
9F9
331
67C
  5
67C
331
6BB
  5
6BB
331
606
  5
606
331
645
  5
645
331
64D
  5
64D
331
684
  5
684
331
A01
  5
A01
331
60E
  5
60E
331
616
  5
616
331
68C
  5
68C
331
A09
  5
A09
331
694
  5
694
331
61E
  5
61E
331
65D
  5
65D
331
17EE
  5
17EF
331
17F6
  5
17F7
331
17FE
  5
17FF
331
69C
  5
69C
331
626
  5
626
331
665
  5
665
331
5F3
  5
5F3
331
CCF
  5
CCF
331
66D
  5
66D
331
6A4
  5
6A4
331
62E
  5
62E
331
636
  5
636
331
675
  5
675
331
6AC
  5
6AC
331
CE7
  5
CE7
331
63E
  5
63E
331
6B4
  5
6B4
331
D19
  5
D19
331
F6F
  5
F6F
331
F8F
  5
F8F
331
6BC
  5
6BC
331
607
  5
607
331
646
  5
646
331
685
  5
685
331
60F
  5
60F
331
64E
  5
64E
331
CA0
  5
CA0
331
68D
  5
68D
331
617
  5
617
331
656
  5
656
331
65E
  5
65E
331
61F
  5
61F
331
17EF
  5
17F0
331
F00
  5
F00
331
17F7
  5
17F8
331
17FF
  5
1800
331
627
  5
627
331
666
  5
666
331
BAA
  5
BAA
331
6A5
  5
6A5
331
5F4
  5
5F4
331
62F
  5
62F
331
66E
  5
66E
331
BB2
  5
BB2
331
C59
  5
C59
331
5FC
  5
5FC
331
637
  5
637
331
676
  5
676
331
6B5
  5
6B5
331
63F
  5
63F
331
E61
  5
E61
331
D42
  5
D42
331
600
  5
600
331
647
  5
647
331
608
  5
608
331
6BD
  5
6BD
331
BC2
  5
BC2
331
BCA
  5
BCA
331
686
  5
686
331
610
  5
610
331
618
  5
618
331
657
  5
657
331
65F
  5
65F
331
CB9
  5
CB9
331
D8A
  5
D8A
331
17F0
  5
17F1
331
F19
  5
F19
331
17F8
  5
17F9
331
1800
  5
1801
331
620
  5
620
331
69E
  5
69E
331
81D
  5
81D
331
628
  5
628
331
667
  5
667
331
5F5
  5
5F5
331
66F
  5
66F
331
6A6
  5
6A6
331
630
  5
630
331
638
  5
638
331
677
  5
677
331
6B6
  5
6B6
331
C7A
  5
C7A
331
D6B
  5
D6B
331
640
  5
640
331
601
  5
601
331
6BE
  5
6BE
331
609
  5
609
331
648
  5
648
331
67F
  5
67F
331
687
  5
687
331
611
  5
611
331
658
  5
658
331
68F
  5
68F
331
619
  5
619
331
BDB
  5
BDB
331
BEB
  5
BEB
331
9D5
  5
9D5
331
697
  5
697
331
17F1
  5
17F2
331
DB3
  5
DB3
331
17F9
  5
17FA
331
DCB
  5
DCB
331
1801
  5
17EE
331
DD3
  5
DD3
331
660
  5
660
331
621
  5
621
331
9DD
  5
9DD
331
629
  5
629
331
668
  5
668
331
69F
  5
69F
331
B94
  5
B94
331
C33
  5
C33
331
6A7
  5
6A7
331
5F6
  5
5F6
331
631
  5
631
331
670
  5
670
331
9E5
  5
9E5
331
9ED
  5
9ED
331
6AF
  5
6AF
331
639
  5
639
331
5FE
  5
5FE
331
9F5
  5
9F5
331
6B7
  5
6B7
331
F6A
  5
F6A
331
678
  5
678
331
602
  5
602
331
641
  5
641
331
C83
  5
C83
331
9FD
  5
9FD
331
649
  5
649
331
680
  5
680
331
60A
  5
60A
331
6BF
  5
6BF
331
688
  5
688
331
A05
  5
A05
331
612
  5
612
331
61A
  5
61A
331
659
  5
659
331
690
  5
690
331
E8B
  5
E8B
331
17F2
  5
17F3
331
17FA
  5
17FB
331
698
  5
698
331
622
  5
622
331
661
  5
661
331
669
  5
669
331
6A0
  5
6A0
331
62A
  5
62A
331
CD3
  5
CD3
331
671
  5
671
331
6A8
  5
6A8
331
632
  5
632
331
5FF
  5
5FF
331
63A
  5
63A
331
6B0
  5
6B0
  0
LAYOUT
  5
21
102
{ACAD_XDICTIONARY
360
186C
102
}
102
{ACAD_REACTORS
330
19
102
}
330
19
100
AcDbPlotSettings
  1

  2
\\ingdom02\ITB3
  4

  6

 40
0.0
 41
0.0
 42
0.0
 43
0.0
 44
0.0
 45
0.0
 46
0.0
 47
0.0
 48
0.0
 49
0.0
140
0.0
141
0.0
142
1.0
143
1.0
 70
   688
 72
     0
 73
     0
 74
     5
  7

 75
    16
147
1.0
148
0.0
149
0.0
100
AcDbLayout
  1
Layout1
 70
     1
 71
     1
 10
0.0
 20
0.0
 11
12.0
 21
9.0
 12
0.0
 22
0.0
 32
0.0
 14
100.0
 24
100.0
 34
100.0
 15
-100.0
 25
-100.0
 35
-100.0
146
0.0
 13
0.0
 23
0.0
 33
0.0
 16
1.0
 26
0.0
 36
0.0
 17
0.0
 27
1.0
 37
0.0
 76
     0
330
1E
  0
LAYOUT
  5
25
102
{ACAD_XDICTIONARY
360
186E
102
}
102
{ACAD_REACTORS
330
19
102
}
330
19
100
AcDbPlotSettings
  1

  2
\\ingdom02\ITB3
  4

  6

 40
0.0
 41
0.0
 42
0.0
 43
0.0
 44
0.0
 45
0.0
 46
0.0
 47
0.0
 48
0.0
 49
0.0
140
0.0
141
0.0
142
1.0
143
1.0
 70
  1712
 72
     0
 73
     0
 74
     0
  7

 75
     0
147
1.0
148
0.0
149
0.0
100
AcDbLayout
  1
Model
 70
     1
 71
     0
 10
0.0
 20
0.0
 11
12.0
 21
9.0
 12
0.0
 22
0.0
 32
0.0
 14
0.0
 24
0.0
 34
0.0
 15
0.0
 25
0.0
 35
0.0
146
0.0
 13
0.0
 23
0.0
 33
0.0
 16
1.0
 26
0.0
 36
0.0
 17
0.0
 27
1.0
 37
0.0
 76
     0
330
22
  0
MLINESTYLE
  5
17
102
{ACAD_REACTORS
330
16
102
}
330
16
100
AcDbMlineStyle
  2
STANDARD
 70
     0
  3

 62
   256
 51
90.0
 52
90.0
 71
     2
 49
0.5
 62
   256
  6
BYLAYER
 49
-0.5
 62
   256
  6
BYLAYER
  0
ACDBPLACEHOLDER
  5
F
102
{ACAD_REACTORS
330
E
102
}
330
E
  0
TABLESTYLE
  5
1D
102
{ACAD_REACTORS
330
1C
102
}
330
1C
100
AcDbTableStyle
  3
Standard
 70
     0
 71
     0
 40
0.06
 41
0.06
280
     0
281
     0
  7
STANDARD
140
0.18
170
     2
 62
     0
 63
     7
283
     0
274
    -2
284
     1
 64
     0
275
    -2
285
     1
 65
     0
276
    -2
286
     1
 66
     0
277
    -2
287
     1
 67
     0
278
    -2
288
     1
 68
     0
279
    -2
289
     1
 69
     0
  7
STANDARD
140
0.25
170
     5
 62
     0
 63
     7
283
     0
274
    -2
284
     1
 64
     0
275
    -2
285
     1
 65
     0
276
    -2
286
     1
 66
     0
277
    -2
287
     1
 67
     0
278
    -2
288
     1
 68
     0
279
    -2
289
     1
 69
     0
  7
STANDARD
140
0.18
170
     5
 62
     0
 63
     7
283
     0
274
    -2
284
     1
 64
     0
275
    -2
285
     1
 65
     0
276
    -2
286
     1
 66
     0
277
    -2
287
     1
 67
     0
278
    -2
288
     1
 68
     0
279
    -2
289
     1
 69
     0
  0
DICTIONARYVAR
  5
1673
102
{ACAD_REACTORS
330
1672
102
}
330
1672
100
DictionaryVariables
280
     0
  1
STANDARD
  0
DICTIONARYVAR
  5
1802
102
{ACAD_REACTORS
330
1672
102
}
330
1672
100
DictionaryVariables
280
     0
  1
1
  0
DICTIONARYVAR
  5
1803
102
{ACAD_REACTORS
330
1672
102
}
330
1672
100
DictionaryVariables
280
     0
  1

  0
DICTIONARY
  5
186C
330
21
100
AcDbDictionary
280
     1
281
     1
  3
ACAD_XREC_ROUNDTRIP
360
186D
  0
DICTIONARY
  5
186E
330
25
100
AcDbDictionary
280
     1
281
     1
  3
ACAD_XREC_ROUNDTRIP
360
186F
  0
XRECORD
  5
186D
102
{ACAD_REACTORS
330
186C
102
}
330
186C
100
AcDbXrecord
280
     1
102
SHADEPLOT
 70
     0
102
SHADEPLOTRESLEVEL
 70
     2
102
SHADEPLOTCUSTOMDPI
 70
   300
  0
XRECORD
  5
186F
102
{ACAD_REACTORS
330
186E
102
}
330
186E
100
AcDbXrecord
280
     1
102
SHADEPLOT
 70
     0
102
SHADEPLOTRESLEVEL
 70
     2
102
SHADEPLOTCUSTOMDPI
 70
   300
  0
ENDSEC
  0
EOF
