  0
SECTION
  2
HEADER
  9
$ACADVER
  1
AC1015
  9
$ACADMAINTVER
 70
    20
  9
$DWGCODEPAGE
  3
ANSI_1252
  9
$INSBASE
 10
0.0
 20
0.0
 30
0.0
  9
$EXTMIN
 10
-89.34997471206576
 20
-40.18400509257799
 30
-0.0000000349181948
  9
$EXTMAX
 10
148.252258962314
 20
59.60755961924736
 30
0.0000000814935747
  9
$LIMMIN
 10
0.0
 20
0.0
  9
$LIMMAX
 10
420.0
 20
297.0
  9
$ORTHOMODE
 70
     0
  9
$REGENMODE
 70
     1
  9
$FILLMODE
 70
     1
  9
$QTEXTMODE
 70
     0
  9
$MIRRTEXT
 70
     0
  9
$LTSCALE
 40
10.0
  9
$ATTMODE
 70
     1
  9
$TEXTSIZE
 40
0.2
  9
$TRACEWID
 40
0.05
  9
$TEXTSTYLE
  7
STANDARD
  9
$CLAYER
  8
0
  9
$CELTYPE
  6
ByLayer
  9
$CECOLOR
 62
   256
  9
$CELTSCALE
 40
1.0
  9
$DISPSILH
 70
     0
  9
$DIMSCALE
 40
1.0
  9
$DIMASZ
 40
3.5
  9
$DIMEXO
 40
0.625
  9
$DIMDLI
 40
3.75
  9
$DIMRND
 40
0.0
  9
$DIMDLE
 40
0.0
  9
$DIMEXE
 40
2.0
  9
$DIMTP
 40
0.0
  9
$DIMTM
 40
0.0
  9
$DIMTXT
 40
3.5
  9
$DIMCEN
 40
2.5
  9
$DIMTSZ
 40
0.0
  9
$DIMTOL
 70
     0
  9
$DIMLIM
 70
     0
  9
$DIMTIH
 70
     0
  9
$DIMTOH
 70
     0
  9
$DIMSE1
 70
     0
  9
$DIMSE2
 70
     0
  9
$DIMTAD
 70
     1
  9
$DIMZIN
 70
     8
  9
$DIMBLK
  1

  9
$DIMASO
 70
     1
  9
$DIMSHO
 70
     1
  9
$DIMPOST
  1

  9
$DIMAPOST
  1

  9
$DIMALT
 70
     0
  9
$DIMALTD
 70
     3
  9
$DIMALTF
 40
0.03937007874016
  9
$DIMLFAC
 40
1.0
  9
$DIMTOFL
 70
     1
  9
$DIMTVP
 40
0.0
  9
$DIMTIX
 70
     0
  9
$DIMSOXD
 70
     0
  9
$DIMSAH
 70
     0
  9
$DIMBLK1
  1

  9
$DIMBLK2
  1

  9
$DIMSTYLE
  2
ISO-25
  9
$DIMCLRD
 70
   256
  9
$DIMCLRE
 70
   256
  9
$DIMCLRT
 70
   256
  9
$DIMTFAC
 40
1.0
  9
$DIMGAP
 40
0.625
  9
$DIMJUST
 70
     0
  9
$DIMSD1
 70
     0
  9
$DIMSD2
 70
     0
  9
$DIMTOLJ
 70
     0
  9
$DIMTZIN
 70
     8
  9
$DIMALTZ
 70
     0
  9
$DIMALTTZ
 70
     0
  9
$DIMUPT
 70
     0
  9
$DIMDEC
 70
     2
  9
$DIMTDEC
 70
     2
  9
$DIMALTU
 70
     2
  9
$DIMALTTD
 70
     3
  9
$DIMTXSTY
  7
STANDARD
  9
$DIMAUNIT
 70
     0
  9
$DIMADEC
 70
     0
  9
$DIMALTRND
 40
0.0
  9
$DIMAZIN
 70
     0
  9
$DIMDSEP
 70
    46
  9
$DIMATFIT
 70
     3
  9
$DIMFRAC
 70
     0
  9
$DIMLDRBLK
  1

  9
$DIMLUNIT
 70
     2
  9
$DIMLWD
 70
    -2
  9
$DIMLWE
 70
    -2
  9
$DIMTMOVE
 70
     0
  9
$LUNITS
 70
     2
  9
$LUPREC
 70
     4
  9
$SKETCHINC
 40
0.1
  9
$FILLETRAD
 40
0.6
  9
$AUNITS
 70
     0
  9
$AUPREC
 70
     0
  9
$MENU
  1

  9
$ELEVATION
 40
0.0
  9
$PELEVATION
 40
0.0
  9
$THICKNESS
 40
0.0
  9
$LIMCHECK
 70
     0
  9
$CHAMFERA
 40
0.0
  9
$CHAMFERB
 40
0.0
  9
$CHAMFERC
 40
0.0
  9
$CHAMFERD
 40
0.0
  9
$SKPOLY
 70
     0
  9
$TDCREATE
 40
2453812.468295116
  9
$TDUCREATE
 40
2453812.426628449
  9
$TDUPDATE
 40
2453812.612337720
  9
$TDUUPDATE
 40
2453812.570671054
  9
$TDINDWG
 40
0.0871911690
  9
$TDUSRTIMER
 40
0.0817995602
  9
$USRTIMER
 70
     1
  9
$ANGBASE
 50
0.0
  9
$ANGDIR
 70
     0
  9
$PDMODE
 70
     0
  9
$PDSIZE
 40
0.3125
  9
$PLINEWID
 40
0.0
  9
$SPLFRAME
 70
     0
  9
$SPLINETYPE
 70
     6
  9
$SPLINESEGS
 70
     8
  9
$HANDSEED
  5
1729
  9
$SURFTAB1
 70
     6
  9
$SURFTAB2
 70
     6
  9
$SURFTYPE
 70
     6
  9
$SURFU
 70
     6
  9
$SURFV
 70
     6
  9
$UCSBASE
  2

  9
$UCSNAME
  2

  9
$UCSORG
 10
0.0
 20
0.0
 30
0.0
  9
$UCSXDIR
 10
1.0
 20
0.0
 30
0.0
  9
$UCSYDIR
 10
0.0
 20
1.0
 30
0.0
  9
$UCSORTHOREF
  2

  9
$UCSORTHOVIEW
 70
     0
  9
$UCSORGTOP
 10
0.0
 20
0.0
 30
0.0
  9
$UCSORGBOTTOM
 10
0.0
 20
0.0
 30
0.0
  9
$UCSORGLEFT
 10
0.0
 20
0.0
 30
0.0
  9
$UCSORGRIGHT
 10
0.0
 20
0.0
 30
0.0
  9
$UCSORGFRONT
 10
0.0
 20
0.0
 30
0.0
  9
$UCSORGBACK
 10
0.0
 20
0.0
 30
0.0
  9
$PUCSBASE
  2

  9
$PUCSNAME
  2

  9
$PUCSORG
 10
0.0
 20
0.0
 30
0.0
  9
$PUCSXDIR
 10
1.0
 20
0.0
 30
0.0
  9
$PUCSYDIR
 10
0.0
 20
1.0
 30
0.0
  9
$PUCSORTHOREF
  2

  9
$PUCSORTHOVIEW
 70
     0
  9
$PUCSORGTOP
 10
0.0
 20
0.0
 30
0.0
  9
$PUCSORGBOTTOM
 10
0.0
 20
0.0
 30
0.0
  9
$PUCSORGLEFT
 10
0.0
 20
0.0
 30
0.0
  9
$PUCSORGRIGHT
 10
0.0
 20
0.0
 30
0.0
  9
$PUCSORGFRONT
 10
0.0
 20
0.0
 30
0.0
  9
$PUCSORGBACK
 10
0.0
 20
0.0
 30
0.0
  9
$USERI1
 70
     0
  9
$USERI2
 70
     0
  9
$USERI3
 70
     0
  9
$USERI4
 70
     0
  9
$USERI5
 70
     0
  9
$USERR1
 40
0.0
  9
$USERR2
 40
0.0
  9
$USERR3
 40
0.0
  9
$USERR4
 40
0.0
  9
$USERR5
 40
0.0
  9
$WORLDVIEW
 70
     1
  9
$SHADEDGE
 70
     3
  9
$SHADEDIF
 70
    70
  9
$TILEMODE
 70
     1
  9
$MAXACTVP
 70
    64
  9
$PINSBASE
 10
0.0
 20
0.0
 30
0.0
  9
$PLIMCHECK
 70
     0
  9
$PEXTMIN
 10
100.0
 20
100.0
 30
100.0
  9
$PEXTMAX
 10
-100.0
 20
-100.0
 30
-100.0
  9
$PLIMMIN
 10
0.0
 20
0.0
  9
$PLIMMAX
 10
12.0
 20
9.0
  9
$UNITMODE
 70
     0
  9
$VISRETAIN
 70
     1
  9
$PLINEGEN
 70
     1
  9
$PSLTSCALE
 70
     1
  9
$TREEDEPTH
 70
  3020
  9
$CMLSTYLE
  2
Standard
  9
$CMLJUST
 70
     0
  9
$CMLSCALE
 40
1.0
  9
$PROXYGRAPHICS
 70
     1
  9
$MEASUREMENT
 70
     0
  9
$CELWEIGHT
370
    -1
  9
$ENDCAPS
280
     0
  9
$JOINSTYLE
280
     0
  9
$LWDISPLAY
290
     0
  9
$INSUNITS
 70
     0
  9
$HYPERLINKBASE
  1

  9
$STYLESHEET
  1

  9
$XEDIT
290
     1
  9
$CEPSNTYPE
380
     0
  9
$PSTYLEMODE
290
     1
  9
$FINGERPRINTGUID
  2
{793A6DE6-F47B-419B-9CF7-610EB4BD6664}
  9
$VERSIONGUID
  2
{862B89C0-FE3C-41B1-912D-0E9EDC500B06}
  9
$EXTNAMES
290
     1
  9
$PSVPSCALE
 40
0.0
  9
$OLESTARTUP
290
     0
  0
ENDSEC
  0
SECTION
  2
CLASSES
  0
CLASS
  1
ACDBDICTIONARYWDFLT
  2
AcDbDictionaryWithDefault
  3
ObjectDBX Classes
 90
        0
280
     0
281
     0
  0
CLASS
  1
TABLESTYLE
  2
AcDbTableStyle
  3
ObjectDBX Classes
 90
     2047
280
     0
281
     0
  0
CLASS
  1
SORTENTSTABLE
  2
AcDbSortentsTable
  3
ObjectDBX Classes
 90
        0
280
     0
281
     0
  0
CLASS
  1
DICTIONARYVAR
  2
AcDbDictionaryVar
  3
ObjectDBX Classes
 90
        0
280
     0
281
     0
  0
CLASS
  1
ACDBPLACEHOLDER
  2
AcDbPlaceHolder
  3
ObjectDBX Classes
 90
        0
280
     0
281
     0
  0
CLASS
  1
LAYOUT
  2
AcDbLayout
  3
ObjectDBX Classes
 90
        0
280
     0
281
     0
  0
ENDSEC
  0
SECTION
  2
TABLES
  0
TABLE
  2
VPORT
  5
8
330
0
100
AcDbSymbolTable
 70
     3
  0
VPORT
  5
1723
330
8
100
AcDbSymbolTableRecord
100
AcDbViewportTableRecord
  2
*Active
 70
     0
 10
0.0
 20
0.0
 11
1.0
 21
1.0
 12
29.45114212512414
 22
9.711777263334681
 13
0.0
 23
0.0
 14
1.0
 24
1.0
 15
0.0
 25
0.0
 16
0.0
 26
0.0
 36
1.0
 17
0.0
 27
0.0
 37
0.0
 40
156.8126137535903
 41
1.522727272727272
 42
50.0
 43
0.0
 44
0.0
 50
0.0
 51
0.0
 71
     0
 72
  1000
 73
     1
 74
     1
 75
     0
 76
     0
 77
     0
 78
     0
281
     0
 65
     1
110
0.0
120
0.0
130
0.0
111
1.0
121
0.0
131
0.0
112
0.0
122
1.0
132
0.0
 79
     0
146
0.0
  0
ENDTAB
  0
TABLE
  2
LTYPE
  5
5
330
0
100
AcDbSymbolTable
 70
     3
  0
LTYPE
  5
13
330
5
100
AcDbSymbolTableRecord
100
AcDbLinetypeTableRecord
  2
ByBlock
 70
     0
  3

 72
    65
 73
     0
 40
0.0
  0
LTYPE
  5
14
330
5
100
AcDbSymbolTableRecord
100
AcDbLinetypeTableRecord
  2
ByLayer
 70
     0
  3

 72
    65
 73
     0
 40
0.0
  0
LTYPE
  5
15
330
5
100
AcDbSymbolTableRecord
100
AcDbLinetypeTableRecord
  2
CONTINUOUS
 70
     0
  3
Solid line
 72
    65
 73
     0
 40
0.0
  0
LTYPE
  5
27
330
5
100
AcDbSymbolTableRecord
100
AcDbLinetypeTableRecord
  2
CENTER
 70
     0
  3
____ _ ____ _ ____ _ ____ _ ____ _ ____ _ ____
 72
    65
 73
     4
 40
0.6
 49
0.375
 74
     0
 49
-0.075
 74
     0
 49
0.075
 74
     0
 49
-0.075
 74
     0
  0
LTYPE
  5
28
330
5
100
AcDbSymbolTableRecord
100
AcDbLinetypeTableRecord
  2
HIDDEN
 70
     0
  3
- - - - - - - - - - - - - - - - - - - -
 72
    65
 73
     2
 40
0.2
 49
0.1
 74
     0
 49
-0.1
 74
     0
  0
ENDTAB
  0
TABLE
  2
LAYER
  5
2
330
0
100
AcDbSymbolTable
 70
    11
  0
LAYER
  5
10
330
2
100
AcDbSymbolTableRecord
100
AcDbLayerTableRecord
  2
0
 70
     0
 62
     7
  6
CONTINUOUS
370
    -3
390
F
  0
LAYER
  5
2C
330
2
100
AcDbSymbolTableRecord
100
AcDbLayerTableRecord
  2
SK1
 70
     0
 62
     4
  6
CONTINUOUS
370
    -3
390
F
  0
LAYER
  5
2D
330
2
100
AcDbSymbolTableRecord
100
AcDbLayerTableRecord
  2
1
 70
     0
 62
     4
  6
CONTINUOUS
370
    -3
390
F
  0
LAYER
  5
2E
330
2
100
AcDbSymbolTableRecord
100
AcDbLayerTableRecord
  2
2
 70
     0
 62
     7
  6
CONTINUOUS
370
    -3
390
F
  0
LAYER
  5
2F
330
2
100
AcDbSymbolTableRecord
100
AcDbLayerTableRecord
  2
SK2
 70
     0
 62
     7
  6
CONTINUOUS
370
    -3
390
F
  0
LAYER
  5
31
330
2
100
AcDbSymbolTableRecord
100
AcDbLayerTableRecord
  2
SK3
 70
     0
 62
     1
  6
HIDDEN
370
    -3
390
F
  0
LAYER
  5
32
330
2
100
AcDbSymbolTableRecord
100
AcDbLayerTableRecord
  2
4
 70
     0
 62
     2
  6
CENTER
370
    -3
390
F
  0
LAYER
  5
33
330
2
100
AcDbSymbolTableRecord
100
AcDbLayerTableRecord
  2
SK4
 70
     0
 62
     2
  6
CENTER
370
    -3
390
F
  0
LAYER
  5
36
330
2
100
AcDbSymbolTableRecord
100
AcDbLayerTableRecord
  2
6
 70
     0
 62
     5
  6
CONTINUOUS
370
    -3
390
F
  0
LAYER
  5
499
330
2
100
AcDbSymbolTableRecord
100
AcDbLayerTableRecord
  2
DEFPOINTS
 70
     0
 62
     7
  6
CONTINUOUS
290
     0
370
    -3
390
F
  0
LAYER
  5
10B4
330
2
100
AcDbSymbolTableRecord
100
AcDbLayerTableRecord
  2
NOCUT
 70
     0
 62
     7
  6
CONTINUOUS
370
    -3
390
F
  0
ENDTAB
  0
TABLE
  2
STYLE
  5
3
330
0
100
AcDbSymbolTable
 70
     1
  0
STYLE
  5
11
330
3
100
AcDbSymbolTableRecord
100
AcDbTextStyleTableRecord
  2
STANDARD
 70
     0
 40
0.0
 41
0.8
 50
0.0
 71
     0
 42
0.2
  3
ISOCP
  4

  0
ENDTAB
  0
TABLE
  2
VIEW
  5
6
330
0
100
AcDbSymbolTable
 70
     0
  0
ENDTAB
  0
TABLE
  2
UCS
  5
7
330
0
100
AcDbSymbolTable
 70
     0
  0
ENDTAB
  0
TABLE
  2
APPID
  5
9
330
0
100
AcDbSymbolTable
 70
     2
  0
APPID
  5
12
330
9
100
AcDbSymbolTableRecord
100
AcDbRegAppTableRecord
  2
ACAD
 70
     0
  0
APPID
  5
168C
330
9
100
AcDbSymbolTableRecord
100
AcDbRegAppTableRecord
  2
ACAD_DSTYLE_DIMTEXT_FILL
 70
     0
  0
ENDTAB
  0
TABLE
  2
DIMSTYLE
  5
A
330
0
100
AcDbSymbolTable
 70
     2
100
AcDbDimStyleTable
 71
     2
340
F94
340
39
  0
DIMSTYLE
105
39
330
A
100
AcDbSymbolTableRecord
100
AcDbDimStyleTableRecord
  2
STANDARD
 70
     0
279
     2
340
11
  0
DIMSTYLE
105
F94
102
{ACAD_REACTORS
330
5F8
330
5F6
330
5F5
330
5F0
330
5F4
330
5F2
330
5F3
330
5F1
330
5F7
102
}
330
A
100
AcDbSymbolTableRecord
100
AcDbDimStyleTableRecord
  2
ISO-25
 70
     0
 41
3.5
 42
0.625
 43
3.75
 44
2.0
 73
     0
 74
     0
 77
     1
 78
     8
140
3.5
141
2.5
143
0.03937007874016
147
0.625
171
     3
172
     1
176
   256
177
   256
178
   256
271
     2
272
     2
274
     3
283
     0
284
     8
340
11
  0
ENDTAB
  0
TABLE
  2
BLOCK_RECORD
  5
1
330
0
100
AcDbSymbolTable
 70
    11
  0
BLOCK_RECORD
  5
22
102
{ACAD_XDICTIONARY
360
167A
102
}
330
1
100
AcDbSymbolTableRecord
100
AcDbBlockTableRecord
  2
*Model_Space
340
25
  0
BLOCK_RECORD
  5
1E
330
1
100
AcDbSymbolTableRecord
100
AcDbBlockTableRecord
  2
*Paper_Space
340
21
  0
BLOCK_RECORD
  5
104F
330
1
100
AcDbSymbolTableRecord
100
AcDbBlockTableRecord
  2
nullpunkt_1
340
0
310
2800000020000000200000000100080000000000000400000000000000000000000000000000000000000000000080000080000000808000800000008000800080800000C0C0C000C0DCC000F0CAA6000020400000206000002080000020A0000020C0000020E00000400000004020000040400000406000004080000040A0
310
000040C0000040E00000600000006020000060400000606000006080000060A0000060C0000060E00000800000008020000080400000806000008080000080A0000080C0000080E00000A0000000A0200000A0400000A0600000A0800000A0A00000A0C00000A0E00000C0000000C0200000C0400000C0600000C0800000C0
310
A00000C0C00000C0E00000E0000000E0200000E0400000E0600000E0800000E0A00000E0C00000E0E00040000000400020004000400040006000400080004000A0004000C0004000E00040200000402020004020400040206000402080004020A0004020C0004020E000404000004040200040404000404060004040800040
310
40A0004040C0004040E00040600000406020004060400040606000406080004060A0004060C0004060E00040800000408020004080400040806000408080004080A0004080C0004080E00040A0000040A0200040A0400040A0600040A0800040A0A00040A0C00040A0E00040C0000040C0200040C0400040C0600040C08000
310
40C0A00040C0C00040C0E00040E0000040E0200040E0400040E0600040E0800040E0A00040E0C00040E0E00080000000800020008000400080006000800080008000A0008000C0008000E00080200000802020008020400080206000802080008020A0008020C0008020E00080400000804020008040400080406000804080
310
008040A0008040C0008040E00080600000806020008060400080606000806080008060A0008060C0008060E00080800000808020008080400080806000808080008080A0008080C0008080E00080A0000080A0200080A0400080A0600080A0800080A0A00080A0C00080A0E00080C0000080C0200080C0400080C0600080C0
310
800080C0A00080C0C00080C0E00080E0000080E0200080E0400080E0600080E0800080E0A00080E0C00080E0E000C0000000C0002000C0004000C0006000C0008000C000A000C000C000C000E000C0200000C0202000C0204000C0206000C0208000C020A000C020C000C020E000C0400000C0402000C0404000C0406000C0
310
408000C040A000C040C000C040E000C0600000C0602000C0604000C0606000C0608000C060A000C060C000C060E000C0800000C0802000C0804000C0806000C0808000C080A000C080C000C080E000C0A00000C0A02000C0A04000C0A06000C0A08000C0A0A000C0A0C000C0A0E000C0C00000C0C02000C0C04000C0C06000
310
C0C08000C0C0A000F0FBFF00A4A0A000808080000000FF0000FF000000FFFF00FF000000FF00FF00FFFF0000FFFFFF0000000000000000000000000000000000000000000000000000000000000000000000000000000000000000000000FEFE0000000000000000000000000000000000000000000000000000FEFEFEFEFE
310
FEFEFE00000000000000000000000000000000000000000000FEFEFEFEFEFE00FE0000FEFE00000000000000000000000000000000000000FEFEFEFE00FE0000FE00000000FEFE00000000000000000000000000000000FEFEFE0000FE000000FE000000000000FEFE00000000000000000000000000FEFE000000FE000000
310
00FE0000000000000000FEFE00000000000000000000FEFE000000FE0000000000FE00000000000000000000FE0000000000000000FEFEFE0000FE000000000000FE00000000000000000000FE0000000000000000FEFE0000FE00000000000000FE0000000000000000000000FE000000000000FEFEFE00FE000000000000
310
0000FE0000000000000000000000FE000000000000FEFE00FE000000000000000000FE000000000000000000000000FE0000000000FEFEFE00000000000000000000FE000000000000000000000000FE0000000000FEFE0000000000000000000000FE00000000000000000000000000FE000000FEFE000000000000000000
310
000000FE00000000000000000000000000FE000000FEFEFEFEFEFEFEFEFEFEFEFEFEFEFEFEFEFEFEFEFEFEFEFEFEFEFEFEFEFE000000FE000000000000000000000000FE00000000000000000000000000FEFE000000FE000000000000000000000000FE000000000000000000000000FEFEFE00000000FE00000000000000
310
00000000FE0000000000000000000000FE00FE0000000000FE0000000000000000000000FE00000000000000000000FE00FEFE000000000000FE00000000000000000000FE000000000000000000FE0000FEFE000000000000FE00000000000000000000FE0000000000000000FE0000FEFEFE00000000000000FE00000000
310
0000000000FE00000000000000FE000000FEFE0000000000000000FE000000000000000000FE000000000000FE000000FEFEFE000000000000000000FE0000000000000000FE0000000000FE00000000FEFE00000000000000000000FE0000000000000000FE00000000FE00000000FEFE000000000000000000000000FEFE
310
000000000000FE000000FE000000FEFEFE000000000000000000000000000000FEFE00000000FE0000FE0000FEFEFEFE000000000000000000000000000000000000FEFE0000FE00FE00FEFEFEFEFE000000000000000000000000000000000000000000FEFEFEFEFEFEFEFEFE000000000000000000000000000000000000
310
00000000000000FEFEFE00000000000000000000000000000000000000000000000000000000000000000000000000000000000000000000
102
{BLKREFS
331
12CB
102
}
  0
BLOCK_RECORD
  5
1058
330
1
100
AcDbSymbolTableRecord
100
AcDbBlockTableRecord
  2
nullpunkt_2
340
0
310
2800000020000000200000000100080000000000000400000000000000000000000000000000000000000000000080000080000000808000800000008000800080800000C0C0C000C0DCC000F0CAA6000020400000206000002080000020A0000020C0000020E00000400000004020000040400000406000004080000040A0
310
000040C0000040E00000600000006020000060400000606000006080000060A0000060C0000060E00000800000008020000080400000806000008080000080A0000080C0000080E00000A0000000A0200000A0400000A0600000A0800000A0A00000A0C00000A0E00000C0000000C0200000C0400000C0600000C0800000C0
310
A00000C0C00000C0E00000E0000000E0200000E0400000E0600000E0800000E0A00000E0C00000E0E00040000000400020004000400040006000400080004000A0004000C0004000E00040200000402020004020400040206000402080004020A0004020C0004020E000404000004040200040404000404060004040800040
310
40A0004040C0004040E00040600000406020004060400040606000406080004060A0004060C0004060E00040800000408020004080400040806000408080004080A0004080C0004080E00040A0000040A0200040A0400040A0600040A0800040A0A00040A0C00040A0E00040C0000040C0200040C0400040C0600040C08000
310
40C0A00040C0C00040C0E00040E0000040E0200040E0400040E0600040E0800040E0A00040E0C00040E0E00080000000800020008000400080006000800080008000A0008000C0008000E00080200000802020008020400080206000802080008020A0008020C0008020E00080400000804020008040400080406000804080
310
008040A0008040C0008040E00080600000806020008060400080606000806080008060A0008060C0008060E00080800000808020008080400080806000808080008080A0008080C0008080E00080A0000080A0200080A0400080A0600080A0800080A0A00080A0C00080A0E00080C0000080C0200080C0400080C0600080C0
310
800080C0A00080C0C00080C0E00080E0000080E0200080E0400080E0600080E0800080E0A00080E0C00080E0E000C0000000C0002000C0004000C0006000C0008000C000A000C000C000C000E000C0200000C0202000C0204000C0206000C0208000C020A000C020C000C020E000C0400000C0402000C0404000C0406000C0
310
408000C040A000C040C000C040E000C0600000C0602000C0604000C0606000C0608000C060A000C060C000C060E000C0800000C0802000C0804000C0806000C0808000C080A000C080C000C080E000C0A00000C0A02000C0A04000C0A06000C0A08000C0A0A000C0A0C000C0A0E000C0C00000C0C02000C0C04000C0C06000
310
C0C08000C0C0A000F0FBFF00A4A0A000808080000000FF0000FF000000FFFF00FF000000FF00FF00FFFF0000FFFFFF0000000000000000000000000000000000000000000000000000000000000000000000000000000000000000000000FEFE0000000000000000000000000000000000000000000000000000FEFEFEFEFE
310
FEFEFE00000000000000000000000000000000000000000000FEFEFEFEFEFE00FE0000FEFE00000000000000000000000000000000000000FEFEFEFE00FE0000FE00000000FEFE00000000000000000000000000000000FEFEFE0000FE000000FE000000000000FEFE00000000000000000000000000FEFE000000FE000000
310
00FE0000000000000000FEFE00000000000000000000FEFE000000FE0000000000FE00000000000000000000FE0000000000000000FEFEFE0000FE000000000000FE00000000000000000000FE0000000000000000FEFE0000FE00000000000000FE0000000000000000000000FE000000000000FEFEFE00FE000000000000
310
0000FE0000000000000000000000FE000000000000FEFE00FE000000000000000000FE000000000000000000000000FE0000000000FEFEFE00000000000000000000FE000000000000000000000000FE0000000000FEFE0000000000000000000000FE00000000000000000000000000FE000000FEFE000000000000000000
310
000000FE00000000000000000000000000FE000000FEFEFEFEFEFEFEFEFEFEFEFEFEFEFEFEFEFEFEFEFEFEFEFEFEFEFEFEFEFE000000FE000000000000000000000000FE00000000000000000000000000FEFE000000FE000000000000000000000000FE000000000000000000000000FEFEFE00000000FE00000000000000
310
00000000FE0000000000000000000000FE00FE0000000000FE0000000000000000000000FE00000000000000000000FE00FEFE000000000000FE00000000000000000000FE000000000000000000FE0000FEFE000000000000FE00000000000000000000FE0000000000000000FE0000FEFEFE00000000000000FE00000000
310
0000000000FE00000000000000FE000000FEFE0000000000000000FE000000000000000000FE000000000000FE000000FEFEFE000000000000000000FE0000000000000000FE0000000000FE00000000FEFE00000000000000000000FE0000000000000000FE00000000FE00000000FEFE000000000000000000000000FEFE
310
000000000000FE000000FE000000FEFEFE000000000000000000000000000000FEFE00000000FE0000FE0000FEFEFEFE000000000000000000000000000000000000FEFE0000FE00FE00FEFEFEFEFE000000000000000000000000000000000000000000FEFEFEFEFEFEFEFEFE000000000000000000000000000000000000
310
00000000000000FEFEFE00000000000000000000000000000000000000000000000000000000000000000000000000000000000000000000
102
{BLKREFS
331
12CC
102
}
  0
BLOCK_RECORD
  5
1376
330
1
100
AcDbSymbolTableRecord
100
AcDbBlockTableRecord
  2
*D2
340
0
  0
BLOCK_RECORD
  5
1382
330
1
100
AcDbSymbolTableRecord
100
AcDbBlockTableRecord
  2
*D3
340
0
  0
BLOCK_RECORD
  5
138F
330
1
100
AcDbSymbolTableRecord
100
AcDbBlockTableRecord
  2
*D4
340
0
  0
BLOCK_RECORD
  5
139B
330
1
100
AcDbSymbolTableRecord
100
AcDbBlockTableRecord
  2
*D5
340
0
  0
BLOCK_RECORD
  5
13A7
330
1
100
AcDbSymbolTableRecord
100
AcDbBlockTableRecord
  2
*D6
340
0
  0
BLOCK_RECORD
  5
13B3
330
1
100
AcDbSymbolTableRecord
100
AcDbBlockTableRecord
  2
*D7
340
0
  0
BLOCK_RECORD
  5
13BF
330
1
100
AcDbSymbolTableRecord
100
AcDbBlockTableRecord
  2
*D8
340
0
  0
BLOCK_RECORD
  5
13CB
330
1
100
AcDbSymbolTableRecord
100
AcDbBlockTableRecord
  2
*D9
340
0
  0
BLOCK_RECORD
  5
13D7
330
1
100
AcDbSymbolTableRecord
100
AcDbBlockTableRecord
  2
*D10
340
0
  0
ENDTAB
  0
ENDSEC
  0
SECTION
  2
BLOCKS
  0
BLOCK
  5
23
330
22
100
AcDbEntity
  8
0
100
AcDbBlockBegin
  2
*Model_Space
 70
     0
 10
0.0
 20
0.0
 30
0.0
  3
*Model_Space
  1

  0
ENDBLK
  5
24
330
22
100
AcDbEntity
  8
0
100
AcDbBlockEnd
  0
BLOCK
  5
1F
330
1E
100
AcDbEntity
 67
     1
  8
0
100
AcDbBlockBegin
  2
*Paper_Space
 70
     0
 10
0.0
 20
0.0
 30
0.0
  3
*Paper_Space
  1

  0
ENDBLK
  5
20
330
1E
100
AcDbEntity
 67
     1
  8
0
100
AcDbBlockEnd
  0
BLOCK
  5
1050
330
104F
100
AcDbEntity
  8
0
100
AcDbBlockBegin
  2
nullpunkt_1
 70
     0
 10
0.0
 20
0.0
 30
0.0
  3
nullpunkt_1
  1

  0
LWPOLYLINE
  5
1051
102
{ACAD_REACTORS
330
1052
102
}
330
104F
100
AcDbEntity
  8
1
100
AcDbPolyline
 90
        3
 70
     1
 43
0.0
 10
0.0
 20
2.950972054112752
 10
0.0
 20
0.0
 10
2.950972054112638
 20
0.0
 42
0.4142135623730966
  0
HATCH
  5
1052
330
104F
100
AcDbEntity
  8
1
100
AcDbHatch
 10
0.0
 20
0.0
 30
0.0
210
0.0
220
0.0
230
1.0
  2
SOLID
 70
     1
 71
     1
 91
        2
 92
        7
 72
     1
 73
     1
 93
        3
 10
0.0
 20
0.0
 42
0.0
 10
2.950972054112638
 20
0.0
 42
0.4142135623730968
 10
0.0
 20
2.950972054112752
 42
0.0
 97
        1
330
1051
 92
        7
 72
     1
 73
     1
 93
        3
 10
0.0
 20
-2.950972054112412
 42
0.0
 10
0.0
 20
0.0
 42
0.0
 10
-2.950972054112583
 20
0.0
 42
0.4142135623730966
 97
        1
330
1054
 75
     0
 76
     1
 47
0.1190009775223266
 98
        2
 10
0.7445530588119596
 20
0.9212244733765826
 10
-1.27946460185285
 20
-1.696796923046235
  0
CIRCLE
  5
1053
330
104F
100
AcDbEntity
  8
1
100
AcDbCircle
 10
0.0
 20
0.0
 30
0.0
 40
2.950972054112601
  0
LWPOLYLINE
  5
1054
102
{ACAD_REACTORS
330
1052
102
}
330
104F
100
AcDbEntity
  8
1
100
AcDbPolyline
 90
        3
 70
     1
 43
0.0
 10
0.0
 20
0.0
 10
-2.950972054112583
 20
0.0
 42
0.4142135623730966
 10
0.0
 20
-2.950972054112412
  0
LINE
  5
1055
330
104F
100
AcDbEntity
  8
1
100
AcDbLine
 10
-2.950972054112752
 20
0.0
 30
0.0
 11
2.950972054112583
 21
0.0
 31
0.0
  0
LINE
  5
1056
330
104F
100
AcDbEntity
  8
1
100
AcDbLine
 10
0.0
 20
2.950972054112752
 30
0.0
 11
0.0
 21
-2.950972054112412
 31
0.0
  0
ENDBLK
  5
1057
330
104F
100
AcDbEntity
  8
0
100
AcDbBlockEnd
  0
BLOCK
  5
1059
330
1058
100
AcDbEntity
  8
0
100
AcDbBlockBegin
  2
nullpunkt_2
 70
     0
 10
0.0
 20
0.0
 30
0.0
  3
nullpunkt_2
  1

  0
CIRCLE
  5
105A
330
1058
100
AcDbEntity
  8
1
100
AcDbCircle
 10
0.0
 20
0.0
 30
0.0
 40
1.0
  0
HATCH
  5
105B
330
1058
100
AcDbEntity
  8
1
100
AcDbHatch
 10
0.0
 20
0.0
 30
0.0
210
0.0
220
0.0
230
1.0
  2
SOLID
 70
     1
 71
     0
 91
        2
 92
        1
 93
        3
 72
     1
 10
0.0
 20
0.0
 11
-1.0
 21
0.0
 72
     2
 10
0.0
 20
0.0
 40
1.0
 50
180.0
 51
270.0
 73
     1
 72
     1
 10
0.0
 20
-0.9999999999998864
 11
0.0
 21
0.0
 97
        0
 92
        1
 93
        3
 72
     1
 10
0.0
 20
1.000000000000113
 11
0.0
 21
0.0
 72
     1
 10
0.0
 20
0.0
 11
1.0
 21
0.0
 72
     2
 10
0.0
 20
0.0
 40
1.0
 50
0.0
 51
90.0
 73
     1
 97
        0
 75
     0
 76
     1
 98
        1
 10
-109.9295341761981
 20
-32.53620011044962
  0
LINE
  5
105C
330
1058
100
AcDbEntity
  8
1
100
AcDbLine
 10
-1.0
 20
0.0
 30
0.0
 11
1.0
 21
0.0
 31
0.0
  0
LWPOLYLINE
  5
105D
330
1058
100
AcDbEntity
  8
1
100
AcDbPolyline
 90
        3
 70
     1
 43
0.0
 10
0.0
 20
0.0
 10
-1.0
 20
0.0
 42
0.4142135623730951
 10
0.0
 20
-0.9999999999998864
  0
LWPOLYLINE
  5
105E
330
1058
100
AcDbEntity
  8
1
100
AcDbPolyline
 90
        3
 70
     1
 43
0.0
 10
0.0
 20
1.000000000000113
 10
0.0
 20
0.0
 10
1.0
 20
0.0
 42
0.4142135623730951
  0
ENDBLK
  5
105F
330
1058
100
AcDbEntity
  8
0
100
AcDbBlockEnd
  0
BLOCK
  5
1380
330
1376
100
AcDbEntity
  8
0
100
AcDbBlockBegin
  2
*D2
 70
     1
 10
0.0
 20
0.0
 30
0.0
  3
*D2
  1

  0
LINE
  5
170B
330
1376
100
AcDbEntity
  8
SK2
370
    -2
100
AcDbLine
 10
103.125
 20
20.00000000007393
 30
0.0
 11
148.2345021679743
 21
20.00000000007391
 31
0.0
  0
LINE
  5
170C
330
1376
100
AcDbEntity
  8
SK2
370
    -2
100
AcDbLine
 10
103.125
 20
-19.99999999992619
 30
0.0
 11
148.2345021679743
 21
-19.9999999999262
 31
0.0
  0
LINE
  5
170D
330
1376
100
AcDbEntity
  8
SK2
370
    -2
100
AcDbLine
 10
146.2345021679744
 20
16.50000000007391
 30
0.0
 11
146.2345021679744
 21
-16.4999999999262
 31
0.0
  0
SOLID
  5
170E
330
1376
100
AcDbEntity
  8
SK2
100
AcDbTrace
 10
145.651168834641
 20
16.50000000007391
 30
0.0
 11
146.8178355013077
 21
16.50000000007391
 31
0.0
 12
146.2345021679744
 22
20.00000000007391
 32
0.0
 13
146.2345021679744
 23
20.00000000007391
 33
0.0
  0
SOLID
  5
170F
330
1376
100
AcDbEntity
  8
SK2
100
AcDbTrace
 10
145.651168834641
 20
-16.4999999999262
 30
0.0
 11
146.8178355013077
 21
-16.4999999999262
 31
0.0
 12
146.2345021679744
 22
-19.9999999999262
 32
0.0
 13
146.2345021679744
 23
-19.9999999999262
 33
0.0
  0
MTEXT
  5
1710
330
1376
100
AcDbEntity
  8
SK2
100
AcDbMText
 10
143.8595021679743
 20
-0.3747867924261922
 30
0.0
 40
3.5
 41
0.0
 71
     5
 72
     1
  1
%%c40
 11
0.0000000000000001
 21
1.0
 31
0.0
 73
     1
 44
1.0
1001
ACAD
1000
MTEXTBEGIN
1070
    73
1070
     1
1070
    44
1040
1.0
1070
    74
1070
     0
1000
MTEXTEND
  0
POINT
  5
1711
330
1376
100
AcDbEntity
  8
DEFPOINTS
 62
     0
100
AcDbPoint
 10
102.5
 20
20.00000000007393
 30
0.0
  0
POINT
  5
1712
330
1376
100
AcDbEntity
  8
DEFPOINTS
 62
     0
100
AcDbPoint
 10
102.5
 20
-19.99999999992619
 30
0.0
  0
POINT
  5
1713
330
1376
100
AcDbEntity
  8
DEFPOINTS
 62
     0
100
AcDbPoint
 10
146.2345021679744
 20
-19.9999999999262
 30
0.0
  0
ENDBLK
  5
1381
330
1376
100
AcDbEntity
  8
0
100
AcDbBlockEnd
  0
BLOCK
  5
138D
330
1382
100
AcDbEntity
  8
0
100
AcDbBlockBegin
  2
*D3
 70
     1
 10
0.0
 20
0.0
 30
0.0
  3
*D3
  1

  0
LINE
  5
16F9
330
1382
100
AcDbEntity
  8
SK2
370
    -2
100
AcDbLine
 10
119.125
 20
11.00000000007392
 30
0.0
 11
136.9538679514674
 21
11.00000000007392
 31
0.0
  0
LINE
  5
16FA
330
1382
100
AcDbEntity
  8
SK2
370
    -2
100
AcDbLine
 10
119.125
 20
-10.99999999992619
 30
0.0
 11
136.9538679514674
 21
-10.99999999992619
 31
0.0
  0
LINE
  5
16FB
330
1382
100
AcDbEntity
  8
SK2
370
    -2
100
AcDbLine
 10
134.9538679514673
 20
7.500000000073919
 30
0.0
 11
134.9538679514673
 21
-7.499999999926194
 31
0.0
  0
SOLID
  5
16FC
330
1382
100
AcDbEntity
  8
SK2
100
AcDbTrace
 10
134.370534618134
 20
7.500000000073919
 30
0.0
 11
135.5372012848007
 21
7.500000000073919
 31
0.0
 12
134.9538679514673
 22
11.00000000007392
 32
0.0
 13
134.9538679514673
 23
11.00000000007392
 33
0.0
  0
SOLID
  5
16FD
330
1382
100
AcDbEntity
  8
SK2
100
AcDbTrace
 10
134.370534618134
 20
-7.499999999926194
 30
0.0
 11
135.5372012848007
 21
-7.499999999926194
 31
0.0
 12
134.9538679514673
 22
-10.99999999992619
 32
0.0
 13
134.9538679514673
 23
-10.99999999992619
 33
0.0
  0
MTEXT
  5
16FE
330
1382
100
AcDbEntity
  8
SK2
100
AcDbMText
 10
132.5785234632784
 20
-1.116410291031683
 30
0.0
 40
3.5
 41
0.0
 71
     5
 72
     1
  1
%%c22
 11
0.0000000000000001
 21
1.0
 31
0.0
 73
     1
 44
1.0
1001
ACAD
1000
MTEXTBEGIN
1070
    73
1070
     1
1070
    44
1040
1.0
1070
    74
1070
     0
1000
MTEXTEND
  0
POINT
  5
16FF
330
1382
100
AcDbEntity
  8
DEFPOINTS
 62
     0
100
AcDbPoint
 10
118.5
 20
11.00000000007392
 30
0.0
  0
POINT
  5
1700
330
1382
100
AcDbEntity
  8
DEFPOINTS
 62
     0
100
AcDbPoint
 10
118.5
 20
-10.99999999992619
 30
0.0
  0
POINT
  5
1701
330
1382
100
AcDbEntity
  8
DEFPOINTS
 62
     0
100
AcDbPoint
 10
134.9538679514673
 20
-10.99999999992619
 30
0.0
  0
ENDBLK
  5
138E
330
1382
100
AcDbEntity
  8
0
100
AcDbBlockEnd
  0
BLOCK
  5
1399
330
138F
100
AcDbEntity
  8
0
100
AcDbBlockBegin
  2
*D4
 70
     1
 10
0.0
 20
0.0
 30
0.0
  3
*D4
  1

  0
LINE
  5
16F0
330
138F
100
AcDbEntity
  8
2
370
    -2
100
AcDbLine
 10
102.0
 20
23.14371064769699
 30
0.0
 11
102.0
 21
57.46660886446898
 31
0.0
  0
LINE
  5
16F1
330
138F
100
AcDbEntity
  8
2
370
    -2
100
AcDbLine
 10
0.0
 20
24.34085120729333
 30
0.0
 11
0.0000000000000021
 21
57.46660886446898
 31
0.0
  0
LINE
  5
16F2
330
138F
100
AcDbEntity
  8
2
370
    -2
100
AcDbLine
 10
98.50000000000001
 20
55.46660886446898
 30
0.0
 11
3.500000000000001
 21
55.46660886446898
 31
0.0
  0
SOLID
  5
16F3
330
138F
100
AcDbEntity
  8
2
100
AcDbTrace
 10
98.50000000000001
 20
56.04994219780231
 30
0.0
 11
98.50000000000001
 21
54.88327553113564
 31
0.0
 12
102.0
 22
55.46660886446898
 32
0.0
 13
102.0
 23
55.46660886446898
 33
0.0
  0
SOLID
  5
16F4
330
138F
100
AcDbEntity
  8
2
100
AcDbTrace
 10
3.500000000000001
 20
56.04994219780231
 30
0.0
 11
3.500000000000001
 21
54.88327553113564
 31
0.0
 12
0.0000000000000019
 22
55.46660886446898
 32
0.0
 13
0.0000000000000019
 23
55.46660886446898
 33
0.0
  0
MTEXT
  5
16F5
330
138F
100
AcDbEntity
  8
2
100
AcDbMText
 10
45.03803650369929
 20
57.84195335265795
 30
0.0
 40
3.5
 41
0.0
 71
     5
 72
     1
  1
102
 73
     1
 44
1.0
1001
ACAD
1000
MTEXTBEGIN
1070
    73
1070
     1
1070
    44
1040
1.0
1070
    74
1070
     0
1000
MTEXTEND
  0
POINT
  5
16F6
330
138F
100
AcDbEntity
  8
DEFPOINTS
 62
     0
100
AcDbPoint
 10
102.0
 20
22.51871064769699
 30
0.0
  0
POINT
  5
16F7
330
138F
100
AcDbEntity
  8
DEFPOINTS
 62
     0
100
AcDbPoint
 10
0.0
 20
23.71585120729333
 30
0.0
  0
POINT
  5
16F8
330
138F
100
AcDbEntity
  8
DEFPOINTS
 62
     0
100
AcDbPoint
 10
0.0000000000000019
 20
55.46660886446898
 30
0.0
  0
ENDBLK
  5
139A
330
138F
100
AcDbEntity
  8
0
100
AcDbBlockEnd
  0
BLOCK
  5
13A5
330
139B
100
AcDbEntity
  8
0
100
AcDbBlockBegin
  2
*D5
 70
     1
 10
0.0
 20
0.0
 30
0.0
  3
*D5
  1

  0
LINE
  5
171A
330
139B
100
AcDbEntity
  8
SK2
370
    -2
100
AcDbLine
 10
121.0
 20
12.38536497138909
 30
0.0
 11
121.0
 21
57.46660886446898
 31
0.0
  0
LINE
  5
171B
330
139B
100
AcDbEntity
  8
SK2
370
    -2
100
AcDbLine
 10
102.0
 20
22.51871064769699
 30
0.0
 11
102.0
 21
57.46660886446898
 31
0.0
  0
LINE
  5
171C
330
139B
100
AcDbEntity
  8
SK2
370
    -2
100
AcDbLine
 10
117.5
 20
55.46660886446898
 30
0.0
 11
105.5
 21
55.46660886446898
 31
0.0
  0
SOLID
  5
171D
330
139B
100
AcDbEntity
  8
SK2
100
AcDbTrace
 10
117.5
 20
56.04994219780231
 30
0.0
 11
117.5
 21
54.88327553113564
 31
0.0
 12
121.0
 22
55.46660886446898
 32
0.0
 13
121.0
 23
55.46660886446898
 33
0.0
  0
SOLID
  5
171E
330
139B
100
AcDbEntity
  8
SK2
100
AcDbTrace
 10
105.5
 20
56.04994219780231
 30
0.0
 11
105.5
 21
54.88327553113564
 31
0.0
 12
102.0
 22
55.46660886446898
 32
0.0
 13
102.0
 23
55.46660886446898
 33
0.0
  0
MTEXT
  5
171F
330
139B
100
AcDbEntity
  8
SK2
100
AcDbMText
 10
111.6877769140999
 20
57.84160886446898
 30
0.0
 40
3.5
 41
0.0
 71
     5
 72
     1
  1
19
 73
     1
 44
1.0
1001
ACAD
1000
MTEXTBEGIN
1070
    73
1070
     1
1070
    44
1040
1.0
1070
    74
1070
     0
1000
MTEXTEND
  0
POINT
  5
1720
330
139B
100
AcDbEntity
  8
DEFPOINTS
 62
     0
100
AcDbPoint
 10
121.0
 20
11.76036497138909
 30
0.0
  0
POINT
  5
1721
330
139B
100
AcDbEntity
  8
DEFPOINTS
 62
     0
100
AcDbPoint
 10
102.0
 20
21.89371064769699
 30
0.0
  0
POINT
  5
1722
330
139B
100
AcDbEntity
  8
DEFPOINTS
 62
     0
100
AcDbPoint
 10
102.0
 20
55.46660886446898
 30
0.0
  0
ENDBLK
  5
13A6
330
139B
100
AcDbEntity
  8
0
100
AcDbBlockEnd
  0
BLOCK
  5
13B1
330
13A7
100
AcDbEntity
  8
0
100
AcDbBlockBegin
  2
*D6
 70
     1
 10
0.0
 20
0.0
 30
0.0
  3
*D6
  1

  0
LINE
  5
16E7
330
13A7
100
AcDbEntity
  8
SK2
370
    -2
100
AcDbLine
 10
0.0
 20
26.25348774366722
 30
0.0
 11
0.0000000000000015
 21
49.7027613079278
 31
0.0
  0
LINE
  5
16E8
330
13A7
100
AcDbEntity
  8
SK2
370
    -2
100
AcDbLine
 10
-68.39999999999999
 20
-12.12151913812607
 30
0.0
 11
-68.39999999999999
 21
49.7027613079278
 31
0.0
  0
LINE
  5
16E9
330
13A7
100
AcDbEntity
  8
SK2
370
    -2
100
AcDbLine
 10
-3.499999999999998
 20
47.7027613079278
 30
0.0
 11
-64.89999999999999
 21
47.7027613079278
 31
0.0
  0
SOLID
  5
16EA
330
13A7
100
AcDbEntity
  8
SK2
100
AcDbTrace
 10
-3.499999999999998
 20
48.28609464126113
 30
0.0
 11
-3.499999999999998
 21
47.11942797459446
 31
0.0
 12
0.0000000000000014
 22
47.7027613079278
 32
0.0
 13
0.0000000000000014
 23
47.7027613079278
 33
0.0
  0
SOLID
  5
16EB
330
13A7
100
AcDbEntity
  8
SK2
100
AcDbTrace
 10
-64.89999999999999
 20
48.28609464126113
 30
0.0
 11
-64.89999999999999
 21
47.11942797459446
 31
0.0
 12
-68.39999999999999
 22
47.7027613079278
 32
0.0
 13
-68.39999999999999
 23
47.7027613079278
 33
0.0
  0
MTEXT
  5
16EC
330
13A7
100
AcDbEntity
  8
SK2
100
AcDbMText
 10
-43.20979657556921
 20
50.0777613079278
 30
0.0
 40
3.5
 41
0.0
 71
     5
 72
     1
  1
68.4
 73
     1
 44
1.0
1001
ACAD
1000
MTEXTBEGIN
1070
    73
1070
     1
1070
    44
1040
1.0
1070
    74
1070
     0
1000
MTEXTEND
  0
POINT
  5
16ED
330
13A7
100
AcDbEntity
  8
DEFPOINTS
 62
     0
100
AcDbPoint
 10
0.0
 20
25.62848774366722
 30
0.0
  0
POINT
  5
16EE
330
13A7
100
AcDbEntity
  8
DEFPOINTS
 62
     0
100
AcDbPoint
 10
-68.39999999999999
 20
-12.74651913812607
 30
0.0
  0
POINT
  5
16EF
330
13A7
100
AcDbEntity
  8
DEFPOINTS
 62
     0
100
AcDbPoint
 10
-68.39999999999999
 20
47.7027613079278
 30
0.0
  0
ENDBLK
  5
13B2
330
13A7
100
AcDbEntity
  8
0
100
AcDbBlockEnd
  0
BLOCK
  5
13BD
330
13B3
100
AcDbEntity
  8
0
100
AcDbBlockBegin
  2
*D7
 70
     1
 10
0.0
 20
0.0
 30
0.0
  3
*D7
  1

  0
LINE
  5
16D5
330
13B3
100
AcDbEntity
  8
2
370
    -2
100
AcDbLine
 10
0.0
 20
-0.6861610732859731
 30
0.0
 11
0.0000000000000031
 21
49.7027613079278
 31
0.0
  0
LINE
  5
16D6
330
13B3
100
AcDbEntity
  8
2
370
    -2
100
AcDbLine
 10
19.09999999999999
 20
32.8058611437865
 30
0.0
 11
19.09999999999999
 21
49.7027613079278
 31
0.0
  0
LINE
  5
16D7
330
13B3
100
AcDbEntity
  8
2
370
    -2
100
AcDbLine
 10
3.500000000000003
 20
47.7027613079278
 30
0.0
 11
15.59999999999999
 21
47.7027613079278
 31
0.0
  0
SOLID
  5
16D8
330
13B3
100
AcDbEntity
  8
2
100
AcDbTrace
 10
3.500000000000003
 20
48.28609464126113
 30
0.0
 11
3.500000000000003
 21
47.11942797459446
 31
0.0
 12
0.000000000000003
 22
47.7027613079278
 32
0.0
 13
0.000000000000003
 23
47.7027613079278
 33
0.0
  0
SOLID
  5
16D9
330
13B3
100
AcDbEntity
  8
2
100
AcDbTrace
 10
15.59999999999999
 20
48.28609464126113
 30
0.0
 11
15.59999999999999
 21
47.11942797459446
 31
0.0
 12
19.09999999999999
 22
47.7027613079278
 32
0.0
 13
19.09999999999999
 23
47.7027613079278
 33
0.0
  0
MTEXT
  5
16DA
330
13B3
100
AcDbEntity
  8
2
100
AcDbMText
 10
9.710944734032892
 20
50.0777613079278
 30
0.0
 40
3.5
 41
0.0
 71
     5
 72
     1
  1
19.1
 73
     1
 44
1.0
1001
ACAD
1000
MTEXTBEGIN
1070
    73
1070
     1
1070
    44
1040
1.0
1070
    74
1070
     0
1000
MTEXTEND
  0
POINT
  5
16DB
330
13B3
100
AcDbEntity
  8
DEFPOINTS
 62
     0
100
AcDbPoint
 10
0.0
 20
-1.311161073285973
 30
0.0
  0
POINT
  5
16DC
330
13B3
100
AcDbEntity
  8
DEFPOINTS
 62
     0
100
AcDbPoint
 10
19.09999999999999
 20
32.1808611437865
 30
0.0
  0
POINT
  5
16DD
330
13B3
100
AcDbEntity
  8
DEFPOINTS
 62
     0
100
AcDbPoint
 10
19.09999999999999
 20
47.7027613079278
 30
0.0
  0
ENDBLK
  5
13BE
330
13B3
100
AcDbEntity
  8
0
100
AcDbBlockEnd
  0
BLOCK
  5
13C9
330
13BF
100
AcDbEntity
  8
0
100
AcDbBlockBegin
  2
*D8
 70
     1
 10
0.0
 20
0.0
 30
0.0
  3
*D8
  1

  0
LINE
  5
16DE
330
13BF
100
AcDbEntity
  8
SK2
370
    -2
100
AcDbLine
 10
-1.125
 20
22.22500000007392
 30
0.0
 11
-78.84633483899444
 21
22.22500000007394
 31
0.0
  0
LINE
  5
16DF
330
13BF
100
AcDbEntity
  8
SK2
370
    -2
100
AcDbLine
 10
-1.125
 20
-22.22499999992607
 30
0.0
 11
-78.84633483899444
 21
-22.22499999992605
 31
0.0
  0
LINE
  5
16E0
330
13BF
100
AcDbEntity
  8
SK2
370
    -2
100
AcDbLine
 10
-76.84633483899443
 20
18.72500000007394
 30
0.0
 11
-76.84633483899443
 21
-18.72499999992605
 31
0.0
  0
SOLID
  5
16E1
330
13BF
100
AcDbEntity
  8
SK2
100
AcDbTrace
 10
-77.42966817232776
 20
18.72500000007394
 30
0.0
 11
-76.26300150566111
 21
18.72500000007394
 31
0.0
 12
-76.84633483899443
 22
22.22500000007394
 32
0.0
 13
-76.84633483899443
 23
22.22500000007394
 33
0.0
  0
SOLID
  5
16E2
330
13BF
100
AcDbEntity
  8
SK2
100
AcDbTrace
 10
-77.42966817232776
 20
-18.72499999992605
 30
0.0
 11
-76.26300150566111
 21
-18.72499999992605
 31
0.0
 12
-76.84633483899443
 22
-22.22499999992605
 32
0.0
 13
-76.84633483899443
 23
-22.22499999992605
 33
0.0
  0
MTEXT
  5
16E3
330
13BF
100
AcDbEntity
  8
SK2
100
AcDbMText
 10
-79.22133483899443
 20
-0.6382941315260663
 30
0.0
 40
3.5
 41
0.0
 71
     5
 72
     1
  1
%%c44.45
 11
0.0000000000000001
 21
1.0
 31
0.0
 73
     1
 44
1.0
1001
ACAD
1000
MTEXTBEGIN
1070
    73
1070
     1
1070
    44
1040
1.0
1070
    74
1070
     0
1000
MTEXTEND
  0
POINT
  5
16E4
330
13BF
100
AcDbEntity
  8
DEFPOINTS
 62
     0
100
AcDbPoint
 10
-0.5
 20
22.22500000007392
 30
0.0
  0
POINT
  5
16E5
330
13BF
100
AcDbEntity
  8
DEFPOINTS
 62
     0
100
AcDbPoint
 10
-0.5
 20
-22.22499999992607
 30
0.0
  0
POINT
  5
16E6
330
13BF
100
AcDbEntity
  8
DEFPOINTS
 62
     0
100
AcDbPoint
 10
-76.84633483899443
 20
-22.22499999992605
 30
0.0
  0
ENDBLK
  5
13CA
330
13BF
100
AcDbEntity
  8
0
100
AcDbBlockEnd
  0
BLOCK
  5
13D5
330
13CB
100
AcDbEntity
  8
0
100
AcDbBlockBegin
  2
*D9
 70
     1
 10
0.0
 20
0.0
 30
0.0
  3
*D9
  1

  0
LINE
  5
16CC
330
13CB
100
AcDbEntity
  8
SK2
370
    -2
100
AcDbLine
 10
1.240593088499963
 20
31.77500000007393
 30
0.0
 11
-87.21251509622602
 21
31.77500000007396
 31
0.0
  0
LINE
  5
16CD
330
13CB
100
AcDbEntity
  8
SK2
370
    -2
100
AcDbLine
 10
0.9503123109999762
 20
-31.77499999992619
 30
0.0
 11
-87.21251509622602
 21
-31.77499999992617
 31
0.0
  0
LINE
  5
16CE
330
13CB
100
AcDbEntity
  8
SK2
370
    -2
100
AcDbLine
 10
-85.21251509622601
 20
28.27500000007395
 30
0.0
 11
-85.21251509622601
 21
-28.27499999992618
 31
0.0
  0
SOLID
  5
16CF
330
13CB
100
AcDbEntity
  8
SK2
100
AcDbTrace
 10
-85.79584842955934
 20
28.27500000007395
 30
0.0
 11
-84.62918176289269
 21
28.27500000007395
 31
0.0
 12
-85.21251509622601
 22
31.77500000007396
 32
0.0
 13
-85.21251509622601
 23
31.77500000007396
 33
0.0
  0
SOLID
  5
16D0
330
13CB
100
AcDbEntity
  8
SK2
100
AcDbTrace
 10
-85.79584842955934
 20
-28.27499999992618
 30
0.0
 11
-84.62918176289269
 21
-28.27499999992618
 31
0.0
 12
-85.21251509622601
 22
-31.77499999992618
 32
0.0
 13
-85.21251509622601
 23
-31.77499999992618
 33
0.0
  0
MTEXT
  5
16D1
330
13CB
100
AcDbEntity
  8
SK2
100
AcDbMText
 10
-87.58751509622602
 20
-0.5004464639515048
 30
0.0
 40
3.5
 41
0.0
 71
     5
 72
     1
  1
%%c63.55
 11
0.0000000000000001
 21
1.0
 31
0.0
 73
     1
 44
1.0
1001
ACAD
1000
MTEXTBEGIN
1070
    73
1070
     1
1070
    44
1040
1.0
1070
    74
1070
     0
1000
MTEXTEND
  0
POINT
  5
16D2
330
13CB
100
AcDbEntity
  8
DEFPOINTS
 62
     0
100
AcDbPoint
 10
1.865593088499963
 20
31.77500000007393
 30
0.0
  0
POINT
  5
16D3
330
13CB
100
AcDbEntity
  8
DEFPOINTS
 62
     0
100
AcDbPoint
 10
1.575312310999976
 20
-31.77499999992619
 30
0.0
  0
POINT
  5
16D4
330
13CB
100
AcDbEntity
  8
DEFPOINTS
 62
     0
100
AcDbPoint
 10
-85.21251509622601
 20
-31.77499999992618
 30
0.0
  0
ENDBLK
  5
13D6
330
13CB
100
AcDbEntity
  8
0
100
AcDbBlockEnd
  0
BLOCK
  5
13E1
330
13D7
100
AcDbEntity
  8
0
100
AcDbBlockBegin
  2
*D10
 70
     1
 10
0.0
 20
0.0
 30
0.0
  3
*D10
  1

  0
LINE
  5
1702
330
13D7
100
AcDbEntity
  8
SK2
370
    -2
100
AcDbLine
 10
20.22499999999999
 20
25.00000000007393
 30
0.0
 11
38.8516467703685
 21
25.00000000007392
 31
0.0
  0
LINE
  5
1703
330
13D7
100
AcDbEntity
  8
SK2
370
    -2
100
AcDbLine
 10
20.22499999999999
 20
-24.99999999992608
 30
0.0
 11
38.85164677036848
 21
-24.99999999992608
 31
0.0
  0
LINE
  5
1704
330
13D7
100
AcDbEntity
  8
SK2
370
    -2
100
AcDbLine
 10
36.8516467703685
 20
21.50000000007392
 30
0.0
 11
36.85164677036848
 21
-21.49999999992608
 31
0.0
  0
SOLID
  5
1705
330
13D7
100
AcDbEntity
  8
SK2
100
AcDbTrace
 10
36.26831343703516
 20
21.50000000007392
 30
0.0
 11
37.43498010370184
 21
21.50000000007392
 31
0.0
 12
36.8516467703685
 22
25.00000000007392
 32
0.0
 13
36.8516467703685
 23
25.00000000007392
 33
0.0
  0
SOLID
  5
1706
330
13D7
100
AcDbEntity
  8
SK2
100
AcDbTrace
 10
36.26831343703515
 20
-21.49999999992608
 30
0.0
 11
37.43498010370182
 21
-21.49999999992608
 31
0.0
 12
36.85164677036848
 22
-24.99999999992608
 32
0.0
 13
36.85164677036848
 23
-24.99999999992608
 33
0.0
  0
MTEXT
  5
1707
330
13D7
100
AcDbEntity
  8
SK2
100
AcDbMText
 10
34.47664677036849
 20
-6.302192564526108
 30
0.0
 40
3.5
 41
0.0
 71
     5
 72
     1
  1
%%c50
 11
0.0000000000000001
 21
1.0
 31
0.0
 73
     1
 44
1.0
1001
ACAD
1000
MTEXTBEGIN
1070
    73
1070
     1
1070
    44
1040
1.0
1070
    74
1070
     0
1000
MTEXTEND
  0
POINT
  5
1708
330
13D7
100
AcDbEntity
  8
DEFPOINTS
 62
     0
100
AcDbPoint
 10
19.59999999999999
 20
25.00000000007393
 30
0.0
  0
POINT
  5
1709
330
13D7
100
AcDbEntity
  8
DEFPOINTS
 62
     0
100
AcDbPoint
 10
19.59999999999999
 20
-24.99999999992608
 30
0.0
  0
POINT
  5
170A
330
13D7
100
AcDbEntity
  8
DEFPOINTS
 62
     0
100
AcDbPoint
 10
36.85164677036848
 20
-24.99999999992608
 30
0.0
  0
ENDBLK
  5
13E2
330
13D7
100
AcDbEntity
  8
0
100
AcDbBlockEnd
  0
ENDSEC
  0
SECTION
  2
ENTITIES
  0
DIMENSION
  5
5F0
330
22
100
AcDbEntity
  8
SK2
100
AcDbDimension
  2
*D5
 10
102.0
 20
55.46660886446898
 30
0.0
 11
111.6877769140999
 21
55.46660886446898
 31
0.0
 70
   160
 71
     5
 42
19.0
  3
ISO-25
100
AcDbAlignedDimension
 13
121.0
 23
11.76036497138909
 33
0.0
 14
102.0
 24
21.89371064769699
 34
0.0
 50
180.0
100
AcDbRotatedDimension
  0
DIMENSION
  5
5F1
330
22
100
AcDbEntity
  8
SK2
100
AcDbDimension
  2
*D9
 10
-85.21251509622601
 20
-31.77499999992618
 30
0.0
 11
-85.21251509622601
 21
-0.500446463951505
 31
0.0
 70
   160
  1
%%c<>
 71
     5
 42
63.55000000000012
  3
ISO-25
100
AcDbAlignedDimension
 13
1.865593088499963
 23
31.77500000007393
 33
0.0
 14
1.575312310999976
 24
-31.77499999992619
 34
0.0
 50
270.0
100
AcDbRotatedDimension
  0
DIMENSION
  5
5F2
330
22
100
AcDbEntity
  8
2
100
AcDbDimension
  2
*D7
 10
19.09999999999999
 20
47.7027613079278
 30
0.0
 11
9.710944734032892
 21
47.7027613079278
 31
0.0
 70
   160
 71
     5
 42
19.09999999999999
  3
ISO-25
100
AcDbAlignedDimension
 13
0.0
 23
-1.311161073285973
 33
0.0
 14
19.09999999999999
 24
32.1808611437865
 34
0.0
100
AcDbRotatedDimension
  0
DIMENSION
  5
5F3
330
22
100
AcDbEntity
  8
SK2
100
AcDbDimension
  2
*D8
 10
-76.84633483899443
 20
-22.22499999992605
 30
0.0
 11
-76.84633483899443
 21
-0.6382941315260667
 31
0.0
 70
   160
  1
%%c<>
 71
     5
 42
44.44999999999999
  3
ISO-25
100
AcDbAlignedDimension
 13
-0.5
 23
22.22500000007392
 33
0.0
 14
-0.5
 24
-22.22499999992607
 34
0.0
 50
270.0
100
AcDbRotatedDimension
  0
DIMENSION
  5
5F4
330
22
100
AcDbEntity
  8
SK2
100
AcDbDimension
  2
*D6
 10
-68.39999999999999
 20
47.7027613079278
 30
0.0
 11
-43.20979657556921
 21
47.7027613079278
 31
0.0
 70
   160
 71
     5
 42
68.39999999999999
  3
ISO-25
100
AcDbAlignedDimension
 13
0.0
 23
25.62848774366722
 33
0.0
 14
-68.39999999999999
 24
-12.74651913812607
 34
0.0
 50
180.0
100
AcDbRotatedDimension
  0
DIMENSION
  5
5F5
330
22
100
AcDbEntity
  8
2
100
AcDbDimension
  2
*D4
 10
0.0000000000000019
 20
55.46660886446898
 30
0.0
 11
45.03803650369929
 21
55.46660886446898
 31
0.0
 70
   160
 71
     5
 42
102.0
  3
ISO-25
100
AcDbAlignedDimension
 13
102.0
 23
22.51871064769699
 33
0.0
 14
0.0
 24
23.71585120729333
 34
0.0
 50
180.0
100
AcDbRotatedDimension
  0
DIMENSION
  5
5F6
330
22
100
AcDbEntity
  8
SK2
100
AcDbDimension
  2
*D3
 10
134.9538679514673
 20
-10.99999999992619
 30
0.0
 11
134.9538679514673
 21
-1.116410291031684
 31
0.0
 70
   160
  1
%%c<>
 71
     5
 42
22.00000000000011
  3
ISO-25
100
AcDbAlignedDimension
 13
118.5
 23
11.00000000007392
 33
0.0
 14
118.5
 24
-10.99999999992619
 34
0.0
 50
270.0
100
AcDbRotatedDimension
  0
DIMENSION
  5
5F7
330
22
100
AcDbEntity
  8
SK2
100
AcDbDimension
  2
*D10
 10
36.85164677036848
 20
-24.99999999992608
 30
0.0
 11
36.85164677036849
 21
-6.302192564526109
 31
0.0
 70
   160
  1
%%c<>
 71
     5
 42
50.0
  3
ISO-25
100
AcDbAlignedDimension
 13
19.59999999999999
 23
25.00000000007393
 33
0.0
 14
19.59999999999999
 24
-24.99999999992608
 34
0.0
 50
270.0
100
AcDbRotatedDimension
  0
DIMENSION
  5
5F8
330
22
100
AcDbEntity
  8
SK2
100
AcDbDimension
  2
*D2
 10
146.2345021679744
 20
-19.9999999999262
 30
0.0
 11
146.2345021679744
 21
-0.3747867924261925
 31
0.0
 70
   160
  1
%%c<>
 71
     5
 42
40.00000000000011
  3
ISO-25
100
AcDbAlignedDimension
 13
102.5
 23
20.00000000007393
 33
0.0
 14
102.5
 24
-19.99999999992619
 34
0.0
 50
270.0
100
AcDbRotatedDimension
  0
TEXT
  5
5F9
330
22
100
AcDbEntity
  8
6
100
AcDbText
 10
47.46343272646113
 20
-40.18106028740689
 30
0.0
 40
5.0
  1
69871A40SM22SK102
 41
1.199999999999999
 72
     1
 11
84.38956532424317
 21
-40.18106028740689
 31
0.0
100
AcDbText
  0
TEXT
  5
5FB
330
22
100
AcDbEntity
  8
6
100
AcDbText
 10
-42.14511502999193
 20
-13.46181629080979
 30
0.0
 40
3.5
  1
DIN 69871-A40
 41
1.199999999999999
100
AcDbText
  0
LINE
  5
5FC
330
22
100
AcDbEntity
  8
SK1
100
AcDbLine
 10
121.0
 20
9.370000000073929
 30
0.0
 11
121.0
 21
-9.369999999926193
 31
0.0
  0
LINE
  5
5FD
330
22
100
AcDbEntity
  8
SK1
100
AcDbLine
 10
118.0
 20
-10.99999999992619
 30
0.0
 11
118.0
 21
11.00000000007392
 31
0.0
  0
LINE
  5
5FE
330
22
100
AcDbEntity
  8
SK3
100
AcDbLine
 10
116.5
 20
-5.249999999926188
 30
0.0
 11
116.5
 21
5.250000000073924
 31
0.0
  0
LINE
  5
5FF
330
22
100
AcDbEntity
  8
SK1
100
AcDbLine
 10
107.0
 20
12.00000000007392
 30
0.0
 11
107.0
 21
19.00000000007381
 31
0.0
  0
LINE
  5
600
330
22
100
AcDbEntity
  8
SK1
100
AcDbLine
 10
107.0
 20
-11.99999999992619
 30
0.0
 11
107.0
 21
-18.99999999992619
 31
0.0
  0
LINE
  5
601
330
22
100
AcDbEntity
  8
SK1
100
AcDbLine
 10
106.5
 20
12.00000000007392
 30
0.0
 11
106.5
 21
19.00000000007381
 31
0.0
  0
LINE
  5
602
330
22
100
AcDbEntity
  8
SK1
100
AcDbLine
 10
106.5
 20
-11.99999999992619
 30
0.0
 11
106.5
 21
-18.99999999992619
 31
0.0
  0
LINE
  5
603
330
22
100
AcDbEntity
  8
SK3
100
AcDbLine
 10
101.8058391586999
 20
-11.38350386052607
 30
0.0
 11
101.8
 21
-11.2999999999262
 31
0.0
  0
LINE
  5
604
330
22
100
AcDbEntity
  8
SK1
100
AcDbLine
 10
104.5
 20
-10.99999999992619
 30
0.0
 11
104.5
 21
11.00000000007392
 31
0.0
  0
LINE
  5
605
330
22
100
AcDbEntity
  8
1
100
AcDbLine
 10
102.0
 20
18.78092192637391
 30
0.0
 11
102.0
 21
-18.78092192612618
 31
0.0
  0
LINE
  5
606
330
22
100
AcDbEntity
  8
SK3
100
AcDbLine
 10
101.8
 20
-11.2999999999262
 30
0.0
 11
101.8
 21
11.30000000007393
 31
0.0
  0
LINE
  5
607
330
22
100
AcDbEntity
  8
SK3
100
AcDbLine
 10
101.8058391586999
 20
11.3835038606739
 30
0.0
 11
101.8
 21
11.30000000007393
 31
0.0
  0
LINE
  5
608
330
22
100
AcDbEntity
  8
SK3
100
AcDbLine
 10
101.8222116234
 20
11.50000000007392
 30
0.0
 11
101.8058391586999
 21
11.3835038606739
 31
0.0
  0
LINE
  5
609
330
22
100
AcDbEntity
  8
SK3
100
AcDbLine
 10
101.8222116234
 20
-11.49999999992619
 30
0.0
 11
101.8058391586999
 21
-11.38350386052607
 31
0.0
  0
LINE
  5
60A
330
22
100
AcDbEntity
  8
SK3
100
AcDbLine
 10
94.50000000000001
 20
-4.999999999926188
 30
0.0
 11
94.50000000000001
 21
5.000000000073924
 31
0.0
  0
LINE
  5
60B
330
22
100
AcDbEntity
  8
SK3
100
AcDbLine
 10
94.0
 20
14.90000000007393
 30
0.0
 11
94.0
 21
19.50000000007392
 31
0.0
  0
LINE
  5
60C
330
22
100
AcDbEntity
  8
SK3
100
AcDbLine
 10
94.0
 20
-14.89999999992608
 30
0.0
 11
94.0
 21
-19.49999999992607
 31
0.0
  0
LINE
  5
60D
330
22
100
AcDbEntity
  8
SK3
100
AcDbLine
 10
92.24999999999999
 20
11.50000000007392
 30
0.0
 11
92.24999999999999
 21
14.90000000007393
 31
0.0
  0
LINE
  5
60E
330
22
100
AcDbEntity
  8
SK3
100
AcDbLine
 10
92.24999999999999
 20
-11.49999999992607
 30
0.0
 11
92.24999999999999
 21
-14.89999999992608
 31
0.0
  0
LINE
  5
60F
330
22
100
AcDbEntity
  8
SK3
100
AcDbLine
 10
92.0
 20
11.25000000007392
 30
0.0
 11
92.0
 21
2.800000000073936
 31
0.0
  0
LINE
  5
610
330
22
100
AcDbEntity
  8
SK3
100
AcDbLine
 10
92.0
 20
-2.799999999926086
 30
0.0
 11
92.0
 21
-11.24999999992607
 31
0.0
  0
LINE
  5
611
330
22
100
AcDbEntity
  8
SK1
100
AcDbLine
 10
106.5
 20
-19.49999999992619
 30
0.0
 11
107.0
 21
-18.99999999992619
 31
0.0
  0
LINE
  5
612
330
22
100
AcDbEntity
  8
SK1
100
AcDbLine
 10
106.5
 20
19.50000000007392
 30
0.0
 11
107.0
 21
19.00000000007381
 31
0.0
  0
LINE
  5
613
330
22
100
AcDbEntity
  8
SK3
100
AcDbLine
 10
91.64999999999997
 20
10.90000000007393
 30
0.0
 11
91.64999999999997
 21
3.750000000073924
 31
0.0
  0
LINE
  5
614
330
22
100
AcDbEntity
  8
SK3
100
AcDbLine
 10
91.64999999999997
 20
-3.749999999926075
 30
0.0
 11
91.64999999999997
 21
-10.89999999992608
 31
0.0
  0
LINE
  5
615
330
22
100
AcDbEntity
  8
SK4
100
AcDbLine
 10
90.0
 20
-23.25961377507758
 30
0.0
 11
90.0
 21
-0.367491648026089
 31
0.0
  0
LINE
  5
616
330
22
100
AcDbEntity
  8
SK4
100
AcDbLine
 10
90.0
 20
2.029492531073913
 30
0.0
 11
90.0
 21
22.90928373227359
 31
0.0
  0
LINE
  5
617
330
22
100
AcDbEntity
  8
SK3
100
AcDbLine
 10
88.34999999999999
 20
10.90000000007393
 30
0.0
 11
88.34999999999999
 21
3.750000000073924
 31
0.0
  0
LINE
  5
618
330
22
100
AcDbEntity
  8
SK3
100
AcDbLine
 10
88.34999999999999
 20
-3.749999999926075
 30
0.0
 11
88.34999999999999
 21
-10.89999999992608
 31
0.0
  0
LINE
  5
619
330
22
100
AcDbEntity
  8
SK3
100
AcDbLine
 10
88.0
 20
11.25000000007392
 30
0.0
 11
88.0
 21
2.800000000073936
 31
0.0
  0
LINE
  5
61A
330
22
100
AcDbEntity
  8
SK3
100
AcDbLine
 10
88.0
 20
-2.799999999926086
 30
0.0
 11
88.0
 21
-11.24999999992607
 31
0.0
  0
LINE
  5
61B
330
22
100
AcDbEntity
  8
SK3
100
AcDbLine
 10
87.75
 20
11.50000000007392
 30
0.0
 11
87.75
 21
14.90000000007393
 31
0.0
  0
LINE
  5
61C
330
22
100
AcDbEntity
  8
SK3
100
AcDbLine
 10
87.75
 20
-11.49999999992607
 30
0.0
 11
87.75
 21
-14.89999999992608
 31
0.0
  0
LINE
  5
61D
330
22
100
AcDbEntity
  8
SK3
100
AcDbLine
 10
87.0
 20
-3.749999999926075
 30
0.0
 11
87.0
 21
3.750000000073924
 31
0.0
  0
LINE
  5
61E
330
22
100
AcDbEntity
  8
SK3
100
AcDbLine
 10
86.0
 20
14.90000000007393
 30
0.0
 11
86.0
 21
19.50000000007392
 31
0.0
  0
LINE
  5
61F
330
22
100
AcDbEntity
  8
SK3
100
AcDbLine
 10
86.0
 20
-14.89999999992608
 30
0.0
 11
86.0
 21
-19.49999999992607
 31
0.0
  0
LINE
  5
620
330
22
100
AcDbEntity
  8
SK1
100
AcDbLine
 10
106.5
 20
-11.99999999992619
 30
0.0
 11
106.75
 21
-11.74999999992619
 31
0.0
  0
LINE
  5
621
330
22
100
AcDbEntity
  8
SK1
100
AcDbLine
 10
106.75
 20
11.75000000007392
 30
0.0
 11
106.5
 21
12.00000000007392
 31
0.0
  0
LINE
  5
622
330
22
100
AcDbEntity
  8
SK3
100
AcDbLine
 10
80.5
 20
12.00000000007392
 30
0.0
 11
80.5
 21
19.00000000007392
 31
0.0
  0
LINE
  5
623
330
22
100
AcDbEntity
  8
SK3
100
AcDbLine
 10
80.5
 20
21.29674306397391
 30
0.0
 11
80.5
 21
11.80000000007393
 31
0.0
  0
LINE
  5
624
330
22
100
AcDbEntity
  8
SK3
100
AcDbLine
 10
80.5
 20
-11.99999999992607
 30
0.0
 11
80.5
 21
-18.99999999992607
 31
0.0
  0
LINE
  5
625
330
22
100
AcDbEntity
  8
SK3
100
AcDbLine
 10
80.5
 20
-11.7999999999262
 30
0.0
 11
80.5
 21
-21.29674306382611
 31
0.0
  0
LINE
  5
626
330
22
100
AcDbEntity
  8
SK3
100
AcDbLine
 10
87.0
 20
3.750000000073924
 30
0.0
 11
84.7467726786
 21
0.0000000000739249
 31
0.0
  0
LINE
  5
627
330
22
100
AcDbEntity
  8
SK3
100
AcDbLine
 10
88.34999999999999
 20
-10.89999999992608
 30
0.0
 11
87.75
 21
-11.49999999992607
 31
0.0
  0
LINE
  5
628
330
22
100
AcDbEntity
  8
SK1
100
AcDbLine
 10
106.5
 20
11.50000000007392
 30
0.0
 11
107.0
 21
12.00000000007392
 31
0.0
  0
LINE
  5
629
330
22
100
AcDbEntity
  8
SK3
100
AcDbLine
 10
81.0
 20
-11.49999999992607
 30
0.0
 11
80.5
 21
-11.99999999992607
 31
0.0
  0
LINE
  5
62A
330
22
100
AcDbEntity
  8
SK3
100
AcDbLine
 10
87.75
 20
11.50000000007392
 30
0.0
 11
88.34999999999999
 21
10.90000000007393
 31
0.0
  0
LINE
  5
62B
330
22
100
AcDbEntity
  8
SK1
100
AcDbLine
 10
106.5
 20
-11.49999999992619
 30
0.0
 11
107.0
 21
-11.99999999992619
 31
0.0
  0
LINE
  5
62C
330
22
100
AcDbEntity
  8
SK3
100
AcDbLine
 10
81.0
 20
11.50000000007392
 30
0.0
 11
80.5
 21
12.00000000007392
 31
0.0
  0
LINE
  5
62D
330
22
100
AcDbEntity
  8
SK3
100
AcDbLine
 10
87.0
 20
-3.749999999926075
 30
0.0
 11
84.7467726786
 21
0.0000000000739249
 31
0.0
  0
LINE
  5
62E
330
22
100
AcDbEntity
  8
SK1
100
AcDbLine
 10
106.75
 20
19.25000000007392
 30
0.0
 11
106.5
 21
19.00000000007381
 31
0.0
  0
LINE
  5
62F
330
22
100
AcDbEntity
  8
SK1
100
AcDbLine
 10
106.5
 20
-18.99999999992619
 30
0.0
 11
106.75
 21
-19.24999999992619
 31
0.0
  0
LINE
  5
630
330
22
100
AcDbEntity
  8
SK3
100
AcDbLine
 10
92.24999999999999
 20
11.50000000007392
 30
0.0
 11
91.64999999999997
 21
10.90000000007393
 31
0.0
  0
LINE
  5
631
330
22
100
AcDbEntity
  8
SK3
100
AcDbLine
 10
91.64999999999997
 20
-10.89999999992608
 30
0.0
 11
92.24999999999999
 21
-11.49999999992607
 31
0.0
  0
LINE
  5
632
330
22
100
AcDbEntity
  8
1
100
AcDbLine
 10
-0.8000000000000113
 20
22.10829262157389
 30
0.0
 11
-67.37322744119994
 21
12.3963090553739
 31
0.0
  0
LINE
  5
633
330
22
100
AcDbEntity
  8
1
100
AcDbLine
 10
17.5
 20
31.77500000007393
 30
0.0
 11
14.3475
 21
31.77500000007393
 31
0.0
  0
LINE
  5
634
330
22
100
AcDbEntity
  8
1
100
AcDbLine
 10
7.852499999999992
 20
31.77500000007393
 30
0.0
 11
4.799999999999982
 21
31.77500000007393
 31
0.0
  0
LINE
  5
635
330
22
100
AcDbEntity
  8
1
100
AcDbLine
 10
9.724999999999994
 20
28.12500000007393
 30
0.0
 11
12.47499999999999
 21
28.12500000007393
 31
0.0
  0
LINE
  5
636
330
22
100
AcDbEntity
  8
SK3
100
AcDbLine
 10
17.50000000199998
 20
25.83409810707389
 30
0.0
 11
14.3475
 21
25.83409810707389
 31
0.0
  0
LINE
  5
637
330
22
100
AcDbEntity
  8
SK3
100
AcDbLine
 10
7.852499999999992
 20
25.83409810707389
 30
0.0
 11
4.800000001499995
 21
25.83409810707389
 31
0.0
  0
LINE
  5
638
330
22
100
AcDbEntity
  8
SK3
100
AcDbLine
 10
80.5
 20
19.00000000007392
 30
0.0
 11
81.0
 21
19.50000000007392
 31
0.0
  0
LINE
  5
639
330
22
100
AcDbEntity
  8
1
100
AcDbLine
 10
0.3196152421999727
 20
21.80829262157391
 30
0.0
 11
2.409731931199985
 21
21.80829262157391
 31
0.0
  0
LINE
  5
63A
330
22
100
AcDbEntity
  8
SK3
100
AcDbLine
 10
9.724999999999994
 20
21.18408895857391
 30
0.0
 11
12.47499999999999
 21
21.18408895857391
 31
0.0
  0
LINE
  5
63B
330
22
100
AcDbEntity
  8
SK3
100
AcDbLine
 10
81.00012265679998
 20
19.50000000007392
 30
0.0
 11
99.83079908299998
 21
19.50000000007392
 31
0.0
  0
LINE
  5
63C
330
22
100
AcDbEntity
  8
SK1
100
AcDbLine
 10
99.83079908299998
 20
19.50000000007392
 30
0.0
 11
106.5
 21
19.50000000007392
 31
0.0
  0
LINE
  5
63D
330
22
100
AcDbEntity
  8
1
100
AcDbLine
 10
80.5
 20
21.29674306397391
 30
0.0
 11
20.03979577319999
 21
24.94331750467393
 31
0.0
  0
LINE
  5
63E
330
22
100
AcDbEntity
  8
SK3
100
AcDbLine
 10
80.5
 20
-18.99999999992607
 30
0.0
 11
81.0
 21
-19.49999999992607
 31
0.0
  0
LINE
  5
63F
330
22
100
AcDbEntity
  8
SK1
100
AcDbLine
 10
101.9603067467
 20
19.00000000007381
 30
0.0
 11
106.5
 21
19.00000000007381
 31
0.0
  0
LINE
  5
640
330
22
100
AcDbEntity
  8
SK3
100
AcDbLine
 10
101.9603067467
 20
19.00000000007381
 30
0.0
 11
80.5
 21
19.00000000007392
 31
0.0
  0
LINE
  5
641
330
22
100
AcDbEntity
  8
SK3
100
AcDbLine
 10
19.09999999999999
 20
18.50000000007392
 30
0.0
 11
3.199999999999988
 21
18.50000000007392
 31
0.0
  0
LINE
  5
642
330
22
100
AcDbEntity
  8
SK3
100
AcDbLine
 10
94.0
 20
14.90000000007393
 30
0.0
 11
86.0
 21
14.90000000007393
 31
0.0
  0
LINE
  5
643
330
22
100
AcDbEntity
  8
1
100
AcDbLine
 10
-0.8000000000000113
 20
22.10829262157389
 30
0.0
 11
0.3196152421999727
 21
21.80829262157391
 31
0.0
  0
LINE
  5
644
330
22
100
AcDbEntity
  8
SK1
100
AcDbLine
 10
102.0
 20
12.00000000007392
 30
0.0
 11
106.5
 21
12.00000000007392
 31
0.0
  0
LINE
  5
645
330
22
100
AcDbEntity
  8
SK3
100
AcDbLine
 10
102.0
 20
12.00000000007392
 30
0.0
 11
80.5
 21
12.00000000007392
 31
0.0
  0
LINE
  5
646
330
22
100
AcDbEntity
  8
SK3
100
AcDbLine
 10
80.83426829189997
 20
11.50000000007392
 30
0.0
 11
101.951982123
 21
11.50000000007392
 31
0.0
  0
LINE
  5
647
330
22
100
AcDbEntity
  8
SK3
100
AcDbLine
 10
81.00012265679998
 20
11.50000000007392
 30
0.0
 11
102.0
 21
11.50000000007392
 31
0.0
  0
LINE
  5
648
330
22
100
AcDbEntity
  8
SK1
100
AcDbLine
 10
102.0
 20
11.50000000007392
 30
0.0
 11
106.5
 21
11.50000000007392
 31
0.0
  0
LINE
  5
649
330
22
100
AcDbEntity
  8
SK3
100
AcDbLine
 10
88.0
 20
11.25000000007392
 30
0.0
 11
92.0
 21
11.25000000007392
 31
0.0
  0
LINE
  5
64A
330
22
100
AcDbEntity
  8
SK1
100
AcDbLine
 10
118.0
 20
11.00000000007392
 30
0.0
 11
104.5
 21
11.00000000007392
 31
0.0
  0
LINE
  5
64B
330
22
100
AcDbEntity
  8
SK1
100
AcDbLine
 10
119.4000000000001
 20
10.97000000007392
 30
0.0
 11
118.0
 21
10.97000000007392
 31
0.0
  0
LINE
  5
64C
330
22
100
AcDbEntity
  8
SK3
100
AcDbLine
 10
88.34999999999999
 20
10.90000000007393
 30
0.0
 11
91.64999999999997
 21
10.90000000007393
 31
0.0
  0
LINE
  5
64D
330
22
100
AcDbEntity
  8
SK1
100
AcDbLine
 10
103.3013932591
 20
10.70000000007391
 30
0.0
 11
102.4
 21
10.70000000007391
 31
0.0
  0
LINE
  5
64E
330
22
100
AcDbEntity
  8
SK3
100
AcDbLine
 10
-60.19999999999999
 20
8.500000000073924
 30
0.0
 11
-67.39999999999998
 21
8.500000000073924
 31
0.0
  0
LINE
  5
64F
330
22
100
AcDbEntity
  8
1
100
AcDbLine
 10
19.13120822499999
 20
8.050000000073936
 30
0.0
 11
3.199999999999988
 21
8.050000000073936
 31
0.0
  0
LINE
  5
650
330
22
100
AcDbEntity
  8
SK3
100
AcDbLine
 10
-36.2
 20
8.000000000073924
 30
0.0
 11
-60.19999999999999
 21
8.000000000073924
 31
0.0
  0
LINE
  5
651
330
22
100
AcDbEntity
  8
SK3
100
AcDbLine
 10
-25.40000000000001
 20
6.920000000073912
 30
0.0
 11
-60.19999999999999
 21
6.920000000073912
 31
0.0
  0
LINE
  5
652
330
22
100
AcDbEntity
  8
SK1
100
AcDbLine
 10
104.5
 20
-10.99999999992619
 30
0.0
 11
103.4566846862
 21
-10.7204445041261
 31
0.0
  0
LINE
  5
653
330
22
100
AcDbEntity
  8
1
100
AcDbLine
 10
7.852499999999992
 20
-31.77499999992619
 30
0.0
 11
9.224999999999994
 21
-29.39776026652607
 31
0.0
  0
LINE
  5
654
330
22
100
AcDbEntity
  8
SK1
100
AcDbLine
 10
103.3013932591
 20
10.70000000007391
 30
0.0
 11
103.4566846862
 21
10.7204445042739
 31
0.0
  0
LINE
  5
655
330
22
100
AcDbEntity
  8
SK3
100
AcDbLine
 10
120.0
 20
5.250000000073924
 30
0.0
 11
116.5
 21
5.250000000073924
 31
0.0
  0
LINE
  5
656
330
22
100
AcDbEntity
  8
SK3
100
AcDbLine
 10
94.50000000000001
 20
5.000000000073924
 30
0.0
 11
116.5
 21
5.000000000073924
 31
0.0
  0
LINE
  5
657
330
22
100
AcDbEntity
  8
SK3
100
AcDbLine
 10
116.5
 20
3.750000000073924
 30
0.0
 11
91.64999999999997
 21
3.750000000073924
 31
0.0
  0
LINE
  5
658
330
22
100
AcDbEntity
  8
SK3
100
AcDbLine
 10
88.34999999999999
 20
3.750000000073924
 30
0.0
 11
87.0
 21
3.750000000073924
 31
0.0
  0
LINE
  5
659
330
22
100
AcDbEntity
  8
SK3
100
AcDbLine
 10
88.0
 20
2.799999952373923
 30
0.0
 11
92.0
 21
2.799999952373923
 31
0.0
  0
LINE
  5
65A
330
22
100
AcDbEntity
  8
4
100
AcDbLine
 10
126.0683079084387
 20
0.0000000000738112
 30
0.0
 11
-74.84403414344505
 21
0.0000000000739249
 31
0.0
  0
LINE
  5
65B
330
22
100
AcDbEntity
  8
SK1
100
AcDbLine
 10
103.3013932591
 20
-10.69999999992617
 30
0.0
 11
103.4566846862
 21
-10.7204445041261
 31
0.0
  0
LINE
  5
65C
330
22
100
AcDbEntity
  8
1
100
AcDbLine
 10
7.852499999999992
 20
31.77500000007393
 30
0.0
 11
9.224999999999994
 21
29.39776026667392
 31
0.0
  0
LINE
  5
65D
330
22
100
AcDbEntity
  8
1
100
AcDbLine
 10
19.09999999999999
 20
8.050000000073936
 30
0.0
 11
19.09999999999999
 21
30.17470721757394
 31
0.0
  0
LINE
  5
660
330
22
100
AcDbEntity
  8
1
100
AcDbLine
 10
19.09999999999999
 20
-8.0499999999262
 30
0.0
 11
19.09999999999999
 21
-30.17499997132612
 31
0.0
  0
LINE
  5
661
330
22
100
AcDbEntity
  8
SK3
100
AcDbLine
 10
88.0
 20
-2.799999952226102
 30
0.0
 11
92.0
 21
-2.799999952226102
 31
0.0
  0
LINE
  5
662
330
22
100
AcDbEntity
  8
SK3
100
AcDbLine
 10
116.5
 20
-3.749999999926188
 30
0.0
 11
91.64999999999997
 21
-3.749999999926075
 31
0.0
  0
LINE
  5
663
330
22
100
AcDbEntity
  8
SK3
100
AcDbLine
 10
88.34999999999999
 20
-3.749999999926075
 30
0.0
 11
87.0
 21
-3.749999999926075
 31
0.0
  0
LINE
  5
664
330
22
100
AcDbEntity
  8
SK3
100
AcDbLine
 10
94.50000000000001
 20
-4.999999999926188
 30
0.0
 11
116.5
 21
-4.999999999926188
 31
0.0
  0
LINE
  5
665
330
22
100
AcDbEntity
  8
SK3
100
AcDbLine
 10
120.0
 20
-5.249999999926188
 30
0.0
 11
116.5
 21
-5.249999999926188
 31
0.0
  0
LINE
  5
666
330
22
100
AcDbEntity
  8
SK3
100
AcDbLine
 10
-25.40000000000001
 20
-6.919999999926062
 30
0.0
 11
-60.19999999999999
 21
-6.919999999926062
 31
0.0
  0
LINE
  5
667
330
22
100
AcDbEntity
  8
1
100
AcDbLine
 10
14.3475
 20
31.77500000007393
 30
0.0
 11
14.3475
 21
8.050000000073936
 31
0.0
  0
LINE
  5
668
330
22
100
AcDbEntity
  8
1
100
AcDbLine
 10
14.3475
 20
-8.0499999999262
 30
0.0
 11
14.3475
 21
-31.77499999992619
 31
0.0
  0
LINE
  5
669
330
22
100
AcDbEntity
  8
1
100
AcDbLine
 10
12.97499999999999
 20
-29.39715231992608
 30
0.0
 11
12.97499999999999
 21
-8.0499999999262
 31
0.0
  0
LINE
  5
66A
330
22
100
AcDbEntity
  8
1
100
AcDbLine
 10
12.97499999999999
 20
8.050000000073936
 30
0.0
 11
12.97499999999999
 21
29.3976480176739
 31
0.0
  0
LINE
  5
66B
330
22
100
AcDbEntity
  8
SK1
100
AcDbLine
 10
104.5
 20
11.00000000007392
 30
0.0
 11
103.4566846862
 21
10.7204445042739
 31
0.0
  0
LINE
  5
66C
330
22
100
AcDbEntity
  8
SK3
100
AcDbLine
 10
-36.2
 20
-7.999999999926075
 30
0.0
 11
-60.19999999999999
 21
-7.999999999926075
 31
0.0
  0
LINE
  5
66D
330
22
100
AcDbEntity
  8
1
100
AcDbLine
 10
19.13120822499999
 20
-8.0499999999262
 30
0.0
 11
3.199999999999988
 21
-8.0499999999262
 31
0.0
  0
LINE
  5
66E
330
22
100
AcDbEntity
  8
SK3
100
AcDbLine
 10
-60.19999999999999
 20
-8.499999999926075
 30
0.0
 11
-67.39999999999998
 21
-8.499999999926075
 31
0.0
  0
LINE
  5
66F
330
22
100
AcDbEntity
  8
SK1
100
AcDbLine
 10
103.3013932591
 20
-10.69999999992617
 30
0.0
 11
102.4
 21
-10.69999999992617
 31
0.0
  0
LINE
  5
670
330
22
100
AcDbEntity
  8
SK3
100
AcDbLine
 10
88.34999999999999
 20
-10.89999999992608
 30
0.0
 11
91.64999999999997
 21
-10.89999999992608
 31
0.0
  0
LINE
  5
671
330
22
100
AcDbEntity
  8
SK1
100
AcDbLine
 10
119.4000000000001
 20
-10.96999999992618
 30
0.0
 11
118.0
 21
-10.96999999992618
 31
0.0
  0
LINE
  5
672
330
22
100
AcDbEntity
  8
SK1
100
AcDbLine
 10
118.0
 20
-10.99999999992619
 30
0.0
 11
104.5
 21
-10.99999999992619
 31
0.0
  0
LINE
  5
673
330
22
100
AcDbEntity
  8
SK3
100
AcDbLine
 10
88.0
 20
-11.24999999992607
 30
0.0
 11
92.0
 21
-11.24999999992607
 31
0.0
  0
LINE
  5
674
330
22
100
AcDbEntity
  8
SK3
100
AcDbLine
 10
80.83426829189997
 20
-11.49999999992607
 30
0.0
 11
101.951982123
 21
-11.49999999992619
 31
0.0
  0
LINE
  5
675
330
22
100
AcDbEntity
  8
SK1
100
AcDbLine
 10
106.5
 20
-11.49999999992619
 30
0.0
 11
102.0
 21
-11.49999999992619
 31
0.0
  0
LINE
  5
676
330
22
100
AcDbEntity
  8
SK3
100
AcDbLine
 10
102.0
 20
-11.49999999992619
 30
0.0
 11
81.00012265679998
 21
-11.49999999992607
 31
0.0
  0
LINE
  5
677
330
22
100
AcDbEntity
  8
SK3
100
AcDbLine
 10
80.5
 20
-11.99999999992607
 30
0.0
 11
102.0
 21
-11.99999999992619
 31
0.0
  0
LINE
  5
678
330
22
100
AcDbEntity
  8
SK1
100
AcDbLine
 10
106.5
 20
-11.99999999992619
 30
0.0
 11
102.0
 21
-11.99999999992619
 31
0.0
  0
LINE
  5
679
330
22
100
AcDbEntity
  8
1
100
AcDbLine
 10
9.224999999999994
 20
29.3976480176739
 30
0.0
 11
9.224999999999994
 21
8.050000000073936
 31
0.0
  0
LINE
  5
67A
330
22
100
AcDbEntity
  8
1
100
AcDbLine
 10
9.224999999999994
 20
-8.0499999999262
 30
0.0
 11
9.224999999999994
 21
-29.39715231992608
 31
0.0
  0
LINE
  5
67B
330
22
100
AcDbEntity
  8
1
100
AcDbLine
 10
7.852499999999992
 20
-31.77499999992619
 30
0.0
 11
7.852499999999992
 21
-8.0499999999262
 31
0.0
  0
LINE
  5
67C
330
22
100
AcDbEntity
  8
1
100
AcDbLine
 10
7.852499999999992
 20
8.050000000073936
 30
0.0
 11
7.852499999999992
 21
31.77500000007393
 31
0.0
  0
LINE
  5
67E
330
22
100
AcDbEntity
  8
1
100
AcDbLine
 10
-0.8000000000000113
 20
-22.1082926214261
 30
0.0
 11
0.3196152421999727
 21
-21.80829262142609
 31
0.0
  0
LINE
  5
67F
330
22
100
AcDbEntity
  8
SK3
100
AcDbLine
 10
94.0
 20
-14.89999999992608
 30
0.0
 11
86.0
 21
-14.89999999992608
 31
0.0
  0
LINE
  5
680
330
22
100
AcDbEntity
  8
SK3
100
AcDbLine
 10
80.5
 20
-18.99999999992607
 30
0.0
 11
101.9598528230999
 21
-18.99999999992619
 31
0.0
  0
LINE
  5
681
330
22
100
AcDbEntity
  8
SK1
100
AcDbLine
 10
106.5
 20
-18.99999999992619
 30
0.0
 11
101.9598528230999
 21
-18.99999999992619
 31
0.0
  0
LINE
  5
682
330
22
100
AcDbEntity
  8
SK1
100
AcDbLine
 10
106.5
 20
-19.49999999992619
 30
0.0
 11
99.83079902200001
 21
-19.49999999992619
 31
0.0
  0
LINE
  5
683
330
22
100
AcDbEntity
  8
SK3
100
AcDbLine
 10
99.83079902200001
 20
-19.49999999992619
 30
0.0
 11
81.00012265679998
 21
-19.49999999992607
 31
0.0
  0
LINE
  5
687
330
22
100
AcDbEntity
  8
1
100
AcDbLine
 10
3.199999999999988
 20
-30.17499997132612
 30
0.0
 11
3.199999999999988
 21
-7.495841385926098
 31
0.0
  0
LINE
  5
689
330
22
100
AcDbEntity
  8
1
100
AcDbLine
 10
3.199999999999988
 20
7.495841386073919
 30
0.0
 11
3.199999999999988
 21
30.1746607215739
 31
0.0
  0
LINE
  5
68A
330
22
100
AcDbEntity
  8
1
100
AcDbLine
 10
0.3196152421999727
 20
-21.80829262142609
 30
0.0
 11
0.3196152421999727
 21
21.80829262157391
 31
0.0
  0
LINE
  5
68C
330
22
100
AcDbEntity
  8
1
100
AcDbLine
 10
-0.8000000000000113
 20
-22.1082926214261
 30
0.0
 11
-0.8000000000000113
 21
22.10829262157389
 31
0.0
  0
LINE
  5
68E
330
22
100
AcDbEntity
  8
1
100
AcDbLine
 10
12.97499999999999
 20
29.39776026667392
 30
0.0
 11
14.3475
 21
31.77500000007393
 31
0.0
  0
LINE
  5
68F
330
22
100
AcDbEntity
  8
1
100
AcDbLine
 10
80.5
 20
-21.29674306382611
 30
0.0
 11
20.03979577319999
 21
-24.94331750452611
 31
0.0
  0
LINE
  5
690
330
22
100
AcDbEntity
  8
1
100
AcDbLine
 10
0.3196152421999727
 20
-21.80829262142609
 30
0.0
 11
2.409731931199985
 21
-21.80829262142609
 31
0.0
  0
LINE
  5
691
330
22
100
AcDbEntity
  8
1
100
AcDbLine
 10
-0.8000000000000113
 20
-22.1082926214261
 30
0.0
 11
-67.37322744119994
 21
-12.39630905522611
 31
0.0
  0
LINE
  5
692
330
22
100
AcDbEntity
  8
1
100
AcDbLine
 10
12.97499999999999
 20
-29.39776026652607
 30
0.0
 11
14.3475
 21
-31.77499999992619
 31
0.0
  0
LINE
  5
693
330
22
100
AcDbEntity
  8
1
100
AcDbLine
 10
9.724999999999994
 20
-28.12499999992608
 30
0.0
 11
12.47499999999999
 21
-28.12499999992608
 31
0.0
  0
LINE
  5
694
330
22
100
AcDbEntity
  8
1
100
AcDbLine
 10
17.5
 20
-31.77499999992619
 30
0.0
 11
14.3475
 21
-31.77499999992619
 31
0.0
  0
LINE
  5
695
330
22
100
AcDbEntity
  8
1
100
AcDbLine
 10
7.852499999999992
 20
-31.77499999992619
 30
0.0
 11
4.799999999999982
 21
-31.77499999992619
 31
0.0
  0
LINE
  5
696
330
22
100
AcDbEntity
  8
SK3
100
AcDbLine
 10
-21.40473613720002
 20
0.0000000000739249
 30
0.0
 11
-25.40000000000001
 21
-6.919999999926062
 31
0.0
  0
LINE
  5
697
330
22
100
AcDbEntity
  8
SK3
100
AcDbLine
 10
-21.40473613720002
 20
0.0000000000739249
 30
0.0
 11
-25.40000000000001
 21
6.920000000073912
 31
0.0
  0
LINE
  5
698
330
22
100
AcDbEntity
  8
SK3
100
AcDbLine
 10
-25.40000000000001
 20
-6.919999999926062
 30
0.0
 11
-25.40000000000001
 21
6.920000000073912
 31
0.0
  0
LINE
  5
699
330
22
100
AcDbEntity
  8
SK3
100
AcDbLine
 10
-36.20000076300002
 20
-7.999999999926075
 30
0.0
 11
-36.20000076300002
 21
8.000000000073924
 31
0.0
  0
LINE
  5
69A
330
22
100
AcDbEntity
  8
SK3
100
AcDbLine
 10
-60.19999999999999
 20
8.499323850773919
 30
0.0
 11
-60.19999999999999
 21
-8.499323850626069
 31
0.0
  0
LINE
  5
69B
330
22
100
AcDbEntity
  8
1
100
AcDbLine
 10
-68.39999999999999
 20
-11.20887810832619
 30
0.0
 11
-68.39999999999999
 21
11.20887810847392
 31
0.0
  0
ARC
  5
69C
330
22
100
AcDbEntity
  8
SK3
100
AcDbCircle
 10
80.79999999999998
 20
11.80000000007393
 30
0.0
 40
0.3
100
AcDbArc
 50
180.0
 51
270.0
  0
ARC
  5
69D
330
22
100
AcDbEntity
  8
SK3
100
AcDbCircle
 10
80.79999999999998
 20
-11.7999999999262
 30
0.0
 40
0.3
100
AcDbArc
 50
90.0
 51
180.0
  0
ARC
  5
69E
330
22
100
AcDbEntity
  8
SK3
100
AcDbCircle
 10
119.9999999999999
 20
-6.249999999926075
 30
0.0
 40
1.0
100
AcDbArc
 50
0.000000084900007
 51
90.0
  0
ARC
  5
69F
330
22
100
AcDbEntity
  8
SK3
100
AcDbCircle
 10
119.9999999999999
 20
6.250000000073924
 30
0.0
 40
1.0
100
AcDbArc
 50
270.0
 51
359.9999998265
  0
ARC
  5
6A0
330
22
100
AcDbEntity
  8
SK3
100
AcDbCircle
 10
-67.40000000000001
 20
9.500000000073924
 30
0.0
 40
1.0
100
AcDbArc
 50
180.0
 51
270.0
  0
ARC
  5
6A1
330
22
100
AcDbEntity
  8
SK3
100
AcDbCircle
 10
-67.40000000000001
 20
-9.499999999926075
 30
0.0
 40
1.0
100
AcDbArc
 50
90.0
 51
180.0
  0
ARC
  5
6A2
330
22
100
AcDbEntity
  8
SK3
100
AcDbCircle
 10
102.4
 20
-11.29999999992608
 30
0.0
 40
0.6
100
AcDbArc
 50
132.1033933472001
 51
180.0
  0
ARC
  5
6A3
330
22
100
AcDbEntity
  8
SK3
100
AcDbCircle
 10
102.4
 20
11.30000000007393
 30
0.0
 40
0.6
100
AcDbArc
 50
180.0
 51
227.8966066528
  0
ARC
  5
6A6
330
22
100
AcDbEntity
  8
1
100
AcDbCircle
 10
19.5
 20
0.0000000000739249
 30
0.0
 40
8.05
100
AcDbArc
 50
283.2925255945
 51
76.70747207600001
  0
ARC
  5
6A7
330
22
100
AcDbEntity
  8
1
100
AcDbCircle
 10
20.09999999999999
 20
-25.94150358492607
 30
0.0
 40
1.0
100
AcDbArc
 50
93.45153529299999
 51
180.0
  0
ARC
  5
6A8
330
22
100
AcDbEntity
  8
1
100
AcDbCircle
 10
20.09999999999999
 20
25.94150358507392
 30
0.0
 40
1.0
100
AcDbArc
 50
180.0
 51
266.548464707
  0
ARC
  5
6A9
330
22
100
AcDbEntity
  8
SK1
100
AcDbCircle
 10
102.4
 20
-11.29999999992608
 30
0.0
 40
0.6
100
AcDbArc
 50
90.0
 51
132.1033933472001
  0
ARC
  5
6AA
330
22
100
AcDbEntity
  8
SK1
100
AcDbCircle
 10
102.4
 20
11.30000000007393
 30
0.0
 40
0.6
100
AcDbArc
 50
227.8966066528
 51
270.0
  0
ARC
  5
6AB
330
22
100
AcDbEntity
  8
SK1
100
AcDbCircle
 10
119.3999999999999
 20
-9.369999999926193
 30
0.0
 40
1.6
100
AcDbArc
 50
270.0
 51
0.0
  0
ARC
  5
6AC
330
22
100
AcDbEntity
  8
SK1
100
AcDbCircle
 10
119.3999999999999
 20
9.370000000073929
 30
0.0
 40
1.6
100
AcDbArc
 50
0.0
 51
90.0
  0
ARC
  5
6AD
330
22
100
AcDbEntity
  8
1
100
AcDbCircle
 10
9.724999999999994
 20
28.62500000007393
 30
0.0
 40
0.5
100
AcDbArc
 50
180.0
 51
270.0
  0
ARC
  5
6AE
330
22
100
AcDbEntity
  8
1
100
AcDbCircle
 10
9.724999999999994
 20
-28.62499999992607
 30
0.0
 40
0.5
100
AcDbArc
 50
90.0
 51
180.0
  0
ARC
  5
6AF
330
22
100
AcDbEntity
  8
1
100
AcDbCircle
 10
12.47499999999999
 20
28.62500000007393
 30
0.0
 40
0.5
100
AcDbArc
 50
270.0
 51
0.0
  0
ARC
  5
6B0
330
22
100
AcDbEntity
  8
1
100
AcDbCircle
 10
12.47499999999999
 20
-28.62499999992607
 30
0.0
 40
0.5
100
AcDbArc
 50
0.0
 51
90.0
  0
ARC
  5
6B1
330
22
100
AcDbEntity
  8
1
100
AcDbCircle
 10
2.409731931199985
 20
22.80829262157391
 30
0.0
 40
1.0
100
AcDbArc
 50
270.0
 51
322.4620664206
  0
ARC
  5
6B2
330
22
100
AcDbEntity
  8
1
100
AcDbCircle
 10
2.409731931199985
 20
-22.80829262142609
 30
0.0
 40
1.0
100
AcDbArc
 50
36.54549359290007
 51
90.0
  0
ARC
  5
6B3
330
22
100
AcDbEntity
  8
1
100
AcDbCircle
 10
-67.2
 20
-11.20887810832607
 30
0.0
 40
1.199999999999999
100
AcDbArc
 50
180.0
 51
261.7
  0
ARC
  5
6B4
330
22
100
AcDbEntity
  8
1
100
AcDbCircle
 10
-67.2
 20
11.20887810847392
 30
0.0
 40
1.199999999999999
100
AcDbArc
 50
98.3
 51
180.0
  0
ARC
  5
6B5
330
22
100
AcDbEntity
  8
1
100
AcDbCircle
 10
4.799999999999982
 20
-30.1749999999262
 30
0.0
 40
1.6
100
AcDbArc
 50
180.0
 51
270.0
  0
ARC
  5
6B6
330
22
100
AcDbEntity
  8
1
100
AcDbCircle
 10
4.799999999999982
 20
30.17500000007394
 30
0.0
 40
1.6
100
AcDbArc
 50
90.0
 51
180.0
  0
ARC
  5
6B7
330
22
100
AcDbEntity
  8
1
100
AcDbCircle
 10
17.5
 20
-30.1749999999262
 30
0.0
 40
1.6
100
AcDbArc
 50
270.0
 51
0.0
  0
ARC
  5
6B8
330
22
100
AcDbEntity
  8
1
100
AcDbCircle
 10
17.5
 20
30.17500000007394
 30
0.0
 40
1.6
100
AcDbArc
 50
0.0
 51
90.0
  0
LWPOLYLINE
  5
6B9
330
22
100
AcDbEntity
  8
SK3
100
AcDbPolyline
 90
      118
 70
     0
 43
0.0
 10
4.800000001499995
 20
25.83409810707389
 10
4.783052204857995
 20
25.83398438192791
 10
4.766097540436987
 20
25.83364388684691
 10
4.749139241501978
 20
25.8330776423669
 10
4.732180541318001
 20
25.8322866690219
 10
4.715224673150999
 20
25.83127198734792
 10
4.698274870265976
 20
25.8300346178809
 10
4.681334365928989
 20
25.8285755811549
 10
4.664406393404988
 20
25.82689589770593
 10
4.647494185958976
 20
25.82499658806893
 10
4.630600976855987
 20
25.82287867277893
 10
4.613729999362988
 20
25.82054317237294
 10
4.596884486742993
 20
25.81799110738391
 10
4.580067672263965
 20
25.81522349834794
 10
4.563282789188974
 20
25.8122413658009
 10
4.546533070784988
 20
25.80904573027789
 10
4.529821750315988
 20
25.80563761231491
 10
4.51315206104897
 20
25.80201803244492
 10
4.496527236247999
 20
25.7981880112059
 10
4.479950509178991
 20
25.79414856913192
 10
4.463425113106978
 20
25.78990072675793
 10
4.44695428129799
 20
25.78544550461891
 10
4.430541247016975
 20
25.78078392325191
 10
4.414189243527971
 20
25.77591700319093
 10
4.397901504098967
 20
25.77084576497095
 10
4.378984677575971
 20
25.76467244643291
 10
4.360164856716977
 20
25.75822403781291
 10
4.341447175778995
 20
25.75150215970993
 10
4.322836187325975
 20
25.74450876310593
 10
4.304334410562972
 20
25.73724695385391
 10
4.285943920669978
 20
25.7297200899969
 10
4.267666792826986
 20
25.72193152957993
 10
4.249505102212992
 20
25.71388463064792
 10
4.231460924006995
 20
25.7055827512429
 10
4.213536333387963
 20
25.69702924941192
 10
4.195733405535975
 20
25.6882274831969
 10
4.178054215628975
 20
25.67918081064292
 10
4.16050083884798
 20
25.66989258979393
 10
4.143075350369969
 20
25.66036617869491
 10
4.125779825375985
 20
25.65060493538891
 10
4.106175312093995
 20
25.63916598680894
 10
4.086746355116986
 20
25.62742971721991
 10
4.067496052088984
 20
25.61540113921291
 10
4.048427500652991
 20
25.60308526537892
 10
4.029543798452976
 20
25.59048710830791
 10
4.010848043132
 20
25.57761168059193
 10
3.992343332334996
 20
25.56446399482192
 10
3.974032763704968
 20
25.55104906358693
 10
3.955919434885998
 20
25.5373718994789
 10
3.935781560104999
 20
25.52167788088994
 10
3.915901647925977
 20
25.50566545494792
 10
3.896283966455001
 20
25.48934172400692
 10
3.876930828423979
 20
25.47271331374393
 10
3.857843126287974
 20
25.4557865036079
 10
3.83902172055798
 20
25.43856756525989
 10
3.818422417087987
 20
25.41910042011489
 10
3.798154117367005
 20
25.39928896874892
 10
3.778218001793987
 20
25.37914181426291
 10
3.758615250765984
 20
25.35866755975892
 10
3.739347044679988
 20
25.33787480833689
 10
3.72041456393299
 20
25.3167721630999
 10
3.701818988923974
 20
25.29536822714789
 10
3.683561500049989
 20
25.27367160358193
 10
3.665643277708966
 20
25.25169089550491
 10
3.648065502297981
 20
25.22943470601592
 10
3.630829354214995
 20
25.20691163821891
 10
3.613936013855976
 20
25.1841302952129
 10
3.597386661620987
 20
25.1610992801009
 10
3.581182477905997
 20
25.13782719598288
 10
3.565324643108993
 20
25.11432264596093
 10
3.549814337627964
 20
25.0905942331359
 10
3.534652590728001
 20
25.06665032417493
 10
3.519839170849991
 20
25.0424973132669
 10
3.505373219670985
 20
25.0181406140789
 10
3.491253874324968
 20
24.99358563316392
 10
3.477480271943989
 20
24.9688377770739
 10
3.464051549658989
 20
24.9439024523619
 10
3.450966844601992
 20
24.91878506558192
 10
3.438225293906981
 20
24.89349102328489
 10
3.425826034704982
 20
24.8680257320259
 10
3.413768204128984
 20
24.8423945983559
 10
3.402050939309987
 20
24.81660302882892
 10
3.390673377380977
 20
24.79065642999791
 10
3.379634655472983
 20
24.76456020841491
 10
3.368933910719988
 20
24.73831977063392
 10
3.35857028025299
 20
24.71194052320689
 10
3.348542901204979
 20
24.68542787268692
 10
3.33885091070698
 20
24.65878722562789
 10
3.329493445891984
 20
24.63202398858093
 10
3.320469643891982
 20
24.60514356810092
 10
3.311778641838969
 20
24.5781513707399
 10
3.303419576865991
 20
24.55105280304991
 10
3.295391586103988
 20
24.52385327158493
 10
3.287693817119958
 20
24.49655809286293
 10
3.280325485882968
 20
24.4691719931509
 10
3.27328583591597
 20
24.44169946094991
 10
3.266574110816975
 20
24.41414498410893
 10
3.260189554185984
 20
24.38651305047492
 10
3.254131409622004
 20
24.35880814789693
 10
3.248398920721967
 20
24.33103476422389
 10
3.242991331087978
 20
24.3031973873029
 10
3.237907884315973
 20
24.27530050498393
 10
3.233147824005982
 20
24.2473486051139
 10
3.228710393756983
 20
24.21934617554092
 10
3.224594837167984
 20
24.19129770411391
 10
3.220800397836967
 20
24.16320767868191
 10
3.217326319363991
 20
24.1350805870909
 10
3.214171845346982
 20
24.10692091719193
 10
3.211336219384975
 20
24.07873315683193
 10
3.208818685076977
 20
24.0505217938589
 10
3.206618486021994
 20
24.02229131612191
 10
3.204734865818977
 20
23.99404621146891
 10
3.203167068065965
 20
23.96579096774792
 10
3.201914336362989
 20
23.93753007280793
 10
3.200975914307974
 20
23.90926801449592
 10
3.200305774926988
 20
23.8781837629069
 10
3.200014028204975
 20
23.84710950726193
 10
3.200000000019969
 20
23.83864723047492
  0
LWPOLYLINE
  5
731
330
22
100
AcDbEntity
  8
SK3
100
AcDbPolyline
 90
       79
 70
     0
 43
0.0
 10
101.951982123
 20
11.50000000007392
 10
101.9524744429769
 20
11.50001933311691
 10
101.9529427955599
 20
11.5000765579729
 10
101.953387872526
 20
11.5001705132309
 10
101.953810365649
 20
11.5003000374808
 10
101.954210966708
 20
11.5004639693139
 10
101.954590367477
 20
11.50066114731891
 10
101.954949259734
 20
11.5008904100859
 10
101.955288335254
 20
11.50115059620589
 10
101.955608285813
 20
11.50144054426792
 10
101.955909803188
 20
11.5017590928619
 10
101.9561935791559
 20
11.50210508057688
 10
101.9564603054919
 20
11.50247734600489
 10
101.9567106739719
 20
11.50287472773482
 10
101.9569453763729
 20
11.50329606435582
 10
101.957165104472
 20
11.50374019445891
 10
101.957370550043
 20
11.50420595663391
 10
101.957562404864
 20
11.50469218946989
 10
101.9577413607109
 20
11.50519773155793
 10
101.957908109359
 20
11.50572142148792
 10
101.9580633425859
 20
11.50626209784892
 10
101.958207752168
 20
11.50681859923091
 10
101.95834202988
 20
11.50738976422494
 10
101.958466867499
 20
11.50797443141891
 10
101.958582956801
 20
11.5085714394049
 10
101.958690989562
 20
11.50917962677181
 10
101.958839445951
 20
11.51011032857792
 10
101.9589736663649
 20
11.51105965105992
 10
101.959095985549
 20
11.51202367445793
 10
101.9592446001299
 20
11.51332513218989
 10
101.9595129448769
 20
11.51594838204192
 10
101.959677028259
 20
11.51757494497693
 10
101.959813977001
 20
11.51885613343989
 10
101.959956941842
 20
11.52011803462693
 10
101.9601057605759
 20
11.52136110918991
 10
101.960260271
 20
11.5225858177819
 10
101.96042031091
 20
11.52379262105688
 10
101.960585718102
 20
11.52498197966781
 10
101.960756330373
 20
11.52615435426793
 10
101.960931985519
 20
11.52731020550891
 10
101.961112521335
 20
11.5284499940459
 10
101.9612977756179
 20
11.52957418052989
 10
101.9614875861639
 20
11.53068322561591
 10
101.96168179077
 20
11.53177758995491
 10
101.96188022723
 20
11.5328577342018
 10
101.9620827333419
 20
11.5339241190089
 10
101.9623413418219
 20
11.53523845258181
 10
101.962605738884
 20
11.53653290651291
 10
101.962875607724
 20
11.53780838051693
 10
101.963150631538
 20
11.53906577430493
 10
101.96343049352
 20
11.54030598759089
 10
101.963714876868
 20
11.54152992008792
 10
101.964061659026
 20
11.54297841523885
 10
101.964413948312
 20
11.54440631634392
 10
101.964771197289
 20
11.54581517810891
 10
101.9651935259209
 20
11.5474368606929
 10
101.965682425817
 20
11.54926423814589
 10
101.966238841345
 20
11.55129132583391
 10
101.9669255098831
 20
11.55373498194291
 10
101.967930701272
 20
11.55724148882191
 10
101.9705947278809
 20
11.5665969527048
 10
101.971308647057
 20
11.5692462326059
 10
101.971945335182
 20
11.57170777591793
 10
101.972564934291
 20
11.5742016360289
 10
101.973222150767
 20
11.57695737399891
 10
101.973860681945
 20
11.57974798459281
 10
101.9745323379079
 20
11.5828083282519
 10
101.975233523549
 20
11.58614466765189
 10
101.9759608385889
 20
11.58976272373692
 10
101.976711182323
 20
11.59366744827289
 10
101.9775263989719
 20
11.59811094789691
 10
101.978399693301
 20
11.60310370322193
 10
101.979407928877
 20
11.60916035376991
 10
101.980696165643
 20
11.61732219116791
 10
101.986684826361
 20
11.65817099673492
 10
101.988579484657
 20
11.67078988633281
 10
101.991325127365
 20
11.68877068600889
 10
101.998838728414
 20
11.73881863575991
 10
101.999998621314
 20
11.74703550419491
  0
LWPOLYLINE
  5
789
330
22
100
AcDbEntity
  8
SK3
100
AcDbPolyline
 90
      116
 70
     0
 43
0.0
 10
9.724999999999994
 20
21.18408895857391
 10
9.720444820045969
 20
21.18411778020092
 10
9.715887742628979
 20
21.18420402974792
 10
9.711329483558984
 20
21.18434738421592
 10
9.70585902075598
 20
21.18459433329193
 10
9.700389124061985
 20
21.18492249019394
 10
9.694921030399967
 20
21.18533129678093
 10
9.68945597668997
 20
21.18582019490791
 10
9.683995199853995
 20
21.18638862643491
 10
9.678539936812001
 20
21.1870360332199
 10
9.673091424486983
 20
21.18776185711892
 10
9.66765089979998
 20
21.18856553999092
 10
9.662219599671971
 20
21.18944652369294
 10
9.656798761024987
 20
21.19040425008293
 10
9.65138962077998
 20
21.1914381610199
 10
9.645993415856992
 20
21.1925476983599
 10
9.640611383179987
 20
21.1937323039609
 10
9.635244759667983
 20
21.19499141968089
 10
9.629894782242985
 20
21.19632448737792
 10
9.624562687826994
 20
21.19773094890991
 10
9.619249713341986
 20
21.1992102461349
 10
9.613957095706979
 20
21.20076182090892
 10
9.608686071844999
 20
21.20238511509089
 10
9.603437878677993
 20
21.20407957053891
 10
9.598213753125975
 20
21.20584462910992
 10
9.593014932110008
 20
21.20767973266291
 10
9.587842652552978
 20
21.20958432305389
 10
9.582698151374984
 20
21.2115578421419
 10
9.57758266549797
 20
21.21359973178392
 10
9.57249743184397
 20
21.21570943383793
 10
9.567443524545979
 20
21.2178863327299
 10
9.562421376040987
 20
21.22012958648591
 10
9.556602708360998
 20
21.22282938334791
 10
9.550828076958993
 20
21.22561684901691
 10
9.545097917470968
 20
21.22849055789592
 10
9.539412665529994
 20
21.23144908438792
 10
9.533772756769963
 20
21.23449100289594
 10
9.52817862682599
 20
21.2376148878229
 10
9.522630711330975
 20
21.24081931357392
 10
9.517129445918982
 20
21.2441028545509
 10
9.511675266224983
 20
21.24746408515691
 10
9.506268607882986
 20
21.25090157979591
 10
9.500148318017977
 20
21.25492170087293
 10
9.494091316125974
 20
21.25903744210791
 10
9.488098252479971
 20
21.26324667549491
 10
9.48216977735899
 20
21.26754727303092
 10
9.476306541035995
 20
21.27193710670988
 10
9.470509193788984
 20
21.2764140485279
 10
9.464778385893993
 20
21.2809759704819
 10
9.458411571998993
 20
21.28620706088191
 10
9.452130720857979
 20
21.29153998109791
 10
9.445936758350995
 20
21.29697170121588
 10
9.43983061035999
 20
21.30249919132393
 10
9.433150108458988
 20
21.30874949590992
 10
9.42657984601999
 20
21.31511071539092
 10
9.420119709549993
 20
21.32158005484291
 10
9.413769523128991
 20
21.3281547807679
 10
9.407529110837003
 20
21.33483215966891
 10
9.401398296755985
 20
21.34160945804692
 10
9.39537690496499
 20
21.3484839424039
 10
9.389464759543983
 20
21.35545287924191
 10
9.383661684573979
 20
21.3625135350629
 10
9.377967504135
 20
21.36966317636791
 10
9.372382042307975
 20
21.37689906966091
 10
9.366905123171989
 20
21.38421848144191
 10
9.361536570807004
 20
21.39161867821292
 10
9.356276209294975
 20
21.39909692647794
 10
9.351123862714985
 20
21.40665049273591
 10
9.346079355147992
 20
21.41427664349089
 10
9.341142510673989
 20
21.42197264524396
 10
9.336313153372998
 20
21.42973576449791
 10
9.331591107324982
 20
21.43756326775292
 10
9.326976196610985
 20
21.4454524215129
 10
9.322468232516996
 20
21.45340057550891
 10
9.318066910199974
 20
21.46140583496293
 10
9.313771862931986
 20
21.46946670767193
 10
9.309582723410983
 20
21.47758170518691
 10
9.305499124332982
 20
21.48574933905792
 10
9.301520698394966
 20
21.49396812083592
 10
9.297647078293977
 20
21.50223656207291
 10
9.293877896726002
 20
21.51055317431991
 10
9.290212786388991
 20
21.51891646912694
 10
9.286651379977968
 20
21.52732495804491
 10
9.283193310190995
 20
21.53577715262492
 10
9.279838209724999
 20
21.54427156441889
 10
9.276585711275998
 20
21.55280670497692
 10
9.273435447539981
 20
21.56138108584892
 10
9.270387051215976
 20
21.56999321858791
 10
9.267440154997984
 20
21.57864161474293
 10
9.264315363405984
 20
21.58819495829693
 10
9.261312453625976
 20
21.59778839843588
 10
9.258430936777983
 20
21.60741995403492
 10
9.255670323980979
 20
21.6170876439669
 10
9.253030126353991
 20
21.62678948710791
 10
9.250509859409987
 20
21.63652350618591
 10
9.24810919042099
 20
21.64628785706091
 10
9.245827973453998
 20
21.65608085945891
 10
9.243666074068983
 20
21.66590084318889
 10
9.241623357825972
 20
21.6757461380609
 10
9.239699690284993
 20
21.68561507388393
 10
9.237894937005989
 20
21.69550598046692
 10
9.236208963549984
 20
21.7054171876189
 10
9.234641635475981
 20
21.71534702514993
 10
9.233192818345969
 20
21.7252938228689
 10
9.231862377717988
 20
21.7352559105849
 10
9.230650179153997
 20
21.74523161810691
 10
9.229556088212973
 20
21.75521927524491
 10
9.228579970456991
 20
21.76521721180791
 10
9.227721691443974
 20
21.77522375760489
 10
9.226981116735004
 20
21.7852372424459
 10
9.226358111890988
 20
21.7952559961389
 10
9.225852542470988
 20
21.80527834849391
 10
9.225464274034976
 20
21.81530262931992
 10
9.225193172144969
 20
21.8253271684259
 10
9.22503910236
 20
21.83535029562191
 10
9.225000000057974
 20
21.84353881887191
  0
LWPOLYLINE
  5
7FF
330
22
100
AcDbEntity
  8
SK3
100
AcDbPolyline
 90
        3
 70
     0
 43
0.0
 10
12.97499999999999
 20
22.84684461137391
 10
13.81173014108097
 20
24.6837721696289
 10
14.34749575080599
 20
25.83408905476193
  0
LWPOLYLINE
  5
804
330
22
100
AcDbEntity
  8
SK3
100
AcDbPolyline
 90
        3
 70
     0
 43
0.0
 10
9.224999999999994
 20
22.84684461137391
 10
8.388269858838981
 20
24.68377216959189
 10
7.85250424919397
 20
25.83408905476193
  0
LWPOLYLINE
  5
809
330
22
100
AcDbEntity
  8
SK3
100
AcDbPolyline
 90
      116
 70
     0
 43
0.0
 10
12.97499999999999
 20
21.8435488188739
 10
12.97494158422398
 20
21.83352805052192
 10
12.97476624697697
 20
21.82350450424392
 10
12.97447385338097
 20
21.81347984957191
 10
12.97406426855699
 20
21.80345575604091
 10
12.97353735762698
 20
21.79343389318291
 10
12.97289298571198
 20
21.78341593053193
 10
12.97213101793497
 20
21.77340353761989
 10
12.97125131941698
 20
21.7633983839809
 10
12.97025375528
 20
21.75340213914791
 10
12.96913819064397
 20
21.74341647265294
 10
12.96790449063297
 20
21.73344305403091
 10
12.96655252036697
 20
21.72348355281392
 10
12.96508214496899
 20
21.71353963853491
 10
12.96349322955896
 20
21.70361298072791
 10
12.96178563926
 20
21.69370524892491
 10
12.95995923919398
 20
21.68381811265991
 10
12.95801389448098
 20
21.67395324146591
 10
12.95594947024298
 20
21.66411230487492
 10
12.95376583160299
 20
21.65429697242192
 10
12.95146284368198
 20
21.6445089136389
 10
12.94904037160097
 20
21.63474979805991
 10
12.94649825629497
 20
21.6250213166999
 10
12.94383612302698
 20
21.61532535213593
 10
12.94105348378198
 20
21.60566388755492
 10
12.93814984954298
 20
21.5960389070369
 10
12.93512473129198
 20
21.58645239466091
 10
12.93197764001297
 20
21.57690633450591
 10
12.92901039208098
 20
21.56826487071791
 10
12.92594156843998
 20
21.55965996892192
 10
12.92277080168398
 20
21.55109311978492
 10
12.91949772440597
 20
21.5425658139759
 10
12.91612196919999
 20
21.53407954216289
 10
12.91264316866
 20
21.52563579501387
 10
12.90906095538
 20
21.51723606319789
 10
12.90537496195398
 20
21.50888183738292
 10
12.90158482097499
 20
21.50057460823791
 10
12.89769016503697
 20
21.4923158664289
 10
12.89369062673398
 20
21.48410710262593
 10
12.88958583866
 20
21.4759498074979
 10
12.88537543340797
 20
21.46784547171092
 10
12.88105904357397
 20
21.4597955859349
 10
12.87663630174899
 20
21.45180164083689
 10
12.87210684254199
 20
21.44386514007383
 10
12.86747038043898
 20
21.4359881025209
 10
12.86272673462699
 20
21.42817322238091
 10
12.85787573138597
 20
21.42042323960291
 10
12.85291719699498
 20
21.41274089413392
 10
12.847850957736
 20
21.40512892592491
 10
12.842676839886
 20
21.3975900749239
 10
12.83739466972599
 20
21.3901270810789
 10
12.832004273536
 20
21.38274268433989
 10
12.82650547759599
 20
21.3754396246539
 10
12.82089810818499
 20
21.36822064197091
 10
12.81518199158299
 20
21.36108847623891
 10
12.80935695406998
 20
21.35404586740691
 10
12.80342282192498
 20
21.34709555542392
 10
12.79737942142898
 20
21.34024028023791
 10
12.79122657886097
 20
21.33348278179889
 10
12.78496412050097
 20
21.32682580005391
 10
12.77859187262899
 20
21.3202720749519
 10
12.77210966152398
 20
21.31382434644292
 10
12.76551731346697
 20
21.30748535447489
 10
12.75881476123297
 20
21.30125794249591
 10
12.752688913643
 20
21.2957517317459
 10
12.74647540767697
 20
21.29034193920089
 10
12.74017518001798
 20
21.28503159569394
 10
12.73378916734498
 20
21.27982373205691
 10
12.72804145181396
 20
21.27528300258394
 10
12.72222735348597
 20
21.27082776824094
 10
12.716347530224
 20
21.26646015767793
 10
12.710402639888
 20
21.26218229954694
 10
12.70439334033898
 20
21.25799632249689
 10
12.69832028943898
 20
21.25390435517892
 10
12.69218414504797
 20
21.24990852624092
 10
12.68676377949299
 20
21.24649271283889
 10
12.68129605237598
 20
21.2431535611629
 10
12.67578140441097
 20
21.2398924972409
 10
12.67022027631398
 20
21.23671094710389
 10
12.66461310879998
 20
21.23361033677989
 10
12.65896034258597
 20
21.23059209229893
 10
12.65326241838699
 20
21.22765763968991
 10
12.64751977691799
 20
21.2248084049829
 10
12.64173285889399
 20
21.22204581420692
 10
12.63590210503298
 20
21.21937129338994
 10
12.63086976032897
 20
21.21715002442994
 10
12.62580581297999
 20
21.21499540495589
 10
12.62071083254298
 20
21.21290822901389
 10
12.61558598370499
 20
21.21088907874991
 10
12.610432504177
 20
21.20893851030891
 10
12.60525163167497
 20
21.2070570798339
 10
12.60004460390999
 20
21.20524534346992
 10
12.594812658596
 20
21.20350385735992
 10
12.58955703344597
 20
21.2018331776479
 10
12.584278966173
 20
21.2002338604789
 10
12.57897969449098
 20
21.19870646199692
 10
12.57366045611297
 20
21.19725153834392
 10
12.56832248875199
 20
21.19586964566693
 10
12.56296703012097
 20
21.19456134010793
 10
12.55759531793296
 20
21.19332717781089
 10
12.55220858990199
 20
21.19216771492091
 10
12.54680808373999
 20
21.19108350758091
 10
12.54139503716197
 20
21.19007511193593
 10
12.53597068787897
 20
21.18914308412891
 10
12.53053627360597
 20
21.18828798030489
 10
12.52509303205499
 20
21.1875103566079
 10
12.51964220094098
 20
21.18681076918091
 10
12.51418501797497
 20
21.18618977416892
 10
12.50872272087099
 20
21.18564792771491
 10
12.50325654734297
 20
21.18518578596388
 10
12.49778773510297
 20
21.18480390505888
 10
12.49231752186497
 20
21.18450284114491
 10
12.48684714534198
 20
21.1842831503659
 10
12.48228926645697
 20
21.1841626359799
 10
12.47773284997097
 20
21.1840993387699
 10
12.47501000000596
 20
21.18408895871292
  0
LWPOLYLINE
  5
8B6
330
22
100
AcDbEntity
  8
SK3
100
AcDbPolyline
 90
      118
 70
     0
 43
0.0
 10
19.09999999999999
 20
23.83863723047389
 10
19.09981127542298
 20
23.86970757005389
 10
19.09924443224397
 20
23.90078952725193
 10
19.09829846628798
 20
23.93187712392293
 10
19.09710866141398
 20
23.96013843875389
 10
19.09560394758299
 20
23.98839498222191
 10
19.09378357034697
 20
24.01664226285789
 10
19.09164677525399
 20
24.04487578919188
 10
19.08919280785198
 20
24.07309106975692
 10
19.08642091369199
 20
24.10128361308193
 10
19.08333033832298
 20
24.12944892769889
 10
19.07992032729399
 20
24.15758252213891
 10
19.07619012615299
 20
24.1856799049329
 10
19.07213898045097
 20
24.21373658461192
 10
19.06776613573598
 20
24.24174806970692
 10
19.06307083755797
 20
24.26970986874991
 10
19.05805233146597
 20
24.29761749027091
 10
19.05270986300797
 20
24.32546644280089
 10
19.04704267773496
 20
24.35325223487189
 10
19.04105002119598
 20
24.38097037501388
 10
19.03473113893898
 20
24.40861637175792
 10
19.02808527651399
 20
24.43618573363693
 10
19.02111167946898
 20
24.46367396917893
 10
19.013809593356
 20
24.4910765869179
 10
19.00617826372098
 20
24.51838909538194
 10
18.99821691699398
 20
24.54560684331489
 10
18.98992470801497
 20
24.57272458120792
 10
18.98130077486999
 20
24.59973691955989
 10
18.97234425564798
 20
24.62663846887191
 10
18.96305428843499
 20
24.65342383964392
 10
18.95343001132099
 20
24.68008764237689
 10
18.94347056239098
 20
24.7066244875719
 10
18.93317507973498
 20
24.73302898572792
 10
18.92254270143999
 20
24.75929574734593
 10
18.91157256559196
 20
24.78541938292591
 10
18.90026381028099
 20
24.81139450296891
 10
18.88861557359297
 20
24.83721571797492
 10
18.87662699361698
 20
24.86287763844592
 10
18.86429720843998
 20
24.8883748748799
 10
18.85162535614898
 20
24.91370203777791
 10
18.83861057483199
 20
24.93885373764189
 10
18.82525200257797
 20
24.9638245849699
 10
18.81154877747298
 20
24.98860919026493
 10
18.797500037605
 20
25.01320216402593
 10
18.78310492106198
 20
25.03759811675292
 10
18.768362565931
 20
25.0617916589469
 10
18.75327211561199
 20
25.08577739265792
 10
18.73783334126497
 20
25.10954892101989
 10
18.72204722538597
 20
25.1330979196629
 10
18.705914888547
 20
25.1564158444989
 10
18.68943745132298
 20
25.1794941514429
 10
18.67261603428596
 20
25.20232429640794
 10
18.65545175801199
 20
25.2248977353049
 10
18.63794574307198
 20
25.24720592404893
 10
18.62009911004199
 20
25.26924031855191
 10
18.60191297949498
 20
25.2909923747269
 10
18.58338847200497
 20
25.31245354848792
 10
18.56452670814497
 20
25.3336152957479
 10
18.54532880848899
 20
25.35446907241891
 10
18.52579589360999
 20
25.37500633441491
 10
18.50592908408399
 20
25.39521853764893
 10
18.48572950048196
 20
25.41509713803291
 10
18.46519826337999
 20
25.43463359148089
 10
18.44643751239798
 20
25.45191680226691
 10
18.427409846644
 20
25.4689097246839
 10
18.40811608301499
 20
25.48560613009292
 10
18.38855714791799
 20
25.5019997600499
 10
18.36873577996598
 20
25.51808386286092
 10
18.34865620730596
 20
25.53385128141091
 10
18.33059438764999
 20
25.54759511054291
 10
18.31233493068197
 20
25.56107802038193
 10
18.29388083700698
 20
25.57429497580989
 10
18.27523510722798
 20
25.58724094170595
 10
18.25640074195098
 20
25.59991088295192
 10
18.23738074177999
 20
25.61229976442692
 10
18.21817810731898
 20
25.62440255101191
 10
18.19879583917298
 20
25.63621420758793
 10
18.17923693794497
 20
25.64772969903393
 10
18.16198036392097
 20
25.65755884781891
 10
18.14459286270198
 20
25.66715401702689
 10
18.12707644445899
 20
25.67651183352092
 10
18.10943311936398
 20
25.6856289241639
 10
18.09166489758499
 20
25.69450191581993
 10
18.07377378929499
 20
25.70312743535092
 10
18.05576180466298
 20
25.71150210962088
 10
18.03763095385898
 20
25.7196225654929
 10
18.01938324705597
 20
25.72748542983092
 10
18.00102069442198
 20
25.73508732949691
 10
17.98254530612797
 20
25.74242489135492
 10
17.96395909344798
 20
25.74949474287189
 10
17.94526481071
 20
25.75629391898591
 10
17.92646724494398
 20
25.7628205692979
 10
17.90757152761398
 20
25.76907303229291
 10
17.88858279018899
 20
25.77504964645291
 10
17.87223658287698
 20
25.7799516459769
 10
17.85582903580598
 20
25.78464871402389
 10
17.83936338045197
 20
25.7891398042749
 10
17.82284284829299
 20
25.7934238704089
 10
17.80627067080598
 20
25.7974998661079
 10
17.78965007946996
 20
25.8013667450499
 10
17.77298430576198
 20
25.80502346091689
 10
17.756276581159
 20
25.80846896738791
 10
17.73953013713898
 20
25.81170221814392
 10
17.72274820517998
 20
25.8147221668639
 10
17.70593401675899
 20
25.81752776722894
 10
17.68909080335399
 20
25.82011797291893
 10
17.67222179644298
 20
25.82249173761488
 10
17.65533022750196
 20
25.82464801499492
 10
17.63841932801
 20
25.82658575874092
 10
17.621492329445
 20
25.82830392253192
 10
17.60455246328297
 20
25.82980146004891
 10
17.58760296100198
 20
25.83107732497192
 10
17.57064705408098
 20
25.8321304709809
 10
17.55368797399597
 20
25.83295985175591
 10
17.53672895222598
 20
25.8335644209779
 10
17.519773220247
 20
25.83394313232588
 10
17.50282400953796
 20
25.83409493947991
 10
17.50001000200197
 20
25.83409810703392
  0
LWPOLYLINE
  5
92E
330
22
100
AcDbEntity
  8
SK3
100
AcDbPolyline
 90
       79
 70
     0
 43
0.0
 10
102.0
 20
-11.74704540852608
 10
101.9953329083329
 20
-11.71502571864511
 10
101.989760842824
 20
-11.67855456790218
 10
101.9875541197039
 20
-11.6639918944671
 10
101.985858101699
 20
-11.65257415533619
 10
101.9841461118
 20
-11.6407744725121
 10
101.9804588545319
 20
-11.6157857414552
 10
101.979242632494
 20
-11.60814653917407
 10
101.9782707318079
 20
-11.60235138539016
 10
101.977392540032
 20
-11.59736688948419
 10
101.9766187590509
 20
-11.59317693757407
 10
101.9758652366999
 20
-11.58927784840219
 10
101.975134709762
 20
-11.58566557908918
 10
101.974430323833
 20
-11.5823350803922
 10
101.973755521093
 20
-11.57928054039317
 10
101.9731139355549
 20
-11.57649561193719
 10
101.972453521063
 20
-11.57374586802319
 10
101.9718308642419
 20
-11.57125777647419
 10
101.9711910031299
 20
-11.56880224897807
 10
101.9704134743399
 20
-11.56593941367219
 10
101.9666751608189
 20
-11.55285015611909
 10
101.966052722637
 20
-11.55061870536309
 10
101.965559642878
 20
-11.54880980390217
 10
101.9650722984729
 20
-11.54697580713218
 10
101.9646515970129
 20
-11.54534757688506
 10
101.9642959404389
 20
-11.54393254141919
 10
101.963945426036
 20
-11.54249794837719
 10
101.963600601241
 20
-11.54104224305408
 10
101.963317988423
 20
-11.5398119062072
 10
101.963040023691
 20
-11.5385649286861
 10
101.96276702385
 20
-11.5373004107771
 10
101.962499305705
 20
-11.53601745276811
 10
101.962237186059
 20
-11.53471515494519
 10
101.961980981717
 20
-11.53339261759609
 10
101.961780490156
 20
-11.53231941065118
 10
101.961584149347
 20
-11.53123221394017
 10
101.9613921214961
 20
-11.53013056680908
 10
101.9612045688059
 20
-11.52901400860619
 10
101.9610216534809
 20
-11.52788207867718
 10
101.960843537724
 20
-11.5267343163691
 10
101.960670383741
 20
-11.52557026103119
 10
101.9605023537339
 20
-11.52438945200711
 10
101.960339609907
 20
-11.5231914286451
 10
101.960182314464
 20
-11.52197573029309
 10
101.9600306296099
 20
-11.52074189629718
 10
101.959884717547
 20
-11.51948946600419
 10
101.9597447404799
 20
-11.51821797876118
 10
101.959610779081
 20
-11.51692711349309
 10
101.959414883166
 20
-11.5149647524172
 10
101.959208738247
 20
-11.51299847886719
 10
101.959056390727
 20
-11.5117009417032
 10
101.958930363882
 20
-11.51074138308118
 10
101.9587916575589
 20
-11.50979783196308
 10
101.958637937013
 20
-11.50887420810619
 10
101.958525962453
 20
-11.50827146525418
 10
101.9584055854649
 20
-11.50768048248719
 10
101.9582761142711
 20
-11.50710242121707
 10
101.958136857097
 20
-11.50653844285219
 10
101.957987122165
 20
-11.50598970880509
 10
101.9578262176991
 20
-11.50545738048316
 10
101.9576534519231
 20
-11.5049426192981
 10
101.957468133061
 20
-11.50444658666009
 10
101.957269569337
 20
-11.50397044397809
 10
101.957057068974
 20
-11.50351535266307
 10
101.9568299401969
 20
-11.5030824741242
 10
101.956587491228
 20
-11.50267296977219
 10
101.9563290302919
 20
-11.5022880010172
 10
101.956053865612
 20
-11.50192872926919
 10
101.9557613054129
 20
-11.5015963159382
 10
101.9554506579171
 20
-11.50129192243409
 10
101.9551212313499
 20
-11.50101671016708
 10
101.954772333933
 20
-11.50077184054817
 10
101.9544032738931
 20
-11.5005584749851
 10
101.954013359451
 20
-11.50037777489018
 10
101.953601898832
 20
-11.50023090167218
 10
101.9531682002589
 20
-11.50011901674119
 10
101.9527115719569
 20
-11.50004328150811
 10
101.952231322149
 20
-11.50000485738309
 10
101.9519921181571
 20
-11.50000000759519
  0
LWPOLYLINE
  5
97F
330
22
100
AcDbEntity
  8
SK3
100
AcDbPolyline
 90
        4
 70
     0
 43
0.0
 10
85.5
 20
-20.39111006002611
 10
85.29402790862802
 20
-20.40494169857919
 10
85.08654199260297
 20
-20.42097424407709
 10
84.946667087494
 20
-20.43296790661807
  0
LWPOLYLINE
  5
985
330
22
100
AcDbEntity
  8
SK3
100
AcDbPolyline
 90
        2
 70
     0
 43
0.0
 10
80.62213872659999
 20
-21.2610225422261
 10
80.50000959112299
 20
-21.29674023356907
  0
LWPOLYLINE
  5
989
330
22
100
AcDbEntity
  8
SK3
100
AcDbPolyline
 90
        2
 70
     0
 43
0.0
 10
101.4361225361
 20
-19.40003960132617
 10
96.155715833899
 20
-19.72875690742219
  0
LWPOLYLINE
  5
98D
330
22
100
AcDbEntity
  8
SK3
100
AcDbPolyline
 90
        2
 70
     0
 43
0.0
 10
96.15570585319998
 20
-19.72875752842609
 10
94.88955256190797
 20
-19.8075287298702
  0
LWPOLYLINE
  5
991
330
22
100
AcDbEntity
  8
SK3
100
AcDbPolyline
 90
        2
 70
     0
 43
0.0
 10
94.88954258120008
 20
-19.8075293507261
 10
93.50363409081797
 20
-19.8937293838311
  0
LWPOLYLINE
  5
995
330
22
100
AcDbEntity
  8
SK3
100
AcDbPolyline
 90
        2
 70
     0
 43
0.0
 10
93.50362411009996
 20
-19.8937300045261
 10
92.076579522728
 20
-19.98246541509309
  0
LWPOLYLINE
  5
999
330
22
100
AcDbEntity
  8
SK3
100
AcDbPolyline
 90
        2
 70
     0
 43
0.0
 10
92.07656954199999
 20
-19.98246603562606
 10
90.84364145823698
 20
-20.05911233813211
  0
LWPOLYLINE
  5
99D
330
22
100
AcDbEntity
  8
SK3
100
AcDbPolyline
 90
        2
 70
     0
 43
0.0
 10
90.8436314775
 20
-20.05911295852607
 10
85.50000998077308
 20
-20.39110944021607
  0
LWPOLYLINE
  5
9A1
330
22
100
AcDbEntity
  8
SK3
100
AcDbPolyline
 90
        2
 70
     0
 43
0.0
 10
85.5
 20
20.3911100601739
 10
90.84362149696302
 20
20.05911357906791
  0
LWPOLYLINE
  5
9A5
330
22
100
AcDbEntity
  8
SK3
100
AcDbPolyline
 90
        2
 70
     0
 43
0.0
 10
90.8436314777
 20
20.05911295867389
 10
92.07656039647195
 20
19.98246660440694
  0
LWPOLYLINE
  5
9A9
330
22
100
AcDbEntity
  8
SK3
100
AcDbPolyline
 90
        2
 70
     0
 43
0.0
 10
92.07657037720009
 20
19.98246598387391
 10
93.5036141288821
 20
19.89373062546889
  0
LWPOLYLINE
  5
9AD
330
22
100
AcDbEntity
  8
SK3
100
AcDbPolyline
 90
        2
 70
     0
 43
0.0
 10
93.50362410959997
 20
19.89373000477388
 10
94.88953400449199
 20
19.80752988442992
  0
LWPOLYLINE
  5
9B1
330
22
100
AcDbEntity
  8
SK3
100
AcDbPolyline
 90
        2
 70
     0
 43
0.0
 10
94.88954398520007
 20
19.80752926357391
 10
96.15569587260109
 20
19.72875814957791
  0
LWPOLYLINE
  5
9B5
330
22
100
AcDbEntity
  8
SK3
100
AcDbPolyline
 90
        2
 70
     0
 43
0.0
 10
96.15570585329997
 20
19.7287575285739
 10
101.4361125554409
 20
19.40004022311592
  0
LWPOLYLINE
  5
9B9
330
22
100
AcDbEntity
  8
SK3
100
AcDbPolyline
 90
      196
 70
     0
 43
0.0
 10
-36.2
 20
0.0000000000739249
 10
-36.2
 20
0.1084147142999257
 10
-36.2
 20
0.2168619686769091
 10
-36.2
 20
0.3253102211309056
 10
-36.2
 20
0.4337279295918961
 10
-36.2
 20
0.5420835519859395
 10
-36.2
 20
0.6503455462409136
 10
-36.2
 20
0.7584823702859183
 10
-36.2
 20
0.8664624820469271
 10
-36.2
 20
0.9742543394528979
 10
-36.2
 20
1.081826400431907
 10
-36.2
 20
1.189147122910924
 10
-36.2
 20
1.296184964816887
 10
-36.2
 20
1.402908384079893
 10
-36.2
 20
1.509285838625913
 10
-36.2
 20
1.615285786383935
 10
-36.2
 20
1.720876685279932
 10
-36.2
 20
1.826027042618903
 10
-36.2
 20
1.930708328219907
 10
-36.2
 20
2.034896603804924
 10
-36.2
 20
2.138568326097896
 10
-36.2
 20
2.241699951822937
 10
-36.2
 20
2.344267937702909
 10
-36.2
 20
2.446248740461925
 10
-36.2
 20
2.547618816825888
 10
-36.2
 20
2.648354623515928
 10
-36.2
 20
2.748432617257918
 10
-36.2
 20
2.847829254774893
 10
-36.2
 20
2.946520992790908
 10
-36.2
 20
3.044484288029906
 10
-36.2
 20
3.141695597215914
 10
-36.2
 20
3.238131377072903
 10
-36.2
 20
3.333768084323907
 10
-36.2
 20
3.42858217569389
 10
-36.2
 20
3.522550199481912
 10
-36.2
 20
3.615649768546916
 10
-36.2
 20
3.707859182561918
 10
-36.2
 20
3.799156752648912
 10
-36.2
 20
3.88952078992591
 10
-36.2
 20
3.978929605514906
 10
-36.2
 20
4.067361510533913
 10
-36.2
 20
4.154794816104924
 10
-36.2
 20
4.258366093574892
 10
-36.2
 20
4.360430677467917
 10
-36.2
 20
4.460951089397923
 10
-36.2
 20
4.559889850981903
 10
-36.2
 20
4.657209483835913
 10
-36.2
 20
4.752872509573904
 10
-36.2
 20
4.846841449811904
 10
-36.2
 20
4.939079020888897
 10
-36.2
 20
5.029552417744895
 10
-36.2
 20
5.118233313927902
 10
-36.2
 20
5.205093577704928
 10
-36.2
 20
5.290105077346908
 10
-36.2
 20
5.373239681119912
 10
-36.2
 20
5.454469257294931
 10
-36.2
 20
5.533765674137924
 10
-36.2
 20
5.598349006918908
 10
-36.2
 20
5.661554052080902
 10
-36.2
 20
5.723364529686932
 10
-36.2
 20
5.783764159797897
 10
-36.2
 20
5.842736662478898
 10
-36.2
 20
5.900265757791885
 10
-36.2
 20
5.956335165798918
 10
-36.2
 20
6.010928643361921
 10
-36.2
 20
6.064032155225902
 10
-36.2
 20
6.115635088356896
 10
-36.2
 20
6.165727124105899
 10
-36.2
 20
6.214297943822884
 10
-36.2
 20
6.261337228858906
 10
-36.2
 20
6.306834660564902
 10
-36.2
 20
6.350779920290904
 10
-36.2
 20
6.39316268938893
 10
-36.2
 20
6.433972649208897
 10
-36.2
 20
6.47319948110092
 10
-36.2
 20
6.51083286641591
 10
-36.2
 20
6.546862486505915
 10
-36.2
 20
6.581278022719914
 10
-36.2
 20
6.61406915640893
 10
-36.2
 20
6.6452255689249
 10
-36.2
 20
6.674736941616885
 10
-36.2
 20
6.702593292450899
 10
-36.2
 20
6.728788552521905
 10
-36.2
 20
6.753319177529903
 10
-36.2
 20
6.776181665248913
 10
-36.2
 20
6.797372513454888
 10
-36.2
 20
6.816888219923896
 10
-36.2
 20
6.834725282428934
 10
-36.2
 20
6.850880198746892
 10
-36.2
 20
6.865349466651906
 10
-36.2
 20
6.8781295839199
 10
-36.2
 20
6.889217048326912
 10
-36.2
 20
6.898608357645912
 10
-36.2
 20
6.906300009653932
 10
-36.2
 20
6.912288502125932
 10
-36.2
 20
6.916570332835931
 10
-36.2
 20
6.919141999559883
 10
-36.2
 20
6.920000000073912
 10
-36.2
 20
6.919141999559883
 10
-36.2
 20
6.916570332835931
 10
-36.2
 20
6.912288502125932
 10
-36.2
 20
6.906300009653932
 10
-36.2
 20
6.898608357645912
 10
-36.2
 20
6.889217048326912
 10
-36.2
 20
6.8781295839199
 10
-36.2
 20
6.865349466651906
 10
-36.2
 20
6.850880198746892
 10
-36.2
 20
6.834725282428934
 10
-36.2
 20
6.816888219923896
 10
-36.2
 20
6.797372513455911
 10
-36.2
 20
6.776181665248913
 10
-36.2
 20
6.753319177529903
 10
-36.2
 20
6.728788552521905
 10
-36.2
 20
6.702593292450899
 10
-36.2
 20
6.674736941616885
 10
-36.2
 20
6.6452255689249
 10
-36.2
 20
6.61406915640893
 10
-36.2
 20
6.581278022719914
 10
-36.2
 20
6.546862486505915
 10
-36.2
 20
6.51083286641591
 10
-36.2
 20
6.47319948110092
 10
-36.2
 20
6.433972649208897
 10
-36.2
 20
6.39316268938893
 10
-36.2
 20
6.350779920290904
 10
-36.2
 20
6.306834660564902
 10
-36.2
 20
6.261337228858906
 10
-36.2
 20
6.214297943822884
 10
-36.2
 20
6.165727124105899
 10
-36.2
 20
6.115635088356896
 10
-36.2
 20
6.064032155225902
 10
-36.2
 20
6.010928643361921
 10
-36.2
 20
5.956335165798918
 10
-36.2
 20
5.900265757791885
 10
-36.2
 20
5.842736662478898
 10
-36.2
 20
5.783764159797897
 10
-36.2
 20
5.723364529686932
 10
-36.2
 20
5.661554052080902
 10
-36.2
 20
5.598349006918908
 10
-36.2
 20
5.533765674137924
 10
-36.2
 20
5.454469257294931
 10
-36.2
 20
5.373239681120907
 10
-36.2
 20
5.290105077346908
 10
-36.2
 20
5.205093577705923
 10
-36.2
 20
5.118233313927902
 10
-36.2
 20
5.029552417744895
 10
-36.2
 20
4.939079020888897
 10
-36.2
 20
4.846841449811904
 10
-36.2
 20
4.752872509573904
 10
-36.2
 20
4.657209483835913
 10
-36.2
 20
4.559889850982898
 10
-36.2
 20
4.460951089398918
 10
-36.2
 20
4.360430677467917
 10
-36.2
 20
4.258366093575887
 10
-36.2
 20
4.154794816105919
 10
-36.2
 20
4.06736151053488
 10
-36.2
 20
3.978929605514906
 10
-36.2
 20
3.88952078992591
 10
-36.2
 20
3.799156752648912
 10
-36.2
 20
3.707859182562913
 10
-36.2
 20
3.615649768546916
 10
-36.2
 20
3.522550199481912
 10
-36.2
 20
3.42858217569389
 10
-36.2
 20
3.333768084323907
 10
-36.2
 20
3.238131377072903
 10
-36.2
 20
3.141695597215914
 10
-36.2
 20
3.044484288029906
 10
-36.2
 20
2.946520992790908
 10
-36.2
 20
2.847829254774893
 10
-36.2
 20
2.748432617257918
 10
-36.2
 20
2.648354623515928
 10
-36.2
 20
2.547618816825888
 10
-36.2
 20
2.44624874046292
 10
-36.2
 20
2.344267937702909
 10
-36.2
 20
2.241699951822937
 10
-36.2
 20
2.138568326097896
 10
-36.2
 20
2.034896603804924
 10
-36.2
 20
1.930708328219907
 10
-36.2
 20
1.826027042618903
 10
-36.2
 20
1.720876685280899
 10
-36.2
 20
1.615285786383935
 10
-36.2
 20
1.509285838625913
 10
-36.2
 20
1.402908384079893
 10
-36.2
 20
1.296184964817911
 10
-36.2
 20
1.189147122910924
 10
-36.2
 20
1.081826400431907
 10
-36.2
 20
0.9742543394528979
 10
-36.2
 20
0.8664624820469271
 10
-36.2
 20
0.7584823702859183
 10
-36.2
 20
0.6503455462409136
 10
-36.2
 20
0.5420835519859395
 10
-36.2
 20
0.4337279295918961
 10
-36.2
 20
0.3253102211319003
 10
-36.2
 20
0.2168619686769091
 10
-36.2
 20
0.1084147143009204
 10
-36.2
 20
0.0000000000739249
 10
-36.2
 20
0.0000099999798806
  0
LWPOLYLINE
  5
A7F
330
22
100
AcDbEntity
  8
SK3
100
AcDbPolyline
 90
      196
 70
     0
 43
0.0
 10
-36.2
 20
0.0000000000739249
 10
-36.2
 20
-0.1084147141520759
 10
-36.2
 20
-0.2168619685290878
 10
-36.2
 20
-0.3253102209830843
 10
-36.2
 20
-0.4337279294440748
 10
-36.2
 20
-0.5420835518380898
 10
-36.2
 20
-0.6503455460930923
 10
-36.2
 20
-0.758482370138097
 10
-36.2
 20
-0.8664624818990773
 10
-36.2
 20
-0.9742543393050766
 10
-36.2
 20
-1.081826400284086
 10
-36.2
 20
-1.189147122762079
 10
-36.2
 20
-1.296184964669066
 10
-36.2
 20
-1.402908383932071
 10
-36.2
 20
-1.509285838478092
 10
-36.2
 20
-1.615285786236114
 10
-36.2
 20
-1.720876685132111
 10
-36.2
 20
-1.826027042471082
 10
-36.2
 20
-1.930708328072086
 10
-36.2
 20
-2.034896603657074
 10
-36.2
 20
-2.138568325950103
 10
-36.2
 20
-2.241699951674092
 10
-36.2
 20
-2.344267937555088
 10
-36.2
 20
-2.446248740315098
 10
-36.2
 20
-2.547618816678095
 10
-36.2
 20
-2.648354623368078
 10
-36.2
 20
-2.748432617110097
 10
-36.2
 20
-2.847829254627072
 10
-36.2
 20
-2.946520992643087
 10
-36.2
 20
-3.044484287882085
 10
-36.2
 20
-3.141695597068093
 10
-36.2
 20
-3.238131376925082
 10
-36.2
 20
-3.333768084176114
 10
-36.2
 20
-3.428582175546068
 10
-36.2
 20
-3.522550199334062
 10
-36.2
 20
-3.615649768399094
 10
-36.2
 20
-3.707859182414097
 10
-36.2
 20
-3.799156752501062
 10
-36.2
 20
-3.889520789778089
 10
-36.2
 20
-3.978929605367085
 10
-36.2
 20
-4.067361510386092
 10
-36.2
 20
-4.154794815957075
 10
-36.2
 20
-4.258366093427099
 10
-36.2
 20
-4.360430677320096
 10
-36.2
 20
-4.460951089250073
 10
-36.2
 20
-4.559889850834082
 10
-36.2
 20
-4.657209483688092
 10
-36.2
 20
-4.752872509426083
 10
-36.2
 20
-4.846841449664083
 10
-36.2
 20
-4.939079020741075
 10
-36.2
 20
-5.029552417597074
 10
-36.2
 20
-5.118233313780109
 10
-36.2
 20
-5.205093577558102
 10
-36.2
 20
-5.290105077199086
 10
-36.2
 20
-5.373239680972091
 10
-36.2
 20
-5.454469257147195
 10
-36.2
 20
-5.533765673990103
 10
-36.2
 20
-5.598349006771087
 10
-36.2
 20
-5.661554051933109
 10
-36.2
 20
-5.723364529539082
 10
-36.2
 20
-5.783764159650075
 10
-36.2
 20
-5.842736662331077
 10
-36.2
 20
-5.900265757644092
 10
-36.2
 20
-5.956335165651097
 10
-36.2
 20
-6.010928643214072
 10
-36.2
 20
-6.064032155078081
 10
-36.2
 20
-6.115635088209074
 10
-36.2
 20
-6.165727123958106
 10
-36.2
 20
-6.214297943675092
 10
-36.2
 20
-6.261337228711084
 10
-36.2
 20
-6.306834660417109
 10
-36.2
 20
-6.350779920143082
 10
-36.2
 20
-6.393162689241108
 10
-36.2
 20
-6.433972649061104
 10
-36.2
 20
-6.473199480953098
 10
-36.2
 20
-6.510832866268088
 10
-36.2
 20
-6.546862486358065
 10
-36.2
 20
-6.581278022572092
 10
-36.2
 20
-6.614069156261109
 10
-36.2
 20
-6.645225568777078
 10
-36.2
 20
-6.674736941469092
 10
-36.2
 20
-6.702593292303077
 10
-36.2
 20
-6.728788552374084
 10
-36.2
 20
-6.753319177382081
 10
-36.2
 20
-6.776181665101091
 10
-36.2
 20
-6.797372513307067
 10
-36.2
 20
-6.816888219776075
 10
-36.2
 20
-6.834725282281084
 10
-36.2
 20
-6.850880198599099
 10
-36.2
 20
-6.865349466504113
 10
-36.2
 20
-6.878129583772079
 10
-36.2
 20
-6.889217048179091
 10
-36.2
 20
-6.89860835749809
 10
-36.2
 20
-6.906300009506082
 10
-36.2
 20
-6.912288501978082
 10
-36.2
 20
-6.91657033268811
 10
-36.2
 20
-6.91914199941209
 10
-36.2
 20
-6.919999999926062
 10
-36.2
 20
-6.91914199941209
 10
-36.2
 20
-6.91657033268811
 10
-36.2
 20
-6.912288501978082
 10
-36.2
 20
-6.906300009506082
 10
-36.2
 20
-6.89860835749809
 10
-36.2
 20
-6.889217048179091
 10
-36.2
 20
-6.878129583772079
 10
-36.2
 20
-6.865349466504113
 10
-36.2
 20
-6.850880198599099
 10
-36.2
 20
-6.834725282281084
 10
-36.2
 20
-6.816888219776075
 10
-36.2
 20
-6.797372513307067
 10
-36.2
 20
-6.776181665101091
 10
-36.2
 20
-6.753319177382081
 10
-36.2
 20
-6.728788552374084
 10
-36.2
 20
-6.702593292303077
 10
-36.2
 20
-6.674736941469092
 10
-36.2
 20
-6.645225568777078
 10
-36.2
 20
-6.614069156261109
 10
-36.2
 20
-6.581278022572092
 10
-36.2
 20
-6.546862486358065
 10
-36.2
 20
-6.510832866268088
 10
-36.2
 20
-6.473199480953098
 10
-36.2
 20
-6.433972649061104
 10
-36.2
 20
-6.393162689241108
 10
-36.2
 20
-6.350779920143082
 10
-36.2
 20
-6.306834660417109
 10
-36.2
 20
-6.261337228711084
 10
-36.2
 20
-6.214297943675092
 10
-36.2
 20
-6.165727123958106
 10
-36.2
 20
-6.115635088209074
 10
-36.2
 20
-6.064032155078081
 10
-36.2
 20
-6.010928643214072
 10
-36.2
 20
-5.956335165651097
 10
-36.2
 20
-5.900265757644092
 10
-36.2
 20
-5.842736662331077
 10
-36.2
 20
-5.783764159650075
 10
-36.2
 20
-5.723364529539082
 10
-36.2
 20
-5.661554051933109
 10
-36.2
 20
-5.598349006771087
 10
-36.2
 20
-5.533765673990103
 10
-36.2
 20
-5.454469257147195
 10
-36.2
 20
-5.373239680973085
 10
-36.2
 20
-5.290105077199086
 10
-36.2
 20
-5.205093577558102
 10
-36.2
 20
-5.118233313780109
 10
-36.2
 20
-5.029552417597074
 10
-36.2
 20
-4.939079020741075
 10
-36.2
 20
-4.846841449664083
 10
-36.2
 20
-4.752872509426083
 10
-36.2
 20
-4.657209483688092
 10
-36.2
 20
-4.559889850835077
 10
-36.2
 20
-4.460951089250073
 10
-36.2
 20
-4.360430677320096
 10
-36.2
 20
-4.258366093427099
 10
-36.2
 20
-4.154794815957075
 10
-36.2
 20
-4.067361510386092
 10
-36.2
 20
-3.978929605367085
 10
-36.2
 20
-3.889520789778089
 10
-36.2
 20
-3.799156752501062
 10
-36.2
 20
-3.707859182414097
 10
-36.2
 20
-3.615649768399094
 10
-36.2
 20
-3.522550199334062
 10
-36.2
 20
-3.428582175546068
 10
-36.2
 20
-3.333768084176114
 10
-36.2
 20
-3.238131376925082
 10
-36.2
 20
-3.141695597068093
 10
-36.2
 20
-3.044484287882085
 10
-36.2
 20
-2.946520992643087
 10
-36.2
 20
-2.847829254627072
 10
-36.2
 20
-2.748432617110097
 10
-36.2
 20
-2.648354623369101
 10
-36.2
 20
-2.547618816678095
 10
-36.2
 20
-2.446248740315098
 10
-36.2
 20
-2.344267937555088
 10
-36.2
 20
-2.241699951675087
 10
-36.2
 20
-2.138568325950103
 10
-36.2
 20
-2.034896603657074
 10
-36.2
 20
-1.930708328072086
 10
-36.2
 20
-1.826027042471082
 10
-36.2
 20
-1.720876685133106
 10
-36.2
 20
-1.615285786236114
 10
-36.2
 20
-1.509285838478092
 10
-36.2
 20
-1.402908383932071
 10
-36.2
 20
-1.296184964670118
 10
-36.2
 20
-1.189147122763102
 10
-36.2
 20
-1.081826400284086
 10
-36.2
 20
-0.9742543393050766
 10
-36.2
 20
-0.8664624818990773
 10
-36.2
 20
-0.758482370138097
 10
-36.2
 20
-0.6503455460930923
 10
-36.2
 20
-0.5420835518380898
 10
-36.2
 20
-0.4337279294440748
 10
-36.2
 20
-0.325310220984079
 10
-36.2
 20
-0.2168619685290878
 10
-36.2
 20
-0.1084147141530991
 10
-36.2
 20
0.0000000000739249
 10
-36.2
 20
-0.0000099998320877
  0
LWPOLYLINE
  5
B45
330
22
100
AcDbEntity
  8
SK3
100
AcDbPolyline
 90
       20
 70
     0
 43
0.0
 10
101.4361225361
 20
19.40003960147391
 10
101.441978006935
 20
19.39964436229491
 10
101.447831532001
 20
19.39918832755381
 10
101.453682248439
 20
19.39867177628693
 10
101.459529293391
 20
19.39809498752891
 10
101.4654841098429
 20
19.3974454094089
 10
101.471433302276
 20
19.39673384001091
 10
101.4773759570879
 20
19.39596057478394
 10
101.4833111606769
 20
19.3951259091709
 10
101.4892379994421
 20
19.39423013861892
 10
101.49526711677
 20
19.39325492730688
 10
101.501285635943
 20
19.39221690264281
 10
101.5072925906649
 20
19.39111637711292
 10
101.5133978981839
 20
19.38993154696689
 10
101.519489185577
 20
19.3886825340129
 10
101.525565431862
 20
19.38736966842188
 10
101.531625616059
 20
19.3859932803638
 10
101.5377784272739
 20
19.38452694295691
 10
101.5439124508819
 20
19.38299544297192
 10
101.547508236832
 20
19.38206511431991
  0
LWPOLYLINE
  5
B5B
330
22
100
AcDbEntity
  8
SK3
100
AcDbPolyline
 90
       19
 70
     0
 43
0.0
 10
101.5475179100999
 20
19.38206257897391
 10
101.553477185746
 20
19.38046729218391
 10
101.559528114441
 20
19.37877897532692
 10
101.565563125195
 20
19.37702583993192
 10
101.5715811872639
 20
19.37520818317992
 10
101.577581269906
 20
19.37332630224793
 10
101.5836670976089
 20
19.3713457885149
 10
101.58973215632
 20
19.36929939814891
 10
101.5957753600921
 20
19.36718744424289
 10
101.601795622976
 20
19.36501023989382
 10
101.6078950252999
 20
19.3627288729719
 10
101.6139684220409
 20
19.3603806397509
 10
101.6200146701071
 20
19.35796586980092
 10
101.6261343752159
 20
19.35544227355689
 10
101.63222361918
 20
19.35285055343991
 10
101.6382811997929
 20
19.35019105606392
 10
101.644305914847
 20
19.34746412804392
 10
101.650396110783
 20
19.34462298275093
 10
101.6509841637281
 20
19.34434408444781
  0
LWPOLYLINE
  5
B70
330
22
100
AcDbEntity
  8
SK3
100
AcDbPolyline
 90
       18
 70
     0
 43
0.0
 10
101.6509931966
 20
19.3443397940739
 10
101.6568297394029
 20
19.3415273247279
 10
101.6626370872139
 20
19.33864850694789
 10
101.668515402346
 20
19.33565182973393
 10
101.674462079062
 20
19.3325345650359
 10
101.6803744724229
 20
19.3293485925289
 10
101.6863508655301
 20
19.32603898774394
 10
101.692388334579
 20
19.32260310926091
 10
101.698483815528
 20
19.31903834409493
 10
101.7045368249219
 20
19.31540135899394
 10
101.710642741756
 20
19.3116327000009
 10
101.7167981497169
 20
19.30772986784791
 10
101.7229994775
 20
19.3036904033799
 10
101.729242994044
 20
19.2995118913339
 10
101.735524803699
 20
19.29519196416191
 10
101.741840841314
 20
19.29072830591892
 10
101.7481868672559
 20
19.28611865621192
 10
101.748453270488
 20
19.28592235484081
  0
LWPOLYLINE
  5
B84
330
22
100
AcDbEntity
  8
SK3
100
AcDbPolyline
 90
       30
 70
     0
 43
0.0
 10
101.7484613193001
 20
19.28591642047382
 10
101.754579557086
 20
19.2813452511819
 10
101.760823948531
 20
19.27655357109393
 10
101.7670070900259
 20
19.2716796651479
 10
101.773306918857
 20
19.26657757286381
 10
101.7795394133189
 20
19.2613904934079
 10
101.785878434059
 20
19.2559676943149
 10
101.7921435740639
 20
19.25045731913792
 10
101.798333492858
 20
19.24486055277282
 10
101.804615559608
 20
19.23901954267989
 10
101.810815296851
 20
19.23308981326991
 10
101.817095368806
 20
19.22690882354192
 10
101.8232854892939
 20
19.22063700448291
 10
101.829384081782
 20
19.21427574964591
 10
101.835232737443
 20
19.2079972876609
 10
101.840991832225
 20
19.20163675525481
 10
101.846508427257
 20
19.19537092332291
 10
101.8519385438661
 20
19.18903050690386
 10
101.8572813699829
 20
19.1826170553569
 10
101.862391325863
 20
19.1763132067139
 10
101.867417259531
 20
19.1699432123749
 10
101.8723584247279
 20
19.16350849613991
 10
101.877214075195
 20
19.1570104818079
 10
101.881848400301
 20
19.15063886424792
 10
101.8864006390969
 20
19.1442101627689
 10
101.8908701074799
 20
19.13772568258491
 10
101.895128318528
 20
19.13137981635691
 10
101.8993072864559
 20
19.12498382723794
 10
101.903406385764
 20
19.11853890863091
 10
101.9046273904129
 20
19.11658491405089
  0
LWPOLYLINE
  5
BA4
330
22
100
AcDbEntity
  8
SK3
100
AcDbPolyline
 90
       18
 70
     0
 43
0.0
 10
101.9046326738999
 20
19.11657642377392
 10
101.90862447642
 20
19.1100730826509
 10
101.912538254993
 20
19.10351808628991
 10
101.9163148457249
 20
19.09701494400593
 10
101.9200143236371
 20
19.09046464775989
 10
101.923579973166
 20
19.08397205486591
 10
101.9270147062979
 20
19.07754062553994
 10
101.930375048069
 20
19.07106896391292
 10
101.933607945421
 20
19.0646637000178
 10
101.9367675574859
 20
19.05822202401981
 10
101.939803266451
 20
19.0518516463629
 10
101.94276686042
 20
19.04544845129382
 10
101.945610155834
 20
19.0391211337739
 10
101.948382566717
 20
19.03276437606581
 10
101.951038340803
 20
19.02648776566593
 10
101.953624517021
 20
19.0201848827339
 10
101.956140552133
 20
19.01385680703294
 10
101.9570305225909
 20
19.01156893167092
  0
LWPOLYLINE
  5
BB8
330
22
100
AcDbEntity
  8
SK3
100
AcDbPolyline
 90
       18
 70
     0
 43
0.0
 10
101.9570341294001
 20
19.01155960477391
 10
101.959500038388
 20
19.00507574005192
 10
101.96189481206
 20
18.99856215059591
 10
101.9642182590829
 20
18.99202006446293
 10
101.9664701881229
 20
18.98545070970692
 10
101.9686146595029
 20
18.97896544437591
 10
101.9706896100309
 20
18.97245616693394
 10
101.972694857779
 20
18.96592404505091
 10
101.974630220823
 20
18.95937024639892
 10
101.9764955172359
 20
18.95279593864791
 10
101.9782905650909
 20
18.9462022894678
 10
101.980015182463
 20
18.93959046652992
 10
101.9816417427129
 20
18.93307412578491
 10
101.983199891077
 20
18.92654245984292
 10
101.984689454725
 20
18.9199965780009
 10
101.986110260825
 20
18.9134375895579
 10
101.987462136545
 20
18.90686660381092
 10
101.9887215150841
 20
18.90040812148981
  0
LWPOLYLINE
  5
BCC
330
22
100
AcDbEntity
  8
SK3
100
AcDbPolyline
 90
       20
 70
     0
 43
0.0
 10
101.9887233786999
 20
18.90039829667393
 10
101.989941545113
 20
18.89378760156882
 10
101.991091160807
 20
18.88716162347191
 10
101.992172026215
 20
18.8805214584799
 10
101.993183941767
 20
18.87386820268489
 10
101.9941267078939
 20
18.86720295218484
 10
101.995000125027
 20
18.86052680307293
 10
101.9958039935979
 20
18.85384085144591
 10
101.996525617531
 20
18.84726581085891
 10
101.9971797730289
 20
18.84068341043689
 10
101.997766271025
 20
18.8340946885969
 10
101.9982849224509
 20
18.82750068375691
 10
101.9987355382389
 20
18.8209024343349
 10
101.999117929323
 20
18.81430097874991
 10
101.999426809706
 20
18.8078174345228
 10
101.9996695625339
 20
18.80133278346091
 10
101.999846008865
 20
18.79484800836491
 10
101.999955969758
 20
18.78836409203589
 10
101.999999266272
 20
18.78188201727292
 10
101.99999999992
 20
18.78093192637791
  0
LWPOLYLINE
  5
BE2
330
22
100
AcDbEntity
  8
SK3
100
AcDbPolyline
 90
       36
 70
     0
 43
0.0
 10
102.0
 20
-18.78092192612618
 10
101.9999645985929
 20
-18.78756133826218
 10
101.999858513143
 20
-18.79420587574418
 10
101.999681921801
 20
-18.80085447439208
 10
101.999435002723
 20
-18.8075060700261
 10
101.999117934061
 20
-18.81415959846811
 10
101.998730893968
 20
-18.82081399553607
 10
101.9982740605999
 20
-18.82746819705016
 10
101.997747612108
 20
-18.83412113883216
 10
101.997151726647
 20
-18.84077175670109
 10
101.9964865823691
 20
-18.84741898647718
 10
101.9957523574299
 20
-18.85406176398118
 10
101.9949192747489
 20
-18.86093595468819
 10
101.9940124779969
 20
-18.8678030455541
 10
101.993032165104
 20
-18.87466185426018
 10
101.991978534003
 20
-18.88151119848618
 10
101.9908517826239
 20
-18.88834989591217
 10
101.989652108899
 20
-18.89517676421817
 10
101.988379710759
 20
-18.9019906210851
 10
101.987034786134
 20
-18.90879028419309
 10
101.985617532957
 20
-18.91557457122206
 10
101.984128149158
 20
-18.92234229985217
 10
101.982566832669
 20
-18.92909228776409
 10
101.9809337814209
 20
-18.9358233526392
 10
101.979229193345
 20
-18.94253431215509
 10
101.977453266372
 20
-18.94922398399518
 10
101.975541239966
 20
-18.95612067427518
 10
101.9735533008519
 20
-18.96299200929007
 10
101.97148966815
 20
-18.96983668014619
 10
101.9693505609809
 20
-18.97665337794709
 10
101.967136198466
 20
-18.9834407937991
 10
101.964846799727
 20
-18.99019761880811
 10
101.962482583885
 20
-18.99692254407819
 10
101.9600437700591
 20
-19.00361426071518
 10
101.957530577373
 20
-19.0102714598251
 10
101.9561634744569
 20
-19.01379828747917
  0
LWPOLYLINE
  5
C08
330
22
100
AcDbEntity
  8
SK3
100
AcDbPolyline
 90
       30
 70
     0
 43
0.0
 10
101.9561598318
 20
-19.01380760042619
 10
101.9536733747179
 20
-19.02006285935312
 10
101.9511162211309
 20
-19.02629602016517
 10
101.948488941195
 20
-19.0325060389232
 10
101.94570395872
 20
-19.03889100022309
 10
101.9428454873099
 20
-19.04524904171509
 10
101.9399141540969
 20
-19.0515790151361
 10
101.9369105862139
 20
-19.05787977222817
 10
101.933738164571
 20
-19.06434561269418
 10
101.9304902777729
 20
-19.07077790182117
 10
101.927167613601
 20
-19.07717538030118
 10
101.923666778586
 20
-19.08372898239909
 10
101.920088047889
 20
-19.09024291806409
 10
101.9164321737331
 20
-19.09671581000211
 10
101.9125889870899
 20
-19.10333475612111
 10
101.90866567009
 20
-19.10990724673618
 10
101.9046630432989
 20
-19.11643177941306
 10
101.900464178812
 20
-19.12309111209609
 10
101.896183168856
 20
-19.12969648280406
 10
101.891820906363
 20
-19.13624625661006
 10
101.8872537395959
 20
-19.1429183142362
 10
101.882602656217
 20
-19.14952814134116
 10
101.8777395367659
 20
-19.15624997207217
 10
101.872789976078
 20
-19.16290236795117
 10
101.8677550243221
 20
-19.16948340614516
 10
101.86249988407
 20
-19.1761614134752
 10
101.857157040801
 20
-19.18276015400818
 10
101.8515872859061
 20
-19.18944357368718
 10
101.845927691856
 20
-19.19603918016708
 10
101.8432148855019
 20
-19.19913318674409
  0
LWPOLYLINE
  5
C28
330
22
100
AcDbEntity
  8
SK3
100
AcDbPolyline
 90
        9
 70
     0
 43
0.0
 10
101.8432082669
 20
-19.19914068302617
 10
101.8377186787619
 20
-19.20527406384209
 10
101.8321460053001
 20
-19.2113330114872
 10
101.826408831109
 20
-19.21740216375019
 10
101.820463496103
 20
-19.22351890292518
 10
101.814348480406
 20
-19.22963482063019
 10
101.808233020797
 20
-19.23558071957009
 10
101.802165558
 20
-19.24131819386207
 10
101.8019129661791
 20
-19.24155364632619
  0
LWPOLYLINE
  5
C33
330
22
100
AcDbEntity
  8
SK3
100
AcDbPolyline
 90
       26
 70
     0
 43
0.0
 10
101.8019056493
 20
-19.24156046272611
 10
101.795708660531
 20
-19.24725263400108
 10
101.789288615752
 20
-19.25298397023019
 10
101.7827813310429
 20
-19.25862810366109
 10
101.77633000767
 20
-19.26406604858206
 10
101.76979902831
 20
-19.2694171872522
 10
101.763334807765
 20
-19.27456644472718
 10
101.7569440566859
 20
-19.27951799557309
 10
101.7506331420269
 20
-19.28427608450008
 10
101.7442591636869
 20
-19.28895284362119
 10
101.737974050218
 20
-19.29344105881608
 10
101.7317834125489
 20
-19.29774517255109
 10
101.725539650736
 20
-19.30197182145008
 10
101.7193982887621
 20
-19.30601963125119
 10
101.713208938222
 20
-19.30999155224208
 10
101.707129331927
 20
-19.3137900916451
 10
101.701006494622
 20
-19.31751448969109
 10
101.695000194955
 20
-19.32107113484619
 10
101.6889550626559
 20
-19.32455554174907
 10
101.683032738276
 20
-19.32787797228008
 10
101.6770756388291
 20
-19.3311302079382
 10
101.6710847710269
 20
-19.33431140580919
 10
101.665224364431
 20
-19.33733763977818
 10
101.659333870433
 20
-19.34029504958619
 10
101.653579036664
 20
-19.34310358862507
 10
101.6507831759889
 20
-19.34443949886508
  0
LWPOLYLINE
  5
C4F
330
22
100
AcDbEntity
  8
SK3
100
AcDbPolyline
 90
       12
 70
     0
 43
0.0
 10
101.6507741414
 20
-19.3444437856262
 10
101.6447704384469
 20
-19.34725052723519
 10
101.6387979267679
 20
-19.34996069722217
 10
101.6327941011261
 20
-19.35260417499316
 10
101.626825183765
 20
-19.35515327934806
 10
101.6208279289759
 20
-19.35763646567719
 10
101.614869109068
 20
-19.36002749570218
 10
101.6088847968769
 20
-19.36235340157918
 10
101.60294226064
 20
-19.36458938579011
 10
101.596976949114
 20
-19.36676105850319
 10
101.590989936235
 20
-19.36886811601207
 10
101.585392908284
 20
-19.37077296341908
  0
LWPOLYLINE
  5
C5D
330
22
100
AcDbEntity
  8
SK3
100
AcDbPolyline
 90
        8
 70
     0
 43
0.0
 10
101.5853834255
 20
-19.37077613782608
 10
101.579395256153
 20
-19.37274527420609
 10
101.5733857481819
 20
-19.37465082568909
 10
101.567393910876
 20
-19.3764811021982
 10
101.5614211209429
 20
-19.37823700267609
 10
101.555430503729
 20
-19.37993001371509
 10
101.549461360864
 20
-19.38154965868315
 10
101.5474010952811
 20
-19.38209318415309
  0
LWPOLYLINE
  5
C67
330
22
100
AcDbEntity
  8
SK3
100
AcDbPolyline
 90
       20
 70
     0
 43
0.0
 10
101.5473914214999
 20
-19.38209571752608
 10
101.5412757029179
 20
-19.38366232941018
 10
101.535140623102
 20
-19.38516412838109
 10
101.528987256069
 20
-19.38660076710519
 10
101.522927009492
 20
-19.38794799021815
 10
101.516851176484
 20
-19.38923169535908
 10
101.5107607745459
 20
-19.39045155346917
 10
101.504767917107
 20
-19.3915867978412
 10
101.498762959544
 20
-19.39265986715119
 10
101.492746864861
 20
-19.39367044996618
 10
101.486720596063
 20
-19.39461823485007
 10
101.480796962228
 20
-19.39548710288508
 10
101.474865365764
 20
-19.39629488284808
 10
101.4689267171599
 20
-19.39704128028717
 10
101.4629819269049
 20
-19.39772600075409
 10
101.457144212895
 20
-19.39833757521919
 10
101.451302323181
 20
-19.39888921664817
 10
101.445457117679
 20
-19.39938064694507
 10
101.4396094563089
 20
-19.39981158801308
 10
101.436132516758
 20
-19.40003897959619
  0
LWPOLYLINE
  5
C7D
330
22
100
AcDbEntity
  8
SK3
100
AcDbPolyline
 90
        2
 70
     0
 43
0.0
 10
80.5
 20
21.29674306397391
 10
80.61800173730906
 20
21.2622219005199
  0
LWPOLYLINE
  5
C81
330
22
100
AcDbEntity
  8
SK3
100
AcDbPolyline
 90
       17
 70
     0
 43
0.0
 10
80.61801134159997
 20
21.26221911527389
 10
80.88173986419201
 20
21.18724721810889
 10
81.14252796947596
 20
21.11610041749492
 10
81.3965856899361
 20
21.04967691016589
 10
81.64758718802199
 20
20.98687753723391
 10
81.89548629516798
 20
20.92763545394891
 10
82.13646514340698
 20
20.87271804222689
 10
82.37423001507199
 20
20.82113456847992
 10
82.60873766355599
 20
20.77280864138993
 10
82.83994554151798
 20
20.72765922085293
 10
83.07161429691602
 20
20.68492192386489
 10
83.29991762471298
 20
20.64527171552291
 10
83.52481651758399
 20
20.60862168047291
 10
83.746266925256
 20
20.57488075328089
 10
83.96805132750399
 20
20.54343334597891
 10
84.18631196708295
 20
20.5147869049089
 10
84.39716306390399
 20
20.48929177968194
  0
LWPOLYLINE
  5
C94
330
22
100
AcDbEntity
  8
SK3
100
AcDbPolyline
 90
        7
 70
     0
 43
0.0
 10
84.39717299749998
 20
20.48929062917392
 10
84.60957561649095
 20
20.46578289041892
 10
84.82002000286597
 20
20.44464957254991
 10
85.02957078341308
 20
20.42574470625388
 10
85.23819375148297
 20
20.40904938920593
 10
85.44585569435199
 20
20.39454443833091
 10
85.49999001922698
 20
20.39111067998593
  0
LWPOLYLINE
  5
C9D
330
22
100
AcDbEntity
  8
SK3
100
AcDbPolyline
 90
       39
 70
     0
 43
0.0
 10
90.0
 20
3.36749164817391
 10
89.96418403308897
 20
3.367684688589889
 10
89.92836500423797
 20
3.36826237404793
 10
89.89254752238897
 20
3.369222550858921
 10
89.85673619648199
 20
3.370563065336909
 10
89.82093563545896
 20
3.372281763794887
 10
89.78344685366797
 20
3.37448558430691
 10
89.74598024394907
 20
3.377099623956894
 10
89.70854110551398
 20
3.380121406503889
 10
89.67113473757498
 20
3.383548455707938
 10
89.63376643934399
 20
3.387378295328886
 10
89.59644151003407
 20
3.39160844912692
 10
89.55916524885699
 20
3.396236440860889
 10
89.52194295502398
 20
3.401259794290922
 10
89.48309216739408
 20
3.406931494845935
 10
89.44431080875295
 20
3.413028371701926
 10
89.40560157101907
 20
3.419544219625919
 10
89.36528895544308
 20
3.426783172521879
 10
89.32506050482301
 20
3.434464159313876
 10
89.28491909728796
 20
3.442579948625905
 10
89.24320079295609
 20
3.451488454520898
 10
89.20158331247398
 20
3.460852731314929
 10
89.15841158360597
 20
3.471066274910924
 10
89.11535608364497
 20
3.481754745810917
 10
89.07242047187597
 20
3.492908949956927
 10
89.02796430227397
 20
3.504975251806911
 10
88.98200580542697
 20
3.517997249102904
 10
88.93619575371799
 20
3.531525256511912
 10
88.88890760972698
 20
3.546056789656915
 10
88.84015963467996
 20
3.561632314529902
 10
88.79158704650697
 20
3.577745057294919
 10
88.74158144905596
 20
3.594943276304917
 10
88.69016313156896
 20
3.613263486772922
 10
88.63735320601199
 20
3.632740662906911
 10
88.58317177711299
 20
3.653409088247911
 10
88.52763818937697
 20
3.675301950127902
 10
88.46919621562994
 20
3.699102304046903
 10
88.40945666880797
 20
3.72422198696492
 10
88.35000915320696
 20
3.749995972816918
  0
LWPOLYLINE
  5
CC6
330
22
100
AcDbEntity
  8
SK3
100
AcDbPolyline
 90
       39
 70
     0
 43
0.0
 10
90.0
 20
-3.367491648026089
 10
90.03581595856397
 20
-3.367684663669081
 10
90.07163494385599
 20
-3.368262281285097
 10
90.10745234786398
 20
-3.369222356909119
 10
90.14326356257498
 20
-3.370562746575103
 10
90.179063979977
 20
-3.372281306314079
 10
90.21655257754298
 20
-3.374484977180088
 10
90.25401896953798
 20
-3.377098873767096
 10
90.29145785781798
 20
-3.380120531011101
 10
90.32886394423901
 20
-3.383547483849071
 10
90.36623193065699
 20
-3.387377267216066
 10
90.40355651892708
 20
-3.391607416048088
 10
90.44083241090598
 20
-3.396235465283098
 10
90.47805430844897
 20
-3.401258949855076
 10
90.51690466630395
 20
-3.406930865782101
 10
90.55568570167295
 20
-3.413027920312089
 10
90.59439474168199
 20
-3.419543883404088
 10
90.63470726816101
 20
-3.426782899575073
 10
90.67493573217999
 20
-3.434463901625093
 10
90.71507723814596
 20
-3.442579668413088
 10
90.75679571659899
 20
-3.451488121704102
 10
90.79841342477198
 20
-3.460852327572098
 10
90.841585426049
 20
-3.471065790404082
 10
90.88464121280498
 20
-3.481754186248082
 10
90.92757710354797
 20
-3.492908334057091
 10
90.97203353222599
 20
-3.504974610792089
 10
91.01799228731607
 20
-3.517996617180102
 10
91.06380260044806
 20
-3.531524661740064
 10
91.11109101528098
 20
-3.546056257773102
 10
91.159839267009
 20
-3.561631868167069
 10
91.208412124576
 20
-3.577744711367074
 10
91.25841798873995
 20
-3.594943043492094
 10
91.30983656474398
 20
-3.613263373768091
 10
91.36264670879496
 20
-3.632740653968085
 10
91.41682823418497
 20
-3.653409116394072
 10
91.47236183008997
 20
-3.675301967850089
 10
91.53080377625901
 20
-3.699102294236098
 10
91.59054332120996
 20
-3.724221969656099
 10
91.64999084679397
 20
-3.749995972665089
  0
LWPOLYLINE
  5
CEF
330
22
100
AcDbEntity
  8
SK3
100
AcDbPolyline
 90
       39
 70
     0
 43
0.0
 10
91.64999999999997
 20
3.750000000073924
 10
91.58740613554499
 20
3.722883204930923
 10
91.527651518695
 20
3.697798878818929
 10
91.46919479640098
 20
3.674034354392915
 10
91.41364715055198
 20
3.65217663958893
 10
91.35945191979699
 20
3.631543501988915
 10
91.30662844070696
 20
3.612101646612927
 10
91.25519700779696
 20
3.5938168010519
 10
91.205178793978
 20
3.576653924937886
 10
91.15659409800498
 20
3.560576409276933
 10
91.107834132416
 20
3.545037128036909
 10
91.06053452513709
 20
3.530541605059937
 10
91.01471353911898
 20
3.517049282885892
 10
90.96874425341098
 20
3.504063878876905
 10
90.92427785603797
 20
3.492033722133925
 10
90.881332629297
 20
3.480915097622897
 10
90.83826777532797
 20
3.4702629451549
 10
90.79508698311698
 20
3.460086439479908
 10
90.75346108964396
 20
3.450758436604928
 10
90.71173469491895
 20
3.441886834814908
 10
90.671585848619
 20
3.433807050386917
 10
90.63135030423698
 20
3.426162618246905
 10
90.59103096326097
 20
3.418960754583935
 10
90.55231564762797
 20
3.412480938086929
 10
90.513528591409
 20
3.406420556299906
 10
90.47467252087001
 20
3.400785786061902
 10
90.43744561554598
 20
3.395798103634916
 10
90.40016517851299
 20
3.391206103021914
 10
90.362836508796
 20
3.38701224593791
 10
90.32546490541998
 20
3.383218994098939
 10
90.28805566741098
 20
3.379828809217912
 10
90.25061409379398
 20
3.376844153009898
 10
90.21314548359598
 20
3.374267487189911
 10
90.17565513583997
 20
3.372101273471912
 10
90.1398534852
 20
3.370418676385924
 10
90.10404146525496
 20
3.369114449678903
 10
90.06822368478395
 20
3.368190734402929
 10
90.03240475256498
 20
3.367649671612923
 10
90.00001000000001
 20
3.367491648188888
  0
LWPOLYLINE
  5
D18
330
22
100
AcDbEntity
  8
SK3
100
AcDbPolyline
 90
       39
 70
     0
 43
0.0
 10
88.34999999999999
 20
-3.749999999926075
 10
88.41259370843998
 20
-3.722883275843088
 10
88.47234819660199
 20
-3.697799001914091
 10
88.53080480948799
 20
-3.674034514540096
 10
88.586352317373
 20
-3.652176843433068
 10
88.64054733628298
 20
-3.631543776119087
 10
88.69337049878996
 20
-3.612102030992105
 10
88.74480153617795
 20
-3.593817321212071
 10
88.79481931680698
 20
-3.576654588672113
 10
88.84340357429909
 20
-3.560577211340103
 10
88.89216310903597
 20
-3.545038056385095
 10
88.93946233178198
 20
-3.530542633395072
 10
88.98528299886896
 20
-3.517050377453074
 10
89.03125203869198
 20
-3.504065000590088
 10
89.07571822049296
 20
-3.492034811148073
 10
89.11866317607797
 20
-3.480916089147086
 10
89.16172773033499
 20
-3.470263798177086
 10
89.20490822976494
 20
-3.460087136957099
 10
89.24653388129497
 20
-3.450758990763091
 10
89.28826010484598
 20
-3.441887273369104
 10
89.328408882687
 20
-3.433807423817114
 10
89.36864448082298
 20
-3.426162990588068
 10
89.40896402567799
 20
-3.418961208724113
 10
89.44767970339697
 20
-3.41248156584308
 10
89.48646730978097
 20
-3.40642146770611
 10
89.52532407023898
 20
-3.400787035997097
 10
89.56255158584099
 20
-3.395799555975088
 10
89.59983257349998
 20
-3.39120764490508
 10
89.637161734525
 20
-3.387013781727119
 10
89.67453377022399
 20
-3.383220445382079
 10
89.71194338190597
 20
-3.379830114810118
 10
89.74938527087898
 20
-3.376845268950091
 10
89.78685413845198
 20
-3.374268386743096
 10
89.824344685934
 20
-3.372101947128101
 10
89.86014647375197
 20
-3.370419141368103
 10
89.89595857894398
 20
-3.3691147279971
 10
89.93177639302102
 20
-3.368190863053087
 10
89.967595307495
 20
-3.367649702569082
 10
89.99999000000006
 20
-3.367491648041067
  0
LWPOLYLINE
  5
D41
330
22
100
AcDbEntity
  8
SK3
100
AcDbPolyline
 90
       94
 70
     0
 43
0.0
 10
101.951982123
 20
-11.49999999992619
 10
101.9520314648489
 20
-11.50000031912617
 10
101.952080821192
 20
-11.50000127367218
 10
101.9521301882259
 20
-11.5000028589821
 10
101.9521795621469
 20
-11.50000507047818
 10
101.952228939151
 20
-11.50000790357617
 10
101.9522783154359
 20
-11.50001135369808
 10
101.952327687196
 20
-11.50001541626216
 10
101.952377050629
 20
-11.5000200866871
 10
101.952426401931
 20
-11.50002536039309
 10
101.952475737298
 20
-11.50003123279919
 10
101.952525052926
 20
-11.5000376993232
 10
101.952574345013
 20
-11.50004475538608
 10
101.9526236097539
 20
-11.50005239640708
 10
101.9526728433449
 20
-11.50006061780519
 10
101.952722041983
 20
-11.50006941499811
 10
101.952771201865
 20
-11.50007878340719
 10
101.9528203191859
 20
-11.50008871845108
 10
101.9528755205641
 20
-11.50010056697709
 10
101.952930657846
 20
-11.5001131203301
 10
101.9529857256179
 20
-11.50012637198819
 10
101.953040718462
 20
-11.50014031542909
 10
101.9530956309649
 20
-11.50015494413117
 10
101.953150457709
 20
-11.5001702515712
 10
101.9532051932791
 20
-11.50018623122719
 10
101.95325983226
 20
-11.50020287657719
 10
101.953314369235
 20
-11.50022018109908
 10
101.953368798789
 20
-11.50023813827019
 10
101.953423115506
 20
-11.50025674156919
 10
101.9534773139709
 20
-11.50027598447309
 10
101.9535313887669
 20
-11.50029586046008
 10
101.953591320243
 20
-11.50031867946117
 10
101.9536510849279
 20
-11.50034226304817
 10
101.953710675391
 20
-11.50036660227311
 10
101.9537700842049
 20
-11.50039168819009
 10
101.9538293039389
 20
-11.50041751185108
 10
101.953888327165
 20
-11.50044406431018
 10
101.953947146453
 20
-11.5004713366211
 10
101.9540057543759
 20
-11.50049931983517
 10
101.954064143503
 20
-11.50052800500717
 10
101.9541223064069
 20
-11.50055738319008
 10
101.9541860154449
 20
-11.50059048894107
 10
101.954249431875
 20
-11.50062441050119
 10
101.954312545808
 20
-11.50065913596219
 10
101.954375347357
 20
-11.50069465341619
 10
101.954437826634
 20
-11.5007309509551
 10
101.95449997375
 20
-11.50076801667117
 10
101.954561778818
 20
-11.50080583865517
 10
101.9546288008049
 20
-11.50084794752919
 10
101.9546953911209
 20
-11.50089092679408
 10
101.9547615369289
 20
-11.50093476098919
 10
101.954827225392
 20
-11.50097943465408
 10
101.954892443671
 20
-11.50102493232918
 10
101.9549625513309
 20
-11.50107513341908
 10
101.9550320757909
 20
-11.50112626377608
 10
101.9551010007311
 20
-11.50117830374409
 10
101.955169309828
 20
-11.50123123366816
 10
101.9552421660281
 20
-11.50128920785317
 10
101.955314268682
 20
-11.50134816682919
 10
101.9553855974049
 20
-11.50140808604709
 10
101.95546113905
 20
-11.50147332289018
 10
101.9555357437809
 20
-11.50153960367311
 10
101.955609386524
 20
-11.50160689820117
 10
101.955682042205
 20
-11.50167517627707
 10
101.9557536857529
 20
-11.50174440770718
 10
101.9558242920939
 20
-11.50181456229518
 10
101.9558892334359
 20
-11.50188084616718
 10
101.9559532290299
 20
-11.50194788335906
 10
101.956016258489
 20
-11.50201564932018
 10
101.9560783014299
 20
-11.50208411950217
 10
101.956135011576
 20
-11.50214830806217
 10
101.9561908372019
 20
-11.5022130630071
 10
101.956245761987
 20
-11.50227836468318
 10
101.956299769609
 20
-11.50234419343209
 10
101.9563528437471
 20
-11.50241052959907
 10
101.956400992608
 20
-11.50247219635517
 10
101.956448319329
 20
-11.50253426325918
 10
101.956494811074
 20
-11.50259671485119
 10
101.956540455005
 20
-11.50265953567009
 10
101.956585238285
 20
-11.50272271025619
 10
101.9566291480759
 20
-11.5027862231492
 10
101.9566686204179
 20
-11.50284472729117
 10
101.9567073381129
 20
-11.50290349080708
 10
101.956745291271
 20
-11.50296250178718
 10
101.9567824700061
 20
-11.5030217483241
 10
101.956818864428
 20
-11.50308121851009
 10
101.9568544646509
 20
-11.50314090043616
 10
101.9568892607859
 20
-11.50320078219511
 10
101.956923242944
 20
-11.50326085187816
 10
101.9569564012389
 20
-11.50332109757818
 10
101.956985821899
 20
-11.50337600911618
 10
101.9570145460789
 20
-11.50343104733409
 10
101.9570425663499
 20
-11.50348620328509
 10
101.957049126198
 20
-11.50349933780518
  0
LWPOLYLINE
  5
DA1
330
22
100
AcDbEntity
  8
SK3
100
AcDbPolyline
 90
        4
 70
     0
 43
0.0
 10
102.0
 20
11.7470454086739
 10
101.996053093686
 20
11.71981294154491
 10
101.979721457086
 20
11.61110273158888
 10
101.9788960251559
 20
11.60604693955181
  0
LWPOLYLINE
  5
DA7
330
22
100
AcDbEntity
  8
1
100
AcDbPolyline
 90
        2
 70
     0
 43
0.0
 10
101.4361225361
 20
19.40003960147391
 10
85.50000998077308
 20
20.39110944036392
  0
LWPOLYLINE
  5
DAB
330
22
100
AcDbEntity
  8
1
100
AcDbPolyline
 90
        2
 70
     0
 43
0.0
 10
85.5
 20
-20.39111006002611
 10
101.4361125554409
 20
-19.40004022296719
  0
LWPOLYLINE
  5
DAF
330
22
100
AcDbEntity
  8
1
100
AcDbPolyline
 90
       23
 70
     0
 43
0.0
 10
85.5
 20
20.3911100601739
 10
85.286620938988
 20
20.40547778319092
 10
85.07338970972401
 20
20.4220613485229
 10
84.86033221234896
 20
20.44084626086391
 10
84.64240894870597
 20
20.46234388724892
 10
84.42472273110297
 20
20.4861181853179
 10
84.207300309809
 20
20.51215279544991
 10
83.98511621823699
 20
20.54111070831092
 10
83.76324990986597
 20
20.57238900659689
 10
83.53669060166899
 20
20.6067529500159
 10
83.31050574278998
 20
20.64349255850792
 10
83.07970302028309
 20
20.68347554100089
 10
82.84933312357798
 20
20.72587903021991
 10
82.61442269719799
 20
20.77166892377693
 10
82.37502356496799
 20
20.8209667452769
 10
82.136160267196
 20
20.87278572613292
 10
81.89289147152399
 20
20.9282410624489
 10
81.645270751427
 20
20.98744416516991
 10
81.39335426518099
 20
21.0505037901649
 10
81.13719806726001
 20
21.11752455077394
 10
80.87685936440397
 20
21.18860711717591
 10
80.61239657391595
 20
21.2638480789519
 10
80.50000959112299
 20
21.29674023371692
  0
LWPOLYLINE
  5
DC8
330
22
100
AcDbEntity
  8
1
100
AcDbPolyline
 90
       23
 70
     0
 43
0.0
 10
80.5
 20
-21.29674306382611
 10
80.76901840544996
 20
-21.21892117749908
 10
81.03395423352706
 20
-21.14535779309108
 10
81.28982052979898
 20
-21.0772418494841
 10
81.541458975378
 20
-21.01308598309109
 10
81.78881414300397
 20
-20.95278729337707
 10
82.03679601440299
 20
-20.8951111361001
 10
82.28040815071299
 20
-20.84117931894909
 10
82.51959746850298
 20
-20.79087867890908
 10
82.75431092978999
 20
-20.7440919511501
 10
82.98950526065301
 20
-20.6997818879411
 10
83.220140920527
 20
-20.6588477010931
 10
83.44617008359099
 20
-20.6211652524421
 10
83.67258213994697
 20
-20.58584791804711
 10
83.89431271045499
 20
-20.55362735168609
 10
84.11636923156908
 20
-20.5237172367481
 10
84.33873184256
 20
-20.49614187897208
 10
84.556316833399
 20
-20.47147183274419
 10
84.77414980950797
 20
-20.44907226278008
 10
84.99220299969698
 20
-20.4289587570072
 10
85.20537114784298
 20
-20.41153485390609
 10
85.418696960092
 20
-20.39632127838618
 10
85.49999001922698
 20
-20.39111067983819
  0
LWPOLYLINE
  5
DE1
330
22
100
AcDbEntity
  8
1
100
AcDbPolyline
 90
        3
 70
     0
 43
0.0
 10
3.399999999199991
 20
-2.597341743726076
 10
3.408141476415977
 20
-1.822640003994109
 10
3.409732090578984
 20
-0.145623774125113
  0
LWPOLYLINE
  5
DE6
330
22
100
AcDbEntity
  8
1
100
AcDbPolyline
 90
        4
 70
     0
 43
0.0
 10
3.399999999199991
 20
-2.597341743726076
 10
3.364623625126995
 20
-4.285090622189102
 10
3.310130560287973
 20
-6.041739914269101
 10
3.294971959089963
 20
-6.449990007236095
  0
LWPOLYLINE
  5
DEC
330
22
100
AcDbEntity
  8
1
100
AcDbPolyline
 90
        4
 70
     0
 43
0.0
 10
3.29497156779999
 20
6.450000000073913
 10
3.354189283347977
 20
4.670365894137916
 10
3.393632106511972
 20
2.971140889192923
 10
3.399999850046981
 20
2.597351115008933
  0
LWPOLYLINE
  5
DF2
330
22
100
AcDbEntity
  8
1
100
AcDbPolyline
 90
       13
 70
     0
 43
0.0
 10
3.199999999999988
 20
-7.495841385926098
 10
3.209076098142986
 20
-7.436645427201085
 10
3.218129294948994
 20
-7.373194963508069
 10
3.227214086089958
 20
-7.304442195246082
 10
3.236478505904983
 20
-7.228295015370093
 10
3.246007567091993
 20
-7.142659371104087
 10
3.255193507798992
 20
-7.051709270550077
 10
3.26392682229499
 20
-6.955440610093091
 10
3.272182559286989
 20
-6.852803765746074
 10
3.279763573063974
 20
-6.744846397311107
 10
3.286373303740987
 20
-6.634719480519095
 10
3.291966984634001
 20
-6.522433902787099
 10
3.294971739704976
 20
-6.450009992616088
  0
LWPOLYLINE
  5
E01
330
22
100
AcDbEntity
  8
1
100
AcDbPolyline
 90
       13
 70
     0
 43
0.0
 10
3.29497212199999
 20
6.450000000073913
 10
3.290060439998967
 20
6.563366600135907
 10
3.284110444711984
 20
6.674582611722911
 10
3.277166377212978
 20
6.78363622268489
 10
3.269271236513986
 20
6.890517096179934
 10
3.260813387140984
 20
6.991028560062915
 10
3.251922295868979
 20
7.085172735756913
 10
3.242507336367992
 20
7.175044587996893
 10
3.233016797260972
 20
7.257513451869925
 10
3.223855562922977
 20
7.330496227425925
 10
3.214792661569987
 20
7.397130241774902
 10
3.205803875552987
 20
7.458465625684937
 10
3.200001567655959
 20
7.495831509715912
  0
LWPOLYLINE
  5
E10
330
22
100
AcDbEntity
  8
1
100
AcDbPolyline
 90
        3
 70
     0
 43
0.0
 10
3.409732085999962
 20
0.1456132289739287
 10
3.405628444196992
 20
2.151162574164914
 10
3.40000016815199
 20
2.597331117538914
  0
LWPOLYLINE
  5
E15
330
22
100
AcDbEntity
  8
1
100
AcDbPolyline
 90
      114
 70
     0
 43
0.0
 10
102.0
 20
18.78092192637391
 10
101.9999573286461
 20
18.78825931534894
 10
101.999829400806
 20
18.7956000659909
 10
101.999616345815
 20
18.80294302729788
 10
101.999318293009
 20
18.81028704826789
 10
101.9989353717219
 20
18.81763097789889
 10
101.998467711288
 20
18.82497366518791
 10
101.9979154410419
 20
18.8323139591339
 10
101.997278690319
 20
18.83965070873393
 10
101.996557588454
 20
18.8469827629859
 10
101.9957522647819
 20
18.8543089708879
 10
101.994862848637
 20
18.86162818143691
 10
101.993889469355
 20
18.86893924363281
 10
101.99269421651
 20
18.87715301563992
 10
101.991393045659
 20
18.88535337931893
 10
101.989986140952
 20
18.89353869584181
 10
101.988473686539
 20
18.90170732637881
 10
101.986855866571
 20
18.90985763210091
 10
101.985132865198
 20
18.91798797417789
 10
101.983304866571
 20
18.92609671378193
 10
101.9813720548389
 20
18.93418221208191
 10
101.979334614155
 20
18.94224283024991
 10
101.977192728667
 20
18.95027692945689
 10
101.974946582527
 20
18.95828287087192
 10
101.972596359885
 20
18.9662590156679
 10
101.970142244892
 20
18.97420372501389
 10
101.9675844216969
 20
18.9821153600819
 10
101.9649230744509
 20
18.98999228204192
 10
101.962158387306
 20
18.9978328520649
 10
101.959290544411
 20
19.00563543132091
 10
101.9563197310181
 20
19.01339838180689
 10
101.953246284066
 20
19.0211201791688
 10
101.9500708455439
 20
19.02879952760588
 10
101.946794093992
 20
19.03643515870482
 10
101.9434167079499
 20
19.0440258040519
 10
101.9399393659581
 20
19.05157019523293
 10
101.936362746557
 20
19.05906706383589
 10
101.9326875282871
 20
19.06651514144494
 10
101.9289143896889
 20
19.0739131596479
 10
101.925044009303
 20
19.0812598500309
 10
101.921077065668
 20
19.08855394418091
 10
101.9170142373259
 20
19.09579417368189
 10
101.912856202817
 20
19.10297927012291
 10
101.9086036406809
 20
19.11010796508893
 10
101.904257229458
 20
19.11717899016591
 10
101.8993186390329
 20
19.12496650442881
 10
101.894265954024
 20
19.13267951541991
 10
101.889100105214
 20
19.14031628320291
 10
101.883822023385
 20
19.14787506783889
 10
101.87843263932
 20
19.1553541293949
 10
101.872932883801
 20
19.16275172793183
 10
101.86732368761
 20
19.17006612351488
 10
101.86160598153
 20
19.17729557620589
 10
101.855780696343
 20
19.18443834606989
 10
101.849848762831
 20
19.1914926931708
 10
101.843811111777
 20
19.19845687757092
 10
101.8376686739631
 20
19.20532915933489
 10
101.831422387858
 20
19.2121078016429
 10
101.8250734537809
 20
19.21879117390591
 10
101.817972883371
 20
19.22603105571991
 10
101.8107519984959
 20
19.23315185804591
 10
101.803412848917
 20
19.2401515939909
 10
101.796639993177
 20
19.24640826078689
 10
101.7897726320459
 20
19.25256173788088
 10
101.782812305539
 20
19.2586105324909
 10
101.7757605536729
 20
19.26455315183588
 10
101.768618916464
 20
19.27038810313289
 10
101.761388933927
 20
19.27611389359993
 10
101.754072146079
 20
19.28172903045581
 10
101.746670092935
 20
19.28723202091794
 10
101.739184314511
 20
19.29262137220593
 10
101.7323768016389
 20
19.29737339308491
 10
101.7255038413739
 20
19.30203106883991
 10
101.718566556389
 20
19.30659331123482
 10
101.711566069355
 20
19.3110590320299
 10
101.704503502943
 20
19.31542714298689
 10
101.6973799798259
 20
19.31969655586792
 10
101.690196622674
 20
19.32386618243592
 10
101.68295455416
 20
19.32793493445288
 10
101.675654896955
 20
19.33190172367892
 10
101.668298773731
 20
19.33576546187788
 10
101.6608873071579
 20
19.33952506081093
 10
101.6534216199101
 20
19.34317943223991
 10
101.646740866207
 20
19.34633856089192
 10
101.6400193040151
 20
19.34941318387791
 10
101.633258271846
 20
19.35240293931991
 10
101.626459112677
 20
19.35530746860689
 10
101.619623169485
 20
19.35812641312893
 10
101.612751785249
 20
19.36085941427291
 10
101.6058463029459
 20
19.3635061134278
 10
101.5989080655529
 20
19.36606615198192
 10
101.591938416049
 20
19.36853917132592
 10
101.5849386974089
 20
19.37092481284682
 10
101.577910252613
 20
19.37322271793391
 10
101.570854424637
 20
19.37543252797494
 10
101.563772556459
 20
19.37755388435994
 10
101.5566659910569
 20
19.37958642847689
 10
101.549536071408
 20
19.3815298017148
 10
101.542384140489
 20
19.38338364546192
 10
101.535211541279
 20
19.38514760110689
 10
101.528019616754
 20
19.3868213100389
 10
101.520809709893
 20
19.38840441364692
 10
101.5135831636719
 20
19.38989655331889
 10
101.50634132107
 20
19.39129737044391
 10
101.499085525063
 20
19.39260650640992
 10
101.4918171186301
 20
19.39382360260691
 10
101.484537444748
 20
19.3949483004219
 10
101.477247846394
 20
19.39598024124592
 10
101.4699496665459
 20
19.3969190664659
 10
101.462644248182
 20
19.39776441746989
 10
101.455332934278
 20
19.3985159356489
 10
101.448017067813
 20
19.39917326238989
 10
101.440697991764
 20
19.39973603908191
 10
101.436132516758
 20
19.40003897974392
  0
LWPOLYLINE
  5
E89
330
22
100
AcDbEntity
  8
1
100
AcDbPolyline
 90
      114
 70
     0
 43
0.0
 10
101.4361225361
 20
-19.40003960132617
 10
101.443442921803
 20
-19.39953611476818
 10
101.4507609260759
 20
-19.39893787994006
 10
101.4580752061069
 20
-19.3982452532002
 10
101.4653844190839
 20
-19.39745859091019
 10
101.472687222196
 20
-19.39657824943109
 10
101.479982272631
 20
-19.39560458512218
 10
101.487268227578
 20
-19.39453795434516
 10
101.4945437442239
 20
-19.39337871345916
 10
101.501807479759
 20
-19.39212721882617
 10
101.509058091371
 20
-19.39078382680611
 10
101.5162942362479
 20
-19.38934889375909
 10
101.5235145715779
 20
-19.38782277604619
 10
101.53071775455
 20
-19.38620583002807
 10
101.5379024423529
 20
-19.38449841206417
 10
101.545067292174
 20
-19.3827008785162
 10
101.552210961202
 20
-19.38081358574311
 10
101.5593321066249
 20
-19.37883689010709
 10
101.566429385633
 20
-19.37677114796818
 10
101.5735014554121
 20
-19.37461671568619
 10
101.580546973152
 20
-19.37237394962207
 10
101.5875645960409
 20
-19.37004320613715
 10
101.594552981268
 20
-19.36762484159007
 10
101.60151078602
 20
-19.36511921234319
 10
101.608436667486
 20
-19.36252667475608
 10
101.615329282854
 20
-19.35984758519009
 10
101.622187289314
 20
-19.35708230000409
 10
101.629009344052
 20
-19.35423117556019
 10
101.635794104259
 20
-19.3512945682171
 10
101.642540227121
 20
-19.34827283433819
 10
101.6492463698279
 20
-19.34516633028119
 10
101.655911237113
 20
-19.34197544785817
 10
101.6633587050699
 20
-19.33828566406219
 10
101.670751609707
 20
-19.33449100714719
 10
101.678088825654
 20
-19.33059257097719
 10
101.685369227537
 20
-19.32659144941706
 10
101.692591689987
 20
-19.32248873633117
 10
101.699755087631
 20
-19.3182855255861
 10
101.706858295098
 20
-19.31398291104409
 10
101.713900187017
 20
-19.30958198657018
 10
101.7208796380159
 20
-19.30508384603007
 10
101.7277955227241
 20
-19.30048958328808
 10
101.73464671577
 20
-19.29580029220918
 10
101.741432091782
 20
-19.29101706665719
 10
101.7488928368799
 20
-19.28559353198219
 10
101.7562693933139
 20
-19.2800568797731
 10
101.763560217365
 20
-19.27440861053009
 10
101.7707637653129
 20
-19.2686502247532
 10
101.777878493439
 20
-19.2627832229432
 10
101.7849028580229
 20
-19.25680910559919
 10
101.791835315347
 20
-19.2507293732221
 10
101.79867432169
 20
-19.24454552631209
 10
101.8060874503569
 20
-19.23762483327209
 10
101.813383580747
 20
-19.23058197441918
 10
101.82056065817
 20
-19.22341894691917
 10
101.827616627936
 20
-19.21613774793519
 10
101.833924323581
 20
-19.20941761121418
 10
101.8401288184701
 20
-19.20260300880719
 10
101.8462291013919
 20
-19.19569562814618
 10
101.8522242388729
 20
-19.18869718395311
 10
101.858113297439
 20
-19.18160939094917
 10
101.863895343619
 20
-19.17443396385516
 10
101.8695694439389
 20
-19.16717261739518
 10
101.875134664926
 20
-19.15982706629009
 10
101.880590073106
 20
-19.15239902526008
 10
101.885934735008
 20
-19.14489020902908
 10
101.891167717157
 20
-19.13730233231717
 10
101.896288086082
 20
-19.12963710984707
 10
101.901294908308
 20
-19.12189625634019
 10
101.905703194369
 20
-19.11486624086518
 10
101.91001807099
 20
-19.1077776032061
 10
101.914238857668
 20
-19.10063159339717
 10
101.9183648739019
 20
-19.09342946146907
 10
101.92239543919
 20
-19.08617245745407
 10
101.9263298730299
 20
-19.07886183138507
 10
101.930167494921
 20
-19.07149883329308
 10
101.9339076243589
 20
-19.06408471321208
 10
101.937549580845
 20
-19.05662072117118
 10
101.941092683875
 20
-19.04910810720608
 10
101.944536252948
 20
-19.04154812134618
 10
101.9478796075621
 20
-19.0339420136242
 10
101.9511220672159
 20
-19.02629103407318
 10
101.9542629514069
 20
-19.01859643272519
 10
101.9573016029129
 20
-19.01085947903519
 10
101.960237639796
 20
-19.0030816721441
 10
101.9630708599549
 20
-18.99526466124217
 10
101.9658010643899
 20
-18.98741009810717
 10
101.968428054099
 20
-18.97951963451419
 10
101.9709516300819
 20
-18.97159492224011
 10
101.9733715933369
 20
-18.9636376130602
 10
101.975687744864
 20
-18.95564935875316
 10
101.977899885661
 20
-18.94763181109311
 10
101.980007816728
 20
-18.93958662185818
 10
101.9820113390639
 20
-18.9315154428231
 10
101.9839102536679
 20
-18.92341992576518
 10
101.9857043615389
 20
-18.91530172246118
 10
101.987393463676
 20
-18.90716248468615
 10
101.988977361078
 20
-18.89900386421817
 10
101.990455854743
 20
-18.89082751283217
 10
101.991828745672
 20
-18.8826350823052
 10
101.993095834864
 20
-18.87442822441412
 10
101.994256923316
 20
-18.86620859093517
 10
101.9951998527911
 20
-18.85889286019718
 10
101.996058731596
 20
-18.85156950037017
 10
101.996833419965
 20
-18.84423967154919
 10
101.997523778136
 20
-18.83690453382908
 10
101.9981296663409
 20
-18.82956524730611
 10
101.998650944818
 20
-18.82222297207619
 10
101.9990874738009
 20
-18.8148788682322
 10
101.999439113526
 20
-18.8075340958722
 10
101.9997057242269
 20
-18.8001898150892
 10
101.999887166141
 20
-18.79284718598018
 10
101.999983299501
 20
-18.78550736864011
 10
101.999999999921
 20
-18.78093192613019
  0
LWPOLYLINE
  5
EFD
330
22
100
AcDbEntity
  8
1
100
AcDbPolyline
 90
       48
 70
     0
 43
0.0
 10
20.03979577319999
 20
7.872873664173937
 10
20.016605312705
 20
7.873644482073899
 10
19.99342107028599
 20
7.874661494069897
 10
19.97024563168998
 20
7.875923681777919
 10
19.94708158266297
 20
7.877430026811907
 10
19.923931508951
 20
7.879179510788901
 10
19.89987303683799
 20
7.881255801207913
 10
19.87583538578298
 20
7.883592823677901
 10
19.85182146439999
 20
7.886189432653907
 10
19.82783418129997
 20
7.889044482591884
 10
19.80387644509798
 20
7.892156827947928
 10
19.77995116440598
 20
7.895525323176912
 10
19.756061247838
 20
7.8991488227349
 10
19.73220960400599
 20
7.903026181077905
 10
19.70839911770198
 20
7.907156102366911
 10
19.68280547727698
 20
7.911878900570911
 10
19.65635224570798
 20
7.917055513408911
 10
19.62813769035398
 20
7.922890758564903
 10
19.598176517155
 20
7.929421889350919
 10
19.56558090796096
 20
7.936893260875933
 10
19.52947640154997
 20
7.945579922182929
 10
19.48810821243995
 20
7.9560140766919
 10
19.43886801384997
 20
7.9690218848759
 10
19.38895747742299
 20
7.982786501634905
 10
19.34271056803797
 20
7.9960645549219
 10
19.300007206185
 20
8.008782133888928
 10
19.25988112188099
 20
8.021136262795891
 10
19.215989933456
 20
8.034859613478914
 10
19.20788979768397
 20
8.037232927832917
 10
19.20157815328699
 20
8.03900070070091
 10
19.19525538019897
 20
8.040685362343907
 10
19.18982628846197
 20
8.042053006536889
 10
19.18438773458996
 20
8.043341226274918
 10
19.17984795015098
 20
8.04434795675391
 10
19.175300839149
 20
8.04528874105091
 10
19.17074605811399
 20
8.046158674476913
 10
19.16709648004999
 20
8.046800312642886
 10
19.16344159748698
 20
8.047390956053931
 10
19.15978123456699
 20
8.047928093508915
 10
19.15611521543499
 20
8.048409213808895
 10
19.15244336423197
 20
8.048831805755924
 10
19.14876550510198
 20
8.049193358147931
 10
19.14508146218799
 20
8.049491359786912
 10
19.14139105963298
 20
8.04972329947293
 10
19.13769412157998
 20
8.049886666005903
 10
19.13399047217197
 20
8.049978948187913
 10
19.13120822499999
 20
8.050000000073936
 10
19.13121822497499
 20
8.049999999799922
  0
LWPOLYLINE
  5
F2F
330
22
100
AcDbEntity
  8
1
100
AcDbPolyline
 90
       30
 70
     0
 43
0.0
 10
19.13120822499999
 20
-8.0499999999262
 10
19.13319203654697
 20
-8.049989161763079
 10
19.13517454096299
 20
-8.049956911065095
 10
19.137272228293
 20
-8.049899864090093
 10
19.13936842887096
 20
-8.0498197246811
 10
19.14146313173498
 20
-8.049716962543072
 10
19.14367257003098
 20
-8.049584467537073
 10
19.14588031446797
 20
-8.049427842103085
 10
19.14820241187598
 20
-8.049237511608083
 10
19.15052260310799
 20
-8.049021700207106
 10
19.15295673592399
 20
-8.048768379411086
 10
19.15538873319198
 20
-8.048488422146078
 10
19.15793423037496
 20
-8.048167377002073
 10
19.16047734465999
 20
-8.04781877436207
 10
19.16313348549099
 20
-8.047425792095197
 10
19.16590228587699
 20
-8.046985670414102
 10
19.16878335756797
 20
-8.046495756662096
 10
19.17177629037999
 20
-8.045953534308097
 10
19.17488065148998
 20
-8.045356653142079
 10
19.17809598470498
 20
-8.044702960695076
 10
19.181536413976
 20
-8.043965349562085
 10
19.18508650425096
 20
-8.043164953569061
 10
19.18885996375397
 20
-8.042272922025063
 10
19.19296971986099
 20
-8.041256088982095
 10
19.19741391399299
 20
-8.040107292813075
 10
19.20241770006498
 20
-8.038758083463108
 10
19.20820383869898
 20
-8.037132453765195
 10
19.21533075156597
 20
-8.035047985021094
 10
19.22580873683498
 20
-8.031857017588095
 10
19.24537295521699
 20
-8.025695717235066
  0
LWPOLYLINE
  5
F4F
330
22
100
AcDbEntity
  8
1
100
AcDbPolyline
 90
        3
 70
     0
 43
0.0
 10
19.24538249
 20
-8.0256927025261
 10
19.29291163393498
 20
-8.0109388395731
 10
19.33450378272297
 20
-7.998476407033081
  0
LWPOLYLINE
  5
F54
330
22
100
AcDbEntity
  8
1
100
AcDbPolyline
 90
       26
 70
     0
 43
0.0
 10
19.33451337509999
 20
-7.998473581026075
 10
19.38280899297999
 20
-7.984525459006079
 10
19.43194500910397
 20
-7.970898197704087
 10
19.47984208115397
 20
-7.958153233316068
 10
19.52091646585296
 20
-7.947692946970107
 10
19.55721441603697
 20
-7.938861302421088
 10
19.59010440692199
 20
-7.931229052946093
 10
19.62026677748798
 20
-7.924565841212086
 10
19.64838862265097
 20
-7.918663745704094
 10
19.675163404795
 20
-7.913339645502105
 10
19.70058377604397
 20
-7.90856561273307
 10
19.72464230545699
 20
-7.904311056958079
 10
19.74874955223697
 20
-7.9003124095791
 10
19.77290215850999
 20
-7.8965718063981
 10
19.79638425933598
 20
-7.893189309094083
 10
19.81990220453497
 20
-7.890052481256105
 10
19.84345260242298
 20
-7.887162594179073
 10
19.86703206131199
 20
-7.884520919160081
 10
19.89063718951598
 20
-7.882128727494091
 10
19.91426459534799
 20
-7.879987290478112
 10
19.93719408806498
 20
-7.878151419164083
 10
19.96013824686298
 20
-7.876553690115088
 10
19.98309397914298
 20
-7.875195262521089
 10
20.00605819230299
 20
-7.874077295574068
 10
20.02902779374299
 20
-7.873200948462113
 10
20.03978577709398
 20
-7.872873942972063
  0
LWPOLYLINE
  5
F70
330
22
100
AcDbEntity
  8
1
100
AcDbPolyline
 90
        2
 70
     0
 43
0.0
 10
21.35084966319999
 20
-7.834338231326114
 10
20.03980576930698
 20
-7.872873384903073
  0
LWPOLYLINE
  5
F74
330
22
100
AcDbEntity
  8
1
100
AcDbPolyline
 90
        2
 70
     0
 43
0.0
 10
20.03979577319999
 20
7.872873664173937
 10
21.35083966796597
 20
7.834338540190913
  0
LWPOLYLINE
  5
F78
330
22
100
AcDbEntity
  8
1
100
AcDbPolyline
 90
        2
 70
     0
 43
0.0
 10
3.409732086099978
 20
-0.1456137741261045
 10
3.409732081520985
 20
0.1456032289749203
  0
INSERT
  5
12CB
330
22
100
AcDbEntity
  8
1
100
AcDbBlockReference
  2
nullpunkt_1
 10
0.0
 20
0.0
 30
0.0
  0
INSERT
  5
12CC
330
22
100
AcDbEntity
  8
1
100
AcDbBlockReference
  2
nullpunkt_2
 10
102.0
 20
0.000000000146315
 30
0.0
  0
LINE
  5
15EF
330
22
100
AcDbEntity
  8
NOCUT
100
AcDbLine
 10
102.0
 20
19.43509784898083
 30
0.0
 11
102.0
 21
0.0000000000739249
 31
0.0
  0
LINE
  5
15F1
330
22
100
AcDbEntity
  8
NOCUT
100
AcDbLine
 10
17.5
 20
31.77500000002391
 30
0.0
 11
14.3475
 21
31.77500000002391
 31
0.0
  0
LINE
  5
15F2
330
22
100
AcDbEntity
  8
NOCUT
100
AcDbLine
 10
7.852499999999992
 20
31.77500000002391
 30
0.0
 11
4.799999999999982
 21
31.77500000002391
 31
0.0
  0
LINE
  5
15F3
330
22
100
AcDbEntity
  8
NOCUT
100
AcDbLine
 10
9.724999999999994
 20
28.1250000000239
 30
0.0
 11
12.47499999999999
 21
28.1250000000239
 31
0.0
  0
LINE
  5
15F4
330
22
100
AcDbEntity
  8
NOCUT
100
AcDbLine
 10
0.3196152421999727
 20
21.80829262152389
 30
0.0
 11
2.409731931199985
 21
21.80829262152389
 31
0.0
  0
LINE
  5
15F5
330
22
100
AcDbEntity
  8
NOCUT
100
AcDbLine
 10
101.4361225360815
 20
20.034009497212
 30
0.0
 11
20.03979577319689
 21
24.9433175046386
 31
0.0
  0
LINE
  5
15F6
330
22
100
AcDbEntity
  8
NOCUT
100
AcDbLine
 10
0.0
 20
21.8939332675655
 30
0.0
 11
0.3196152421999727
 21
21.80829262152389
 31
0.0
  0
LINE
  5
15F9
330
22
100
AcDbEntity
  8
NOCUT
100
AcDbLine
 10
7.852499999999992
 20
31.77500000002391
 30
0.0
 11
9.224999999999994
 21
29.39776026662392
 31
0.0
  0
LINE
  5
15FA
330
22
100
AcDbEntity
  8
NOCUT
100
AcDbLine
 10
19.09999999999999
 20
25.94150358502393
 30
0.0
 11
19.09999999999999
 21
30.17500000002391
 31
0.0
  0
LINE
  5
15FF
330
22
100
AcDbEntity
  8
NOCUT
100
AcDbLine
 10
12.97499999999999
 20
28.6250000000239
 30
0.0
 11
12.97499999999999
 21
29.39776026662392
 31
0.0
  0
LINE
  5
1601
330
22
100
AcDbEntity
  8
NOCUT
100
AcDbLine
 10
9.224999999999994
 20
29.39776026662381
 30
0.0
 11
9.224999999999994
 21
28.6250000000239
 31
0.0
  0
LINE
  5
160A
330
22
100
AcDbEntity
  8
NOCUT
100
AcDbLine
 10
12.97499999999999
 20
29.39776026662392
 30
0.0
 11
14.3475
 21
31.77500000002391
 31
0.0
  0
ARC
  5
1615
330
22
100
AcDbEntity
  8
NOCUT
100
AcDbCircle
 10
20.20319875601931
 20
26.03866558378539
 30
0.0
 40
1.10746916403387
100
AcDbArc
 50
185.033222703431
 51
261.5152420035689
  0
ARC
  5
1616
330
22
100
AcDbEntity
  8
NOCUT
100
AcDbCircle
 10
9.724999999999994
 20
28.6250000000239
 30
0.0
 40
0.5
100
AcDbArc
 50
180.0
 51
270.0
  0
ARC
  5
1618
330
22
100
AcDbEntity
  8
NOCUT
100
AcDbCircle
 10
12.47499999999999
 20
28.6250000000239
 30
0.0
 40
0.5
100
AcDbArc
 50
270.0
 51
0.0
  0
ARC
  5
161A
330
22
100
AcDbEntity
  8
NOCUT
100
AcDbCircle
 10
2.409731931199985
 20
22.80829262152389
 30
0.0
 40
1.0
100
AcDbArc
 50
270.0
 51
322.2105699980897
  0
ARC
  5
161F
330
22
100
AcDbEntity
  8
NOCUT
100
AcDbCircle
 10
4.804686429320469
 20
30.17031357070351
 30
0.0
 40
1.604693272580391
100
AcDbArc
 50
90.16732979899062
 51
179.8326702010119
  0
ARC
  5
1621
330
22
100
AcDbEntity
  8
NOCUT
100
AcDbCircle
 10
17.49082314743489
 20
30.16582314745881
 30
0.0
 40
1.609203019340446
100
AcDbArc
 50
0.3267442111578934
 51
89.67325578884262
  0
LINE
  5
1674
330
22
100
AcDbEntity
  8
NOCUT
100
AcDbLine
 10
0.0
 20
0.0000000000739249
 30
0.0
 11
0.0
 21
21.8939332675655
 31
0.0
  0
LINE
  5
167C
330
22
100
AcDbEntity
  8
NOCUT
100
AcDbLine
 10
102.0
 20
0.0000000000739249
 30
0.0
 11
0.0
 21
0.0000000000739249
 31
0.0
  0
LINE
  5
167D
330
22
100
AcDbEntity
  8
NOCUT
100
AcDbLine
 10
3.199999999999988
 20
22.19553134709881
 30
0.0
 11
3.199999999999988
 21
30.17500000002391
 31
0.0
  0
ARC
  5
167E
330
22
100
AcDbEntity
  8
NOCUT
100
AcDbCircle
 10
101.4
 20
19.43509784898083
 30
0.0
 40
0.6
100
AcDbArc
 50
359.9999999999998
 51
86.54846470703414
  0
ENDSEC
  0
SECTION
  2
OBJECTS
  0
DICTIONARY
  5
C
330
0
100
AcDbDictionary
281
     1
  3
ACAD_COLOR
350
1B
  3
ACAD_GROUP
350
D
  3
ACAD_LAYOUT
350
19
  3
ACAD_MATERIAL
350
1A
  3
ACAD_MLINESTYLE
350
16
  3
ACAD_PLOTSETTINGS
350
18
  3
ACAD_PLOTSTYLENAME
350
E
  3
ACAD_TABLESTYLE
350
1C
  3
ACDBHEADERROUNDTRIPXREC
350
1724
  3
AcDbVariableDictionary
350
1681
  0
DICTIONARY
  5
167A
330
22
100
AcDbDictionary
280
     1
281
     1
  3
ACAD_SORTENTS
360
167B
  0
DICTIONARY
  5
1B
102
{ACAD_REACTORS
330
C
102
}
330
C
100
AcDbDictionary
281
     1
  0
DICTIONARY
  5
D
102
{ACAD_REACTORS
330
C
102
}
330
C
100
AcDbDictionary
281
     1
  0
DICTIONARY
  5
19
102
{ACAD_REACTORS
330
C
102
}
330
C
100
AcDbDictionary
281
     1
  3
Layout1
350
21
  3
Model
350
25
  0
DICTIONARY
  5
1A
102
{ACAD_REACTORS
330
C
102
}
330
C
100
AcDbDictionary
281
     1
  0
DICTIONARY
  5
16
102
{ACAD_REACTORS
330
C
102
}
330
C
100
AcDbDictionary
281
     1
  3
Standard
350
17
  0
DICTIONARY
  5
18
102
{ACAD_REACTORS
330
C
102
}
330
C
100
AcDbDictionary
281
     1
  0
ACDBDICTIONARYWDFLT
  5
E
102
{ACAD_REACTORS
330
C
102
}
330
C
100
AcDbDictionary
281
     1
  3
Normal
350
F
100
AcDbDictionaryWithDefault
340
F
  0
DICTIONARY
  5
1C
102
{ACAD_REACTORS
330
C
102
}
330
C
100
AcDbDictionary
281
     1
  3
Standard
350
1D
  0
DICTIONARY
  5
1724
102
{ACAD_REACTORS
330
C
102
}
330
C
100
AcDbDictionary
281
     1
  0
DICTIONARY
  5
1681
102
{ACAD_REACTORS
330
C
102
}
330
C
100
AcDbDictionary
281
     1
  3
CTABLESTYLE
350
1682
  3
DIMASSOC
350
1684
  3
PROJECTNAME
350
1685
  0
SORTENTSTABLE
  5
167B
102
{ACAD_REACTORS
330
167A
102
}
330
167A
100
AcDbSortentsTable
330
22
331
DC8
  5
DC8
331
F2F
  5
F2F
331
F4F
  5
F4F
331
607
  5
607
331
646
  5
646
331
64E
  5
64E
331
5FC
  5
5FC
331
60F
  5
60F
331
617
  5
617
331
656
  5
656
331
61F
  5
61F
331
695
  5
695
331
D41
  5
D41
331
E10
  5
E10
331
985
  5
985
331
DA1
  5
DA1
331
98D
  5
98D
331
5F4
  5
5F4
331
69D
  5
69D
331
804
  5
804
331
627
  5
627
331
666
  5
666
331
66E
  5
66E
331
62F
  5
62F
331
676
  5
676
331
6AD
  5
6AD
331
637
  5
637
331
63F
  5
63F
331
6B5
  5
6B5
331
995
  5
995
331
99D
  5
99D
331
DE1
  5
DE1
331
C33
  5
C33
331
9A5
  5
9A5
331
B84
  5
B84
331
9AD
  5
9AD
331
600
  5
600
331
608
  5
608
331
647
  5
647
331
67E
  5
67E
331
5FD
  5
5FD
331
610
  5
610
331
64F
  5
64F
331
68E
  5
68E
331
618
  5
618
331
657
  5
657
331
696
  5
696
331
9B5
  5
9B5
331
BA4
  5
BA4
331
92E
  5
92E
331
F70
  5
F70
331
E01
  5
E01
331
F78
  5
F78
331
BCC
  5
BCC
331
E89
  5
E89
331
B45
  5
B45
331
5F5
  5
5F5
331
620
  5
620
331
628
  5
628
331
667
  5
667
331
69E
  5
69E
331
630
  5
630
331
66F
  5
66F
331
6A6
  5
6A6
331
6AE
  5
6AE
331
638
  5
638
331
677
  5
677
331
6B6
  5
6B6
331
601
  5
601
331
640
  5
640
331
67F
  5
67F
331
609
  5
609
331
648
  5
648
331
650
  5
650
331
687
  5
687
331
5FE
  5
5FE
331
611
  5
611
331
619
  5
619
331
658
  5
658
331
68F
  5
68F
331
697
  5
697
331
DF2
  5
DF2
331
97F
  5
97F
331
5F6
  5
5F6
331
621
  5
621
331
660
  5
660
331
69F
  5
69F
331
629
  5
629
331
668
  5
668
331
670
  5
670
331
6A7
  5
6A7
331
631
  5
631
331
8B6
  5
8B6
331
639
  5
639
331
6AF
  5
6AF
331
6B7
  5
6B7
331
C94
  5
C94
331
DAB
  5
DAB
331
641
  5
641
331
678
  5
678
331
602
  5
602
331
60A
  5
60A
331
649
  5
649
331
680
  5
680
331
5FF
  5
5FF
331
612
  5
612
331
651
  5
651
331
690
  5
690
331
61A
  5
61A
331
659
  5
659
331
7FF
  5
7FF
331
C5D
  5
C5D
331
C7D
  5
C7D
331
A7F
  5
A7F
331
5F7
  5
5F7
331
661
  5
661
331
698
  5
698
331
622
  5
622
331
62A
  5
62A
331
669
  5
669
331
6A0
  5
6A0
331
6A8
  5
6A8
331
632
  5
632
331
671
  5
671
331
6B0
  5
6B0
331
63A
  5
63A
331
C9D
  5
C9D
331
DEC
  5
DEC
331
679
  5
679
331
6B8
  5
6B8
331
12CB
  5
12CB
331
603
  5
603
331
642
  5
642
331
64A
  5
64A
331
681
  5
681
331
5F8
  5
5F8
331
60B
  5
60B
331
652
  5
652
331
689
  5
689
331
613
  5
613
331
61B
  5
61B
331
65A
  5
65A
331
691
  5
691
331
989
  5
989
331
5F0
  5
5F0
331
699
  5
699
331
623
  5
623
331
662
  5
662
331
6A1
  5
6A1
331
62B
  5
62B
331
66A
  5
66A
331
672
  5
672
331
6A9
  5
6A9
331
633
  5
633
331
63B
  5
63B
331
6B1
  5
6B1
331
991
  5
991
331
999
  5
999
331
B70
  5
B70
331
9A1
  5
9A1
331
9A9
  5
9A9
331
CC6
  5
CC6
331
C4F
  5
C4F
331
6B9
  5
6B9
331
643
  5
643
331
67A
  5
67A
331
12CC
  5
12CC
331
604
  5
604
331
731
  5
731
331
60C
  5
60C
331
64B
  5
64B
331
682
  5
682
331
5F9
  5
5F9
331
68A
  5
68A
331
789
  5
789
331
614
  5
614
331
653
  5
653
331
65B
  5
65B
331
692
  5
692
331
61C
  5
61C
331
9B1
  5
9B1
331
9B9
  5
9B9
331
BB8
  5
BB8
331
F54
  5
F54
331
C67
  5
C67
331
F74
  5
F74
331
E15
  5
E15
331
5F1
  5
5F1
331
663
  5
663
331
69A
  5
69A
331
624
  5
624
331
809
  5
809
331
62C
  5
62C
331
66B
  5
66B
331
6A2
  5
6A2
331
6AA
  5
6AA
331
634
  5
634
331
673
  5
673
331
6B2
  5
6B2
331
63C
  5
63C
331
C08
  5
C08
331
C28
  5
C28
331
EFD
  5
EFD
331
DE6
  5
DE6
331
67B
  5
67B
331
605
  5
605
331
644
  5
644
331
64C
  5
64C
331
683
  5
683
331
60D
  5
60D
331
654
  5
654
331
615
  5
615
331
61D
  5
61D
331
65C
  5
65C
331
693
  5
693
331
CEF
  5
CEF
331
DA7
  5
DA7
331
5F2
  5
5F2
331
69B
  5
69B
331
625
  5
625
331
664
  5
664
331
66C
  5
66C
331
6A3
  5
6A3
331
62D
  5
62D
331
674
  5
674
331
6AB
  5
6AB
331
635
  5
635
331
63D
  5
63D
331
6B3
  5
6B3
331
DAF
  5
DAF
331
606
  5
606
331
645
  5
645
331
67C
  5
67C
331
5FB
  5
5FB
331
60E
  5
60E
331
64D
  5
64D
331
68C
  5
68C
331
616
  5
616
331
655
  5
655
331
65D
  5
65D
331
694
  5
694
331
61E
  5
61E
331
D18
  5
D18
331
BE2
  5
BE2
331
C81
  5
C81
331
5F3
  5
5F3
331
665
  5
665
331
69C
  5
69C
331
626
  5
626
331
62E
  5
62E
331
66D
  5
66D
331
6AC
  5
6AC
331
636
  5
636
331
675
  5
675
331
6B4
  5
6B4
331
63E
  5
63E
331
B5B
  5
B5B
  0
LAYOUT
  5
21
102
{ACAD_XDICTIONARY
360
1725
102
}
102
{ACAD_REACTORS
330
19
102
}
330
19
100
AcDbPlotSettings
  1

  2
\\ingdom02\ITB3
  4

  6

 40
0.0
 41
0.0
 42
0.0
 43
0.0
 44
0.0
 45
0.0
 46
0.0
 47
0.0
 48
0.0
 49
0.0
140
0.0
141
0.0
142
1.0
143
1.0
 70
   688
 72
     0
 73
     0
 74
     5
  7

 75
    16
147
1.0
148
0.0
149
0.0
100
AcDbLayout
  1
Layout1
 70
     1
 71
     1
 10
0.0
 20
0.0
 11
12.0
 21
9.0
 12
0.0
 22
0.0
 32
0.0
 14
100.0
 24
100.0
 34
100.0
 15
-100.0
 25
-100.0
 35
-100.0
146
0.0
 13
0.0
 23
0.0
 33
0.0
 16
1.0
 26
0.0
 36
0.0
 17
0.0
 27
1.0
 37
0.0
 76
     0
330
1E
  0
LAYOUT
  5
25
102
{ACAD_XDICTIONARY
360
1727
102
}
102
{ACAD_REACTORS
330
19
102
}
330
19
100
AcDbPlotSettings
  1

  2
\\ingdom02\ITB3
  4

  6

 40
0.0
 41
0.0
 42
0.0
 43
0.0
 44
0.0
 45
0.0
 46
0.0
 47
0.0
 48
0.0
 49
0.0
140
0.0
141
0.0
142
1.0
143
1.0
 70
  1712
 72
     0
 73
     0
 74
     0
  7

 75
     0
147
1.0
148
0.0
149
0.0
100
AcDbLayout
  1
Model
 70
     1
 71
     0
 10
0.0
 20
0.0
 11
12.0
 21
9.0
 12
0.0
 22
0.0
 32
0.0
 14
0.0
 24
0.0
 34
0.0
 15
0.0
 25
0.0
 35
0.0
146
0.0
 13
0.0
 23
0.0
 33
0.0
 16
1.0
 26
0.0
 36
0.0
 17
0.0
 27
1.0
 37
0.0
 76
     0
330
22
  0
MLINESTYLE
  5
17
102
{ACAD_REACTORS
330
16
102
}
330
16
100
AcDbMlineStyle
  2
STANDARD
 70
     0
  3

 62
   256
 51
90.0
 52
90.0
 71
     2
 49
0.5
 62
   256
  6
BYLAYER
 49
-0.5
 62
   256
  6
BYLAYER
  0
ACDBPLACEHOLDER
  5
F
102
{ACAD_REACTORS
330
E
102
}
330
E
  0
TABLESTYLE
  5
1D
102
{ACAD_REACTORS
330
1C
102
}
330
1C
100
AcDbTableStyle
  3
Standard
 70
     0
 71
     0
 40
0.06
 41
0.06
280
     0
281
     0
  7
STANDARD
140
0.18
170
     2
 62
     0
 63
     7
283
     0
274
    -2
284
     1
 64
     0
275
    -2
285
     1
 65
     0
276
    -2
286
     1
 66
     0
277
    -2
287
     1
 67
     0
278
    -2
288
     1
 68
     0
279
    -2
289
     1
 69
     0
  7
STANDARD
140
0.25
170
     5
 62
     0
 63
     7
283
     0
274
    -2
284
     1
 64
     0
275
    -2
285
     1
 65
     0
276
    -2
286
     1
 66
     0
277
    -2
287
     1
 67
     0
278
    -2
288
     1
 68
     0
279
    -2
289
     1
 69
     0
  7
STANDARD
140
0.18
170
     5
 62
     0
 63
     7
283
     0
274
    -2
284
     1
 64
     0
275
    -2
285
     1
 65
     0
276
    -2
286
     1
 66
     0
277
    -2
287
     1
 67
     0
278
    -2
288
     1
 68
     0
279
    -2
289
     1
 69
     0
  0
DICTIONARYVAR
  5
1682
102
{ACAD_REACTORS
330
1681
102
}
330
1681
100
DictionaryVariables
280
     0
  1
STANDARD
  0
DICTIONARYVAR
  5
1684
102
{ACAD_REACTORS
330
1681
102
}
330
1681
100
DictionaryVariables
280
     0
  1
1
  0
DICTIONARYVAR
  5
1685
102
{ACAD_REACTORS
330
1681
102
}
330
1681
100
DictionaryVariables
280
     0
  1

  0
DICTIONARY
  5
1725
330
21
100
AcDbDictionary
280
     1
281
     1
  3
ACAD_XREC_ROUNDTRIP
360
1726
  0
DICTIONARY
  5
1727
330
25
100
AcDbDictionary
280
     1
281
     1
  3
ACAD_XREC_ROUNDTRIP
360
1728
  0
XRECORD
  5
1726
102
{ACAD_REACTORS
330
1725
102
}
330
1725
100
AcDbXrecord
280
     1
102
SHADEPLOT
 70
     0
102
SHADEPLOTRESLEVEL
 70
     2
102
SHADEPLOTCUSTOMDPI
 70
   300
  0
XRECORD
  5
1728
102
{ACAD_REACTORS
330
1727
102
}
330
1727
100
AcDbXrecord
280
     1
102
SHADEPLOT
 70
     0
102
SHADEPLOTRESLEVEL
 70
     2
102
SHADEPLOTCUSTOMDPI
 70
   300
  0
ENDSEC
  0
EOF
