  0
SECTION
  2
HEADER
  9
$ACADVER
  1
AC1015
  9
$ACADMAINTVER
 70
    20
  9
$DWGCODEPAGE
  3
ANSI_1252
  9
$INSBASE
 10
0.0
 20
0.0
 30
0.0
  9
$EXTMIN
 10
-94.14013845132263
 20
-42.39382164324513
 30
-0.0000000349181948
  9
$EXTMAX
 10
116.3781963208596
 20
65.63137165391686
 30
0.0000000814935747
  9
$LIMMIN
 10
0.0
 20
0.0
  9
$LIMMAX
 10
420.0
 20
297.0
  9
$ORTHOMODE
 70
     0
  9
$REGENMODE
 70
     1
  9
$FILLMODE
 70
     1
  9
$QTEXTMODE
 70
     0
  9
$MIRRTEXT
 70
     0
  9
$LTSCALE
 40
10.0
  9
$ATTMODE
 70
     1
  9
$TEXTSIZE
 40
0.2
  9
$TRACEWID
 40
0.05
  9
$TEXTSTYLE
  7
STANDARD
  9
$CLAYER
  8
0
  9
$CELTYPE
  6
ByLayer
  9
$CECOLOR
 62
   256
  9
$CELTSCALE
 40
1.0
  9
$DISPSILH
 70
     0
  9
$DIMSCALE
 40
1.0
  9
$DIMASZ
 40
3.5
  9
$DIMEXO
 40
0.625
  9
$DIMDLI
 40
3.75
  9
$DIMRND
 40
0.0
  9
$DIMDLE
 40
0.0
  9
$DIMEXE
 40
2.0
  9
$DIMTP
 40
0.0
  9
$DIMTM
 40
0.0
  9
$DIMTXT
 40
3.5
  9
$DIMCEN
 40
2.5
  9
$DIMTSZ
 40
0.0
  9
$DIMTOL
 70
     0
  9
$DIMLIM
 70
     0
  9
$DIMTIH
 70
     0
  9
$DIMTOH
 70
     0
  9
$DIMSE1
 70
     0
  9
$DIMSE2
 70
     0
  9
$DIMTAD
 70
     1
  9
$DIMZIN
 70
     8
  9
$DIMBLK
  1

  9
$DIMASO
 70
     1
  9
$DIMSHO
 70
     1
  9
$DIMPOST
  1

  9
$DIMAPOST
  1

  9
$DIMALT
 70
     0
  9
$DIMALTD
 70
     3
  9
$DIMALTF
 40
0.03937007874016
  9
$DIMLFAC
 40
1.0
  9
$DIMTOFL
 70
     1
  9
$DIMTVP
 40
0.0
  9
$DIMTIX
 70
     0
  9
$DIMSOXD
 70
     0
  9
$DIMSAH
 70
     0
  9
$DIMBLK1
  1

  9
$DIMBLK2
  1

  9
$DIMSTYLE
  2
ISO-25
  9
$DIMCLRD
 70
   256
  9
$DIMCLRE
 70
   256
  9
$DIMCLRT
 70
   256
  9
$DIMTFAC
 40
1.0
  9
$DIMGAP
 40
0.625
  9
$DIMJUST
 70
     0
  9
$DIMSD1
 70
     0
  9
$DIMSD2
 70
     0
  9
$DIMTOLJ
 70
     0
  9
$DIMTZIN
 70
     8
  9
$DIMALTZ
 70
     0
  9
$DIMALTTZ
 70
     0
  9
$DIMUPT
 70
     0
  9
$DIMDEC
 70
     2
  9
$DIMTDEC
 70
     2
  9
$DIMALTU
 70
     2
  9
$DIMALTTD
 70
     3
  9
$DIMTXSTY
  7
STANDARD
  9
$DIMAUNIT
 70
     0
  9
$DIMADEC
 70
     0
  9
$DIMALTRND
 40
0.0
  9
$DIMAZIN
 70
     0
  9
$DIMDSEP
 70
    46
  9
$DIMATFIT
 70
     3
  9
$DIMFRAC
 70
     0
  9
$DIMLDRBLK
  1

  9
$DIMLUNIT
 70
     2
  9
$DIMLWD
 70
    -2
  9
$DIMLWE
 70
    -2
  9
$DIMTMOVE
 70
     0
  9
$LUNITS
 70
     2
  9
$LUPREC
 70
     4
  9
$SKETCHINC
 40
0.1
  9
$FILLETRAD
 40
0.6
  9
$AUNITS
 70
     0
  9
$AUPREC
 70
     0
  9
$MENU
  1

  9
$ELEVATION
 40
0.0
  9
$PELEVATION
 40
0.0
  9
$THICKNESS
 40
0.0
  9
$LIMCHECK
 70
     0
  9
$CHAMFERA
 40
0.0
  9
$CHAMFERB
 40
0.0
  9
$CHAMFERC
 40
0.0
  9
$CHAMFERD
 40
0.0
  9
$SKPOLY
 70
     0
  9
$TDCREATE
 40
2453812.468314815
  9
$TDUCREATE
 40
2453812.426648148
  9
$TDUPDATE
 40
2453812.612632894
  9
$TDUUPDATE
 40
2453812.570966227
  9
$TDINDWG
 40
0.1189463426
  9
$TDUSRTIMER
 40
0.1158035069
  9
$USRTIMER
 70
     1
  9
$ANGBASE
 50
0.0
  9
$ANGDIR
 70
     0
  9
$PDMODE
 70
     0
  9
$PDSIZE
 40
0.3125
  9
$PLINEWID
 40
0.0
  9
$SPLFRAME
 70
     0
  9
$SPLINETYPE
 70
     6
  9
$SPLINESEGS
 70
     8
  9
$HANDSEED
  5
105A
  9
$SURFTAB1
 70
     6
  9
$SURFTAB2
 70
     6
  9
$SURFTYPE
 70
     6
  9
$SURFU
 70
     6
  9
$SURFV
 70
     6
  9
$UCSBASE
  2

  9
$UCSNAME
  2

  9
$UCSORG
 10
0.0
 20
0.0
 30
0.0
  9
$UCSXDIR
 10
1.0
 20
0.0
 30
0.0
  9
$UCSYDIR
 10
0.0
 20
1.0
 30
0.0
  9
$UCSORTHOREF
  2

  9
$UCSORTHOVIEW
 70
     0
  9
$UCSORGTOP
 10
0.0
 20
0.0
 30
0.0
  9
$UCSORGBOTTOM
 10
0.0
 20
0.0
 30
0.0
  9
$UCSORGLEFT
 10
0.0
 20
0.0
 30
0.0
  9
$UCSORGRIGHT
 10
0.0
 20
0.0
 30
0.0
  9
$UCSORGFRONT
 10
0.0
 20
0.0
 30
0.0
  9
$UCSORGBACK
 10
0.0
 20
0.0
 30
0.0
  9
$PUCSBASE
  2

  9
$PUCSNAME
  2

  9
$PUCSORG
 10
0.0
 20
0.0
 30
0.0
  9
$PUCSXDIR
 10
1.0
 20
0.0
 30
0.0
  9
$PUCSYDIR
 10
0.0
 20
1.0
 30
0.0
  9
$PUCSORTHOREF
  2

  9
$PUCSORTHOVIEW
 70
     0
  9
$PUCSORGTOP
 10
0.0
 20
0.0
 30
0.0
  9
$PUCSORGBOTTOM
 10
0.0
 20
0.0
 30
0.0
  9
$PUCSORGLEFT
 10
0.0
 20
0.0
 30
0.0
  9
$PUCSORGRIGHT
 10
0.0
 20
0.0
 30
0.0
  9
$PUCSORGFRONT
 10
0.0
 20
0.0
 30
0.0
  9
$PUCSORGBACK
 10
0.0
 20
0.0
 30
0.0
  9
$USERI1
 70
     0
  9
$USERI2
 70
     0
  9
$USERI3
 70
     0
  9
$USERI4
 70
     0
  9
$USERI5
 70
     0
  9
$USERR1
 40
0.0
  9
$USERR2
 40
0.0
  9
$USERR3
 40
0.0
  9
$USERR4
 40
0.0
  9
$USERR5
 40
0.0
  9
$WORLDVIEW
 70
     1
  9
$SHADEDGE
 70
     3
  9
$SHADEDIF
 70
    70
  9
$TILEMODE
 70
     1
  9
$MAXACTVP
 70
    64
  9
$PINSBASE
 10
0.0
 20
0.0
 30
0.0
  9
$PLIMCHECK
 70
     0
  9
$PEXTMIN
 10
100.0
 20
100.0
 30
100.0
  9
$PEXTMAX
 10
-100.0
 20
-100.0
 30
-100.0
  9
$PLIMMIN
 10
0.0
 20
0.0
  9
$PLIMMAX
 10
12.0
 20
9.0
  9
$UNITMODE
 70
     0
  9
$VISRETAIN
 70
     1
  9
$PLINEGEN
 70
     1
  9
$PSLTSCALE
 70
     1
  9
$TREEDEPTH
 70
  3020
  9
$CMLSTYLE
  2
Standard
  9
$CMLJUST
 70
     0
  9
$CMLSCALE
 40
1.0
  9
$PROXYGRAPHICS
 70
     1
  9
$MEASUREMENT
 70
     0
  9
$CELWEIGHT
370
    -1
  9
$ENDCAPS
280
     0
  9
$JOINSTYLE
280
     0
  9
$LWDISPLAY
290
     0
  9
$INSUNITS
 70
     0
  9
$HYPERLINKBASE
  1

  9
$STYLESHEET
  1

  9
$XEDIT
290
     1
  9
$CEPSNTYPE
380
     0
  9
$PSTYLEMODE
290
     1
  9
$FINGERPRINTGUID
  2
{F19E0BD1-E627-46A8-AE34-43C9FB72D192}
  9
$VERSIONGUID
  2
{767138E6-C2EF-4199-959A-546F429EE86D}
  9
$EXTNAMES
290
     1
  9
$PSVPSCALE
 40
0.0
  9
$OLESTARTUP
290
     0
  0
ENDSEC
  0
SECTION
  2
CLASSES
  0
CLASS
  1
ACDBDICTIONARYWDFLT
  2
AcDbDictionaryWithDefault
  3
ObjectDBX Classes
 90
        0
280
     0
281
     0
  0
CLASS
  1
TABLESTYLE
  2
AcDbTableStyle
  3
ObjectDBX Classes
 90
     2047
280
     0
281
     0
  0
CLASS
  1
SORTENTSTABLE
  2
AcDbSortentsTable
  3
ObjectDBX Classes
 90
        0
280
     0
281
     0
  0
CLASS
  1
DICTIONARYVAR
  2
AcDbDictionaryVar
  3
ObjectDBX Classes
 90
        0
280
     0
281
     0
  0
CLASS
  1
ACDBPLACEHOLDER
  2
AcDbPlaceHolder
  3
ObjectDBX Classes
 90
        0
280
     0
281
     0
  0
CLASS
  1
LAYOUT
  2
AcDbLayout
  3
ObjectDBX Classes
 90
        0
280
     0
281
     0
  0
ENDSEC
  0
SECTION
  2
TABLES
  0
TABLE
  2
VPORT
  5
8
330
0
100
AcDbSymbolTable
 70
     2
  0
VPORT
  5
1054
330
8
100
AcDbSymbolTableRecord
100
AcDbViewportTableRecord
  2
*Active
 70
     0
 10
0.0
 20
0.0
 11
1.0
 21
1.0
 12
11.11902893476849
 22
11.61877500533586
 13
0.0
 23
0.0
 14
1.0
 24
1.0
 15
0.0
 25
0.0
 16
0.0
 26
0.0
 36
1.0
 17
0.0
 27
0.0
 37
0.0
 40
138.9377945155187
 41
1.522727272727272
 42
50.0
 43
0.0
 44
0.0
 50
0.0
 51
0.0
 71
     0
 72
  2000
 73
     1
 74
     1
 75
     0
 76
     0
 77
     0
 78
     0
281
     0
 65
     1
110
0.0
120
0.0
130
0.0
111
1.0
121
0.0
131
0.0
112
0.0
122
1.0
132
0.0
 79
     0
146
0.0
  0
ENDTAB
  0
TABLE
  2
LTYPE
  5
5
330
0
100
AcDbSymbolTable
 70
     3
  0
LTYPE
  5
13
330
5
100
AcDbSymbolTableRecord
100
AcDbLinetypeTableRecord
  2
ByBlock
 70
     0
  3

 72
    65
 73
     0
 40
0.0
  0
LTYPE
  5
14
330
5
100
AcDbSymbolTableRecord
100
AcDbLinetypeTableRecord
  2
ByLayer
 70
     0
  3

 72
    65
 73
     0
 40
0.0
  0
LTYPE
  5
15
330
5
100
AcDbSymbolTableRecord
100
AcDbLinetypeTableRecord
  2
CONTINUOUS
 70
     0
  3
Solid line
 72
    65
 73
     0
 40
0.0
  0
LTYPE
  5
27
330
5
100
AcDbSymbolTableRecord
100
AcDbLinetypeTableRecord
  2
CENTER
 70
     0
  3
____ _ ____ _ ____ _ ____ _ ____ _ ____ _ ____
 72
    65
 73
     4
 40
0.6
 49
0.375
 74
     0
 49
-0.075
 74
     0
 49
0.075
 74
     0
 49
-0.075
 74
     0
  0
LTYPE
  5
28
330
5
100
AcDbSymbolTableRecord
100
AcDbLinetypeTableRecord
  2
HIDDEN
 70
     0
  3
- - - - - - - - - - - - - - - - - - - -
 72
    65
 73
     2
 40
0.2
 49
0.1
 74
     0
 49
-0.1
 74
     0
  0
ENDTAB
  0
TABLE
  2
LAYER
  5
2
330
0
100
AcDbSymbolTable
 70
    11
  0
LAYER
  5
10
330
2
100
AcDbSymbolTableRecord
100
AcDbLayerTableRecord
  2
0
 70
     0
 62
     7
  6
CONTINUOUS
370
    -3
390
F
  0
LAYER
  5
2C
330
2
100
AcDbSymbolTableRecord
100
AcDbLayerTableRecord
  2
SK1
 70
     0
 62
     4
  6
CONTINUOUS
370
    -3
390
F
  0
LAYER
  5
2D
330
2
100
AcDbSymbolTableRecord
100
AcDbLayerTableRecord
  2
1
 70
     0
 62
     4
  6
CONTINUOUS
370
    -3
390
F
  0
LAYER
  5
2E
330
2
100
AcDbSymbolTableRecord
100
AcDbLayerTableRecord
  2
2
 70
     0
 62
     7
  6
CONTINUOUS
370
    -3
390
F
  0
LAYER
  5
2F
330
2
100
AcDbSymbolTableRecord
100
AcDbLayerTableRecord
  2
SK2
 70
     0
 62
     7
  6
CONTINUOUS
370
    -3
390
F
  0
LAYER
  5
31
330
2
100
AcDbSymbolTableRecord
100
AcDbLayerTableRecord
  2
SK3
 70
     0
 62
     1
  6
HIDDEN
370
    -3
390
F
  0
LAYER
  5
32
330
2
100
AcDbSymbolTableRecord
100
AcDbLayerTableRecord
  2
4
 70
     0
 62
     2
  6
CENTER
370
    -3
390
F
  0
LAYER
  5
33
330
2
100
AcDbSymbolTableRecord
100
AcDbLayerTableRecord
  2
SK4
 70
     0
 62
     2
  6
CENTER
370
    -3
390
F
  0
LAYER
  5
36
330
2
100
AcDbSymbolTableRecord
100
AcDbLayerTableRecord
  2
6
 70
     0
 62
     5
  6
CONTINUOUS
370
    -3
390
F
  0
LAYER
  5
499
330
2
100
AcDbSymbolTableRecord
100
AcDbLayerTableRecord
  2
DEFPOINTS
 70
     0
 62
     7
  6
CONTINUOUS
290
     0
370
    -3
390
F
  0
LAYER
  5
8DA
330
2
100
AcDbSymbolTableRecord
100
AcDbLayerTableRecord
  2
NOCUT
 70
     0
 62
     7
  6
CONTINUOUS
370
    -3
390
F
  0
ENDTAB
  0
TABLE
  2
STYLE
  5
3
330
0
100
AcDbSymbolTable
 70
     1
  0
STYLE
  5
11
330
3
100
AcDbSymbolTableRecord
100
AcDbTextStyleTableRecord
  2
STANDARD
 70
     0
 40
0.0
 41
0.8
 50
0.0
 71
     0
 42
0.2
  3
ISOCP
  4

  0
ENDTAB
  0
TABLE
  2
VIEW
  5
6
330
0
100
AcDbSymbolTable
 70
     0
  0
ENDTAB
  0
TABLE
  2
UCS
  5
7
330
0
100
AcDbSymbolTable
 70
     0
  0
ENDTAB
  0
TABLE
  2
APPID
  5
9
330
0
100
AcDbSymbolTable
 70
     2
  0
APPID
  5
12
330
9
100
AcDbSymbolTableRecord
100
AcDbRegAppTableRecord
  2
ACAD
 70
     0
  0
APPID
  5
C77
330
9
100
AcDbSymbolTableRecord
100
AcDbRegAppTableRecord
  2
ACAD_DSTYLE_DIMTEXT_FILL
 70
     0
  0
ENDTAB
  0
TABLE
  2
DIMSTYLE
  5
A
330
0
100
AcDbSymbolTable
 70
     2
100
AcDbDimStyleTable
 71
     2
340
8DB
340
39
  0
DIMSTYLE
105
39
330
A
100
AcDbSymbolTableRecord
100
AcDbDimStyleTableRecord
  2
STANDARD
 70
     0
279
     2
340
11
  0
DIMSTYLE
105
8DB
102
{ACAD_REACTORS
330
5FF
330
5FB
330
5F9
330
604
330
601
330
5FE
330
5FA
330
603
330
DDE
102
}
330
A
100
AcDbSymbolTableRecord
100
AcDbDimStyleTableRecord
  2
ISO-25
 70
     0
 41
3.5
 42
0.625
 43
3.75
 44
2.0
 73
     0
 74
     0
 77
     1
 78
     8
140
3.5
141
2.5
143
0.03937007874016
147
0.625
171
     3
172
     1
176
   256
177
   256
178
   256
271
     2
272
     2
274
     3
283
     0
284
     8
340
11
  0
ENDTAB
  0
TABLE
  2
BLOCK_RECORD
  5
1
330
0
100
AcDbSymbolTable
 70
    11
  0
BLOCK_RECORD
  5
22
102
{ACAD_XDICTIONARY
360
FE8
102
}
330
1
100
AcDbSymbolTableRecord
100
AcDbBlockTableRecord
  2
*Model_Space
340
25
  0
BLOCK_RECORD
  5
1E
330
1
100
AcDbSymbolTableRecord
100
AcDbBlockTableRecord
  2
*Paper_Space
340
21
  0
BLOCK_RECORD
  5
85D
330
1
100
AcDbSymbolTableRecord
100
AcDbBlockTableRecord
  2
nullpunkt_1
340
0
310
2800000020000000200000000100080000000000000400000000000000000000000000000000000000000000000080000080000000808000800000008000800080800000C0C0C000C0DCC000F0CAA6000020400000206000002080000020A0000020C0000020E00000400000004020000040400000406000004080000040A0
310
000040C0000040E00000600000006020000060400000606000006080000060A0000060C0000060E00000800000008020000080400000806000008080000080A0000080C0000080E00000A0000000A0200000A0400000A0600000A0800000A0A00000A0C00000A0E00000C0000000C0200000C0400000C0600000C0800000C0
310
A00000C0C00000C0E00000E0000000E0200000E0400000E0600000E0800000E0A00000E0C00000E0E00040000000400020004000400040006000400080004000A0004000C0004000E00040200000402020004020400040206000402080004020A0004020C0004020E000404000004040200040404000404060004040800040
310
40A0004040C0004040E00040600000406020004060400040606000406080004060A0004060C0004060E00040800000408020004080400040806000408080004080A0004080C0004080E00040A0000040A0200040A0400040A0600040A0800040A0A00040A0C00040A0E00040C0000040C0200040C0400040C0600040C08000
310
40C0A00040C0C00040C0E00040E0000040E0200040E0400040E0600040E0800040E0A00040E0C00040E0E00080000000800020008000400080006000800080008000A0008000C0008000E00080200000802020008020400080206000802080008020A0008020C0008020E00080400000804020008040400080406000804080
310
008040A0008040C0008040E00080600000806020008060400080606000806080008060A0008060C0008060E00080800000808020008080400080806000808080008080A0008080C0008080E00080A0000080A0200080A0400080A0600080A0800080A0A00080A0C00080A0E00080C0000080C0200080C0400080C0600080C0
310
800080C0A00080C0C00080C0E00080E0000080E0200080E0400080E0600080E0800080E0A00080E0C00080E0E000C0000000C0002000C0004000C0006000C0008000C000A000C000C000C000E000C0200000C0202000C0204000C0206000C0208000C020A000C020C000C020E000C0400000C0402000C0404000C0406000C0
310
408000C040A000C040C000C040E000C0600000C0602000C0604000C0606000C0608000C060A000C060C000C060E000C0800000C0802000C0804000C0806000C0808000C080A000C080C000C080E000C0A00000C0A02000C0A04000C0A06000C0A08000C0A0A000C0A0C000C0A0E000C0C00000C0C02000C0C04000C0C06000
310
C0C08000C0C0A000F0FBFF00A4A0A000808080000000FF0000FF000000FFFF00FF000000FF00FF00FFFF0000FFFFFF0000000000000000000000000000000000000000000000000000000000000000000000000000000000000000000000FEFE0000000000000000000000000000000000000000000000000000FEFEFEFEFE
310
FEFEFE00000000000000000000000000000000000000000000FEFEFEFEFEFE00FE0000FEFE00000000000000000000000000000000000000FEFEFEFE00FE0000FE00000000FEFE00000000000000000000000000000000FEFEFE0000FE000000FE000000000000FEFE00000000000000000000000000FEFE000000FE000000
310
00FE0000000000000000FEFE00000000000000000000FEFE000000FE0000000000FE00000000000000000000FE0000000000000000FEFEFE0000FE000000000000FE00000000000000000000FE0000000000000000FEFE0000FE00000000000000FE0000000000000000000000FE000000000000FEFEFE00FE000000000000
310
0000FE0000000000000000000000FE000000000000FEFE00FE000000000000000000FE000000000000000000000000FE0000000000FEFEFE00000000000000000000FE000000000000000000000000FE0000000000FEFE0000000000000000000000FE00000000000000000000000000FE000000FEFE000000000000000000
310
000000FE00000000000000000000000000FE000000FEFEFEFEFEFEFEFEFEFEFEFEFEFEFEFEFEFEFEFEFEFEFEFEFEFEFEFEFEFE000000FE000000000000000000000000FE00000000000000000000000000FEFE000000FE000000000000000000000000FE000000000000000000000000FEFEFE00000000FE00000000000000
310
00000000FE0000000000000000000000FE00FE0000000000FE0000000000000000000000FE00000000000000000000FE00FEFE000000000000FE00000000000000000000FE000000000000000000FE0000FEFE000000000000FE00000000000000000000FE0000000000000000FE0000FEFEFE00000000000000FE00000000
310
0000000000FE00000000000000FE000000FEFE0000000000000000FE000000000000000000FE000000000000FE000000FEFEFE000000000000000000FE0000000000000000FE0000000000FE00000000FEFE00000000000000000000FE0000000000000000FE00000000FE00000000FEFE000000000000000000000000FEFE
310
000000000000FE000000FE000000FEFEFE000000000000000000000000000000FEFE00000000FE0000FE0000FEFEFEFE000000000000000000000000000000000000FEFE0000FE00FE00FEFEFEFEFE000000000000000000000000000000000000000000FEFEFEFEFEFEFEFEFE000000000000000000000000000000000000
310
00000000000000FEFEFE00000000000000000000000000000000000000000000000000000000000000000000000000000000000000000000
102
{BLKREFS
331
AF8
102
}
  0
BLOCK_RECORD
  5
866
330
1
100
AcDbSymbolTableRecord
100
AcDbBlockTableRecord
  2
nullpunkt_2
340
0
310
2800000020000000200000000100080000000000000400000000000000000000000000000000000000000000000080000080000000808000800000008000800080800000C0C0C000C0DCC000F0CAA6000020400000206000002080000020A0000020C0000020E00000400000004020000040400000406000004080000040A0
310
000040C0000040E00000600000006020000060400000606000006080000060A0000060C0000060E00000800000008020000080400000806000008080000080A0000080C0000080E00000A0000000A0200000A0400000A0600000A0800000A0A00000A0C00000A0E00000C0000000C0200000C0400000C0600000C0800000C0
310
A00000C0C00000C0E00000E0000000E0200000E0400000E0600000E0800000E0A00000E0C00000E0E00040000000400020004000400040006000400080004000A0004000C0004000E00040200000402020004020400040206000402080004020A0004020C0004020E000404000004040200040404000404060004040800040
310
40A0004040C0004040E00040600000406020004060400040606000406080004060A0004060C0004060E00040800000408020004080400040806000408080004080A0004080C0004080E00040A0000040A0200040A0400040A0600040A0800040A0A00040A0C00040A0E00040C0000040C0200040C0400040C0600040C08000
310
40C0A00040C0C00040C0E00040E0000040E0200040E0400040E0600040E0800040E0A00040E0C00040E0E00080000000800020008000400080006000800080008000A0008000C0008000E00080200000802020008020400080206000802080008020A0008020C0008020E00080400000804020008040400080406000804080
310
008040A0008040C0008040E00080600000806020008060400080606000806080008060A0008060C0008060E00080800000808020008080400080806000808080008080A0008080C0008080E00080A0000080A0200080A0400080A0600080A0800080A0A00080A0C00080A0E00080C0000080C0200080C0400080C0600080C0
310
800080C0A00080C0C00080C0E00080E0000080E0200080E0400080E0600080E0800080E0A00080E0C00080E0E000C0000000C0002000C0004000C0006000C0008000C000A000C000C000C000E000C0200000C0202000C0204000C0206000C0208000C020A000C020C000C020E000C0400000C0402000C0404000C0406000C0
310
408000C040A000C040C000C040E000C0600000C0602000C0604000C0606000C0608000C060A000C060C000C060E000C0800000C0802000C0804000C0806000C0808000C080A000C080C000C080E000C0A00000C0A02000C0A04000C0A06000C0A08000C0A0A000C0A0C000C0A0E000C0C00000C0C02000C0C04000C0C06000
310
C0C08000C0C0A000F0FBFF00A4A0A000808080000000FF0000FF000000FFFF00FF000000FF00FF00FFFF0000FFFFFF0000000000000000000000000000000000000000000000000000000000000000000000000000000000000000000000FEFE0000000000000000000000000000000000000000000000000000FEFEFEFEFE
310
FEFEFE00000000000000000000000000000000000000000000FEFEFEFEFEFE00FE0000FEFE00000000000000000000000000000000000000FEFEFEFE00FE0000FE00000000FEFE00000000000000000000000000000000FEFEFE0000FE000000FE000000000000FEFE00000000000000000000000000FEFE000000FE000000
310
00FE0000000000000000FEFE00000000000000000000FEFE000000FE0000000000FE00000000000000000000FE0000000000000000FEFEFE0000FE000000000000FE00000000000000000000FE0000000000000000FEFE0000FE00000000000000FE0000000000000000000000FE000000000000FEFEFE00FE000000000000
310
0000FE0000000000000000000000FE000000000000FEFE00FE000000000000000000FE000000000000000000000000FE0000000000FEFEFE00000000000000000000FE000000000000000000000000FE0000000000FEFE0000000000000000000000FE00000000000000000000000000FE000000FEFE000000000000000000
310
000000FE00000000000000000000000000FE000000FEFEFEFEFEFEFEFEFEFEFEFEFEFEFEFEFEFEFEFEFEFEFEFEFEFEFEFEFEFE000000FE000000000000000000000000FE00000000000000000000000000FEFE000000FE000000000000000000000000FE000000000000000000000000FEFEFE00000000FE00000000000000
310
00000000FE0000000000000000000000FE00FE0000000000FE0000000000000000000000FE00000000000000000000FE00FEFE000000000000FE00000000000000000000FE000000000000000000FE0000FEFE000000000000FE00000000000000000000FE0000000000000000FE0000FEFEFE00000000000000FE00000000
310
0000000000FE00000000000000FE000000FEFE0000000000000000FE000000000000000000FE000000000000FE000000FEFEFE000000000000000000FE0000000000000000FE0000000000FE00000000FEFE00000000000000000000FE0000000000000000FE00000000FE00000000FEFE000000000000000000000000FEFE
310
000000000000FE000000FE000000FEFEFE000000000000000000000000000000FEFE00000000FE0000FE0000FEFEFEFE000000000000000000000000000000000000FEFE0000FE00FE00FEFEFEFEFE000000000000000000000000000000000000000000FEFEFEFEFEFEFEFEFE000000000000000000000000000000000000
310
00000000000000FEFEFE00000000000000000000000000000000000000000000000000000000000000000000000000000000000000000000
102
{BLKREFS
331
AF9
102
}
  0
BLOCK_RECORD
  5
BD9
330
1
100
AcDbSymbolTableRecord
100
AcDbBlockTableRecord
  2
*D2
340
0
  0
BLOCK_RECORD
  5
BE5
330
1
100
AcDbSymbolTableRecord
100
AcDbBlockTableRecord
  2
*D3
340
0
  0
BLOCK_RECORD
  5
BF1
330
1
100
AcDbSymbolTableRecord
100
AcDbBlockTableRecord
  2
*D4
340
0
  0
BLOCK_RECORD
  5
BFD
330
1
100
AcDbSymbolTableRecord
100
AcDbBlockTableRecord
  2
*D5
340
0
  0
BLOCK_RECORD
  5
C09
330
1
100
AcDbSymbolTableRecord
100
AcDbBlockTableRecord
  2
*D6
340
0
  0
BLOCK_RECORD
  5
C16
330
1
100
AcDbSymbolTableRecord
100
AcDbBlockTableRecord
  2
*D7
340
0
  0
BLOCK_RECORD
  5
C22
330
1
100
AcDbSymbolTableRecord
100
AcDbBlockTableRecord
  2
*D8
340
0
  0
BLOCK_RECORD
  5
CDF
330
1
100
AcDbSymbolTableRecord
100
AcDbBlockTableRecord
  2
*D9
340
0
  0
BLOCK_RECORD
  5
DDF
330
1
100
AcDbSymbolTableRecord
100
AcDbBlockTableRecord
  2
*D10
340
0
  0
ENDTAB
  0
ENDSEC
  0
SECTION
  2
BLOCKS
  0
BLOCK
  5
23
330
22
100
AcDbEntity
  8
0
100
AcDbBlockBegin
  2
*Model_Space
 70
     0
 10
0.0
 20
0.0
 30
0.0
  3
*Model_Space
  1

  0
ENDBLK
  5
24
330
22
100
AcDbEntity
  8
0
100
AcDbBlockEnd
  0
BLOCK
  5
1F
330
1E
100
AcDbEntity
 67
     1
  8
0
100
AcDbBlockBegin
  2
*Paper_Space
 70
     0
 10
0.0
 20
0.0
 30
0.0
  3
*Paper_Space
  1

  0
ENDBLK
  5
20
330
1E
100
AcDbEntity
 67
     1
  8
0
100
AcDbBlockEnd
  0
BLOCK
  5
85E
330
85D
100
AcDbEntity
  8
0
100
AcDbBlockBegin
  2
nullpunkt_1
 70
     0
 10
0.0
 20
0.0
 30
0.0
  3
nullpunkt_1
  1

  0
LWPOLYLINE
  5
85F
102
{ACAD_REACTORS
330
860
102
}
330
85D
100
AcDbEntity
  8
1
100
AcDbPolyline
 90
        3
 70
     1
 43
0.0
 10
0.0
 20
2.950972054112752
 10
0.0
 20
0.0
 10
2.950972054112638
 20
0.0
 42
0.4142135623730966
  0
HATCH
  5
860
330
85D
100
AcDbEntity
  8
1
100
AcDbHatch
 10
0.0
 20
0.0
 30
0.0
210
0.0
220
0.0
230
1.0
  2
SOLID
 70
     1
 71
     1
 91
        2
 92
        7
 72
     1
 73
     1
 93
        3
 10
0.0
 20
0.0
 42
0.0
 10
2.950972054112638
 20
0.0
 42
0.4142135623730968
 10
0.0
 20
2.950972054112752
 42
0.0
 97
        1
330
85F
 92
        7
 72
     1
 73
     1
 93
        3
 10
0.0
 20
-2.950972054112412
 42
0.0
 10
0.0
 20
0.0
 42
0.0
 10
-2.950972054112583
 20
0.0
 42
0.4142135623730966
 97
        1
330
862
 75
     0
 76
     1
 47
0.1190009775223266
 98
        2
 10
0.7445530588119596
 20
0.9212244733765826
 10
-1.27946460185285
 20
-1.696796923046235
  0
CIRCLE
  5
861
330
85D
100
AcDbEntity
  8
1
100
AcDbCircle
 10
0.0
 20
0.0
 30
0.0
 40
2.950972054112601
  0
LWPOLYLINE
  5
862
102
{ACAD_REACTORS
330
860
102
}
330
85D
100
AcDbEntity
  8
1
100
AcDbPolyline
 90
        3
 70
     1
 43
0.0
 10
0.0
 20
0.0
 10
-2.950972054112583
 20
0.0
 42
0.4142135623730966
 10
0.0
 20
-2.950972054112412
  0
LINE
  5
863
330
85D
100
AcDbEntity
  8
1
100
AcDbLine
 10
-2.950972054112752
 20
0.0
 30
0.0
 11
2.950972054112583
 21
0.0
 31
0.0
  0
LINE
  5
864
330
85D
100
AcDbEntity
  8
1
100
AcDbLine
 10
0.0
 20
2.950972054112752
 30
0.0
 11
0.0
 21
-2.950972054112412
 31
0.0
  0
ENDBLK
  5
865
330
85D
100
AcDbEntity
  8
0
100
AcDbBlockEnd
  0
BLOCK
  5
867
330
866
100
AcDbEntity
  8
0
100
AcDbBlockBegin
  2
nullpunkt_2
 70
     0
 10
0.0
 20
0.0
 30
0.0
  3
nullpunkt_2
  1

  0
CIRCLE
  5
868
330
866
100
AcDbEntity
  8
1
100
AcDbCircle
 10
0.0
 20
0.0
 30
0.0
 40
1.0
  0
HATCH
  5
869
330
866
100
AcDbEntity
  8
1
100
AcDbHatch
 10
0.0
 20
0.0
 30
0.0
210
0.0
220
0.0
230
1.0
  2
SOLID
 70
     1
 71
     0
 91
        2
 92
        1
 93
        3
 72
     1
 10
0.0
 20
0.0
 11
-1.0
 21
0.0
 72
     2
 10
0.0
 20
0.0
 40
1.0
 50
180.0
 51
270.0
 73
     1
 72
     1
 10
0.0
 20
-0.9999999999998864
 11
0.0
 21
0.0
 97
        0
 92
        1
 93
        3
 72
     1
 10
0.0
 20
1.000000000000113
 11
0.0
 21
0.0
 72
     1
 10
0.0
 20
0.0
 11
1.0
 21
0.0
 72
     2
 10
0.0
 20
0.0
 40
1.0
 50
0.0
 51
90.0
 73
     1
 97
        0
 75
     0
 76
     1
 98
        1
 10
-109.9295341761981
 20
-32.53620011044962
  0
LINE
  5
86A
330
866
100
AcDbEntity
  8
1
100
AcDbLine
 10
-1.0
 20
0.0
 30
0.0
 11
1.0
 21
0.0
 31
0.0
  0
LWPOLYLINE
  5
86B
330
866
100
AcDbEntity
  8
1
100
AcDbPolyline
 90
        3
 70
     1
 43
0.0
 10
0.0
 20
0.0
 10
-1.0
 20
0.0
 42
0.4142135623730951
 10
0.0
 20
-0.9999999999998864
  0
LWPOLYLINE
  5
86C
330
866
100
AcDbEntity
  8
1
100
AcDbPolyline
 90
        3
 70
     1
 43
0.0
 10
0.0
 20
1.000000000000113
 10
0.0
 20
0.0
 10
1.0
 20
0.0
 42
0.4142135623730951
  0
ENDBLK
  5
86D
330
866
100
AcDbEntity
  8
0
100
AcDbBlockEnd
  0
BLOCK
  5
BE3
330
BD9
100
AcDbEntity
  8
0
100
AcDbBlockBegin
  2
*D2
 70
     1
 10
0.0
 20
0.0
 30
0.0
  3
*D2
  1

  0
LINE
  5
101C
330
BD9
100
AcDbEntity
  8
SK2
370
    -2
100
AcDbLine
 10
0.0
 20
-0.4824584861162863
 30
0.0
 11
0.0000000000000033
 21
52.51662894360487
 31
0.0
  0
LINE
  5
101D
330
BD9
100
AcDbEntity
  8
SK2
370
    -2
100
AcDbLine
 10
-68.4
 20
15.18670662611947
 30
0.0
 11
-68.4
 21
52.51662894360487
 31
0.0
  0
LINE
  5
101E
330
BD9
100
AcDbEntity
  8
SK2
370
    -2
100
AcDbLine
 10
-3.499999999999996
 20
50.51662894360487
 30
0.0
 11
-64.90000000000001
 21
50.51662894360487
 31
0.0
  0
SOLID
  5
101F
330
BD9
100
AcDbEntity
  8
SK2
100
AcDbTrace
 10
-3.499999999999996
 20
51.0999622769382
 30
0.0
 11
-3.499999999999996
 21
49.93329561027152
 31
0.0
 12
0.0000000000000032
 22
50.51662894360487
 32
0.0
 13
0.0000000000000032
 23
50.51662894360487
 33
0.0
  0
SOLID
  5
1020
330
BD9
100
AcDbEntity
  8
SK2
100
AcDbTrace
 10
-64.90000000000001
 20
51.0999622769382
 30
0.0
 11
-64.90000000000001
 21
49.93329561027152
 31
0.0
 12
-68.4
 22
50.51662894360487
 32
0.0
 13
-68.4
 23
50.51662894360487
 33
0.0
  0
MTEXT
  5
1021
330
BD9
100
AcDbEntity
  8
SK2
100
AcDbMText
 10
-32.88209315069999
 20
52.89162894360487
 30
0.0
 40
3.5
 41
0.0
 71
     5
 72
     1
  1
68.4
 73
     1
 44
1.0
1001
ACAD
1000
MTEXTBEGIN
1070
    73
1070
     1
1070
    44
1040
1.0
1070
    74
1070
     0
1000
MTEXTEND
  0
POINT
  5
1022
330
BD9
100
AcDbEntity
  8
DEFPOINTS
 62
     0
100
AcDbPoint
 10
0.0
 20
-1.107458486116285
 30
0.0
  0
POINT
  5
1023
330
BD9
100
AcDbEntity
  8
DEFPOINTS
 62
     0
100
AcDbPoint
 10
-68.4
 20
14.56170662611947
 30
0.0
  0
POINT
  5
1024
330
BD9
100
AcDbEntity
  8
DEFPOINTS
 62
     0
100
AcDbPoint
 10
-68.4
 20
50.51662894360487
 30
0.0
  0
ENDBLK
  5
BE4
330
BD9
100
AcDbEntity
  8
0
100
AcDbBlockEnd
  0
BLOCK
  5
BEF
330
BE5
100
AcDbEntity
  8
0
100
AcDbBlockBegin
  2
*D3
 70
     1
 10
0.0
 20
0.0
 30
0.0
  3
*D3
  1

  0
LINE
  5
100A
330
BE5
100
AcDbEntity
  8
2
370
    -2
100
AcDbLine
 10
0.0
 20
23.66288010660429
 30
0.0
 11
0.0000000000000018
 21
52.45826229423204
 31
0.0
  0
LINE
  5
100B
330
BE5
100
AcDbEntity
  8
2
370
    -2
100
AcDbLine
 10
19.09999999999999
 20
33.48196919455921
 30
0.0
 11
19.09999999999999
 21
52.45826229423204
 31
0.0
  0
LINE
  5
100C
330
BE5
100
AcDbEntity
  8
2
370
    -2
100
AcDbLine
 10
3.500000000000001
 20
50.45826229423203
 30
0.0
 11
15.59999999999999
 21
50.45826229423203
 31
0.0
  0
SOLID
  5
100D
330
BE5
100
AcDbEntity
  8
2
100
AcDbTrace
 10
3.500000000000001
 20
51.04159562756539
 30
0.0
 11
3.500000000000001
 21
49.87492896089872
 31
0.0
 12
0.0000000000000017
 22
50.45826229423203
 32
0.0
 13
0.0000000000000017
 23
50.45826229423203
 33
0.0
  0
SOLID
  5
100E
330
BE5
100
AcDbEntity
  8
2
100
AcDbTrace
 10
15.59999999999999
 20
51.04159562756539
 30
0.0
 11
15.59999999999999
 21
49.87492896089872
 31
0.0
 12
19.09999999999999
 22
50.45826229423203
 32
0.0
 13
19.09999999999999
 23
50.45826229423203
 33
0.0
  0
MTEXT
  5
100F
330
BE5
100
AcDbEntity
  8
2
100
AcDbMText
 10
9.564395248399987
 20
52.83326229423203
 30
0.0
 40
3.5
 41
0.0
 71
     5
 72
     1
  1
19.1
 73
     1
 44
1.0
1001
ACAD
1000
MTEXTBEGIN
1070
    73
1070
     1
1070
    44
1040
1.0
1070
    74
1070
     0
1000
MTEXTEND
  0
POINT
  5
1010
330
BE5
100
AcDbEntity
  8
DEFPOINTS
 62
     0
100
AcDbPoint
 10
0.0
 20
23.03788010660429
 30
0.0
  0
POINT
  5
1011
330
BE5
100
AcDbEntity
  8
DEFPOINTS
 62
     0
100
AcDbPoint
 10
19.09999999999999
 20
32.85696919455921
 30
0.0
  0
POINT
  5
1012
330
BE5
100
AcDbEntity
  8
DEFPOINTS
 62
     0
100
AcDbPoint
 10
19.09999999999999
 20
50.45826229423203
 30
0.0
  0
ENDBLK
  5
BF0
330
BE5
100
AcDbEntity
  8
0
100
AcDbBlockEnd
  0
BLOCK
  5
BFB
330
BF1
100
AcDbEntity
  8
0
100
AcDbBlockBegin
  2
*D4
 70
     1
 10
0.0
 20
0.0
 30
0.0
  3
*D4
  1

  0
LINE
  5
FF8
330
BF1
100
AcDbEntity
  8
SK2
370
    -2
100
AcDbLine
 10
96.0
 20
15.77673567586811
 30
0.0
 11
96.0
 21
63.67766622071946
 31
0.0
  0
LINE
  5
FF9
330
BF1
100
AcDbEntity
  8
SK2
370
    -2
100
AcDbLine
 10
77.0
 20
23.21466877247252
 30
0.0
 11
77.0
 21
63.67766622071946
 31
0.0
  0
LINE
  5
FFA
330
BF1
100
AcDbEntity
  8
SK2
370
    -2
100
AcDbLine
 10
92.5
 20
61.67766622071946
 30
0.0
 11
80.5
 21
61.67766622071946
 31
0.0
  0
SOLID
  5
FFB
330
BF1
100
AcDbEntity
  8
SK2
100
AcDbTrace
 10
92.5
 20
62.26099955405279
 30
0.0
 11
92.5
 21
61.09433288738612
 31
0.0
 12
96.0
 22
61.67766622071946
 32
0.0
 13
96.0
 23
61.67766622071946
 33
0.0
  0
SOLID
  5
FFC
330
BF1
100
AcDbEntity
  8
SK2
100
AcDbTrace
 10
80.5
 20
62.26099955405279
 30
0.0
 11
80.5
 21
61.09433288738612
 31
0.0
 12
77.0
 22
61.67766622071946
 32
0.0
 13
77.0
 23
61.67766622071946
 33
0.0
  0
MTEXT
  5
FFD
330
BF1
100
AcDbEntity
  8
SK2
100
AcDbMText
 10
83.93891865556412
 20
64.05266622071946
 30
0.0
 40
3.5
 41
0.0
 71
     5
 72
     1
  1
19
 73
     1
 44
1.0
1001
ACAD
1000
MTEXTBEGIN
1070
    73
1070
     1
1070
    44
1040
1.0
1070
    74
1070
     0
1000
MTEXTEND
  0
POINT
  5
FFE
330
BF1
100
AcDbEntity
  8
DEFPOINTS
 62
     0
100
AcDbPoint
 10
96.0
 20
15.15173567586811
 30
0.0
  0
POINT
  5
FFF
330
BF1
100
AcDbEntity
  8
DEFPOINTS
 62
     0
100
AcDbPoint
 10
77.0
 20
22.58966877247252
 30
0.0
  0
POINT
  5
1000
330
BF1
100
AcDbEntity
  8
DEFPOINTS
 62
     0
100
AcDbPoint
 10
77.0
 20
61.67766622071946
 30
0.0
  0
ENDBLK
  5
BFC
330
BF1
100
AcDbEntity
  8
0
100
AcDbBlockEnd
  0
BLOCK
  5
C07
330
BFD
100
AcDbEntity
  8
0
100
AcDbBlockBegin
  2
*D5
 70
     1
 10
0.0
 20
0.0
 30
0.0
  3
*D5
  1

  0
LINE
  5
1037
330
BFD
100
AcDbEntity
  8
SK2
370
    -2
100
AcDbLine
 10
78.125
 20
19.99999999999997
 30
0.0
 11
115.907521031128
 21
19.99999999999996
 31
0.0
  0
LINE
  5
1038
330
BFD
100
AcDbEntity
  8
SK2
370
    -2
100
AcDbLine
 10
78.125
 20
-20.00000000000003
 30
0.0
 11
115.907521031128
 21
-20.00000000000004
 31
0.0
  0
LINE
  5
1039
330
BFD
100
AcDbEntity
  8
SK2
370
    -2
100
AcDbLine
 10
113.907521031128
 20
16.49999999999996
 30
0.0
 11
113.907521031128
 21
-16.50000000000004
 31
0.0
  0
SOLID
  5
103A
330
BFD
100
AcDbEntity
  8
SK2
100
AcDbTrace
 10
113.3241876977947
 20
16.49999999999996
 30
0.0
 11
114.4908543644614
 21
16.49999999999996
 31
0.0
 12
113.907521031128
 22
19.99999999999996
 32
0.0
 13
113.907521031128
 23
19.99999999999996
 33
0.0
  0
SOLID
  5
103B
330
BFD
100
AcDbEntity
  8
SK2
100
AcDbTrace
 10
113.3241876977947
 20
-16.50000000000004
 30
0.0
 11
114.4908543644614
 21
-16.50000000000004
 31
0.0
 12
113.907521031128
 22
-20.00000000000004
 32
0.0
 13
113.907521031128
 23
-20.00000000000004
 33
0.0
  0
MTEXT
  5
103C
330
BFD
100
AcDbEntity
  8
SK2
100
AcDbMText
 10
111.532521031128
 20
-0.1244349371676773
 30
0.0
 40
3.5
 41
0.0
 71
     5
 72
     1
  1
%%c40
 11
0.0000000000000001
 21
1.0
 31
0.0
 73
     1
 44
1.0
1001
ACAD
1000
MTEXTBEGIN
1070
    73
1070
     1
1070
    44
1040
1.0
1070
    74
1070
     0
1000
MTEXTEND
  0
POINT
  5
103D
330
BFD
100
AcDbEntity
  8
DEFPOINTS
 62
     0
100
AcDbPoint
 10
77.5
 20
19.99999999999997
 30
0.0
  0
POINT
  5
103E
330
BFD
100
AcDbEntity
  8
DEFPOINTS
 62
     0
100
AcDbPoint
 10
77.5
 20
-20.00000000000003
 30
0.0
  0
POINT
  5
103F
330
BFD
100
AcDbEntity
  8
DEFPOINTS
 62
     0
100
AcDbPoint
 10
113.907521031128
 20
-20.00000000000004
 30
0.0
  0
ENDBLK
  5
C08
330
BFD
100
AcDbEntity
  8
0
100
AcDbBlockEnd
  0
BLOCK
  5
C14
330
C09
100
AcDbEntity
  8
0
100
AcDbBlockBegin
  2
*D6
 70
     1
 10
0.0
 20
0.0
 30
0.0
  3
*D6
  1

  0
LINE
  5
1025
330
C09
100
AcDbEntity
  8
SK2
370
    -2
100
AcDbLine
 10
94.12499999999999
 20
10.99999999999997
 30
0.0
 11
108.4661607629064
 21
10.99999999999996
 31
0.0
  0
LINE
  5
1026
330
C09
100
AcDbEntity
  8
SK2
370
    -2
100
AcDbLine
 10
94.12499999999999
 20
-11.00000000000003
 30
0.0
 11
108.4661607629064
 21
-11.00000000000003
 31
0.0
  0
LINE
  5
1027
330
C09
100
AcDbEntity
  8
SK2
370
    -2
100
AcDbLine
 10
106.4661607629064
 20
7.499999999999968
 30
0.0
 11
106.4661607629064
 21
-7.500000000000031
 31
0.0
  0
SOLID
  5
1028
330
C09
100
AcDbEntity
  8
SK2
100
AcDbTrace
 10
105.8828274295731
 20
7.499999999999968
 30
0.0
 11
107.0494940962397
 21
7.499999999999968
 31
0.0
 12
106.4661607629064
 22
10.99999999999997
 32
0.0
 13
106.4661607629064
 23
10.99999999999997
 33
0.0
  0
SOLID
  5
1029
330
C09
100
AcDbEntity
  8
SK2
100
AcDbTrace
 10
105.8828274295731
 20
-7.50000000000003
 30
0.0
 11
107.0494940962397
 21
-7.500000000000031
 31
0.0
 12
106.4661607629064
 22
-11.00000000000003
 32
0.0
 13
106.4661607629064
 23
-11.00000000000003
 33
0.0
  0
MTEXT
  5
102A
330
C09
100
AcDbEntity
  8
SK2
100
AcDbMText
 10
104.0908162747175
 20
0.3236457021388904
 30
0.0
 40
3.5
 41
0.0
 71
     5
 72
     1
  1
%%c22
 11
0.0000000000000001
 21
1.0
 31
0.0
 73
     1
 44
1.0
1001
ACAD
1000
MTEXTBEGIN
1070
    73
1070
     1
1070
    44
1040
1.0
1070
    74
1070
     0
1000
MTEXTEND
  0
POINT
  5
102B
330
C09
100
AcDbEntity
  8
DEFPOINTS
 62
     0
100
AcDbPoint
 10
93.49999999999999
 20
10.99999999999997
 30
0.0
  0
POINT
  5
102C
330
C09
100
AcDbEntity
  8
DEFPOINTS
 62
     0
100
AcDbPoint
 10
93.49999999999999
 20
-11.00000000000003
 30
0.0
  0
POINT
  5
102D
330
C09
100
AcDbEntity
  8
DEFPOINTS
 62
     0
100
AcDbPoint
 10
106.4661607629064
 20
-11.00000000000003
 30
0.0
  0
ENDBLK
  5
C15
330
C09
100
AcDbEntity
  8
0
100
AcDbBlockEnd
  0
BLOCK
  5
C20
330
C16
100
AcDbEntity
  8
0
100
AcDbBlockBegin
  2
*D7
 70
     1
 10
0.0
 20
0.0
 30
0.0
  3
*D7
  1

  0
LINE
  5
1013
330
C16
100
AcDbEntity
  8
SK2
370
    -2
100
AcDbLine
 10
-1.125
 20
22.225
 30
0.0
 11
-81.02499999999997
 21
22.22500000000001
 31
0.0
  0
LINE
  5
1014
330
C16
100
AcDbEntity
  8
SK2
370
    -2
100
AcDbLine
 10
-1.125
 20
-22.22500000000002
 30
0.0
 11
-81.02499999999997
 21
-22.225
 31
0.0
  0
LINE
  5
1015
330
C16
100
AcDbEntity
  8
SK2
370
    -2
100
AcDbLine
 10
-79.02499999999998
 20
18.72500000000001
 30
0.0
 11
-79.02499999999998
 21
-18.725
 31
0.0
  0
SOLID
  5
1016
330
C16
100
AcDbEntity
  8
SK2
100
AcDbTrace
 10
-79.6083333333333
 20
18.72500000000001
 30
0.0
 11
-78.44166666666666
 21
18.72500000000001
 31
0.0
 12
-79.02499999999998
 22
22.22500000000001
 32
0.0
 13
-79.02499999999998
 23
22.22500000000001
 33
0.0
  0
SOLID
  5
1017
330
C16
100
AcDbEntity
  8
SK2
100
AcDbTrace
 10
-79.6083333333333
 20
-18.725
 30
0.0
 11
-78.44166666666666
 21
-18.725
 31
0.0
 12
-79.02499999999998
 22
-22.225
 32
0.0
 13
-79.02499999999998
 23
-22.225
 33
0.0
  0
MTEXT
  5
1018
330
C16
100
AcDbEntity
  8
SK2
100
AcDbMText
 10
-81.39999999999998
 20
-0.6382941316000483
 30
0.0
 40
3.5
 41
0.0
 71
     5
 72
     1
  1
%%c44.45
 11
0.0000000000000001
 21
1.0
 31
0.0
 73
     1
 44
1.0
1001
ACAD
1000
MTEXTBEGIN
1070
    73
1070
     1
1070
    44
1040
1.0
1070
    74
1070
     0
1000
MTEXTEND
  0
POINT
  5
1019
330
C16
100
AcDbEntity
  8
DEFPOINTS
 62
     0
100
AcDbPoint
 10
-0.5
 20
22.225
 30
0.0
  0
POINT
  5
101A
330
C16
100
AcDbEntity
  8
DEFPOINTS
 62
     0
100
AcDbPoint
 10
-0.5
 20
-22.22500000000002
 30
0.0
  0
POINT
  5
101B
330
C16
100
AcDbEntity
  8
DEFPOINTS
 62
     0
100
AcDbPoint
 10
-79.02499999999998
 20
-22.225
 30
0.0
  0
ENDBLK
  5
C21
330
C16
100
AcDbEntity
  8
0
100
AcDbBlockEnd
  0
BLOCK
  5
C2C
330
C22
100
AcDbEntity
  8
0
100
AcDbBlockBegin
  2
*D8
 70
     1
 10
0.0
 20
0.0
 30
0.0
  3
*D8
  1

  0
LINE
  5
1001
330
C22
100
AcDbEntity
  8
SK2
370
    -2
100
AcDbLine
 10
1.240593088599978
 20
31.77499999999998
 30
0.0
 11
-92.00937499999998
 21
31.77500000000001
 31
0.0
  0
LINE
  5
1002
330
C22
100
AcDbEntity
  8
SK2
370
    -2
100
AcDbLine
 10
0.950312310999976
 20
-31.77500000000001
 30
0.0
 11
-92.00937499999998
 21
-31.77499999999998
 31
0.0
  0
LINE
  5
1003
330
C22
100
AcDbEntity
  8
SK2
370
    -2
100
AcDbLine
 10
-90.00937499999997
 20
28.275
 30
0.0
 11
-90.00937499999997
 21
-28.27499999999998
 31
0.0
  0
SOLID
  5
1004
330
C22
100
AcDbEntity
  8
SK2
100
AcDbTrace
 10
-90.5927083333333
 20
28.275
 30
0.0
 11
-89.42604166666667
 21
28.275
 31
0.0
 12
-90.00937499999997
 22
31.77500000000001
 32
0.0
 13
-90.00937499999997
 23
31.77500000000001
 33
0.0
  0
SOLID
  5
1005
330
C22
100
AcDbEntity
  8
SK2
100
AcDbTrace
 10
-90.5927083333333
 20
-28.27499999999998
 30
0.0
 11
-89.42604166666667
 21
-28.27499999999998
 31
0.0
 12
-90.00937499999997
 22
-31.77499999999998
 32
0.0
 13
-90.00937499999997
 23
-31.77499999999998
 33
0.0
  0
MTEXT
  5
1006
330
C22
100
AcDbEntity
  8
SK2
100
AcDbMText
 10
-92.38437499999998
 20
-1.820503035500051
 30
0.0
 40
3.5
 41
0.0
 71
     5
 72
     1
  1
%%c63.55
 11
0.0000000000000001
 21
1.0
 31
0.0
 73
     1
 44
1.0
1001
ACAD
1000
MTEXTBEGIN
1070
    73
1070
     1
1070
    44
1040
1.0
1070
    74
1070
     0
1000
MTEXTEND
  0
POINT
  5
1007
330
C22
100
AcDbEntity
  8
DEFPOINTS
 62
     0
100
AcDbPoint
 10
1.865593088599979
 20
31.77499999999998
 30
0.0
  0
POINT
  5
1008
330
C22
100
AcDbEntity
  8
DEFPOINTS
 62
     0
100
AcDbPoint
 10
1.575312310999975
 20
-31.77500000000001
 30
0.0
  0
POINT
  5
1009
330
C22
100
AcDbEntity
  8
DEFPOINTS
 62
     0
100
AcDbPoint
 10
-90.00937499999997
 20
-31.77499999999998
 30
0.0
  0
ENDBLK
  5
C2D
330
C22
100
AcDbEntity
  8
0
100
AcDbBlockEnd
  0
BLOCK
  5
CE9
330
CDF
100
AcDbEntity
  8
0
100
AcDbBlockBegin
  2
*D9
 70
     1
 10
0.0
 20
0.0
 30
0.0
  3
*D9
  1

  0
LINE
  5
102E
330
CDF
100
AcDbEntity
  8
SK2
370
    -2
100
AcDbLine
 10
20.22499999999999
 20
22.5
 30
0.0
 11
30.36478178899998
 21
22.5
 31
0.0
  0
LINE
  5
102F
330
CDF
100
AcDbEntity
  8
SK2
370
    -2
100
AcDbLine
 10
20.22499999999999
 20
-22.5
 30
0.0
 11
30.36478178899998
 21
-22.5
 31
0.0
  0
LINE
  5
1030
330
CDF
100
AcDbEntity
  8
SK2
370
    -2
100
AcDbLine
 10
28.36478178899998
 20
19.0
 30
0.0
 11
28.36478178899998
 21
-19.0
 31
0.0
  0
SOLID
  5
1031
330
CDF
100
AcDbEntity
  8
SK2
100
AcDbTrace
 10
27.78144845566665
 20
19.0
 30
0.0
 11
28.94811512233331
 21
19.0
 31
0.0
 12
28.36478178899998
 22
22.5
 32
0.0
 13
28.36478178899998
 23
22.5
 33
0.0
  0
SOLID
  5
1032
330
CDF
100
AcDbEntity
  8
SK2
100
AcDbTrace
 10
27.78144845566664
 20
-19.0
 30
0.0
 11
28.94811512233331
 21
-19.0
 31
0.0
 12
28.36478178899998
 22
-22.5
 32
0.0
 13
28.36478178899998
 23
-22.5
 33
0.0
  0
MTEXT
  5
1033
330
CDF
100
AcDbEntity
  8
SK2
100
AcDbMText
 10
25.98978178899998
 20
-10.66649916960002
 30
0.0
 40
3.5
 41
0.0
 71
     5
 72
     1
  1
%%c45
 11
0.0000000000000001
 21
1.0
 31
0.0
 73
     1
 44
1.0
1001
ACAD
1000
MTEXTBEGIN
1070
    73
1070
     1
1070
    44
1040
1.0
1070
    74
1070
     0
1000
MTEXTEND
  0
POINT
  5
1034
330
CDF
100
AcDbEntity
  8
DEFPOINTS
 62
     0
100
AcDbPoint
 10
19.59999999999999
 20
22.5
 30
0.0
  0
POINT
  5
1035
330
CDF
100
AcDbEntity
  8
DEFPOINTS
 62
     0
100
AcDbPoint
 10
19.59999999999999
 20
-22.5
 30
0.0
  0
POINT
  5
1036
330
CDF
100
AcDbEntity
  8
DEFPOINTS
 62
     0
100
AcDbPoint
 10
28.36478178899998
 20
-22.5
 30
0.0
  0
ENDBLK
  5
CEA
330
CDF
100
AcDbEntity
  8
0
100
AcDbBlockEnd
  0
BLOCK
  5
DE9
330
DDF
100
AcDbEntity
  8
0
100
AcDbBlockBegin
  2
*D10
 70
     1
 10
0.0
 20
0.0
 30
0.0
  3
*D10
  1

  0
LINE
  5
1040
330
DDF
100
AcDbEntity
  8
2
370
    -2
100
AcDbLine
 10
77.0
 20
19.39583197809995
 30
0.0
 11
77.0
 21
63.67766622071946
 31
0.0
  0
LINE
  5
1041
330
DDF
100
AcDbEntity
  8
2
370
    -2
100
AcDbLine
 10
0.0
 20
32.39999999999998
 30
0.0
 11
0.000000000000002
 21
63.67766622071946
 31
0.0
  0
LINE
  5
1042
330
DDF
100
AcDbEntity
  8
2
370
    -2
100
AcDbLine
 10
73.5
 20
61.67766622071946
 30
0.0
 11
3.500000000000001
 21
61.67766622071946
 31
0.0
  0
SOLID
  5
1043
330
DDF
100
AcDbEntity
  8
2
100
AcDbTrace
 10
73.5
 20
62.26099955405279
 30
0.0
 11
73.5
 21
61.09433288738612
 31
0.0
 12
77.0
 22
61.67766622071946
 32
0.0
 13
77.0
 23
61.67766622071946
 33
0.0
  0
SOLID
  5
1044
330
DDF
100
AcDbEntity
  8
2
100
AcDbTrace
 10
3.500000000000001
 20
62.26099955405279
 30
0.0
 11
3.500000000000001
 21
61.09433288738612
 31
0.0
 12
0.0000000000000018
 22
61.67766622071946
 32
0.0
 13
0.0000000000000018
 23
61.67766622071946
 33
0.0
  0
MTEXT
  5
1045
330
DDF
100
AcDbEntity
  8
2
100
AcDbMText
 10
38.5
 20
64.05266622071946
 30
0.0
 40
3.5
 41
0.0
 71
     5
 72
     1
  1
77
 73
     1
 44
1.0
1001
ACAD
1000
MTEXTBEGIN
1070
    73
1070
     1
1070
    44
1040
1.0
1070
    74
1070
     0
1000
MTEXTEND
  0
POINT
  5
1046
330
DDF
100
AcDbEntity
  8
DEFPOINTS
 62
     0
100
AcDbPoint
 10
77.0
 20
18.77083197809995
 30
0.0
  0
POINT
  5
1047
330
DDF
100
AcDbEntity
  8
DEFPOINTS
 62
     0
100
AcDbPoint
 10
0.0
 20
31.77499999999998
 30
0.0
  0
POINT
  5
1048
330
DDF
100
AcDbEntity
  8
DEFPOINTS
 62
     0
100
AcDbPoint
 10
0.0000000000000018
 20
61.67766622071946
 30
0.0
  0
ENDBLK
  5
DEA
330
DDF
100
AcDbEntity
  8
0
100
AcDbBlockEnd
  0
ENDSEC
  0
SECTION
  2
ENTITIES
  0
DIMENSION
  5
5F9
330
22
100
AcDbEntity
  8
SK2
100
AcDbDimension
  2
*D4
 10
77.0
 20
61.67766622071946
 30
0.0
 11
83.93891865556412
 21
61.67766622071946
 31
0.0
 70
   160
 71
     5
 42
19.0
  3
ISO-25
100
AcDbAlignedDimension
 13
96.0
 23
15.15173567586811
 33
0.0
 14
77.0
 24
22.58966877247252
 34
0.0
 50
180.0
100
AcDbRotatedDimension
  0
DIMENSION
  5
5FA
330
22
100
AcDbEntity
  8
SK2
100
AcDbDimension
  2
*D8
 10
-90.00937499999997
 20
-31.77499999999998
 30
0.0
 11
-90.00937499999997
 21
-1.820503035500053
 31
0.0
 70
   160
  1
%%c<>
 71
     5
 42
63.54999999999998
  3
ISO-25
100
AcDbAlignedDimension
 13
1.865593088599979
 23
31.77499999999998
 33
0.0
 14
1.575312310999975
 24
-31.77500000000001
 34
0.0
 50
270.0
100
AcDbRotatedDimension
  0
DIMENSION
  5
5FB
330
22
100
AcDbEntity
  8
2
100
AcDbDimension
  2
*D3
 10
19.09999999999999
 20
50.45826229423203
 30
0.0
 11
9.564395248399987
 21
50.45826229423203
 31
0.0
 70
   160
 71
     5
 42
19.09999999999999
  3
ISO-25
100
AcDbAlignedDimension
 13
0.0
 23
23.03788010660429
 33
0.0
 14
19.09999999999999
 24
32.85696919455921
 34
0.0
100
AcDbRotatedDimension
  0
DIMENSION
  5
5FE
330
22
100
AcDbEntity
  8
SK2
100
AcDbDimension
  2
*D7
 10
-79.02499999999998
 20
-22.225
 30
0.0
 11
-79.02499999999998
 21
-0.6382941316000485
 31
0.0
 70
   160
  1
%%c<>
 71
     5
 42
44.45000000000002
  3
ISO-25
100
AcDbAlignedDimension
 13
-0.5
 23
22.225
 33
0.0
 14
-0.5
 24
-22.22500000000002
 34
0.0
 50
270.0
100
AcDbRotatedDimension
  0
DIMENSION
  5
5FF
330
22
100
AcDbEntity
  8
SK2
100
AcDbDimension
  2
*D2
 10
-68.4
 20
50.51662894360487
 30
0.0
 11
-32.88209315069999
 21
50.51662894360487
 31
0.0
 70
   160
 71
     5
 42
68.4
  3
ISO-25
100
AcDbAlignedDimension
 13
0.0
 23
-1.107458486116285
 33
0.0
 14
-68.4
 24
14.56170662611947
 34
0.0
 50
180.0
100
AcDbRotatedDimension
  0
DIMENSION
  5
601
330
22
100
AcDbEntity
  8
SK2
100
AcDbDimension
  2
*D6
 10
106.4661607629064
 20
-11.00000000000003
 30
0.0
 11
106.4661607629064
 21
0.3236457021388901
 31
0.0
 70
   160
  1
%%c<>
 71
     5
 42
22.0
  3
ISO-25
100
AcDbAlignedDimension
 13
93.49999999999999
 23
10.99999999999997
 33
0.0
 14
93.49999999999999
 24
-11.00000000000003
 34
0.0
 50
270.0
100
AcDbRotatedDimension
  0
DIMENSION
  5
603
330
22
100
AcDbEntity
  8
SK2
100
AcDbDimension
  2
*D9
 10
28.36478178899998
 20
-22.5
 30
0.0
 11
28.36478178899998
 21
-10.66649916960002
 31
0.0
 70
   160
  1
%%c<>
 71
     5
 42
45.0
  3
ISO-25
100
AcDbAlignedDimension
 13
19.59999999999999
 23
22.5
 33
0.0
 14
19.59999999999999
 24
-22.5
 34
0.0
 50
270.0
100
AcDbRotatedDimension
  0
DIMENSION
  5
604
330
22
100
AcDbEntity
  8
SK2
100
AcDbDimension
  2
*D5
 10
113.907521031128
 20
-20.00000000000004
 30
0.0
 11
113.907521031128
 21
-0.1244349371676776
 31
0.0
 70
   160
  1
%%c<>
 71
     5
 42
40.0
  3
ISO-25
100
AcDbAlignedDimension
 13
77.5
 23
19.99999999999997
 33
0.0
 14
77.5
 24
-20.00000000000003
 34
0.0
 50
270.0
100
AcDbRotatedDimension
  0
TEXT
  5
605
330
22
100
AcDbEntity
  8
6
100
AcDbText
 10
42.2256913095246
 20
-42.38341109004131
 30
0.0
 40
5.0
  1
69871A40SM22SK077
 41
1.199999999999999
 72
     1
 11
79.57164674195229
 21
-42.38341109004131
 31
0.0
100
AcDbText
  0
TEXT
  5
607
330
22
100
AcDbEntity
  8
6
100
AcDbText
 10
-41.40682774168243
 20
-13.91623042774898
 30
0.0
 40
3.5
  1
DIN 69871-A40
 41
1.199999999999999
100
AcDbText
  0
LINE
  5
609
330
22
100
AcDbEntity
  8
SK1
100
AcDbLine
 10
96.0
 20
9.369999999999947
 30
0.0
 11
96.0
 21
-9.370000000000032
 31
0.0
  0
LINE
  5
60A
330
22
100
AcDbEntity
  8
SK1
100
AcDbLine
 10
93.0
 20
-11.00000000000003
 30
0.0
 11
93.0
 21
-3.845837067900049
 31
0.0
  0
LINE
  5
60C
330
22
100
AcDbEntity
  8
SK1
100
AcDbLine
 10
93.0
 20
-3.845837067900049
 30
0.0
 11
93.0
 21
10.99999999999997
 31
0.0
  0
LINE
  5
60D
330
22
100
AcDbEntity
  8
SK3
100
AcDbLine
 10
91.5
 20
-5.250000000000028
 30
0.0
 11
91.5
 21
-4.053044273200072
 31
0.0
  0
LINE
  5
60E
330
22
100
AcDbEntity
  8
SK3
100
AcDbLine
 10
91.5
 20
-4.053044273200072
 30
0.0
 11
91.5
 21
5.249999999999971
 31
0.0
  0
LWPOLYLINE
  5
618
330
22
100
AcDbEntity
  8
1
100
AcDbPolyline
 90
        9
 70
     0
 43
0.0
 10
77.0
 20
18.77083197809995
 10
76.9881585576
 20
18.89186471799996
 10
76.95595465849999
 20
19.00424703239994
 10
76.90210420879998
 20
19.10983890449992
 10
76.83045949029997
 20
19.20306038459995
 10
76.74305238189998
 20
19.27939933319996
 10
76.64405999730002
 20
19.33751230339993
 10
76.53894354419998
 20
19.37419586509995
 10
76.42588262009997
 20
19.39051782839993
  0
LINE
  5
623
330
22
100
AcDbEntity
  8
SK1
100
AcDbLine
 10
82.0
 20
11.99999999999997
 30
0.0
 11
82.0
 21
18.99999999999996
 31
0.0
  0
LINE
  5
624
330
22
100
AcDbEntity
  8
SK1
100
AcDbLine
 10
82.0
 20
-12.00000000000003
 30
0.0
 11
82.0
 21
-19.00000000000003
 31
0.0
  0
LINE
  5
625
330
22
100
AcDbEntity
  8
SK1
100
AcDbLine
 10
81.5
 20
11.99999999999997
 30
0.0
 11
81.5
 21
18.99999999999996
 31
0.0
  0
LINE
  5
626
330
22
100
AcDbEntity
  8
SK1
100
AcDbLine
 10
81.5
 20
-12.00000000000003
 30
0.0
 11
81.5
 21
-19.00000000000003
 31
0.0
  0
LINE
  5
627
330
22
100
AcDbEntity
  8
SK1
100
AcDbLine
 10
79.5
 20
-11.00000000000003
 30
0.0
 11
79.5
 21
-6.070897312600068
 31
0.0
  0
LINE
  5
628
330
22
100
AcDbEntity
  8
SK1
100
AcDbLine
 10
79.5
 20
-6.070897312600068
 30
0.0
 11
79.5
 21
10.99999999999997
 31
0.0
  0
LWPOLYLINE
  5
62A
330
22
100
AcDbEntity
  8
SK3
100
AcDbPolyline
 90
        3
 70
     0
 43
0.0
 10
77.0
 20
-18.77083197820008
 10
76.98815859019998
 20
-18.89186462410006
 10
76.98686569
 20
-18.89529488030007
  0
LINE
  5
62F
330
22
100
AcDbEntity
  8
SK3
100
AcDbLine
 10
76.95595471179998
 20
-19.00424689670007
 30
0.0
 11
76.95407059319999
 21
-19.00899072000004
 31
0.0
  0
LINE
  5
632
330
22
100
AcDbEntity
  8
SK3
100
AcDbLine
 10
76.80583915879998
 20
-11.38350386060006
 30
0.0
 11
76.79999999999998
 21
-11.30000000000004
 31
0.0
  0
LINE
  5
634
330
22
100
AcDbEntity
  8
1
100
AcDbLine
 10
77.0
 20
18.77083197809995
 30
0.0
 11
77.0
 21
-6.058334650800047
 31
0.0
  0
LINE
  5
635
330
22
100
AcDbEntity
  8
1
100
AcDbLine
 10
77.0
 20
-6.058334650800047
 30
0.0
 11
77.0
 21
-18.77083197820008
 31
0.0
  0
LINE
  5
636
330
22
100
AcDbEntity
  8
SK3
100
AcDbLine
 10
76.79999999999998
 20
11.29999999999995
 30
0.0
 11
76.79999999999998
 21
-11.30000000000004
 31
0.0
  0
LINE
  5
637
330
22
100
AcDbEntity
  8
SK3
100
AcDbLine
 10
76.80583915879998
 20
11.38350386049995
 30
0.0
 11
76.79999999999998
 21
11.29999999999995
 31
0.0
  0
LINE
  5
638
330
22
100
AcDbEntity
  8
SK3
100
AcDbLine
 10
76.82221162349998
 20
11.49999999999997
 30
0.0
 11
76.80583915879998
 21
11.38350386049995
 31
0.0
  0
LINE
  5
639
330
22
100
AcDbEntity
  8
SK3
100
AcDbLine
 10
76.90210427249997
 20
-19.10983879250003
 30
0.0
 11
76.83045954949999
 21
-19.20306032170006
 31
0.0
  0
LINE
  5
63D
330
22
100
AcDbEntity
  8
SK1
100
AcDbLine
 10
81.5
 20
-19.50000000000003
 30
0.0
 11
82.0
 21
-19.00000000000003
 31
0.0
  0
LINE
  5
63E
330
22
100
AcDbEntity
  8
SK1
100
AcDbLine
 10
81.5
 20
19.49999999999997
 30
0.0
 11
82.0
 21
18.99999999999996
 31
0.0
  0
LWPOLYLINE
  5
63F
330
22
100
AcDbEntity
  8
SK3
100
AcDbPolyline
 90
        9
 70
     0
 43
0.0
 10
77.0
 20
-11.74704540870007
 10
76.99258026859999
 20
-11.69638950080005
 10
76.98532716619998
 20
-11.64894310400007
 10
76.97813518530002
 20
-11.60616349980006
 10
76.97132084829997
 20
-11.56929246750005
 10
76.965100052
 20
-11.53935059270003
 10
76.95966916520001
 20
-11.51749898810004
 10
76.95533006399998
 20
-11.50436236040005
 10
76.95198212299998
 20
-11.50000000000003
  0
LINE
  5
64A
330
22
100
AcDbEntity
  8
SK3
100
AcDbLine
 10
76.82221162349998
 20
-11.50000000000003
 30
0.0
 11
76.80583915879998
 21
-11.38350386060006
 31
0.0
  0
LINE
  5
64D
330
22
100
AcDbEntity
  8
SK3
100
AcDbLine
 10
69.5
 20
4.999999999999971
 30
0.0
 11
69.5
 21
-5.000000000000028
 31
0.0
  0
LINE
  5
64E
330
22
100
AcDbEntity
  8
SK3
100
AcDbLine
 10
69.0
 20
14.89999999999995
 30
0.0
 11
69.0
 21
19.49999999999997
 31
0.0
  0
LINE
  5
64F
330
22
100
AcDbEntity
  8
SK3
100
AcDbLine
 10
69.0
 20
-14.90000000000003
 30
0.0
 11
69.0
 21
-19.50000000000003
 31
0.0
  0
LINE
  5
650
330
22
100
AcDbEntity
  8
SK3
100
AcDbLine
 10
67.25
 20
11.49999999999997
 30
0.0
 11
67.25
 21
14.89999999999995
 31
0.0
  0
LINE
  5
651
330
22
100
AcDbEntity
  8
SK3
100
AcDbLine
 10
67.25
 20
-11.50000000000003
 30
0.0
 11
67.25
 21
-14.90000000000003
 31
0.0
  0
LINE
  5
652
330
22
100
AcDbEntity
  8
SK3
100
AcDbLine
 10
67.0
 20
11.24999999999997
 30
0.0
 11
67.0
 21
2.799999999999954
 31
0.0
  0
LINE
  5
653
330
22
100
AcDbEntity
  8
SK3
100
AcDbLine
 10
67.0
 20
-2.800000000000039
 30
0.0
 11
67.0
 21
-11.25000000000003
 31
0.0
  0
LINE
  5
654
330
22
100
AcDbEntity
  8
SK3
100
AcDbLine
 10
66.64999999999998
 20
10.89999999999995
 30
0.0
 11
66.64999999999998
 21
3.749999999999971
 31
0.0
  0
LINE
  5
655
330
22
100
AcDbEntity
  8
SK3
100
AcDbLine
 10
66.64999999999998
 20
-3.750000000000028
 30
0.0
 11
66.64999999999998
 21
-10.90000000000003
 31
0.0
  0
LINE
  5
65E
330
22
100
AcDbEntity
  8
SK1
100
AcDbLine
 10
81.5
 20
-12.00000000000003
 30
0.0
 11
81.75
 21
-11.75000000000003
 31
0.0
  0
LINE
  5
65F
330
22
100
AcDbEntity
  8
SK3
100
AcDbLine
 10
76.83045954949999
 20
-19.20306032170006
 30
0.0
 11
76.82949803919997
 21
-19.20408121210008
 31
0.0
  0
LINE
  5
661
330
22
100
AcDbEntity
  8
SK1
100
AcDbLine
 10
81.75
 20
11.74999999999997
 30
0.0
 11
81.5
 21
11.99999999999997
 31
0.0
  0
LINE
  5
662
330
22
100
AcDbEntity
  8
SK4
100
AcDbLine
 10
65.0
 20
-22.36595583953459
 30
0.0
 11
65.0
 21
-0.3674916481000423
 31
0.0
  0
LINE
  5
663
330
22
100
AcDbEntity
  8
SK4
100
AcDbLine
 10
65.0
 20
2.029492530899914
 30
0.0
 11
65.0
 21
20.54196261939996
 31
0.0
  0
LINE
  5
664
330
22
100
AcDbEntity
  8
SK3
100
AcDbLine
 10
63.34999999999997
 20
10.89999999999998
 30
0.0
 11
63.34999999999997
 21
3.75
 31
0.0
  0
LINE
  5
665
330
22
100
AcDbEntity
  8
SK3
100
AcDbLine
 10
63.34999999999997
 20
-3.75
 30
0.0
 11
63.34999999999997
 21
-10.9
 31
0.0
  0
LINE
  5
666
330
22
100
AcDbEntity
  8
SK3
100
AcDbLine
 10
63.0
 20
11.25
 30
0.0
 11
63.0
 21
2.799999999999982
 31
0.0
  0
LINE
  5
667
330
22
100
AcDbEntity
  8
SK3
100
AcDbLine
 10
63.0
 20
-2.800000000000011
 30
0.0
 11
63.0
 21
-11.25
 31
0.0
  0
LINE
  5
668
330
22
100
AcDbEntity
  8
SK3
100
AcDbLine
 10
62.75
 20
11.5
 30
0.0
 11
62.75
 21
14.89999999999997
 31
0.0
  0
LINE
  5
669
330
22
100
AcDbEntity
  8
SK3
100
AcDbLine
 10
62.75
 20
-11.5
 30
0.0
 11
62.75
 21
-14.9
 31
0.0
  0
LINE
  5
66A
330
22
100
AcDbEntity
  8
SK3
100
AcDbLine
 10
62.0
 20
-3.75
 30
0.0
 11
62.0
 21
3.75
 31
0.0
  0
LINE
  5
66B
330
22
100
AcDbEntity
  8
SK3
100
AcDbLine
 10
61.0
 20
14.89999999999997
 30
0.0
 11
61.0
 21
19.5
 31
0.0
  0
LINE
  5
66C
330
22
100
AcDbEntity
  8
SK3
100
AcDbLine
 10
61.0
 20
-14.9
 30
0.0
 11
61.0
 21
-19.5
 31
0.0
  0
LINE
  5
670
330
22
100
AcDbEntity
  8
SK3
100
AcDbLine
 10
55.5
 20
12.0
 30
0.0
 11
55.5
 21
19.0
 31
0.0
  0
LINE
  5
671
330
22
100
AcDbEntity
  8
SK3
100
AcDbLine
 10
55.5
 20
20.92832469769996
 30
0.0
 11
55.5
 21
11.79999999999998
 31
0.0
  0
LINE
  5
672
330
22
100
AcDbEntity
  8
SK3
100
AcDbLine
 10
55.5
 20
-12.0
 30
0.0
 11
55.5
 21
-19.0
 31
0.0
  0
LINE
  5
673
330
22
100
AcDbEntity
  8
SK3
100
AcDbLine
 10
55.5
 20
-11.80000000000001
 30
0.0
 11
55.5
 21
-20.92832469780004
 31
0.0
  0
LWPOLYLINE
  5
674
330
22
100
AcDbEntity
  8
SK3
100
AcDbPolyline
 90
        9
 70
     0
 43
0.0
 10
76.95198212299998
 20
11.49999999999997
 10
76.95533006399998
 20
11.50436236029995
 10
76.95966916520001
 20
11.51749898799994
 10
76.965100052
 20
11.53935059259993
 10
76.97132084829997
 20
11.56929246739994
 10
76.97813518530002
 20
11.60616349969993
 10
76.98532716619998
 20
11.64894310389996
 10
76.99258026859999
 20
11.69638950069995
 10
77.0
 20
11.74704540859991
  0
LINE
  5
67F
330
22
100
AcDbEntity
  8
SK3
100
AcDbLine
 10
63.34999999999997
 20
-10.9
 30
0.0
 11
62.75
 21
-11.5
 31
0.0
  0
LINE
  5
683
330
22
100
AcDbEntity
  8
SK3
100
AcDbLine
 10
62.75
 20
11.5
 30
0.0
 11
63.34999999999997
 21
10.89999999999998
 31
0.0
  0
LINE
  5
684
330
22
100
AcDbEntity
  8
SK3
100
AcDbLine
 10
62.0
 20
3.75
 30
0.0
 11
59.74677267869998
 21
0.0
 31
0.0
  0
LINE
  5
685
330
22
100
AcDbEntity
  8
SK1
100
AcDbLine
 10
81.5
 20
11.49999999999997
 30
0.0
 11
82.0
 21
11.99999999999997
 31
0.0
  0
LINE
  5
686
330
22
100
AcDbEntity
  8
SK3
100
AcDbLine
 10
56.0
 20
-11.5
 30
0.0
 11
55.5
 21
-12.0
 31
0.0
  0
LINE
  5
68A
330
22
100
AcDbEntity
  8
SK1
100
AcDbLine
 10
81.5
 20
-11.50000000000003
 30
0.0
 11
82.0
 21
-12.00000000000003
 31
0.0
  0
LINE
  5
68B
330
22
100
AcDbEntity
  8
SK3
100
AcDbLine
 10
56.0
 20
11.5
 30
0.0
 11
55.5
 21
12.0
 31
0.0
  0
LINE
  5
68D
330
22
100
AcDbEntity
  8
SK3
100
AcDbLine
 10
62.0
 20
-3.75
 30
0.0
 11
59.74677267869998
 21
0.0
 31
0.0
  0
LINE
  5
68E
330
22
100
AcDbEntity
  8
SK1
100
AcDbLine
 10
81.75
 20
19.24999999999997
 30
0.0
 11
81.5
 21
18.99999999999996
 31
0.0
  0
LINE
  5
68F
330
22
100
AcDbEntity
  8
SK3
100
AcDbLine
 10
67.25
 20
11.49999999999997
 30
0.0
 11
66.64999999999998
 21
10.89999999999995
 31
0.0
  0
LINE
  5
691
330
22
100
AcDbEntity
  8
1
100
AcDbLine
 10
17.5
 20
31.77499999999998
 30
0.0
 11
14.3475
 21
31.77499999999998
 31
0.0
  0
LINE
  5
692
330
22
100
AcDbEntity
  8
1
100
AcDbLine
 10
7.852499999999992
 20
31.77499999999998
 30
0.0
 11
4.800000000000012
 21
31.77499999999998
 31
0.0
  0
LWPOLYLINE
  5
699
330
22
100
AcDbEntity
  8
1
100
AcDbPolyline
 90
        3
 70
     0
 43
0.0
 10
55.71235241329998
 20
20.86890512209999
 10
55.52230592859999
 20
20.92219787889999
 10
55.5
 20
20.92832469769996
  0
LINE
  5
69E
330
22
100
AcDbEntity
  8
SK1
100
AcDbLine
 10
81.5
 20
-19.00000000000003
 30
0.0
 11
81.75
 21
-19.25000000000003
 31
0.0
  0
LINE
  5
69F
330
22
100
AcDbEntity
  8
SK3
100
AcDbLine
 10
66.64999999999998
 20
-10.90000000000003
 30
0.0
 11
67.25
 21
-11.50000000000003
 31
0.0
  0
LINE
  5
6A0
330
22
100
AcDbEntity
  8
SK3
100
AcDbLine
 10
63.34999999999997
 20
-3.75
 30
0.0
 11
63.43248838339997
 21
-3.714443789900029
 31
0.0
  0
LINE
  5
6A1
330
22
100
AcDbEntity
  8
1
100
AcDbLine
 10
-0.7999999999999829
 20
22.10829262149997
 30
0.0
 11
-67.37322744120001
 21
12.39630905519996
 31
0.0
  0
LWPOLYLINE
  5
6A2
330
22
100
AcDbEntity
  8
SK3
100
AcDbPolyline
 90
       11
 70
     0
 43
0.0
 10
4.800000109100011
 20
25.83409810689997
 10
4.56947529849998
 20
25.81452572309996
 10
4.344506914899993
 20
25.75262430489997
 10
4.122110210399966
 20
25.64802069989998
 10
3.911239428699984
 20
25.50183436509997
 10
3.718352726400012
 20
25.31450728039998
 10
3.547953617100006
 20
25.08769872389999
 10
3.404476562199988
 20
24.82114562589996
 10
3.294586874299993
 20
24.52105701059998
 10
3.227445953599981
 20
24.19431937879997
 10
3.200000000000017
 20
23.83863723029998
  0
LINE
  5
6AF
330
22
100
AcDbEntity
  8
1
100
AcDbLine
 10
9.724999999999994
 20
28.125
 30
0.0
 11
12.47499999999999
 21
28.125
 31
0.0
  0
LINE
  5
6B0
330
22
100
AcDbEntity
  8
SK3
100
AcDbLine
 10
17.50000000290001
 20
25.83409810689997
 30
0.0
 11
14.3475
 21
25.83409810689997
 31
0.0
  0
LINE
  5
6B1
330
22
100
AcDbEntity
  8
SK3
100
AcDbLine
 10
7.852499999999992
 20
25.83409810689997
 30
0.0
 11
4.800000109100011
 21
25.83409810689997
 31
0.0
  0
LINE
  5
6B2
330
22
100
AcDbEntity
  8
1
100
AcDbLine
 10
55.5
 20
20.92832469769996
 30
0.0
 11
20.0568622998
 21
22.45868470199997
 31
0.0
  0
LWPOLYLINE
  5
6B3
330
22
100
AcDbEntity
  8
1
100
AcDbPolyline
 90
       14
 70
     0
 43
0.0
 10
60.5
 20
20.09987495699997
 10
60.0077555368
 20
20.12833882969997
 10
59.52048458619998
 20
20.16725592549997
 10
59.042690273
 20
20.21744838409998
 10
58.57964801560001
 20
20.27644978649997
 10
58.13616995499998
 20
20.34291205019994
 10
57.71680236239999
 20
20.41430230539996
 10
57.32624215279997
 20
20.48836793339996
 10
56.96653884029998
 20
20.56292009819998
 10
56.6406515229
 20
20.63565506539996
 10
56.34992903209999
 20
20.70466491079998
 10
56.0962710163
 20
20.76798236769994
 10
55.88319537129999
 20
20.8234817291
 10
55.71235241329998
 20
20.86890512209999
  0
LINE
  5
6CD
330
22
100
AcDbEntity
  8
SK3
100
AcDbLine
 10
63.37200132499997
 20
3.74065629629996
 30
0.0
 11
63.34999999999997
 21
3.75
 31
0.0
  0
LINE
  5
6CE
330
22
100
AcDbEntity
  8
SK3
100
AcDbLine
 10
63.43286387759996
 20
3.714285345199953
 30
0.0
 11
63.34999999999997
 21
3.75
 31
0.0
  0
LINE
  5
6CF
330
22
100
AcDbEntity
  8
SK3
100
AcDbLine
 10
66.5681115889
 20
3.714697020599941
 30
0.0
 11
66.64999999999998
 21
3.749999999999971
 31
0.0
  0
LINE
  5
6D0
330
22
100
AcDbEntity
  8
SK3
100
AcDbLine
 10
63.43188841109998
 20
-3.714697020700042
 30
0.0
 11
63.53534178699998
 21
-3.672541662900016
 31
0.0
  0
LINE
  5
6D1
330
22
100
AcDbEntity
  8
SK3
100
AcDbLine
 10
63.6736023864
 20
-3.619299743000027
 30
0.0
 11
63.53279792539999
 21
-3.673378283000033
 31
0.0
  0
LINE
  5
6D2
330
22
100
AcDbEntity
  8
SK3
100
AcDbLine
 10
63.8428243249
 20
-3.560713469700032
 30
0.0
 11
63.66965781819999
 21
-3.620747204800038
 31
0.0
  0
LINE
  5
6D3
330
22
100
AcDbEntity
  8
1
100
AcDbLine
 10
0.3196152422999887
 20
21.80829262149996
 30
0.0
 11
2.409731931299971
 21
21.80829262149996
 31
0.0
  0
LINE
  5
6D4
330
22
100
AcDbEntity
  8
SK3
100
AcDbLine
 10
9.724999999999994
 20
21.18408895839994
 30
0.0
 11
12.47499999999999
 21
21.18408895839994
 31
0.0
  0
LINE
  5
6D5
330
22
100
AcDbEntity
  8
SK3
100
AcDbLine
 10
56.0001226568
 20
19.5
 30
0.0
 11
73.97012223939999
 21
19.49999999999997
 31
0.0
  0
LINE
  5
6D6
330
22
100
AcDbEntity
  8
SK1
100
AcDbLine
 10
73.97012223939999
 20
19.49999999999997
 30
0.0
 11
81.5
 21
19.49999999999997
 31
0.0
  0
LINE
  5
6D7
330
22
100
AcDbEntity
  8
SK1
100
AcDbLine
 10
76.95717167379998
 20
18.99999999999996
 30
0.0
 11
81.5
 21
18.99999999999996
 31
0.0
  0
LINE
  5
6D8
330
22
100
AcDbEntity
  8
SK3
100
AcDbLine
 10
76.95717167379998
 20
18.99999999999996
 30
0.0
 11
55.5
 21
19.0
 31
0.0
  0
LINE
  5
6D9
330
22
100
AcDbEntity
  8
SK3
100
AcDbLine
 10
19.09999999999999
 20
18.5
 30
0.0
 11
3.200000000000017
 21
18.5
 31
0.0
  0
LINE
  5
6DA
330
22
100
AcDbEntity
  8
1
100
AcDbLine
 10
76.42588262009997
 20
19.39051782839993
 30
0.0
 11
60.5
 21
20.09987495699997
 31
0.0
  0
LWPOLYLINE
  5
6DB
330
22
100
AcDbEntity
  8
SK3
100
AcDbPolyline
 90
       11
 70
     0
 43
0.0
 10
9.724999999999994
 20
21.18408895839994
 10
9.646918414400003
 20
21.19249565499999
 10
9.57274945269998
 20
21.21560249369998
 10
9.501797212300003
 20
21.25393838469995
 10
9.436149400799989
 20
21.30591659789997
 10
9.377364536499982
 20
21.3703233807
 10
9.326334283299985
 20
21.44656871019996
 10
9.283862451400011
 20
21.53462335399996
 10
9.251771119300002
 20
21.63159118759998
 10
9.232411554099996
 20
21.73420310899996
 10
9.224999999999994
 20
21.84354881879997
  0
LINE
  5
6E9
330
22
100
AcDbEntity
  8
1
100
AcDbLine
 10
-0.7999999999999829
 20
22.10829262149997
 30
0.0
 11
0.3196152422999887
 21
21.80829262149996
 31
0.0
  0
LINE
  5
6EA
330
22
100
AcDbEntity
  8
SK3
100
AcDbLine
 10
63.66911804249998
 20
3.620945564999998
 30
0.0
 11
63.83983650139999
 21
3.561893597899966
 31
0.0
  0
LINE
  5
6EB
330
22
100
AcDbEntity
  8
SK3
100
AcDbLine
 10
63.53236067920001
 20
3.673567989799976
 30
0.0
 11
63.6711726657
 21
3.620190890599956
 31
0.0
  0
LINE
  5
6EC
330
22
100
AcDbEntity
  8
SK3
100
AcDbLine
 10
63.4315722681
 20
3.714830487399978
 30
0.0
 11
63.53428681949998
 21
3.672782775000001
 31
0.0
  0
LINE
  5
6ED
330
22
100
AcDbEntity
  8
SK3
100
AcDbLine
 10
66.64999999999998
 20
-3.750000000000028
 30
0.0
 11
66.62799867499998
 21
-3.740656296300044
 31
0.0
  0
LINE
  5
6EE
330
22
100
AcDbEntity
  8
SK3
100
AcDbLine
 10
66.64999999999998
 20
-3.750000000000028
 30
0.0
 11
66.56713612239997
 21
-3.714285345300055
 31
0.0
  0
LINE
  5
6EF
330
22
100
AcDbEntity
  8
SK3
100
AcDbLine
 10
55.5
 20
19.0
 30
0.0
 11
56.0
 21
19.5
 31
0.0
  0
LINE
  5
6F1
330
22
100
AcDbEntity
  8
SK3
100
AcDbLine
 10
66.46465821309999
 20
3.672541662799943
 30
0.0
 11
66.56751161659997
 21
3.714443789799958
 31
0.0
  0
LINE
  5
6F2
330
22
100
AcDbEntity
  8
SK3
100
AcDbLine
 10
66.4672020747
 20
3.673378282999948
 30
0.0
 11
66.3263976137
 21
3.619299742899926
 31
0.0
  0
LINE
  5
6F3
330
22
100
AcDbEntity
  8
SK3
100
AcDbLine
 10
66.33034218189999
 20
3.620747204699937
 30
0.0
 11
66.15717567519999
 21
3.56071346959996
 31
0.0
  0
LWPOLYLINE
  5
6F4
330
22
100
AcDbEntity
  8
SK3
100
AcDbPolyline
 90
        3
 70
     0
 43
0.0
 10
66.15950385539997
 20
3.561685426099926
 10
65.96085074230001
 20
3.501890082299951
 10
65.73889886799998
 20
3.447832524999966
  0
LINE
  5
6F9
330
22
100
AcDbEntity
  8
SK3
100
AcDbLine
 10
69.0
 20
14.89999999999995
 30
0.0
 11
61.0
 21
14.89999999999997
 31
0.0
  0
LINE
  5
6FA
330
22
100
AcDbEntity
  8
SK1
100
AcDbLine
 10
77.0
 20
11.99999999999997
 30
0.0
 11
81.5
 21
11.99999999999997
 31
0.0
  0
LINE
  5
6FB
330
22
100
AcDbEntity
  8
SK3
100
AcDbLine
 10
77.0
 20
11.99999999999997
 30
0.0
 11
55.5
 21
12.0
 31
0.0
  0
LINE
  5
6FC
330
22
100
AcDbEntity
  8
SK3
100
AcDbLine
 10
55.83426829179997
 20
11.5
 30
0.0
 11
76.95198212299998
 21
11.49999999999997
 31
0.0
  0
LINE
  5
6FD
330
22
100
AcDbEntity
  8
SK3
100
AcDbLine
 10
56.0001226568
 20
11.5
 30
0.0
 11
77.0
 21
11.49999999999997
 31
0.0
  0
LINE
  5
6FE
330
22
100
AcDbEntity
  8
SK1
100
AcDbLine
 10
77.0
 20
11.49999999999997
 30
0.0
 11
81.5
 21
11.49999999999997
 31
0.0
  0
LINE
  5
6FF
330
22
100
AcDbEntity
  8
SK3
100
AcDbLine
 10
63.0
 20
11.25
 30
0.0
 11
67.0
 21
11.24999999999997
 31
0.0
  0
LINE
  5
700
330
22
100
AcDbEntity
  8
SK1
100
AcDbLine
 10
93.0
 20
10.99999999999997
 30
0.0
 11
79.5
 21
10.99999999999997
 31
0.0
  0
LINE
  5
701
330
22
100
AcDbEntity
  8
SK1
100
AcDbLine
 10
94.39999999999995
 20
10.96999999999997
 30
0.0
 11
93.0
 21
10.96999999999997
 31
0.0
  0
LWPOLYLINE
  5
702
330
22
100
AcDbEntity
  8
SK3
100
AcDbPolyline
 90
        4
 70
     0
 43
0.0
 10
64.4990834413
 20
3.404543640299948
 10
64.25939696859997
 20
3.448237105399924
 10
64.03773977769998
 20
3.502277078599916
 10
63.84058518649999
 20
3.561548770999962
  0
LINE
  5
709
330
22
100
AcDbEntity
  8
SK3
100
AcDbLine
 10
64.03844192769998
 20
3.502084225999936
 30
0.0
 11
64.26053814239998
 21
3.447961297499971
 31
0.0
  0
LWPOLYLINE
  5
70A
330
22
100
AcDbEntity
  8
SK3
100
AcDbPolyline
 90
        4
 70
     0
 43
0.0
 10
66.1594148136
 20
-3.561548771100035
 10
65.9622602224
 20
-3.502277078700075
 10
65.74060303139997
 20
-3.448237105500055
 10
65.50091655879999
 20
-3.404543640400049
  0
LINE
  5
710
330
22
100
AcDbEntity
  8
SK3
100
AcDbLine
 10
66.1601634987
 20
-3.561893598000068
 30
0.0
 11
66.33088195749997
 21
-3.620945565100071
 31
0.0
  0
LINE
  5
711
330
22
100
AcDbEntity
  8
SK3
100
AcDbLine
 10
66.3288273343
 20
-3.620190890700087
 30
0.0
 11
66.4676393208
 21
-3.673567989900049
 31
0.0
  0
LINE
  5
713
330
22
100
AcDbEntity
  8
SK3
100
AcDbLine
 10
66.46571318050002
 20
-3.672782775100073
 30
0.0
 11
66.56842773199997
 21
-3.714830487500051
 31
0.0
  0
LINE
  5
714
330
22
100
AcDbEntity
  8
SK3
100
AcDbLine
 10
55.5
 20
-19.0
 30
0.0
 11
56.0
 21
-19.5
 31
0.0
  0
LWPOLYLINE
  5
715
330
22
100
AcDbEntity
  8
SK3
100
AcDbPolyline
 90
       11
 70
     0
 43
0.0
 10
19.09999999999999
 20
23.83863723029998
 10
19.07255060529999
 20
24.19340962719997
 10
19.00604926969998
 20
24.51883940709999
 10
18.89746744489997
 20
24.81698690689999
 10
18.755890776
 20
25.08167111569998
 10
18.5883842936
 20
25.30715401889998
 10
18.39798129229999
 20
25.49416696499998
 10
18.18798729229999
 20
25.64218028799999
 10
17.9646506473
 20
25.74923901629996
 10
17.73624032499998
 20
25.81294518169997
 10
17.50000000290001
 20
25.83409810689997
  0
LWPOLYLINE
  5
722
330
22
100
AcDbEntity
  8
1
100
AcDbPolyline
 90
        9
 70
     0
 43
0.0
 10
19.09999999999999
 20
5.515996295799964
 10
19.1645591173
 20
4.160105432599976
 10
19.22720613529998
 20
2.786665190099966
 10
19.30248797419998
 20
1.390862522299982
 10
19.3467638738
 20
-0.0128634328000317
 10
19.3016856987
 20
-1.414791707400013
 10
19.2259224945
 20
-2.805580836600056
 10
19.16359638659997
 20
-4.171076309300018
 10
19.09999999999999
 20
-5.515996295900008
  0
LINE
  5
72D
330
22
100
AcDbEntity
  8
1
100
AcDbLine
 10
19.09999999999999
 20
30.17464443250001
 30
0.0
 11
19.09999999999999
 21
5.515996295799964
 31
0.0
  0
LINE
  5
72F
330
22
100
AcDbEntity
  8
1
100
AcDbLine
 10
19.09999999999999
 20
-5.515996295900008
 30
0.0
 11
19.09999999999999
 21
-30.17499995100005
 31
0.0
  0
LINE
  5
730
330
22
100
AcDbEntity
  8
1
100
AcDbLine
 10
7.852499999999992
 20
-31.77500000000001
 30
0.0
 11
9.224999999999994
 21
-29.39776026670003
 31
0.0
  0
LINE
  5
732
330
22
100
AcDbEntity
  8
SK3
100
AcDbLine
 10
63.34999999999997
 20
10.89999999999998
 30
0.0
 11
66.64999999999998
 21
10.89999999999995
 31
0.0
  0
LINE
  5
733
330
22
100
AcDbEntity
  8
SK1
100
AcDbLine
 10
78.30139325919998
 20
10.69999999999996
 30
0.0
 11
77.39999999999998
 21
10.69999999999996
 31
0.0
  0
LINE
  5
73B
330
22
100
AcDbEntity
  8
SK3
100
AcDbLine
 10
-60.19999999999999
 20
8.5
 30
0.0
 11
-67.40000000000001
 21
8.5
 31
0.0
  0
LINE
  5
73C
330
22
100
AcDbEntity
  8
1
100
AcDbLine
 10
19.09999999999999
 20
8.049999999999982
 30
0.0
 11
3.200000000000017
 21
8.049999999999982
 31
0.0
  0
LINE
  5
73D
330
22
100
AcDbEntity
  8
SK3
100
AcDbLine
 10
-36.19999999999999
 20
8.0
 30
0.0
 11
-60.19999999999999
 21
8.0
 31
0.0
  0
LINE
  5
73E
330
22
100
AcDbEntity
  8
SK3
100
AcDbLine
 10
-25.40000000000001
 20
6.919999999999986
 30
0.0
 11
-60.19999999999999
 21
6.919999999999986
 31
0.0
  0
LINE
  5
73F
330
22
100
AcDbEntity
  8
SK3
100
AcDbLine
 10
95.0
 20
5.249999999999971
 30
0.0
 11
92.7457692773
 21
5.249999999999971
 31
0.0
  0
LINE
  5
740
330
22
100
AcDbEntity
  8
SK3
100
AcDbLine
 10
92.7457692773
 20
5.249999999999971
 30
0.0
 11
91.5
 21
5.249999999999971
 31
0.0
  0
LINE
  5
745
330
22
100
AcDbEntity
  8
SK3
100
AcDbLine
 10
64.74377137480002
 20
3.377436175699955
 30
0.0
 11
64.49798512939998
 21
3.404705410199937
 31
0.0
  0
LWPOLYLINE
  5
746
330
22
100
AcDbEntity
  8
SK3
100
AcDbPolyline
 90
        3
 70
     0
 43
0.0
 10
64.4990834413
 20
3.404543640299948
 10
64.74450733999998
 20
3.37733969919995
 10
65.0
 20
3.367491648099928
  0
LINE
  5
74C
330
22
100
AcDbEntity
  8
SK3
100
AcDbLine
 10
65.73946185770001
 20
-3.447961297600073
 30
0.0
 11
65.96155807239998
 21
-3.502084226100038
 31
0.0
  0
LINE
  5
74D
330
22
100
AcDbEntity
  8
SK1
100
AcDbLine
 10
79.5
 20
-11.00000000000003
 30
0.0
 11
78.45668468629998
 21
-10.72044450430005
 31
0.0
  0
LINE
  5
74E
330
22
100
AcDbEntity
  8
1
100
AcDbLine
 10
7.852499999999992
 20
31.77499999999998
 30
0.0
 11
9.224999999999994
 21
29.39776026659999
 31
0.0
  0
LWPOLYLINE
  5
74F
330
22
100
AcDbEntity
  8
SK3
100
AcDbPolyline
 90
        7
 70
     0
 43
0.0
 10
9.224999999999994
 20
22.84684461129996
 10
9.007926805799995
 20
23.32864707279998
 10
8.786199744099972
 20
23.81684219699997
 10
8.559834616100005
 20
24.31139568469996
 10
8.328784017799987
 20
24.81241043339995
 10
8.093000545399974
 20
25.31998934049997
 10
7.852499999999992
 20
25.83409810689997
  0
LINE
  5
758
330
22
100
AcDbEntity
  8
1
100
AcDbLine
 10
14.3475
 20
31.77499999999998
 30
0.0
 11
14.3475
 21
8.049999999999982
 31
0.0
  0
LINE
  5
759
330
22
100
AcDbEntity
  8
1
100
AcDbLine
 10
14.3475
 20
-8.050000000000011
 30
0.0
 11
14.3475
 21
-31.77500000000001
 31
0.0
  0
LINE
  5
75A
330
22
100
AcDbEntity
  8
SK1
100
AcDbLine
 10
78.30139325919998
 20
10.69999999999996
 30
0.0
 11
78.45668468629998
 21
10.72044450419994
 31
0.0
  0
LWPOLYLINE
  5
75E
330
22
100
AcDbEntity
  8
SK3
100
AcDbPolyline
 90
        4
 70
     0
 43
0.0
 10
65.0
 20
3.367491648099928
 10
65.255759345
 20
3.377400882299951
 10
65.50112107050001
 20
3.404573736499941
 10
65.73934731179996
 20
3.447978363899948
  0
LINE
  5
764
330
22
100
AcDbEntity
  8
SK3
100
AcDbLine
 10
69.5
 20
4.999999999999971
 30
0.0
 11
91.5
 21
4.999999999999971
 31
0.0
  0
LINE
  5
765
330
22
100
AcDbEntity
  8
SK3
100
AcDbLine
 10
91.5
 20
3.749999999999971
 30
0.0
 11
68.46975291669997
 21
3.749999999999971
 31
0.0
  0
LINE
  5
766
330
22
100
AcDbEntity
  8
SK3
100
AcDbLine
 10
68.46975291669997
 20
3.749999999999971
 30
0.0
 11
66.64999999999998
 21
3.749999999999971
 31
0.0
  0
LINE
  5
767
330
22
100
AcDbEntity
  8
SK3
100
AcDbLine
 10
63.34999999999997
 20
3.75
 30
0.0
 11
62.0
 21
3.75
 31
0.0
  0
LINE
  5
768
330
22
100
AcDbEntity
  8
SK3
100
AcDbLine
 10
63.0
 20
2.799999952299997
 30
0.0
 11
67.0
 21
2.79999995229997
 31
0.0
  0
LINE
  5
769
330
22
100
AcDbEntity
  8
4
100
AcDbLine
 10
99.0
 20
-0.0000000000000284
 30
0.0
 11
-71.4
 21
0.0
 31
0.0
  0
LINE
  5
76A
330
22
100
AcDbEntity
  8
SK3
100
AcDbLine
 10
65.50201487069998
 20
-3.404705410300067
 30
0.0
 11
65.25622862519998
 21
-3.377436175800055
 31
0.0
  0
LINE
  5
76D
330
22
100
AcDbEntity
  8
1
100
AcDbLine
 10
12.97499999999999
 20
-29.39776026250001
 30
0.0
 11
12.97499999999999
 21
-8.050000000000011
 31
0.0
  0
LINE
  5
76E
330
22
100
AcDbEntity
  8
1
100
AcDbLine
 10
12.97499999999999
 20
8.049999999999982
 30
0.0
 11
12.97499999999999
 21
29.39739681689997
 31
0.0
  0
LINE
  5
76F
330
22
100
AcDbEntity
  8
1
100
AcDbLine
 10
9.224999999999994
 20
29.39739681689997
 30
0.0
 11
9.224999999999994
 21
8.049999999999982
 31
0.0
  0
LINE
  5
770
330
22
100
AcDbEntity
  8
1
100
AcDbLine
 10
9.224999999999994
 20
-8.050000000000011
 30
0.0
 11
9.224999999999994
 21
-29.39776026250001
 31
0.0
  0
LINE
  5
771
330
22
100
AcDbEntity
  8
1
100
AcDbLine
 10
7.852499999999992
 20
-31.77500000000001
 30
0.0
 11
7.852499999999992
 21
-8.050000000000011
 31
0.0
  0
LINE
  5
772
330
22
100
AcDbEntity
  8
1
100
AcDbLine
 10
7.852499999999992
 20
8.049999999999982
 30
0.0
 11
7.852499999999992
 21
31.77499999999998
 31
0.0
  0
LWPOLYLINE
  5
773
330
22
100
AcDbEntity
  8
SK3
100
AcDbPolyline
 90
       11
 70
     0
 43
0.0
 10
12.97499999999999
 20
21.84354881879997
 10
12.96758219989999
 20
21.73409973609995
 10
12.94817050829999
 20
21.63136613519995
 10
12.9159678394
 20
21.53423236629997
 10
12.8733654506
 20
21.44604537909998
 10
12.8222139456
 20
21.36978680069999
 10
12.76333819859999
 20
21.30543694899996
 10
12.69764569849999
 20
21.25357951669997
 10
12.62673920439999
 20
21.2153860071
 10
12.55276212849998
 20
21.19239324609996
 10
12.47499999999999
 20
21.18408895839994
  0
LINE
  5
780
330
22
100
AcDbEntity
  8
SK1
100
AcDbLine
 10
79.5
 20
10.99999999999997
 30
0.0
 11
78.45668468629998
 21
10.72044450419994
 31
0.0
  0
LINE
  5
784
330
22
100
AcDbEntity
  8
SK3
100
AcDbLine
 10
63.0
 20
-2.799999952400014
 30
0.0
 11
67.0
 21
-2.799999952400041
 31
0.0
  0
LINE
  5
785
330
22
100
AcDbEntity
  8
SK3
100
AcDbLine
 10
91.5
 20
-3.750000000000028
 30
0.0
 11
68.2274987881
 21
-3.750000000000028
 31
0.0
  0
LINE
  5
786
330
22
100
AcDbEntity
  8
SK3
100
AcDbLine
 10
68.2274987881
 20
-3.750000000000028
 30
0.0
 11
66.64999999999998
 21
-3.750000000000028
 31
0.0
  0
LINE
  5
787
330
22
100
AcDbEntity
  8
SK3
100
AcDbLine
 10
63.34999999999997
 20
-3.75
 30
0.0
 11
62.0
 21
-3.75
 31
0.0
  0
LINE
  5
788
330
22
100
AcDbEntity
  8
SK3
100
AcDbLine
 10
69.5
 20
-5.000000000000028
 30
0.0
 11
90.65458635590001
 21
-5.000000000000028
 31
0.0
  0
LINE
  5
789
330
22
100
AcDbEntity
  8
SK3
100
AcDbLine
 10
90.65458635590001
 20
-5.000000000000028
 30
0.0
 11
91.5
 21
-5.000000000000028
 31
0.0
  0
LINE
  5
78A
330
22
100
AcDbEntity
  8
SK3
100
AcDbLine
 10
95.0
 20
-5.250000000000028
 30
0.0
 11
91.5
 21
-5.250000000000028
 31
0.0
  0
LWPOLYLINE
  5
78E
330
22
100
AcDbEntity
  8
SK3
100
AcDbPolyline
 90
        3
 70
     0
 43
0.0
 10
65.0
 20
-3.367491648100041
 10
65.25549265999998
 20
-3.377339699300051
 10
65.50091655879999
 20
-3.404543640400049
  0
LINE
  5
795
330
22
100
AcDbEntity
  8
SK1
100
AcDbLine
 10
78.30139325919998
 20
-10.70000000000004
 30
0.0
 11
78.45668468629998
 21
-10.72044450430005
 31
0.0
  0
LWPOLYLINE
  5
797
330
22
100
AcDbEntity
  8
1
100
AcDbPolyline
 90
        7
 70
     0
 43
0.0
 10
3.294972121999961
 20
6.449999999999986
 10
3.286018172099999
 20
6.639122134599973
 10
3.274204496499975
 20
6.825496046899985
 10
3.259428128699993
 20
7.006286915799961
 10
3.241997968099979
 20
7.179664254699956
 10
3.222222913999984
 20
7.343754918399953
 10
3.200000000000017
 20
7.495841385999965
  0
LWPOLYLINE
  5
7A0
330
22
100
AcDbEntity
  8
1
100
AcDbPolyline
 90
        7
 70
     0
 43
0.0
 10
3.29497156779999
 20
6.449999999999986
 10
3.318343125399962
 20
5.810198478499983
 10
3.339392762800001
 20
5.169527724499971
 10
3.358143736099975
 20
4.528038442299987
 10
3.374526276599993
 20
3.88557851859997
 10
3.38847061559997
 20
3.241995840199961
 10
3.400000009199998
 20
2.597341111499956
  0
LINE
  5
7A9
330
22
100
AcDbEntity
  8
1
100
AcDbLine
 10
3.407273163699982
 20
1.298670400099979
 30
0.0
 11
3.400000009199998
 21
2.597341111499956
 31
0.0
  0
LINE
  5
7AB
330
22
100
AcDbEntity
  8
1
100
AcDbLine
 10
3.40966706719999
 20
-0.1456138076000286
 30
0.0
 11
3.407273163699982
 21
1.298670400099979
 31
0.0
  0
LINE
  5
7AC
330
22
100
AcDbEntity
  8
1
100
AcDbLine
 10
3.200000000000017
 20
-30.17499995100005
 30
0.0
 11
3.200000000000017
 21
-7.495841386000022
 31
0.0
  0
LINE
  5
7AE
330
22
100
AcDbEntity
  8
1
100
AcDbLine
 10
3.200000000000017
 20
7.495841385999965
 30
0.0
 11
3.200000000000017
 21
30.17464443250001
 31
0.0
  0
LWPOLYLINE
  5
7AF
330
22
100
AcDbEntity
  8
1
100
AcDbPolyline
 90
        3
 70
     0
 43
0.0
 10
3.399999999300006
 20
-2.597341736400039
 10
3.407273158799966
 20
-1.29867102380001
 10
3.40966706719999
 20
-0.1456138076000286
  0
LWPOLYLINE
  5
7B4
330
22
100
AcDbEntity
  8
1
100
AcDbPolyline
 90
        7
 70
     0
 43
0.0
 10
3.399999999300006
 20
-2.597341736400039
 10
3.388461029499977
 20
-3.242431269100051
 10
3.374509649599986
 20
-3.886282676000035
 10
3.358121387700008
 20
-4.528852647200011
 10
3.339369659300018
 20
-5.170271112000023
 10
3.318327879599991
 20
-5.810667999500026
 10
3.294971576899995
 20
-6.450000000000017
  0
LWPOLYLINE
  5
7BF
330
22
100
AcDbEntity
  8
1
100
AcDbPolyline
 90
        7
 70
     0
 43
0.0
 10
3.200000000000017
 20
-7.495841386000022
 10
3.222292069399998
 20
-7.343201569100044
 10
3.24210200859997
 20
-7.178723558500022
 10
3.259526588999988
 20
-7.005199530700052
 10
3.274275496499996
 20
-6.824519385100018
 10
3.286058416999964
 20
-6.638505095900001
 10
3.294972121999961
 20
-6.450000000000017
  0
LWPOLYLINE
  5
7C8
330
22
100
AcDbEntity
  8
SK3
100
AcDbPolyline
 90
        7
 70
     0
 43
0.0
 10
12.97499999999999
 20
22.84684461129996
 10
13.19207319419999
 20
23.32864707279998
 10
13.413800256
 20
23.81684219699997
 10
13.64016538399997
 20
24.31139568469996
 10
13.8712159822
 20
24.81241043339995
 10
14.1069994547
 20
25.31998934049997
 10
14.3475
 20
25.83409810689997
  0
LWPOLYLINE
  5
7D2
330
22
100
AcDbEntity
  8
SK3
100
AcDbPolyline
 90
        4
 70
     0
 43
0.0
 10
64.26065268829998
 20
-3.447978364000049
 10
64.49887892949999
 20
-3.404573736600069
 10
64.744240655
 20
-3.377400882400053
 10
65.0
 20
-3.367491648100041
  0
LINE
  5
7DE
330
22
100
AcDbEntity
  8
SK3
100
AcDbLine
 10
-25.40000000000001
 20
-6.920000000000014
 30
0.0
 11
-60.19999999999999
 21
-6.920000000000014
 31
0.0
  0
LINE
  5
7DF
330
22
100
AcDbEntity
  8
SK3
100
AcDbLine
 10
-36.19999999999999
 20
-8.0
 30
0.0
 11
-60.19999999999999
 21
-8.0
 31
0.0
  0
LINE
  5
7E0
330
22
100
AcDbEntity
  8
1
100
AcDbLine
 10
19.09999999999999
 20
-8.050000000000011
 30
0.0
 11
3.200000000000017
 21
-8.050000000000011
 31
0.0
  0
LINE
  5
7E1
330
22
100
AcDbEntity
  8
SK3
100
AcDbLine
 10
-60.19999999999999
 20
-8.5
 30
0.0
 11
-67.40000000000001
 21
-8.5
 31
0.0
  0
LINE
  5
7E2
330
22
100
AcDbEntity
  8
SK1
100
AcDbLine
 10
78.30139325919998
 20
-10.70000000000004
 30
0.0
 11
77.39999999999998
 21
-10.70000000000004
 31
0.0
  0
LINE
  5
7E3
330
22
100
AcDbEntity
  8
SK3
100
AcDbLine
 10
63.34999999999997
 20
-10.9
 30
0.0
 11
66.64999999999998
 21
-10.90000000000003
 31
0.0
  0
LINE
  5
7E4
330
22
100
AcDbEntity
  8
SK1
100
AcDbLine
 10
94.39999999999995
 20
-10.97000000000003
 30
0.0
 11
93.0
 21
-10.97000000000003
 31
0.0
  0
LINE
  5
7E5
330
22
100
AcDbEntity
  8
SK1
100
AcDbLine
 10
93.0
 20
-11.00000000000003
 30
0.0
 11
79.5
 21
-11.00000000000003
 31
0.0
  0
LINE
  5
7E6
330
22
100
AcDbEntity
  8
SK3
100
AcDbLine
 10
63.0
 20
-11.25
 30
0.0
 11
67.0
 21
-11.25000000000003
 31
0.0
  0
LINE
  5
7E7
330
22
100
AcDbEntity
  8
SK3
100
AcDbLine
 10
55.83426829179997
 20
-11.5
 30
0.0
 11
76.95198212299998
 21
-11.50000000000003
 31
0.0
  0
LINE
  5
7E8
330
22
100
AcDbEntity
  8
SK1
100
AcDbLine
 10
81.5
 20
-11.50000000000003
 30
0.0
 11
77.0
 21
-11.50000000000003
 31
0.0
  0
LINE
  5
7E9
330
22
100
AcDbEntity
  8
SK3
100
AcDbLine
 10
77.0
 20
-11.50000000000003
 30
0.0
 11
56.0001226568
 21
-11.5
 31
0.0
  0
LINE
  5
7EA
330
22
100
AcDbEntity
  8
SK3
100
AcDbLine
 10
55.5
 20
-12.0
 30
0.0
 11
77.0
 21
-12.00000000000003
 31
0.0
  0
LINE
  5
7EB
330
22
100
AcDbEntity
  8
SK1
100
AcDbLine
 10
81.5
 20
-12.00000000000003
 30
0.0
 11
77.0
 21
-12.00000000000003
 31
0.0
  0
LINE
  5
7ED
330
22
100
AcDbEntity
  8
1
100
AcDbLine
 10
0.3196152422999887
 20
-21.80829262150002
 30
0.0
 11
0.3196152422999887
 21
21.80829262149996
 31
0.0
  0
LINE
  5
7EF
330
22
100
AcDbEntity
  8
1
100
AcDbLine
 10
-0.7999999999999829
 20
-22.10829262150003
 30
0.0
 11
-0.7999999999999829
 21
22.10829262149997
 31
0.0
  0
LINE
  5
7F0
330
22
100
AcDbEntity
  8
1
100
AcDbLine
 10
12.97499999999999
 20
29.39776026659999
 30
0.0
 11
14.3475
 21
31.77499999999998
 31
0.0
  0
LINE
  5
7F1
330
22
100
AcDbEntity
  8
1
100
AcDbLine
 10
-0.7999999999999829
 20
-22.10829262150003
 30
0.0
 11
0.3196152422999887
 21
-21.80829262150002
 31
0.0
  0
LWPOLYLINE
  5
7F2
330
22
100
AcDbEntity
  8
SK3
100
AcDbPolyline
 90
        3
 70
     0
 43
0.0
 10
64.261101132
 20
-3.447832525100068
 10
64.03914925769999
 20
-3.501890082400052
 10
63.84049614470001
 20
-3.561685426200027
  0
LINE
  5
7F7
330
22
100
AcDbEntity
  8
SK3
100
AcDbLine
 10
69.0
 20
-14.90000000000003
 30
0.0
 11
61.0
 21
-14.9
 31
0.0
  0
LINE
  5
7F8
330
22
100
AcDbEntity
  8
1
100
AcDbLine
 10
12.97499999999999
 20
-29.39776026670003
 30
0.0
 11
14.3475
 21
-31.77500000000001
 31
0.0
  0
LINE
  5
7FC
330
22
100
AcDbEntity
  8
SK3
100
AcDbLine
 10
59.52061330940001
 20
-20.16724395400002
 30
0.0
 11
59.51941295099999
 21
-20.16735562160005
 31
0.0
  0
LINE
  5
7FD
330
22
100
AcDbEntity
  8
SK3
100
AcDbLine
 10
60.0072198286
 20
-20.12838402330002
 30
0.0
 11
60.00712805749998
 21
-20.12838933260002
 31
0.0
  0
LINE
  5
7FE
330
22
100
AcDbEntity
  8
1
100
AcDbLine
 10
60.5
 20
-20.09987495710004
 30
0.0
 11
76.42588262009997
 21
-19.39051782840005
 31
0.0
  0
LINE
  5
7FF
330
22
100
AcDbEntity
  8
1
100
AcDbLine
 10
55.5
 20
-20.92832469780004
 30
0.0
 11
20.0568622998
 21
-22.45868470210004
 31
0.0
  0
LINE
  5
800
330
22
100
AcDbEntity
  8
SK3
100
AcDbLine
 10
55.5
 20
-19.0
 30
0.0
 11
76.95666392940001
 21
-19.00000000000003
 31
0.0
  0
LINE
  5
801
330
22
100
AcDbEntity
  8
SK1
100
AcDbLine
 10
81.5
 20
-19.00000000000003
 30
0.0
 11
76.95666392940001
 21
-19.00000000000003
 31
0.0
  0
LINE
  5
802
330
22
100
AcDbEntity
  8
SK1
100
AcDbLine
 10
81.5
 20
-19.50000000000003
 30
0.0
 11
73.9701222029
 21
-19.50000000000003
 31
0.0
  0
LINE
  5
803
330
22
100
AcDbEntity
  8
SK3
100
AcDbLine
 10
73.9701222029
 20
-19.50000000000003
 30
0.0
 11
56.0001226568
 21
-19.5
 31
0.0
  0
LINE
  5
804
330
22
100
AcDbEntity
  8
1
100
AcDbLine
 10
0.3196152422999887
 20
-21.80829262150002
 30
0.0
 11
2.409731931299971
 21
-21.80829262150002
 31
0.0
  0
LINE
  5
805
330
22
100
AcDbEntity
  8
1
100
AcDbLine
 10
-0.7999999999999829
 20
-22.10829262150003
 30
0.0
 11
-67.37322744120001
 21
-12.39630905530004
 31
0.0
  0
LINE
  5
806
330
22
100
AcDbEntity
  8
SK3
100
AcDbLine
 10
56.35014362800001
 20
-20.70461254860001
 30
0.0
 11
56.3461642596
 21
-20.70558387230005
 31
0.0
  0
LWPOLYLINE
  5
807
330
22
100
AcDbEntity
  8
SK3
100
AcDbPolyline
 90
        4
 70
     0
 43
0.0
 10
57.32697815109998
 20
-20.48822264230003
 10
57.32442357909997
 20
-20.48873316910004
 10
56.9644160496
 20
-20.56337798010003
 10
56.63760375409998
 20
-20.63635286330003
  0
LWPOLYLINE
  5
80D
330
22
100
AcDbEntity
  8
1
100
AcDbPolyline
 90
        9
 70
     0
 43
0.0
 10
76.42588262009997
 20
-19.39051782840005
 10
76.53860094980001
 20
-19.37428077540005
 10
76.64344296280003
 20
-19.33779565510005
 10
76.7422822378
 20
-19.27983645350005
 10
76.82949803919997
 20
-19.20408121210008
 10
76.90054217049999
 20
-19.11306373480008
 10
76.95407059319999
 20
-19.00899072000004
 10
76.98686569
 20
-18.89529488030007
 10
77.0
 20
-18.77083197820008
  0
LWPOLYLINE
  5
818
330
22
100
AcDbEntity
  8
SK3
100
AcDbPolyline
 90
        5
 70
     0
 43
0.0
 10
59.04302406829998
 20
-20.21740750020001
 10
59.0414140748
 20
-20.21759398030003
 10
58.57825148289999
 20
-20.27664393980004
 10
58.13460373199998
 20
-20.34316365960004
 10
57.71505604459997
 20
-20.41461741070003
  0
LINE
  5
81F
330
22
100
AcDbEntity
  8
1
100
AcDbLine
 10
9.724999999999994
 20
-28.125
 30
0.0
 11
12.47499999999999
 21
-28.125
 31
0.0
  0
LINE
  5
820
330
22
100
AcDbEntity
  8
SK3
100
AcDbLine
 10
-21.40473613720002
 20
0.0
 30
0.0
 11
-25.40000000000001
 21
-6.920000000000014
 31
0.0
  0
LWPOLYLINE
  5
821
330
22
100
AcDbEntity
  8
1
100
AcDbPolyline
 90
       15
 70
     0
 43
0.0
 10
55.52237213719999
 20
-20.92216224930002
 10
55.71254457779996
 20
-20.86886493410006
 10
55.88329159579998
 20
-20.8234562229
 10
56.0963833929
 20
-20.76795081350002
 10
56.35014362800001
 20
-20.70461254860001
 10
56.64108315279998
 20
-20.63555411360002
 10
56.96720753019996
 20
-20.56277590650004
 10
57.32697815109998
 20
-20.48822264230003
 10
57.71751335989998
 20
-20.41417405480004
 10
58.13682444759999
 20
-20.34280750380003
 10
58.58018738909999
 20
-20.27637482540001
 10
59.04302406829998
 20
-20.21740750020001
 10
59.52061330940001
 20
-20.16724395400002
 10
60.00778084259996
 20
-20.12833922130003
 10
60.5
 20
-20.09987495710004
  0
LINE
  5
832
330
22
100
AcDbEntity
  8
1
100
AcDbLine
 10
55.5
 20
-20.92832469780004
 30
0.0
 11
55.52237213719999
 21
-20.92216224930002
 31
0.0
  0
LINE
  5
833
330
22
100
AcDbEntity
  8
SK3
100
AcDbLine
 10
55.71254457779996
 20
-20.86886493410006
 30
0.0
 11
55.71015623489998
 21
-20.86951951880002
 31
0.0
  0
LINE
  5
834
330
22
100
AcDbEntity
  8
SK3
100
AcDbLine
 10
55.88329159579998
 20
-20.8234562229
 30
0.0
 11
55.8797568594
 21
-20.82439344830004
 31
0.0
  0
LINE
  5
835
330
22
100
AcDbEntity
  8
SK3
100
AcDbLine
 10
56.0963833929
 20
-20.76795081350002
 30
0.0
 11
56.0923333687
 21
-20.76896584250002
 31
0.0
  0
LINE
  5
836
330
22
100
AcDbEntity
  8
1
100
AcDbLine
 10
17.5
 20
-31.77500000000001
 30
0.0
 11
14.3475
 21
-31.77500000000001
 31
0.0
  0
LINE
  5
837
330
22
100
AcDbEntity
  8
1
100
AcDbLine
 10
7.852499999999992
 20
-31.77500000000001
 30
0.0
 11
4.800000000000012
 21
-31.77500000000001
 31
0.0
  0
LINE
  5
838
330
22
100
AcDbEntity
  8
SK3
100
AcDbLine
 10
-21.40473613720002
 20
0.0
 30
0.0
 11
-25.40000000000001
 21
6.919999999999986
 31
0.0
  0
LINE
  5
839
330
22
100
AcDbEntity
  8
SK3
100
AcDbLine
 10
-25.40000000000001
 20
-6.920000000000014
 30
0.0
 11
-25.40000000000001
 21
6.919999999999986
 31
0.0
  0
LINE
  5
83A
330
22
100
AcDbEntity
  8
SK3
100
AcDbLine
 10
-36.20000076290001
 20
-8.0
 30
0.0
 11
-36.20000076290001
 21
8.0
 31
0.0
  0
LINE
  5
83B
330
22
100
AcDbEntity
  8
SK3
100
AcDbLine
 10
-60.19999999999999
 20
8.499323850699994
 30
0.0
 11
-60.19999999999999
 21
-8.499323850800037
 31
0.0
  0
LINE
  5
83C
330
22
100
AcDbEntity
  8
1
100
AcDbLine
 10
-68.4
 20
11.20887810839994
 30
0.0
 11
-68.4
 21
-11.2088781084
 31
0.0
  0
ARC
  5
840
330
22
100
AcDbEntity
  8
SK3
100
AcDbCircle
 10
55.79999999999998
 20
11.79999999999998
 30
0.0
 40
0.3
100
AcDbArc
 50
180.0
 51
270.0
  0
ARC
  5
841
330
22
100
AcDbEntity
  8
SK3
100
AcDbCircle
 10
55.79999999999998
 20
-11.80000000000001
 30
0.0
 40
0.3
100
AcDbArc
 50
90.0
 51
180.0
  0
ARC
  5
842
330
22
100
AcDbEntity
  8
SK3
100
AcDbCircle
 10
95.0
 20
-6.25
 30
0.0
 40
1.0
100
AcDbArc
 50
0.0000000628000052
 51
90.0
  0
ARC
  5
843
330
22
100
AcDbEntity
  8
SK3
100
AcDbCircle
 10
95.0
 20
6.25
 30
0.0
 40
1.0
100
AcDbArc
 50
270.0
 51
359.9999998621
  0
ARC
  5
844
330
22
100
AcDbEntity
  8
SK3
100
AcDbCircle
 10
-67.40000000000001
 20
9.500000000000026
 30
0.0
 40
1.0
100
AcDbArc
 50
180.0000000648
 51
270.0
  0
ARC
  5
845
330
22
100
AcDbEntity
  8
SK3
100
AcDbCircle
 10
-67.40000000000001
 20
-9.499999999999973
 30
0.0
 40
1.0
100
AcDbArc
 50
90.0
 51
179.9999999351999
  0
ARC
  5
846
330
22
100
AcDbEntity
  8
SK3
100
AcDbCircle
 10
77.40000000000001
 20
-11.30000000000001
 30
0.0
 40
0.6
100
AcDbArc
 50
132.1033933472001
 51
180.0
  0
ARC
  5
847
330
22
100
AcDbEntity
  8
SK3
100
AcDbCircle
 10
77.40000000000001
 20
11.29999999999998
 30
0.0
 40
0.6
100
AcDbArc
 50
180.0
 51
227.8966066528
  0
ARC
  5
84A
330
22
100
AcDbEntity
  8
1
100
AcDbCircle
 10
20.09999999999999
 20
-23.45775383830002
 30
0.0
 40
1.0
100
AcDbArc
 50
92.4723753561
 51
180.0
  0
ARC
  5
84B
330
22
100
AcDbEntity
  8
1
100
AcDbCircle
 10
20.09999999999999
 20
23.45775383819999
 30
0.0
 40
1.0
100
AcDbArc
 50
180.0
 51
267.5276246459
  0
ARC
  5
84C
330
22
100
AcDbEntity
  8
SK1
100
AcDbCircle
 10
77.40000000000001
 20
-11.30000000000001
 30
0.0
 40
0.6
100
AcDbArc
 50
90.0
 51
132.1033933472001
  0
ARC
  5
84D
330
22
100
AcDbEntity
  8
SK1
100
AcDbCircle
 10
77.40000000000001
 20
11.29999999999998
 30
0.0
 40
0.6
100
AcDbArc
 50
227.8966066528
 51
270.0
  0
ARC
  5
84E
330
22
100
AcDbEntity
  8
SK1
100
AcDbCircle
 10
94.40000000000001
 20
-9.370000000000002
 30
0.0
 40
1.6
100
AcDbArc
 50
270.0
 51
0.0
  0
ARC
  5
84F
330
22
100
AcDbEntity
  8
SK1
100
AcDbCircle
 10
94.40000000000001
 20
9.369999999999976
 30
0.0
 40
1.6
100
AcDbArc
 50
0.0
 51
90.0
  0
ARC
  5
850
330
22
100
AcDbEntity
  8
1
100
AcDbCircle
 10
9.724999999999994
 20
28.625
 30
0.0
 40
0.5
100
AcDbArc
 50
180.0
 51
270.0
  0
ARC
  5
851
330
22
100
AcDbEntity
  8
1
100
AcDbCircle
 10
9.724999999999994
 20
-28.625
 30
0.0
 40
0.5
100
AcDbArc
 50
90.0
 51
180.0
  0
ARC
  5
852
330
22
100
AcDbEntity
  8
1
100
AcDbCircle
 10
12.47499999999999
 20
28.625
 30
0.0
 40
0.5
100
AcDbArc
 50
270.0
 51
0.0
  0
ARC
  5
853
330
22
100
AcDbEntity
  8
1
100
AcDbCircle
 10
12.47499999999999
 20
-28.625
 30
0.0
 40
0.5
100
AcDbArc
 50
0.0
 51
90.0
  0
ARC
  5
854
330
22
100
AcDbEntity
  8
1
100
AcDbCircle
 10
2.409731931299971
 20
22.80829262149996
 30
0.0
 40
1.0
100
AcDbArc
 50
270.0
 51
322.4620664206
  0
ARC
  5
855
330
22
100
AcDbEntity
  8
1
100
AcDbCircle
 10
2.409731931299971
 20
-22.80829262150001
 30
0.0
 40
1.0
100
AcDbArc
 50
36.54549042620006
 51
90.0
  0
ARC
  5
856
330
22
100
AcDbEntity
  8
1
100
AcDbCircle
 10
-67.19999999999997
 20
-11.20887810839997
 30
0.0
 40
1.199999999999999
100
AcDbArc
 50
180.0
 51
261.7
  0
ARC
  5
857
330
22
100
AcDbEntity
  8
1
100
AcDbCircle
 10
-67.19999999999997
 20
11.20887810839997
 30
0.0
 40
1.199999999999999
100
AcDbArc
 50
98.30000000000001
 51
180.0
  0
ARC
  5
858
330
22
100
AcDbEntity
  8
1
100
AcDbCircle
 10
4.800000000000012
 20
-30.17500000000001
 30
0.0
 40
1.6
100
AcDbArc
 50
180.0
 51
270.0
  0
ARC
  5
859
330
22
100
AcDbEntity
  8
1
100
AcDbCircle
 10
4.800000000000012
 20
30.17499999999998
 30
0.0
 40
1.6
100
AcDbArc
 50
90.0
 51
180.0
  0
ARC
  5
85A
330
22
100
AcDbEntity
  8
1
100
AcDbCircle
 10
17.5
 20
-30.17500000000001
 30
0.0
 40
1.6
100
AcDbArc
 50
270.0
 51
0.0
  0
ARC
  5
85B
330
22
100
AcDbEntity
  8
1
100
AcDbCircle
 10
17.5
 20
30.17499999999998
 30
0.0
 40
1.6
100
AcDbArc
 50
0.0
 51
90.0
  0
INSERT
  5
AF8
330
22
100
AcDbEntity
  8
1
100
AcDbBlockReference
  2
nullpunkt_1
 10
0.0
 20
0.0
 30
0.0
  0
INSERT
  5
AF9
330
22
100
AcDbEntity
  8
1
100
AcDbBlockReference
  2
nullpunkt_2
 10
77.0
 20
0.0000000000723901
 30
0.0
  0
DIMENSION
  5
DDE
330
22
100
AcDbEntity
  8
2
100
AcDbDimension
  2
*D10
 10
0.0000000000000018
 20
61.67766622071946
 30
0.0
 11
38.5
 21
64.05266622071946
 31
0.0
 70
    32
 71
     5
 42
77.0
  3
ISO-25
100
AcDbAlignedDimension
 13
77.0
 23
18.77083197809995
 33
0.0
 14
0.0
 24
31.77499999999998
 34
0.0
100
AcDbRotatedDimension
  0
LINE
  5
EE2
330
22
100
AcDbEntity
  8
NOCUT
100
AcDbLine
 10
77.00000000000001
 20
19.42534769701797
 30
0.0
 11
77.0
 21
0.0
 31
0.0
  0
LINE
  5
EE3
330
22
100
AcDbEntity
  8
NOCUT
100
AcDbLine
 10
17.5
 20
31.77500000000001
 30
0.0
 11
14.3475
 21
31.77500000000001
 31
0.0
  0
LINE
  5
EE4
330
22
100
AcDbEntity
  8
NOCUT
100
AcDbLine
 10
7.852499999999992
 20
31.77500000000001
 30
0.0
 11
4.800000000000012
 21
31.77500000000001
 31
0.0
  0
LINE
  5
EE7
330
22
100
AcDbEntity
  8
NOCUT
100
AcDbLine
 10
9.724999999999994
 20
28.12500000000003
 30
0.0
 11
12.47499999999999
 21
28.12500000000003
 31
0.0
  0
LINE
  5
EE8
330
22
100
AcDbEntity
  8
NOCUT
100
AcDbLine
 10
76.4258826201073
 20
20.0247891787127
 30
0.0
 11
20.05686229982012
 21
22.45868470204215
 31
0.0
  0
LINE
  5
EEA
330
22
100
AcDbEntity
  8
NOCUT
100
AcDbLine
 10
0.3196152422999887
 20
21.80829262149999
 30
0.0
 11
2.409731931299971
 21
21.80829262149999
 31
0.0
  0
LINE
  5
EEC
330
22
100
AcDbEntity
  8
NOCUT
100
AcDbLine
 10
0.0
 20
21.89393326756073
 30
0.0
 11
0.3196152422999887
 21
21.80829262149999
 31
0.0
  0
LINE
  5
EEE
330
22
100
AcDbEntity
  8
NOCUT
100
AcDbLine
 10
19.09999999999999
 20
30.17500000000001
 30
0.0
 11
19.09999999999999
 21
23.45775383820001
 31
0.0
  0
LINE
  5
EF2
330
22
100
AcDbEntity
  8
NOCUT
100
AcDbLine
 10
7.852499999999992
 20
31.77500000000001
 30
0.0
 11
9.224999999999994
 21
29.39776026660002
 31
0.0
  0
LINE
  5
EF6
330
22
100
AcDbEntity
  8
NOCUT
100
AcDbLine
 10
12.97499999999999
 20
28.62500000000003
 30
0.0
 11
12.97499999999999
 21
29.39776026660002
 31
0.0
  0
LINE
  5
EF7
330
22
100
AcDbEntity
  8
NOCUT
100
AcDbLine
 10
9.224999999999962
 20
29.39776026660008
 30
0.0
 11
9.224999999999994
 21
28.62500000000003
 31
0.0
  0
LINE
  5
F07
330
22
100
AcDbEntity
  8
NOCUT
100
AcDbLine
 10
12.97499999999999
 20
29.39776026660002
 30
0.0
 11
14.3475
 21
31.77500000000001
 31
0.0
  0
ARC
  5
F16
330
22
100
AcDbEntity
  8
NOCUT
100
AcDbCircle
 10
20.09999999999999
 20
23.45775383820001
 30
0.0
 40
1.0
100
AcDbArc
 50
180.0
 51
267.5276246459002
  0
ARC
  5
F17
330
22
100
AcDbEntity
  8
NOCUT
100
AcDbCircle
 10
9.724999999999994
 20
28.62500000000003
 30
0.0
 40
0.5
100
AcDbArc
 50
180.0
 51
270.0
  0
ARC
  5
F19
330
22
100
AcDbEntity
  8
NOCUT
100
AcDbCircle
 10
12.47499999999999
 20
28.62500000000003
 30
0.0
 40
0.5
100
AcDbArc
 50
270.0
 51
0.0
  0
ARC
  5
F1B
330
22
100
AcDbEntity
  8
NOCUT
100
AcDbCircle
 10
2.409731931299971
 20
22.80829262149999
 30
0.0
 40
1.0
100
AcDbArc
 50
270.0
 51
322.21056998874
  0
ARC
  5
F20
330
22
100
AcDbEntity
  8
NOCUT
100
AcDbCircle
 10
4.800000000000012
 20
30.17500000000001
 30
0.0
 40
1.6
100
AcDbArc
 50
90.0
 51
180.0
  0
ARC
  5
F22
330
22
100
AcDbEntity
  8
NOCUT
100
AcDbCircle
 10
17.5
 20
30.17500000000001
 30
0.0
 40
1.6
100
AcDbArc
 50
0.0
 51
90.0
  0
LINE
  5
FE2
330
22
100
AcDbEntity
  8
NOCUT
100
AcDbLine
 10
0.0
 20
0.0
 30
0.0
 11
0.0
 21
21.89393326756073
 31
0.0
  0
LINE
  5
FF3
330
22
100
AcDbEntity
  8
NOCUT
100
AcDbLine
 10
3.200000000000017
 20
22.19553134694593
 30
0.0
 11
3.200000000000017
 21
30.17500000000001
 31
0.0
  0
LINE
  5
FF4
330
22
100
AcDbEntity
  8
NOCUT
100
AcDbLine
 10
0.0
 20
0.0
 30
0.0
 11
77.0
 21
0.0
 31
0.0
  0
ARC
  5
FF6
330
22
100
AcDbEntity
  8
NOCUT
100
AcDbCircle
 10
76.40000000000005
 20
19.42534769701797
 30
0.0
 40
0.6
100
AcDbArc
 50
0.0
 51
87.52762464596328
  0
ENDSEC
  0
SECTION
  2
OBJECTS
  0
DICTIONARY
  5
C
330
0
100
AcDbDictionary
281
     1
  3
ACAD_COLOR
350
1B
  3
ACAD_GROUP
350
D
  3
ACAD_LAYOUT
350
19
  3
ACAD_MATERIAL
350
1A
  3
ACAD_MLINESTYLE
350
16
  3
ACAD_PLOTSETTINGS
350
18
  3
ACAD_PLOTSTYLENAME
350
E
  3
ACAD_TABLESTYLE
350
1C
  3
ACDBHEADERROUNDTRIPXREC
350
1055
  3
AcDbVariableDictionary
350
E07
  0
DICTIONARY
  5
FE8
330
22
100
AcDbDictionary
280
     1
281
     1
  3
ACAD_SORTENTS
360
FE9
  0
DICTIONARY
  5
1B
102
{ACAD_REACTORS
330
C
102
}
330
C
100
AcDbDictionary
281
     1
  0
DICTIONARY
  5
D
102
{ACAD_REACTORS
330
C
102
}
330
C
100
AcDbDictionary
281
     1
  0
DICTIONARY
  5
19
102
{ACAD_REACTORS
330
C
102
}
330
C
100
AcDbDictionary
281
     1
  3
Layout1
350
21
  3
Model
350
25
  0
DICTIONARY
  5
1A
102
{ACAD_REACTORS
330
C
102
}
330
C
100
AcDbDictionary
281
     1
  0
DICTIONARY
  5
16
102
{ACAD_REACTORS
330
C
102
}
330
C
100
AcDbDictionary
281
     1
  3
Standard
350
17
  0
DICTIONARY
  5
18
102
{ACAD_REACTORS
330
C
102
}
330
C
100
AcDbDictionary
281
     1
  0
ACDBDICTIONARYWDFLT
  5
E
102
{ACAD_REACTORS
330
C
102
}
330
C
100
AcDbDictionary
281
     1
  3
Normal
350
F
100
AcDbDictionaryWithDefault
340
F
  0
DICTIONARY
  5
1C
102
{ACAD_REACTORS
330
C
102
}
330
C
100
AcDbDictionary
281
     1
  3
Standard
350
1D
  0
DICTIONARY
  5
1055
102
{ACAD_REACTORS
330
C
102
}
330
C
100
AcDbDictionary
281
     1
  0
DICTIONARY
  5
E07
102
{ACAD_REACTORS
330
C
102
}
330
C
100
AcDbDictionary
281
     1
  3
CTABLESTYLE
350
E08
  3
DIMASSOC
350
1049
  3
PROJECTNAME
350
104A
  0
SORTENTSTABLE
  5
FE9
102
{ACAD_REACTORS
330
FE8
102
}
330
FE8
100
AcDbSortentsTable
330
22
331
84D
  5
84D
331
855
  5
855
331
691
  5
691
331
804
  5
804
331
699
  5
699
331
662
  5
662
331
72F
  5
72F
331
66A
  5
66A
331
6A1
  5
6A1
331
786
  5
786
331
623
  5
623
331
700
  5
700
331
672
  5
672
331
73F
  5
73F
331
78E
  5
78E
331
AF9
  5
AF9
331
5FE
  5
5FE
331
6B1
  5
6B1
331
7E5
  5
7E5
331
710
  5
710
331
74F
  5
74F
331
834
  5
834
331
83C
  5
83C
331
68A
  5
68A
331
6D1
  5
6D1
331
7AE
  5
7AE
331
7ED
  5
7ED
331
767
  5
767
331
844
  5
844
331
6D9
  5
6D9
331
653
  5
653
331
7FD
  5
7FD
331
76F
  5
76F
331
859
  5
859
331
DDE
  5
DDE
331
84E
  5
84E
331
856
  5
856
331
692
  5
692
331
60C
  5
60C
331
6E9
  5
6E9
331
6F1
  5
6F1
331
663
  5
663
331
730
  5
730
331
805
  5
805
331
787
  5
787
331
6A2
  5
6A2
331
6F9
  5
6F9
331
624
  5
624
331
66B
  5
66B
331
80D
  5
80D
331
701
  5
701
331
673
  5
673
331
740
  5
740
331
797
  5
797
331
7DE
  5
7DE
331
5FF
  5
5FF
331
6B2
  5
6B2
331
634
  5
634
331
709
  5
709
331
7E6
  5
7E6
331
711
  5
711
331
683
  5
683
331
758
  5
758
331
835
  5
835
331
7AF
  5
7AF
331
68B
  5
68B
331
6D2
  5
6D2
331
6DA
  5
6DA
331
654
  5
654
331
768
  5
768
331
845
  5
845
331
7FE
  5
7FE
331
85A
  5
85A
331
607
  5
607
331
84F
  5
84F
331
857
  5
857
331
770
  5
770
331
60D
  5
60D
331
6EA
  5
6EA
331
806
  5
806
331
780
  5
780
331
6F2
  5
6F2
331
7BF
  5
7BF
331
664
  5
664
331
788
  5
788
331
66C
  5
66C
331
625
  5
625
331
6FA
  5
6FA
331
702
  5
702
331
674
  5
674
331
7DF
  5
7DF
331
7A0
  5
7A0
331
6B3
  5
6B3
331
635
  5
635
331
70A
  5
70A
331
836
  5
836
331
7E7
  5
7E7
331
63D
  5
63D
331
684
  5
684
331
759
  5
759
331
6D3
  5
6D3
331
64D
  5
64D
331
722
  5
722
331
7EF
  5
7EF
331
7F7
  5
7F7
331
769
  5
769
331
846
  5
846
331
655
  5
655
331
6DB
  5
6DB
331
7FF
  5
7FF
331
85B
  5
85B
331
850
  5
850
331
771
  5
771
331
60E
  5
60E
331
6EB
  5
6EB
331
7C8
  5
7C8
331
6F3
  5
6F3
331
665
  5
665
331
732
  5
732
331
807
  5
807
331
789
  5
789
331
626
  5
626
331
6FB
  5
6FB
331
81F
  5
81F
331
5F9
  5
5F9
331
636
  5
636
331
7E0
  5
7E0
331
7E8
  5
7E8
331
837
  5
837
331
713
  5
713
331
63E
  5
63E
331
685
  5
685
331
75A
  5
75A
331
7A9
  5
7A9
331
6D4
  5
6D4
331
7F0
  5
7F0
331
64E
  5
64E
331
68D
  5
68D
331
847
  5
847
331
7F8
  5
7F8
331
76A
  5
76A
331
601
  5
601
331
851
  5
851
331
772
  5
772
331
6EC
  5
6EC
331
65E
  5
65E
331
800
  5
800
331
733
  5
733
331
666
  5
666
331
6F4
  5
6F4
331
818
  5
818
331
73B
  5
73B
331
78A
  5
78A
331
627
  5
627
331
6FC
  5
6FC
331
62F
  5
62F
331
820
  5
820
331
5FA
  5
5FA
331
637
  5
637
331
7E1
  5
7E1
331
838
  5
838
331
6CD
  5
6CD
331
714
  5
714
331
7E9
  5
7E9
331
63F
  5
63F
331
686
  5
686
331
840
  5
840
331
68E
  5
68E
331
6D5
  5
6D5
331
64F
  5
64F
331
7F1
  5
7F1
331
84A
  5
84A
331
852
  5
852
331
801
  5
801
331
6ED
  5
6ED
331
65F
  5
65F
331
773
  5
773
331
618
  5
618
331
667
  5
667
331
69E
  5
69E
331
7D2
  5
7D2
331
628
  5
628
331
6FD
  5
6FD
331
73C
  5
73C
331
821
  5
821
331
5FB
  5
5FB
331
7E2
  5
7E2
331
67F
  5
67F
331
74C
  5
74C
331
638
  5
638
331
7EA
  5
7EA
331
839
  5
839
331
715
  5
715
331
6CE
  5
6CE
331
7AB
  5
7AB
331
7F2
  5
7F2
331
6D6
  5
6D6
331
650
  5
650
331
68F
  5
68F
331
764
  5
764
331
841
  5
841
331
603
  5
603
331
84B
  5
84B
331
853
  5
853
331
609
  5
609
331
6EE
  5
6EE
331
72D
  5
72D
331
802
  5
802
331
668
  5
668
331
69F
  5
69F
331
784
  5
784
331
6FE
  5
6FE
331
670
  5
670
331
73D
  5
73D
331
745
  5
745
331
6AF
  5
6AF
331
7E3
  5
7E3
331
639
  5
639
331
74D
  5
74D
331
832
  5
832
331
83A
  5
83A
331
6CF
  5
6CF
331
7AC
  5
7AC
331
7EB
  5
7EB
331
842
  5
842
331
765
  5
765
331
6D7
  5
6D7
331
7B4
  5
7B4
331
651
  5
651
331
76D
  5
76D
331
604
  5
604
331
84C
  5
84C
331
854
  5
854
331
60A
  5
60A
331
6EF
  5
6EF
331
661
  5
661
331
803
  5
803
331
785
  5
785
331
669
  5
669
331
6A0
  5
6A0
331
6FF
  5
6FF
331
62A
  5
62A
331
671
  5
671
331
73E
  5
73E
331
746
  5
746
331
795
  5
795
331
AF8
  5
AF8
331
6B0
  5
6B0
331
632
  5
632
331
7E4
  5
7E4
331
74E
  5
74E
331
833
  5
833
331
75E
  5
75E
331
83B
  5
83B
331
64A
  5
64A
331
6D0
  5
6D0
331
6D8
  5
6D8
331
652
  5
652
331
766
  5
766
331
843
  5
843
331
76E
  5
76E
331
7FC
  5
7FC
331
858
  5
858
331
605
  5
605
  0
LAYOUT
  5
21
102
{ACAD_XDICTIONARY
360
1056
102
}
102
{ACAD_REACTORS
330
19
102
}
330
19
100
AcDbPlotSettings
  1

  2
\\ingdom02\ITB3
  4

  6

 40
0.0
 41
0.0
 42
0.0
 43
0.0
 44
0.0
 45
0.0
 46
0.0
 47
0.0
 48
0.0
 49
0.0
140
0.0
141
0.0
142
1.0
143
1.0
 70
   688
 72
     0
 73
     0
 74
     5
  7

 75
    16
147
1.0
148
0.0
149
0.0
100
AcDbLayout
  1
Layout1
 70
     1
 71
     1
 10
0.0
 20
0.0
 11
12.0
 21
9.0
 12
0.0
 22
0.0
 32
0.0
 14
100.0
 24
100.0
 34
100.0
 15
-100.0
 25
-100.0
 35
-100.0
146
0.0
 13
0.0
 23
0.0
 33
0.0
 16
1.0
 26
0.0
 36
0.0
 17
0.0
 27
1.0
 37
0.0
 76
     0
330
1E
  0
LAYOUT
  5
25
102
{ACAD_XDICTIONARY
360
1058
102
}
102
{ACAD_REACTORS
330
19
102
}
330
19
100
AcDbPlotSettings
  1

  2
\\ingdom02\ITB3
  4

  6

 40
0.0
 41
0.0
 42
0.0
 43
0.0
 44
0.0
 45
0.0
 46
0.0
 47
0.0
 48
0.0
 49
0.0
140
0.0
141
0.0
142
1.0
143
1.0
 70
  1712
 72
     0
 73
     0
 74
     0
  7

 75
     0
147
1.0
148
0.0
149
0.0
100
AcDbLayout
  1
Model
 70
     1
 71
     0
 10
0.0
 20
0.0
 11
12.0
 21
9.0
 12
0.0
 22
0.0
 32
0.0
 14
0.0
 24
0.0
 34
0.0
 15
0.0
 25
0.0
 35
0.0
146
0.0
 13
0.0
 23
0.0
 33
0.0
 16
1.0
 26
0.0
 36
0.0
 17
0.0
 27
1.0
 37
0.0
 76
     0
330
22
  0
MLINESTYLE
  5
17
102
{ACAD_REACTORS
330
16
102
}
330
16
100
AcDbMlineStyle
  2
STANDARD
 70
     0
  3

 62
   256
 51
90.0
 52
90.0
 71
     2
 49
0.5
 62
   256
  6
BYLAYER
 49
-0.5
 62
   256
  6
BYLAYER
  0
ACDBPLACEHOLDER
  5
F
102
{ACAD_REACTORS
330
E
102
}
330
E
  0
TABLESTYLE
  5
1D
102
{ACAD_REACTORS
330
1C
102
}
330
1C
100
AcDbTableStyle
  3
Standard
 70
     0
 71
     0
 40
0.06
 41
0.06
280
     0
281
     0
  7
STANDARD
140
0.18
170
     2
 62
     0
 63
     7
283
     0
274
    -2
284
     1
 64
     0
275
    -2
285
     1
 65
     0
276
    -2
286
     1
 66
     0
277
    -2
287
     1
 67
     0
278
    -2
288
     1
 68
     0
279
    -2
289
     1
 69
     0
  7
STANDARD
140
0.25
170
     5
 62
     0
 63
     7
283
     0
274
    -2
284
     1
 64
     0
275
    -2
285
     1
 65
     0
276
    -2
286
     1
 66
     0
277
    -2
287
     1
 67
     0
278
    -2
288
     1
 68
     0
279
    -2
289
     1
 69
     0
  7
STANDARD
140
0.18
170
     5
 62
     0
 63
     7
283
     0
274
    -2
284
     1
 64
     0
275
    -2
285
     1
 65
     0
276
    -2
286
     1
 66
     0
277
    -2
287
     1
 67
     0
278
    -2
288
     1
 68
     0
279
    -2
289
     1
 69
     0
  0
DICTIONARYVAR
  5
E08
102
{ACAD_REACTORS
330
E07
102
}
330
E07
100
DictionaryVariables
280
     0
  1
STANDARD
  0
DICTIONARYVAR
  5
1049
102
{ACAD_REACTORS
330
E07
102
}
330
E07
100
DictionaryVariables
280
     0
  1
1
  0
DICTIONARYVAR
  5
104A
102
{ACAD_REACTORS
330
E07
102
}
330
E07
100
DictionaryVariables
280
     0
  1

  0
DICTIONARY
  5
1056
330
21
100
AcDbDictionary
280
     1
281
     1
  3
ACAD_XREC_ROUNDTRIP
360
1057
  0
DICTIONARY
  5
1058
330
25
100
AcDbDictionary
280
     1
281
     1
  3
ACAD_XREC_ROUNDTRIP
360
1059
  0
XRECORD
  5
1057
102
{ACAD_REACTORS
330
1056
102
}
330
1056
100
AcDbXrecord
280
     1
102
SHADEPLOT
 70
     0
102
SHADEPLOTRESLEVEL
 70
     2
102
SHADEPLOTCUSTOMDPI
 70
   300
  0
XRECORD
  5
1059
102
{ACAD_REACTORS
330
1058
102
}
330
1058
100
AcDbXrecord
280
     1
102
SHADEPLOT
 70
     0
102
SHADEPLOTRESLEVEL
 70
     2
102
SHADEPLOTCUSTOMDPI
 70
   300
  0
ENDSEC
  0
EOF
