  0
SECTION
  2
HEADER
  9
$ACADVER
  1
AC1015
  9
$ACADMAINTVER
 70
    20
  9
$DWGCODEPAGE
  3
ANSI_1252
  9
$INSBASE
 10
0.0
 20
0.0
 30
0.0
  9
$EXTMIN
 10
-89.22180088379162
 20
-42.58589108170236
 30
-0.0000000349181948
  9
$EXTMAX
 10
96.59820616780576
 20
58.5652317371746
 30
0.0000000814935747
  9
$LIMMIN
 10
0.0
 20
0.0
  9
$LIMMAX
 10
420.0
 20
297.0
  9
$ORTHOMODE
 70
     0
  9
$REGENMODE
 70
     1
  9
$FILLMODE
 70
     1
  9
$QTEXTMODE
 70
     0
  9
$MIRRTEXT
 70
     0
  9
$LTSCALE
 40
10.0
  9
$ATTMODE
 70
     1
  9
$TEXTSIZE
 40
0.2
  9
$TRACEWID
 40
0.05
  9
$TEXTSTYLE
  7
STANDARD
  9
$CLAYER
  8
0
  9
$CELTYPE
  6
ByLayer
  9
$CECOLOR
 62
   256
  9
$CELTSCALE
 40
1.0
  9
$DISPSILH
 70
     0
  9
$DIMSCALE
 40
1.0
  9
$DIMASZ
 40
3.5
  9
$DIMEXO
 40
0.625
  9
$DIMDLI
 40
3.75
  9
$DIMRND
 40
0.0
  9
$DIMDLE
 40
0.0
  9
$DIMEXE
 40
2.0
  9
$DIMTP
 40
0.0
  9
$DIMTM
 40
0.0
  9
$DIMTXT
 40
3.5
  9
$DIMCEN
 40
2.5
  9
$DIMTSZ
 40
0.0
  9
$DIMTOL
 70
     0
  9
$DIMLIM
 70
     0
  9
$DIMTIH
 70
     0
  9
$DIMTOH
 70
     0
  9
$DIMSE1
 70
     0
  9
$DIMSE2
 70
     0
  9
$DIMTAD
 70
     1
  9
$DIMZIN
 70
     8
  9
$DIMBLK
  1

  9
$DIMASO
 70
     1
  9
$DIMSHO
 70
     1
  9
$DIMPOST
  1

  9
$DIMAPOST
  1

  9
$DIMALT
 70
     0
  9
$DIMALTD
 70
     3
  9
$DIMALTF
 40
0.03937007874016
  9
$DIMLFAC
 40
1.0
  9
$DIMTOFL
 70
     1
  9
$DIMTVP
 40
0.0
  9
$DIMTIX
 70
     0
  9
$DIMSOXD
 70
     0
  9
$DIMSAH
 70
     0
  9
$DIMBLK1
  1

  9
$DIMBLK2
  1

  9
$DIMSTYLE
  2
ISO-25
  9
$DIMCLRD
 70
   256
  9
$DIMCLRE
 70
   256
  9
$DIMCLRT
 70
   256
  9
$DIMTFAC
 40
1.0
  9
$DIMGAP
 40
0.625
  9
$DIMJUST
 70
     0
  9
$DIMSD1
 70
     0
  9
$DIMSD2
 70
     0
  9
$DIMTOLJ
 70
     0
  9
$DIMTZIN
 70
     8
  9
$DIMALTZ
 70
     0
  9
$DIMALTTZ
 70
     0
  9
$DIMUPT
 70
     0
  9
$DIMDEC
 70
     2
  9
$DIMTDEC
 70
     2
  9
$DIMALTU
 70
     2
  9
$DIMALTTD
 70
     3
  9
$DIMTXSTY
  7
STANDARD
  9
$DIMAUNIT
 70
     0
  9
$DIMADEC
 70
     0
  9
$DIMALTRND
 40
0.0
  9
$DIMAZIN
 70
     0
  9
$DIMDSEP
 70
    46
  9
$DIMATFIT
 70
     3
  9
$DIMFRAC
 70
     0
  9
$DIMLDRBLK
  1

  9
$DIMLUNIT
 70
     2
  9
$DIMLWD
 70
    -2
  9
$DIMLWE
 70
    -2
  9
$DIMTMOVE
 70
     0
  9
$LUNITS
 70
     2
  9
$LUPREC
 70
     4
  9
$SKETCHINC
 40
0.1
  9
$FILLETRAD
 40
0.6
  9
$AUNITS
 70
     0
  9
$AUPREC
 70
     0
  9
$MENU
  1

  9
$ELEVATION
 40
0.0
  9
$PELEVATION
 40
0.0
  9
$THICKNESS
 40
0.0
  9
$LIMCHECK
 70
     0
  9
$CHAMFERA
 40
0.0
  9
$CHAMFERB
 40
0.0
  9
$CHAMFERC
 40
0.0
  9
$CHAMFERD
 40
0.0
  9
$SKPOLY
 70
     0
  9
$TDCREATE
 40
2453812.468308137
  9
$TDUCREATE
 40
2453812.426641470
  9
$TDUPDATE
 40
2453812.612920475
  9
$TDUUPDATE
 40
2453812.571253808
  9
$TDINDWG
 40
0.1407954630
  9
$TDUSRTIMER
 40
0.1369298727
  9
$USRTIMER
 70
     1
  9
$ANGBASE
 50
0.0
  9
$ANGDIR
 70
     0
  9
$PDMODE
 70
     0
  9
$PDSIZE
 40
0.3125
  9
$PLINEWID
 40
0.0
  9
$SPLFRAME
 70
     0
  9
$SPLINETYPE
 70
     6
  9
$SPLINESEGS
 70
     8
  9
$HANDSEED
  5
F28
  9
$SURFTAB1
 70
     6
  9
$SURFTAB2
 70
     6
  9
$SURFTYPE
 70
     6
  9
$SURFU
 70
     6
  9
$SURFV
 70
     6
  9
$UCSBASE
  2

  9
$UCSNAME
  2

  9
$UCSORG
 10
0.0
 20
0.0
 30
0.0
  9
$UCSXDIR
 10
1.0
 20
0.0
 30
0.0
  9
$UCSYDIR
 10
0.0
 20
1.0
 30
0.0
  9
$UCSORTHOREF
  2

  9
$UCSORTHOVIEW
 70
     0
  9
$UCSORGTOP
 10
0.0
 20
0.0
 30
0.0
  9
$UCSORGBOTTOM
 10
0.0
 20
0.0
 30
0.0
  9
$UCSORGLEFT
 10
0.0
 20
0.0
 30
0.0
  9
$UCSORGRIGHT
 10
0.0
 20
0.0
 30
0.0
  9
$UCSORGFRONT
 10
0.0
 20
0.0
 30
0.0
  9
$UCSORGBACK
 10
0.0
 20
0.0
 30
0.0
  9
$PUCSBASE
  2

  9
$PUCSNAME
  2

  9
$PUCSORG
 10
0.0
 20
0.0
 30
0.0
  9
$PUCSXDIR
 10
1.0
 20
0.0
 30
0.0
  9
$PUCSYDIR
 10
0.0
 20
1.0
 30
0.0
  9
$PUCSORTHOREF
  2

  9
$PUCSORTHOVIEW
 70
     0
  9
$PUCSORGTOP
 10
0.0
 20
0.0
 30
0.0
  9
$PUCSORGBOTTOM
 10
0.0
 20
0.0
 30
0.0
  9
$PUCSORGLEFT
 10
0.0
 20
0.0
 30
0.0
  9
$PUCSORGRIGHT
 10
0.0
 20
0.0
 30
0.0
  9
$PUCSORGFRONT
 10
0.0
 20
0.0
 30
0.0
  9
$PUCSORGBACK
 10
0.0
 20
0.0
 30
0.0
  9
$USERI1
 70
     0
  9
$USERI2
 70
     0
  9
$USERI3
 70
     0
  9
$USERI4
 70
     0
  9
$USERI5
 70
     0
  9
$USERR1
 40
0.0
  9
$USERR2
 40
0.0
  9
$USERR3
 40
0.0
  9
$USERR4
 40
0.0
  9
$USERR5
 40
0.0
  9
$WORLDVIEW
 70
     1
  9
$SHADEDGE
 70
     3
  9
$SHADEDIF
 70
    70
  9
$TILEMODE
 70
     1
  9
$MAXACTVP
 70
    64
  9
$PINSBASE
 10
0.0
 20
0.0
 30
0.0
  9
$PLIMCHECK
 70
     0
  9
$PEXTMIN
 10
100.0
 20
100.0
 30
100.0
  9
$PEXTMAX
 10
-100.0
 20
-100.0
 30
-100.0
  9
$PLIMMIN
 10
0.0
 20
0.0
  9
$PLIMMAX
 10
12.0
 20
9.0
  9
$UNITMODE
 70
     0
  9
$VISRETAIN
 70
     1
  9
$PLINEGEN
 70
     1
  9
$PSLTSCALE
 70
     1
  9
$TREEDEPTH
 70
  3020
  9
$CMLSTYLE
  2
Standard
  9
$CMLJUST
 70
     0
  9
$CMLSCALE
 40
1.0
  9
$PROXYGRAPHICS
 70
     1
  9
$MEASUREMENT
 70
     0
  9
$CELWEIGHT
370
    -1
  9
$ENDCAPS
280
     0
  9
$JOINSTYLE
280
     0
  9
$LWDISPLAY
290
     0
  9
$INSUNITS
 70
     0
  9
$HYPERLINKBASE
  1

  9
$STYLESHEET
  1

  9
$XEDIT
290
     1
  9
$CEPSNTYPE
380
     0
  9
$PSTYLEMODE
290
     1
  9
$FINGERPRINTGUID
  2
{CFA14FDB-143D-4CD7-A677-DEE826481749}
  9
$VERSIONGUID
  2
{EFBBE54F-1EFD-40F1-A535-506200DB8433}
  9
$EXTNAMES
290
     1
  9
$PSVPSCALE
 40
0.0
  9
$OLESTARTUP
290
     0
  0
ENDSEC
  0
SECTION
  2
CLASSES
  0
CLASS
  1
ACDBDICTIONARYWDFLT
  2
AcDbDictionaryWithDefault
  3
ObjectDBX Classes
 90
        0
280
     0
281
     0
  0
CLASS
  1
TABLESTYLE
  2
AcDbTableStyle
  3
ObjectDBX Classes
 90
     2047
280
     0
281
     0
  0
CLASS
  1
SORTENTSTABLE
  2
AcDbSortentsTable
  3
ObjectDBX Classes
 90
        0
280
     0
281
     0
  0
CLASS
  1
DICTIONARYVAR
  2
AcDbDictionaryVar
  3
ObjectDBX Classes
 90
        0
280
     0
281
     0
  0
CLASS
  1
ACDBPLACEHOLDER
  2
AcDbPlaceHolder
  3
ObjectDBX Classes
 90
        0
280
     0
281
     0
  0
CLASS
  1
LAYOUT
  2
AcDbLayout
  3
ObjectDBX Classes
 90
        0
280
     0
281
     0
  0
ENDSEC
  0
SECTION
  2
TABLES
  0
TABLE
  2
VPORT
  5
8
330
0
100
AcDbSymbolTable
 70
     2
  0
VPORT
  5
F22
330
8
100
AcDbSymbolTableRecord
100
AcDbViewportTableRecord
  2
*Active
 70
     0
 10
0.0
 20
0.0
 11
1.0
 21
1.0
 12
3.68820264200707
 22
7.989670327736121
 13
0.0
 23
0.0
 14
1.0
 24
1.0
 15
0.0
 25
0.0
 16
0.0
 26
0.0
 36
1.0
 17
0.0
 27
0.0
 37
0.0
 40
122.637403457262
 41
1.522727272727272
 42
50.0
 43
0.0
 44
0.0
 50
0.0
 51
0.0
 71
     0
 72
  2000
 73
     1
 74
     1
 75
     0
 76
     0
 77
     0
 78
     0
281
     0
 65
     1
110
0.0
120
0.0
130
0.0
111
1.0
121
0.0
131
0.0
112
0.0
122
1.0
132
0.0
 79
     0
146
0.0
  0
ENDTAB
  0
TABLE
  2
LTYPE
  5
5
330
0
100
AcDbSymbolTable
 70
     3
  0
LTYPE
  5
13
330
5
100
AcDbSymbolTableRecord
100
AcDbLinetypeTableRecord
  2
ByBlock
 70
     0
  3

 72
    65
 73
     0
 40
0.0
  0
LTYPE
  5
14
330
5
100
AcDbSymbolTableRecord
100
AcDbLinetypeTableRecord
  2
ByLayer
 70
     0
  3

 72
    65
 73
     0
 40
0.0
  0
LTYPE
  5
15
330
5
100
AcDbSymbolTableRecord
100
AcDbLinetypeTableRecord
  2
CONTINUOUS
 70
     0
  3
Solid line
 72
    65
 73
     0
 40
0.0
  0
LTYPE
  5
27
330
5
100
AcDbSymbolTableRecord
100
AcDbLinetypeTableRecord
  2
CENTER
 70
     0
  3
____ _ ____ _ ____ _ ____ _ ____ _ ____ _ ____
 72
    65
 73
     4
 40
0.6
 49
0.375
 74
     0
 49
-0.075
 74
     0
 49
0.075
 74
     0
 49
-0.075
 74
     0
  0
LTYPE
  5
28
330
5
100
AcDbSymbolTableRecord
100
AcDbLinetypeTableRecord
  2
HIDDEN
 70
     0
  3
- - - - - - - - - - - - - - - - - - - -
 72
    65
 73
     2
 40
0.2
 49
0.1
 74
     0
 49
-0.1
 74
     0
  0
ENDTAB
  0
TABLE
  2
LAYER
  5
2
330
0
100
AcDbSymbolTable
 70
    11
  0
LAYER
  5
10
330
2
100
AcDbSymbolTableRecord
100
AcDbLayerTableRecord
  2
0
 70
     0
 62
     7
  6
CONTINUOUS
370
    -3
390
F
  0
LAYER
  5
2C
330
2
100
AcDbSymbolTableRecord
100
AcDbLayerTableRecord
  2
SK1
 70
     0
 62
     4
  6
CONTINUOUS
370
    -3
390
F
  0
LAYER
  5
2D
330
2
100
AcDbSymbolTableRecord
100
AcDbLayerTableRecord
  2
1
 70
     0
 62
     4
  6
CONTINUOUS
370
    -3
390
F
  0
LAYER
  5
2E
330
2
100
AcDbSymbolTableRecord
100
AcDbLayerTableRecord
  2
2
 70
     0
 62
     7
  6
CONTINUOUS
370
    -3
390
F
  0
LAYER
  5
2F
330
2
100
AcDbSymbolTableRecord
100
AcDbLayerTableRecord
  2
SK2
 70
     0
 62
     7
  6
CONTINUOUS
370
    -3
390
F
  0
LAYER
  5
31
330
2
100
AcDbSymbolTableRecord
100
AcDbLayerTableRecord
  2
SK3
 70
     0
 62
     1
  6
HIDDEN
370
    -3
390
F
  0
LAYER
  5
32
330
2
100
AcDbSymbolTableRecord
100
AcDbLayerTableRecord
  2
4
 70
     0
 62
     2
  6
CENTER
370
    -3
390
F
  0
LAYER
  5
33
330
2
100
AcDbSymbolTableRecord
100
AcDbLayerTableRecord
  2
SK4
 70
     0
 62
     2
  6
CENTER
370
    -3
390
F
  0
LAYER
  5
36
330
2
100
AcDbSymbolTableRecord
100
AcDbLayerTableRecord
  2
6
 70
     0
 62
     5
  6
CONTINUOUS
370
    -3
390
F
  0
LAYER
  5
499
330
2
100
AcDbSymbolTableRecord
100
AcDbLayerTableRecord
  2
DEFPOINTS
 70
     0
 62
     7
  6
CONTINUOUS
290
     0
370
    -3
390
F
  0
LAYER
  5
8A0
330
2
100
AcDbSymbolTableRecord
100
AcDbLayerTableRecord
  2
NOCUT
 70
     0
 62
     7
  6
CONTINUOUS
370
    -3
390
F
  0
ENDTAB
  0
TABLE
  2
STYLE
  5
3
330
0
100
AcDbSymbolTable
 70
     1
  0
STYLE
  5
11
330
3
100
AcDbSymbolTableRecord
100
AcDbTextStyleTableRecord
  2
STANDARD
 70
     0
 40
0.0
 41
0.8
 50
0.0
 71
     0
 42
0.2
  3
ISOCP
  4

  0
ENDTAB
  0
TABLE
  2
VIEW
  5
6
330
0
100
AcDbSymbolTable
 70
     0
  0
ENDTAB
  0
TABLE
  2
UCS
  5
7
330
0
100
AcDbSymbolTable
 70
     0
  0
ENDTAB
  0
TABLE
  2
APPID
  5
9
330
0
100
AcDbSymbolTable
 70
     3
  0
APPID
  5
12
330
9
100
AcDbSymbolTableRecord
100
AcDbRegAppTableRecord
  2
ACAD
 70
     0
  0
APPID
  5
CB3
330
9
100
AcDbSymbolTableRecord
100
AcDbRegAppTableRecord
  2
ACAD_DSTYLE_DIMTEXT_FILL
 70
     0
  0
APPID
  5
EBD
330
9
100
AcDbSymbolTableRecord
100
AcDbRegAppTableRecord
  2
ACAD_PSEXT
 70
     0
  0
ENDTAB
  0
TABLE
  2
DIMSTYLE
  5
A
330
0
100
AcDbSymbolTable
 70
     2
100
AcDbDimStyleTable
 71
     2
340
8A1
340
39
  0
DIMSTYLE
105
39
330
A
100
AcDbSymbolTableRecord
100
AcDbDimStyleTableRecord
  2
STANDARD
 70
     0
279
     2
340
11
  0
DIMSTYLE
105
8A1
102
{ACAD_REACTORS
330
5DD
330
5DA
330
5D9
330
5D8
330
5D6
330
5D4
330
5D7
330
5D5
330
5DC
102
}
330
A
100
AcDbSymbolTableRecord
100
AcDbDimStyleTableRecord
  2
ISO-25
 70
     0
 41
3.5
 42
0.625
 43
3.75
 44
2.0
 73
     0
 74
     0
 77
     1
 78
     8
140
3.5
141
2.5
143
0.03937007874016
147
0.625
171
     3
172
     1
176
   256
177
   256
178
   256
271
     2
272
     2
274
     3
283
     0
284
     8
340
11
  0
ENDTAB
  0
TABLE
  2
BLOCK_RECORD
  5
1
330
0
100
AcDbSymbolTable
 70
    11
  0
BLOCK_RECORD
  5
22
102
{ACAD_XDICTIONARY
360
E8F
102
}
330
1
100
AcDbSymbolTableRecord
100
AcDbBlockTableRecord
  2
*Model_Space
340
25
  0
BLOCK_RECORD
  5
1E
330
1
100
AcDbSymbolTableRecord
100
AcDbBlockTableRecord
  2
*Paper_Space
340
21
  0
BLOCK_RECORD
  5
823
330
1
100
AcDbSymbolTableRecord
100
AcDbBlockTableRecord
  2
nullpunkt_1
340
0
310
2800000020000000200000000100080000000000000400000000000000000000000000000000000000000000000080000080000000808000800000008000800080800000C0C0C000C0DCC000F0CAA6000020400000206000002080000020A0000020C0000020E00000400000004020000040400000406000004080000040A0
310
000040C0000040E00000600000006020000060400000606000006080000060A0000060C0000060E00000800000008020000080400000806000008080000080A0000080C0000080E00000A0000000A0200000A0400000A0600000A0800000A0A00000A0C00000A0E00000C0000000C0200000C0400000C0600000C0800000C0
310
A00000C0C00000C0E00000E0000000E0200000E0400000E0600000E0800000E0A00000E0C00000E0E00040000000400020004000400040006000400080004000A0004000C0004000E00040200000402020004020400040206000402080004020A0004020C0004020E000404000004040200040404000404060004040800040
310
40A0004040C0004040E00040600000406020004060400040606000406080004060A0004060C0004060E00040800000408020004080400040806000408080004080A0004080C0004080E00040A0000040A0200040A0400040A0600040A0800040A0A00040A0C00040A0E00040C0000040C0200040C0400040C0600040C08000
310
40C0A00040C0C00040C0E00040E0000040E0200040E0400040E0600040E0800040E0A00040E0C00040E0E00080000000800020008000400080006000800080008000A0008000C0008000E00080200000802020008020400080206000802080008020A0008020C0008020E00080400000804020008040400080406000804080
310
008040A0008040C0008040E00080600000806020008060400080606000806080008060A0008060C0008060E00080800000808020008080400080806000808080008080A0008080C0008080E00080A0000080A0200080A0400080A0600080A0800080A0A00080A0C00080A0E00080C0000080C0200080C0400080C0600080C0
310
800080C0A00080C0C00080C0E00080E0000080E0200080E0400080E0600080E0800080E0A00080E0C00080E0E000C0000000C0002000C0004000C0006000C0008000C000A000C000C000C000E000C0200000C0202000C0204000C0206000C0208000C020A000C020C000C020E000C0400000C0402000C0404000C0406000C0
310
408000C040A000C040C000C040E000C0600000C0602000C0604000C0606000C0608000C060A000C060C000C060E000C0800000C0802000C0804000C0806000C0808000C080A000C080C000C080E000C0A00000C0A02000C0A04000C0A06000C0A08000C0A0A000C0A0C000C0A0E000C0C00000C0C02000C0C04000C0C06000
310
C0C08000C0C0A000F0FBFF00A4A0A000808080000000FF0000FF000000FFFF00FF000000FF00FF00FFFF0000FFFFFF0000000000000000000000000000000000000000000000000000000000000000000000000000000000000000000000FEFE0000000000000000000000000000000000000000000000000000FEFEFEFEFE
310
FEFEFE00000000000000000000000000000000000000000000FEFEFEFEFEFE00FE0000FEFE00000000000000000000000000000000000000FEFEFEFE00FE0000FE00000000FEFE00000000000000000000000000000000FEFEFE0000FE000000FE000000000000FEFE00000000000000000000000000FEFE000000FE000000
310
00FE0000000000000000FEFE00000000000000000000FEFE000000FE0000000000FE00000000000000000000FE0000000000000000FEFEFE0000FE000000000000FE00000000000000000000FE0000000000000000FEFE0000FE00000000000000FE0000000000000000000000FE000000000000FEFEFE00FE000000000000
310
0000FE0000000000000000000000FE000000000000FEFE00FE000000000000000000FE000000000000000000000000FE0000000000FEFEFE00000000000000000000FE000000000000000000000000FE0000000000FEFE0000000000000000000000FE00000000000000000000000000FE000000FEFE000000000000000000
310
000000FE00000000000000000000000000FE000000FEFEFEFEFEFEFEFEFEFEFEFEFEFEFEFEFEFEFEFEFEFEFEFEFEFEFEFEFEFE000000FE000000000000000000000000FE00000000000000000000000000FEFE000000FE000000000000000000000000FE000000000000000000000000FEFEFE00000000FE00000000000000
310
00000000FE0000000000000000000000FE00FE0000000000FE0000000000000000000000FE00000000000000000000FE00FEFE000000000000FE00000000000000000000FE000000000000000000FE0000FEFE000000000000FE00000000000000000000FE0000000000000000FE0000FEFEFE00000000000000FE00000000
310
0000000000FE00000000000000FE000000FEFE0000000000000000FE000000000000000000FE000000000000FE000000FEFEFE000000000000000000FE0000000000000000FE0000000000FE00000000FEFE00000000000000000000FE0000000000000000FE00000000FE00000000FEFE000000000000000000000000FEFE
310
000000000000FE000000FE000000FEFEFE000000000000000000000000000000FEFE00000000FE0000FE0000FEFEFEFE000000000000000000000000000000000000FEFE0000FE00FE00FEFEFEFEFE000000000000000000000000000000000000000000FEFEFEFEFEFEFEFEFE000000000000000000000000000000000000
310
00000000000000FEFEFE00000000000000000000000000000000000000000000000000000000000000000000000000000000000000000000
102
{BLKREFS
331
ACB
102
}
  0
BLOCK_RECORD
  5
82C
330
1
100
AcDbSymbolTableRecord
100
AcDbBlockTableRecord
  2
nullpunkt_2
340
0
310
2800000020000000200000000100080000000000000400000000000000000000000000000000000000000000000080000080000000808000800000008000800080800000C0C0C000C0DCC000F0CAA6000020400000206000002080000020A0000020C0000020E00000400000004020000040400000406000004080000040A0
310
000040C0000040E00000600000006020000060400000606000006080000060A0000060C0000060E00000800000008020000080400000806000008080000080A0000080C0000080E00000A0000000A0200000A0400000A0600000A0800000A0A00000A0C00000A0E00000C0000000C0200000C0400000C0600000C0800000C0
310
A00000C0C00000C0E00000E0000000E0200000E0400000E0600000E0800000E0A00000E0C00000E0E00040000000400020004000400040006000400080004000A0004000C0004000E00040200000402020004020400040206000402080004020A0004020C0004020E000404000004040200040404000404060004040800040
310
40A0004040C0004040E00040600000406020004060400040606000406080004060A0004060C0004060E00040800000408020004080400040806000408080004080A0004080C0004080E00040A0000040A0200040A0400040A0600040A0800040A0A00040A0C00040A0E00040C0000040C0200040C0400040C0600040C08000
310
40C0A00040C0C00040C0E00040E0000040E0200040E0400040E0600040E0800040E0A00040E0C00040E0E00080000000800020008000400080006000800080008000A0008000C0008000E00080200000802020008020400080206000802080008020A0008020C0008020E00080400000804020008040400080406000804080
310
008040A0008040C0008040E00080600000806020008060400080606000806080008060A0008060C0008060E00080800000808020008080400080806000808080008080A0008080C0008080E00080A0000080A0200080A0400080A0600080A0800080A0A00080A0C00080A0E00080C0000080C0200080C0400080C0600080C0
310
800080C0A00080C0C00080C0E00080E0000080E0200080E0400080E0600080E0800080E0A00080E0C00080E0E000C0000000C0002000C0004000C0006000C0008000C000A000C000C000C000E000C0200000C0202000C0204000C0206000C0208000C020A000C020C000C020E000C0400000C0402000C0404000C0406000C0
310
408000C040A000C040C000C040E000C0600000C0602000C0604000C0606000C0608000C060A000C060C000C060E000C0800000C0802000C0804000C0806000C0808000C080A000C080C000C080E000C0A00000C0A02000C0A04000C0A06000C0A08000C0A0A000C0A0C000C0A0E000C0C00000C0C02000C0C04000C0C06000
310
C0C08000C0C0A000F0FBFF00A4A0A000808080000000FF0000FF000000FFFF00FF000000FF00FF00FFFF0000FFFFFF0000000000000000000000000000000000000000000000000000000000000000000000000000000000000000000000FEFE0000000000000000000000000000000000000000000000000000FEFEFEFEFE
310
FEFEFE00000000000000000000000000000000000000000000FEFEFEFEFEFE00FE0000FEFE00000000000000000000000000000000000000FEFEFEFE00FE0000FE00000000FEFE00000000000000000000000000000000FEFEFE0000FE000000FE000000000000FEFE00000000000000000000000000FEFE000000FE000000
310
00FE0000000000000000FEFE00000000000000000000FEFE000000FE0000000000FE00000000000000000000FE0000000000000000FEFEFE0000FE000000000000FE00000000000000000000FE0000000000000000FEFE0000FE00000000000000FE0000000000000000000000FE000000000000FEFEFE00FE000000000000
310
0000FE0000000000000000000000FE000000000000FEFE00FE000000000000000000FE000000000000000000000000FE0000000000FEFEFE00000000000000000000FE000000000000000000000000FE0000000000FEFE0000000000000000000000FE00000000000000000000000000FE000000FEFE000000000000000000
310
000000FE00000000000000000000000000FE000000FEFEFEFEFEFEFEFEFEFEFEFEFEFEFEFEFEFEFEFEFEFEFEFEFEFEFEFEFEFE000000FE000000000000000000000000FE00000000000000000000000000FEFE000000FE000000000000000000000000FE000000000000000000000000FEFEFE00000000FE00000000000000
310
00000000FE0000000000000000000000FE00FE0000000000FE0000000000000000000000FE00000000000000000000FE00FEFE000000000000FE00000000000000000000FE000000000000000000FE0000FEFE000000000000FE00000000000000000000FE0000000000000000FE0000FEFEFE00000000000000FE00000000
310
0000000000FE00000000000000FE000000FEFE0000000000000000FE000000000000000000FE000000000000FE000000FEFEFE000000000000000000FE0000000000000000FE0000000000FE00000000FEFE00000000000000000000FE0000000000000000FE00000000FE00000000FEFE000000000000000000000000FEFE
310
000000000000FE000000FE000000FEFEFE000000000000000000000000000000FEFE00000000FE0000FE0000FEFEFEFE000000000000000000000000000000000000FEFE0000FE00FE00FEFEFEFEFE000000000000000000000000000000000000000000FEFEFEFEFEFEFEFEFE000000000000000000000000000000000000
310
00000000000000FEFEFE00000000000000000000000000000000000000000000000000000000000000000000000000000000000000000000
102
{BLKREFS
331
ACC
102
}
  0
BLOCK_RECORD
  5
BA1
330
1
100
AcDbSymbolTableRecord
100
AcDbBlockTableRecord
  2
*D2
340
0
  0
BLOCK_RECORD
  5
BAD
330
1
100
AcDbSymbolTableRecord
100
AcDbBlockTableRecord
  2
*D3
340
0
  0
BLOCK_RECORD
  5
BBA
330
1
100
AcDbSymbolTableRecord
100
AcDbBlockTableRecord
  2
*D4
340
0
  0
BLOCK_RECORD
  5
BC6
330
1
100
AcDbSymbolTableRecord
100
AcDbBlockTableRecord
  2
*D5
340
0
  0
BLOCK_RECORD
  5
BD2
330
1
100
AcDbSymbolTableRecord
100
AcDbBlockTableRecord
  2
*D6
340
0
  0
BLOCK_RECORD
  5
BDE
330
1
100
AcDbSymbolTableRecord
100
AcDbBlockTableRecord
  2
*D7
340
0
  0
BLOCK_RECORD
  5
BEA
330
1
100
AcDbSymbolTableRecord
100
AcDbBlockTableRecord
  2
*D8
340
0
  0
BLOCK_RECORD
  5
BF6
330
1
100
AcDbSymbolTableRecord
100
AcDbBlockTableRecord
  2
*D9
340
0
  0
BLOCK_RECORD
  5
C8B
330
1
100
AcDbSymbolTableRecord
100
AcDbBlockTableRecord
  2
*D10
340
0
  0
ENDTAB
  0
ENDSEC
  0
SECTION
  2
BLOCKS
  0
BLOCK
  5
23
330
22
100
AcDbEntity
  8
0
100
AcDbBlockBegin
  2
*Model_Space
 70
     0
 10
0.0
 20
0.0
 30
0.0
  3
*Model_Space
  1

  0
ENDBLK
  5
24
330
22
100
AcDbEntity
  8
0
100
AcDbBlockEnd
  0
BLOCK
  5
1F
330
1E
100
AcDbEntity
 67
     1
  8
0
100
AcDbBlockBegin
  2
*Paper_Space
 70
     0
 10
0.0
 20
0.0
 30
0.0
  3
*Paper_Space
  1

  0
ENDBLK
  5
20
330
1E
100
AcDbEntity
 67
     1
  8
0
100
AcDbBlockEnd
  0
BLOCK
  5
824
330
823
100
AcDbEntity
  8
0
100
AcDbBlockBegin
  2
nullpunkt_1
 70
     0
 10
0.0
 20
0.0
 30
0.0
  3
nullpunkt_1
  1

  0
LWPOLYLINE
  5
825
102
{ACAD_REACTORS
330
826
102
}
330
823
100
AcDbEntity
  8
1
100
AcDbPolyline
 90
        3
 70
     1
 43
0.0
 10
0.0
 20
2.950972054112752
 10
0.0
 20
0.0
 10
2.950972054112638
 20
0.0
 42
0.4142135623730966
  0
HATCH
  5
826
330
823
100
AcDbEntity
  8
1
100
AcDbHatch
 10
0.0
 20
0.0
 30
0.0
210
0.0
220
0.0
230
1.0
  2
SOLID
 70
     1
 71
     1
 91
        2
 92
        7
 72
     1
 73
     1
 93
        3
 10
0.0
 20
0.0
 42
0.0
 10
2.950972054112638
 20
0.0
 42
0.4142135623730968
 10
0.0
 20
2.950972054112752
 42
0.0
 97
        1
330
825
 92
        7
 72
     1
 73
     1
 93
        3
 10
0.0
 20
-2.950972054112412
 42
0.0
 10
0.0
 20
0.0
 42
0.0
 10
-2.950972054112583
 20
0.0
 42
0.4142135623730966
 97
        1
330
828
 75
     0
 76
     1
 47
0.1190009775223266
 98
        2
 10
0.7445530588119596
 20
0.9212244733765826
 10
-1.27946460185285
 20
-1.696796923046235
  0
CIRCLE
  5
827
330
823
100
AcDbEntity
  8
1
100
AcDbCircle
 10
0.0
 20
0.0
 30
0.0
 40
2.950972054112601
  0
LWPOLYLINE
  5
828
102
{ACAD_REACTORS
330
826
102
}
330
823
100
AcDbEntity
  8
1
100
AcDbPolyline
 90
        3
 70
     1
 43
0.0
 10
0.0
 20
0.0
 10
-2.950972054112583
 20
0.0
 42
0.4142135623730966
 10
0.0
 20
-2.950972054112412
  0
LINE
  5
829
330
823
100
AcDbEntity
  8
1
100
AcDbLine
 10
-2.950972054112752
 20
0.0
 30
0.0
 11
2.950972054112583
 21
0.0
 31
0.0
  0
LINE
  5
82A
330
823
100
AcDbEntity
  8
1
100
AcDbLine
 10
0.0
 20
2.950972054112752
 30
0.0
 11
0.0
 21
-2.950972054112412
 31
0.0
  0
ENDBLK
  5
82B
330
823
100
AcDbEntity
  8
0
100
AcDbBlockEnd
  0
BLOCK
  5
82D
330
82C
100
AcDbEntity
  8
0
100
AcDbBlockBegin
  2
nullpunkt_2
 70
     0
 10
0.0
 20
0.0
 30
0.0
  3
nullpunkt_2
  1

  0
CIRCLE
  5
82E
330
82C
100
AcDbEntity
  8
1
100
AcDbCircle
 10
0.0
 20
0.0
 30
0.0
 40
1.0
  0
HATCH
  5
82F
330
82C
100
AcDbEntity
  8
1
100
AcDbHatch
 10
0.0
 20
0.0
 30
0.0
210
0.0
220
0.0
230
1.0
  2
SOLID
 70
     1
 71
     0
 91
        2
 92
        1
 93
        3
 72
     1
 10
0.0
 20
0.0
 11
-1.0
 21
0.0
 72
     2
 10
0.0
 20
0.0
 40
1.0
 50
180.0
 51
270.0
 73
     1
 72
     1
 10
0.0
 20
-0.9999999999998864
 11
0.0
 21
0.0
 97
        0
 92
        1
 93
        3
 72
     1
 10
0.0
 20
1.000000000000113
 11
0.0
 21
0.0
 72
     1
 10
0.0
 20
0.0
 11
1.0
 21
0.0
 72
     2
 10
0.0
 20
0.0
 40
1.0
 50
0.0
 51
90.0
 73
     1
 97
        0
 75
     0
 76
     1
 98
        1
 10
-109.9295341761981
 20
-32.53620011044962
  0
LINE
  5
830
330
82C
100
AcDbEntity
  8
1
100
AcDbLine
 10
-1.0
 20
0.0
 30
0.0
 11
1.0
 21
0.0
 31
0.0
  0
LWPOLYLINE
  5
831
330
82C
100
AcDbEntity
  8
1
100
AcDbPolyline
 90
        3
 70
     1
 43
0.0
 10
0.0
 20
0.0
 10
-1.0
 20
0.0
 42
0.4142135623730951
 10
0.0
 20
-0.9999999999998864
  0
LWPOLYLINE
  5
832
330
82C
100
AcDbEntity
  8
1
100
AcDbPolyline
 90
        3
 70
     1
 43
0.0
 10
0.0
 20
1.000000000000113
 10
0.0
 20
0.0
 10
1.0
 20
0.0
 42
0.4142135623730951
  0
ENDBLK
  5
833
330
82C
100
AcDbEntity
  8
0
100
AcDbBlockEnd
  0
BLOCK
  5
BAB
330
BA1
100
AcDbEntity
  8
0
100
AcDbBlockBegin
  2
*D2
 70
     1
 10
0.0
 20
0.0
 30
0.0
  3
*D2
  1

  0
LINE
  5
F19
330
BA1
100
AcDbEntity
  8
SK2
370
    -2
100
AcDbLine
 10
53.125
 20
20.0
 30
0.0
 11
96.59452826574492
 21
19.99999999999998
 31
0.0
  0
LINE
  5
F1A
330
BA1
100
AcDbEntity
  8
SK2
370
    -2
100
AcDbLine
 10
53.125
 20
-20.0
 30
0.0
 11
96.59452826574492
 21
-20.00000000000001
 31
0.0
  0
LINE
  5
F1B
330
BA1
100
AcDbEntity
  8
SK2
370
    -2
100
AcDbLine
 10
94.59452826574491
 20
16.49999999999998
 30
0.0
 11
94.59452826574491
 21
-16.50000000000001
 31
0.0
  0
SOLID
  5
F1C
330
BA1
100
AcDbEntity
  8
SK2
100
AcDbTrace
 10
94.01119493241159
 20
16.49999999999998
 30
0.0
 11
95.17786159907824
 21
16.49999999999998
 31
0.0
 12
94.59452826574491
 22
19.99999999999998
 32
0.0
 13
94.59452826574491
 23
19.99999999999998
 33
0.0
  0
SOLID
  5
F1D
330
BA1
100
AcDbEntity
  8
SK2
100
AcDbTrace
 10
94.01119493241159
 20
-16.50000000000001
 30
0.0
 11
95.17786159907824
 21
-16.50000000000001
 31
0.0
 12
94.59452826574491
 22
-20.00000000000001
 32
0.0
 13
94.59452826574491
 23
-20.00000000000001
 33
0.0
  0
MTEXT
  5
F1E
330
BA1
100
AcDbEntity
  8
SK2
100
AcDbMText
 10
92.21952826574492
 20
-1.135990332299996
 30
0.0
 40
3.5
 41
0.0
 71
     5
 72
     1
  1
%%c40
 11
0.0000000000000001
 21
1.0
 31
0.0
 73
     1
 44
1.0
1001
ACAD
1000
MTEXTBEGIN
1070
    73
1070
     1
1070
    44
1040
1.0
1070
    74
1070
     0
1000
MTEXTEND
  0
POINT
  5
F1F
330
BA1
100
AcDbEntity
  8
DEFPOINTS
 62
     0
100
AcDbPoint
 10
52.5
 20
20.0
 30
0.0
  0
POINT
  5
F20
330
BA1
100
AcDbEntity
  8
DEFPOINTS
 62
     0
100
AcDbPoint
 10
52.5
 20
-20.0
 30
0.0
  0
POINT
  5
F21
330
BA1
100
AcDbEntity
  8
DEFPOINTS
 62
     0
100
AcDbPoint
 10
94.59452826574491
 20
-20.00000000000001
 30
0.0
  0
ENDBLK
  5
BAC
330
BA1
100
AcDbEntity
  8
0
100
AcDbBlockEnd
  0
BLOCK
  5
BB8
330
BAD
100
AcDbEntity
  8
0
100
AcDbBlockBegin
  2
*D3
 70
     1
 10
0.0
 20
0.0
 30
0.0
  3
*D3
  1

  0
LINE
  5
F07
330
BAD
100
AcDbEntity
  8
SK2
370
    -2
100
AcDbLine
 10
69.125
 20
11.0
 30
0.0
 11
86.21500425504157
 21
10.99999999999999
 31
0.0
  0
LINE
  5
F08
330
BAD
100
AcDbEntity
  8
SK2
370
    -2
100
AcDbLine
 10
69.125
 20
-11.0
 30
0.0
 11
86.21500425504157
 21
-11.0
 31
0.0
  0
LINE
  5
F09
330
BAD
100
AcDbEntity
  8
SK2
370
    -2
100
AcDbLine
 10
84.21500425504158
 20
7.499999999999995
 30
0.0
 11
84.21500425504158
 21
-7.500000000000004
 31
0.0
  0
SOLID
  5
F0A
330
BAD
100
AcDbEntity
  8
SK2
100
AcDbTrace
 10
83.63167092170824
 20
7.499999999999995
 30
0.0
 11
84.79833758837491
 21
7.499999999999995
 31
0.0
 12
84.21500425504158
 22
10.99999999999999
 32
0.0
 13
84.21500425504158
 23
10.99999999999999
 33
0.0
  0
SOLID
  5
F0B
330
BAD
100
AcDbEntity
  8
SK2
100
AcDbTrace
 10
83.63167092170824
 20
-7.500000000000004
 30
0.0
 11
84.79833758837491
 21
-7.500000000000004
 31
0.0
 12
84.21500425504158
 22
-11.0
 32
0.0
 13
84.21500425504158
 23
-11.0
 33
0.0
  0
MTEXT
  5
F0C
330
BAD
100
AcDbEntity
  8
SK2
100
AcDbMText
 10
81.83965976685261
 20
-0.5291844902038177
 30
0.0
 40
3.5
 41
0.0
 71
     5
 72
     1
  1
%%c22
 11
0.0000000000000001
 21
1.0
 31
0.0
 73
     1
 44
1.0
1001
ACAD
1000
MTEXTBEGIN
1070
    73
1070
     1
1070
    44
1040
1.0
1070
    74
1070
     0
1000
MTEXTEND
  0
POINT
  5
F0D
330
BAD
100
AcDbEntity
  8
DEFPOINTS
 62
     0
100
AcDbPoint
 10
68.5
 20
11.0
 30
0.0
  0
POINT
  5
F0E
330
BAD
100
AcDbEntity
  8
DEFPOINTS
 62
     0
100
AcDbPoint
 10
68.5
 20
-11.0
 30
0.0
  0
POINT
  5
F0F
330
BAD
100
AcDbEntity
  8
DEFPOINTS
 62
     0
100
AcDbPoint
 10
84.21500425504158
 20
-11.0
 30
0.0
  0
ENDBLK
  5
BB9
330
BAD
100
AcDbEntity
  8
0
100
AcDbBlockEnd
  0
BLOCK
  5
BC4
330
BBA
100
AcDbEntity
  8
0
100
AcDbBlockBegin
  2
*D4
 70
     1
 10
0.0
 20
0.0
 30
0.0
  3
*D4
  1

  0
LINE
  5
EFE
330
BBA
100
AcDbEntity
  8
2
370
    -2
100
AcDbLine
 10
52.0
 20
24.76785707222589
 30
0.0
 11
52.0
 21
56.43420828107702
 31
0.0
  0
LINE
  5
EFF
330
BBA
100
AcDbEntity
  8
2
370
    -2
100
AcDbLine
 10
0.0
 20
0.2201548038658814
 30
0.0
 11
0.0000000000000035
 21
56.43420828107702
 31
0.0
  0
LINE
  5
F00
330
BBA
100
AcDbEntity
  8
2
370
    -2
100
AcDbLine
 10
48.5
 20
54.43420828107702
 30
0.0
 11
3.500000000000003
 21
54.43420828107702
 31
0.0
  0
SOLID
  5
F01
330
BBA
100
AcDbEntity
  8
2
100
AcDbTrace
 10
48.5
 20
55.01754161441035
 30
0.0
 11
48.5
 21
53.85087494774368
 31
0.0
 12
52.0
 22
54.43420828107702
 32
0.0
 13
52.0
 23
54.43420828107702
 33
0.0
  0
SOLID
  5
F02
330
BBA
100
AcDbEntity
  8
2
100
AcDbTrace
 10
3.500000000000003
 20
55.01754161441035
 30
0.0
 11
3.500000000000003
 21
53.85087494774368
 31
0.0
 12
0.0000000000000034
 22
54.43420828107702
 32
0.0
 13
0.0000000000000034
 23
54.43420828107702
 33
0.0
  0
MTEXT
  5
F03
330
BBA
100
AcDbEntity
  8
2
100
AcDbMText
 10
24.3185528567569
 20
56.80955276926599
 30
0.0
 40
3.5
 41
0.0
 71
     5
 72
     1
  1
52
 73
     1
 44
1.0
1001
ACAD
1000
MTEXTBEGIN
1070
    73
1070
     1
1070
    44
1040
1.0
1070
    74
1070
     0
1000
MTEXTEND
  0
POINT
  5
F04
330
BBA
100
AcDbEntity
  8
DEFPOINTS
 62
     0
100
AcDbPoint
 10
52.0
 20
24.14285707222589
 30
0.0
  0
POINT
  5
F05
330
BBA
100
AcDbEntity
  8
DEFPOINTS
 62
     0
100
AcDbPoint
 10
0.0
 20
-0.4048451961341187
 30
0.0
  0
POINT
  5
F06
330
BBA
100
AcDbEntity
  8
DEFPOINTS
 62
     0
100
AcDbPoint
 10
0.0000000000000034
 20
54.43420828107702
 30
0.0
  0
ENDBLK
  5
BC5
330
BBA
100
AcDbEntity
  8
0
100
AcDbBlockEnd
  0
BLOCK
  5
BD0
330
BC6
100
AcDbEntity
  8
0
100
AcDbBlockBegin
  2
*D5
 70
     1
 10
0.0
 20
0.0
 30
0.0
  3
*D5
  1

  0
LINE
  5
EF5
330
BC6
100
AcDbEntity
  8
SK2
370
    -2
100
AcDbLine
 10
0.0
 20
-12.1215191382
 30
0.0
 11
0.0000000000000035
 21
45.19789285909678
 31
0.0
  0
LINE
  5
EF6
330
BC6
100
AcDbEntity
  8
SK2
370
    -2
100
AcDbLine
 10
-68.39999999999999
 20
-12.1215191382
 30
0.0
 11
-68.39999999999999
 21
45.19789285909678
 31
0.0
  0
LINE
  5
EF7
330
BC6
100
AcDbEntity
  8
SK2
370
    -2
100
AcDbLine
 10
-3.499999999999996
 20
43.19789285909678
 30
0.0
 11
-64.89999999999999
 21
43.19789285909678
 31
0.0
  0
SOLID
  5
EF8
330
BC6
100
AcDbEntity
  8
SK2
100
AcDbTrace
 10
-3.499999999999996
 20
43.78122619243011
 30
0.0
 11
-3.499999999999996
 21
42.61455952576344
 31
0.0
 12
0.0000000000000034
 22
43.19789285909678
 32
0.0
 13
0.0000000000000034
 23
43.19789285909678
 33
0.0
  0
SOLID
  5
EF9
330
BC6
100
AcDbEntity
  8
SK2
100
AcDbTrace
 10
-64.89999999999999
 20
43.78122619243011
 30
0.0
 11
-64.89999999999999
 21
42.61455952576344
 31
0.0
 12
-68.39999999999999
 22
43.19789285909678
 32
0.0
 13
-68.39999999999999
 23
43.19789285909678
 33
0.0
  0
MTEXT
  5
EFA
330
BC6
100
AcDbEntity
  8
SK2
100
AcDbMText
 10
-36.81636643100592
 20
45.57289285909678
 30
0.0
 40
3.5
 41
0.0
 71
     5
 72
     1
  1
68.4
 73
     1
 44
1.0
1001
ACAD
1000
MTEXTBEGIN
1070
    73
1070
     1
1070
    44
1040
1.0
1070
    74
1070
     0
1000
MTEXTEND
  0
POINT
  5
EFB
330
BC6
100
AcDbEntity
  8
DEFPOINTS
 62
     0
100
AcDbPoint
 10
0.0
 20
-12.7465191382
 30
0.0
  0
POINT
  5
EFC
330
BC6
100
AcDbEntity
  8
DEFPOINTS
 62
     0
100
AcDbPoint
 10
-68.39999999999999
 20
-12.7465191382
 30
0.0
  0
POINT
  5
EFD
330
BC6
100
AcDbEntity
  8
DEFPOINTS
 62
     0
100
AcDbPoint
 10
-68.39999999999999
 20
43.19789285909678
 30
0.0
  0
ENDBLK
  5
BD1
330
BC6
100
AcDbEntity
  8
0
100
AcDbBlockEnd
  0
BLOCK
  5
BDC
330
BD2
100
AcDbEntity
  8
0
100
AcDbBlockBegin
  2
*D6
 70
     1
 10
0.0
 20
0.0
 30
0.0
  3
*D6
  1

  0
LINE
  5
EE3
330
BD2
100
AcDbEntity
  8
2
370
    -2
100
AcDbLine
 10
0.0
 20
28.66931736643341
 30
0.0
 11
0.0000000000000011
 21
45.21915669972492
 31
0.0
  0
LINE
  5
EE4
330
BD2
100
AcDbEntity
  8
2
370
    -2
100
AcDbLine
 10
19.09999999999999
 20
33.10679596566169
 30
0.0
 11
19.09999999999999
 21
45.21915669972492
 31
0.0
  0
LINE
  5
EE5
330
BD2
100
AcDbEntity
  8
2
370
    -2
100
AcDbLine
 10
3.5
 20
43.21915669972492
 30
0.0
 11
15.59999999999999
 21
43.21915669972492
 31
0.0
  0
SOLID
  5
EE6
330
BD2
100
AcDbEntity
  8
2
100
AcDbTrace
 10
3.5
 20
43.80249003305825
 30
0.0
 11
3.5
 21
42.63582336639158
 31
0.0
 12
0.0000000000000009
 22
43.21915669972492
 32
0.0
 13
0.0000000000000009
 23
43.21915669972492
 33
0.0
  0
SOLID
  5
EE7
330
BD2
100
AcDbEntity
  8
2
100
AcDbTrace
 10
15.59999999999999
 20
43.80249003305825
 30
0.0
 11
15.59999999999999
 21
42.63582336639158
 31
0.0
 12
19.09999999999999
 22
43.21915669972492
 32
0.0
 13
19.09999999999999
 23
43.21915669972492
 33
0.0
  0
MTEXT
  5
EE8
330
BD2
100
AcDbEntity
  8
2
100
AcDbMText
 10
9.564395248399989
 20
45.59415669972492
 30
0.0
 40
3.5
 41
0.0
 71
     5
 72
     1
  1
19.1
 73
     1
 44
1.0
1001
ACAD
1000
MTEXTBEGIN
1070
    73
1070
     1
1070
    44
1040
1.0
1070
    74
1070
     0
1000
MTEXTEND
  0
POINT
  5
EE9
330
BD2
100
AcDbEntity
  8
DEFPOINTS
 62
     0
100
AcDbPoint
 10
0.0
 20
28.04431736643341
 30
0.0
  0
POINT
  5
EEA
330
BD2
100
AcDbEntity
  8
DEFPOINTS
 62
     0
100
AcDbPoint
 10
19.09999999999999
 20
32.48179596566169
 30
0.0
  0
POINT
  5
EEB
330
BD2
100
AcDbEntity
  8
DEFPOINTS
 62
     0
100
AcDbPoint
 10
19.09999999999999
 20
43.21915669972492
 30
0.0
  0
ENDBLK
  5
BDD
330
BD2
100
AcDbEntity
  8
0
100
AcDbBlockEnd
  0
BLOCK
  5
BE8
330
BDE
100
AcDbEntity
  8
0
100
AcDbBlockBegin
  2
*D7
 70
     1
 10
0.0
 20
0.0
 30
0.0
  3
*D7
  1

  0
LINE
  5
ED1
330
BDE
100
AcDbEntity
  8
SK2
370
    -2
100
AcDbLine
 10
71.0
 20
13.87065663145006
 30
0.0
 11
71.0
 21
56.43420828107702
 31
0.0
  0
LINE
  5
ED2
330
BDE
100
AcDbEntity
  8
SK2
370
    -2
100
AcDbLine
 10
52.0
 20
24.14285707222589
 30
0.0
 11
52.0
 21
56.43420828107702
 31
0.0
  0
LINE
  5
ED3
330
BDE
100
AcDbEntity
  8
SK2
370
    -2
100
AcDbLine
 10
67.5
 20
54.43420828107702
 30
0.0
 11
55.5
 21
54.43420828107702
 31
0.0
  0
SOLID
  5
ED4
330
BDE
100
AcDbEntity
  8
SK2
100
AcDbTrace
 10
67.5
 20
55.01754161441035
 30
0.0
 11
67.5
 21
53.85087494774368
 31
0.0
 12
71.0
 22
54.43420828107702
 32
0.0
 13
71.0
 23
54.43420828107702
 33
0.0
  0
SOLID
  5
ED5
330
BDE
100
AcDbEntity
  8
SK2
100
AcDbTrace
 10
55.5
 20
55.01754161441035
 30
0.0
 11
55.5
 21
53.85087494774368
 31
0.0
 12
52.0
 22
54.43420828107702
 32
0.0
 13
52.0
 23
54.43420828107702
 33
0.0
  0
MTEXT
  5
ED6
330
BDE
100
AcDbEntity
  8
SK2
100
AcDbMText
 10
61.68777691419998
 20
56.80920828107701
 30
0.0
 40
3.5
 41
0.0
 71
     5
 72
     1
  1
19
 73
     1
 44
1.0
1001
ACAD
1000
MTEXTBEGIN
1070
    73
1070
     1
1070
    44
1040
1.0
1070
    74
1070
     0
1000
MTEXTEND
  0
POINT
  5
ED7
330
BDE
100
AcDbEntity
  8
DEFPOINTS
 62
     0
100
AcDbPoint
 10
71.0
 20
13.24565663145006
 30
0.0
  0
POINT
  5
ED8
330
BDE
100
AcDbEntity
  8
DEFPOINTS
 62
     0
100
AcDbPoint
 10
52.0
 20
23.51785707222589
 30
0.0
  0
POINT
  5
ED9
330
BDE
100
AcDbEntity
  8
DEFPOINTS
 62
     0
100
AcDbPoint
 10
52.0
 20
54.43420828107702
 30
0.0
  0
ENDBLK
  5
BE9
330
BDE
100
AcDbEntity
  8
0
100
AcDbBlockEnd
  0
BLOCK
  5
BF4
330
BEA
100
AcDbEntity
  8
0
100
AcDbBlockBegin
  2
*D8
 70
     1
 10
0.0
 20
0.0
 30
0.0
  3
*D8
  1

  0
LINE
  5
EEC
330
BEA
100
AcDbEntity
  8
SK2
370
    -2
100
AcDbLine
 10
-1.125
 20
22.22500000000008
 30
0.0
 11
-78.7826698181657
 21
22.2250000000001
 31
0.0
  0
LINE
  5
EED
330
BEA
100
AcDbEntity
  8
SK2
370
    -2
100
AcDbLine
 10
-1.125
 20
-22.22500000000002
 30
0.0
 11
-78.7826698181657
 21
-22.225
 31
0.0
  0
LINE
  5
EEE
330
BEA
100
AcDbEntity
  8
SK2
370
    -2
100
AcDbLine
 10
-76.7826698181657
 20
18.7250000000001
 30
0.0
 11
-76.7826698181657
 21
-18.725
 31
0.0
  0
SOLID
  5
EEF
330
BEA
100
AcDbEntity
  8
SK2
100
AcDbTrace
 10
-77.36600315149903
 20
18.7250000000001
 30
0.0
 11
-76.19933648483237
 21
18.7250000000001
 31
0.0
 12
-76.7826698181657
 22
22.2250000000001
 32
0.0
 13
-76.7826698181657
 23
22.2250000000001
 33
0.0
  0
SOLID
  5
EF0
330
BEA
100
AcDbEntity
  8
SK2
100
AcDbTrace
 10
-77.36600315149903
 20
-18.725
 30
0.0
 11
-76.19933648483237
 21
-18.725
 31
0.0
 12
-76.7826698181657
 22
-22.225
 32
0.0
 13
-76.7826698181657
 23
-22.225
 33
0.0
  0
MTEXT
  5
EF1
330
BEA
100
AcDbEntity
  8
SK2
100
AcDbMText
 10
-79.1576698181657
 20
-0.6382941315999343
 30
0.0
 40
3.5
 41
0.0
 71
     5
 72
     1
  1
%%c44.45
 11
0.0000000000000001
 21
1.0
 31
0.0
 73
     1
 44
1.0
1001
ACAD
1000
MTEXTBEGIN
1070
    73
1070
     1
1070
    44
1040
1.0
1070
    74
1070
     0
1000
MTEXTEND
  0
POINT
  5
EF2
330
BEA
100
AcDbEntity
  8
DEFPOINTS
 62
     0
100
AcDbPoint
 10
-0.5
 20
22.22500000000008
 30
0.0
  0
POINT
  5
EF3
330
BEA
100
AcDbEntity
  8
DEFPOINTS
 62
     0
100
AcDbPoint
 10
-0.5
 20
-22.22500000000002
 30
0.0
  0
POINT
  5
EF4
330
BEA
100
AcDbEntity
  8
DEFPOINTS
 62
     0
100
AcDbPoint
 10
-76.7826698181657
 20
-22.225
 30
0.0
  0
ENDBLK
  5
BF5
330
BEA
100
AcDbEntity
  8
0
100
AcDbBlockEnd
  0
BLOCK
  5
C00
330
BF6
100
AcDbEntity
  8
0
100
AcDbBlockBegin
  2
*D9
 70
     1
 10
0.0
 20
0.0
 30
0.0
  3
*D9
  1

  0
LINE
  5
EDA
330
BF6
100
AcDbEntity
  8
SK2
370
    -2
100
AcDbLine
 10
1.240593088599979
 20
31.77499999999998
 30
0.0
 11
-87.10039828120704
 21
31.775
 31
0.0
  0
LINE
  5
EDB
330
BF6
100
AcDbEntity
  8
SK2
370
    -2
100
AcDbLine
 10
0.9503123110000046
 20
-31.77500000000001
 30
0.0
 11
-87.10039828120704
 21
-31.77499999999998
 31
0.0
  0
LINE
  5
EDC
330
BF6
100
AcDbEntity
  8
SK2
370
    -2
100
AcDbLine
 10
-85.10039828120705
 20
28.275
 30
0.0
 11
-85.10039828120705
 21
-28.27499999999999
 31
0.0
  0
SOLID
  5
EDD
330
BF6
100
AcDbEntity
  8
SK2
100
AcDbTrace
 10
-85.68373161454038
 20
28.275
 30
0.0
 11
-84.51706494787371
 21
28.275
 31
0.0
 12
-85.10039828120705
 22
31.775
 32
0.0
 13
-85.10039828120705
 23
31.775
 33
0.0
  0
SOLID
  5
EDE
330
BF6
100
AcDbEntity
  8
SK2
100
AcDbTrace
 10
-85.68373161454038
 20
-28.27499999999999
 30
0.0
 11
-84.51706494787371
 21
-28.27499999999999
 31
0.0
 12
-85.10039828120705
 22
-31.77499999999998
 32
0.0
 13
-85.10039828120705
 23
-31.77499999999998
 33
0.0
  0
MTEXT
  5
EDF
330
BF6
100
AcDbEntity
  8
SK2
100
AcDbMText
 10
-87.47539828120705
 20
-1.820503035499939
 30
0.0
 40
3.5
 41
0.0
 71
     5
 72
     1
  1
%%c63.55
 11
0.0000000000000001
 21
1.0
 31
0.0
 73
     1
 44
1.0
1001
ACAD
1000
MTEXTBEGIN
1070
    73
1070
     1
1070
    44
1040
1.0
1070
    74
1070
     0
1000
MTEXTEND
  0
POINT
  5
EE0
330
BF6
100
AcDbEntity
  8
DEFPOINTS
 62
     0
100
AcDbPoint
 10
1.865593088599979
 20
31.77499999999998
 30
0.0
  0
POINT
  5
EE1
330
BF6
100
AcDbEntity
  8
DEFPOINTS
 62
     0
100
AcDbPoint
 10
1.575312311000004
 20
-31.77500000000001
 30
0.0
  0
POINT
  5
EE2
330
BF6
100
AcDbEntity
  8
DEFPOINTS
 62
     0
100
AcDbPoint
 10
-85.10039828120705
 20
-31.77499999999998
 30
0.0
  0
ENDBLK
  5
C01
330
BF6
100
AcDbEntity
  8
0
100
AcDbBlockEnd
  0
BLOCK
  5
C96
330
C8B
100
AcDbEntity
  8
0
100
AcDbBlockBegin
  2
*D10
 70
     1
 10
0.0
 20
0.0
 30
0.0
  3
*D10
  1

  0
LINE
  5
F10
330
C8B
100
AcDbEntity
  8
SK2
370
    -2
100
AcDbLine
 10
20.22499999999999
 20
22.5
 30
0.0
 11
28.46343898620001
 21
22.5
 31
0.0
  0
LINE
  5
F11
330
C8B
100
AcDbEntity
  8
SK2
370
    -2
100
AcDbLine
 10
20.22499999999999
 20
-22.5
 30
0.0
 11
28.4634389862
 21
-22.5
 31
0.0
  0
LINE
  5
F12
330
C8B
100
AcDbEntity
  8
SK2
370
    -2
100
AcDbLine
 10
26.46343898620001
 20
19.0
 30
0.0
 11
26.4634389862
 21
-19.0
 31
0.0
  0
SOLID
  5
F13
330
C8B
100
AcDbEntity
  8
SK2
100
AcDbTrace
 10
25.88010565286668
 20
19.0
 30
0.0
 11
27.04677231953334
 21
19.0
 31
0.0
 12
26.46343898620001
 22
22.5
 32
0.0
 13
26.46343898620001
 23
22.5
 33
0.0
  0
SOLID
  5
F14
330
C8B
100
AcDbEntity
  8
SK2
100
AcDbTrace
 10
25.88010565286667
 20
-19.0
 30
0.0
 11
27.04677231953333
 21
-19.0
 31
0.0
 12
26.4634389862
 22
-22.5
 32
0.0
 13
26.4634389862
 23
-22.5
 33
0.0
  0
MTEXT
  5
F15
330
C8B
100
AcDbEntity
  8
SK2
100
AcDbMText
 10
24.08843898620001
 20
-12.39110093950001
 30
0.0
 40
3.5
 41
0.0
 71
     5
 72
     1
  1
%%c45
 11
0.0000000000000001
 21
1.0
 31
0.0
 73
     1
 44
1.0
1001
ACAD
1000
MTEXTBEGIN
1070
    73
1070
     1
1070
    44
1040
1.0
1070
    74
1070
     0
1000
MTEXTEND
  0
POINT
  5
F16
330
C8B
100
AcDbEntity
  8
DEFPOINTS
 62
     0
100
AcDbPoint
 10
19.59999999999999
 20
22.5
 30
0.0
  0
POINT
  5
F17
330
C8B
100
AcDbEntity
  8
DEFPOINTS
 62
     0
100
AcDbPoint
 10
19.59999999999999
 20
-22.5
 30
0.0
  0
POINT
  5
F18
330
C8B
100
AcDbEntity
  8
DEFPOINTS
 62
     0
100
AcDbPoint
 10
26.4634389862
 20
-22.5
 30
0.0
  0
ENDBLK
  5
C97
330
C8B
100
AcDbEntity
  8
0
100
AcDbBlockEnd
  0
ENDSEC
  0
SECTION
  2
ENTITIES
  0
DIMENSION
  5
5D4
330
22
100
AcDbEntity
  8
SK2
100
AcDbDimension
  2
*D7
 10
52.0
 20
54.43420828107702
 30
0.0
 11
61.68777691419998
 21
54.43420828107702
 31
0.0
 70
   160
 71
     5
 42
19.0
  3
ISO-25
100
AcDbAlignedDimension
 13
71.0
 23
13.24565663145006
 33
0.0
 14
52.0
 24
23.51785707222589
 34
0.0
 50
180.0
100
AcDbRotatedDimension
  0
DIMENSION
  5
5D5
330
22
100
AcDbEntity
  8
SK2
100
AcDbDimension
  2
*D9
 10
-85.10039828120705
 20
-31.77499999999998
 30
0.0
 11
-85.10039828120705
 21
-1.820503035499939
 31
0.0
 70
   160
  1
%%c<>
 71
     5
 42
63.54999999999998
  3
ISO-25
100
AcDbAlignedDimension
 13
1.865593088599979
 23
31.77499999999998
 33
0.0
 14
1.575312311000004
 24
-31.77500000000001
 34
0.0
 50
270.0
100
AcDbRotatedDimension
  0
DIMENSION
  5
5D6
330
22
100
AcDbEntity
  8
2
100
AcDbDimension
  2
*D6
 10
19.09999999999999
 20
43.21915669972492
 30
0.0
 11
9.564395248399989
 21
43.21915669972492
 31
0.0
 70
   160
 71
     5
 42
19.09999999999999
  3
ISO-25
100
AcDbAlignedDimension
 13
0.0
 23
28.04431736643341
 33
0.0
 14
19.09999999999999
 24
32.48179596566169
 34
0.0
100
AcDbRotatedDimension
  0
DIMENSION
  5
5D7
330
22
100
AcDbEntity
  8
SK2
100
AcDbDimension
  2
*D8
 10
-76.7826698181657
 20
-22.225
 30
0.0
 11
-76.7826698181657
 21
-0.6382941315999347
 31
0.0
 70
   160
  1
%%c<>
 71
     5
 42
44.4500000000001
  3
ISO-25
100
AcDbAlignedDimension
 13
-0.5
 23
22.22500000000008
 33
0.0
 14
-0.5
 24
-22.22500000000002
 34
0.0
 50
270.0
100
AcDbRotatedDimension
  0
DIMENSION
  5
5D8
330
22
100
AcDbEntity
  8
SK2
100
AcDbDimension
  2
*D5
 10
-68.39999999999999
 20
43.19789285909678
 30
0.0
 11
-36.81636643100592
 21
43.19789285909678
 31
0.0
 70
   160
 71
     5
 42
68.39999999999999
  3
ISO-25
100
AcDbAlignedDimension
 13
0.0
 23
-12.7465191382
 33
0.0
 14
-68.39999999999999
 24
-12.7465191382
 34
0.0
 50
180.0
100
AcDbRotatedDimension
  0
DIMENSION
  5
5D9
330
22
100
AcDbEntity
  8
2
100
AcDbDimension
  2
*D4
 10
0.0000000000000034
 20
54.43420828107702
 30
0.0
 11
24.3185528567569
 21
54.43420828107702
 31
0.0
 70
   160
 71
     5
 42
52.0
  3
ISO-25
100
AcDbAlignedDimension
 13
52.0
 23
24.14285707222589
 33
0.0
 14
0.0
 24
-0.4048451961341187
 34
0.0
 50
180.0
100
AcDbRotatedDimension
  0
DIMENSION
  5
5DA
330
22
100
AcDbEntity
  8
SK2
100
AcDbDimension
  2
*D3
 10
84.21500425504158
 20
-11.0
 30
0.0
 11
84.21500425504158
 21
-0.5291844902038179
 31
0.0
 70
   160
  1
%%c<>
 71
     5
 42
22.0
  3
ISO-25
100
AcDbAlignedDimension
 13
68.5
 23
11.0
 33
0.0
 14
68.5
 24
-11.0
 34
0.0
 50
270.0
100
AcDbRotatedDimension
  0
DIMENSION
  5
5DC
330
22
100
AcDbEntity
  8
SK2
100
AcDbDimension
  2
*D10
 10
26.4634389862
 20
-22.5
 30
0.0
 11
26.4634389862
 21
-12.39110093950001
 31
0.0
 70
   160
  1
%%c<>
 71
     5
 42
45.0
  3
ISO-25
100
AcDbAlignedDimension
 13
19.59999999999999
 23
22.5
 33
0.0
 14
19.59999999999999
 24
-22.5
 34
0.0
 50
270.0
100
AcDbRotatedDimension
  0
DIMENSION
  5
5DD
330
22
100
AcDbEntity
  8
SK2
100
AcDbDimension
  2
*D2
 10
94.59452826574491
 20
-20.00000000000001
 30
0.0
 11
94.59452826574491
 21
-1.135990332299996
 31
0.0
 70
   160
  1
%%c<>
 71
     5
 42
40.0
  3
ISO-25
100
AcDbAlignedDimension
 13
52.5
 23
20.0
 33
0.0
 14
52.5
 24
-20.0
 34
0.0
 50
270.0
100
AcDbRotatedDimension
  0
TEXT
  5
5DE
330
22
100
AcDbEntity
  8
6
100
AcDbText
 10
18.64166372927829
 20
-42.57082580794341
 30
0.0
 40
5.0
  1
69871A40SM22SK052
 72
     1
 11
49.91344089409668
 21
-42.57082580794341
 31
0.0
100
AcDbText
  0
TEXT
  5
5E0
330
22
100
AcDbEntity
  8
6
100
AcDbText
 10
-44.4679439980139
 20
-13.11625167711744
 30
0.0
 40
3.5
  1
DIN 69871-A40
 41
1.199999999999999
100
AcDbText
  0
LINE
  5
5E3
330
22
100
AcDbEntity
  8
SK1
100
AcDbLine
 10
71.0
 20
9.369999999999976
 30
0.0
 11
71.0
 21
-9.370000000000004
 31
0.0
  0
LINE
  5
5E4
330
22
100
AcDbEntity
  8
SK1
100
AcDbLine
 10
68.0
 20
-11.0
 30
0.0
 11
68.0
 21
10.97
 31
0.0
  0
LINE
  5
5E9
330
22
100
AcDbEntity
  8
SK3
100
AcDbLine
 10
66.5
 20
-5.25
 30
0.0
 11
66.5
 21
5.25
 31
0.0
  0
LINE
  5
5EF
330
22
100
AcDbEntity
  8
SK1
100
AcDbLine
 10
57.0
 20
12.0
 30
0.0
 11
57.0
 21
19.0
 31
0.0
  0
LINE
  5
5F0
330
22
100
AcDbEntity
  8
SK1
100
AcDbLine
 10
57.0
 20
-12.0
 30
0.0
 11
57.0
 21
-19.0
 31
0.0
  0
LWPOLYLINE
  5
5F2
330
22
100
AcDbEntity
  8
1
100
AcDbPolyline
 90
        9
 70
     0
 43
0.0
 10
52.0
 20
18.7899921908
 10
51.9886345111
 20
18.90851691060001
 10
51.95772502009998
 20
19.0188298473
 10
51.90608879959999
 20
19.12266535629999
 10
51.83727403209999
 20
19.21482037149999
 10
51.75315098200002
 20
19.29112789979999
 10
51.65757067640001
 20
19.3502140779
 10
51.55556686930001
 20
19.38897068679998
 10
51.44546164289997
 20
19.40843379939997
  0
LINE
  5
5FD
330
22
100
AcDbEntity
  8
SK1
100
AcDbLine
 10
56.5
 20
12.0
 30
0.0
 11
56.5
 21
19.0
 31
0.0
  0
LINE
  5
5FE
330
22
100
AcDbEntity
  8
SK1
100
AcDbLine
 10
56.5
 20
-12.0
 30
0.0
 11
56.5
 21
-19.0
 31
0.0
  0
LINE
  5
5FF
330
22
100
AcDbEntity
  8
SK1
100
AcDbLine
 10
54.5
 20
-11.0
 30
0.0
 11
54.5
 21
11.0
 31
0.0
  0
LINE
  5
602
330
22
100
AcDbEntity
  8
1
100
AcDbLine
 10
52.0
 20
-18.78999219080003
 30
0.0
 11
52.0
 21
18.7899921908
 31
0.0
  0
LINE
  5
605
330
22
100
AcDbEntity
  8
SK3
100
AcDbLine
 10
51.80000000000001
 20
11.29999999999998
 30
0.0
 11
51.80000000000001
 21
-11.30000000000001
 31
0.0
  0
LWPOLYLINE
  5
606
330
22
100
AcDbEntity
  8
SK3
100
AcDbPolyline
 90
        3
 70
     0
 43
0.0
 10
52.0
 20
-18.78999219080003
 10
51.98863453280001
 20
-18.9085168519
 10
51.9870672364
 20
-18.9127235764
  0
LINE
  5
60B
330
22
100
AcDbEntity
  8
SK3
100
AcDbLine
 10
51.95772505099998
 20
-19.01882976689998
 30
0.0
 11
51.9554717831
 21
-19.02461816050001
 31
0.0
  0
LINE
  5
60C
330
22
100
AcDbEntity
  8
SK3
100
AcDbLine
 10
51.9060888242
 20
-19.12266530360003
 30
0.0
 11
51.8372740435
 21
-19.2148203589
 31
0.0
  0
LINE
  5
60D
330
22
100
AcDbEntity
  8
SK1
100
AcDbLine
 10
56.5
 20
-19.5
 30
0.0
 11
57.0
 21
-19.0
 31
0.0
  0
LINE
  5
60E
330
22
100
AcDbEntity
  8
SK1
100
AcDbLine
 10
56.5
 20
19.5
 30
0.0
 11
57.0
 21
19.0
 31
0.0
  0
LINE
  5
60F
330
22
100
AcDbEntity
  8
SK3
100
AcDbLine
 10
51.80583915879998
 20
-11.38350386060003
 30
0.0
 11
51.80000000000001
 21
-11.30000000000001
 31
0.0
  0
LINE
  5
610
330
22
100
AcDbEntity
  8
SK3
100
AcDbLine
 10
51.80583915879998
 20
11.3835038606
 30
0.0
 11
51.80000000000001
 21
11.29999999999998
 31
0.0
  0
LINE
  5
611
330
22
100
AcDbEntity
  8
SK3
100
AcDbLine
 10
51.82221162349998
 20
11.5
 30
0.0
 11
51.80583915879998
 21
11.3835038606
 31
0.0
  0
LINE
  5
612
330
22
100
AcDbEntity
  8
SK1
100
AcDbLine
 10
56.5
 20
-12.0
 30
0.0
 11
56.75
 21
-11.75
 31
0.0
  0
LINE
  5
613
330
22
100
AcDbEntity
  8
SK3
100
AcDbLine
 10
51.8372740435
 20
-19.2148203589
 30
0.0
 11
51.8362928075
 21
-19.21589692450001
 31
0.0
  0
LINE
  5
614
330
22
100
AcDbEntity
  8
SK1
100
AcDbLine
 10
56.75
 20
11.75
 30
0.0
 11
56.5
 21
12.0
 31
0.0
  0
LWPOLYLINE
  5
615
330
22
100
AcDbEntity
  8
SK3
100
AcDbPolyline
 90
        9
 70
     0
 43
0.0
 10
52.0
 20
-11.74704540860003
 10
51.99258026860002
 20
-11.69638950080002
 10
51.98532716619999
 20
-11.64894310389999
 10
51.97813518530001
 20
-11.6061634998
 10
51.97132084829999
 20
-11.56929246750002
 10
51.96510005200003
 20
-11.5393505927
 10
51.95966916520001
 20
-11.51749898810001
 10
51.95533006399998
 20
-11.50436236040002
 10
51.95198212299999
 20
-11.5
  0
LINE
  5
620
330
22
100
AcDbEntity
  8
SK3
100
AcDbLine
 10
51.82221162349998
 20
-11.5
 30
0.0
 11
51.80583915879998
 21
-11.38350386060003
 31
0.0
  0
LINE
  5
624
330
22
100
AcDbEntity
  8
SK3
100
AcDbLine
 10
44.5
 20
5.0
 30
0.0
 11
44.5
 21
-5.0
 31
0.0
  0
LINE
  5
625
330
22
100
AcDbEntity
  8
SK3
100
AcDbLine
 10
44.0
 20
14.89999999999997
 30
0.0
 11
44.0
 21
19.5
 31
0.0
  0
LINE
  5
626
330
22
100
AcDbEntity
  8
SK3
100
AcDbLine
 10
44.0
 20
-14.9
 30
0.0
 11
44.0
 21
-19.5
 31
0.0
  0
LINE
  5
627
330
22
100
AcDbEntity
  8
SK3
100
AcDbLine
 10
42.25
 20
11.5
 30
0.0
 11
42.25
 21
14.89999999999997
 31
0.0
  0
LINE
  5
628
330
22
100
AcDbEntity
  8
SK3
100
AcDbLine
 10
42.25
 20
-11.5
 30
0.0
 11
42.25
 21
-14.9
 31
0.0
  0
LINE
  5
629
330
22
100
AcDbEntity
  8
SK3
100
AcDbLine
 10
42.0
 20
11.25
 30
0.0
 11
42.0
 21
2.799999999999982
 31
0.0
  0
LINE
  5
62A
330
22
100
AcDbEntity
  8
SK3
100
AcDbLine
 10
42.0
 20
-2.800000000000011
 30
0.0
 11
42.0
 21
-11.25
 31
0.0
  0
LINE
  5
62B
330
22
100
AcDbEntity
  8
SK3
100
AcDbLine
 10
41.65
 20
10.89999999999998
 30
0.0
 11
41.65
 21
3.75
 31
0.0
  0
LINE
  5
62C
330
22
100
AcDbEntity
  8
SK3
100
AcDbLine
 10
41.65
 20
-3.75
 30
0.0
 11
41.65
 21
-10.9
 31
0.0
  0
LINE
  5
634
330
22
100
AcDbEntity
  8
SK4
100
AcDbLine
 10
40.0
 20
-22.27397170289311
 30
0.0
 11
40.0
 21
-0.3674916481000139
 31
0.0
  0
LINE
  5
635
330
22
100
AcDbEntity
  8
SK4
100
AcDbLine
 10
40.0
 20
2.029492530999988
 30
0.0
 11
40.0
 21
23.5957995936098
 31
0.0
  0
LINE
  5
636
330
22
100
AcDbEntity
  8
SK3
100
AcDbLine
 10
38.34999999999999
 20
10.89999999999998
 30
0.0
 11
38.34999999999999
 21
3.75
 31
0.0
  0
LINE
  5
637
330
22
100
AcDbEntity
  8
SK3
100
AcDbLine
 10
38.34999999999999
 20
-3.75
 30
0.0
 11
38.34999999999999
 21
-10.9
 31
0.0
  0
LINE
  5
638
330
22
100
AcDbEntity
  8
SK3
100
AcDbLine
 10
38.0
 20
11.25000000000005
 30
0.0
 11
38.0
 21
2.799999999999982
 31
0.0
  0
LINE
  5
639
330
22
100
AcDbEntity
  8
SK3
100
AcDbLine
 10
38.0
 20
-2.799999999999926
 30
0.0
 11
38.0
 21
-11.25
 31
0.0
  0
LINE
  5
63A
330
22
100
AcDbEntity
  8
SK3
100
AcDbLine
 10
37.75
 20
11.5
 30
0.0
 11
37.75
 21
14.89999999999997
 31
0.0
  0
LINE
  5
63B
330
22
100
AcDbEntity
  8
SK3
100
AcDbLine
 10
37.75
 20
-11.5
 30
0.0
 11
37.75
 21
-14.89999999999992
 31
0.0
  0
LINE
  5
63C
330
22
100
AcDbEntity
  8
SK3
100
AcDbLine
 10
37.0
 20
-3.75
 30
0.0
 11
37.0
 21
3.75
 31
0.0
  0
LINE
  5
63F
330
22
100
AcDbEntity
  8
SK3
100
AcDbLine
 10
36.0
 20
14.89999999999997
 30
0.0
 11
36.0
 21
19.50000000000006
 31
0.0
  0
LINE
  5
640
330
22
100
AcDbEntity
  8
SK3
100
AcDbLine
 10
36.0
 20
-14.89999999999992
 30
0.0
 11
36.0
 21
-19.5
 31
0.0
  0
LWPOLYLINE
  5
641
330
22
100
AcDbEntity
  8
SK3
100
AcDbPolyline
 90
        9
 70
     0
 43
0.0
 10
51.95198212299999
 20
11.5
 10
51.95533006399998
 20
11.50436236029998
 10
51.95966916520001
 20
11.51749898810001
 10
51.96510005200003
 20
11.53935059259996
 10
51.97132084829999
 20
11.56929246750007
 10
51.97813518530001
 20
11.60616349979997
 10
51.98532716619999
 20
11.64894310389999
 10
51.99258026860002
 20
11.69638950069998
 10
52.0
 20
11.74704540860006
  0
LINE
  5
64C
330
22
100
AcDbEntity
  8
SK3
100
AcDbLine
 10
38.34999999999999
 20
-10.9
 30
0.0
 11
37.75
 21
-11.5
 31
0.0
  0
LINE
  5
64D
330
22
100
AcDbEntity
  8
SK1
100
AcDbLine
 10
56.5
 20
11.5
 30
0.0
 11
57.0
 21
12.0
 31
0.0
  0
LINE
  5
64E
330
22
100
AcDbEntity
  8
1
100
AcDbLine
 10
17.5
 20
31.77499999999998
 30
0.0
 11
14.3475
 21
31.77499999999998
 31
0.0
  0
LINE
  5
64F
330
22
100
AcDbEntity
  8
1
100
AcDbLine
 10
7.852499999999992
 20
31.77499999999998
 30
0.0
 11
4.799999999999982
 21
31.77499999999998
 31
0.0
  0
LINE
  5
652
330
22
100
AcDbEntity
  8
SK3
100
AcDbLine
 10
37.75
 20
11.5
 30
0.0
 11
38.34999999999999
 21
10.89999999999998
 31
0.0
  0
LINE
  5
653
330
22
100
AcDbEntity
  8
SK1
100
AcDbLine
 10
56.5
 20
-11.5
 30
0.0
 11
57.0
 21
-12.0
 31
0.0
  0
LINE
  5
655
330
22
100
AcDbEntity
  8
SK3
100
AcDbLine
 10
30.5
 20
12.0
 30
0.0
 11
30.5
 21
19.0
 31
0.0
  0
LINE
  5
656
330
22
100
AcDbEntity
  8
SK3
100
AcDbLine
 10
30.5
 20
21.63373860180008
 30
0.0
 11
30.5
 21
11.80000000000007
 31
0.0
  0
LINE
  5
657
330
22
100
AcDbEntity
  8
SK3
100
AcDbLine
 10
30.5
 20
-12.0
 30
0.0
 11
30.5
 21
-19.0
 31
0.0
  0
LINE
  5
658
330
22
100
AcDbEntity
  8
SK3
100
AcDbLine
 10
30.5
 20
-11.80000000000001
 30
0.0
 11
30.5
 21
-21.63373860180002
 31
0.0
  0
LINE
  5
659
330
22
100
AcDbEntity
  8
SK3
100
AcDbLine
 10
37.0
 20
3.75
 30
0.0
 11
34.74677267869998
 21
0.0
 31
0.0
  0
LINE
  5
65A
330
22
100
AcDbEntity
  8
SK3
100
AcDbLine
 10
31.0
 20
-11.5
 30
0.0
 11
30.5
 21
-12.0
 31
0.0
  0
LINE
  5
65B
330
22
100
AcDbEntity
  8
SK1
100
AcDbLine
 10
56.75
 20
19.25
 30
0.0
 11
56.5
 21
19.0
 31
0.0
  0
LWPOLYLINE
  5
65C
330
22
100
AcDbEntity
  8
1
100
AcDbPolyline
 90
       15
 70
     0
 43
0.0
 10
30.52239001770002
 20
-21.62706312150001
 10
30.71283006250002
 20
-21.56878735630002
 10
30.88381117910001
 20
-21.51898697600001
 10
31.09692564489999
 20
-21.4579541228
 10
31.35050296980001
 20
-21.38796069540001
 10
31.64104048559997
 20
-21.31118022220002
 10
31.96662715739999
 20
-21.22955038830003
 10
32.32589452439999
 20
-21.14496518390001
 10
32.7159651353
 20
-21.05972922220002
 10
33.13487748379998
 20
-20.97598877300001
 10
33.5780066177
 20
-20.89611285630002
 10
34.04086484770002
 20
-20.82267871060003
 10
34.51879130379999
 20
-20.75720795130002
 10
35.0066878941
 20
-20.70237886009991
 10
35.5
 20
-20.65729867630003
  0
LINE
  5
66D
330
22
100
AcDbEntity
  8
1
100
AcDbLine
 10
30.5
 20
-21.63373860180002
 30
0.0
 11
30.52239001770002
 21
-21.62706312150001
 31
0.0
  0
LWPOLYLINE
  5
66F
330
22
100
AcDbEntity
  8
SK3
100
AcDbPolyline
 90
       13
 70
     0
 43
0.0
 10
4.800000116600017
 20
25.83409810690009
 10
4.610057936999993
 20
25.82080116479998
 10
4.422448341600016
 20
25.77850389790001
 10
4.235596676699998
 20
25.70735346550009
 10
4.054226903699998
 20
25.6069083898
 10
3.881218452599995
 20
25.4761132757001
 10
3.720530263699998
 20
25.31695703549997
 10
3.576365559500004
 20
25.1311203123
 10
3.450870924299977
 20
24.91847251840008
 10
3.346007598699998
 20
24.67730948669998
 10
3.266534836099992
 20
24.41403259849997
 10
3.218542261500004
 20
24.13520434540007
 10
3.199999999999988
 20
23.83863723029998
  0
LINE
  5
67E
330
22
100
AcDbEntity
  8
1
100
AcDbLine
 10
9.724999999999994
 20
28.125
 30
0.0
 11
12.47499999999999
 21
28.125
 31
0.0
  0
LINE
  5
67F
330
22
100
AcDbEntity
  8
SK3
100
AcDbLine
 10
17.5000000014
 20
25.83409810690009
 30
0.0
 11
14.3475
 21
25.83409810690009
 31
0.0
  0
LINE
  5
680
330
22
100
AcDbEntity
  8
SK3
100
AcDbLine
 10
7.852499999999992
 20
25.83409810690009
 30
0.0
 11
4.800000116600017
 21
25.83409810690009
 31
0.0
  0
LWPOLYLINE
  5
685
330
22
100
AcDbEntity
  8
1
100
AcDbPolyline
 90
        3
 70
     0
 43
0.0
 10
30.7126649846
 20
21.56882504419997
 10
30.52233356149998
 20
21.62709616539999
 10
30.5
 20
21.63373860180008
  0
LINE
  5
68C
330
22
100
AcDbEntity
  8
SK3
100
AcDbLine
 10
31.0
 20
11.5
 30
0.0
 11
30.5
 21
12.0
 31
0.0
  0
LINE
  5
68D
330
22
100
AcDbEntity
  8
SK1
100
AcDbLine
 10
56.5
 20
-19.0
 30
0.0
 11
56.75
 21
-19.25
 31
0.0
  0
LINE
  5
68E
330
22
100
AcDbEntity
  8
SK3
100
AcDbLine
 10
37.0
 20
-3.75
 30
0.0
 11
34.74677267869998
 21
0.0
 31
0.0
  0
LINE
  5
68F
330
22
100
AcDbEntity
  8
1
100
AcDbLine
 10
7.852499999999992
 20
-31.77500000000001
 30
0.0
 11
9.224999999999994
 21
-29.39776026660002
 31
0.0
  0
LINE
  5
690
330
22
100
AcDbEntity
  8
SK3
100
AcDbLine
 10
42.25
 20
11.5
 30
0.0
 11
41.65
 21
10.89999999999998
 31
0.0
  0
LINE
  5
691
330
22
100
AcDbEntity
  8
1
100
AcDbLine
 10
-0.8000000000000113
 20
22.10829262150008
 30
0.0
 11
-67.37322744119999
 21
12.39630905529998
 31
0.0
  0
LINE
  5
692
330
22
100
AcDbEntity
  8
1
100
AcDbLine
 10
0.3196152422999887
 20
21.80829262150002
 30
0.0
 11
2.409731931300001
 21
21.80829262150002
 31
0.0
  0
LINE
  5
693
330
22
100
AcDbEntity
  8
SK3
100
AcDbLine
 10
9.724999999999994
 20
21.18408895840005
 30
0.0
 11
12.47499999999999
 21
21.18408895840005
 31
0.0
  0
LINE
  5
694
330
22
100
AcDbEntity
  8
1
100
AcDbLine
 10
30.5
 20
21.63373860180008
 30
0.0
 11
20.0242305953
 21
22.42976971160008
 31
0.0
  0
LINE
  5
695
330
22
100
AcDbEntity
  8
1
100
AcDbLine
 10
40.8599689259
 20
20.2380051089001
 30
0.0
 11
35.5
 21
20.65729867619999
 31
0.0
  0
LINE
  5
696
330
22
100
AcDbEntity
  8
1
100
AcDbLine
 10
51.44546164289997
 20
19.40843379939997
 30
0.0
 11
40.8599689259
 21
20.2380051089001
 31
0.0
  0
LWPOLYLINE
  5
697
330
22
100
AcDbEntity
  8
1
100
AcDbPolyline
 90
       14
 70
     0
 43
0.0
 10
35.5
 20
20.65729867619999
 10
35.00666859059999
 20
20.70237893849998
 10
34.5186768703
 20
20.75722229580009
 10
34.04055737210001
 20
20.82272600009998
 10
33.5775034722
 20
20.89619829540007
 10
33.13426101050001
 20
20.97610577770007
 10
32.71529062719998
 20
21.05987064220008
 10
32.32519433700003
 20
21.1451231905001
 10
31.96598929219999
 20
21.22970569979998
 10
31.6406241105
 20
21.31128926229999
 10
31.35029221709999
 20
21.38801773499998
 10
31.09681649950002
 20
21.4579876025
 10
30.88372487809997
 20
21.51901207310002
 10
30.7126649846
 20
21.56882504419997
  0
LWPOLYLINE
  5
6A7
330
22
100
AcDbEntity
  8
SK3
100
AcDbPolyline
 90
       11
 70
     0
 43
0.0
 10
9.724999999999994
 20
21.18408895840005
 10
9.6471737098
 20
21.19244024119999
 10
9.573227067499999
 20
21.21540026189999
 10
9.502484773800006
 20
21.25346841830009
 10
9.4369727264
 20
21.30514651759998
 10
9.378173906799986
 20
21.3692942396001
 10
9.327041762800007
 20
21.44533736520001
 10
9.284405660700002
 20
21.53322266270007
 10
9.252120825799977
 20
21.63024685029999
 10
9.232585399000015
 20
21.73334877410005
 10
9.224999999999994
 20
21.84354881880009
  0
LINE
  5
6B4
330
22
100
AcDbEntity
  8
1
100
AcDbLine
 10
-0.8000000000000113
 20
22.10829262150008
 30
0.0
 11
0.3196152422999887
 21
21.80829262150002
 31
0.0
  0
LINE
  5
6B5
330
22
100
AcDbEntity
  8
SK3
100
AcDbLine
 10
41.65
 20
-10.9
 30
0.0
 11
42.25
 21
-11.5
 31
0.0
  0
LINE
  5
6B6
330
22
100
AcDbEntity
  8
1
100
AcDbLine
 10
7.852499999999992
 20
31.77499999999998
 30
0.0
 11
9.224999999999994
 21
29.39776026659999
 31
0.0
  0
LWPOLYLINE
  5
6B7
330
22
100
AcDbEntity
  8
SK3
100
AcDbPolyline
 90
       13
 70
     0
 43
0.0
 10
19.09999999999999
 20
23.83863723029998
 10
19.08143234919998
 20
24.13450835669997
 10
19.0339050492
 20
24.41217573830002
 10
18.95540256520002
 20
24.67362675669998
 10
18.85197150159999
 20
24.91289926749999
 10
18.72838182570001
 20
25.12412304009996
 10
18.58644791430001
 20
25.30900971509996
 10
18.42879814189999
 20
25.4677064253001
 10
18.25776048289998
 20
25.59903646320009
 10
18.07497504049999
 20
25.70213388410008
 10
17.88513380189999
 20
25.77621353309999
 10
17.6941302916
 20
25.82006738210009
 10
17.5000000014
 20
25.83409810690009
  0
LWPOLYLINE
  5
6C6
330
22
100
AcDbEntity
  8
1
100
AcDbPolyline
 90
        9
 70
     0
 43
0.0
 10
19.09999999999999
 20
5.383253014600086
 10
19.15890378509999
 20
4.053521607299984
 10
19.21535406200002
 20
2.711200245400078
 10
19.28199471149997
 20
1.352780030299982
 10
19.32089409119999
 20
-0.0112123424999311
 10
19.28134717009999
 20
-1.373714979500022
 10
19.21431799579997
 20
-2.727842373100031
 10
19.15812673549999
 20
-4.063200117500002
 10
19.09999999999999
 20
-5.383253014600001
  0
LINE
  5
6D1
330
22
100
AcDbEntity
  8
1
100
AcDbLine
 10
19.09999999999999
 20
30.17466274709998
 30
0.0
 11
19.09999999999999
 21
5.383253014600086
 31
0.0
  0
LINE
  5
6D3
330
22
100
AcDbEntity
  8
1
100
AcDbLine
 10
19.09999999999999
 20
-5.383253014600001
 30
0.0
 11
19.09999999999999
 21
-30.17461278610003
 31
0.0
  0
LINE
  5
6D4
330
22
100
AcDbEntity
  8
SK3
100
AcDbLine
 10
38.43138727889999
 20
-3.714908594999997
 30
0.0
 11
38.34999999999999
 21
-3.75
 31
0.0
  0
LINE
  5
6D5
330
22
100
AcDbEntity
  8
SK3
100
AcDbLine
 10
38.37104761680001
 20
-3.74084334080004
 30
0.0
 11
38.43180617659999
 21
-3.714731735700013
 31
0.0
  0
LINE
  5
6D6
330
22
100
AcDbEntity
  8
SK3
100
AcDbLine
 10
38.43138727889999
 20
-3.714908594999997
 30
0.0
 11
38.53431477289999
 21
-3.672962511400015
 31
0.0
  0
LINE
  5
6D7
330
22
100
AcDbEntity
  8
SK3
100
AcDbLine
 10
38.67245612529999
 20
-3.619719980800027
 30
0.0
 11
38.53297865180002
 21
-3.673428166300027
 31
0.0
  0
LINE
  5
6D8
330
22
100
AcDbEntity
  8
SK3
100
AcDbLine
 10
38.67039745200001
 20
-3.62047551240002
 30
0.0
 11
38.84216226250001
 21
-3.560964131100007
 31
0.0
  0
LINE
  5
6D9
330
22
100
AcDbEntity
  8
SK3
100
AcDbLine
 10
31.00012265680002
 20
19.50000000000006
 30
0.0
 11
50.2781621819
 21
19.5
 31
0.0
  0
LINE
  5
6DA
330
22
100
AcDbEntity
  8
SK1
100
AcDbLine
 10
50.2781621819
 20
19.5
 30
0.0
 11
56.5
 21
19.5
 31
0.0
  0
LINE
  5
6DB
330
22
100
AcDbEntity
  8
SK1
100
AcDbLine
 10
51.96300111029998
 20
19.0
 30
0.0
 11
56.5
 21
19.0
 31
0.0
  0
LINE
  5
6DC
330
22
100
AcDbEntity
  8
SK3
100
AcDbLine
 10
51.96300111029998
 20
19.0
 30
0.0
 11
30.5
 21
19.0
 31
0.0
  0
LINE
  5
6DD
330
22
100
AcDbEntity
  8
SK3
100
AcDbLine
 10
19.09999999999999
 20
18.5
 30
0.0
 11
3.199999999999988
 21
18.5
 31
0.0
  0
LINE
  5
6DE
330
22
100
AcDbEntity
  8
SK3
100
AcDbLine
 10
44.0
 20
14.89999999999997
 30
0.0
 11
36.0
 21
14.89999999999997
 31
0.0
  0
LINE
  5
6E0
330
22
100
AcDbEntity
  8
SK3
100
AcDbLine
 10
38.57409908829999
 20
3.65693770930008
 30
0.0
 11
38.69535574610001
 21
3.611352161899986
 31
0.0
  0
LINE
  5
6E1
330
22
100
AcDbEntity
  8
SK3
100
AcDbLine
 10
38.57409908829999
 20
3.65693770930008
 30
0.0
 11
38.43229992899998
 21
3.714523322400083
 31
0.0
  0
LINE
  5
6E2
330
22
100
AcDbEntity
  8
SK3
100
AcDbLine
 10
38.40563942879999
 20
3.725853678100065
 30
0.0
 11
38.4768067368
 21
3.696211672999993
 31
0.0
  0
LINE
  5
6E3
330
22
100
AcDbEntity
  8
SK3
100
AcDbLine
 10
38.43229992899998
 20
3.714523322400083
 30
0.0
 11
38.34999999999999
 21
3.75
 31
0.0
  0
LINE
  5
6E4
330
22
100
AcDbEntity
  8
SK3
100
AcDbLine
 10
38.34999999999999
 20
3.75
 30
0.0
 11
38.3637171856
 21
3.743856085400068
 31
0.0
  0
LWPOLYLINE
  5
6E5
330
22
100
AcDbEntity
  8
SK3
100
AcDbPolyline
 90
        7
 70
     0
 43
0.0
 10
9.224999999999994
 20
22.84684461130002
 10
9.008167479099995
 20
23.32811758819997
 10
8.786587492400002
 20
23.81599178639999
 10
8.560278345099987
 20
24.31042987369997
 10
8.329185121199998
 20
24.81154384680008
 10
8.093252904299987
 20
25.31944570189998
 10
7.852499999999992
 20
25.83409810690009
  0
LINE
  5
6EE
330
22
100
AcDbEntity
  8
1
100
AcDbLine
 10
14.3475
 20
31.77499999999998
 30
0.0
 11
14.3475
 21
8.049999999999982
 31
0.0
  0
LINE
  5
6EF
330
22
100
AcDbEntity
  8
1
100
AcDbLine
 10
14.3475
 20
-8.050000000000011
 30
0.0
 11
14.3475
 21
-31.77500000000001
 31
0.0
  0
LINE
  5
6F0
330
22
100
AcDbEntity
  8
1
100
AcDbLine
 10
12.97499999999999
 20
-29.39776026660002
 30
0.0
 11
12.97499999999999
 21
-8.050000000000011
 31
0.0
  0
LINE
  5
6F1
330
22
100
AcDbEntity
  8
1
100
AcDbLine
 10
12.97499999999999
 20
8.049999999999982
 30
0.0
 11
12.97499999999999
 21
29.39739617529998
 31
0.0
  0
LWPOLYLINE
  5
6F2
330
22
100
AcDbEntity
  8
SK3
100
AcDbPolyline
 90
       11
 70
     0
 43
0.0
 10
12.97499999999999
 20
21.84354881880009
 10
12.96738765489999
 20
21.73318201639998
 10
12.9478027216
 20
21.62995420370009
 10
12.91543481779999
 20
21.53283966360007
 10
12.87271509019999
 20
21.44491554709998
 10
12.8215289396
 20
21.36891249990009
 10
12.7627032206
 20
21.3048443205
 10
12.69719407999997
 20
21.25325973999998
 10
12.6264990427
 20
21.21528460669998
 10
12.55266137949999
 20
21.19239127439997
 10
12.47499999999999
 20
21.18408895840005
  0
LINE
  5
6FF
330
22
100
AcDbEntity
  8
SK3
100
AcDbLine
 10
41.65
 20
3.75
 30
0.0
 11
41.56861272119999
 21
3.714908594999997
 31
0.0
  0
LWPOLYLINE
  5
700
330
22
100
AcDbEntity
  8
SK3
100
AcDbPolyline
 90
        3
 70
     0
 43
0.0
 10
41.46568522719997
 20
3.672962511300084
 10
41.56819382340001
 20
3.714731735599997
 10
41.62895238320001
 20
3.740843340800097
  0
LINE
  5
705
330
22
100
AcDbEntity
  8
SK3
100
AcDbLine
 10
41.4670213482
 20
3.673428166300084
 30
0.0
 11
41.32754387469998
 21
3.619719980800084
 31
0.0
  0
LINE
  5
706
330
22
100
AcDbEntity
  8
SK3
100
AcDbLine
 10
41.15783773750002
 20
3.560964130999963
 30
0.0
 11
41.32960254809998
 21
3.620475512400076
 31
0.0
  0
LINE
  5
707
330
22
100
AcDbEntity
  8
SK3
100
AcDbLine
 10
39.03840414820002
 20
-3.502094599300022
 30
0.0
 11
38.84044992039998
 21
-3.561580324700031
 31
0.0
  0
LINE
  5
708
330
22
100
AcDbEntity
  8
SK1
100
AcDbLine
 10
52.0
 20
12.0
 30
0.0
 11
56.5
 21
12.0
 31
0.0
  0
LINE
  5
709
330
22
100
AcDbEntity
  8
SK3
100
AcDbLine
 10
52.0
 20
12.0
 30
0.0
 11
30.5
 21
12.0
 31
0.0
  0
LINE
  5
70A
330
22
100
AcDbEntity
  8
SK3
100
AcDbLine
 10
30.9178388128
 20
11.5
 30
0.0
 11
51.95198212299999
 21
11.5
 31
0.0
  0
LINE
  5
70B
330
22
100
AcDbEntity
  8
SK3
100
AcDbLine
 10
31.00012265680002
 20
11.5
 30
0.0
 11
52.0
 21
11.5
 31
0.0
  0
LINE
  5
70C
330
22
100
AcDbEntity
  8
SK1
100
AcDbLine
 10
52.0
 20
11.5
 30
0.0
 11
56.5
 21
11.5
 31
0.0
  0
LINE
  5
70D
330
22
100
AcDbEntity
  8
SK3
100
AcDbLine
 10
38.0
 20
11.25000000000005
 30
0.0
 11
42.0
 21
11.25
 31
0.0
  0
LINE
  5
70E
330
22
100
AcDbEntity
  8
SK1
100
AcDbLine
 10
68.0
 20
11.0
 30
0.0
 11
54.5
 21
11.0
 31
0.0
  0
LINE
  5
70F
330
22
100
AcDbEntity
  8
SK1
100
AcDbLine
 10
69.40000000000001
 20
10.97
 30
0.0
 11
68.0
 21
10.97
 31
0.0
  0
LINE
  5
710
330
22
100
AcDbEntity
  8
SK3
100
AcDbLine
 10
38.34999999999999
 20
10.89999999999998
 30
0.0
 11
41.65
 21
10.89999999999998
 31
0.0
  0
LINE
  5
711
330
22
100
AcDbEntity
  8
SK1
100
AcDbLine
 10
53.30139325919998
 20
10.69999999999999
 30
0.0
 11
52.40000000000001
 21
10.69999999999999
 31
0.0
  0
LWPOLYLINE
  5
71B
330
22
100
AcDbEntity
  8
SK3
100
AcDbPolyline
 90
        7
 70
     0
 43
0.0
 10
38.83873886559999
 20
3.562095931100003
 10
39.00305380259999
 20
3.512067132300103
 10
39.18421021879999
 20
3.464897252000071
 10
39.37946184789999
 20
3.424390849799976
 10
39.58358182930002
 20
3.393140741699966
 10
39.78966009460001
 20
3.373994934399973
 10
40.0
 20
3.36749164810007
  0
LINE
  5
724
330
22
100
AcDbEntity
  8
SK3
100
AcDbLine
 10
41.30464425399998
 20
-3.611352161899986
 30
0.0
 11
41.42590091179999
 21
-3.656937709399983
 31
0.0
  0
LWPOLYLINE
  5
725
330
22
100
AcDbEntity
  8
SK3
100
AcDbPolyline
 90
        8
 70
     0
 43
0.0
 10
41.46496640169999
 20
-3.672656726300033
 10
41.3266456645
 20
-3.619390655800032
 10
41.1568239675
 20
-3.560637153100032
 10
40.95964919219997
 20
-3.501560590999986
 10
40.73800803149999
 20
-3.447695122599981
 10
40.49977015989997
 20
-3.404375157499998
 10
40.25487147090001
 20
-3.377288235200012
 10
40.0
 20
-3.367491648100013
  0
LINE
  5
72F
330
22
100
AcDbEntity
  8
SK3
100
AcDbLine
 10
41.5677000711
 20
-3.714523322400026
 30
0.0
 11
41.42590091179999
 21
-3.656937709399983
 31
0.0
  0
LINE
  5
730
330
22
100
AcDbEntity
  8
SK3
100
AcDbLine
 10
41.52319326329998
 20
-3.696211673100037
 30
0.0
 11
41.59436057119998
 21
-3.725853678199996
 31
0.0
  0
LINE
  5
731
330
22
100
AcDbEntity
  8
SK3
100
AcDbLine
 10
41.65
 20
-3.75
 30
0.0
 11
41.5677000711
 21
-3.714523322400026
 31
0.0
  0
LINE
  5
733
330
22
100
AcDbEntity
  8
SK3
100
AcDbLine
 10
41.63628281450002
 20
-3.743856085499999
 30
0.0
 11
41.65
 21
-3.75
 31
0.0
  0
LINE
  5
734
330
22
100
AcDbEntity
  8
1
100
AcDbLine
 10
9.224999999999994
 20
29.39739617529998
 30
0.0
 11
9.224999999999994
 21
8.049999999999982
 31
0.0
  0
LINE
  5
735
330
22
100
AcDbEntity
  8
1
100
AcDbLine
 10
9.224999999999994
 20
-8.050000000000011
 30
0.0
 11
9.224999999999994
 21
-29.39776026660002
 31
0.0
  0
LINE
  5
736
330
22
100
AcDbEntity
  8
1
100
AcDbLine
 10
7.852499999999992
 20
-31.77500000000001
 30
0.0
 11
7.852499999999992
 21
-8.050000000000011
 31
0.0
  0
LINE
  5
737
330
22
100
AcDbEntity
  8
1
100
AcDbLine
 10
7.852499999999992
 20
8.049999999999982
 30
0.0
 11
7.852499999999992
 21
31.77499999999998
 31
0.0
  0
LINE
  5
739
330
22
100
AcDbEntity
  8
SK3
100
AcDbLine
 10
30.5
 20
19.0
 30
0.0
 11
31.0
 21
19.50000000000006
 31
0.0
  0
LINE
  5
73B
330
22
100
AcDbEntity
  8
SK3
100
AcDbLine
 10
41.15955007969998
 20
3.561580324599987
 30
0.0
 11
40.96159585180001
 21
3.502094599199978
 31
0.0
  0
LINE
  5
73E
330
22
100
AcDbEntity
  8
SK3
100
AcDbLine
 10
-60.19999999999996
 20
8.5
 30
0.0
 11
-67.39999999999999
 21
8.5
 31
0.0
  0
LINE
  5
73F
330
22
100
AcDbEntity
  8
1
100
AcDbLine
 10
19.09999999999999
 20
8.049999999999982
 30
0.0
 11
3.199999999999988
 21
8.049999999999982
 31
0.0
  0
LINE
  5
740
330
22
100
AcDbEntity
  8
SK3
100
AcDbLine
 10
-36.20000000000002
 20
8.0
 30
0.0
 11
-60.19999999999996
 21
8.0
 31
0.0
  0
LINE
  5
741
330
22
100
AcDbEntity
  8
SK3
100
AcDbLine
 10
-25.40000000000001
 20
6.920000000000072
 30
0.0
 11
-60.19999999999996
 21
6.920000000000072
 31
0.0
  0
LINE
  5
742
330
22
100
AcDbEntity
  8
SK3
100
AcDbLine
 10
70.0
 20
5.25
 30
0.0
 11
67.38840589200001
 21
5.25
 31
0.0
  0
LINE
  5
743
330
22
100
AcDbEntity
  8
SK3
100
AcDbLine
 10
67.38840589200001
 20
5.25
 30
0.0
 11
66.5
 21
5.25
 31
0.0
  0
LINE
  5
744
330
22
100
AcDbEntity
  8
SK3
100
AcDbLine
 10
44.5
 20
5.0
 30
0.0
 11
66.5
 21
5.0
 31
0.0
  0
LWPOLYLINE
  5
748
330
22
100
AcDbEntity
  8
SK3
100
AcDbPolyline
 90
        8
 70
     0
 43
0.0
 10
40.0
 20
3.36749164810007
 10
39.74512852919998
 20
3.377288235200069
 10
39.50022984020001
 20
3.404375157400096
 10
39.2619919686
 20
3.447695122500078
 10
39.04035080789999
 20
3.501560590899998
 10
38.84317603259999
 20
3.560637153100003
 10
38.67335433559998
 20
3.619390655699987
 10
38.53503359829998
 20
3.67265672630009
  0
LINE
  5
752
330
22
100
AcDbEntity
  8
SK3
100
AcDbLine
 10
30.5
 20
-19.0
 30
0.0
 11
31.0
 21
-19.5
 31
0.0
  0
LWPOLYLINE
  5
755
330
22
100
AcDbEntity
  8
1
100
AcDbPolyline
 90
        7
 70
     0
 43
0.0
 10
3.29497212199999
 20
6.449999999999988
 10
3.2860181721
 20
6.639122134699988
 10
3.274204496500004
 20
6.825496046899985
 10
3.259428128699994
 20
7.006286915800075
 10
3.241997968100008
 20
7.179664254700071
 10
3.222222914000013
 20
7.343754918400065
 10
3.199999999999988
 20
7.495841385999966
  0
LWPOLYLINE
  5
75E
330
22
100
AcDbEntity
  8
1
100
AcDbPolyline
 90
        7
 70
     0
 43
0.0
 10
3.29497156779999
 20
6.449999999999988
 10
3.318343125500007
 20
5.810198477900087
 10
3.339392762800002
 20
5.169527723900102
 10
3.358143736100004
 20
4.528038442299987
 10
3.374526276599993
 20
3.885578520299986
 10
3.388470615500011
 20
3.241995844799987
 10
3.400000008999995
 20
2.597341120199985
  0
LINE
  5
767
330
22
100
AcDbEntity
  8
1
100
AcDbLine
 10
3.407273163699983
 20
1.298670408399999
 30
0.0
 11
3.400000008999995
 21
2.597341120199985
 31
0.0
  0
LINE
  5
769
330
22
100
AcDbEntity
  8
1
100
AcDbLine
 10
3.40966706719999
 20
-0.1456138011999144
 30
0.0
 11
3.407273163699983
 21
1.298670408399999
 31
0.0
  0
LINE
  5
76A
330
22
100
AcDbEntity
  8
1
100
AcDbLine
 10
3.199999999999988
 20
-30.17461278610003
 30
0.0
 11
3.199999999999988
 21
-7.495841385999909
 31
0.0
  0
LINE
  5
76C
330
22
100
AcDbEntity
  8
1
100
AcDbLine
 10
3.199999999999988
 20
7.495841385999966
 30
0.0
 11
3.199999999999988
 21
30.17466274709998
 31
0.0
  0
LWPOLYLINE
  5
76D
330
22
100
AcDbEntity
  8
1
100
AcDbPolyline
 90
        3
 70
     0
 43
0.0
 10
3.399999999299978
 20
-2.597341739000029
 10
3.407273158799995
 20
-1.298671021199936
 10
3.40966706719999
 20
-0.1456138011999144
  0
LWPOLYLINE
  5
772
330
22
100
AcDbEntity
  8
1
100
AcDbPolyline
 90
        7
 70
     0
 43
0.0
 10
3.399999999299978
 20
-2.597341739000029
 10
3.388461029399991
 20
-3.242431273199997
 10
3.374509649499998
 20
-3.88628268070002
 10
3.358121387599993
 20
-4.528852651500017
 10
3.339369659199974
 20
-5.17027111530001
 10
3.318327879500003
 20
-5.810668001400017
 10
3.294971576899996
 20
-6.450000000000017
  0
LWPOLYLINE
  5
77C
330
22
100
AcDbEntity
  8
1
100
AcDbPolyline
 90
        7
 70
     0
 43
0.0
 10
3.199999999999988
 20
-7.495841385999909
 10
3.222292069399998
 20
-7.343201569000029
 10
3.242102008599999
 20
-7.178723558400008
 10
3.259526588999989
 20
-7.005199530699997
 10
3.274275496499996
 20
-6.824519385099989
 10
3.286058416999992
 20
-6.638505095900001
 10
3.29497212199999
 20
-6.450000000000017
  0
LWPOLYLINE
  5
785
330
22
100
AcDbEntity
  8
SK3
100
AcDbPolyline
 90
        7
 70
     0
 43
0.0
 10
12.97499999999999
 20
22.84684461130002
 10
13.19183252089999
 20
23.32811758819997
 10
13.4134125077
 20
23.81599178639999
 10
13.63972165499999
 20
24.31042987369997
 10
13.8708148789
 20
24.81154384680008
 10
14.1067470957
 20
25.31944570189998
 10
14.3475
 20
25.83409810690009
  0
LINE
  5
78E
330
22
100
AcDbEntity
  8
SK1
100
AcDbLine
 10
53.30139325919998
 20
10.69999999999999
 30
0.0
 11
53.45668468629998
 21
10.72044450419997
 31
0.0
  0
LWPOLYLINE
  5
794
330
22
100
AcDbEntity
  8
SK3
100
AcDbPolyline
 90
        3
 70
     0
 43
0.0
 10
40.0
 20
3.36749164810007
 10
40.25519910959999
 20
3.377314923400064
 10
40.50037808759998
 20
3.404464455700093
  0
LINE
  5
799
330
22
100
AcDbEntity
  8
SK3
100
AcDbLine
 10
66.5
 20
3.75
 30
0.0
 11
43.23606901289998
 21
3.75
 31
0.0
  0
LINE
  5
79A
330
22
100
AcDbEntity
  8
SK3
100
AcDbLine
 10
43.23606901289998
 20
3.75
 30
0.0
 11
41.65
 21
3.75
 31
0.0
  0
LINE
  5
79B
330
22
100
AcDbEntity
  8
SK3
100
AcDbLine
 10
38.34999999999999
 20
3.75
 30
0.0
 11
37.0
 21
3.75
 31
0.0
  0
LINE
  5
79C
330
22
100
AcDbEntity
  8
SK3
100
AcDbLine
 10
38.0
 20
2.799999952300112
 30
0.0
 11
42.0
 21
2.799999952299998
 31
0.0
  0
LINE
  5
79D
330
22
100
AcDbEntity
  8
4
100
AcDbLine
 10
74.0
 20
0.0
 30
0.0
 11
-71.39999999999997
 21
0.0
 31
0.0
  0
LINE
  5
79E
330
22
100
AcDbEntity
  8
SK1
100
AcDbLine
 10
54.5
 20
-11.0
 30
0.0
 11
53.45668468629998
 21
-10.7204445042
 31
0.0
  0
LINE
  5
79F
330
22
100
AcDbEntity
  8
1
100
AcDbLine
 10
0.3196152422999887
 20
-21.80829262150002
 30
0.0
 11
0.3196152422999887
 21
21.80829262150002
 31
0.0
  0
LINE
  5
7A0
330
22
100
AcDbEntity
  8
1
100
AcDbLine
 10
-0.8000000000000113
 20
-22.10829262150003
 30
0.0
 11
-0.8000000000000113
 21
22.10829262150008
 31
0.0
  0
LINE
  5
7A1
330
22
100
AcDbEntity
  8
1
100
AcDbLine
 10
12.97499999999999
 20
29.39776026659999
 30
0.0
 11
14.3475
 21
31.77499999999998
 31
0.0
  0
LINE
  5
7A2
330
22
100
AcDbEntity
  8
SK1
100
AcDbLine
 10
54.5
 20
11.0
 30
0.0
 11
53.45668468629998
 21
10.72044450419997
 31
0.0
  0
LWPOLYLINE
  5
7A3
330
22
100
AcDbEntity
  8
SK3
100
AcDbPolyline
 90
        3
 70
     0
 43
0.0
 10
40.73887123459999
 20
3.447885286199976
 10
40.49937160289997
 20
3.404316671200092
 10
40.25432922070002
 20
3.377161664700082
  0
LINE
  5
7A8
330
22
100
AcDbEntity
  8
SK3
100
AcDbLine
 10
38.0
 20
-2.799999952299998
 30
0.0
 11
42.0
 21
-2.799999952299998
 31
0.0
  0
LINE
  5
7A9
330
22
100
AcDbEntity
  8
SK3
100
AcDbLine
 10
66.5
 20
-3.75
 30
0.0
 11
43.18789544980001
 21
-3.75
 31
0.0
  0
LINE
  5
7AA
330
22
100
AcDbEntity
  8
SK3
100
AcDbLine
 10
43.18789544980001
 20
-3.75
 30
0.0
 11
41.65
 21
-3.75
 31
0.0
  0
LINE
  5
7AB
330
22
100
AcDbEntity
  8
SK3
100
AcDbLine
 10
38.34999999999999
 20
-3.75
 30
0.0
 11
37.0
 21
-3.75
 31
0.0
  0
LINE
  5
7AC
330
22
100
AcDbEntity
  8
SK3
100
AcDbLine
 10
44.5
 20
-5.0
 30
0.0
 11
66.5
 21
-5.0
 31
0.0
  0
LINE
  5
7AD
330
22
100
AcDbEntity
  8
SK3
100
AcDbLine
 10
70.0
 20
-5.25
 30
0.0
 11
69.23575550899997
 21
-5.25
 31
0.0
  0
LINE
  5
7AE
330
22
100
AcDbEntity
  8
SK3
100
AcDbLine
 10
69.23575550899997
 20
-5.25
 30
0.0
 11
66.5
 21
-5.25
 31
0.0
  0
LWPOLYLINE
  5
7AF
330
22
100
AcDbEntity
  8
SK3
100
AcDbPolyline
 90
        7
 70
     0
 43
0.0
 10
40.0
 20
-3.367491648100013
 10
40.21033990539999
 20
-3.373994934400002
 10
40.4164181708
 20
-3.393140741699994
 10
40.62053815210001
 20
-3.424390849900021
 10
40.81578978129996
 20
-3.464897252100001
 10
40.99694619739998
 20
-3.512067132400034
 10
41.16126113439998
 20
-3.562095931100003
  0
LINE
  5
7BD
330
22
100
AcDbEntity
  8
SK1
100
AcDbLine
 10
53.30139325919998
 20
-10.70000000000002
 30
0.0
 11
53.45668468629998
 21
-10.7204445042
 31
0.0
  0
LINE
  5
7BE
330
22
100
AcDbEntity
  8
1
100
AcDbLine
 10
12.97499999999999
 20
-29.39776026660002
 30
0.0
 11
14.3475
 21
-31.77500000000001
 31
0.0
  0
LINE
  5
7BF
330
22
100
AcDbEntity
  8
SK3
100
AcDbLine
 10
40.73887123459999
 20
3.447885286199976
 30
0.0
 11
40.96067564879999
 21
3.501842044099987
 31
0.0
  0
LWPOLYLINE
  5
7C0
330
22
100
AcDbEntity
  8
SK3
100
AcDbPolyline
 90
        3
 70
     0
 43
0.0
 10
39.49962191239999
 20
-3.404464455800024
 10
39.74480089039997
 20
-3.377314923499994
 10
40.0
 20
-3.367491648100013
  0
LWPOLYLINE
  5
7C5
330
22
100
AcDbEntity
  8
SK3
100
AcDbPolyline
 90
        3
 70
     0
 43
0.0
 10
39.7456707794
 20
-3.377161664800013
 10
39.50062839719999
 20
-3.404316671200007
 10
39.26130596610003
 20
-3.44789236310001
  0
LINE
  5
7CC
330
22
100
AcDbEntity
  8
SK3
100
AcDbLine
 10
-25.40000000000001
 20
-6.920000000000015
 30
0.0
 11
-60.19999999999996
 21
-6.920000000000015
 31
0.0
  0
LINE
  5
7CD
330
22
100
AcDbEntity
  8
SK3
100
AcDbLine
 10
-36.20000000000002
 20
-8.0
 30
0.0
 11
-60.19999999999996
 21
-8.0
 31
0.0
  0
LINE
  5
7CE
330
22
100
AcDbEntity
  8
1
100
AcDbLine
 10
19.09999999999999
 20
-8.050000000000011
 30
0.0
 11
3.199999999999988
 21
-8.050000000000011
 31
0.0
  0
LINE
  5
7CF
330
22
100
AcDbEntity
  8
SK3
100
AcDbLine
 10
-60.19999999999996
 20
-8.5
 30
0.0
 11
-67.39999999999999
 21
-8.5
 31
0.0
  0
LINE
  5
7D0
330
22
100
AcDbEntity
  8
SK1
100
AcDbLine
 10
53.30139325919998
 20
-10.70000000000002
 30
0.0
 11
52.40000000000001
 21
-10.70000000000002
 31
0.0
  0
LINE
  5
7D1
330
22
100
AcDbEntity
  8
SK3
100
AcDbLine
 10
39.03932435129997
 20
-3.501842044200003
 30
0.0
 11
39.26112876549999
 21
-3.447885286200005
 31
0.0
  0
LINE
  5
7D5
330
22
100
AcDbEntity
  8
SK3
100
AcDbLine
 10
38.34999999999999
 20
-10.9
 30
0.0
 11
41.65
 21
-10.9
 31
0.0
  0
LINE
  5
7D6
330
22
100
AcDbEntity
  8
SK1
100
AcDbLine
 10
69.40000000000001
 20
-10.97
 30
0.0
 11
68.0
 21
-10.97
 31
0.0
  0
LINE
  5
7D7
330
22
100
AcDbEntity
  8
SK1
100
AcDbLine
 10
68.0
 20
-11.0
 30
0.0
 11
54.5
 21
-11.0
 31
0.0
  0
LINE
  5
7D8
330
22
100
AcDbEntity
  8
SK3
100
AcDbLine
 10
38.0
 20
-11.25
 30
0.0
 11
42.0
 21
-11.25
 31
0.0
  0
LINE
  5
7D9
330
22
100
AcDbEntity
  8
SK3
100
AcDbLine
 10
30.9178388128
 20
-11.5
 30
0.0
 11
51.95198212299999
 21
-11.5
 31
0.0
  0
LINE
  5
7DA
330
22
100
AcDbEntity
  8
SK1
100
AcDbLine
 10
56.5
 20
-11.5
 30
0.0
 11
52.0
 21
-11.5
 31
0.0
  0
LINE
  5
7DB
330
22
100
AcDbEntity
  8
SK3
100
AcDbLine
 10
52.0
 20
-11.5
 30
0.0
 11
31.00012265680002
 21
-11.5
 31
0.0
  0
LINE
  5
7DC
330
22
100
AcDbEntity
  8
SK3
100
AcDbLine
 10
30.5
 20
-12.0
 30
0.0
 11
52.0
 21
-12.0
 31
0.0
  0
LINE
  5
7DD
330
22
100
AcDbEntity
  8
SK1
100
AcDbLine
 10
56.5
 20
-12.0
 30
0.0
 11
52.0
 21
-12.0
 31
0.0
  0
LINE
  5
7DE
330
22
100
AcDbEntity
  8
SK3
100
AcDbLine
 10
44.0
 20
-14.9
 30
0.0
 11
36.0
 21
-14.89999999999992
 31
0.0
  0
LINE
  5
7DF
330
22
100
AcDbEntity
  8
SK3
100
AcDbLine
 10
-21.40473613720002
 20
0.0
 30
0.0
 11
-25.40000000000001
 21
-6.920000000000015
 31
0.0
  0
LINE
  5
7E0
330
22
100
AcDbEntity
  8
1
100
AcDbLine
 10
-0.8000000000000113
 20
-22.10829262150003
 30
0.0
 11
0.3196152422999887
 21
-21.80829262150002
 31
0.0
  0
LINE
  5
7E1
330
22
100
AcDbEntity
  8
SK3
100
AcDbLine
 10
30.5
 20
-19.0
 30
0.0
 11
51.96242316450002
 21
-19.0
 31
0.0
  0
LINE
  5
7E2
330
22
100
AcDbEntity
  8
SK1
100
AcDbLine
 10
56.5
 20
-19.0
 30
0.0
 11
51.96242316450002
 21
-19.0
 31
0.0
  0
LINE
  5
7E3
330
22
100
AcDbEntity
  8
SK1
100
AcDbLine
 10
56.5
 20
-19.5
 30
0.0
 11
50.27816208689998
 21
-19.5
 31
0.0
  0
LINE
  5
7E4
330
22
100
AcDbEntity
  8
SK3
100
AcDbLine
 10
50.27816208689998
 20
-19.5
 30
0.0
 11
31.00012265680002
 21
-19.5
 31
0.0
  0
LINE
  5
7E5
330
22
100
AcDbEntity
  8
SK3
100
AcDbLine
 10
-21.40473613720002
 20
0.0
 30
0.0
 11
-25.40000000000001
 21
6.920000000000072
 31
0.0
  0
LINE
  5
7E7
330
22
100
AcDbEntity
  8
SK3
100
AcDbLine
 10
34.04086484770002
 20
-20.82267871060003
 30
0.0
 11
34.03987600849999
 21
-20.82282331260001
 31
0.0
  0
LINE
  5
7E8
330
22
100
AcDbEntity
  8
SK3
100
AcDbLine
 10
34.51836408099999
 20
-20.75726647619999
 30
0.0
 11
34.51798128570002
 21
-20.75730950230002
 31
0.0
  0
LINE
  5
7E9
330
22
100
AcDbEntity
  8
1
100
AcDbLine
 10
35.5
 20
-20.65729867630003
 30
0.0
 11
51.44546164289997
 21
-19.40843379950002
 31
0.0
  0
LINE
  5
7EA
330
22
100
AcDbEntity
  8
1
100
AcDbLine
 10
30.5
 20
-21.63373860180002
 30
0.0
 11
20.0242305953
 21
-22.42976971160002
 31
0.0
  0
LINE
  5
7EB
330
22
100
AcDbEntity
  8
1
100
AcDbLine
 10
0.3196152422999887
 20
-21.80829262150002
 30
0.0
 11
2.409731931300001
 21
-21.80829262150002
 31
0.0
  0
LINE
  5
7EC
330
22
100
AcDbEntity
  8
1
100
AcDbLine
 10
-0.8000000000000113
 20
-22.10829262150003
 30
0.0
 11
-67.37322744119999
 21
-12.39630905530001
 31
0.0
  0
LINE
  5
7ED
330
22
100
AcDbEntity
  8
SK3
100
AcDbLine
 10
-25.40000000000001
 20
-6.920000000000015
 30
0.0
 11
-25.40000000000001
 21
6.920000000000072
 31
0.0
  0
LWPOLYLINE
  5
7F5
330
22
100
AcDbEntity
  8
1
100
AcDbPolyline
 90
        9
 70
     0
 43
0.0
 10
51.44546164289997
 20
-19.40843379950002
 10
51.55521816300001
 20
-19.38906717150002
 10
51.65694219719998
 20
-19.35052214970002
 10
51.75238635099998
 20
-19.2915449818
 10
51.8362928075
 20
-19.21589692450001
 10
51.9043086948
 20
-19.12650758900003
 10
51.9554717831
 20
-19.02461816050001
 10
51.9870672364
 20
-18.9127235764
 10
52.0
 20
-18.78999219080003
  0
LINE
  5
800
330
22
100
AcDbEntity
  8
1
100
AcDbLine
 10
9.724999999999994
 20
-28.125
 30
0.0
 11
12.47499999999999
 21
-28.125
 31
0.0
  0
LINE
  5
801
330
22
100
AcDbEntity
  8
1
100
AcDbLine
 10
17.5
 20
-31.77500000000001
 30
0.0
 11
14.3475
 21
-31.77500000000001
 31
0.0
  0
LINE
  5
802
330
22
100
AcDbEntity
  8
1
100
AcDbLine
 10
7.852499999999992
 20
-31.77500000000001
 30
0.0
 11
4.799999999999982
 21
-31.77500000000001
 31
0.0
  0
LINE
  5
803
330
22
100
AcDbEntity
  8
SK3
100
AcDbLine
 10
-36.20000076290001
 20
-8.0
 30
0.0
 11
-36.20000076290001
 21
8.0
 31
0.0
  0
LINE
  5
804
330
22
100
AcDbEntity
  8
SK3
100
AcDbLine
 10
-60.19999999999996
 20
8.5
 30
0.0
 11
-60.19999999999996
 21
-8.5
 31
0.0
  0
LINE
  5
805
330
22
100
AcDbEntity
  8
1
100
AcDbLine
 10
-68.39999999999999
 20
11.2088781084
 30
0.0
 11
-68.39999999999999
 21
-11.2088781084
 31
0.0
  0
ARC
  5
806
330
22
100
AcDbEntity
  8
SK3
100
AcDbCircle
 10
30.80000000000001
 20
11.80000000000007
 30
0.0
 40
0.3
100
AcDbArc
 50
180.0
 51
270.0
  0
ARC
  5
807
330
22
100
AcDbEntity
  8
SK3
100
AcDbCircle
 10
30.80000000000001
 20
-11.80000000000001
 30
0.0
 40
0.3
100
AcDbArc
 50
90.0
 51
180.0
  0
ARC
  5
808
330
22
100
AcDbEntity
  8
SK3
100
AcDbCircle
 10
70.0
 20
-6.25
 30
0.0
 40
1.0
100
AcDbArc
 50
0.0000000448000037
 51
90.0
  0
ARC
  5
809
330
22
100
AcDbEntity
  8
SK3
100
AcDbCircle
 10
70.0
 20
6.25
 30
0.0
 40
1.0
100
AcDbArc
 50
270.0
 51
359.9999998954
  0
ARC
  5
80A
330
22
100
AcDbEntity
  8
SK3
100
AcDbCircle
 10
-67.39999999999999
 20
9.5
 30
0.0
 40
1.0
100
AcDbArc
 50
180.0000000647999
 51
270.0
  0
ARC
  5
80B
330
22
100
AcDbEntity
  8
SK3
100
AcDbCircle
 10
-67.39999999999999
 20
-9.499999999999943
 30
0.0
 40
1.0
100
AcDbArc
 50
90.0
 51
179.9999999351999
  0
ARC
  5
80C
330
22
100
AcDbEntity
  8
SK3
100
AcDbCircle
 10
52.40000000000001
 20
-11.30000000000001
 30
0.0
 40
0.6
100
AcDbArc
 50
132.1033933472001
 51
180.0
  0
ARC
  5
80D
330
22
100
AcDbEntity
  8
SK3
100
AcDbCircle
 10
52.40000000000001
 20
11.30000000000006
 30
0.0
 40
0.6
100
AcDbArc
 50
180.0
 51
227.8966066528
  0
ARC
  5
810
330
22
100
AcDbEntity
  8
1
100
AcDbCircle
 10
20.09999999999999
 20
-23.4268950785
 30
0.0
 40
1.0
100
AcDbArc
 50
94.34543175109999
 51
180.0
  0
ARC
  5
811
330
22
100
AcDbEntity
  8
1
100
AcDbCircle
 10
20.09999999999999
 20
23.42689507849997
 30
0.0
 40
1.0
100
AcDbArc
 50
180.0
 51
265.6545682508
  0
ARC
  5
812
330
22
100
AcDbEntity
  8
SK1
100
AcDbCircle
 10
52.40000000000001
 20
-11.30000000000001
 30
0.0
 40
0.6
100
AcDbArc
 50
90.0
 51
132.1033933472001
  0
ARC
  5
813
330
22
100
AcDbEntity
  8
SK1
100
AcDbCircle
 10
52.40000000000001
 20
11.30000000000006
 30
0.0
 40
0.6
100
AcDbArc
 50
227.8966066528
 51
270.0
  0
ARC
  5
814
330
22
100
AcDbEntity
  8
SK1
100
AcDbCircle
 10
69.40000000000001
 20
-9.370000000000004
 30
0.0
 40
1.6
100
AcDbArc
 50
270.0
 51
0.0
  0
ARC
  5
815
330
22
100
AcDbEntity
  8
SK1
100
AcDbCircle
 10
69.40000000000001
 20
9.369999999999976
 30
0.0
 40
1.6
100
AcDbArc
 50
0.0
 51
90.0
  0
ARC
  5
816
330
22
100
AcDbEntity
  8
1
100
AcDbCircle
 10
9.724999999999994
 20
28.62500000000006
 30
0.0
 40
0.5
100
AcDbArc
 50
180.0
 51
270.0
  0
ARC
  5
817
330
22
100
AcDbEntity
  8
1
100
AcDbCircle
 10
9.724999999999994
 20
-28.625
 30
0.0
 40
0.5
100
AcDbArc
 50
90.0
 51
180.0
  0
ARC
  5
818
330
22
100
AcDbEntity
  8
1
100
AcDbCircle
 10
12.47499999999999
 20
28.62500000000006
 30
0.0
 40
0.5
100
AcDbArc
 50
270.0
 51
0.0
  0
ARC
  5
819
330
22
100
AcDbEntity
  8
1
100
AcDbCircle
 10
12.47499999999999
 20
-28.625
 30
0.0
 40
0.5
100
AcDbArc
 50
0.0
 51
90.0
  0
ARC
  5
81A
330
22
100
AcDbEntity
  8
1
100
AcDbCircle
 10
2.409731931300001
 20
22.80829262150007
 30
0.0
 40
1.0
100
AcDbArc
 50
270.0
 51
322.4620664206
  0
ARC
  5
81B
330
22
100
AcDbEntity
  8
1
100
AcDbCircle
 10
2.409731931300001
 20
-22.80829262150001
 30
0.0
 40
1.0
100
AcDbArc
 50
36.54545240479996
 51
90.0
  0
ARC
  5
81C
330
22
100
AcDbEntity
  8
1
100
AcDbCircle
 10
-67.19999999999998
 20
-11.2088781084
 30
0.0
 40
1.199999999999999
100
AcDbArc
 50
180.0
 51
261.7
  0
ARC
  5
81D
330
22
100
AcDbEntity
  8
1
100
AcDbCircle
 10
-67.19999999999998
 20
11.20887810840005
 30
0.0
 40
1.199999999999999
100
AcDbArc
 50
98.3
 51
180.0
  0
ARC
  5
81E
330
22
100
AcDbEntity
  8
1
100
AcDbCircle
 10
4.799999999999982
 20
-30.17500000000001
 30
0.0
 40
1.6
100
AcDbArc
 50
180.0
 51
270.0
  0
ARC
  5
81F
330
22
100
AcDbEntity
  8
1
100
AcDbCircle
 10
4.799999999999982
 20
30.17499999999998
 30
0.0
 40
1.6
100
AcDbArc
 50
90.0
 51
180.0
  0
ARC
  5
820
330
22
100
AcDbEntity
  8
1
100
AcDbCircle
 10
17.5
 20
-30.17500000000001
 30
0.0
 40
1.6
100
AcDbArc
 50
270.0
 51
0.0
  0
ARC
  5
821
330
22
100
AcDbEntity
  8
1
100
AcDbCircle
 10
17.5
 20
30.17499999999998
 30
0.0
 40
1.6
100
AcDbArc
 50
0.0
 51
90.0
  0
INSERT
  5
ACB
330
22
100
AcDbEntity
  8
1
100
AcDbBlockReference
  2
nullpunkt_1
 10
0.0
 20
0.0
 30
0.0
  0
INSERT
  5
ACC
330
22
100
AcDbEntity
  8
1
100
AcDbBlockReference
  2
nullpunkt_2
 10
52.0
 20
0.0
 30
0.0
  0
LINE
  5
E1D
330
22
100
AcDbEntity
  8
NOCUT
100
AcDbLine
 10
52.0
 20
0.0
 30
0.0
 11
52.0
 21
19.44386295283479
 31
0.0
  0
LINE
  5
E1E
330
22
100
AcDbEntity
  8
NOCUT
100
AcDbLine
 10
17.5
 20
31.77499999999998
 30
0.0
 11
14.3475
 21
31.77499999999998
 31
0.0
  0
LINE
  5
E1F
330
22
100
AcDbEntity
  8
NOCUT
100
AcDbLine
 10
7.852499999999992
 20
31.77499999999998
 30
0.0
 11
4.799999999999982
 21
31.77499999999998
 31
0.0
  0
LINE
  5
E22
330
22
100
AcDbEntity
  8
NOCUT
100
AcDbLine
 10
9.724999999999994
 20
28.125
 30
0.0
 11
12.47499999999999
 21
28.125
 31
0.0
  0
LINE
  5
E26
330
22
100
AcDbEntity
  8
NOCUT
100
AcDbLine
 10
0.3196152422999887
 20
21.80829262150002
 30
0.0
 11
2.409731931300001
 21
21.80829262150002
 31
0.0
  0
LINE
  5
E27
330
22
100
AcDbEntity
  8
NOCUT
100
AcDbLine
 10
51.44546164286859
 20
20.04213817296989
 30
0.0
 11
20.0242305953
 21
22.42976971160008
 31
0.0
  0
LINE
  5
E2B
330
22
100
AcDbEntity
  8
NOCUT
100
AcDbLine
 10
0.0
 20
21.89393326756079
 30
0.0
 11
0.3196152422999887
 21
21.80829262150002
 31
0.0
  0
LINE
  5
E2C
330
22
100
AcDbEntity
  8
NOCUT
100
AcDbLine
 10
7.852499999999992
 20
31.77499999999998
 30
0.0
 11
9.224999999999994
 21
29.39776026659999
 31
0.0
  0
LINE
  5
E2E
330
22
100
AcDbEntity
  8
NOCUT
100
AcDbLine
 10
19.09999999999999
 20
30.17499999999998
 30
0.0
 11
19.09999999999999
 21
23.42689507849997
 31
0.0
  0
LINE
  5
E33
330
22
100
AcDbEntity
  8
NOCUT
100
AcDbLine
 10
12.97499999999999
 20
28.62500000000006
 30
0.0
 11
12.97499999999999
 21
29.39776026660008
 31
0.0
  0
LINE
  5
E34
330
22
100
AcDbEntity
  8
NOCUT
100
AcDbLine
 10
9.224999999999994
 20
29.39776026659999
 30
0.0
 11
9.224999999999994
 21
28.62500000000006
 31
0.0
  0
LINE
  5
E44
330
22
100
AcDbEntity
  8
NOCUT
100
AcDbLine
 10
12.97499999999999
 20
29.39776026659999
 30
0.0
 11
14.3475
 21
31.77499999999998
 31
0.0
  0
ARC
  5
E51
330
22
100
AcDbEntity
  8
NOCUT
100
AcDbCircle
 10
20.09999999999999
 20
23.42689507849997
 30
0.0
 40
1.0
100
AcDbArc
 50
180.0
 51
265.6545682508003
  0
ARC
  5
E52
330
22
100
AcDbEntity
  8
NOCUT
100
AcDbCircle
 10
9.724999999999994
 20
28.62500000000006
 30
0.0
 40
0.5
100
AcDbArc
 50
180.0
 51
270.0
  0
ARC
  5
E54
330
22
100
AcDbEntity
  8
NOCUT
100
AcDbCircle
 10
12.47499999999999
 20
28.62500000000006
 30
0.0
 40
0.5
100
AcDbArc
 50
270.0
 51
0.0
  0
ARC
  5
E56
330
22
100
AcDbEntity
  8
NOCUT
100
AcDbCircle
 10
2.409731931300001
 20
22.80829262150007
 30
0.0
 40
1.0
100
AcDbArc
 50
270.0
 51
322.210569988736
  0
ARC
  5
E5B
330
22
100
AcDbEntity
  8
NOCUT
100
AcDbCircle
 10
4.799999999999982
 20
30.17499999999998
 30
0.0
 40
1.6
100
AcDbArc
 50
90.0
 51
180.0
  0
ARC
  5
E5D
330
22
100
AcDbEntity
  8
NOCUT
100
AcDbCircle
 10
17.5
 20
30.17499999999998
 30
0.0
 40
1.6
100
AcDbArc
 50
0.0
 51
90.0
  0
LINE
  5
E88
330
22
100
AcDbEntity
  8
NOCUT
100
AcDbLine
 10
52.0
 20
0.0
 30
0.0
 11
0.0
 21
0.0
 31
0.0
  0
LINE
  5
E92
330
22
100
AcDbEntity
  8
NOCUT
100
AcDbLine
 10
3.199999999999988
 20
22.1955313469459
 30
0.0
 11
3.199999999999988
 21
30.17499999999998
 31
0.0
  0
LINE
  5
E94
330
22
100
AcDbEntity
  8
NOCUT
100
AcDbLine
 10
0.0
 20
0.0000000000000568
 30
0.0
 11
0.0
 21
21.89393326756079
 31
0.0
  0
ARC
  5
EB4
330
22
100
AcDbEntity
  8
NOCUT
100
AcDbCircle
 10
51.4
 20
19.44386295283479
 30
0.0
 40
0.6
100
AcDbArc
 50
359.9999999999998
 51
85.65456825066013
  0
ENDSEC
  0
SECTION
  2
OBJECTS
  0
DICTIONARY
  5
C
330
0
100
AcDbDictionary
281
     1
  3
ACAD_COLOR
350
1B
  3
ACAD_GROUP
350
D
  3
ACAD_LAYOUT
350
19
  3
ACAD_MATERIAL
350
1A
  3
ACAD_MLINESTYLE
350
16
  3
ACAD_PLOTSETTINGS
350
18
  3
ACAD_PLOTSTYLENAME
350
E
  3
ACAD_TABLESTYLE
350
1C
  3
ACDBHEADERROUNDTRIPXREC
350
F23
  3
AcDbVariableDictionary
350
EB2
  0
DICTIONARY
  5
E8F
330
22
100
AcDbDictionary
280
     1
281
     1
  3
ACAD_SORTENTS
360
E90
  0
DICTIONARY
  5
1B
102
{ACAD_REACTORS
330
C
102
}
330
C
100
AcDbDictionary
281
     1
  0
DICTIONARY
  5
D
102
{ACAD_REACTORS
330
C
102
}
330
C
100
AcDbDictionary
281
     1
  0
DICTIONARY
  5
19
102
{ACAD_REACTORS
330
C
102
}
330
C
100
AcDbDictionary
281
     1
  3
Layout1
350
21
  3
Model
350
25
  0
DICTIONARY
  5
1A
102
{ACAD_REACTORS
330
C
102
}
330
C
100
AcDbDictionary
281
     1
  0
DICTIONARY
  5
16
102
{ACAD_REACTORS
330
C
102
}
330
C
100
AcDbDictionary
281
     1
  3
Standard
350
17
  0
DICTIONARY
  5
18
102
{ACAD_REACTORS
330
C
102
}
330
C
100
AcDbDictionary
281
     1
  0
ACDBDICTIONARYWDFLT
  5
E
102
{ACAD_REACTORS
330
C
102
}
330
C
100
AcDbDictionary
281
     1
  3
Normal
350
F
100
AcDbDictionaryWithDefault
340
F
  0
DICTIONARY
  5
1C
102
{ACAD_REACTORS
330
C
102
}
330
C
100
AcDbDictionary
281
     1
  3
Standard
350
1D
  0
DICTIONARY
  5
F23
102
{ACAD_REACTORS
330
C
102
}
330
C
100
AcDbDictionary
281
     1
  0
DICTIONARY
  5
EB2
102
{ACAD_REACTORS
330
C
102
}
330
C
100
AcDbDictionary
281
     1
  3
CTABLESTYLE
350
EB3
  3
DIMASSOC
350
EB5
  3
PROJECTNAME
350
EB6
  0
SORTENTSTABLE
  5
E90
102
{ACAD_REACTORS
330
E8F
102
}
330
E8F
100
AcDbSortentsTable
330
22
331
5D7
  5
5D7
331
5E3
  5
5E3
331
E56
  5
E5B
331
62A
  5
62A
331
785
  5
785
331
817
  5
817
331
6D8
  5
6D8
331
70F
  5
70F
331
7CC
  5
7CC
331
6E0
  5
6E0
331
81F
  5
81F
331
63A
  5
63A
331
7DC
  5
7DC
331
75E
  5
75E
331
E1F
  5
E22
331
79D
  5
79D
331
7E4
  5
7E4
331
ACB
  5
ACB
331
6F0
  5
6F0
331
691
  5
691
331
E27
  5
E2B
331
60B
  5
60B
331
652
  5
652
331
72F
  5
72F
331
7EC
  5
7EC
331
7AD
  5
7AD
331
700
  5
700
331
613
  5
613
331
65A
  5
65A
331
737
  5
737
331
804
  5
804
331
73F
  5
73F
331
7BD
  5
7BD
331
7C5
  5
7C5
331
5D8
  5
5D8
331
E88
  5
E92
331
808
  5
808
331
708
  5
708
331
6D1
  5
6D1
331
810
  5
810
331
5E4
  5
5E4
331
62B
  5
62B
331
710
  5
710
331
7CD
  5
7CD
331
818
  5
818
331
6D9
  5
6D9
331
6E1
  5
6E1
331
78E
  5
78E
331
63B
  5
63B
331
7D5
  5
7D5
331
7DD
  5
7DD
331
7E5
  5
7E5
331
767
  5
767
331
79E
  5
79E
331
ACC
  5
ACC
331
692
  5
692
331
6F1
  5
6F1
331
653
  5
653
331
730
  5
730
331
7ED
  5
7ED
331
60C
  5
60C
331
7AE
  5
7AE
331
614
  5
614
331
65B
  5
65B
331
7F5
  5
7F5
331
7BE
  5
7BE
331
624
  5
624
331
740
  5
740
331
805
  5
805
331
5D9
  5
5D9
331
809
  5
809
331
811
  5
811
331
62C
  5
62C
331
709
  5
709
331
748
  5
748
331
6DA
  5
6DA
331
819
  5
819
331
634
  5
634
331
711
  5
711
331
7CE
  5
7CE
331
7D6
  5
7D6
331
6E2
  5
6E2
331
63C
  5
63C
331
7DE
  5
7DE
331
5FD
  5
5FD
331
79F
  5
79F
331
6F2
  5
6F2
331
605
  5
605
331
64C
  5
64C
331
693
  5
693
331
60D
  5
60D
331
731
  5
731
331
7AF
  5
7AF
331
615
  5
615
331
65C
  5
65C
331
739
  5
739
331
806
  5
806
331
741
  5
741
331
625
  5
625
331
7BF
  5
7BF
331
5DA
  5
5DA
331
80A
  5
80A
331
E51
  5
E52
331
70A
  5
70A
331
812
  5
812
331
6D3
  5
6D3
331
7CF
  5
7CF
331
635
  5
635
331
81A
  5
81A
331
6DB
  5
6DB
331
6E3
  5
6E3
331
7D7
  5
7D7
331
68C
  5
68C
331
5FE
  5
5FE
331
7DF
  5
7DF
331
7E7
  5
7E7
331
E92
  5
E94
331
E22
  5
E26
331
694
  5
694
331
769
  5
769
331
7A0
  5
7A0
331
606
  5
606
331
64D
  5
64D
331
655
  5
655
331
60E
  5
60E
331
7A8
  5
7A8
331
6B4
  5
6B4
331
7C0
  5
7C0
331
626
  5
626
331
742
  5
742
331
807
  5
807
331
E52
  5
E54
331
80B
  5
80B
331
6D4
  5
6D4
331
70B
  5
70B
331
813
  5
813
331
66D
  5
66D
331
752
  5
752
331
6DC
  5
6DC
331
81B
  5
81B
331
5EF
  5
5EF
331
636
  5
636
331
7D0
  5
7D0
331
71B
  5
71B
331
7D8
  5
7D8
331
685
  5
685
331
6E4
  5
6E4
331
799
  5
799
331
7E0
  5
7E0
331
68D
  5
68D
331
5FF
  5
5FF
331
7A1
  5
7A1
331
7E8
  5
7E8
331
E2B
  5
E2C
331
64E
  5
64E
331
695
  5
695
331
76A
  5
76A
331
772
  5
772
331
7A9
  5
7A9
331
E33
  5
E34
331
60F
  5
60F
331
656
  5
656
331
733
  5
733
331
73B
  5
73B
331
800
  5
800
331
6B5
  5
6B5
331
743
  5
743
331
627
  5
627
331
5DC
  5
5DC
331
5D4
  5
5D4
331
80C
  5
80C
331
5E0
  5
5E0
331
70C
  5
70C
331
E5B
  5
E5D
331
814
  5
814
331
6D5
  5
6D5
331
6DD
  5
6DD
331
7D1
  5
7D1
331
637
  5
637
331
67E
  5
67E
331
81C
  5
81C
331
5F0
  5
5F0
331
6E5
  5
6E5
331
63F
  5
63F
331
7D9
  5
7D9
331
79A
  5
79A
331
68E
  5
68E
331
724
  5
724
331
7E1
  5
7E1
331
820
  5
820
331
E94
  5
EB4
331
7E9
  5
7E9
331
64F
  5
64F
331
696
  5
696
331
E2C
  5
E2E
331
7A2
  5
7A2
331
7AA
  5
7AA
331
657
  5
657
331
734
  5
734
331
E34
  5
E44
331
610
  5
610
331
705
  5
705
331
801
  5
801
331
E44
  5
E51
331
620
  5
620
331
6B6
  5
6B6
331
6C6
  5
6C6
331
744
  5
744
331
5DD
  5
5DD
331
5D5
  5
5D5
331
E54
  5
E56
331
628
  5
628
331
80D
  5
80D
331
6D6
  5
6D6
331
70D
  5
70D
331
815
  5
815
331
5E9
  5
5E9
331
66F
  5
66F
331
67F
  5
67F
331
6DE
  5
6DE
331
81D
  5
81D
331
638
  5
638
331
640
  5
640
331
7DA
  5
7DA
331
E1D
  5
E1D
331
79B
  5
79B
331
6EE
  5
6EE
331
725
  5
725
331
7E2
  5
7E2
331
68F
  5
68F
331
EB4
  5
E1E
331
821
  5
821
331
7A3
  5
7A3
331
7EA
  5
7EA
331
697
  5
697
331
76C
  5
76C
331
7AB
  5
7AB
331
6A7
  5
6A7
331
611
  5
611
331
658
  5
658
331
735
  5
735
331
802
  5
802
331
77C
  5
77C
331
6B7
  5
6B7
331
706
  5
706
331
5DE
  5
5DE
331
5D6
  5
5D6
331
629
  5
629
331
70E
  5
70E
331
E5D
  5
E88
331
816
  5
816
331
6D7
  5
6D7
331
5F2
  5
5F2
331
639
  5
639
331
680
  5
680
331
755
  5
755
331
81E
  5
81E
331
794
  5
794
331
E1E
  5
E1F
331
641
  5
641
331
7DB
  5
7DB
331
6EF
  5
6EF
331
79C
  5
79C
331
7E3
  5
7E3
331
690
  5
690
331
E26
  5
E27
331
602
  5
602
331
7EB
  5
7EB
331
76D
  5
76D
331
E2E
  5
E33
331
7AC
  5
7AC
331
6FF
  5
6FF
331
659
  5
659
331
736
  5
736
331
612
  5
612
331
707
  5
707
331
73E
  5
73E
331
803
  5
803
  0
LAYOUT
  5
21
102
{ACAD_XDICTIONARY
360
F24
102
}
102
{ACAD_REACTORS
330
19
102
}
330
19
100
AcDbPlotSettings
  1

  2
\\ingdom02\ITB3
  4

  6

 40
0.0
 41
0.0
 42
0.0
 43
0.0
 44
0.0
 45
0.0
 46
0.0
 47
0.0
 48
0.0
 49
0.0
140
0.0
141
0.0
142
1.0
143
1.0
 70
   688
 72
     0
 73
     0
 74
     5
  7
A1-A2.ctb
 75
    16
147
1.0
148
0.0
149
0.0
100
AcDbLayout
  1
Layout1
 70
     1
 71
     1
 10
0.0
 20
0.0
 11
12.0
 21
9.0
 12
0.0
 22
0.0
 32
0.0
 14
100.0
 24
100.0
 34
100.0
 15
-100.0
 25
-100.0
 35
-100.0
146
0.0
 13
0.0
 23
0.0
 33
0.0
 16
1.0
 26
0.0
 36
0.0
 17
0.0
 27
1.0
 37
0.0
 76
     0
330
1E
  0
LAYOUT
  5
25
102
{ACAD_XDICTIONARY
360
F26
102
}
102
{ACAD_REACTORS
330
19
102
}
330
19
100
AcDbPlotSettings
  1

  2
\\ingdom02\ITB3
  4
A4
  6

 40
4.233333110809326
 41
4.233341693878172
 42
7.789321899414062
 43
4.23333740234375
 44
209.9733276367186
 45
296.9259948730469
 46
0.0
 47
0.0
 48
0.0
 49
0.0
140
0.0
141
0.0
142
1.0
143
16.44633398398362
 70
 11952
 72
     0
 73
     1
 74
     0
  7
A1-A2.ctb
 75
     0
147
0.060803824181964
148
-1712.608553164014
149
-3797.546180000972
100
AcDbLayout
  1
Model
 70
     1
 71
     0
 10
0.0
 20
0.0
 11
12.0
 21
9.0
 12
0.0
 22
0.0
 32
0.0
 14
0.0
 24
0.0
 34
0.0
 15
0.0
 25
0.0
 35
0.0
146
0.0
 13
0.0
 23
0.0
 33
0.0
 16
1.0
 26
0.0
 36
0.0
 17
0.0
 27
1.0
 37
0.0
 76
     0
330
22
1001
ACAD_PSEXT
1000
\\ingdom02\ITB3
1000
HP LaserJet 5000 Series PCL 6
1000
TB
1000

1070
     0
  0
MLINESTYLE
  5
17
102
{ACAD_REACTORS
330
16
102
}
330
16
100
AcDbMlineStyle
  2
STANDARD
 70
     0
  3

 62
   256
 51
90.0
 52
90.0
 71
     2
 49
0.5
 62
   256
  6
BYLAYER
 49
-0.5
 62
   256
  6
BYLAYER
  0
ACDBPLACEHOLDER
  5
F
102
{ACAD_REACTORS
330
E
102
}
330
E
  0
TABLESTYLE
  5
1D
102
{ACAD_REACTORS
330
1C
102
}
330
1C
100
AcDbTableStyle
  3
Standard
 70
     0
 71
     0
 40
0.06
 41
0.06
280
     0
281
     0
  7
STANDARD
140
0.18
170
     2
 62
     0
 63
     7
283
     0
274
    -2
284
     1
 64
     0
275
    -2
285
     1
 65
     0
276
    -2
286
     1
 66
     0
277
    -2
287
     1
 67
     0
278
    -2
288
     1
 68
     0
279
    -2
289
     1
 69
     0
  7
STANDARD
140
0.25
170
     5
 62
     0
 63
     7
283
     0
274
    -2
284
     1
 64
     0
275
    -2
285
     1
 65
     0
276
    -2
286
     1
 66
     0
277
    -2
287
     1
 67
     0
278
    -2
288
     1
 68
     0
279
    -2
289
     1
 69
     0
  7
STANDARD
140
0.18
170
     5
 62
     0
 63
     7
283
     0
274
    -2
284
     1
 64
     0
275
    -2
285
     1
 65
     0
276
    -2
286
     1
 66
     0
277
    -2
287
     1
 67
     0
278
    -2
288
     1
 68
     0
279
    -2
289
     1
 69
     0
  0
DICTIONARYVAR
  5
EB3
102
{ACAD_REACTORS
330
EB2
102
}
330
EB2
100
DictionaryVariables
280
     0
  1
STANDARD
  0
DICTIONARYVAR
  5
EB5
102
{ACAD_REACTORS
330
EB2
102
}
330
EB2
100
DictionaryVariables
280
     0
  1
1
  0
DICTIONARYVAR
  5
EB6
102
{ACAD_REACTORS
330
EB2
102
}
330
EB2
100
DictionaryVariables
280
     0
  1

  0
DICTIONARY
  5
F24
330
21
100
AcDbDictionary
280
     1
281
     1
  3
ACAD_XREC_ROUNDTRIP
360
F25
  0
DICTIONARY
  5
F26
330
25
100
AcDbDictionary
280
     1
281
     1
  3
ACAD_XREC_ROUNDTRIP
360
F27
  0
XRECORD
  5
F25
102
{ACAD_REACTORS
330
F24
102
}
330
F24
100
AcDbXrecord
280
     1
102
SHADEPLOT
 70
     0
102
SHADEPLOTRESLEVEL
 70
     2
102
SHADEPLOTCUSTOMDPI
 70
   300
  0
XRECORD
  5
F27
102
{ACAD_REACTORS
330
F26
102
}
330
F26
100
AcDbXrecord
280
     1
102
SHADEPLOT
 70
     0
102
SHADEPLOTRESLEVEL
 70
     2
102
SHADEPLOTCUSTOMDPI
 70
   300
  0
ENDSEC
  0
EOF
