  0
SECTION
  2
HEADER
  9
$ACADVER
  1
AC1015
  9
$ACADMAINTVER
 70
    10
  9
$DWGCODEPAGE
  3
ANSI_1252
  9
$INSBASE
 10
0.0
 20
0.0
 30
0.0
  9
$EXTMIN
 10
-71.42063411952233
 20
-72.91532458305744
 30
-0.0000000349181948
  9
$EXTMAX
 10
114.9110019240804
 20
64.57952283509769
 30
0.0000000814935747
  9
$LIMMIN
 10
0.0
 20
0.0
  9
$LIMMAX
 10
420.0
 20
297.0
  9
$ORTHOMODE
 70
     0
  9
$REGENMODE
 70
     1
  9
$FILLMODE
 70
     1
  9
$QTEXTMODE
 70
     0
  9
$MIRRTEXT
 70
     1
  9
$LTSCALE
 40
23.1
  9
$ATTMODE
 70
     1
  9
$TEXTSIZE
 40
0.2
  9
$TRACEWID
 40
0.05
  9
$TEXTSTYLE
  7
STANDARD
  9
$CLAYER
  8
0
  9
$CELTYPE
  6
BYLAYER
  9
$CECOLOR
 62
   256
  9
$CELTSCALE
 40
1.0
  9
$DISPSILH
 70
     0
  9
$DIMSCALE
 40
1.0
  9
$DIMASZ
 40
3.5
  9
$DIMEXO
 40
0.625
  9
$DIMDLI
 40
3.75
  9
$DIMRND
 40
0.0
  9
$DIMDLE
 40
0.0
  9
$DIMEXE
 40
2.0
  9
$DIMTP
 40
0.0
  9
$DIMTM
 40
0.0
  9
$DIMTXT
 40
3.5
  9
$DIMCEN
 40
2.5
  9
$DIMTSZ
 40
0.0
  9
$DIMTOL
 70
     0
  9
$DIMLIM
 70
     0
  9
$DIMTIH
 70
     0
  9
$DIMTOH
 70
     0
  9
$DIMSE1
 70
     0
  9
$DIMSE2
 70
     0
  9
$DIMTAD
 70
     1
  9
$DIMZIN
 70
     8
  9
$DIMBLK
  1

  9
$DIMASO
 70
     1
  9
$DIMSHO
 70
     1
  9
$DIMPOST
  1

  9
$DIMAPOST
  1

  9
$DIMALT
 70
     0
  9
$DIMALTD
 70
     3
  9
$DIMALTF
 40
0.03937007874016
  9
$DIMLFAC
 40
1.0
  9
$DIMTOFL
 70
     1
  9
$DIMTVP
 40
0.0
  9
$DIMTIX
 70
     0
  9
$DIMSOXD
 70
     0
  9
$DIMSAH
 70
     0
  9
$DIMBLK1
  1

  9
$DIMBLK2
  1

  9
$DIMSTYLE
  2
ISO-25
  9
$DIMCLRD
 70
   256
  9
$DIMCLRE
 70
   256
  9
$DIMCLRT
 70
   256
  9
$DIMTFAC
 40
1.0
  9
$DIMGAP
 40
0.625
  9
$DIMJUST
 70
     0
  9
$DIMSD1
 70
     0
  9
$DIMSD2
 70
     0
  9
$DIMTOLJ
 70
     0
  9
$DIMTZIN
 70
     8
  9
$DIMALTZ
 70
     0
  9
$DIMALTTZ
 70
     0
  9
$DIMUPT
 70
     0
  9
$DIMDEC
 70
     1
  9
$DIMTDEC
 70
     1
  9
$DIMALTU
 70
     2
  9
$DIMALTTD
 70
     3
  9
$DIMTXSTY
  7
isocp
  9
$DIMAUNIT
 70
     0
  9
$DIMADEC
 70
     0
  9
$DIMALTRND
 40
0.0
  9
$DIMAZIN
 70
     0
  9
$DIMDSEP
 70
    46
  9
$DIMATFIT
 70
     0
  9
$DIMFRAC
 70
     0
  9
$DIMLDRBLK
  1

  9
$DIMLUNIT
 70
     2
  9
$DIMLWD
 70
    -2
  9
$DIMLWE
 70
    -2
  9
$DIMTMOVE
 70
     0
  9
$LUNITS
 70
     2
  9
$LUPREC
 70
     4
  9
$SKETCHINC
 40
0.1
  9
$FILLETRAD
 40
0.0
  9
$AUNITS
 70
     0
  9
$AUPREC
 70
     0
  9
$MENU
  1
.
  9
$ELEVATION
 40
0.0
  9
$PELEVATION
 40
0.0
  9
$THICKNESS
 40
0.0
  9
$LIMCHECK
 70
     0
  9
$CHAMFERA
 40
0.0
  9
$CHAMFERB
 40
0.0
  9
$CHAMFERC
 40
0.0
  9
$CHAMFERD
 40
0.0
  9
$SKPOLY
 70
     0
  9
$TDCREATE
 40
2453886.623657778
  9
$TDUCREATE
 40
2453886.540324444
  9
$TDUPDATE
 40
2453889.532406586
  9
$TDUUPDATE
 40
2453889.449073252
  9
$TDINDWG
 40
0.0849663426
  9
$TDUSRTIMER
 40
0.0849663426
  9
$USRTIMER
 70
     1
  9
$ANGBASE
 50
0.0
  9
$ANGDIR
 70
     0
  9
$PDMODE
 70
     3
  9
$PDSIZE
 40
0.3125
  9
$PLINEWID
 40
0.0
  9
$SPLFRAME
 70
     0
  9
$SPLINETYPE
 70
     6
  9
$SPLINESEGS
 70
     8
  9
$HANDSEED
  5
3A04
  9
$SURFTAB1
 70
     6
  9
$SURFTAB2
 70
     6
  9
$SURFTYPE
 70
     6
  9
$SURFU
 70
     6
  9
$SURFV
 70
     6
  9
$UCSBASE
  2

  9
$UCSNAME
  2

  9
$UCSORG
 10
0.0
 20
0.0
 30
0.0
  9
$UCSXDIR
 10
1.0
 20
0.0
 30
0.0
  9
$UCSYDIR
 10
0.0
 20
1.0
 30
0.0
  9
$UCSORTHOREF
  2

  9
$UCSORTHOVIEW
 70
     0
  9
$UCSORGTOP
 10
0.0
 20
0.0
 30
0.0
  9
$UCSORGBOTTOM
 10
0.0
 20
0.0
 30
0.0
  9
$UCSORGLEFT
 10
0.0
 20
0.0
 30
0.0
  9
$UCSORGRIGHT
 10
0.0
 20
0.0
 30
0.0
  9
$UCSORGFRONT
 10
0.0
 20
0.0
 30
0.0
  9
$UCSORGBACK
 10
0.0
 20
0.0
 30
0.0
  9
$PUCSBASE
  2

  9
$PUCSNAME
  2

  9
$PUCSORG
 10
0.0
 20
0.0
 30
0.0
  9
$PUCSXDIR
 10
1.0
 20
0.0
 30
0.0
  9
$PUCSYDIR
 10
0.0
 20
1.0
 30
0.0
  9
$PUCSORTHOREF
  2

  9
$PUCSORTHOVIEW
 70
     0
  9
$PUCSORGTOP
 10
0.0
 20
0.0
 30
0.0
  9
$PUCSORGBOTTOM
 10
0.0
 20
0.0
 30
0.0
  9
$PUCSORGLEFT
 10
0.0
 20
0.0
 30
0.0
  9
$PUCSORGRIGHT
 10
0.0
 20
0.0
 30
0.0
  9
$PUCSORGFRONT
 10
0.0
 20
0.0
 30
0.0
  9
$PUCSORGBACK
 10
0.0
 20
0.0
 30
0.0
  9
$USERI1
 70
     0
  9
$USERI2
 70
     0
  9
$USERI3
 70
     0
  9
$USERI4
 70
     0
  9
$USERI5
 70
     0
  9
$USERR1
 40
0.0
  9
$USERR2
 40
0.0
  9
$USERR3
 40
0.0
  9
$USERR4
 40
0.0
  9
$USERR5
 40
0.0
  9
$WORLDVIEW
 70
     1
  9
$SHADEDGE
 70
     3
  9
$SHADEDIF
 70
    70
  9
$TILEMODE
 70
     1
  9
$MAXACTVP
 70
    64
  9
$PINSBASE
 10
0.0
 20
0.0
 30
0.0
  9
$PLIMCHECK
 70
     0
  9
$PEXTMIN
 10
1.000000000000000E+20
 20
1.000000000000000E+20
 30
1.000000000000000E+20
  9
$PEXTMAX
 10
-1.000000000000000E+20
 20
-1.000000000000000E+20
 30
-1.000000000000000E+20
  9
$PLIMMIN
 10
0.0
 20
0.0
  9
$PLIMMAX
 10
12.0
 20
9.0
  9
$UNITMODE
 70
     0
  9
$VISRETAIN
 70
     1
  9
$PLINEGEN
 70
     0
  9
$PSLTSCALE
 70
     1
  9
$TREEDEPTH
 70
  3020
  9
$CMLSTYLE
  2
STANDARD
  9
$CMLJUST
 70
     0
  9
$CMLSCALE
 40
1.0
  9
$PROXYGRAPHICS
 70
     1
  9
$MEASUREMENT
 70
     1
  9
$CELWEIGHT
370
    -1
  9
$ENDCAPS
280
     0
  9
$JOINSTYLE
280
     0
  9
$LWDISPLAY
290
     0
  9
$INSUNITS
 70
     0
  9
$HYPERLINKBASE
  1

  9
$STYLESHEET
  1

  9
$XEDIT
290
     1
  9
$CEPSNTYPE
380
     0
  9
$PSTYLEMODE
290
     1
  9
$FINGERPRINTGUID
  2
{E963B3ED-2DAE-4336-B6EA-9831BA555881}
  9
$VERSIONGUID
  2
{50049A08-2295-4CFE-A03A-55BFA91045D6}
  9
$EXTNAMES
290
     1
  9
$PSVPSCALE
 40
0.0
  9
$OLESTARTUP
290
     0
  0
ENDSEC
  0
SECTION
  2
CLASSES
  0
CLASS
  1
ACDBDICTIONARYWDFLT
  2
AcDbDictionaryWithDefault
  3
AutoCAD 2000
 90
        0
280
     0
281
     0
  0
CLASS
  1
ACDBPLACEHOLDER
  2
AcDbPlaceHolder
  3
AutoCAD 2000
 90
        0
280
     0
281
     0
  0
CLASS
  1
LAYOUT
  2
AcDbLayout
  3
AutoCAD 2000
 90
        0
280
     0
281
     0
  0
ENDSEC
  0
SECTION
  2
TABLES
  0
TABLE
  2
VPORT
  5
8
330
0
100
AcDbSymbolTable
 70
     3
  0
VPORT
  5
3A03
330
8
100
AcDbSymbolTableRecord
100
AcDbViewportTableRecord
  2
*Active
 70
     0
 10
0.0
 20
0.0
 11
1.0
 21
1.0
 12
21.74518390227904
 22
-4.167900873979874
 13
0.0
 23
0.0
 14
1.0
 24
1.0
 15
0.0
 25
0.0
 16
0.0
 26
0.0
 36
1.0
 17
0.0
 27
0.0
 37
0.0
 40
138.3124580073612
 41
1.539682539682539
 42
50.0
 43
0.0
 44
0.0
 50
0.0
 51
0.0
 71
     0
 72
   100
 73
     1
 74
     1
 75
     0
 76
     0
 77
     0
 78
     0
281
     0
 65
     1
110
0.0
120
0.0
130
0.0
111
1.0
121
0.0
131
0.0
112
0.0
122
1.0
132
0.0
 79
     0
146
0.0
  0
ENDTAB
  0
TABLE
  2
LTYPE
  5
5
330
0
100
AcDbSymbolTable
 70
     3
  0
LTYPE
  5
14
330
5
100
AcDbSymbolTableRecord
100
AcDbLinetypeTableRecord
  2
BYBLOCK
 70
     0
  3

 72
    65
 73
     0
 40
0.0
  0
LTYPE
  5
15
330
5
100
AcDbSymbolTableRecord
100
AcDbLinetypeTableRecord
  2
BYLAYER
 70
     0
  3

 72
    65
 73
     0
 40
0.0
  0
LTYPE
  5
16
330
5
100
AcDbSymbolTableRecord
100
AcDbLinetypeTableRecord
  2
CONTINUOUS
 70
     0
  3
Solid line
 72
    65
 73
     0
 40
0.0
  0
LTYPE
  5
1F5
330
5
100
AcDbSymbolTableRecord
100
AcDbLinetypeTableRecord
  2
CENTER
 70
     0
  3
____ _ ____ _ ____ _ ____ _ ____ _ ____ _ ____
 72
    65
 73
     4
 40
0.6
 49
0.375
 74
     0
 49
-0.075
 74
     0
 49
0.075
 74
     0
 49
-0.075
 74
     0
  0
LTYPE
  5
1F6
330
5
100
AcDbSymbolTableRecord
100
AcDbLinetypeTableRecord
  2
HIDDEN
 70
     0
  3
- - - - - - - - - - - - - - - - - - - -
 72
    65
 73
     2
 40
0.2
 49
0.1
 74
     0
 49
-0.1
 74
     0
  0
ENDTAB
  0
TABLE
  2
LAYER
  5
2
330
0
100
AcDbSymbolTable
 70
     9
  0
LAYER
  5
10
330
2
100
AcDbSymbolTableRecord
100
AcDbLayerTableRecord
  2
0
 70
     0
 62
     7
  6
CONTINUOUS
370
    -3
390
9BE
  0
LAYER
  5
A3A
330
2
100
AcDbSymbolTableRecord
100
AcDbLayerTableRecord
  2
Defpoints
 70
     0
 62
     7
  6
CONTINUOUS
290
     0
370
    -3
390
9BE
  0
LAYER
  5
A3B
330
2
100
AcDbSymbolTableRecord
100
AcDbLayerTableRecord
  2
1
 70
     0
 62
     4
  6
CONTINUOUS
370
    -3
390
9BE
  0
LAYER
  5
A3C
330
2
100
AcDbSymbolTableRecord
100
AcDbLayerTableRecord
  2
4
 70
     0
 62
     2
  6
CENTER
370
    -3
390
9BE
  0
LAYER
  5
A3D
330
2
100
AcDbSymbolTableRecord
100
AcDbLayerTableRecord
  2
6
 70
     0
 62
     5
  6
CONTINUOUS
370
    -3
390
9BE
  0
LAYER
  5
A3E
330
2
100
AcDbSymbolTableRecord
100
AcDbLayerTableRecord
  2
NOCUT
 70
     0
 62
     7
  6
CONTINUOUS
370
    -3
390
9BE
  0
LAYER
  5
A3F
330
2
100
AcDbSymbolTableRecord
100
AcDbLayerTableRecord
  2
2
 70
     0
 62
     7
  6
CONTINUOUS
370
    -3
390
9BE
  0
LAYER
  5
A40
330
2
100
AcDbSymbolTableRecord
100
AcDbLayerTableRecord
  2
SK2
 70
     0
 62
     7
  6
CONTINUOUS
370
    -3
390
9BE
  0
LAYER
  5
A41
330
2
100
AcDbSymbolTableRecord
100
AcDbLayerTableRecord
  2
SK3
 70
     0
 62
     1
  6
HIDDEN
370
    -3
390
9BE
  0
ENDTAB
  0
TABLE
  2
STYLE
  5
3
330
0
100
AcDbSymbolTable
 70
     2
  0
STYLE
  5
11
330
3
100
AcDbSymbolTableRecord
100
AcDbTextStyleTableRecord
  2
STANDARD
 70
     0
 40
0.0
 41
0.8
 50
0.0
 71
     0
 42
0.2
  3
txt
  4

  0
STYLE
  5
A42
330
3
100
AcDbSymbolTableRecord
100
AcDbTextStyleTableRecord
  2
isocp
 70
     0
 40
0.0
 41
0.8
 50
0.0
 71
     0
 42
0.2
  3
isocp.shx
  4

  0
ENDTAB
  0
TABLE
  2
VIEW
  5
6
330
0
100
AcDbSymbolTable
 70
     0
  0
ENDTAB
  0
TABLE
  2
UCS
  5
7
330
0
100
AcDbSymbolTable
 70
     0
  0
ENDTAB
  0
TABLE
  2
APPID
  5
9
330
0
100
AcDbSymbolTable
 70
     1
  0
APPID
  5
215
330
9
100
AcDbSymbolTableRecord
100
AcDbRegAppTableRecord
  2
ACAD
 70
     0
  0
ENDTAB
  0
TABLE
  2
DIMSTYLE
  5
A
330
0
100
AcDbSymbolTable
 70
     1
100
AcDbDimStyleTable
 71
     1
340
A43
  0
DIMSTYLE
105
A43
102
{ACAD_REACTORS
330
37F2
330
3866
330
3867
330
3868
330
3869
330
38B6
330
38F1
330
3904
102
}
330
A
100
AcDbSymbolTableRecord
100
AcDbDimStyleTableRecord
  2
ISO-25
 70
     0
 41
3.5
 42
0.625
 43
3.75
 44
2.0
 73
     0
 74
     0
 77
     1
 78
     8
140
3.5
141
2.5
143
0.03937007874016
147
0.625
171
     3
172
     1
176
   256
177
   256
178
   256
271
     1
272
     1
274
     3
283
     0
284
     8
289
     0
340
A42
  0
ENDTAB
  0
TABLE
  2
BLOCK_RECORD
  5
1
330
0
100
AcDbSymbolTable
 70
    10
  0
BLOCK_RECORD
  5
1F
330
1
100
AcDbSymbolTableRecord
100
AcDbBlockTableRecord
  2
*MODEL_SPACE
340
9C1
  0
BLOCK_RECORD
  5
1B
330
1
100
AcDbSymbolTableRecord
100
AcDbBlockTableRecord
  2
*PAPER_SPACE
340
9C2
  0
BLOCK_RECORD
  5
9C5
330
1
100
AcDbSymbolTableRecord
100
AcDbBlockTableRecord
  2
nullpunkt_1
340
0
310
2800000020000000200000000100080000000000000400000000000000000000000000000000000000000000000080000080000000808000800000008000800080800000C0C0C000C0DCC000F0CAA6000020400000206000002080000020A0000020C0000020E00000400000004020000040400000406000004080000040A0
310
000040C0000040E00000600000006020000060400000606000006080000060A0000060C0000060E00000800000008020000080400000806000008080000080A0000080C0000080E00000A0000000A0200000A0400000A0600000A0800000A0A00000A0C00000A0E00000C0000000C0200000C0400000C0600000C0800000C0
310
A00000C0C00000C0E00000E0000000E0200000E0400000E0600000E0800000E0A00000E0C00000E0E00040000000400020004000400040006000400080004000A0004000C0004000E00040200000402020004020400040206000402080004020A0004020C0004020E000404000004040200040404000404060004040800040
310
40A0004040C0004040E00040600000406020004060400040606000406080004060A0004060C0004060E00040800000408020004080400040806000408080004080A0004080C0004080E00040A0000040A0200040A0400040A0600040A0800040A0A00040A0C00040A0E00040C0000040C0200040C0400040C0600040C08000
310
40C0A00040C0C00040C0E00040E0000040E0200040E0400040E0600040E0800040E0A00040E0C00040E0E00080000000800020008000400080006000800080008000A0008000C0008000E00080200000802020008020400080206000802080008020A0008020C0008020E00080400000804020008040400080406000804080
310
008040A0008040C0008040E00080600000806020008060400080606000806080008060A0008060C0008060E00080800000808020008080400080806000808080008080A0008080C0008080E00080A0000080A0200080A0400080A0600080A0800080A0A00080A0C00080A0E00080C0000080C0200080C0400080C0600080C0
310
800080C0A00080C0C00080C0E00080E0000080E0200080E0400080E0600080E0800080E0A00080E0C00080E0E000C0000000C0002000C0004000C0006000C0008000C000A000C000C000C000E000C0200000C0202000C0204000C0206000C0208000C020A000C020C000C020E000C0400000C0402000C0404000C0406000C0
310
408000C040A000C040C000C040E000C0600000C0602000C0604000C0606000C0608000C060A000C060C000C060E000C0800000C0802000C0804000C0806000C0808000C080A000C080C000C080E000C0A00000C0A02000C0A04000C0A06000C0A08000C0A0A000C0A0C000C0A0E000C0C00000C0C02000C0C04000C0C06000
310
C0C08000C0C0A000F0FBFF00A4A0A000808080000000FF0000FF000000FFFF00FF000000FF00FF00FFFF0000FFFFFF0000000000000000000000000000000000000000000000000000000000000000000000000000000000000000000000FEFE0000000000000000000000000000000000000000000000000000FEFEFEFEFE
310
FEFEFE00000000000000000000000000000000000000000000FEFEFEFEFEFE00FE0000FEFE00000000000000000000000000000000000000FEFEFEFE00FE0000FE00000000FEFE00000000000000000000000000000000FEFEFE0000FE000000FE000000000000FEFE00000000000000000000000000FEFE000000FE000000
310
00FE0000000000000000FEFE00000000000000000000FEFE000000FE0000000000FE00000000000000000000FE0000000000000000FEFEFE0000FE000000000000FE00000000000000000000FE0000000000000000FEFE0000FE00000000000000FE0000000000000000000000FE000000000000FEFEFE00FE000000000000
310
0000FE0000000000000000000000FE000000000000FEFE00FE000000000000000000FE000000000000000000000000FE0000000000FEFEFE00000000000000000000FE000000000000000000000000FE0000000000FEFE0000000000000000000000FE00000000000000000000000000FE000000FEFE000000000000000000
310
000000FE00000000000000000000000000FE000000FEFEFEFEFEFEFEFEFEFEFEFEFEFEFEFEFEFEFEFEFEFEFEFEFEFEFEFEFEFE000000FE000000000000000000000000FE00000000000000000000000000FEFE000000FE000000000000000000000000FE000000000000000000000000FEFEFE00000000FE00000000000000
310
00000000FE0000000000000000000000FE00FE0000000000FE0000000000000000000000FE00000000000000000000FE00FEFE000000000000FE00000000000000000000FE000000000000000000FE0000FEFE000000000000FE00000000000000000000FE0000000000000000FE0000FEFEFE00000000000000FE00000000
310
0000000000FE00000000000000FE000000FEFE0000000000000000FE000000000000000000FE000000000000FE000000FEFEFE000000000000000000FE0000000000000000FE0000000000FE00000000FEFE00000000000000000000FE0000000000000000FE00000000FE00000000FEFE000000000000000000000000FEFE
310
000000000000FE000000FE000000FEFEFE000000000000000000000000000000FEFE00000000FE0000FE0000FEFEFEFE000000000000000000000000000000000000FEFE0000FE00FE00FEFEFEFEFE000000000000000000000000000000000000000000FEFEFEFEFEFEFEFEFE000000000000000000000000000000000000
310
00000000000000FEFEFE00000000000000000000000000000000000000000000000000000000000000000000000000000000000000000000
102
{BLKREFS
331
B41
331
C42
331
12B3
331
25ED
331
3646
331
3711
331
383C
102
}
  0
BLOCK_RECORD
  5
9CE
330
1
100
AcDbSymbolTableRecord
100
AcDbBlockTableRecord
  2
nullpunkt_2
340
0
310
2800000020000000200000000100080000000000000400000000000000000000000000000000000000000000000080000080000000808000800000008000800080800000C0C0C000C0DCC000F0CAA6000020400000206000002080000020A0000020C0000020E00000400000004020000040400000406000004080000040A0
310
000040C0000040E00000600000006020000060400000606000006080000060A0000060C0000060E00000800000008020000080400000806000008080000080A0000080C0000080E00000A0000000A0200000A0400000A0600000A0800000A0A00000A0C00000A0E00000C0000000C0200000C0400000C0600000C0800000C0
310
A00000C0C00000C0E00000E0000000E0200000E0400000E0600000E0800000E0A00000E0C00000E0E00040000000400020004000400040006000400080004000A0004000C0004000E00040200000402020004020400040206000402080004020A0004020C0004020E000404000004040200040404000404060004040800040
310
40A0004040C0004040E00040600000406020004060400040606000406080004060A0004060C0004060E00040800000408020004080400040806000408080004080A0004080C0004080E00040A0000040A0200040A0400040A0600040A0800040A0A00040A0C00040A0E00040C0000040C0200040C0400040C0600040C08000
310
40C0A00040C0C00040C0E00040E0000040E0200040E0400040E0600040E0800040E0A00040E0C00040E0E00080000000800020008000400080006000800080008000A0008000C0008000E00080200000802020008020400080206000802080008020A0008020C0008020E00080400000804020008040400080406000804080
310
008040A0008040C0008040E00080600000806020008060400080606000806080008060A0008060C0008060E00080800000808020008080400080806000808080008080A0008080C0008080E00080A0000080A0200080A0400080A0600080A0800080A0A00080A0C00080A0E00080C0000080C0200080C0400080C0600080C0
310
800080C0A00080C0C00080C0E00080E0000080E0200080E0400080E0600080E0800080E0A00080E0C00080E0E000C0000000C0002000C0004000C0006000C0008000C000A000C000C000C000E000C0200000C0202000C0204000C0206000C0208000C020A000C020C000C020E000C0400000C0402000C0404000C0406000C0
310
408000C040A000C040C000C040E000C0600000C0602000C0604000C0606000C0608000C060A000C060C000C060E000C0800000C0802000C0804000C0806000C0808000C080A000C080C000C080E000C0A00000C0A02000C0A04000C0A06000C0A08000C0A0A000C0A0C000C0A0E000C0C00000C0C02000C0C04000C0C06000
310
C0C08000C0C0A000F0FBFF00A4A0A000808080000000FF0000FF000000FFFF00FF000000FF00FF00FFFF0000FFFFFF0000000000000000000000000000000000000000000000000000000000000000000000000000000000000000000000FEFE0000000000000000000000000000000000000000000000000000FEFEFEFEFE
310
FEFEFE00000000000000000000000000000000000000000000FEFEFEFEFEFE00FE0000FEFE00000000000000000000000000000000000000FEFEFEFE00FE0000FE00000000FEFE00000000000000000000000000000000FEFEFE0000FE000000FE000000000000FEFE00000000000000000000000000FEFE000000FE000000
310
00FE0000000000000000FEFE00000000000000000000FEFE000000FE0000000000FE00000000000000000000FE0000000000000000FEFEFE0000FE000000000000FE00000000000000000000FE0000000000000000FEFE0000FE00000000000000FE0000000000000000000000FE000000000000FEFEFE00FE000000000000
310
0000FE0000000000000000000000FE000000000000FEFE00FE000000000000000000FE000000000000000000000000FE0000000000FEFEFE00000000000000000000FE000000000000000000000000FE0000000000FEFE0000000000000000000000FE00000000000000000000000000FE000000FEFE000000000000000000
310
000000FE00000000000000000000000000FE000000FEFEFEFEFEFEFEFEFEFEFEFEFEFEFEFEFEFEFEFEFEFEFEFEFEFEFEFEFEFE000000FE000000000000000000000000FE00000000000000000000000000FEFE000000FE000000000000000000000000FE000000000000000000000000FEFEFE00000000FE00000000000000
310
00000000FE0000000000000000000000FE00FE0000000000FE0000000000000000000000FE00000000000000000000FE00FEFE000000000000FE00000000000000000000FE000000000000000000FE0000FEFE000000000000FE00000000000000000000FE0000000000000000FE0000FEFEFE00000000000000FE00000000
310
0000000000FE00000000000000FE000000FEFE0000000000000000FE000000000000000000FE000000000000FE000000FEFEFE000000000000000000FE0000000000000000FE0000000000FE00000000FEFE00000000000000000000FE0000000000000000FE00000000FE00000000FEFE000000000000000000000000FEFE
310
000000000000FE000000FE000000FEFEFE000000000000000000000000000000FEFE00000000FE0000FE0000FEFEFEFE000000000000000000000000000000000000FEFE0000FE00FE00FEFEFEFEFE000000000000000000000000000000000000000000FEFEFEFEFEFEFEFEFE000000000000000000000000000000000000
310
00000000000000FEFEFE00000000000000000000000000000000000000000000000000000000000000000000000000000000000000000000
102
{BLKREFS
331
A58
331
B59
331
E36
331
2170
331
3648
331
3773
331
389E
102
}
  0
BLOCK_RECORD
  5
3905
330
1
100
AcDbSymbolTableRecord
100
AcDbBlockTableRecord
  2
*D2
340
0
  0
BLOCK_RECORD
  5
3911
330
1
100
AcDbSymbolTableRecord
100
AcDbBlockTableRecord
  2
*D3
340
0
  0
BLOCK_RECORD
  5
391D
330
1
100
AcDbSymbolTableRecord
100
AcDbBlockTableRecord
  2
*D4
340
0
  0
BLOCK_RECORD
  5
392B
330
1
100
AcDbSymbolTableRecord
100
AcDbBlockTableRecord
  2
*D5
340
0
  0
BLOCK_RECORD
  5
3937
330
1
100
AcDbSymbolTableRecord
100
AcDbBlockTableRecord
  2
*D6
340
0
  0
BLOCK_RECORD
  5
3943
330
1
100
AcDbSymbolTableRecord
100
AcDbBlockTableRecord
  2
*D7
340
0
  0
BLOCK_RECORD
  5
3951
330
1
100
AcDbSymbolTableRecord
100
AcDbBlockTableRecord
  2
*D8
340
0
  0
BLOCK_RECORD
  5
395D
330
1
100
AcDbSymbolTableRecord
100
AcDbBlockTableRecord
  2
*D9
340
0
  0
ENDTAB
  0
ENDSEC
  0
SECTION
  2
BLOCKS
  0
BLOCK
  5
20
330
1F
100
AcDbEntity
  8
0
100
AcDbBlockBegin
  2
*MODEL_SPACE
 70
     0
 10
0.0
 20
0.0
 30
0.0
  3
*MODEL_SPACE
  1

  0
ENDBLK
  5
21
330
1F
100
AcDbEntity
  8
0
100
AcDbBlockEnd
  0
BLOCK
  5
1C
330
1B
100
AcDbEntity
 67
     1
  8
0
100
AcDbBlockBegin
  2
*PAPER_SPACE
 70
     0
 10
0.0
 20
0.0
 30
0.0
  3
*PAPER_SPACE
  1

  0
ENDBLK
  5
1D
330
1B
100
AcDbEntity
 67
     1
  8
0
100
AcDbBlockEnd
  0
BLOCK
  5
9CC
330
9C5
100
AcDbEntity
  8
0
100
AcDbBlockBegin
  2
nullpunkt_1
 70
     0
 10
0.0
 20
0.0
 30
0.0
  3
nullpunkt_1
  1

  0
LWPOLYLINE
  5
9C6
102
{ACAD_REACTORS
330
9C7
102
}
330
9C5
100
AcDbEntity
  8
1
100
AcDbPolyline
 90
        3
 70
     1
 43
0.0
 10
0.0
 20
2.950972054112752
 10
0.0
 20
0.0
 10
2.950972054112638
 20
0.0
 42
0.4142135623730966
  0
HATCH
  5
9C7
330
9C5
100
AcDbEntity
  8
1
100
AcDbHatch
 10
0.0
 20
0.0
 30
0.0
210
0.0
220
0.0
230
1.0
  2
SOLID
 70
     1
 71
     1
 91
        2
 92
        7
 72
     1
 73
     1
 93
        3
 10
0.0
 20
0.0
 42
0.0
 10
2.950972054112638
 20
0.0
 42
0.4142135623730968
 10
0.0
 20
2.950972054112752
 42
0.0
 97
        1
330
9C6
 92
        7
 72
     1
 73
     1
 93
        3
 10
0.0
 20
-2.950972054112412
 42
0.0
 10
0.0
 20
0.0
 42
0.0
 10
-2.950972054112583
 20
0.0
 42
0.4142135623730966
 97
        1
330
9C9
 75
     0
 76
     1
 47
0.1190009775223266
 98
        2
 10
0.7445530588119596
 20
0.9212244733765826
 10
-1.27946460185285
 20
-1.696796923046235
  0
CIRCLE
  5
9C8
330
9C5
100
AcDbEntity
  8
1
100
AcDbCircle
 10
0.0
 20
0.0
 30
0.0
 40
2.950972054112601
  0
LWPOLYLINE
  5
9C9
102
{ACAD_REACTORS
330
9C7
102
}
330
9C5
100
AcDbEntity
  8
1
100
AcDbPolyline
 90
        3
 70
     1
 43
0.0
 10
0.0
 20
0.0
 10
-2.950972054112583
 20
0.0
 42
0.4142135623730966
 10
0.0
 20
-2.950972054112412
  0
LINE
  5
9CA
330
9C5
100
AcDbEntity
  8
1
100
AcDbLine
 10
-2.950972054112752
 20
0.0
 30
0.0
 11
2.950972054112583
 21
0.0
 31
0.0
  0
LINE
  5
9CB
330
9C5
100
AcDbEntity
  8
1
100
AcDbLine
 10
0.0
 20
2.950972054112752
 30
0.0
 11
0.0
 21
-2.950972054112412
 31
0.0
  0
ENDBLK
  5
9CD
330
9C5
100
AcDbEntity
  8
0
100
AcDbBlockEnd
  0
BLOCK
  5
9D4
330
9CE
100
AcDbEntity
  8
0
100
AcDbBlockBegin
  2
nullpunkt_2
 70
     0
 10
0.0
 20
0.0
 30
0.0
  3
nullpunkt_2
  1

  0
CIRCLE
  5
9CF
330
9CE
100
AcDbEntity
  8
1
100
AcDbCircle
 10
0.0
 20
0.0
 30
0.0
 40
1.0
  0
HATCH
  5
9D0
330
9CE
100
AcDbEntity
  8
1
100
AcDbHatch
 10
0.0
 20
0.0
 30
0.0
210
0.0
220
0.0
230
1.0
  2
SOLID
 70
     1
 71
     0
 91
        2
 92
        1
 93
        3
 72
     1
 10
0.0
 20
0.0
 11
-1.0
 21
0.0
 72
     2
 10
0.0
 20
0.0
 40
1.0
 50
180.0
 51
270.0
 73
     1
 72
     1
 10
0.0
 20
-0.9999999999998864
 11
0.0
 21
0.0
 97
        0
 92
        1
 93
        3
 72
     1
 10
0.0
 20
1.000000000000113
 11
0.0
 21
0.0
 72
     1
 10
0.0
 20
0.0
 11
1.0
 21
0.0
 72
     2
 10
0.0
 20
0.0
 40
1.0
 50
0.0
 51
90.0
 73
     1
 97
        0
 75
     0
 76
     1
 98
        1
 10
-109.9295341761981
 20
-32.53620011044962
  0
LINE
  5
9D1
330
9CE
100
AcDbEntity
  8
1
100
AcDbLine
 10
-1.0
 20
0.0
 30
0.0
 11
1.0
 21
0.0
 31
0.0
  0
LWPOLYLINE
  5
9D2
330
9CE
100
AcDbEntity
  8
1
100
AcDbPolyline
 90
        3
 70
     1
 43
0.0
 10
0.0
 20
0.0
 10
-1.0
 20
0.0
 42
0.4142135623730951
 10
0.0
 20
-0.9999999999998864
  0
LWPOLYLINE
  5
9D3
330
9CE
100
AcDbEntity
  8
1
100
AcDbPolyline
 90
        3
 70
     1
 43
0.0
 10
0.0
 20
1.000000000000113
 10
0.0
 20
0.0
 10
1.0
 20
0.0
 42
0.4142135623730951
  0
ENDBLK
  5
9D5
330
9CE
100
AcDbEntity
  8
0
100
AcDbBlockEnd
  0
BLOCK
  5
390F
330
3905
100
AcDbEntity
  8
0
100
AcDbBlockBegin
  2
*D2
 70
     1
 10
0.0
 20
0.0
 30
0.0
  3
*D2
  1

  0
LINE
  5
3969
330
3905
100
AcDbEntity
  8
2
370
    -2
100
AcDbLine
 10
80.5
 20
26.92662741410001
 30
0.0
 11
80.5
 21
62.62500108410001
 31
0.0
  0
LINE
  5
396A
330
3905
100
AcDbEntity
  8
2
370
    -2
100
AcDbLine
 10
0.0000000000000285
 20
23.39785468930003
 30
0.0
 11
0.0000000000000309
 21
62.62500108410001
 31
0.0
  0
LINE
  5
396B
330
3905
100
AcDbEntity
  8
2
370
    -2
100
AcDbLine
 10
77.0
 20
60.6250010841
 30
0.0
 11
3.500000000000029
 21
60.6250010841
 31
0.0
  0
SOLID
  5
396C
330
3905
100
AcDbEntity
  8
2
100
AcDbTrace
 10
77.0
 20
61.20833441743335
 30
0.0
 11
77.0
 21
60.04166775076667
 31
0.0
 12
80.5
 22
60.6250010841
 32
0.0
 13
80.5
 23
60.6250010841
 33
0.0
  0
SOLID
  5
396D
330
3905
100
AcDbEntity
  8
2
100
AcDbTrace
 10
3.500000000000029
 20
61.20833441743335
 30
0.0
 11
3.500000000000029
 21
60.04166775076667
 31
0.0
 12
0.0000000000000307
 22
60.6250010841
 32
0.0
 13
0.0000000000000307
 23
60.6250010841
 33
0.0
  0
MTEXT
  5
396E
330
3905
100
AcDbEntity
  8
2
100
AcDbMText
 10
38.76528132150003
 20
63.00000108409999
 30
0.0
 40
3.5
 41
0.0
 71
     5
 72
     1
  1
80.5
  7
isocp
 73
     1
 44
1.0
  0
POINT
  5
396F
330
3905
100
AcDbEntity
  8
Defpoints
 62
     0
100
AcDbPoint
 10
80.5
 20
26.30162741410001
 30
0.0
  0
POINT
  5
3970
330
3905
100
AcDbEntity
  8
Defpoints
 62
     0
100
AcDbPoint
 10
0.0000000000000284
 20
22.77285468930003
 30
0.0
  0
POINT
  5
3971
330
3905
100
AcDbEntity
  8
Defpoints
 62
     0
100
AcDbPoint
 10
0.0000000000000307
 20
60.6250010841
 30
0.0
  0
ENDBLK
  5
3910
330
3905
100
AcDbEntity
  8
0
100
AcDbBlockEnd
  0
BLOCK
  5
391B
330
3911
100
AcDbEntity
  8
0
100
AcDbBlockBegin
  2
*D3
 70
     1
 10
0.0
 20
0.0
 30
0.0
  3
*D3
  1

  0
LINE
  5
39B6
330
3911
100
AcDbEntity
  8
SK2
370
    -2
100
AcDbLine
 10
80.5
 20
-27.20545018440001
 30
0.0
 11
80.5
 21
-57.3750010842
 31
0.0
  0
LINE
  5
39B7
330
3911
100
AcDbEntity
  8
SK2
370
    -2
100
AcDbLine
 10
23.50000000000001
 20
-6.875
 30
0.0
 11
23.50000000000001
 21
-57.3750010842
 31
0.0
  0
LINE
  5
39B8
330
3911
100
AcDbEntity
  8
SK2
370
    -2
100
AcDbLine
 10
77.0
 20
-55.37500108420001
 30
0.0
 11
27.00000000000001
 21
-55.37500108420001
 31
0.0
  0
SOLID
  5
39B9
330
3911
100
AcDbEntity
  8
SK2
100
AcDbTrace
 10
77.0
 20
-54.79166775086667
 30
0.0
 11
77.0
 21
-55.95833441753335
 31
0.0
 12
80.5
 22
-55.37500108420001
 32
0.0
 13
80.5
 23
-55.37500108420001
 33
0.0
  0
SOLID
  5
39BA
330
3911
100
AcDbEntity
  8
SK2
100
AcDbTrace
 10
27.00000000000001
 20
-54.79166775086667
 30
0.0
 11
27.00000000000001
 21
-55.95833441753335
 31
0.0
 12
23.50000000000001
 22
-55.37500108420001
 32
0.0
 13
23.50000000000001
 23
-55.37500108420001
 33
0.0
  0
MTEXT
  5
39BB
330
3911
100
AcDbEntity
  8
SK2
100
AcDbMText
 10
50.99969782780005
 20
-53.0000010842
 30
0.0
 40
3.5
 41
0.0
 71
     5
 72
     1
  1
57
  7
isocp
 73
     1
 44
1.0
  0
POINT
  5
39BC
330
3911
100
AcDbEntity
  8
Defpoints
 62
     0
100
AcDbPoint
 10
80.5
 20
-26.58045018440001
 30
0.0
  0
POINT
  5
39BD
330
3911
100
AcDbEntity
  8
Defpoints
 62
     0
100
AcDbPoint
 10
23.50000000000001
 20
-6.25
 30
0.0
  0
POINT
  5
39BE
330
3911
100
AcDbEntity
  8
Defpoints
 62
     0
100
AcDbPoint
 10
23.50000000000001
 20
-55.37500108420001
 30
0.0
  0
ENDBLK
  5
391C
330
3911
100
AcDbEntity
  8
0
100
AcDbBlockEnd
  0
BLOCK
  5
3929
330
391D
100
AcDbEntity
  8
0
100
AcDbBlockBegin
  2
*D4
 70
     1
 10
0.0
 20
0.0
 30
0.0
  3
*D4
  1

  0
LINE
  5
39BF
330
391D
100
AcDbEntity
  8
SK2
370
    -2
100
AcDbLine
 10
23.50000000000001
 20
-6.875
 30
0.0
 11
23.50000000000001
 21
-47.37500108419999
 31
0.0
  0
LINE
  5
39C0
330
391D
100
AcDbEntity
  8
SK2
370
    -2
100
AcDbLine
 10
33.50000000000003
 20
-14.625
 30
0.0
 11
33.50000000000003
 21
-47.37500108419999
 31
0.0
  0
LINE
  5
39C1
330
391D
100
AcDbEntity
  8
SK2
370
    -2
100
AcDbLine
 10
20.00000000000001
 20
-45.3750010842
 30
0.0
 11
16.50000000000001
 21
-45.3750010842
 31
0.0
  0
LINE
  5
39C2
330
391D
100
AcDbEntity
  8
SK2
370
    -2
100
AcDbLine
 10
37.00000000000002
 20
-45.3750010842
 30
0.0
 11
40.50000000000003
 21
-45.3750010842
 31
0.0
  0
LINE
  5
39C3
330
391D
100
AcDbEntity
  8
SK2
370
    -2
100
AcDbLine
 10
23.50000000000001
 20
-45.3750010842
 30
0.0
 11
33.50000000000003
 21
-45.3750010842
 31
0.0
  0
SOLID
  5
39C4
330
391D
100
AcDbEntity
  8
SK2
100
AcDbTrace
 10
20.00000000000001
 20
-44.79166775086667
 30
0.0
 11
20.00000000000001
 21
-45.95833441753334
 31
0.0
 12
23.50000000000001
 22
-45.3750010842
 32
0.0
 13
23.50000000000001
 23
-45.3750010842
 33
0.0
  0
SOLID
  5
39C5
330
391D
100
AcDbEntity
  8
SK2
100
AcDbTrace
 10
37.00000000000002
 20
-44.79166775086667
 30
0.0
 11
37.00000000000002
 21
-45.95833441753334
 31
0.0
 12
33.50000000000003
 22
-45.3750010842
 32
0.0
 13
33.50000000000003
 23
-45.3750010842
 33
0.0
  0
MTEXT
  5
39C6
330
391D
100
AcDbEntity
  8
SK2
100
AcDbMText
 10
28.15644089820003
 20
-43.00000108419999
 30
0.0
 40
3.5
 41
0.0
 71
     5
 72
     1
  1
10
  7
isocp
 73
     1
 44
1.0
  0
POINT
  5
39C7
330
391D
100
AcDbEntity
  8
Defpoints
 62
     0
100
AcDbPoint
 10
23.50000000000001
 20
-6.25
 30
0.0
  0
POINT
  5
39C8
330
391D
100
AcDbEntity
  8
Defpoints
 62
     0
100
AcDbPoint
 10
33.50000000000003
 20
-14.0
 30
0.0
  0
POINT
  5
39C9
330
391D
100
AcDbEntity
  8
Defpoints
 62
     0
100
AcDbPoint
 10
33.50000000000003
 20
-45.3750010842
 30
0.0
  0
ENDBLK
  5
392A
330
391D
100
AcDbEntity
  8
0
100
AcDbBlockEnd
  0
BLOCK
  5
3935
330
392B
100
AcDbEntity
  8
0
100
AcDbBlockBegin
  2
*D5
 70
     1
 10
0.0
 20
0.0
 30
0.0
  3
*D5
  1

  0
LINE
  5
39CA
330
392B
100
AcDbEntity
  8
SK2
370
    -2
100
AcDbLine
 10
75.95371818040002
 20
-27.5
 30
0.0
 11
104.8750386292
 21
-27.50000000000001
 31
0.0
  0
LINE
  5
39CB
330
392B
100
AcDbEntity
  8
SK2
370
    -2
100
AcDbLine
 10
75.95371818040002
 20
27.50000000000003
 30
0.0
 11
104.8750386292
 21
27.50000000000001
 31
0.0
  0
LINE
  5
39CC
330
392B
100
AcDbEntity
  8
SK2
370
    -2
100
AcDbLine
 10
102.8750386291999
 20
-24.0
 30
0.0
 11
102.8750386291999
 21
24.00000000000002
 31
0.0
  0
SOLID
  5
39CD
330
392B
100
AcDbEntity
  8
SK2
100
AcDbTrace
 10
102.2917052958667
 20
-24.0
 30
0.0
 11
103.4583719625333
 21
-24.0
 31
0.0
 12
102.8750386291999
 22
-27.5
 32
0.0
 13
102.8750386291999
 23
-27.5
 33
0.0
  0
SOLID
  5
39CE
330
392B
100
AcDbEntity
  8
SK2
100
AcDbTrace
 10
102.2917052958667
 20
24.00000000000002
 30
0.0
 11
103.4583719625333
 21
24.00000000000002
 31
0.0
 12
102.8750386291999
 22
27.50000000000001
 32
0.0
 13
102.8750386291999
 23
27.50000000000001
 33
0.0
  0
MTEXT
  5
39CF
330
392B
100
AcDbEntity
  8
SK2
100
AcDbMText
 10
100.5000386292
 20
0.7961684601999938
 30
0.0
 40
3.5
 41
0.0
 71
     5
 72
     1
  1
%%c55
  7
isocp
 11
0.0000000000000001
 21
1.0
 31
0.0
 73
     1
 44
1.0
  0
POINT
  5
39D0
330
392B
100
AcDbEntity
  8
Defpoints
 62
     0
100
AcDbPoint
 10
75.32871818040002
 20
-27.5
 30
0.0
  0
POINT
  5
39D1
330
392B
100
AcDbEntity
  8
Defpoints
 62
     0
100
AcDbPoint
 10
75.32871818040002
 20
27.50000000000003
 30
0.0
  0
POINT
  5
39D2
330
392B
100
AcDbEntity
  8
Defpoints
 62
     0
100
AcDbPoint
 10
102.8750386291999
 20
27.50000000000001
 30
0.0
  0
ENDBLK
  5
3936
330
392B
100
AcDbEntity
  8
0
100
AcDbBlockEnd
  0
BLOCK
  5
3941
330
3937
100
AcDbEntity
  8
0
100
AcDbBlockBegin
  2
*D6
 70
     1
 10
0.0
 20
0.0
 30
0.0
  3
*D6
  1

  0
LINE
  5
39D3
330
3937
100
AcDbEntity
  8
SK2
370
    -2
100
AcDbLine
 10
56.21004229770004
 20
-33.0
 30
0.0
 11
114.8750386292
 21
-33.00000000000002
 31
0.0
  0
LINE
  5
39D4
330
3937
100
AcDbEntity
  8
SK2
370
    -2
100
AcDbLine
 10
56.21004229770004
 20
33.00000000000002
 30
0.0
 11
114.8750386292
 21
33.0
 31
0.0
  0
LINE
  5
39D5
330
3937
100
AcDbEntity
  8
SK2
370
    -2
100
AcDbLine
 10
112.8750386292
 20
-29.50000000000001
 30
0.0
 11
112.8750386292
 21
29.50000000000001
 31
0.0
  0
SOLID
  5
39D6
330
3937
100
AcDbEntity
  8
SK2
100
AcDbTrace
 10
112.2917052958667
 20
-29.50000000000001
 30
0.0
 11
113.4583719625332
 21
-29.50000000000001
 31
0.0
 12
112.8750386292
 22
-33.0
 32
0.0
 13
112.8750386292
 23
-33.0
 33
0.0
  0
SOLID
  5
39D7
330
3937
100
AcDbEntity
  8
SK2
100
AcDbTrace
 10
112.2917052958667
 20
29.50000000000001
 30
0.0
 11
113.4583719625332
 21
29.50000000000001
 31
0.0
 12
112.8750386292
 22
33.0
 32
0.0
 13
112.8750386292
 23
33.0
 33
0.0
  0
MTEXT
  5
39D8
330
3937
100
AcDbEntity
  8
SK2
100
AcDbMText
 10
110.5000386292
 20
-0.0838011859000003
 30
0.0
 40
3.5
 41
0.0
 71
     5
 72
     1
  1
%%c66
  7
isocp
 11
0.0000000000000001
 21
1.0
 31
0.0
 73
     1
 44
1.0
  0
POINT
  5
39D9
330
3937
100
AcDbEntity
  8
Defpoints
 62
     0
100
AcDbPoint
 10
55.58504229770004
 20
-33.0
 30
0.0
  0
POINT
  5
39DA
330
3937
100
AcDbEntity
  8
Defpoints
 62
     0
100
AcDbPoint
 10
55.58504229770004
 20
33.00000000000002
 30
0.0
  0
POINT
  5
39DB
330
3937
100
AcDbEntity
  8
Defpoints
 62
     0
100
AcDbPoint
 10
112.8750386292
 20
33.0
 30
0.0
  0
ENDBLK
  5
3942
330
3937
100
AcDbEntity
  8
0
100
AcDbBlockEnd
  0
BLOCK
  5
394F
330
3943
100
AcDbEntity
  8
0
100
AcDbBlockBegin
  2
*D7
 70
     1
 10
0.0
 20
0.0
 30
0.0
  3
*D7
  1

  0
LINE
  5
39DC
330
3943
100
AcDbEntity
  8
SK2
370
    -2
100
AcDbLine
 10
24.19746347920005
 20
8.000000000000026
 30
0.0
 11
40.66693547519764
 21
8.000000000000023
 31
0.0
  0
LINE
  5
39DD
330
3943
100
AcDbEntity
  8
SK2
370
    -2
100
AcDbLine
 10
24.13471492070002
 20
-8.0
 30
0.0
 11
40.66693547519764
 21
-8.000000000000005
 31
0.0
  0
LINE
  5
39DE
330
3943
100
AcDbEntity
  8
SK2
370
    -2
100
AcDbLine
 10
38.66693547519764
 20
11.50000000000001
 30
0.0
 11
38.66693547519764
 21
15.00000000000001
 31
0.0
  0
LINE
  5
39DF
330
3943
100
AcDbEntity
  8
SK2
370
    -2
100
AcDbLine
 10
38.66693547519764
 20
-11.5
 30
0.0
 11
38.66693547519764
 21
-15.0
 31
0.0
  0
LINE
  5
39E0
330
3943
100
AcDbEntity
  8
SK2
370
    -2
100
AcDbLine
 10
38.66693547519764
 20
8.000000000000023
 30
0.0
 11
38.66693547519764
 21
-8.000000000000001
 31
0.0
  0
SOLID
  5
39E1
330
3943
100
AcDbEntity
  8
SK2
100
AcDbTrace
 10
38.08360214186431
 20
11.50000000000001
 30
0.0
 11
39.25026880853097
 21
11.50000000000001
 31
0.0
 12
38.66693547519764
 22
8.000000000000023
 32
0.0
 13
38.66693547519764
 23
8.000000000000023
 33
0.0
  0
SOLID
  5
39E2
330
3943
100
AcDbEntity
  8
SK2
100
AcDbTrace
 10
38.08360214186431
 20
-11.5
 30
0.0
 11
39.25026880853097
 21
-11.5
 31
0.0
 12
38.66693547519764
 22
-8.000000000000001
 32
0.0
 13
38.66693547519764
 23
-8.000000000000001
 33
0.0
  0
MTEXT
  5
39E3
330
3943
100
AcDbEntity
  8
SK2
100
AcDbMText
 10
36.29193547519764
 20
0.4829105228000122
 30
0.0
 40
3.5
 41
0.0
 71
     5
 72
     1
  1
M16x1
  7
isocp
 11
0.0000000000000001
 21
1.0
 31
0.0
 73
     1
 44
1.0
  0
POINT
  5
39E4
330
3943
100
AcDbEntity
  8
Defpoints
 62
     0
100
AcDbPoint
 10
23.57246347920005
 20
8.000000000000026
 30
0.0
  0
POINT
  5
39E5
330
3943
100
AcDbEntity
  8
Defpoints
 62
     0
100
AcDbPoint
 10
23.50971492070002
 20
-8.0
 30
0.0
  0
POINT
  5
39E6
330
3943
100
AcDbEntity
  8
Defpoints
 62
     0
100
AcDbPoint
 10
38.66693547519764
 20
-8.000000000000001
 30
0.0
  0
ENDBLK
  5
3950
330
3943
100
AcDbEntity
  8
0
100
AcDbBlockEnd
  0
BLOCK
  5
395B
330
3951
100
AcDbEntity
  8
0
100
AcDbBlockBegin
  2
*D8
 70
     1
 10
0.0
 20
0.0
 30
0.0
  3
*D8
  1

  0
LINE
  5
39E7
330
3951
100
AcDbEntity
  8
SK2
370
    -2
100
AcDbLine
 10
80.5
 20
28.62500000000002
 30
0.0
 11
80.5
 21
52.62500108410001
 31
0.0
  0
LINE
  5
39E8
330
3951
100
AcDbEntity
  8
SK2
370
    -2
100
AcDbLine
 10
58.50000000000003
 20
28.62500000000002
 30
0.0
 11
58.50000000000003
 21
52.62500108410001
 31
0.0
  0
LINE
  5
39E9
330
3951
100
AcDbEntity
  8
SK2
370
    -2
100
AcDbLine
 10
77.0
 20
50.6250010841
 30
0.0
 11
62.00000000000002
 21
50.6250010841
 31
0.0
  0
SOLID
  5
39EA
330
3951
100
AcDbEntity
  8
SK2
100
AcDbTrace
 10
77.0
 20
51.20833441743335
 30
0.0
 11
77.0
 21
50.04166775076667
 31
0.0
 12
80.5
 22
50.6250010841
 32
0.0
 13
80.5
 23
50.6250010841
 33
0.0
  0
SOLID
  5
39EB
330
3951
100
AcDbEntity
  8
SK2
100
AcDbTrace
 10
62.00000000000002
 20
51.20833441743335
 30
0.0
 11
62.00000000000002
 21
50.04166775076667
 31
0.0
 12
58.50000000000003
 22
50.6250010841
 32
0.0
 13
58.50000000000003
 23
50.6250010841
 33
0.0
  0
MTEXT
  5
39EC
330
3951
100
AcDbEntity
  8
SK2
100
AcDbMText
 10
69.13676406540003
 20
53.00034557228897
 30
0.0
 40
3.5
 41
0.0
 71
     5
 72
     1
  1
22
  7
isocp
 73
     1
 44
1.0
  0
POINT
  5
39ED
330
3951
100
AcDbEntity
  8
Defpoints
 62
     0
100
AcDbPoint
 10
80.5
 20
28.00000000000002
 30
0.0
  0
POINT
  5
39EE
330
3951
100
AcDbEntity
  8
Defpoints
 62
     0
100
AcDbPoint
 10
58.50000000000003
 20
28.00000000000002
 30
0.0
  0
POINT
  5
39EF
330
3951
100
AcDbEntity
  8
Defpoints
 62
     0
100
AcDbPoint
 10
58.50000000000003
 20
50.6250010841
 30
0.0
  0
ENDBLK
  5
395C
330
3951
100
AcDbEntity
  8
0
100
AcDbBlockEnd
  0
BLOCK
  5
3967
330
395D
100
AcDbEntity
  8
0
100
AcDbBlockBegin
  2
*D9
 70
     1
 10
0.0
 20
0.0
 30
0.0
  3
*D9
  1

  0
LINE
  5
39F0
330
395D
100
AcDbEntity
  8
SK2
370
    -2
100
AcDbLine
 10
81.62499999999999
 20
-12.5
 30
0.0
 11
94.87503862920004
 21
-12.5
 31
0.0
  0
LINE
  5
39F1
330
395D
100
AcDbEntity
  8
SK2
370
    -2
100
AcDbLine
 10
81.62499999999999
 20
12.50000000000001
 30
0.0
 11
94.87503862920004
 21
12.50000000000001
 31
0.0
  0
LINE
  5
39F2
330
395D
100
AcDbEntity
  8
SK2
370
    -2
100
AcDbLine
 10
92.87503862920003
 20
-9.000000000000001
 30
0.0
 11
92.87503862920003
 21
9.000000000000023
 31
0.0
  0
SOLID
  5
39F3
330
395D
100
AcDbEntity
  8
SK2
100
AcDbTrace
 10
92.29170529586673
 20
-9.000000000000001
 30
0.0
 11
93.45837196253338
 21
-9.000000000000001
 31
0.0
 12
92.87503862920003
 22
-12.5
 32
0.0
 13
92.87503862920003
 23
-12.5
 33
0.0
  0
SOLID
  5
39F4
330
395D
100
AcDbEntity
  8
SK2
100
AcDbTrace
 10
92.29170529586673
 20
9.000000000000023
 30
0.0
 11
93.45837196253338
 21
9.000000000000023
 31
0.0
 12
92.87503862920003
 22
12.50000000000001
 32
0.0
 13
92.87503862920003
 23
12.50000000000001
 33
0.0
  0
MTEXT
  5
39F5
330
395D
100
AcDbEntity
  8
SK2
100
AcDbMText
 10
90.49969414101109
 20
0.5456724230000136
 30
0.0
 40
3.5
 41
0.0
 71
     5
 72
     1
  1
%%c25
  7
isocp
 11
0.0000000000000001
 21
1.0
 31
0.0
 73
     1
 44
1.0
  0
POINT
  5
39F6
330
395D
100
AcDbEntity
  8
Defpoints
 62
     0
100
AcDbPoint
 10
81.0
 20
-12.5
 30
0.0
  0
POINT
  5
39F7
330
395D
100
AcDbEntity
  8
Defpoints
 62
     0
100
AcDbPoint
 10
81.0
 20
12.50000000000001
 30
0.0
  0
POINT
  5
39F8
330
395D
100
AcDbEntity
  8
Defpoints
 62
     0
100
AcDbPoint
 10
92.87503862920003
 20
12.50000000000001
 30
0.0
  0
ENDBLK
  5
3968
330
395D
100
AcDbEntity
  8
0
100
AcDbBlockEnd
  0
ENDSEC
  0
SECTION
  2
ENTITIES
  0
LINE
  5
37DD
330
1F
100
AcDbEntity
  8
NOCUT
100
AcDbLine
 10
17.5
 20
31.77500000000003
 30
0.0
 11
14.34750000000008
 21
31.77500000000003
 31
0.0
  0
LINE
  5
37DE
330
1F
100
AcDbEntity
  8
NOCUT
100
AcDbLine
 10
80.5
 20
0.0
 30
0.0
 11
0.0
 21
0.0
 31
0.0
  0
LINE
  5
37DF
330
1F
100
AcDbEntity
  8
SK3
100
AcDbLine
 10
15.41659940850004
 20
21.86908187699998
 30
0.0
 11
14.72023465600005
 21
21.9918667759
 31
0.0
  0
LINE
  5
37E0
330
1F
100
AcDbEntity
  8
SK3
100
AcDbLine
 10
12.5487001405
 20
25.96483013440002
 30
0.0
 11
15.41659940850004
 21
21.86908187699998
 31
0.0
  0
LINE
  5
37E1
330
1F
100
AcDbEntity
  8
SK3
100
AcDbLine
 10
15.41659940850004
 20
-21.86908187699998
 30
0.0
 11
12.5487001405
 21
-25.96483013449997
 31
0.0
  0
LINE
  5
37E2
330
1F
100
AcDbEntity
  8
SK3
100
AcDbLine
 10
-1.499999999999971
 20
8.000000000000026
 30
0.0
 11
23.50000000000001
 21
8.000000000000026
 31
0.0
  0
LINE
  5
37E3
330
1F
100
AcDbEntity
  8
SK3
100
AcDbLine
 10
-25.89999999999994
 20
7.500000000000056
 30
0.0
 11
23.00000000010006
 21
7.500000000000027
 31
0.0
  0
LINE
  5
37E4
330
1F
100
AcDbEntity
  8
SK3
100
AcDbLine
 10
-25.89999999999994
 20
-7.5
 30
0.0
 11
23.00000000010006
 21
-7.5
 31
0.0
  0
LINE
  5
37E5
330
1F
100
AcDbEntity
  8
SK3
100
AcDbLine
 10
-1.499999999999971
 20
-8.0
 30
0.0
 11
23.50000000000001
 21
-8.0
 31
0.0
  0
LINE
  5
37E6
330
1F
100
AcDbEntity
  8
SK3
100
AcDbLine
 10
19.10277284030004
 20
-24.45019121819998
 30
0.0
 11
15.00702458280005
 21
-21.5822919502
 31
0.0
  0
LINE
  5
37E7
330
1F
100
AcDbEntity
  8
SK3
100
AcDbLine
 10
-5.976112233899981
 20
-7.5
 30
0.0
 11
18.81598291350005
 21
-24.85976604399998
 31
0.0
  0
LINE
  5
37E8
330
1F
100
AcDbEntity
  8
SK3
100
AcDbLine
 10
19.10277284030004
 20
24.4501912181
 30
0.0
 11
15.00702458280005
 21
21.58229195019998
 31
0.0
  0
LINE
  5
37E9
330
1F
100
AcDbEntity
  8
SK3
100
AcDbLine
 10
18.81598291350005
 20
24.85976604390001
 30
0.0
 11
-5.976112233899981
 21
7.500000000000027
 31
0.0
  0
LINE
  5
37EA
330
1F
100
AcDbEntity
  8
SK3
100
AcDbLine
 10
11.14969137310004
 20
-24.37483587449998
 30
0.0
 11
16.52166349910001
 21
-28.1363646499
 31
0.0
  0
LINE
  5
37EB
330
1F
100
AcDbEntity
  8
SK3
100
AcDbLine
 10
16.23487357230001
 20
-28.5459394757
 30
0.0
 11
12.13912531480001
 21
-25.67804020770001
 31
0.0
  0
LINE
  5
37EC
330
1F
100
AcDbEntity
  8
SK3
100
AcDbLine
 10
16.52166349910001
 20
28.1363646499
 30
0.0
 11
11.14969137310004
 21
24.37483587439999
 31
0.0
  0
LINE
  5
37ED
330
1F
100
AcDbEntity
  8
SK3
100
AcDbLine
 10
16.23487357230001
 20
28.54593947559999
 30
0.0
 11
12.13912531480001
 21
25.67804020769996
 31
0.0
  0
LINE
  5
37EE
330
1F
100
AcDbEntity
  8
SK3
100
AcDbLine
 10
15.41659940850004
 20
-21.86908187699998
 30
0.0
 11
14.72023465600005
 21
-21.99186677599998
 31
0.0
  0
LINE
  5
37EF
330
1F
100
AcDbEntity
  8
4
100
AcDbLine
 10
34.05313154890001
 20
0.0
 30
0.0
 11
-71.39999999999997
 21
0.0
 31
0.0
  0
LINE
  5
37F0
330
1F
100
AcDbEntity
  8
4
100
AcDbLine
 10
-20.18329563739996
 20
0.0065089331000081
 30
0.0
 11
11.14139248930001
 21
-21.93902757340001
 31
0.0
  0
LINE
  5
37F1
330
1F
100
AcDbEntity
  8
4
100
AcDbLine
 10
-20.18726947169994
 20
-0.0092914667000059
 30
0.0
 11
11.12837066540004
 21
21.94814635369998
 31
0.0
  0
DIMENSION
  5
37F2
330
1F
100
AcDbEntity
  8
2
100
AcDbDimension
  2
*D2
 10
0.0000000000000307
 20
60.6250010841
 30
0.0
 11
38.76528132150003
 21
60.6250010841
 31
0.0
 70
   160
 71
     5
 42
80.49999999999997
  3
ISO-25
100
AcDbAlignedDimension
 13
80.5
 23
26.30162741410001
 33
0.0
 14
0.0000000000000284
 24
22.77285468930003
 34
0.0
 50
180.0
100
AcDbRotatedDimension
  0
LINE
  5
37F3
330
1F
100
AcDbEntity
  8
1
100
AcDbLine
 10
17.50000000000001
 20
31.775
 30
0.0
 11
14.34750000000001
 21
31.775
 31
0.0
  0
LINE
  5
37F4
330
1F
100
AcDbEntity
  8
1
100
AcDbLine
 10
3.200000000000017
 20
8.050000000000011
 30
0.0
 11
19.10000000000001
 21
8.050000000000011
 31
0.0
  0
LINE
  5
37F5
330
1F
100
AcDbEntity
  8
1
100
AcDbLine
 10
3.200000000000017
 20
-8.050000000000011
 30
0.0
 11
19.10000000000001
 21
-8.050000000000011
 31
0.0
  0
LINE
  5
37F6
330
1F
100
AcDbEntity
  8
1
100
AcDbLine
 10
3.200000000000017
 20
-18.5
 30
0.0
 11
19.10000000000001
 21
-18.5
 31
0.0
  0
LINE
  5
37F7
330
1F
100
AcDbEntity
  8
1
100
AcDbLine
 10
17.49999999810003
 20
-25.83409810699999
 30
0.0
 11
14.34750000000001
 21
-25.83409810699999
 31
0.0
  0
LINE
  5
37F8
330
1F
100
AcDbEntity
  8
1
100
AcDbLine
 10
17.50000000000001
 20
-31.775
 30
0.0
 11
14.34750000000001
 21
-31.775
 31
0.0
  0
LINE
  5
37F9
330
1F
100
AcDbEntity
  8
SK3
100
AcDbLine
 10
-12.94985786829997
 20
-7.5
 30
0.0
 11
7.662865645700009
 21
-21.93331253789998
 31
0.0
  0
LINE
  5
37FA
330
1F
100
AcDbEntity
  8
1
100
AcDbLine
 10
3.200000000000017
 20
-30.12632953349998
 30
0.0
 11
3.200000000000017
 21
30.12632953350001
 31
0.0
  0
LINE
  5
37FB
330
1F
100
AcDbEntity
  8
1
100
AcDbLine
 10
0.3196152423000171
 20
21.80829262149998
 30
0.0
 11
0.3196152423000171
 21
-21.80829262149998
 31
0.0
  0
LINE
  5
37FC
330
1F
100
AcDbEntity
  8
1
100
AcDbLine
 10
-0.7999999999999829
 20
-22.10829262149998
 30
0.0
 11
-0.7999999999999829
 21
22.10829262149998
 31
0.0
  0
LINE
  5
37FD
330
1F
100
AcDbEntity
  8
1
100
AcDbLine
 10
-0.7999999999999829
 20
-22.10829262149998
 30
0.0
 11
-67.37322744119997
 21
-12.39630905529998
 31
0.0
  0
TEXT
  5
37FE
330
1F
100
AcDbEntity
  8
6
100
AcDbText
 10
-36.94609373604658
 20
-45.97442733573211
 30
0.0
 40
3.5
  1
DIN 69871-A40
 41
0.8
  7
isocp
100
AcDbText
  0
LINE
  5
37FF
330
1F
100
AcDbEntity
  8
1
100
AcDbLine
 10
7.852500000000018
 20
-31.775
 30
0.0
 11
9.225000000000024
 21
-29.39776026659998
 31
0.0
  0
LINE
  5
3800
330
1F
100
AcDbEntity
  8
1
100
AcDbLine
 10
14.34750000000001
 20
-25.83409810699999
 30
0.0
 11
14.34750000000001
 21
-31.775
 31
0.0
  0
LINE
  5
3801
330
1F
100
AcDbEntity
  8
1
100
AcDbLine
 10
7.852500000000018
 20
-31.775
 30
0.0
 11
7.852500000000018
 21
-25.83409810699999
 31
0.0
  0
LINE
  5
3802
330
1F
100
AcDbEntity
  8
1
100
AcDbLine
 10
12.97500000000002
 20
-29.39776026659998
 30
0.0
 11
14.34750000000001
 21
-31.775
 31
0.0
  0
ARC
  5
3803
330
1F
100
AcDbEntity
  8
1
100
AcDbCircle
 10
4.800000000000012
 20
-30.175
 30
0.0
 40
1.6
100
AcDbArc
 50
202.0424220467995
 51
270.0
  0
LINE
  5
3804
330
1F
100
AcDbEntity
  8
1
100
AcDbLine
 10
7.852500000000018
 20
-31.775
 30
0.0
 11
4.800000000000012
 21
-31.775
 31
0.0
  0
LINE
  5
3805
330
1F
100
AcDbEntity
  8
SK3
100
AcDbLine
 10
6.18497015180003
 20
-28.46188146689998
 30
0.0
 11
10.28061198530005
 21
-25.59383021709998
 31
0.0
  0
LINE
  5
3806
330
1F
100
AcDbEntity
  8
SK3
100
AcDbLine
 10
11.14969137310004
 20
-24.37483587449998
 30
0.0
 11
5.898165026800028
 21
-28.05231728359999
 31
0.0
  0
LINE
  5
3807
330
1F
100
AcDbEntity
  8
SK3
100
AcDbLine
 10
7.662865645700009
 20
-21.93331253789998
 30
0.0
 11
3.603724026900038
 21
-24.77580381679999
 31
0.0
  0
LINE
  5
3808
330
1F
100
AcDbEntity
  8
SK3
100
AcDbLine
 10
3.316918902000026
 20
-24.36623963350001
 30
0.0
 11
7.227012429836206
 21
-21.62812212087726
 31
0.0
  0
LINE
  5
3809
330
1F
100
AcDbEntity
  8
1
100
AcDbLine
 10
4.800000001300047
 20
-25.83409810699999
 30
0.0
 11
7.852500000000018
 21
-25.83409810699996
 31
0.0
  0
LINE
  5
380A
330
1F
100
AcDbEntity
  8
4
100
AcDbLine
 10
11.14139248930001
 20
-21.93902757340001
 30
0.0
 11
1.732279265800029
 21
-28.52793842989998
 31
0.0
  0
LINE
  5
380B
330
1F
100
AcDbEntity
  8
SK3
100
AcDbLine
 10
6.32837271430003
 20
-28.66666355859998
 30
0.0
 11
3.219007896500045
 21
-24.2264205106
 31
0.0
  0
SPLINE
  5
380C
330
1F
100
AcDbEntity
  8
1
100
AcDbSpline
210
0.0
220
0.0
230
1.0
 70
     8
 71
     3
 72
    12
 73
     8
 74
     6
 42
0.0000000001
 43
0.0000000001
 44
0.0000000001
 12
-1.0
 22
0.0
 32
0.0
 13
0.0
 23
1.0
 33
0.0
 40
0.0
 40
0.0
 40
0.0
 40
0.0
 40
0.4614876284385434
 40
0.9614365996793578
 40
1.51251063061273
 40
2.134047396211199
 40
2.82388524167761
 40
2.82388524167761
 40
2.82388524167761
 40
2.82388524167761
 10
4.800000001300019
 20
-25.83409810699999
 30
0.0
 10
4.646170791820504
 20
-25.83409810699999
 30
0.0
 10
4.323107661315536
 20
-25.77545248813349
 30
0.0
 10
3.880782423100042
 20
-25.51423617804834
 30
0.0
 10
3.511166036138392
 20
-25.08468170909623
 30
0.0
 10
3.258926797999595
 20
-24.50846883882993
 30
0.0
 10
3.200000000000017
 20
-24.06858317888879
 30
0.0
 10
3.200000000000017
 20
-23.83863723039998
 30
0.0
 11
4.800000001300019
 21
-25.83409810699999
 31
0.0
 11
4.345684338700009
 21
-25.7530542305
 31
0.0
 11
3.912726948699996
 21
-25.50306048600001
 31
0.0
 11
3.548894314700021
 21
-25.08916629419998
 31
0.0
 11
3.294836535400037
 21
-24.52192507939999
 31
0.0
 11
3.200000000000017
 21
-23.83863723039998
 31
0.0
  0
LINE
  5
380D
330
1F
100
AcDbEntity
  8
SK3
100
AcDbLine
 10
6.32837271430003
 20
-28.66666355859998
 30
0.0
 11
3.316950498500033
 21
-30.77546935779997
 31
0.0
  0
SPLINE
  5
380E
330
1F
100
AcDbEntity
  8
1
100
AcDbSpline
210
0.0
220
0.0
230
1.0
 70
     8
 71
     3
 72
    10
 73
     6
 74
     4
 42
0.0000000001
 43
0.0000000001
 44
0.0000000001
 12
0.0
 22
-1.0
 32
0.0
 13
0.2730087382374863
 23
-0.9620115533848727
 33
0.0
 40
0.0
 40
0.0
 40
0.0
 40
0.0
 40
0.3349121401947392
 40
0.5735276203009726
 40
0.6623862866608916
 40
0.6623862866608916
 40
0.6623862866608916
 40
0.6623862866608916
 10
3.200000000000017
 20
-30.12632953350001
 30
0.0
 10
3.200000000000017
 20
-30.23796691356492
 30
0.0
 10
3.219303723061063
 20
-30.42912956792505
 30
0.0
 10
3.268659805762032
 20
-30.64523767478949
 30
0.0
 10
3.308863910238576
 20
-30.74697513684779
 30
0.0
 10
3.316950307700038
 20
-30.7754694914
 30
0.0
 11
3.200000000000017
 21
-30.12632953350001
 31
0.0
 11
3.230534905700011
 21
-30.45984679119999
 31
0.0
 11
3.288209060100029
 21
-30.69138736919998
 31
0.0
 11
3.316950307700038
 21
-30.7754694914
 31
0.0
  0
ARC
  5
380F
330
1F
100
AcDbEntity
  8
1
100
AcDbCircle
 10
2.409731931300028
 20
-22.80829262149997
 30
0.0
 40
1.0
100
AcDbArc
 50
37.5379335793999
 51
90.0
  0
LINE
  5
3810
330
1F
100
AcDbEntity
  8
1
100
AcDbLine
 10
-0.7999999999999829
 20
-22.10829262149998
 30
0.0
 11
0.3196152423000171
 21
-21.80829262149998
 31
0.0
  0
LINE
  5
3811
330
1F
100
AcDbEntity
  8
1
100
AcDbLine
 10
0.3196152423000171
 20
-21.80829262149998
 30
0.0
 11
2.409731931300028
 21
-21.80829262149998
 31
0.0
  0
LINE
  5
3812
330
1F
100
AcDbEntity
  8
SK3
100
AcDbLine
 10
15.00702458280005
 20
-21.5822919502
 30
0.0
 11
12.13912531480001
 21
-25.67804020770001
 31
0.0
  0
LINE
  5
3813
330
1F
100
AcDbEntity
  8
SK3
100
AcDbLine
 10
12.5487001405
 20
-25.96483013449997
 30
0.0
 11
12.42591524160002
 21
-25.26846538199999
 31
0.0
  0
LINE
  5
3814
330
1F
100
AcDbEntity
  8
1
100
AcDbLine
 10
12.97500000000002
 20
-29.397396729
 30
0.0
 11
12.97500000000002
 21
-21.8435488188
 31
0.0
  0
LINE
  5
3815
330
1F
100
AcDbEntity
  8
1
100
AcDbLine
 10
9.225000000000024
 20
-29.397396729
 30
0.0
 11
9.225000000000024
 21
-21.8435488188
 31
0.0
  0
SPLINE
  5
3816
330
1F
100
AcDbEntity
  8
1
100
AcDbSpline
210
0.0
220
0.0
230
1.0
 70
     8
 71
     3
 72
    10
 73
     6
 74
     4
 42
0.0000000001
 43
0.0000000001
 44
0.0000000001
 12
-0.4093743989143582
 22
-0.9123664842120779
 32
0.0
 13
-0.4249194534150649
 23
-0.9052311628028736
 33
0.0
 40
0.0
 40
0.0
 40
0.0
 40
0.0
 40
1.064160324552486
 40
2.159771146496292
 40
3.287502624716381
 40
3.287502624716381
 40
3.287502624716381
 40
3.287502624716381
 10
9.225000000000024
 20
-22.84684461129998
 30
0.0
 10
9.079786668929296
 20
-23.17047934928329
 30
0.0
 10
8.783004739769214
 20
-23.82638955254143
 30
0.0
 10
8.325419275829405
 20
-24.82212033827737
 30
0.0
 10
8.012231681108099
 20
-25.49381221454713
 30
0.0
 10
7.852500000000018
 20
-25.83409810699999
 30
0.0
 11
9.225000000000024
 21
-22.84684461129998
 31
0.0
 11
8.786395365800045
 21
-23.81641316029997
 31
0.0
 11
8.328986333900019
 21
-24.81197332959999
 31
0.0
 11
7.852500000000018
 21
-25.83409810699999
 31
0.0
  0
SPLINE
  5
3817
330
1F
100
AcDbEntity
  8
1
100
AcDbSpline
210
0.0
220
0.0
230
1.0
 70
     8
 71
     3
 72
    10
 73
     6
 74
     4
 42
0.0000000001
 43
0.0000000001
 44
0.0000000001
 12
0.4093743989143582
 22
-0.9123664842120779
 32
0.0
 13
0.4249194534150649
 23
-0.9052311628028736
 33
0.0
 40
0.0
 40
0.0
 40
0.0
 40
0.0
 40
1.064160324593707
 40
2.159771146537502
 40
3.287502624715342
 40
3.287502624715342
 40
3.287502624715342
 40
3.287502624715342
 10
12.97500000000002
 20
-22.84684461129998
 30
0.0
 10
13.12021333107637
 20
-23.17047934929583
 30
0.0
 10
13.41699526035483
 20
-23.82638955251563
 30
0.0
 10
13.87458072429005
 20
-24.82212033825262
 30
0.0
 10
14.18776831889792
 20
-25.49381221455988
 30
0.0
 10
14.34750000000001
 20
-25.83409810699999
 30
0.0
 11
12.97500000000002
 21
-22.84684461129998
 31
0.0
 11
13.41360463430001
 21
-23.81641316029997
 31
0.0
 11
13.87101366620001
 21
-24.81197332959999
 31
0.0
 11
14.34750000000001
 21
-25.83409810699999
 31
0.0
  0
LINE
  5
3818
330
1F
100
AcDbEntity
  8
1
100
AcDbLine
 10
9.725000000000024
 20
-28.125
 30
0.0
 11
12.47500000000002
 21
-28.125
 31
0.0
  0
ARC
  5
3819
330
1F
100
AcDbEntity
  8
1
100
AcDbCircle
 10
9.725000000000024
 20
-28.625
 30
0.0
 40
0.5
100
AcDbArc
 50
90.0
 51
180.0
  0
ARC
  5
381A
330
1F
100
AcDbEntity
  8
1
100
AcDbCircle
 10
12.47500000000002
 20
-28.625
 30
0.0
 40
0.5
100
AcDbArc
 50
0.0
 51
90.0
  0
LINE
  5
381B
330
1F
100
AcDbEntity
  8
1
100
AcDbLine
 10
9.725000000000024
 20
-21.18408895850001
 30
0.0
 11
12.47500000000002
 21
-21.18408895850001
 31
0.0
  0
LINE
  5
381C
330
1F
100
AcDbEntity
  8
SK3
100
AcDbLine
 10
7.717264717266857
 20
-21.93331253789998
 30
0.0
 11
10.28061198530005
 21
-25.59383021709998
 31
0.0
  0
LINE
  5
381D
330
1F
100
AcDbEntity
  8
SK3
100
AcDbLine
 10
11.14969137310004
 20
-24.37483587449998
 30
0.0
 11
11.1496913731
 21
-21.93327956500698
 31
0.0
  0
LINE
  5
381E
330
1F
100
AcDbEntity
  8
SK3
100
AcDbLine
 10
7.662865645700009
 20
-21.93331253789998
 30
0.0
 11
11.14973846285332
 21
-21.93331253789998
 31
0.0
  0
SPLINE
  5
381F
330
1F
100
AcDbEntity
  8
1
100
AcDbSpline
210
0.0
220
0.0
230
1.0
 70
     8
 71
     3
 72
    12
 73
     8
 74
     6
 42
0.0000000001
 43
0.0000000001
 44
0.0000000001
 12
-1.0
 22
0.0
 32
0.0
 13
0.0
 23
-1.0
 33
0.0
 40
0.0
 40
0.0
 40
0.0
 40
0.0
 40
0.1552418448898611
 40
0.3186895229137469
 40
0.4969669691726912
 40
0.6964526032334247
 40
0.9108045168343851
 40
0.9108045168343851
 40
0.9108045168343851
 40
0.9108045168343851
 10
9.725000000000024
 20
-21.18408895850001
 30
0.0
 10
9.67325271837007
 20
-21.18408895850001
 30
0.0
 10
9.565984473452235
 20
-21.2070445786645
 30
0.0
 10
9.426471349745259
 20
-21.30234930299658
 30
0.0
 10
9.315512628417595
 20
-21.44790490710588
 30
0.0
 10
9.242201858278432
 20
-21.63348902725376
 30
0.0
 10
9.225000000000024
 20
-21.77209818093301
 30
0.0
 10
9.225000000000024
 20
-21.8435488188
 30
0.0
 11
9.725000000000024
 21
-21.18408895850001
 31
0.0
 11
9.572970940300052
 21
-21.21550862449999
 31
0.0
 11
9.43655328020003
 21
-21.30553842770001
 31
0.0
 11
9.326693077000015
 21
-21.44594349740001
 31
0.0
 11
9.251951138700007
 21
-21.63089798059999
 31
0.0
 11
9.225000000000024
 21
-21.8435488188
 31
0.0
  0
SPLINE
  5
3820
330
1F
100
AcDbEntity
  8
1
100
AcDbSpline
210
0.0
220
0.0
230
1.0
 70
     8
 71
     3
 72
    12
 73
     8
 74
     6
 42
0.0000000001
 43
0.0000000001
 44
0.0000000001
 12
0.0
 22
1.0
 32
0.0
 13
-1.0
 23
0.0
 33
0.0
 40
0.0
 40
0.0
 40
0.0
 40
0.0
 40
0.2146226679695009
 40
0.4143557301534669
 40
0.5925824522422337
 40
0.7558715200667389
 40
0.910806777047135
 40
0.910806777047135
 40
0.910806777047135
 40
0.910806777047135
 10
12.97500000000002
 20
-21.8435488188
 30
0.0
 10
12.97500000000002
 20
-21.77200792947683
 30
0.0
 10
12.95775505799126
 20
-21.63322366112411
 30
0.0
 10
12.88428992694679
 20
-21.44752274189597
 30
0.0
 10
12.77320376896853
 20
-21.30204504920444
 30
0.0
 10
12.63375366496017
 20
-21.2069615180005
 30
0.0
 10
12.52664508566015
 20
-21.18408895850001
 30
0.0
 10
12.47500000000002
 20
-21.18408895850001
 30
0.0
 11
12.97500000000002
 21
-21.8435488188
 31
0.0
 11
12.94798007930002
 21
-21.63063378059999
 31
0.0
 11
12.87304614790001
 21
-21.44549004709998
 31
0.0
 11
12.76310134010002
 21
-21.3052156599
 31
0.0
 11
12.62674115160001
 21
-21.21538683010001
 31
0.0
 11
12.47500000000002
 21
-21.18408895850001
 31
0.0
  0
LINE
  5
3821
330
1F
100
AcDbEntity
  8
SK3
100
AcDbLine
 10
-36.19999999999999
 20
8.000000000000026
 30
0.0
 11
-60.19999999999999
 21
8.000000000000026
 31
0.0
  0
LINE
  5
3822
330
1F
100
AcDbEntity
  8
SK3
100
AcDbLine
 10
-26.24849915899996
 20
6.920000000000014
 30
0.0
 11
-60.19999999999999
 21
6.920000000000014
 31
0.0
  0
LINE
  5
3823
330
1F
100
AcDbEntity
  8
SK3
100
AcDbLine
 10
-26.24849915899996
 20
-6.919999999999986
 30
0.0
 11
-60.19999999999999
 21
-6.919999999999986
 31
0.0
  0
LINE
  5
3824
330
1F
100
AcDbEntity
  8
SK3
100
AcDbLine
 10
-36.19999999999999
 20
-8.0
 30
0.0
 11
-60.19999999999999
 21
-8.0
 31
0.0
  0
LINE
  5
3825
330
1F
100
AcDbEntity
  8
1
100
AcDbLine
 10
-0.7999999999999829
 20
22.10829262149998
 30
0.0
 11
-67.37322744119997
 21
12.3963090553
 31
0.0
  0
LINE
  5
3826
330
1F
100
AcDbEntity
  8
SK3
100
AcDbLine
 10
-60.19999999999999
 20
-8.499323850699994
 30
0.0
 11
-60.19999999999999
 21
8.499323850700022
 31
0.0
  0
LINE
  5
3827
330
1F
100
AcDbEntity
  8
1
100
AcDbLine
 10
-68.39999999999998
 20
11.20887810840001
 30
0.0
 11
-68.39999999999998
 21
-11.20887810839999
 31
0.0
  0
LINE
  5
3828
330
1F
100
AcDbEntity
  8
SK3
100
AcDbLine
 10
-60.19999999999999
 20
-8.5
 30
0.0
 11
-67.39999999999998
 21
-8.5
 31
0.0
  0
ARC
  5
3829
330
1F
100
AcDbEntity
  8
SK3
100
AcDbCircle
 10
-67.39999999999998
 20
-9.5
 30
0.0
 40
1.0
100
AcDbArc
 50
90.0
 51
179.9999999351993
  0
ARC
  5
382A
330
1F
100
AcDbEntity
  8
1
100
AcDbCircle
 10
-67.19999999999997
 20
-11.20887810839999
 30
0.0
 40
1.199999999999999
100
AcDbArc
 50
180.0
 51
261.7000000000007
  0
LINE
  5
382B
330
1F
100
AcDbEntity
  8
SK3
100
AcDbLine
 10
-60.19999999999999
 20
8.500000000000026
 30
0.0
 11
-67.39999999999998
 21
8.500000000000026
 31
0.0
  0
ARC
  5
382C
330
1F
100
AcDbEntity
  8
SK3
100
AcDbCircle
 10
-67.39999999999998
 20
9.500000000000026
 30
0.0
 40
1.0
100
AcDbArc
 50
180.0000000648006
 51
270.0
  0
ARC
  5
382D
330
1F
100
AcDbEntity
  8
1
100
AcDbCircle
 10
-67.19999999999997
 20
11.20887810840001
 30
0.0
 40
1.199999999999999
100
AcDbArc
 50
98.29999999999918
 51
180.0
  0
LINE
  5
382E
330
1F
100
AcDbEntity
  8
NOCUT
100
AcDbLine
 10
3.200000000000044
 20
22.19900607378963
 30
0.0
 11
3.200000000000044
 21
30.12632953350003
 31
0.0
  0
LINE
  5
382F
330
1F
100
AcDbEntity
  8
SK3
100
AcDbLine
 10
6.18497015180003
 20
28.46188146689998
 30
0.0
 11
10.28061198530005
 21
25.59383021699996
 31
0.0
  0
LINE
  5
3830
330
1F
100
AcDbEntity
  8
SK3
100
AcDbLine
 10
5.898165026800028
 20
28.05231728349999
 30
0.0
 11
11.14969137310004
 21
24.37483587439999
 31
0.0
  0
LINE
  5
3831
330
1F
100
AcDbEntity
  8
SK3
100
AcDbLine
 10
3.200000000000017
 20
24.19927680584044
 30
0.0
 11
6.32837271430003
 21
28.66666355859998
 31
0.0
  0
LINE
  5
3832
330
1F
100
AcDbEntity
  8
4
100
AcDbLine
 10
11.12837066540004
 20
21.94814635369998
 30
0.0
 11
1.689968753900018
 21
28.55756717210002
 31
0.0
  0
LINE
  5
3833
330
1F
100
AcDbEntity
  8
1
100
AcDbLine
 10
14.34750000000001
 20
31.775
 30
0.0
 11
14.34750000000001
 21
8.050000000000011
 31
0.0
  0
LINE
  5
3834
330
1F
100
AcDbEntity
  8
1
100
AcDbLine
 10
12.97500000000002
 20
8.050000000000011
 30
0.0
 11
12.97500000000002
 21
29.39776026640001
 31
0.0
  0
LINE
  5
3835
330
1F
100
AcDbEntity
  8
1
100
AcDbLine
 10
9.225000000000024
 20
29.39776026640001
 30
0.0
 11
9.225000000000024
 21
8.050000000000011
 31
0.0
  0
LINE
  5
3836
330
1F
100
AcDbEntity
  8
1
100
AcDbLine
 10
7.852500000000018
 20
8.050000000000011
 30
0.0
 11
7.852500000000018
 21
31.775
 31
0.0
  0
LINE
  5
3837
330
1F
100
AcDbEntity
  8
SK3
100
AcDbLine
 10
-25.89999999999998
 20
7.500000000000027
 30
0.0
 11
-25.89999999999998
 21
-7.5
 31
0.0
  0
LINE
  5
3838
330
1F
100
AcDbEntity
  8
SK3
100
AcDbLine
 10
-26.24849915899996
 20
6.920000000000014
 30
0.0
 11
-26.24849915899996
 21
-6.919999999999986
 31
0.0
  0
LINE
  5
3839
330
1F
100
AcDbEntity
  8
SK3
100
AcDbLine
 10
-36.19999999999999
 20
8.000000000000026
 30
0.0
 11
-36.19999999999999
 21
-8.0
 31
0.0
  0
LINE
  5
383A
330
1F
100
AcDbEntity
  8
SK3
100
AcDbLine
 10
-26.24849915899996
 20
-6.919999999999986
 30
0.0
 11
-25.89999999999998
 21
-7.5
 31
0.0
  0
LINE
  5
383B
330
1F
100
AcDbEntity
  8
SK3
100
AcDbLine
 10
-26.24849915899996
 20
6.920000000000014
 30
0.0
 11
-25.89999999999998
 21
7.500000000000027
 31
0.0
  0
INSERT
  5
383C
330
1F
100
AcDbEntity
  8
1
100
AcDbBlockReference
  2
nullpunkt_1
 10
0.0
 20
0.0
 30
0.0
 41
-1.0
 50
180.0
  0
LINE
  5
383D
330
1F
100
AcDbEntity
  8
NOCUT
100
AcDbLine
 10
0.0
 20
0.0
 30
0.0
 11
-0.0000000000001137
 21
22.19900607378963
 31
0.0
  0
LINE
  5
383E
330
1F
100
AcDbEntity
  8
SK3
100
AcDbLine
 10
-1.499999999999971
 20
8.000000000000026
 30
0.0
 11
-1.499999999999971
 21
-8.0
 31
0.0
  0
LINE
  5
383F
330
1F
100
AcDbEntity
  8
1
100
AcDbLine
 10
14.34750000000001
 20
-8.050000000000011
 30
0.0
 11
14.34750000000001
 21
-18.5
 31
0.0
  0
LINE
  5
3840
330
1F
100
AcDbEntity
  8
1
100
AcDbLine
 10
12.97500000000002
 20
-18.5
 30
0.0
 11
12.97500000000002
 21
-8.050000000000011
 31
0.0
  0
LINE
  5
3841
330
1F
100
AcDbEntity
  8
1
100
AcDbLine
 10
9.225000000000024
 20
-8.050000000000011
 30
0.0
 11
9.225000000000024
 21
-18.5
 31
0.0
  0
LINE
  5
3842
330
1F
100
AcDbEntity
  8
1
100
AcDbLine
 10
7.852500000000018
 20
-18.5
 30
0.0
 11
7.852500000000018
 21
-8.050000000000011
 31
0.0
  0
LINE
  5
3843
330
1F
100
AcDbEntity
  8
SK3
100
AcDbLine
 10
7.662865645700009
 20
21.93331253789998
 30
0.0
 11
-12.94985786829997
 21
7.500000000000027
 31
0.0
  0
LINE
  5
3844
330
1F
100
AcDbEntity
  8
SK3
100
AcDbLine
 10
3.603724026900038
 20
24.7758038167
 30
0.0
 11
7.662865645700009
 21
21.93331253789998
 31
0.0
  0
LINE
  5
3845
330
1F
100
AcDbEntity
  8
SK3
100
AcDbLine
 10
3.316918902000026
 20
24.36623963340002
 30
0.0
 11
7.227012429764839
 21
21.62812212082731
 31
0.0
  0
LINE
  5
3846
330
1F
100
AcDbEntity
  8
NOCUT
100
AcDbLine
 10
3.202682057587366
 20
22.19900607378963
 30
0.0
 11
0.0
 21
22.19900607378963
 31
0.0
  0
ARC
  5
3847
330
1F
100
AcDbEntity
  8
1
100
AcDbCircle
 10
2.409731931300028
 20
22.80829262149997
 30
0.0
 40
1.0
100
AcDbArc
 50
270.0
 51
322.4620664206
  0
LINE
  5
3848
330
1F
100
AcDbEntity
  8
1
100
AcDbLine
 10
-0.7999999999999829
 20
22.10829262149998
 30
0.0
 11
0.3196152423000171
 21
21.80829262149998
 31
0.0
  0
LINE
  5
3849
330
1F
100
AcDbEntity
  8
1
100
AcDbLine
 10
0.3196152423000171
 20
21.80829262149998
 30
0.0
 11
2.409731931300028
 21
21.80829262149998
 31
0.0
  0
LINE
  5
384A
330
1F
100
AcDbEntity
  8
SK3
100
AcDbLine
 10
10.28061198530005
 20
25.59383021699996
 30
0.0
 11
7.71726471733683
 21
21.93331253789994
 31
0.0
  0
LINE
  5
384B
330
1F
100
AcDbEntity
  8
SK3
100
AcDbLine
 10
7.662865645700009
 20
21.93331253789998
 30
0.0
 11
11.1496913731
 21
21.93331253789998
 31
0.0
  0
LINE
  5
384C
330
1F
100
AcDbEntity
  8
SK3
100
AcDbLine
 10
11.14969137310004
 20
24.37483587439999
 30
0.0
 11
11.1496913731
 21
21.93331253789998
 31
0.0
  0
LINE
  5
384D
330
1F
100
AcDbEntity
  8
SK3
100
AcDbLine
 10
12.13912531480001
 20
25.67804020769996
 30
0.0
 11
15.00702458280005
 21
21.58229195019998
 31
0.0
  0
LINE
  5
384E
330
1F
100
AcDbEntity
  8
SK3
100
AcDbLine
 10
12.5487001405
 20
25.96483013440002
 30
0.0
 11
12.42591524160002
 21
25.2684653819
 31
0.0
  0
LINE
  5
384F
330
1F
100
AcDbEntity
  8
NOCUT
100
AcDbLine
 10
7.852499999999962
 20
31.77500000000003
 30
0.0
 11
4.799999999999954
 21
31.77500000000003
 31
0.0
  0
LINE
  5
3850
330
1F
100
AcDbEntity
  8
1
100
AcDbLine
 10
7.852500000000018
 20
31.775
 30
0.0
 11
4.800000000000012
 21
31.775
 31
0.0
  0
SPLINE
  5
3851
330
1F
100
AcDbEntity
  8
NOCUT
100
AcDbSpline
210
0.0
220
0.0
230
1.0
 70
     8
 71
     3
 72
    10
 73
     6
 74
     4
 42
0.0000000001
 43
0.0000000001
 44
0.0000000001
 12
0.0
 22
1.0
 32
0.0
 13
-0.6612652179439391
 23
0.7501521922500492
 33
0.0
 40
0.0
 40
0.0
 40
0.0
 40
0.0
 40
0.334906823682136
 40
0.5735288173574256
 40
0.6623862951591338
 40
0.6623862951591338
 40
0.6623862951591338
 40
0.6623862951591338
 10
3.200000000000044
 20
30.12632953350003
 30
0.0
 10
3.200000000000044
 20
30.23796514139408
 30
0.0
 10
3.239086652142939
 20
30.43361428245181
 30
0.0
 10
3.233035386424213
 20
30.63715820726127
 30
0.0
 10
3.336536427308228
 20
30.75325061354306
 30
0.0
 10
3.316950307500063
 20
30.77546949079998
 30
0.0
 11
3.200000000000044
 21
30.12632953350003
 31
0.0
 11
3.230533942900024
 21
30.45984154059999
 31
0.0
 11
3.288209418500058
 21
30.69138850209998
 31
0.0
 11
3.316950307500063
 21
30.77546949079998
 31
0.0
  0
SPLINE
  5
3852
330
1F
100
AcDbEntity
  8
NOCUT
100
AcDbSpline
210
0.0
220
0.0
230
1.0
 70
     8
 71
     3
 72
     9
 73
     5
 74
     3
 42
0.0000000001
 43
0.0000000001
 44
0.0000000001
 12
-0.6571352004324274
 22
0.7537727299077842
 32
0.0
 13
-0.3121500306414613
 23
-0.9500328196281088
 33
0.0
 40
0.0
 40
0.0
 40
0.0
 40
0.0
 40
0.0888564671905407
 40
0.0930793838605882
 40
0.0930793838605882
 40
0.0930793838605882
 40
0.0930793838605882
 10
3.316950307500063
 20
30.77546949079998
 30
0.0
 10
3.297486736707739
 20
30.79779535141471
 30
0.0
 10
3.297268217703223
 20
30.71698884496699
 30
0.0
 10
3.287327757422722
 20
30.6887159048437
 30
0.0
 10
3.286888362900071
 20
30.6873786017
 30
0.0
 11
3.316950307500063
 21
30.77546949079998
 31
0.0
 11
3.288209723400086
 21
30.69138946590004
 31
0.0
 11
3.286888362900071
 21
30.6873786017
 31
0.0
  0
ARC
  5
3853
330
1F
100
AcDbEntity
  8
NOCUT
100
AcDbCircle
 10
4.799999999999954
 20
30.175
 30
0.0
 40
1.6
100
AcDbArc
 50
90.0
 51
157.9577987806993
  0
LINE
  5
3854
330
1F
100
AcDbEntity
  8
SK3
100
AcDbLine
 10
3.316952011400018
 20
30.77546829830001
 30
0.0
 11
6.32837271430003
 21
28.66666355859998
 31
0.0
  0
SPLINE
  5
3855
330
1F
100
AcDbEntity
  8
SK3
100
AcDbSpline
210
0.0
220
0.0
230
1.0
 70
     8
 71
     3
 72
     8
 73
     4
 74
     2
 42
0.0000000001
 43
0.0000000001
 44
0.0000000001
 12
-0.3121500310321564
 22
-0.9500328194997392
 32
0.0
 13
-0.1594615465874367
 23
-0.9872041405707044
 33
0.0
 40
0.0
 40
0.0
 40
0.0
 40
0.0
 40
0.23440164600603
 40
0.23440164600603
 40
0.23440164600603
 40
0.23440164600603
 10
3.286888362900043
 20
30.6873786017
 30
0.0
 10
3.262498869208453
 20
30.61314884948317
 30
0.0
 10
3.242995302264955
 20
30.53698568963123
 30
0.0
 10
3.230535952600035
 20
30.45985159779998
 30
0.0
 11
3.286888362900043
 21
30.6873786017
 31
0.0
 11
3.230535952600035
 21
30.45985159779998
 31
0.0
  0
SPLINE
  5
3856
330
1F
100
AcDbEntity
  8
SK3
100
AcDbSpline
210
0.0
220
0.0
230
1.0
 70
     8
 71
     3
 72
    12
 73
     8
 74
     6
 42
0.0000000001
 43
0.0000000001
 44
0.0000000001
 12
0.0
 22
1.0
 32
0.0
 13
-0.1594615467714694
 23
-0.9872041405409778
 33
0.0
 40
0.0
 40
0.0
 40
0.0
 40
0.0
 40
0.3349068236821632
 40
0.5735288173574738
 40
0.6623862951591456
 40
0.7512427623497131
 40
0.9898555201867448
 40
0.9898555201867448
 40
0.9898555201867448
 40
0.9898555201867448
 10
3.200000000000017
 20
30.12632953350001
 30
0.0
 10
3.200000000000017
 20
30.23796514139406
 30
0.0
 10
3.225099585639504
 20
30.44959251270612
 30
0.0
 10
3.258222094497667
 20
30.60838598251731
 30
0.0
 10
3.332912293025354
 20
30.82097182342145
 30
0.0
 10
3.258025612420795
 20
30.60716355073348
 30
0.0
 10
3.243219139081401
 20
30.53837143197419
 30
0.0
 10
3.230535952600035
 20
30.45985159779998
 30
0.0
 11
3.200000000000017
 21
30.12632953350001
 31
0.0
 11
3.230533942900024
 21
30.45984154059999
 31
0.0
 11
3.288209418500031
 21
30.69138850210001
 31
0.0
 11
3.316950307500006
 21
30.77546949079998
 31
0.0
 11
3.288209723400028
 21
30.69138946590001
 31
0.0
 11
3.230535952600035
 21
30.45985159779998
 31
0.0
  0
SPLINE
  5
3857
330
1F
100
AcDbEntity
  8
1
100
AcDbSpline
210
0.0
220
0.0
230
1.0
 70
     8
 71
     3
 72
     9
 73
     5
 74
     3
 42
0.0000000001
 43
0.0000000001
 44
0.0000000001
 12
-0.6571352004324274
 22
0.7537727299077842
 32
0.0
 13
-0.3121500306414613
 23
-0.9500328196281088
 33
0.0
 40
0.0
 40
0.0
 40
0.0
 40
0.0
 40
0.0888564671905675
 40
0.0930793838605791
 40
0.0930793838605791
 40
0.0930793838605791
 40
0.0930793838605791
 10
3.316950307500006
 20
30.77546949079998
 30
0.0
 10
3.297486736707676
 20
30.79779535141472
 30
0.0
 10
3.297268217702991
 20
30.71698884496705
 30
0.0
 10
3.287327757422689
 20
30.68871590484369
 30
0.0
 10
3.286888362900043
 20
30.6873786017
 30
0.0
 11
3.316950307500006
 21
30.77546949079998
 31
0.0
 11
3.288209723400028
 21
30.69138946590001
 31
0.0
 11
3.286888362900043
 21
30.6873786017
 31
0.0
  0
SPLINE
  5
3858
330
1F
100
AcDbEntity
  8
1
100
AcDbSpline
210
0.0
220
0.0
230
1.0
 70
     8
 71
     3
 72
    10
 73
     6
 74
     4
 42
0.0000000001
 43
0.0000000001
 44
0.0000000001
 12
0.0
 22
1.0
 32
0.0
 13
-0.6612652179439391
 23
0.7501521922500491
 33
0.0
 40
0.0
 40
0.0
 40
0.0
 40
0.0
 40
0.3349068236821632
 40
0.5735288173574738
 40
0.6623862951591456
 40
0.6623862951591456
 40
0.6623862951591456
 40
0.6623862951591456
 10
3.200000000000017
 20
30.12632953350001
 30
0.0
 10
3.200000000000017
 20
30.23796514139406
 30
0.0
 10
3.239086652142958
 20
30.43361428245181
 30
0.0
 10
3.233035386424195
 20
30.63715820726128
 30
0.0
 10
3.336536427308163
 20
30.75325061354307
 30
0.0
 10
3.316950307500006
 20
30.77546949079998
 30
0.0
 11
3.200000000000017
 21
30.12632953350001
 31
0.0
 11
3.230533942900024
 21
30.45984154059999
 31
0.0
 11
3.288209418500031
 21
30.69138850210001
 31
0.0
 11
3.316950307500006
 21
30.77546949079998
 31
0.0
  0
ARC
  5
3859
330
1F
100
AcDbEntity
  8
1
100
AcDbCircle
 10
4.800000000000012
 20
30.175
 30
0.0
 40
1.6
100
AcDbArc
 50
90.0
 51
157.9577987806993
  0
LINE
  5
385A
330
1F
100
AcDbEntity
  8
NOCUT
100
AcDbLine
 10
9.725000000000024
 20
28.12500000000005
 30
0.0
 11
12.47500000000002
 21
28.12500000000005
 31
0.0
  0
LINE
  5
385B
330
1F
100
AcDbEntity
  8
1
100
AcDbLine
 10
9.725000000000024
 20
28.12500000000003
 30
0.0
 11
12.47500000000002
 21
28.12500000000003
 31
0.0
  0
LINE
  5
385C
330
1F
100
AcDbEntity
  8
NOCUT
100
AcDbLine
 10
9.225000000000024
 20
29.39776026639998
 30
0.0
 11
9.225000000000024
 21
28.62500000000006
 31
0.0
  0
ARC
  5
385D
330
1F
100
AcDbEntity
  8
NOCUT
100
AcDbCircle
 10
9.725000000000024
 20
28.62500000000006
 30
0.0
 40
0.5
100
AcDbArc
 50
180.0
 51
270.0
  0
LINE
  5
385E
330
1F
100
AcDbEntity
  8
NOCUT
100
AcDbLine
 10
7.852499999999962
 20
31.77500000000003
 30
0.0
 11
9.225000000000024
 21
29.39776026660002
 31
0.0
  0
ARC
  5
385F
330
1F
100
AcDbEntity
  8
1
100
AcDbCircle
 10
9.725000000000024
 20
28.62500000000002
 30
0.0
 40
0.5
100
AcDbArc
 50
180.0
 51
270.0
  0
LINE
  5
3860
330
1F
100
AcDbEntity
  8
1
100
AcDbLine
 10
7.852500000000018
 20
31.775
 30
0.0
 11
9.225000000000024
 21
29.39776026660002
 31
0.0
  0
LINE
  5
3861
330
1F
100
AcDbEntity
  8
NOCUT
100
AcDbLine
 10
12.97500000000002
 20
28.62500000000006
 30
0.0
 11
12.97500000000002
 21
29.39776026639998
 31
0.0
  0
ARC
  5
3862
330
1F
100
AcDbEntity
  8
NOCUT
100
AcDbCircle
 10
12.47500000000002
 20
28.62500000000006
 30
0.0
 40
0.5
100
AcDbArc
 50
270.0
 51
0.0
  0
LINE
  5
3863
330
1F
100
AcDbEntity
  8
NOCUT
100
AcDbLine
 10
12.97500000000002
 20
29.39776026660002
 30
0.0
 11
14.34750000000008
 21
31.77500000000003
 31
0.0
  0
ARC
  5
3864
330
1F
100
AcDbEntity
  8
1
100
AcDbCircle
 10
12.47500000000002
 20
28.62500000000002
 30
0.0
 40
0.5
100
AcDbArc
 50
270.0
 51
0.0
  0
LINE
  5
3865
330
1F
100
AcDbEntity
  8
1
100
AcDbLine
 10
12.97500000000002
 20
29.39776026660002
 30
0.0
 11
14.34750000000001
 21
31.775
 31
0.0
  0
DIMENSION
  5
3866
330
1F
100
AcDbEntity
  8
SK2
100
AcDbDimension
  2
*D3
 10
23.50000000000001
 20
-55.37500108420001
 30
0.0
 11
50.99969782780005
 21
-55.37500108420001
 31
0.0
 70
   160
 71
     5
 42
56.99999999999997
  3
ISO-25
100
AcDbAlignedDimension
 13
80.5
 23
-26.58045018440001
 33
0.0
 14
23.50000000000001
 24
-6.25
 34
0.0
 50
180.0
100
AcDbRotatedDimension
1001
ACAD
1000
DSTYLE
1002
{
1070
   179
1070
     4
1070
   275
1070
     1
1002
}
  0
DIMENSION
  5
3867
330
1F
100
AcDbEntity
  8
SK2
100
AcDbDimension
  2
*D4
 10
33.50000000000003
 20
-45.3750010842
 30
0.0
 11
28.15644089820003
 21
-45.3750010842
 31
0.0
 70
   160
 71
     5
 42
10.0
  3
ISO-25
100
AcDbAlignedDimension
 13
23.50000000000001
 23
-6.25
 33
0.0
 14
33.50000000000003
 24
-14.0
 34
0.0
100
AcDbRotatedDimension
1001
ACAD
1000
DSTYLE
1002
{
1070
   179
1070
     4
1070
   275
1070
     1
1002
}
  0
DIMENSION
  5
3868
330
1F
100
AcDbEntity
  8
SK2
100
AcDbDimension
  2
*D5
 10
102.8750386291999
 20
27.50000000000001
 30
0.0
 11
102.8750386291999
 21
0.7961684601999936
 31
0.0
 70
   160
  1
%%c<>
 71
     5
 42
55.00000000000003
  3
ISO-25
100
AcDbAlignedDimension
 13
75.32871818040002
 23
-27.5
 33
0.0
 14
75.32871818040002
 24
27.50000000000003
 34
0.0
 50
90.0
100
AcDbRotatedDimension
1001
ACAD
1000
DSTYLE
1002
{
1070
   179
1070
     4
1070
   275
1070
     1
1002
}
  0
DIMENSION
  5
3869
330
1F
100
AcDbEntity
  8
SK2
100
AcDbDimension
  2
*D6
 10
112.8750386292
 20
33.0
 30
0.0
 11
112.8750386292
 21
-0.0838011859000005
 31
0.0
 70
   160
  1
%%c<>
 71
     5
 42
66.00000000000003
  3
ISO-25
100
AcDbAlignedDimension
 13
55.58504229770004
 23
-33.0
 33
0.0
 14
55.58504229770004
 24
33.00000000000002
 34
0.0
 50
90.0
100
AcDbRotatedDimension
1001
ACAD
1000
DSTYLE
1002
{
1070
   179
1070
     4
1070
   275
1070
     1
1002
}
  0
CIRCLE
  5
386A
330
1F
100
AcDbEntity
  8
1
100
AcDbCircle
 10
38.00000000000002
 20
-17.5
 30
0.0
 40
3.399999999999999
  0
LINE
  5
386B
330
1F
100
AcDbEntity
  8
1
100
AcDbLine
 10
80.5
 20
26.0804501844
 30
0.0
 11
80.5
 21
-26.0804501844
 31
0.0
  0
LINE
  5
386C
330
1F
100
AcDbEntity
  8
1
100
AcDbLine
 10
74.82871818040002
 20
27.50000000000003
 30
0.0
 11
74.82871818040002
 21
-27.5
 31
0.0
  0
LINE
  5
386D
330
1F
100
AcDbEntity
  8
1
100
AcDbLine
 10
71.30000000000002
 20
27.50000000000003
 30
0.0
 11
71.30000000000002
 21
-27.5
 31
0.0
  0
LINE
  5
386E
330
1F
100
AcDbEntity
  8
1
100
AcDbLine
 10
69.70000000000005
 20
27.50000000000003
 30
0.0
 11
69.70000000000005
 21
-27.5
 31
0.0
  0
LINE
  5
386F
330
1F
100
AcDbEntity
  8
1
100
AcDbLine
 10
68.30000000000001
 20
27.50000000000003
 30
0.0
 11
68.30000000000001
 21
-27.5
 31
0.0
  0
LINE
  5
3870
330
1F
100
AcDbEntity
  8
1
100
AcDbLine
 10
66.70000000000005
 20
27.50000000000003
 30
0.0
 11
66.70000000000005
 21
-27.5
 31
0.0
  0
LINE
  5
3871
330
1F
100
AcDbEntity
  8
1
100
AcDbLine
 10
65.30000000000001
 20
27.50000000000003
 30
0.0
 11
65.30000000000001
 21
-27.5
 31
0.0
  0
LINE
  5
3872
330
1F
100
AcDbEntity
  8
1
100
AcDbLine
 10
63.70000000000004
 20
27.50000000000003
 30
0.0
 11
63.70000000000004
 21
-27.5
 31
0.0
  0
LINE
  5
3873
330
1F
100
AcDbEntity
  8
1
100
AcDbLine
 10
58.50000000000003
 20
27.50000000000003
 30
0.0
 11
58.50000000000003
 21
-27.5
 31
0.0
  0
LINE
  5
3874
330
1F
100
AcDbEntity
  8
1
100
AcDbLine
 10
55.32457351950004
 20
33.00000000000002
 30
0.0
 11
55.32457351950004
 21
-33.0
 31
0.0
  0
LINE
  5
3875
330
1F
100
AcDbEntity
  8
1
100
AcDbLine
 10
33.40600000000003
 20
33.00000000000002
 30
0.0
 11
33.40600000000003
 21
-33.0
 31
0.0
  0
LINE
  5
3876
330
1F
100
AcDbEntity
  8
1
100
AcDbLine
 10
30.40600000000003
 20
30.00000000000003
 30
0.0
 11
30.40600000000003
 21
-30.0
 31
0.0
  0
LINE
  5
3877
330
1F
100
AcDbEntity
  8
1
100
AcDbLine
 10
19.10000000000001
 20
-30.12633029319998
 30
0.0
 11
19.10000000000001
 21
-6.167923897099995
 31
0.0
  0
TEXT
  5
3879
330
1F
100
AcDbEntity
  8
6
100
AcDbText
 10
70.55166985271646
 20
-72.89691774819259
 30
0.0
 40
3.5
  1
69871A40HC25SA080-G2
 41
0.8
  7
isocp
 72
     1
 11
90.99686506501473
 21
-72.89691774819259
 31
0.0
100
AcDbText
  0
LINE
  5
387A
330
1F
100
AcDbEntity
  8
1
100
AcDbLine
 10
33.40600000000003
 20
-33.0
 30
0.0
 11
55.32457351950004
 21
-33.0
 31
0.0
  0
LINE
  5
387B
330
1F
100
AcDbEntity
  8
1
100
AcDbLine
 10
30.40599901430002
 20
-30.00000098559999
 30
0.0
 11
33.40599891570001
 21
-33.00000108419999
 31
0.0
  0
ARC
  5
387C
330
1F
100
AcDbEntity
  8
1
100
AcDbCircle
 10
17.50000000000001
 20
-30.175
 30
0.0
 40
1.6
100
AcDbArc
 50
270.0
 51
337.9582952653009
  0
LINE
  5
387D
330
1F
100
AcDbEntity
  8
1
100
AcDbLine
 10
20.10000000000002
 20
-24.75
 30
0.0
 11
29.40600000000003
 21
-24.75
 31
0.0
  0
LINE
  5
387E
330
1F
100
AcDbEntity
  8
SK3
100
AcDbLine
 10
19.24616780370001
 20
-24.24540380529998
 30
0.0
 11
16.09147860890002
 21
-28.75072688859998
 31
0.0
  0
LINE
  5
387F
330
1F
100
AcDbEntity
  8
SK3
100
AcDbLine
 10
18.4884106016
 20
-24.02000632799998
 30
0.0
 11
15.62051133370002
 21
-28.11575458549998
 31
0.0
  0
LINE
  5
3880
330
1F
100
AcDbEntity
  8
SK3
100
AcDbLine
 10
15.62094907750003
 20
-25.06411571300001
 30
0.0
 11
15.50347982290002
 21
-26.74390361569999
 31
0.0
  0
LINE
  5
3881
330
1F
100
AcDbEntity
  8
SK3
100
AcDbLine
 10
18.08276880990003
 20
-25.90689500719999
 30
0.0
 11
16.74531663370001
 21
-24.97039259639999
 31
0.0
  0
LINE
  5
3882
330
1F
100
AcDbEntity
  8
SK3
100
AcDbLine
 10
15.50347982290002
 20
-26.74390361569999
 30
0.0
 11
17.15926223730002
 21
-24.37922225669998
 31
0.0
  0
SPLINE
  5
3883
330
1F
100
AcDbEntity
  8
1
100
AcDbSpline
210
0.0
220
0.0
230
1.0
 70
     8
 71
     3
 72
    12
 73
     8
 74
     6
 42
0.0000000001
 43
0.0000000001
 44
0.0000000001
 12
0.0
 22
-1.0
 32
0.0
 13
-1.0
 23
0.0
 33
0.0
 40
0.0
 40
0.0
 40
0.0
 40
0.0
 40
0.6872597408259564
 40
1.303797635888938
 40
1.850005467948464
 40
2.352558821271987
 40
2.823872511767135
 40
2.823872511767135
 40
2.823872511767135
 40
2.823872511767135
 10
19.10000000000001
 20
-23.83863723039998
 30
0.0
 10
19.10000000000001
 20
-24.0677238106753
 30
0.0
 10
19.04163234203403
 20
-24.50505249327624
 30
0.0
 10
18.79241568585045
 20
-25.07783313569133
 30
0.0
 10
18.42692344615636
 20
-25.50734531794413
 30
0.0
 10
17.984454218508
 20
-25.77333453747526
 30
0.0
 10
17.65710456159841
 20
-25.83409810699999
 30
0.0
 10
17.49999999810003
 20
-25.83409810699999
 30
0.0
 11
19.10000000000001
 21
-23.83863723039998
 31
0.0
 11
19.00588239200001
 21
-24.51942194469998
 31
0.0
 11
18.75523076970003
 21
-25.08270938489999
 31
0.0
 11
18.39697178840003
 21
-25.49501206269999
 31
0.0
 11
17.96367772290003
 21
-25.74960217590001
 31
0.0
 11
17.49999999810003
 21
-25.83409810699999
 31
0.0
  0
LINE
  5
3884
330
1F
100
AcDbEntity
  8
SK3
100
AcDbLine
 10
17.25487760270002
 20
-27.08923568669998
 30
0.0
 11
15.91742542650004
 21
-26.1527332759
 31
0.0
  0
LINE
  5
3885
330
1F
100
AcDbEntity
  8
SK3
100
AcDbLine
 10
16.8409319991
 20
-27.68040602639999
 30
0.0
 11
15.50347982290002
 21
-26.74390361569999
 31
0.0
  0
LINE
  5
3886
330
1F
100
AcDbEntity
  8
SK3
100
AcDbLine
 10
16.09147860890002
 20
-28.75072688859998
 30
0.0
 11
18.98305750160003
 21
-30.77545020369999
 31
0.0
  0
LINE
  5
3887
330
1F
100
AcDbEntity
  8
SK3
100
AcDbLine
 10
16.66505846250001
 20
-27.93157723709998
 30
0.0
 11
15.62051133370002
 21
-28.11575458549998
 31
0.0
  0
SPLINE
  5
3888
330
1F
100
AcDbEntity
  8
1
100
AcDbSpline
210
0.0
220
0.0
230
1.0
 70
     8
 71
     3
 72
    10
 73
     6
 74
     4
 42
0.0000000001
 43
0.0000000001
 44
0.0000000001
 12
0.3450054786139405
 22
0.9386006710664371
 32
0.0
 13
0.0
 23
1.0
 33
0.0
 40
0.0
 40
0.0
 40
0.0
 40
0.0
 40
0.0881067775525672
 40
0.3236145789660889
 40
0.6623553447388368
 40
0.6623553447388368
 40
0.6623553447388368
 40
0.6623553447388368
 10
18.98305750160003
 20
-30.77545020369999
 30
0.0
 10
18.99318994191958
 20
-30.74788451018787
 30
0.0
 10
19.02811760121489
 20
-30.64578477314205
 30
0.0
 10
19.08199175001181
 20
-30.43115947500516
 30
0.0
 10
19.10000000000001
 20
-30.2392438817909
 30
0.0
 10
19.10000000000001
 20
-30.12633029319998
 30
0.0
 11
18.98305750160003
 21
-30.77545020369999
 31
0.0
 11
19.01157073940003
 21
-30.69208474609999
 31
0.0
 11
19.06876797380002
 21
-30.46362818369999
 31
0.0
 11
19.10000000000001
 21
-30.12633029319998
 31
0.0
  0
LINE
  5
3889
330
1F
100
AcDbEntity
  8
SK3
100
AcDbLine
 10
19.24616780370001
 20
-24.24540380529998
 30
0.0
 11
19.97754713080004
 21
-24.7575256705
 31
0.0
  0
SPLINE
  5
388A
330
1F
100
AcDbEntity
  8
SK3
100
AcDbSpline
210
0.0
220
0.0
230
1.0
 70
     8
 71
     3
 72
    12
 73
     8
 74
     6
 42
0.0000000001
 43
0.0000000001
 44
0.0000000001
 12
-0.9782384792281199
 22
-0.2074836807015322
 32
0.0
 13
0.0000686251678637
 23
-0.9999999976452931
 33
0.0
 40
0.0
 40
0.0
 40
0.0
 40
0.0
 40
0.1039782778615847
 40
0.3507310920181195
 40
0.6273966632746501
 40
0.9208480773451455
 40
1.21896825316821
 40
1.21896825316821
 40
1.21896825316821
 40
1.21896825316821
 10
19.81992511360002
 20
-24.7783543459
 30
0.0
 10
19.78601992946399
 20
-24.78554561116791
 30
0.0
 10
19.67287869553126
 20
-24.81567416133969
 30
0.0
 10
19.48142148176184
 20
-24.90607604192055
 30
0.0
 10
19.27555730025023
 20
-25.09128598932023
 30
0.0
 10
19.13268058152791
 20
-25.34937007290132
 30
0.0
 10
19.09999318048431
 20
-25.54829317479295
 30
0.0
 10
19.10000000000001
 20
-25.64766656649998
 30
0.0
 11
19.81992511360002
 21
-24.7783543459
 31
0.0
 11
19.71947303210001
 21
-24.8052032116
 31
0.0
 11
19.49673187450002
 21
-24.91137914109998
 31
0.0
 11
19.29152947900004
 21
-25.09694803719998
 31
0.0
 11
19.14936005850003
 21
-25.3536610838
 31
0.0
 11
19.10000000000001
 21
-25.64766656649998
 31
0.0
  0
SPLINE
  5
388B
330
1F
100
AcDbEntity
  8
1
100
AcDbSpline
210
0.0
220
0.0
230
1.0
 70
     8
 71
     3
 72
    12
 73
     8
 74
     6
 42
0.0000000001
 43
0.0000000001
 44
0.0000000001
 12
-0.9782257041051082
 22
-0.2075439033748407
 32
0.0
 13
0.0000974929631726
 23
-0.9999999952475612
 33
0.0
 40
0.0
 40
0.0
 40
0.0
 40
0.0
 40
0.1045572493122139
 40
0.3512844041271354
 40
0.6277776944175661
 40
0.9209154064685909
 40
1.218975891096357
 40
1.218975891096357
 40
1.218975891096357
 40
1.218975891096357
 10
19.81992121520002
 20
-24.77833596569999
 30
0.0
 10
19.78582768559077
 20
-24.78556937224945
 30
0.0
 10
19.67252341534635
 20
-24.81581292918168
 30
0.0
 10
19.48099842306471
 20
-24.90636029252607
 30
0.0
 10
19.27536846055501
 20
-25.0915714447251
 30
0.0
 10
19.1326550516044
 20
-25.34951489222709
 30
0.0
 10
19.0999903137334
 20
-25.54831307209623
 30
0.0
 10
19.10000000000001
 20
-25.64766656649998
 30
0.0
 11
19.81992121520002
 21
-24.77833596569999
 31
0.0
 11
19.71892262920005
 21
-24.8053822965
 31
0.0
 11
19.49626884150004
 21
-24.91168177789997
 31
0.0
 11
19.29129230200001
 21
-25.09724351379998
 31
0.0
 11
19.14934012400003
 21
-25.3537182638
 31
0.0
 11
19.10000000000001
 21
-25.64766656649998
 31
0.0
  0
LINE
  5
388C
330
1F
100
AcDbEntity
  8
SK3
100
AcDbLine
 10
15.62094907750003
 20
-25.06411571300001
 30
0.0
 11
17.15926223730002
 21
-24.37922225669998
 31
0.0
  0
LINE
  5
388D
330
1F
100
AcDbEntity
  8
SK3
100
AcDbLine
 10
18.67258795010005
 20
-25.06455345680001
 30
0.0
 11
18.4884106016
 21
-24.02000632799998
 31
0.0
  0
LINE
  5
388E
330
1F
100
AcDbEntity
  8
SK3
100
AcDbLine
 10
18.49671441350005
 20
-25.31572466739998
 30
0.0
 11
17.15926223730002
 21
-24.37922225669998
 31
0.0
  0
SPLINE
  5
388F
330
1F
100
AcDbEntity
  8
SK3
100
AcDbSpline
210
0.0
220
0.0
230
1.0
 70
     8
 71
     3
 72
     8
 73
     4
 74
     2
 42
0.0000000001
 43
0.0000000001
 44
0.0000000001
 12
-0.9984216587919744
 22
-0.0561621870575043
 32
0.0
 13
-0.9969607901220431
 23
-0.0779049610694427
 33
0.0
 40
0.0
 40
0.0
 40
0.0
 40
0.0
 40
0.0231507642739352
 40
0.0231507642739352
 40
0.0231507642739352
 40
0.0231507642739352
 10
19.97742180750003
 20
-24.75745297489998
 30
0.0
 10
19.96971706601047
 20
-24.75788637408454
 30
0.0
 10
19.96201657458084
 20
-24.75840352893682
 30
0.0
 10
19.95432310650001
 20
-24.75900471539998
 30
0.0
 11
19.97742180750003
 21
-24.75745297489998
 31
0.0
 11
19.95432310650001
 21
-24.75900471539998
 31
0.0
  0
LINE
  5
3890
330
1F
100
AcDbEntity
  8
1
100
AcDbLine
 10
20.10000000000002
 20
-24.75
 30
0.0
 11
19.97737737500003
 21
-24.75754662989999
 31
0.0
  0
SPLINE
  5
3891
330
1F
100
AcDbEntity
  8
1
100
AcDbSpline
210
0.0
220
0.0
230
1.0
 70
     8
 71
     3
 72
     9
 73
     5
 74
     3
 42
0.0000000001
 43
0.0000000001
 44
0.0000000001
 12
-0.9970541719976125
 22
-0.076700574327416
 32
0.0
 13
-0.978225704033567
 23
-0.2075439037120399
 33
0.0
 40
0.0
 40
0.0
 40
0.0
 40
0.0
 40
0.0521069538311711
 40
0.1358156982790968
 40
0.1358156982790968
 40
0.1358156982790968
 40
0.1358156982790968
 10
19.95429049920005
 20
-24.75905402259998
 30
0.0
 10
19.9369726806309
 20
-24.76038623369508
 30
0.0
 10
19.89191820144887
 20
-24.76498538220671
 30
0.0
 10
19.84721656369046
 20
-24.77254488583414
 30
0.0
 10
19.81992121520002
 20
-24.77833596569999
 30
0.0
 11
19.95429049920005
 21
-24.75905402259998
 31
0.0
 11
19.90245347830003
 21
-24.76435099359997
 31
0.0
 11
19.81992121520002
 21
-24.77833596569999
 31
0.0
  0
SPLINE
  5
3892
330
1F
100
AcDbEntity
  8
1
100
AcDbSpline
210
0.0
220
0.0
230
1.0
 70
     8
 71
     3
 72
     8
 73
     4
 74
     2
 42
0.0000000001
 43
0.0000000001
 44
0.0000000001
 12
-0.998516170919235
 22
-0.0544560043777484
 32
0.0
 13
-0.9970541721229167
 23
-0.0767005726985482
 33
0.0
 40
0.0
 40
0.0
 40
0.0
 40
0.0
 40
0.0233067967236835
 40
0.0233067967236835
 40
0.0233067967236835
 40
0.0233067967236835
 10
19.97754713080004
 20
-24.7575256705
 30
0.0
 10
19.9697897263264
 20
-24.75794873550814
 30
0.0
 10
19.9620365455041
 20
-24.75845814104783
 30
0.0
 10
19.95429049920005
 20
-24.75905402259998
 30
0.0
 11
19.97754713080004
 21
-24.7575256705
 31
0.0
 11
19.95429049920005
 21
-24.75905402259998
 31
0.0
  0
ARC
  5
3893
330
1F
100
AcDbEntity
  8
1
100
AcDbCircle
 10
29.40600000000003
 20
-25.75
 30
0.0
 40
1.0
100
AcDbArc
 50
0.0000000012994983
 51
90.0
  0
ARC
  5
3894
330
1F
100
AcDbEntity
  8
1
100
AcDbCircle
 10
64.5
 20
-27.5
 30
0.0
 40
0.8
100
AcDbArc
 50
0.0
 51
180.0
  0
LINE
  5
3895
330
1F
100
AcDbEntity
  8
1
100
AcDbLine
 10
55.32457351950004
 20
-33.0
 30
0.0
 11
58.50000000000003
 21
-27.5
 31
0.0
  0
LINE
  5
3896
330
1F
100
AcDbEntity
  8
1
100
AcDbLine
 10
58.50000000000003
 20
-27.5
 30
0.0
 11
63.70000000000004
 21
-27.5
 31
0.0
  0
LINE
  5
3897
330
1F
100
AcDbEntity
  8
1
100
AcDbLine
 10
71.30000000000002
 20
-27.5
 30
0.0
 11
74.82871818040002
 21
-27.5
 31
0.0
  0
LINE
  5
3898
330
1F
100
AcDbEntity
  8
1
100
AcDbLine
 10
68.30000000000001
 20
-27.5
 30
0.0
 11
69.70000000000005
 21
-27.5
 31
0.0
  0
LINE
  5
3899
330
1F
100
AcDbEntity
  8
1
100
AcDbLine
 10
65.30000000000001
 20
-27.5
 30
0.0
 11
66.70000000000005
 21
-27.5
 31
0.0
  0
ARC
  5
389A
330
1F
100
AcDbEntity
  8
1
100
AcDbCircle
 10
67.5
 20
-27.5
 30
0.0
 40
0.8
100
AcDbArc
 50
0.0
 51
180.0
  0
ARC
  5
389B
330
1F
100
AcDbEntity
  8
1
100
AcDbCircle
 10
70.5
 20
-27.5
 30
0.0
 40
0.8
100
AcDbArc
 50
0.0
 51
180.0
  0
LINE
  5
389C
330
1F
100
AcDbEntity
  8
1
100
AcDbLine
 10
74.82871818040002
 20
-27.5
 30
0.0
 11
80.08682408890001
 21
-26.5728540609
 31
0.0
  0
ARC
  5
389D
330
1F
100
AcDbEntity
  8
1
100
AcDbCircle
 10
80.0
 20
-26.0804501844
 30
0.0
 40
0.5
100
AcDbArc
 50
280.0000000017993
 51
0.0
  0
INSERT
  5
389E
330
1F
100
AcDbEntity
  8
1
100
AcDbBlockReference
  2
nullpunkt_2
 10
80.5
 20
0.0
 30
0.0
 41
-1.0
 50
180.0
  0
LINE
  5
389F
330
1F
100
AcDbEntity
  8
4
100
AcDbLine
 10
83.50004196230003
 20
0.0
 30
0.0
 11
39.96456671670003
 21
0.0
 31
0.0
  0
ARC
  5
38A0
330
1F
100
AcDbEntity
  8
NOCUT
100
AcDbCircle
 10
80.0
 20
26.08045018440003
 30
0.0
 40
0.5
100
AcDbArc
 50
0.0
 51
79.9999999989993
  0
LINE
  5
38A1
330
1F
100
AcDbEntity
  8
NOCUT
100
AcDbLine
 10
30.40600000000005
 20
30.00000000000005
 30
0.0
 11
30.40600000000005
 21
25.75000000000005
 31
0.0
  0
LINE
  5
38A2
330
1F
100
AcDbEntity
  8
NOCUT
100
AcDbLine
 10
19.10000000000001
 20
30.12633029310001
 30
0.0
 11
19.10000000000001
 21
25.64753560689853
 31
0.0
  0
LINE
  5
38A3
330
1F
100
AcDbEntity
  8
SK3
100
AcDbLine
 10
19.24616780370001
 20
24.24540380530001
 30
0.0
 11
16.09147860890002
 21
28.7507268885
 31
0.0
  0
LINE
  5
38A4
330
1F
100
AcDbEntity
  8
SK3
100
AcDbLine
 10
15.62051133370002
 20
28.1157545854
 30
0.0
 11
18.4884106016
 21
24.02000632789997
 31
0.0
  0
LINE
  5
38A5
330
1F
100
AcDbEntity
  8
SK3
100
AcDbLine
 10
15.62094907750003
 20
25.06411571289999
 30
0.0
 11
15.50347982290002
 21
26.7439036156
 31
0.0
  0
LINE
  5
38A6
330
1F
100
AcDbEntity
  8
SK3
100
AcDbLine
 10
17.25487760270002
 20
27.08923568659999
 30
0.0
 11
15.91742542650004
 21
26.15273327590003
 31
0.0
  0
LINE
  5
38A7
330
1F
100
AcDbEntity
  8
SK3
100
AcDbLine
 10
15.50347982290002
 20
26.7439036156
 30
0.0
 11
17.15926223731216
 21
24.37922225660853
 31
0.0
  0
LINE
  5
38A8
330
1F
100
AcDbEntity
  8
1
100
AcDbLine
 10
19.10000000000001
 20
30.12633029309998
 30
0.0
 11
19.10000000000001
 21
6.167915811900003
 31
0.0
  0
ARC
  5
38A9
330
1F
100
AcDbEntity
  8
1
100
AcDbCircle
 10
80.0
 20
26.0804501844
 30
0.0
 40
0.5
100
AcDbArc
 50
0.0
 51
79.9999999989993
  0
LINE
  5
38AA
330
1F
100
AcDbEntity
  8
SK3
100
AcDbLine
 10
76.80000000000003
 20
14.00000000000003
 30
0.0
 11
41.80000000000001
 21
14.00000000000003
 31
0.0
  0
LINE
  5
38AB
330
1F
100
AcDbEntity
  8
SK3
100
AcDbLine
 10
53.30000000000001
 20
13.00000000000002
 30
0.0
 11
41.80000000000001
 21
13.00000000000002
 31
0.0
  0
LINE
  5
38AC
330
1F
100
AcDbEntity
  8
SK3
100
AcDbLine
 10
33.50000000000003
 20
12.50000000000001
 30
0.0
 11
80.0
 21
12.50000000000001
 31
0.0
  0
LINE
  5
38AD
330
1F
100
AcDbEntity
  8
SK3
100
AcDbLine
 10
33.50000000000003
 20
-12.5
 30
0.0
 11
80.0
 21
-12.5
 31
0.0
  0
LINE
  5
38AE
330
1F
100
AcDbEntity
  8
SK3
100
AcDbLine
 10
53.30000000000001
 20
-13.0
 30
0.0
 11
41.80000000000001
 21
-13.0
 31
0.0
  0
LINE
  5
38AF
330
1F
100
AcDbEntity
  8
SK3
100
AcDbLine
 10
70.05000000000001
 20
-14.0
 30
0.0
 11
41.80000000000001
 21
-14.0
 31
0.0
  0
LINE
  5
38B0
330
1F
100
AcDbEntity
  8
SK3
100
AcDbLine
 10
39.73205080760005
 20
-16.5
 30
0.0
 11
70.05000000000001
 21
-16.5
 31
0.0
  0
LINE
  5
38B1
330
1F
100
AcDbEntity
  8
SK3
100
AcDbLine
 10
39.73205080760005
 20
-18.5
 30
0.0
 11
71.05000000000003
 21
-18.5
 31
0.0
  0
LINE
  5
38B2
330
1F
100
AcDbEntity
  8
SK3
100
AcDbLine
 10
41.80000000000001
 20
14.00000000000003
 30
0.0
 11
41.80000000000001
 21
-14.0
 31
0.0
  0
LINE
  5
38B3
330
1F
100
AcDbEntity
  8
SK3
100
AcDbLine
 10
33.50000000000003
 20
13.50000000000002
 30
0.0
 11
33.50000000000003
 21
-13.5
 31
0.0
  0
LINE
  5
38B4
330
1F
100
AcDbEntity
  8
SK3
100
AcDbLine
 10
23.50000000000001
 20
13.50000000000002
 30
0.0
 11
23.50000000000001
 21
-13.5
 31
0.0
  0
LINE
  5
38B5
330
1F
100
AcDbEntity
  8
SK3
100
AcDbLine
 10
23.00000000010004
 20
7.500000000000027
 30
0.0
 11
23.00000000010004
 21
-7.5
 31
0.0
  0
DIMENSION
  5
38B6
330
1F
100
AcDbEntity
  8
SK2
100
AcDbDimension
  2
*D7
 10
38.66693547519764
 20
-8.000000000000001
 30
0.0
 11
38.66693547519764
 21
0.4829105228000117
 31
0.0
 70
   160
  1
M<>x1
 71
     5
 42
16.00000000000003
  3
ISO-25
100
AcDbAlignedDimension
 13
23.57246347920005
 23
8.000000000000026
 33
0.0
 14
23.50971492070002
 24
-8.0
 34
0.0
 50
270.0
100
AcDbRotatedDimension
1001
ACAD
1000
DSTYLE
1002
{
1070
   179
1070
     4
1070
   275
1070
     1
1002
}
  0
SPLINE
  5
38B7
330
1F
100
AcDbEntity
  8
1
100
AcDbSpline
210
0.0
220
0.0
230
1.0
 70
     8
 71
     3
 72
    11
 73
     7
 74
     5
 42
0.0000000001
 43
0.0000000001
 44
0.0000000001
 12
0.0
 22
1.0
 32
0.0
 13
0.0
 23
1.0
 33
0.0
 40
0.0
 40
0.0
 40
0.0
 40
0.0
 40
3.130397215024906
 40
6.185432733409481
 40
9.220097053426554
 40
12.35753690762512
 40
12.35753690762512
 40
12.35753690762512
 40
12.35753690762512
 10
19.10000000000001
 20
-6.169481339699983
 30
0.0
 10
19.10000000000001
 20
-5.126015601358348
 30
0.0
 10
19.27678412395282
 20
-3.069875847472296
 30
0.0
 10
19.51830700441976
 20
-0.0000984668715736
 30
0.0
 10
19.27669415574146
 20
3.071964089717136
 30
0.0
 10
19.10000000000001
 20
5.123668054867142
 30
0.0
 10
19.10000000000001
 20
6.169481339599997
 30
0.0
 11
19.10000000000001
 21
-6.169481339699983
 31
0.0
 11
19.27515881250002
 21
-3.043988400299979
 31
0.0
 11
19.4385611621
 21
0.0066740999999979
 31
0.0
 11
19.27574045310003
 21
3.036967312200005
 31
0.0
 11
19.10000000000001
 21
6.169481339599997
 31
0.0
  0
LINE
  5
38B8
330
1F
100
AcDbEntity
  8
SK3
100
AcDbLine
 10
23.50000000000001
 20
-13.5
 30
0.0
 11
33.50000000000003
 21
-13.5
 31
0.0
  0
LINE
  5
38B9
330
1F
100
AcDbEntity
  8
SK3
100
AcDbLine
 10
23.00007416180001
 20
-7.499925820199989
 30
0.0
 11
23.50007910590002
 21
-7.999920874899999
 31
0.0
  0
CIRCLE
  5
38BA
330
1F
100
AcDbEntity
  8
1
100
AcDbCircle
 10
38.00000000000002
 20
-17.5
 30
0.0
 40
2.0
  0
LINE
  5
38BE
330
1F
100
AcDbEntity
  8
SK3
100
AcDbLine
 10
23.50000000000001
 20
13.50000000000002
 30
0.0
 11
33.50000000000003
 21
13.50000000000002
 31
0.0
  0
LINE
  5
38BF
330
1F
100
AcDbEntity
  8
SK3
100
AcDbLine
 10
23.00007416270003
 20
7.499925821000005
 30
0.0
 11
23.50007910680003
 21
7.999920875700012
 31
0.0
  0
LINE
  5
38C0
330
1F
100
AcDbEntity
  8
NOCUT
100
AcDbLine
 10
20.10000000000002
 20
24.75000000000005
 30
0.0
 11
29.40600000000005
 21
24.75000000000005
 31
0.0
  0
LINE
  5
38C1
330
1F
100
AcDbEntity
  8
1
100
AcDbLine
 10
20.10000000000002
 20
24.75000000000003
 30
0.0
 11
29.40600000000003
 21
24.75000000000003
 31
0.0
  0
SPLINE
  5
38C2
330
1F
100
AcDbEntity
  8
NOCUT
100
AcDbSpline
210
0.0
220
0.0
230
1.0
 70
     8
 71
     3
 72
    12
 73
     8
 74
     6
 42
0.0000000001
 43
0.0000000001
 44
0.0000000001
 12
-0.9782266680342791
 22
0.207539359993598
 32
0.0
 13
0.0000727882101976
 23
0.9999999973509382
 33
0.0
 40
0.0
 40
0.0
 40
0.0
 40
0.0
 40
0.1045559286760999
 40
0.3512826765266235
 40
0.6277774878901467
 40
0.9209145280875528
 40
1.218980493662694
 40
1.218980493662694
 40
1.218980493662694
 40
1.218980493662694
 10
19.81992579460005
 20
24.77833499429999
 30
0.0
 10
19.7858326620227
 20
24.78556815114031
 30
0.0
 10
19.67252879910639
 20
24.81581094698034
 30
0.0
 10
19.48100321319635
 20
24.90635699536134
 30
0.0
 10
19.27537224761499
 20
25.09156695560224
 30
0.0
 10
19.13265483805789
 20
25.34951136189901
 30
0.0
 10
19.09999276810396
 20
25.54831124480481
 30
0.0
 10
19.10000000000001
 20
25.64766656639999
 30
0.0
 11
19.81992579460005
 21
24.77833499429999
 31
0.0
 11
19.71892833800007
 21
24.80538043719997
 31
0.0
 11
19.49627421199999
 21
24.91167826539998
 31
0.0
 11
19.2912953553
 21
25.0972397081
 31
0.0
 11
19.14934195429998
 21
25.35371301330002
 31
0.0
 11
19.10000000000001
 21
25.64766656639999
 31
0.0
  0
LINE
  5
38C3
330
1F
100
AcDbEntity
  8
SK3
100
AcDbLine
 10
19.97754713080004
 20
24.75752567039998
 30
0.0
 11
19.24616780370001
 21
24.24540380530001
 31
0.0
  0
SPLINE
  5
38C4
330
1F
100
AcDbEntity
  8
1
100
AcDbSpline
210
0.0
220
0.0
230
1.0
 70
     8
 71
     3
 72
    12
 73
     8
 74
     6
 42
0.0000000001
 43
0.0000000001
 44
0.0000000001
 12
-0.9782266680342791
 22
0.207539359993598
 32
0.0
 13
0.0000727882101976
 23
0.9999999973509382
 33
0.0
 40
0.0
 40
0.0
 40
0.0
 40
0.0
 40
0.1045559286761171
 40
0.3512826765265451
 40
0.6277774878900708
 40
0.9209145280874505
 40
1.218980493662625
 40
1.218980493662625
 40
1.218980493662625
 40
1.218980493662625
 10
19.81992579460001
 20
24.77833499430001
 30
0.0
 10
19.78583266202265
 20
24.78556815114034
 30
0.0
 10
19.67252879910637
 20
24.81581094698035
 30
0.0
 10
19.48100321319635
 20
24.90635699536135
 30
0.0
 10
19.27537224761503
 20
25.09156695560224
 30
0.0
 10
19.13265483805791
 20
25.34951136189899
 30
0.0
 10
19.09999276810396
 20
25.5483112448048
 30
0.0
 10
19.10000000000001
 20
25.64766656639999
 30
0.0
 11
19.81992579460001
 21
24.77833499430001
 31
0.0
 11
19.71892833800001
 21
24.80538043719999
 31
0.0
 11
19.49627421200003
 21
24.91167826539998
 31
0.0
 11
19.29129535530003
 21
25.0972397081
 31
0.0
 11
19.14934195430001
 21
25.35371301329999
 31
0.0
 11
19.10000000000001
 21
25.64766656639999
 31
0.0
  0
LINE
  5
38C5
330
1F
100
AcDbEntity
  8
SK3
100
AcDbLine
 10
15.62094907750003
 20
25.06411571289999
 30
0.0
 11
17.15926223730002
 21
24.37922225660003
 31
0.0
  0
LINE
  5
38C6
330
1F
100
AcDbEntity
  8
SK3
100
AcDbLine
 10
18.67258795010005
 20
25.06455345680001
 30
0.0
 11
18.4884106016
 21
24.02000632789997
 31
0.0
  0
LINE
  5
38C7
330
1F
100
AcDbEntity
  8
SK3
100
AcDbLine
 10
18.49671441350005
 20
25.31572466739998
 30
0.0
 11
17.15926223730002
 21
24.37922225660003
 31
0.0
  0
LINE
  5
38C8
330
1F
100
AcDbEntity
  8
SK3
100
AcDbLine
 10
18.08276880990003
 20
25.90689500710002
 30
0.0
 11
16.74531663370001
 21
24.97039259640001
 31
0.0
  0
SPLINE
  5
38C9
330
1F
100
AcDbEntity
  8
NOCUT
100
AcDbSpline
210
0.0
220
0.0
230
1.0
 70
     8
 71
     3
 72
     8
 73
     4
 74
     2
 42
0.0000000001
 43
0.0000000001
 44
0.0000000001
 12
-0.9985161702581844
 22
0.0544560164989009
 32
0.0
 13
-0.9970539228826474
 23
0.076703812580105
 33
0.0
 40
0.0
 40
0.0
 40
0.0
 40
0.0
 40
0.0233101784893302
 40
0.0233101784893302
 40
0.0233101784893302
 40
0.0233101784893302
 10
19.97754713080007
 20
24.75752567039994
 30
0.0
 10
19.969788600749
 20
24.75794879688808
 30
0.0
 10
19.96203429550197
 20
24.75845828891266
 30
0.0
 10
19.95428712720001
 20
24.75905428210001
 30
0.0
 11
19.97754713080007
 21
24.75752567039994
 31
0.0
 11
19.95428712720001
 21
24.75905428210001
 31
0.0
  0
SPLINE
  5
38CA
330
1F
100
AcDbEntity
  8
NOCUT
100
AcDbSpline
210
0.0
220
0.0
230
1.0
 70
     8
 71
     3
 72
     9
 73
     5
 74
     3
 42
0.0000000001
 43
0.0000000001
 44
0.0000000001
 12
-0.9970539230526672
 22
0.0767038103700614
 32
0.0
 13
-0.9782266679944664
 23
0.2075393601812532
 33
0.0
 40
0.0
 40
0.0
 40
0.0
 40
0.0
 40
0.0521006369160122
 40
0.1358076385072072
 40
0.1358076385072072
 40
0.1358076385072072
 40
0.1358076385072072
 10
19.95428712720001
 20
24.75905428210001
 30
0.0
 10
19.93697141238979
 20
24.76038638789139
 30
0.0
 10
19.89191961318156
 20
24.76498527337004
 30
0.0
 10
19.84722060168484
 20
24.77254416178234
 30
0.0
 10
19.81992579460005
 20
24.77833499429999
 30
0.0
 11
19.95428712720001
 21
24.75905428210001
 31
0.0
 11
19.90245639160002
 21
24.76435062180001
 31
0.0
 11
19.81992579460005
 21
24.77833499429999
 31
0.0
  0
LINE
  5
38CB
330
1F
100
AcDbEntity
  8
NOCUT
100
AcDbLine
 10
20.10000000000002
 20
24.75000000000005
 30
0.0
 11
19.97739003759999
 21
24.75754506539999
 31
0.0
  0
SPLINE
  5
38CC
330
1F
100
AcDbEntity
  8
SK3
100
AcDbSpline
210
0.0
220
0.0
230
1.0
 70
     8
 71
     3
 72
     8
 73
     4
 74
     2
 42
0.0000000001
 43
0.0000000001
 44
0.0000000001
 12
-0.998428828195035
 22
0.0560345877926238
 32
0.0
 13
-0.9969653638341615
 23
0.0778464084914512
 33
0.0
 40
0.0
 40
0.0
 40
0.0
 40
0.0
 40
0.0231960072158407
 40
0.0231960072158407
 40
0.0231960072158407
 40
0.0231960072158407
 10
19.97743113470002
 20
24.7574583976
 30
0.0
 10
19.96971128059891
 20
24.75789165716759
 30
0.0
 10
19.96199568649117
 20
24.75840910798231
 30
0.0
 10
19.95428714790002
 20
24.75901101660001
 30
0.0
 11
19.97743113470002
 21
24.7574583976
 31
0.0
 11
19.95428714790002
 21
24.75901101660001
 31
0.0
  0
LINE
  5
38CD
330
1F
100
AcDbEntity
  8
1
100
AcDbLine
 10
20.10000000000002
 20
24.75000000000003
 30
0.0
 11
19.97739003760003
 21
24.75754506539999
 31
0.0
  0
SPLINE
  5
38CE
330
1F
100
AcDbEntity
  8
1
100
AcDbSpline
210
0.0
220
0.0
230
1.0
 70
     8
 71
     3
 72
     9
 73
     5
 74
     3
 42
0.0000000001
 43
0.0000000001
 44
0.0000000001
 12
-0.9970539230526672
 22
0.0767038103700614
 32
0.0
 13
-0.9782266679944664
 23
0.2075393601812532
 33
0.0
 40
0.0
 40
0.0
 40
0.0
 40
0.0
 40
0.0521006369160405
 40
0.1358076385072823
 40
0.1358076385072823
 40
0.1358076385072823
 40
0.1358076385072823
 10
19.95428712720004
 20
24.75905428210001
 30
0.0
 10
19.93697141238981
 20
24.76038638789139
 30
0.0
 10
19.89191961318156
 20
24.76498527337004
 30
0.0
 10
19.84722060168481
 20
24.77254416178237
 30
0.0
 10
19.81992579460001
 20
24.77833499430001
 30
0.0
 11
19.95428712720004
 21
24.75905428210001
 31
0.0
 11
19.90245639160002
 21
24.76435062180001
 31
0.0
 11
19.81992579460001
 21
24.77833499430001
 31
0.0
  0
SPLINE
  5
38CF
330
1F
100
AcDbEntity
  8
1
100
AcDbSpline
210
0.0
220
0.0
230
1.0
 70
     8
 71
     3
 72
     8
 73
     4
 74
     2
 42
0.0000000001
 43
0.0000000001
 44
0.0000000001
 12
-0.9985161702581844
 22
0.0544560164989009
 32
0.0
 13
-0.9970539228826474
 23
0.076703812580105
 33
0.0
 40
0.0
 40
0.0
 40
0.0
 40
0.0
 40
0.0233101784892676
 40
0.0233101784892676
 40
0.0233101784892676
 40
0.0233101784892676
 10
19.97754713080004
 20
24.75752567039998
 30
0.0
 10
19.96978860074899
 20
24.75794879688811
 30
0.0
 10
19.96203429550197
 20
24.75845828891266
 30
0.0
 10
19.95428712720004
 20
24.75905428210001
 30
0.0
 11
19.97754713080004
 21
24.75752567039998
 31
0.0
 11
19.95428712720004
 21
24.75905428210001
 31
0.0
  0
ARC
  5
38D0
330
1F
100
AcDbEntity
  8
NOCUT
100
AcDbCircle
 10
29.40600000000005
 20
25.75000000000005
 30
0.0
 40
1.0
100
AcDbArc
 50
270.0
 51
359.9999999994999
  0
ARC
  5
38D1
330
1F
100
AcDbEntity
  8
1
100
AcDbCircle
 10
29.40600000000003
 20
25.75000000000001
 30
0.0
 40
1.0
100
AcDbArc
 50
270.0
 51
359.9999999994999
  0
LINE
  5
38D2
330
1F
100
AcDbEntity
  8
NOCUT
100
AcDbLine
 10
80.5
 20
26.08045018440003
 30
0.0
 11
80.5
 21
0.0
 31
0.0
  0
LINE
  5
38D3
330
1F
100
AcDbEntity
  8
SK3
100
AcDbLine
 10
80.00000000010004
 20
12.50000000000001
 30
0.0
 11
80.00000000010004
 21
-12.5
 31
0.0
  0
LINE
  5
38D4
330
1F
100
AcDbEntity
  8
SK3
100
AcDbLine
 10
76.80000000000003
 20
14.00000000000003
 30
0.0
 11
76.80000000000003
 21
-14.0
 31
0.0
  0
LINE
  5
38D5
330
1F
100
AcDbEntity
  8
SK3
100
AcDbLine
 10
53.30000000000001
 20
13.9
 30
0.0
 11
53.30000000000001
 21
-13.9
 31
0.0
  0
LINE
  5
38D6
330
1F
100
AcDbEntity
  8
SK3
100
AcDbLine
 10
65.30000000000001
 20
-13.9
 30
0.0
 11
53.30000000000001
 21
-13.9
 31
0.0
  0
LINE
  5
38D7
330
1F
100
AcDbEntity
  8
SK3
100
AcDbLine
 10
76.80000000000003
 20
-13.0
 30
0.0
 11
65.30000000000001
 21
-13.0
 31
0.0
  0
LINE
  5
38D8
330
1F
100
AcDbEntity
  8
SK3
100
AcDbLine
 10
76.80000000000003
 20
-14.0
 30
0.0
 11
72.05000000000002
 21
-14.0
 31
0.0
  0
LINE
  5
38D9
330
1F
100
AcDbEntity
  8
SK3
100
AcDbLine
 10
72.05000000000002
 20
-14.0
 30
0.0
 11
72.05000000000002
 21
-17.5
 31
0.0
  0
LINE
  5
38DA
330
1F
100
AcDbEntity
  8
SK3
100
AcDbLine
 10
70.05000000000001
 20
-14.0
 30
0.0
 11
70.05000000000001
 21
-16.5
 31
0.0
  0
ARC
  5
38DB
330
1F
100
AcDbEntity
  8
SK3
100
AcDbCircle
 10
71.05000000000003
 20
-17.5
 30
0.0
 40
1.0
100
AcDbArc
 50
270.0
 51
0.0
  0
SPLINE
  5
38DC
330
1F
100
AcDbEntity
  8
SK3
100
AcDbSpline
210
0.0
220
0.0
230
1.0
 70
     8
 71
     3
 72
    16
 73
    12
 74
    10
 42
0.0000000001
 43
0.0000000001
 44
0.0000000001
 12
-0.9974586802262253
 22
0.0712473244505133
 32
0.0
 13
-0.9974586802523456
 23
-0.0712473240848317
 33
0.0
 40
0.0
 40
0.0
 40
0.0
 40
0.0
 40
0.059500499597147
 40
0.2324718012201572
 40
0.4994416046623524
 40
0.8263935899133679
 40
1.175358849314956
 40
1.502023397459773
 40
1.769057217254791
 40
1.942353504810233
 40
2.001668626668671
 40
2.001668626668671
 40
2.001668626668671
 40
2.001668626668671
 10
72.05000000000002
 20
-14.0
 30
0.0
 10
72.0302169033997
 20
-13.99858691620007
 30
0.0
 10
71.95291162336175
 20
-13.99322811922397
 30
0.0
 10
71.78673648728834
 20
-13.98307927957342
 30
0.0
 10
71.53135315934084
 20
-13.97148083388638
 30
0.0
 10
71.21712057829256
 20
-13.96387634359213
 30
0.0
 10
70.88289141452046
 20
-13.96387734791264
 30
0.0
 10
70.56873331738438
 20
-13.97147868350409
 30
0.0
 10
70.31331601719362
 20
-13.98307554568823
 30
0.0
 10
70.14707312894675
 20
-13.9932287981908
 30
0.0
 10
70.06972146105599
 20
-13.99859131876327
 30
0.0
 10
70.05000000000001
 20
-14.0
 30
0.0
 11
72.05000000000002
 21
-14.0
 31
0.0
 11
71.99064194020002
 21
-13.99588536889998
 31
0.0
 11
71.81799222390004
 21
-13.98534275789998
 31
0.0
 11
71.55129711660004
 21
-13.97323508709999
 31
0.0
 11
71.22444072120003
 21
-13.96532955449998
 31
0.0
 11
70.87547546180001
 21
-13.9653306017
 31
0.0
 11
70.54890638570005
 21
-13.97322778789998
 31
0.0
 11
70.28214718000004
 21
-13.98533510339999
 31
0.0
 11
70.10917309900003
 21
-13.99589780109999
 31
0.0
 11
70.05000000000001
 21
-14.0
 31
0.0
  0
LINE
  5
38DD
330
1F
100
AcDbEntity
  8
SK3
100
AcDbLine
 10
80.00002998299997
 20
-12.49997001159999
 30
0.0
 11
80.5000311823
 21
-12.99996881209998
 31
0.0
  0
LINE
  5
38DE
330
1F
100
AcDbEntity
  8
SK3
100
AcDbLine
 10
65.30000000000001
 20
13.9
 30
0.0
 11
53.30000000000001
 21
13.9
 31
0.0
  0
LINE
  5
38DF
330
1F
100
AcDbEntity
  8
SK3
100
AcDbLine
 10
76.80000000000003
 20
13.00000000000002
 30
0.0
 11
65.30000000000001
 21
13.00000000000002
 31
0.0
  0
LINE
  5
38E0
330
1F
100
AcDbEntity
  8
SK3
100
AcDbLine
 10
80.00002998330007
 20
12.49997001190001
 30
0.0
 11
80.50003118260001
 21
12.99996881230001
 31
0.0
  0
LINE
  5
38E1
330
1F
100
AcDbEntity
  8
NOCUT
100
AcDbLine
 10
33.40600000000005
 20
33.00000000000006
 30
0.0
 11
55.32457351950006
 21
33.00000000000006
 31
0.0
  0
LINE
  5
38E2
330
1F
100
AcDbEntity
  8
1
100
AcDbLine
 10
33.40600000000003
 20
33.00000000000002
 30
0.0
 11
55.32457351950004
 21
33.00000000000002
 31
0.0
  0
LINE
  5
38E3
330
1F
100
AcDbEntity
  8
NOCUT
100
AcDbLine
 10
30.40599901430005
 20
30.00000098560001
 30
0.0
 11
33.40599891570001
 21
33.00000108409999
 31
0.0
  0
LINE
  5
38E4
330
1F
100
AcDbEntity
  8
1
100
AcDbLine
 10
30.40599901430002
 20
30.00000098559999
 30
0.0
 11
33.40599891570001
 21
33.00000108409999
 31
0.0
  0
SPLINE
  5
38E5
330
1F
100
AcDbEntity
  8
NOCUT
100
AcDbSpline
210
0.0
220
0.0
230
1.0
 70
     8
 71
     3
 72
    10
 73
     6
 74
     4
 42
0.0000000001
 43
0.0000000001
 44
0.0000000001
 12
0.0
 22
1.0
 32
0.0
 13
-0.3450036794023426
 23
0.9386013324084116
 33
0.0
 40
0.0
 40
0.0
 40
0.0
 40
0.0
 40
0.3409083151478851
 40
0.5752869841816719
 40
0.6623487255944739
 40
0.6623487255944739
 40
0.6623487255944739
 40
0.6623487255944739
 10
19.10000000000001
 20
30.12633029310001
 30
0.0
 10
19.10000000000001
 20
30.23996639814931
 30
0.0
 10
19.08184187023479
 20
30.43223758051778
 30
0.0
 10
19.02778979704457
 20
30.64680768528972
 30
0.0
 10
18.99306970864086
 20
30.74821144810268
 30
0.0
 10
18.9830575016
 20
30.77545020359996
 30
0.0
 11
19.10000000000001
 21
30.12633029310001
 31
0.0
 11
19.06836979729996
 21
30.46576807769996
 31
0.0
 11
19.01125479389998
 21
30.69308115890003
 31
0.0
 11
18.9830575016
 21
30.77545020359996
 31
0.0
  0
ARC
  5
38E6
330
1F
100
AcDbEntity
  8
NOCUT
100
AcDbCircle
 10
17.5
 20
30.175
 30
0.0
 40
1.6
100
AcDbArc
 50
22.04170473469901
 51
90.0
  0
LINE
  5
38E7
330
1F
100
AcDbEntity
  8
SK3
100
AcDbLine
 10
16.66505846250001
 20
27.931577237
 30
0.0
 11
15.62051133370002
 21
28.1157545854
 31
0.0
  0
LINE
  5
38E8
330
1F
100
AcDbEntity
  8
SK3
100
AcDbLine
 10
16.8409319991
 20
27.68040602640001
 30
0.0
 11
15.50347982290002
 21
26.7439036156
 31
0.0
  0
LINE
  5
38E9
330
1F
100
AcDbEntity
  8
SK3
100
AcDbLine
 10
18.98305750160003
 20
30.77545020359996
 30
0.0
 11
16.09147860890002
 21
28.7507268885
 31
0.0
  0
SPLINE
  5
38EA
330
1F
100
AcDbEntity
  8
SK3
100
AcDbSpline
210
0.0
220
0.0
230
1.0
 70
     8
 71
     3
 72
     8
 73
     4
 74
     2
 42
0.0000000001
 43
0.0000000001
 44
0.0000000001
 12
0.1826968105718461
 22
-0.9831693014973946
 32
0.0
 13
0.0
 23
-1.0
 33
0.0
 40
0.0
 40
0.0
 40
0.0
 40
0.0
 40
0.3395483074162011
 40
0.3395483074162011
 40
0.3395483074162011
 40
0.3395483074162011
 10
19.06862011810003
 20
30.46442548099999
 30
0.0
 10
19.08929824903337
 20
30.35314765692433
 30
0.0
 10
19.10000000000001
 20
30.23951306223871
 30
0.0
 10
19.10000000000001
 20
30.12633029309998
 30
0.0
 11
19.06862011810003
 21
30.46442548099999
 31
0.0
 11
19.10000000000001
 21
30.12633029309998
 31
0.0
  0
SPLINE
  5
38EB
330
1F
100
AcDbEntity
  8
SK3
100
AcDbSpline
210
0.0
220
0.0
230
1.0
 70
     8
 71
     3
 72
     8
 73
     4
 74
     2
 42
0.0000000001
 43
0.0000000001
 44
0.0000000001
 12
0.2504721804170924
 22
-0.9681237972682561
 32
0.0
 13
0.18269681073239
 23
-0.9831693014675618
 33
0.0
 40
0.0
 40
0.0
 40
0.0
 40
0.0
 40
0.1317227258218224
 40
0.1317227258218224
 40
0.1317227258218224
 40
0.1317227258218224
 10
19.04006223490003
 20
30.59301523100001
 30
0.0
 10
19.05105986101572
 20
30.55050726249696
 30
0.0
 10
19.06059834413049
 20
30.50759406111121
 30
0.0
 10
19.06862011810003
 20
30.46442548099999
 30
0.0
 11
19.04006223490003
 21
30.59301523100001
 31
0.0
 11
19.06862011810003
 21
30.46442548099999
 31
0.0
  0
SPLINE
  5
38EC
330
1F
100
AcDbEntity
  8
SK3
100
AcDbSpline
210
0.0
220
0.0
230
1.0
 70
     8
 71
     3
 72
     8
 73
     4
 74
     2
 42
0.0000000001
 43
0.0000000001
 44
0.0000000001
 12
0.2923746868405683
 22
-0.9563038442330343
 32
0.0
 13
0.2504721799623081
 23
-0.9681237973859175
 33
0.0
 40
0.0
 40
0.0
 40
0.0
 40
0.0
 40
0.0836016043227132
 40
0.0836016043227132
 40
0.0836016043227132
 40
0.0836016043227132
 10
19.01736291580005
 20
30.6734762101
 30
0.0
 10
19.02551058009446
 20
30.64682669823405
 30
0.0
 10
19.03308227620567
 20
30.6199941318815
 30
0.0
 10
19.04006223490003
 20
30.59301523100001
 30
0.0
 11
19.01736291580005
 21
30.6734762101
 31
0.0
 11
19.04006223490003
 21
30.59301523100001
 31
0.0
  0
SPLINE
  5
38ED
330
1F
100
AcDbEntity
  8
SK3
100
AcDbSpline
210
0.0
220
0.0
230
1.0
 70
     8
 71
     3
 72
     9
 73
     5
 74
     3
 42
0.0000000001
 43
0.0000000001
 44
0.0000000001
 12
0.3055915061284871
 22
-0.9521627126610887
 32
0.0
 13
0.2923746873038485
 23
-0.956303844091394
 33
0.0
 40
0.0
 40
0.0
 40
0.0
 40
0.0
 40
0.0077675372375741
 40
0.0267412326851909
 40
0.0267412326851909
 40
0.0267412326851909
 40
0.0267412326851909
 10
19.00936751369998
 20
30.6989940471
 30
0.0
 10
19.01015874483443
 20
30.69652872732439
 30
0.0
 10
19.01286565631495
 20
30.6880359235934
 30
0.0
 10
19.01551377304222
 20
30.67952441606439
 30
0.0
 10
19.01736291580005
 20
30.6734762101
 30
0.0
 11
19.00936751369998
 21
30.6989940471
 31
0.0
 11
19.01172633960001
 21
30.6915933326
 31
0.0
 11
19.01736291580005
 21
30.6734762101
 31
0.0
  0
SPLINE
  5
38EE
330
1F
100
AcDbEntity
  8
SK3
100
AcDbSpline
210
0.0
220
0.0
230
1.0
 70
     8
 71
     3
 72
     8
 73
     4
 74
     2
 42
0.0000000001
 43
0.0000000001
 44
0.0000000001
 12
0.3450066652962129
 22
-0.9386002348716877
 32
0.0
 13
0.3055915074591857
 23
-0.9521627122340081
 33
0.0
 40
0.0
 40
0.0
 40
0.0
 40
0.0
 40
0.0808564196798682
 40
0.0808564196798682
 40
0.0808564196798682
 40
0.0808564196798682
 10
18.98305750160003
 20
30.77545020359996
 30
0.0
 10
18.99235616950721
 20
30.75015291876583
 30
0.0
 10
19.00113116864074
 20
30.7246568697213
 30
0.0
 10
19.00936751369998
 20
30.6989940471
 30
0.0
 11
18.98305750160003
 21
30.77545020359996
 31
0.0
 11
19.00936751369998
 21
30.6989940471
 31
0.0
  0
SPLINE
  5
38EF
330
1F
100
AcDbEntity
  8
1
100
AcDbSpline
210
0.0
220
0.0
230
1.0
 70
     8
 71
     3
 72
    10
 73
     6
 74
     4
 42
0.0000000001
 43
0.0000000001
 44
0.0000000001
 12
0.0
 22
1.0
 32
0.0
 13
-0.3450036794023426
 23
0.9386013324084116
 33
0.0
 40
0.0
 40
0.0
 40
0.0
 40
0.0
 40
0.3409083151479152
 40
0.57528698418169
 40
0.6623487255945088
 40
0.6623487255945088
 40
0.6623487255945088
 40
0.6623487255945088
 10
19.10000000000001
 20
30.12633029309998
 30
0.0
 10
19.10000000000001
 20
30.23996639814928
 30
0.0
 10
19.08184187023491
 20
30.43223758051778
 30
0.0
 10
19.02778979704456
 20
30.64680768528972
 30
0.0
 10
18.99306970864089
 20
30.74821144810267
 30
0.0
 10
18.98305750160003
 20
30.77545020359996
 30
0.0
 11
19.10000000000001
 21
30.12633029309998
 31
0.0
 11
19.06836979730002
 21
30.46576807769996
 31
0.0
 11
19.0112547939
 21
30.69308115890001
 31
0.0
 11
18.98305750160003
 21
30.77545020359996
 31
0.0
  0
ARC
  5
38F0
330
1F
100
AcDbEntity
  8
1
100
AcDbCircle
 10
17.50000000000001
 20
30.175
 30
0.0
 40
1.6
100
AcDbArc
 50
22.04170473469901
 51
90.0
  0
DIMENSION
  5
38F1
330
1F
100
AcDbEntity
  8
SK2
100
AcDbDimension
  2
*D8
 10
58.50000000000003
 20
50.6250010841
 30
0.0
 11
69.13676406540003
 21
50.6250010841
 31
0.0
 70
   160
 71
     5
 42
21.99999999999997
  3
ISO-25
100
AcDbAlignedDimension
 13
80.5
 23
28.00000000000002
 33
0.0
 14
58.50000000000003
 24
28.00000000000002
 34
0.0
 50
180.0
100
AcDbRotatedDimension
1001
ACAD
1000
DSTYLE
1002
{
1070
   179
1070
     4
1070
   275
1070
     1
1002
}
  0
ARC
  5
38F2
330
1F
100
AcDbEntity
  8
NOCUT
100
AcDbCircle
 10
64.5
 20
27.50000000000005
 30
0.0
 40
0.8
100
AcDbArc
 50
180.0
 51
0.0
  0
ARC
  5
38F3
330
1F
100
AcDbEntity
  8
1
100
AcDbCircle
 10
64.5
 20
27.50000000000003
 30
0.0
 40
0.8
100
AcDbArc
 50
180.0
 51
0.0
  0
LINE
  5
38F4
330
1F
100
AcDbEntity
  8
NOCUT
100
AcDbLine
 10
55.32457351950006
 20
33.00000000000006
 30
0.0
 11
58.5
 21
27.50000000000005
 31
0.0
  0
LINE
  5
38F5
330
1F
100
AcDbEntity
  8
1
100
AcDbLine
 10
55.32457351950004
 20
33.00000000000002
 30
0.0
 11
58.50000000000003
 21
27.50000000000003
 31
0.0
  0
LINE
  5
38F6
330
1F
100
AcDbEntity
  8
NOCUT
100
AcDbLine
 10
58.5
 20
27.50000000000005
 30
0.0
 11
63.70000000000004
 21
27.50000000000005
 31
0.0
  0
LINE
  5
38F7
330
1F
100
AcDbEntity
  8
1
100
AcDbLine
 10
58.50000000000003
 20
27.50000000000003
 30
0.0
 11
63.70000000000004
 21
27.50000000000003
 31
0.0
  0
LINE
  5
38F8
330
1F
100
AcDbEntity
  8
NOCUT
100
AcDbLine
 10
71.29999999999995
 20
27.50000000000005
 30
0.0
 11
74.82871818040006
 21
27.50000000000005
 31
0.0
  0
LINE
  5
38F9
330
1F
100
AcDbEntity
  8
1
100
AcDbLine
 10
71.30000000000002
 20
27.50000000000003
 30
0.0
 11
74.82871818040002
 21
27.50000000000003
 31
0.0
  0
LINE
  5
38FA
330
1F
100
AcDbEntity
  8
NOCUT
100
AcDbLine
 10
68.29999999999995
 20
27.50000000000005
 30
0.0
 11
69.70000000000005
 21
27.50000000000005
 31
0.0
  0
LINE
  5
38FB
330
1F
100
AcDbEntity
  8
1
100
AcDbLine
 10
68.30000000000001
 20
27.50000000000003
 30
0.0
 11
69.70000000000005
 21
27.50000000000003
 31
0.0
  0
LINE
  5
38FC
330
1F
100
AcDbEntity
  8
NOCUT
100
AcDbLine
 10
65.29999999999995
 20
27.50000000000005
 30
0.0
 11
66.70000000000005
 21
27.50000000000005
 31
0.0
  0
ARC
  5
38FD
330
1F
100
AcDbEntity
  8
NOCUT
100
AcDbCircle
 10
67.5
 20
27.50000000000005
 30
0.0
 40
0.8
100
AcDbArc
 50
180.0
 51
0.0
  0
LINE
  5
38FE
330
1F
100
AcDbEntity
  8
1
100
AcDbLine
 10
65.30000000000001
 20
27.50000000000003
 30
0.0
 11
66.70000000000005
 21
27.50000000000003
 31
0.0
  0
ARC
  5
38FF
330
1F
100
AcDbEntity
  8
1
100
AcDbCircle
 10
67.5
 20
27.50000000000003
 30
0.0
 40
0.8
100
AcDbArc
 50
180.0
 51
0.0
  0
ARC
  5
3900
330
1F
100
AcDbEntity
  8
NOCUT
100
AcDbCircle
 10
70.5
 20
27.50000000000005
 30
0.0
 40
0.8
100
AcDbArc
 50
180.0
 51
0.0
  0
ARC
  5
3901
330
1F
100
AcDbEntity
  8
1
100
AcDbCircle
 10
70.5
 20
27.50000000000003
 30
0.0
 40
0.8
100
AcDbArc
 50
180.0
 51
0.0
  0
LINE
  5
3902
330
1F
100
AcDbEntity
  8
NOCUT
100
AcDbLine
 10
74.82871818040006
 20
27.50000000000005
 30
0.0
 11
80.08682408890001
 21
26.57285406090005
 31
0.0
  0
LINE
  5
3903
330
1F
100
AcDbEntity
  8
1
100
AcDbLine
 10
74.82871818040002
 20
27.50000000000003
 30
0.0
 11
80.08682408890001
 21
26.57285406090002
 31
0.0
  0
DIMENSION
  5
3904
330
1F
100
AcDbEntity
  8
SK2
100
AcDbDimension
  2
*D9
 10
92.87503862920003
 20
12.50000000000001
 30
0.0
 11
92.87503862920003
 21
0.5456724230000134
 31
0.0
 70
   160
  1
%%c<>
 71
     5
 42
25.00000000000003
  3
ISO-25
100
AcDbAlignedDimension
 13
81.0
 23
-12.5
 33
0.0
 14
81.0
 24
12.50000000000001
 34
0.0
 50
90.0
100
AcDbRotatedDimension
1001
ACAD
1000
DSTYLE
1002
{
1070
   179
1070
     4
1070
   275
1070
     1
1002
}
  0
ENDSEC
  0
SECTION
  2
OBJECTS
  0
DICTIONARY
  5
9B6
330
0
100
AcDbDictionary
281
     1
  3
ACAD_GROUP
350
9B7
  3
ACAD_LAYOUT
350
9BF
  3
ACAD_MLINESTYLE
350
9B8
  3
ACAD_PLOTSETTINGS
350
9C0
  3
ACAD_PLOTSTYLENAME
350
9BD
  0
DICTIONARY
  5
9B7
102
{ACAD_REACTORS
330
9B6
102
}
330
9B6
100
AcDbDictionary
281
     1
  0
DICTIONARY
  5
9BF
102
{ACAD_REACTORS
330
9B6
102
}
330
9B6
100
AcDbDictionary
281
     1
  3
Layout1
350
9C2
  3
Model
350
9C1
  0
DICTIONARY
  5
9B8
102
{ACAD_REACTORS
330
9B6
102
}
330
9B6
100
AcDbDictionary
281
     1
  3
STANDARD
350
9B9
  0
DICTIONARY
  5
9C0
102
{ACAD_REACTORS
330
9B6
102
}
330
9B6
100
AcDbDictionary
281
     1
  0
ACDBDICTIONARYWDFLT
  5
9BD
102
{ACAD_REACTORS
330
9B6
102
}
330
9B6
100
AcDbDictionary
281
     1
  3
Normal
350
9BE
100
AcDbDictionaryWithDefault
340
9BE
  0
LAYOUT
  5
9C2
102
{ACAD_REACTORS
330
9BF
102
}
330
9BF
100
AcDbPlotSettings
  1

  2
Kein
  4

  6

 40
0.0
 41
0.0
 42
0.0
 43
0.0
 44
0.0
 45
0.0
 46
0.0
 47
0.0
 48
0.0
 49
0.0
140
0.0
141
0.0
142
1.0
143
1.0
 70
   688
 72
     0
 73
     0
 74
     5
  7

 75
    16
147
1.0
148
0.0
149
0.0
100
AcDbLayout
  1
Layout1
 70
     1
 71
     1
 10
0.0
 20
0.0
 11
12.0
 21
9.0
 12
0.0
 22
0.0
 32
0.0
 14
1.000000000000000E+20
 24
1.000000000000000E+20
 34
1.000000000000000E+20
 15
-1.000000000000000E+20
 25
-1.000000000000000E+20
 35
-1.000000000000000E+20
146
0.0
 13
0.0
 23
0.0
 33
0.0
 16
1.0
 26
0.0
 36
0.0
 17
0.0
 27
1.0
 37
0.0
 76
     0
330
1B
  0
LAYOUT
  5
9C1
102
{ACAD_REACTORS
330
9BF
102
}
330
9BF
100
AcDbPlotSettings
  1

  2
Kein
  4

  6

 40
0.0
 41
0.0
 42
0.0
 43
0.0
 44
0.0
 45
0.0
 46
0.0
 47
0.0
 48
0.0
 49
0.0
140
0.0
141
0.0
142
1.0
143
1.0
 70
  1712
 72
     0
 73
     0
 74
     0
  7

 75
     0
147
1.0
148
0.0
149
0.0
100
AcDbLayout
  1
Model
 70
     1
 71
     0
 10
0.0
 20
0.0
 11
12.0
 21
9.0
 12
0.0
 22
0.0
 32
0.0
 14
0.0
 24
0.0
 34
0.0
 15
0.0
 25
0.0
 35
0.0
146
0.0
 13
0.0
 23
0.0
 33
0.0
 16
1.0
 26
0.0
 36
0.0
 17
0.0
 27
1.0
 37
0.0
 76
     0
330
1F
  0
MLINESTYLE
  5
9B9
102
{ACAD_REACTORS
330
9B8
102
}
330
9B8
100
AcDbMlineStyle
  2
STANDARD
 70
     0
  3

 62
   256
 51
90.0
 52
90.0
 71
     2
 49
0.5
 62
   256
  6
BYLAYER
 49
-0.5
 62
   256
  6
BYLAYER
  0
ACDBPLACEHOLDER
  5
9BE
102
{ACAD_REACTORS
330
9BD
102
}
330
9BD
  0
ENDSEC
  0
EOF
