  0
SECTION
  2
HEADER
  9
$ACADVER
  1
AC1015
  9
$ACADMAINTVER
 70
    10
  9
$DWGCODEPAGE
  3
ANSI_1252
  9
$INSBASE
 10
0.0
 20
0.0
 30
0.0
  9
$EXTMIN
 10
-71.42063411952233
 20
-67.04127091116913
 30
-0.0000000349181948
  9
$EXTMAX
 10
114.9110019240804
 20
63.28098226860709
 30
0.0000000814935747
  9
$LIMMIN
 10
0.0
 20
0.0
  9
$LIMMAX
 10
420.0
 20
297.0
  9
$ORTHOMODE
 70
     0
  9
$REGENMODE
 70
     1
  9
$FILLMODE
 70
     1
  9
$QTEXTMODE
 70
     0
  9
$MIRRTEXT
 70
     1
  9
$LTSCALE
 40
23.1
  9
$ATTMODE
 70
     1
  9
$TEXTSIZE
 40
0.2
  9
$TRACEWID
 40
0.05
  9
$TEXTSTYLE
  7
STANDARD
  9
$CLAYER
  8
0
  9
$CELTYPE
  6
BYLAYER
  9
$CECOLOR
 62
   256
  9
$CELTSCALE
 40
1.0
  9
$DISPSILH
 70
     0
  9
$DIMSCALE
 40
1.0
  9
$DIMASZ
 40
2.5
  9
$DIMEXO
 40
2.625
  9
$DIMDLI
 40
15.96
  9
$DIMRND
 40
0.0
  9
$DIMDLE
 40
0.0
  9
$DIMEXE
 40
7.559999999999998
  9
$DIMTP
 40
0.01
  9
$DIMTM
 40
0.01
  9
$DIMTXT
 40
3.5
  9
$DIMCEN
 40
3.779999999999998
  9
$DIMTSZ
 40
0.0
  9
$DIMTOL
 70
     1
  9
$DIMLIM
 70
     0
  9
$DIMTIH
 70
     1
  9
$DIMTOH
 70
     1
  9
$DIMSE1
 70
     0
  9
$DIMSE2
 70
     0
  9
$DIMTAD
 70
     0
  9
$DIMZIN
 70
     0
  9
$DIMBLK
  1
_ARROW_FILLED
  9
$DIMASO
 70
     1
  9
$DIMSHO
 70
     1
  9
$DIMPOST
  1

  9
$DIMAPOST
  1

  9
$DIMALT
 70
     0
  9
$DIMALTD
 70
     2
  9
$DIMALTF
 40
25.4
  9
$DIMLFAC
 40
1.0
  9
$DIMTOFL
 70
     0
  9
$DIMTVP
 40
0.0
  9
$DIMTIX
 70
     0
  9
$DIMSOXD
 70
     0
  9
$DIMSAH
 70
     0
  9
$DIMBLK1
  1

  9
$DIMBLK2
  1

  9
$DIMSTYLE
  2
STANDARD
  9
$DIMCLRD
 70
     0
  9
$DIMCLRE
 70
     0
  9
$DIMCLRT
 70
     0
  9
$DIMTFAC
 40
1.0
  9
$DIMGAP
 40
0.09
  9
$DIMJUST
 70
     0
  9
$DIMSD1
 70
     0
  9
$DIMSD2
 70
     0
  9
$DIMTOLJ
 70
     1
  9
$DIMTZIN
 70
     0
  9
$DIMALTZ
 70
     0
  9
$DIMALTTZ
 70
     0
  9
$DIMUPT
 70
     0
  9
$DIMDEC
 70
     4
  9
$DIMTDEC
 70
     4
  9
$DIMALTU
 70
     2
  9
$DIMALTTD
 70
     2
  9
$DIMTXSTY
  7
STANDARD
  9
$DIMAUNIT
 70
     0
  9
$DIMADEC
 70
     0
  9
$DIMALTRND
 40
0.0
  9
$DIMAZIN
 70
     0
  9
$DIMDSEP
 70
    46
  9
$DIMATFIT
 70
     3
  9
$DIMFRAC
 70
     0
  9
$DIMLDRBLK
  1
_ARROW_FILLED
  9
$DIMLUNIT
 70
     2
  9
$DIMLWD
 70
    -2
  9
$DIMLWE
 70
    -2
  9
$DIMTMOVE
 70
     0
  9
$LUNITS
 70
     2
  9
$LUPREC
 70
     4
  9
$SKETCHINC
 40
0.1
  9
$FILLETRAD
 40
0.0
  9
$AUNITS
 70
     0
  9
$AUPREC
 70
     0
  9
$MENU
  1
.
  9
$ELEVATION
 40
0.0
  9
$PELEVATION
 40
0.0
  9
$THICKNESS
 40
0.0
  9
$LIMCHECK
 70
     0
  9
$CHAMFERA
 40
0.0
  9
$CHAMFERB
 40
0.0
  9
$CHAMFERC
 40
0.0
  9
$CHAMFERD
 40
0.0
  9
$SKPOLY
 70
     0
  9
$TDCREATE
 40
2453886.623653796
  9
$TDUCREATE
 40
2453886.540320463
  9
$TDUPDATE
 40
2453889.532579479
  9
$TDUUPDATE
 40
2453889.449246145
  9
$TDINDWG
 40
0.0947742130
  9
$TDUSRTIMER
 40
0.0947742130
  9
$USRTIMER
 70
     1
  9
$ANGBASE
 50
0.0
  9
$ANGDIR
 70
     0
  9
$PDMODE
 70
     3
  9
$PDSIZE
 40
0.3125
  9
$PLINEWID
 40
0.0
  9
$SPLFRAME
 70
     0
  9
$SPLINETYPE
 70
     6
  9
$SPLINESEGS
 70
     8
  9
$HANDSEED
  5
1170
  9
$SURFTAB1
 70
     6
  9
$SURFTAB2
 70
     6
  9
$SURFTYPE
 70
     6
  9
$SURFU
 70
     6
  9
$SURFV
 70
     6
  9
$UCSBASE
  2

  9
$UCSNAME
  2

  9
$UCSORG
 10
0.0
 20
0.0
 30
0.0
  9
$UCSXDIR
 10
1.0
 20
0.0
 30
0.0
  9
$UCSYDIR
 10
0.0
 20
1.0
 30
0.0
  9
$UCSORTHOREF
  2

  9
$UCSORTHOVIEW
 70
     0
  9
$UCSORGTOP
 10
0.0
 20
0.0
 30
0.0
  9
$UCSORGBOTTOM
 10
0.0
 20
0.0
 30
0.0
  9
$UCSORGLEFT
 10
0.0
 20
0.0
 30
0.0
  9
$UCSORGRIGHT
 10
0.0
 20
0.0
 30
0.0
  9
$UCSORGFRONT
 10
0.0
 20
0.0
 30
0.0
  9
$UCSORGBACK
 10
0.0
 20
0.0
 30
0.0
  9
$PUCSBASE
  2

  9
$PUCSNAME
  2

  9
$PUCSORG
 10
0.0
 20
0.0
 30
0.0
  9
$PUCSXDIR
 10
1.0
 20
0.0
 30
0.0
  9
$PUCSYDIR
 10
0.0
 20
1.0
 30
0.0
  9
$PUCSORTHOREF
  2

  9
$PUCSORTHOVIEW
 70
     0
  9
$PUCSORGTOP
 10
0.0
 20
0.0
 30
0.0
  9
$PUCSORGBOTTOM
 10
0.0
 20
0.0
 30
0.0
  9
$PUCSORGLEFT
 10
0.0
 20
0.0
 30
0.0
  9
$PUCSORGRIGHT
 10
0.0
 20
0.0
 30
0.0
  9
$PUCSORGFRONT
 10
0.0
 20
0.0
 30
0.0
  9
$PUCSORGBACK
 10
0.0
 20
0.0
 30
0.0
  9
$USERI1
 70
     0
  9
$USERI2
 70
     0
  9
$USERI3
 70
     0
  9
$USERI4
 70
     0
  9
$USERI5
 70
     0
  9
$USERR1
 40
0.0
  9
$USERR2
 40
0.0
  9
$USERR3
 40
0.0
  9
$USERR4
 40
0.0
  9
$USERR5
 40
0.0
  9
$WORLDVIEW
 70
     1
  9
$SHADEDGE
 70
     3
  9
$SHADEDIF
 70
    70
  9
$TILEMODE
 70
     1
  9
$MAXACTVP
 70
    64
  9
$PINSBASE
 10
0.0
 20
0.0
 30
0.0
  9
$PLIMCHECK
 70
     0
  9
$PEXTMIN
 10
1.000000000000000E+20
 20
1.000000000000000E+20
 30
1.000000000000000E+20
  9
$PEXTMAX
 10
-1.000000000000000E+20
 20
-1.000000000000000E+20
 30
-1.000000000000000E+20
  9
$PLIMMIN
 10
0.0
 20
0.0
  9
$PLIMMAX
 10
12.0
 20
9.0
  9
$UNITMODE
 70
     0
  9
$VISRETAIN
 70
     1
  9
$PLINEGEN
 70
     0
  9
$PSLTSCALE
 70
     1
  9
$TREEDEPTH
 70
  3020
  9
$CMLSTYLE
  2
STANDARD
  9
$CMLJUST
 70
     0
  9
$CMLSCALE
 40
1.0
  9
$PROXYGRAPHICS
 70
     1
  9
$MEASUREMENT
 70
     1
  9
$CELWEIGHT
370
    -1
  9
$ENDCAPS
280
     0
  9
$JOINSTYLE
280
     0
  9
$LWDISPLAY
290
     0
  9
$INSUNITS
 70
     0
  9
$HYPERLINKBASE
  1

  9
$STYLESHEET
  1

  9
$XEDIT
290
     1
  9
$CEPSNTYPE
380
     0
  9
$PSTYLEMODE
290
     1
  9
$FINGERPRINTGUID
  2
{0B70E172-C80D-4686-A428-2771ACD31D43}
  9
$VERSIONGUID
  2
{8FD82BB4-8E0E-4F88-BC1D-D1B3BBB04317}
  9
$EXTNAMES
290
     1
  9
$PSVPSCALE
 40
0.0
  9
$OLESTARTUP
290
     0
  0
ENDSEC
  0
SECTION
  2
CLASSES
  0
CLASS
  1
ACDBDICTIONARYWDFLT
  2
AcDbDictionaryWithDefault
  3
AutoCAD 2000
 90
        0
280
     0
281
     0
  0
CLASS
  1
ACDBPLACEHOLDER
  2
AcDbPlaceHolder
  3
AutoCAD 2000
 90
        0
280
     0
281
     0
  0
CLASS
  1
LAYOUT
  2
AcDbLayout
  3
AutoCAD 2000
 90
        0
280
     0
281
     0
  0
ENDSEC
  0
SECTION
  2
TABLES
  0
TABLE
  2
VPORT
  5
8
330
0
100
AcDbSymbolTable
 70
     3
  0
VPORT
  5
116F
330
8
100
AcDbSymbolTableRecord
100
AcDbViewportTableRecord
  2
*Active
 70
     0
 10
0.0
 20
0.0
 11
1.0
 21
1.0
 12
21.74518390227905
 22
-1.880144321281022
 13
0.0
 23
0.0
 14
1.0
 24
1.0
 15
0.0
 25
0.0
 16
0.0
 26
0.0
 36
1.0
 17
0.0
 27
0.0
 37
0.0
 40
131.0972120688532
 41
1.539682539682539
 42
50.0
 43
0.0
 44
0.0
 50
0.0
 51
0.0
 71
     0
 72
   100
 73
     1
 74
     1
 75
     0
 76
     0
 77
     0
 78
     0
281
     0
 65
     1
110
0.0
120
0.0
130
0.0
111
1.0
121
0.0
131
0.0
112
0.0
122
1.0
132
0.0
 79
     0
146
0.0
  0
ENDTAB
  0
TABLE
  2
LTYPE
  5
5
330
0
100
AcDbSymbolTable
 70
     3
  0
LTYPE
  5
14
330
5
100
AcDbSymbolTableRecord
100
AcDbLinetypeTableRecord
  2
BYBLOCK
 70
     0
  3

 72
    65
 73
     0
 40
0.0
  0
LTYPE
  5
15
330
5
100
AcDbSymbolTableRecord
100
AcDbLinetypeTableRecord
  2
BYLAYER
 70
     0
  3

 72
    65
 73
     0
 40
0.0
  0
LTYPE
  5
16
330
5
100
AcDbSymbolTableRecord
100
AcDbLinetypeTableRecord
  2
CONTINUOUS
 70
     0
  3
Solid line
 72
    65
 73
     0
 40
0.0
  0
LTYPE
  5
1F5
330
5
100
AcDbSymbolTableRecord
100
AcDbLinetypeTableRecord
  2
CENTER
 70
     0
  3
____ _ ____ _ ____ _ ____ _ ____ _ ____ _ ____
 72
    65
 73
     4
 40
0.6
 49
0.375
 74
     0
 49
-0.075
 74
     0
 49
0.075
 74
     0
 49
-0.075
 74
     0
  0
LTYPE
  5
1F6
330
5
100
AcDbSymbolTableRecord
100
AcDbLinetypeTableRecord
  2
HIDDEN
 70
     0
  3
- - - - - - - - - - - - - - - - - - - -
 72
    65
 73
     2
 40
0.2
 49
0.1
 74
     0
 49
-0.1
 74
     0
  0
ENDTAB
  0
TABLE
  2
LAYER
  5
2
330
0
100
AcDbSymbolTable
 70
     9
  0
LAYER
  5
10
330
2
100
AcDbSymbolTableRecord
100
AcDbLayerTableRecord
  2
0
 70
     0
 62
     7
  6
CONTINUOUS
370
    -3
390
9B7
  0
LAYER
  5
A34
330
2
100
AcDbSymbolTableRecord
100
AcDbLayerTableRecord
  2
Defpoints
 70
     0
 62
     7
  6
CONTINUOUS
290
     0
370
    -3
390
9B7
  0
LAYER
  5
A35
330
2
100
AcDbSymbolTableRecord
100
AcDbLayerTableRecord
  2
1
 70
     0
 62
     4
  6
CONTINUOUS
370
    -3
390
9B7
  0
LAYER
  5
A36
330
2
100
AcDbSymbolTableRecord
100
AcDbLayerTableRecord
  2
4
 70
     0
 62
     2
  6
CENTER
370
    -3
390
9B7
  0
LAYER
  5
A37
330
2
100
AcDbSymbolTableRecord
100
AcDbLayerTableRecord
  2
6
 70
     0
 62
     5
  6
CONTINUOUS
370
    -3
390
9B7
  0
LAYER
  5
A38
330
2
100
AcDbSymbolTableRecord
100
AcDbLayerTableRecord
  2
NOCUT
 70
     0
 62
     7
  6
CONTINUOUS
370
    -3
390
9B7
  0
LAYER
  5
A39
330
2
100
AcDbSymbolTableRecord
100
AcDbLayerTableRecord
  2
2
 70
     0
 62
     7
  6
CONTINUOUS
370
    -3
390
9B7
  0
LAYER
  5
A3A
330
2
100
AcDbSymbolTableRecord
100
AcDbLayerTableRecord
  2
SK2
 70
     0
 62
     7
  6
CONTINUOUS
370
    -3
390
9B7
  0
LAYER
  5
A3B
330
2
100
AcDbSymbolTableRecord
100
AcDbLayerTableRecord
  2
SK3
 70
     0
 62
     1
  6
HIDDEN
370
    -3
390
9B7
  0
ENDTAB
  0
TABLE
  2
STYLE
  5
3
330
0
100
AcDbSymbolTable
 70
     2
  0
STYLE
  5
11
330
3
100
AcDbSymbolTableRecord
100
AcDbTextStyleTableRecord
  2
STANDARD
 70
     0
 40
0.0
 41
0.8
 50
0.0
 71
     0
 42
0.2
  3
txt
  4

  0
STYLE
  5
A3C
330
3
100
AcDbSymbolTableRecord
100
AcDbTextStyleTableRecord
  2
isocp
 70
     0
 40
0.0
 41
0.8
 50
0.0
 71
     0
 42
0.2
  3
isocp.shx
  4

  0
ENDTAB
  0
TABLE
  2
VIEW
  5
6
330
0
100
AcDbSymbolTable
 70
     0
  0
ENDTAB
  0
TABLE
  2
UCS
  5
7
330
0
100
AcDbSymbolTable
 70
     0
  0
ENDTAB
  0
TABLE
  2
APPID
  5
9
330
0
100
AcDbSymbolTable
 70
     1
  0
APPID
  5
215
330
9
100
AcDbSymbolTableRecord
100
AcDbRegAppTableRecord
  2
ACAD
 70
     0
  0
ENDTAB
  0
TABLE
  2
DIMSTYLE
  5
A
330
0
100
AcDbSymbolTable
 70
     2
100
AcDbDimStyleTable
 71
     1
340
A3D
  0
DIMSTYLE
105
220
330
A
100
AcDbSymbolTableRecord
100
AcDbDimStyleTableRecord
  2
STANDARD
 70
     0
 41
2.5
 47
0.01
 48
0.01
 71
     1
 73
     0
 74
     0
 77
     1
 78
     8
140
3.5
178
     5
271
     3
272
     3
284
     8
340
11
341
216
342
216
343
216
344
216
  0
DIMSTYLE
105
A3D
102
{ACAD_REACTORS
330
F74
330
FEB
330
FEC
330
FED
330
FEE
330
1019
330
1029
330
1072
102
}
330
A
100
AcDbSymbolTableRecord
100
AcDbDimStyleTableRecord
  2
ISO-25
 70
     0
 41
3.5
 42
0.625
 43
3.75
 44
2.0
 73
     0
 74
     0
 77
     1
 78
     8
140
3.5
141
2.5
143
0.03937007874016
147
0.625
171
     3
172
     1
176
   256
177
   256
178
   256
271
     1
272
     1
274
     3
283
     0
284
     8
289
     0
340
A3C
  0
ENDTAB
  0
TABLE
  2
BLOCK_RECORD
  5
1
330
0
100
AcDbSymbolTable
 70
    11
  0
BLOCK_RECORD
  5
1F
330
1
100
AcDbSymbolTableRecord
100
AcDbBlockTableRecord
  2
*MODEL_SPACE
340
9BA
  0
BLOCK_RECORD
  5
1B
330
1
100
AcDbSymbolTableRecord
100
AcDbBlockTableRecord
  2
*PAPER_SPACE
340
9BB
  0
BLOCK_RECORD
  5
216
330
1
100
AcDbSymbolTableRecord
100
AcDbBlockTableRecord
  2
_ARROW_FILLED
340
0
102
{BLKREFS
331
676
331
677
331
681
331
682
331
68B
331
68C
331
695
331
696
331
69E
331
69F
331
6A9
331
6AA
331
6B3
331
6B4
331
6BC
331
6BD
102
}
  0
BLOCK_RECORD
  5
9BF
330
1
100
AcDbSymbolTableRecord
100
AcDbBlockTableRecord
  2
nullpunkt_1
340
0
310
2800000020000000200000000100080000000000000400000000000000000000000000000000000000000000000080000080000000808000800000008000800080800000C0C0C000C0DCC000F0CAA6000020400000206000002080000020A0000020C0000020E00000400000004020000040400000406000004080000040A0
310
000040C0000040E00000600000006020000060400000606000006080000060A0000060C0000060E00000800000008020000080400000806000008080000080A0000080C0000080E00000A0000000A0200000A0400000A0600000A0800000A0A00000A0C00000A0E00000C0000000C0200000C0400000C0600000C0800000C0
310
A00000C0C00000C0E00000E0000000E0200000E0400000E0600000E0800000E0A00000E0C00000E0E00040000000400020004000400040006000400080004000A0004000C0004000E00040200000402020004020400040206000402080004020A0004020C0004020E000404000004040200040404000404060004040800040
310
40A0004040C0004040E00040600000406020004060400040606000406080004060A0004060C0004060E00040800000408020004080400040806000408080004080A0004080C0004080E00040A0000040A0200040A0400040A0600040A0800040A0A00040A0C00040A0E00040C0000040C0200040C0400040C0600040C08000
310
40C0A00040C0C00040C0E00040E0000040E0200040E0400040E0600040E0800040E0A00040E0C00040E0E00080000000800020008000400080006000800080008000A0008000C0008000E00080200000802020008020400080206000802080008020A0008020C0008020E00080400000804020008040400080406000804080
310
008040A0008040C0008040E00080600000806020008060400080606000806080008060A0008060C0008060E00080800000808020008080400080806000808080008080A0008080C0008080E00080A0000080A0200080A0400080A0600080A0800080A0A00080A0C00080A0E00080C0000080C0200080C0400080C0600080C0
310
800080C0A00080C0C00080C0E00080E0000080E0200080E0400080E0600080E0800080E0A00080E0C00080E0E000C0000000C0002000C0004000C0006000C0008000C000A000C000C000C000E000C0200000C0202000C0204000C0206000C0208000C020A000C020C000C020E000C0400000C0402000C0404000C0406000C0
310
408000C040A000C040C000C040E000C0600000C0602000C0604000C0606000C0608000C060A000C060C000C060E000C0800000C0802000C0804000C0806000C0808000C080A000C080C000C080E000C0A00000C0A02000C0A04000C0A06000C0A08000C0A0A000C0A0C000C0A0E000C0C00000C0C02000C0C04000C0C06000
310
C0C08000C0C0A000F0FBFF00A4A0A000808080000000FF0000FF000000FFFF00FF000000FF00FF00FFFF0000FFFFFF0000000000000000000000000000000000000000000000000000000000000000000000000000000000000000000000FEFE0000000000000000000000000000000000000000000000000000FEFEFEFEFE
310
FEFEFE00000000000000000000000000000000000000000000FEFEFEFEFEFE00FE0000FEFE00000000000000000000000000000000000000FEFEFEFE00FE0000FE00000000FEFE00000000000000000000000000000000FEFEFE0000FE000000FE000000000000FEFE00000000000000000000000000FEFE000000FE000000
310
00FE0000000000000000FEFE00000000000000000000FEFE000000FE0000000000FE00000000000000000000FE0000000000000000FEFEFE0000FE000000000000FE00000000000000000000FE0000000000000000FEFE0000FE00000000000000FE0000000000000000000000FE000000000000FEFEFE00FE000000000000
310
0000FE0000000000000000000000FE000000000000FEFE00FE000000000000000000FE000000000000000000000000FE0000000000FEFEFE00000000000000000000FE000000000000000000000000FE0000000000FEFE0000000000000000000000FE00000000000000000000000000FE000000FEFE000000000000000000
310
000000FE00000000000000000000000000FE000000FEFEFEFEFEFEFEFEFEFEFEFEFEFEFEFEFEFEFEFEFEFEFEFEFEFEFEFEFEFE000000FE000000000000000000000000FE00000000000000000000000000FEFE000000FE000000000000000000000000FE000000000000000000000000FEFEFE00000000FE00000000000000
310
00000000FE0000000000000000000000FE00FE0000000000FE0000000000000000000000FE00000000000000000000FE00FEFE000000000000FE00000000000000000000FE000000000000000000FE0000FEFE000000000000FE00000000000000000000FE0000000000000000FE0000FEFEFE00000000000000FE00000000
310
0000000000FE00000000000000FE000000FEFE0000000000000000FE000000000000000000FE000000000000FE000000FEFEFE000000000000000000FE0000000000000000FE0000000000FE00000000FEFE00000000000000000000FE0000000000000000FE00000000FE00000000FEFE000000000000000000000000FEFE
310
000000000000FE000000FE000000FEFEFE000000000000000000000000000000FEFE00000000FE0000FE0000FEFEFEFE000000000000000000000000000000000000FEFE0000FE00FE00FEFEFEFEFE000000000000000000000000000000000000000000FEFEFEFEFEFEFEFEFE000000000000000000000000000000000000
310
00000000000000FEFEFE00000000000000000000000000000000000000000000000000000000000000000000000000000000000000000000
102
{BLKREFS
331
B3B
331
C3C
331
DCE
331
E9C
331
FB9
102
}
  0
BLOCK_RECORD
  5
9C8
330
1
100
AcDbSymbolTableRecord
100
AcDbBlockTableRecord
  2
nullpunkt_2
340
0
310
2800000020000000200000000100080000000000000400000000000000000000000000000000000000000000000080000080000000808000800000008000800080800000C0C0C000C0DCC000F0CAA6000020400000206000002080000020A0000020C0000020E00000400000004020000040400000406000004080000040A0
310
000040C0000040E00000600000006020000060400000606000006080000060A0000060C0000060E00000800000008020000080400000806000008080000080A0000080C0000080E00000A0000000A0200000A0400000A0600000A0800000A0A00000A0C00000A0E00000C0000000C0200000C0400000C0600000C0800000C0
310
A00000C0C00000C0E00000E0000000E0200000E0400000E0600000E0800000E0A00000E0C00000E0E00040000000400020004000400040006000400080004000A0004000C0004000E00040200000402020004020400040206000402080004020A0004020C0004020E000404000004040200040404000404060004040800040
310
40A0004040C0004040E00040600000406020004060400040606000406080004060A0004060C0004060E00040800000408020004080400040806000408080004080A0004080C0004080E00040A0000040A0200040A0400040A0600040A0800040A0A00040A0C00040A0E00040C0000040C0200040C0400040C0600040C08000
310
40C0A00040C0C00040C0E00040E0000040E0200040E0400040E0600040E0800040E0A00040E0C00040E0E00080000000800020008000400080006000800080008000A0008000C0008000E00080200000802020008020400080206000802080008020A0008020C0008020E00080400000804020008040400080406000804080
310
008040A0008040C0008040E00080600000806020008060400080606000806080008060A0008060C0008060E00080800000808020008080400080806000808080008080A0008080C0008080E00080A0000080A0200080A0400080A0600080A0800080A0A00080A0C00080A0E00080C0000080C0200080C0400080C0600080C0
310
800080C0A00080C0C00080C0E00080E0000080E0200080E0400080E0600080E0800080E0A00080E0C00080E0E000C0000000C0002000C0004000C0006000C0008000C000A000C000C000C000E000C0200000C0202000C0204000C0206000C0208000C020A000C020C000C020E000C0400000C0402000C0404000C0406000C0
310
408000C040A000C040C000C040E000C0600000C0602000C0604000C0606000C0608000C060A000C060C000C060E000C0800000C0802000C0804000C0806000C0808000C080A000C080C000C080E000C0A00000C0A02000C0A04000C0A06000C0A08000C0A0A000C0A0C000C0A0E000C0C00000C0C02000C0C04000C0C06000
310
C0C08000C0C0A000F0FBFF00A4A0A000808080000000FF0000FF000000FFFF00FF000000FF00FF00FFFF0000FFFFFF0000000000000000000000000000000000000000000000000000000000000000000000000000000000000000000000FEFE0000000000000000000000000000000000000000000000000000FEFEFEFEFE
310
FEFEFE00000000000000000000000000000000000000000000FEFEFEFEFEFE00FE0000FEFE00000000000000000000000000000000000000FEFEFEFE00FE0000FE00000000FEFE00000000000000000000000000000000FEFEFE0000FE000000FE000000000000FEFE00000000000000000000000000FEFE000000FE000000
310
00FE0000000000000000FEFE00000000000000000000FEFE000000FE0000000000FE00000000000000000000FE0000000000000000FEFEFE0000FE000000000000FE00000000000000000000FE0000000000000000FEFE0000FE00000000000000FE0000000000000000000000FE000000000000FEFEFE00FE000000000000
310
0000FE0000000000000000000000FE000000000000FEFE00FE000000000000000000FE000000000000000000000000FE0000000000FEFEFE00000000000000000000FE000000000000000000000000FE0000000000FEFE0000000000000000000000FE00000000000000000000000000FE000000FEFE000000000000000000
310
000000FE00000000000000000000000000FE000000FEFEFEFEFEFEFEFEFEFEFEFEFEFEFEFEFEFEFEFEFEFEFEFEFEFEFEFEFEFE000000FE000000000000000000000000FE00000000000000000000000000FEFE000000FE000000000000000000000000FE000000000000000000000000FEFEFE00000000FE00000000000000
310
00000000FE0000000000000000000000FE00FE0000000000FE0000000000000000000000FE00000000000000000000FE00FEFE000000000000FE00000000000000000000FE000000000000000000FE0000FEFE000000000000FE00000000000000000000FE0000000000000000FE0000FEFEFE00000000000000FE00000000
310
0000000000FE00000000000000FE000000FEFE0000000000000000FE000000000000000000FE000000000000FE000000FEFEFE000000000000000000FE0000000000000000FE0000000000FE00000000FEFE00000000000000000000FE0000000000000000FE00000000FE00000000FEFE000000000000000000000000FEFE
310
000000000000FE000000FE000000FEFEFE000000000000000000000000000000FEFE00000000FE0000FE0000FEFEFEFE000000000000000000000000000000000000FEFE0000FE00FE00FEFEFEFEFE000000000000000000000000000000000000000000FEFEFEFEFEFEFEFEFE000000000000000000000000000000000000
310
00000000000000FEFEFE00000000000000000000000000000000000000000000000000000000000000000000000000000000000000000000
102
{BLKREFS
331
A52
331
B53
331
DD1
331
EF4
331
1011
102
}
  0
BLOCK_RECORD
  5
1073
330
1
100
AcDbSymbolTableRecord
100
AcDbBlockTableRecord
  2
*D3
340
0
  0
BLOCK_RECORD
  5
107F
330
1
100
AcDbSymbolTableRecord
100
AcDbBlockTableRecord
  2
*D4
340
0
  0
BLOCK_RECORD
  5
108D
330
1
100
AcDbSymbolTableRecord
100
AcDbBlockTableRecord
  2
*D5
340
0
  0
BLOCK_RECORD
  5
1099
330
1
100
AcDbSymbolTableRecord
100
AcDbBlockTableRecord
  2
*D6
340
0
  0
BLOCK_RECORD
  5
10A5
330
1
100
AcDbSymbolTableRecord
100
AcDbBlockTableRecord
  2
*D7
340
0
  0
BLOCK_RECORD
  5
10B1
330
1
100
AcDbSymbolTableRecord
100
AcDbBlockTableRecord
  2
*D8
340
0
  0
BLOCK_RECORD
  5
10BD
330
1
100
AcDbSymbolTableRecord
100
AcDbBlockTableRecord
  2
*D9
340
0
  0
BLOCK_RECORD
  5
10CB
330
1
100
AcDbSymbolTableRecord
100
AcDbBlockTableRecord
  2
*D10
340
0
  0
ENDTAB
  0
ENDSEC
  0
SECTION
  2
BLOCKS
  0
BLOCK
  5
20
330
1F
100
AcDbEntity
  8
0
100
AcDbBlockBegin
  2
*MODEL_SPACE
 70
     0
 10
0.0
 20
0.0
 30
0.0
  3
*MODEL_SPACE
  1

  0
ENDBLK
  5
21
330
1F
100
AcDbEntity
  8
0
100
AcDbBlockEnd
  0
BLOCK
  5
1C
330
1B
100
AcDbEntity
 67
     1
  8
0
100
AcDbBlockBegin
  2
*PAPER_SPACE
 70
     0
 10
0.0
 20
0.0
 30
0.0
  3
*PAPER_SPACE
  1

  0
ENDBLK
  5
1D
330
1B
100
AcDbEntity
 67
     1
  8
0
100
AcDbBlockEnd
  0
BLOCK
  5
6BF
330
216
100
AcDbEntity
  8
0
100
AcDbBlockBegin
  2
_ARROW_FILLED
 70
     0
 10
0.0
 20
0.0
 30
0.0
  3
_ARROW_FILLED
  1

  0
SOLID
  5
6C0
330
216
100
AcDbEntity
  8
0
  6
ByBlock
 62
     0
100
AcDbTrace
 10
0.0
 20
0.0
 30
0.0
 11
-1.0
 21
0.132
 31
0.0
 12
-1.0
 22
-0.132
 32
0.0
 13
-1.0
 23
-0.132
 33
0.0
  0
ENDBLK
  5
6C1
330
216
100
AcDbEntity
  8
0
  6
ByBlock
 62
     0
100
AcDbBlockEnd
  0
BLOCK
  5
9C6
330
9BF
100
AcDbEntity
  8
0
100
AcDbBlockBegin
  2
nullpunkt_1
 70
     0
 10
0.0
 20
0.0
 30
0.0
  3
nullpunkt_1
  1

  0
LWPOLYLINE
  5
9C0
102
{ACAD_REACTORS
330
9C1
102
}
330
9BF
100
AcDbEntity
  8
1
100
AcDbPolyline
 90
        3
 70
     1
 43
0.0
 10
0.0
 20
2.950972054112752
 10
0.0
 20
0.0
 10
2.950972054112638
 20
0.0
 42
0.4142135623730966
  0
HATCH
  5
9C1
330
9BF
100
AcDbEntity
  8
1
100
AcDbHatch
 10
0.0
 20
0.0
 30
0.0
210
0.0
220
0.0
230
1.0
  2
SOLID
 70
     1
 71
     1
 91
        2
 92
        7
 72
     1
 73
     1
 93
        3
 10
0.0
 20
0.0
 42
0.0
 10
2.950972054112638
 20
0.0
 42
0.4142135623730968
 10
0.0
 20
2.950972054112752
 42
0.0
 97
        1
330
9C0
 92
        7
 72
     1
 73
     1
 93
        3
 10
0.0
 20
-2.950972054112412
 42
0.0
 10
0.0
 20
0.0
 42
0.0
 10
-2.950972054112583
 20
0.0
 42
0.4142135623730966
 97
        1
330
9C3
 75
     0
 76
     1
 47
0.1190009775223266
 98
        2
 10
0.7445530588119596
 20
0.9212244733765826
 10
-1.27946460185285
 20
-1.696796923046235
  0
CIRCLE
  5
9C2
330
9BF
100
AcDbEntity
  8
1
100
AcDbCircle
 10
0.0
 20
0.0
 30
0.0
 40
2.950972054112601
  0
LWPOLYLINE
  5
9C3
102
{ACAD_REACTORS
330
9C1
102
}
330
9BF
100
AcDbEntity
  8
1
100
AcDbPolyline
 90
        3
 70
     1
 43
0.0
 10
0.0
 20
0.0
 10
-2.950972054112583
 20
0.0
 42
0.4142135623730966
 10
0.0
 20
-2.950972054112412
  0
LINE
  5
9C4
330
9BF
100
AcDbEntity
  8
1
100
AcDbLine
 10
-2.950972054112752
 20
0.0
 30
0.0
 11
2.950972054112583
 21
0.0
 31
0.0
  0
LINE
  5
9C5
330
9BF
100
AcDbEntity
  8
1
100
AcDbLine
 10
0.0
 20
2.950972054112752
 30
0.0
 11
0.0
 21
-2.950972054112412
 31
0.0
  0
ENDBLK
  5
9C7
330
9BF
100
AcDbEntity
  8
0
100
AcDbBlockEnd
  0
BLOCK
  5
9CE
330
9C8
100
AcDbEntity
  8
0
100
AcDbBlockBegin
  2
nullpunkt_2
 70
     0
 10
0.0
 20
0.0
 30
0.0
  3
nullpunkt_2
  1

  0
CIRCLE
  5
9C9
330
9C8
100
AcDbEntity
  8
1
100
AcDbCircle
 10
0.0
 20
0.0
 30
0.0
 40
1.0
  0
HATCH
  5
9CA
330
9C8
100
AcDbEntity
  8
1
100
AcDbHatch
 10
0.0
 20
0.0
 30
0.0
210
0.0
220
0.0
230
1.0
  2
SOLID
 70
     1
 71
     0
 91
        2
 92
        1
 93
        3
 72
     1
 10
0.0
 20
0.0
 11
-1.0
 21
0.0
 72
     2
 10
0.0
 20
0.0
 40
1.0
 50
180.0
 51
270.0
 73
     1
 72
     1
 10
0.0
 20
-0.9999999999998864
 11
0.0
 21
0.0
 97
        0
 92
        1
 93
        3
 72
     1
 10
0.0
 20
1.000000000000113
 11
0.0
 21
0.0
 72
     1
 10
0.0
 20
0.0
 11
1.0
 21
0.0
 72
     2
 10
0.0
 20
0.0
 40
1.0
 50
0.0
 51
90.0
 73
     1
 97
        0
 75
     0
 76
     1
 98
        1
 10
-109.9295341761981
 20
-32.53620011044962
  0
LINE
  5
9CB
330
9C8
100
AcDbEntity
  8
1
100
AcDbLine
 10
-1.0
 20
0.0
 30
0.0
 11
1.0
 21
0.0
 31
0.0
  0
LWPOLYLINE
  5
9CC
330
9C8
100
AcDbEntity
  8
1
100
AcDbPolyline
 90
        3
 70
     1
 43
0.0
 10
0.0
 20
0.0
 10
-1.0
 20
0.0
 42
0.4142135623730951
 10
0.0
 20
-0.9999999999998864
  0
LWPOLYLINE
  5
9CD
330
9C8
100
AcDbEntity
  8
1
100
AcDbPolyline
 90
        3
 70
     1
 43
0.0
 10
0.0
 20
1.000000000000113
 10
0.0
 20
0.0
 10
1.0
 20
0.0
 42
0.4142135623730951
  0
ENDBLK
  5
9CF
330
9C8
100
AcDbEntity
  8
0
100
AcDbBlockEnd
  0
BLOCK
  5
107D
330
1073
100
AcDbEntity
  8
0
100
AcDbBlockBegin
  2
*D3
 70
     1
 10
0.0
 20
0.0
 30
0.0
  3
*D3
  1

  0
LINE
  5
10D7
330
1073
100
AcDbEntity
  8
2
370
    -2
100
AcDbLine
 10
80.5
 20
19.39185432724997
 30
0.0
 11
80.5
 21
61.30503825624998
 31
0.0
  0
LINE
  5
10D8
330
1073
100
AcDbEntity
  8
2
370
    -2
100
AcDbLine
 10
-0.0000000000000284
 20
24.17918941964998
 30
0.0
 11
-0.0000000000000261
 21
61.30503825624998
 31
0.0
  0
LINE
  5
10D9
330
1073
100
AcDbEntity
  8
2
370
    -2
100
AcDbLine
 10
77.0
 20
59.30503825624999
 30
0.0
 11
3.499999999999973
 21
59.30503825624999
 31
0.0
  0
SOLID
  5
10DA
330
1073
100
AcDbEntity
  8
2
100
AcDbTrace
 10
77.0
 20
59.88837158958332
 30
0.0
 11
77.0
 21
58.72170492291665
 31
0.0
 12
80.5
 22
59.30503825624999
 32
0.0
 13
80.5
 23
59.30503825624999
 33
0.0
  0
SOLID
  5
10DB
330
1073
100
AcDbEntity
  8
2
100
AcDbTrace
 10
3.499999999999973
 20
59.88837158958332
 30
0.0
 11
3.499999999999973
 21
58.72170492291665
 31
0.0
 12
-0.0000000000000262
 22
59.30503825624999
 32
0.0
 13
-0.0000000000000262
 23
59.30503825624999
 33
0.0
  0
MTEXT
  5
10DC
330
1073
100
AcDbEntity
  8
2
100
AcDbMText
 10
38.76528132149999
 20
61.68003825625
 30
0.0
 40
3.5
 41
0.0
 71
     5
 72
     1
  1
80.5
  7
isocp
 73
     1
 44
1.0
  0
POINT
  5
10DD
330
1073
100
AcDbEntity
  8
Defpoints
 62
     0
100
AcDbPoint
 10
80.5
 20
18.76685432724997
 30
0.0
  0
POINT
  5
10DE
330
1073
100
AcDbEntity
  8
Defpoints
 62
     0
100
AcDbPoint
 10
-0.0000000000000284
 20
23.55418941964998
 30
0.0
  0
POINT
  5
10DF
330
1073
100
AcDbEntity
  8
Defpoints
 62
     0
100
AcDbPoint
 10
-0.0000000000000262
 20
59.30503825624999
 30
0.0
  0
ENDBLK
  5
107E
330
1073
100
AcDbEntity
  8
0
100
AcDbBlockEnd
  0
BLOCK
  5
108B
330
107F
100
AcDbEntity
  8
0
100
AcDbBlockBegin
  2
*D4
 70
     1
 10
0.0
 20
0.0
 30
0.0
  3
*D4
  1

  0
LINE
  5
1124
330
107F
100
AcDbEntity
  8
SK2
370
    -2
100
AcDbLine
 10
29.49999999999997
 20
-6.875000000050022
 30
0.0
 11
29.49999999999997
 21
-46.13953498264999
 31
0.0
  0
LINE
  5
1125
330
107F
100
AcDbEntity
  8
SK2
370
    -2
100
AcDbLine
 10
39.49999999999996
 20
-12.12500000005002
 30
0.0
 11
39.49999999999996
 21
-46.13953498264999
 31
0.0
  0
LINE
  5
1126
330
107F
100
AcDbEntity
  8
SK2
370
    -2
100
AcDbLine
 10
25.99999999999996
 20
-44.13953498264999
 30
0.0
 11
22.49999999999996
 21
-44.13953498264999
 31
0.0
  0
LINE
  5
1127
330
107F
100
AcDbEntity
  8
SK2
370
    -2
100
AcDbLine
 10
42.99999999999997
 20
-44.13953498264999
 30
0.0
 11
46.49999999999997
 21
-44.13953498264999
 31
0.0
  0
LINE
  5
1128
330
107F
100
AcDbEntity
  8
SK2
370
    -2
100
AcDbLine
 10
29.49999999999997
 20
-44.13953498264999
 30
0.0
 11
39.49999999999996
 21
-44.13953498264999
 31
0.0
  0
SOLID
  5
1129
330
107F
100
AcDbEntity
  8
SK2
100
AcDbTrace
 10
25.99999999999996
 20
-43.55620164931664
 30
0.0
 11
25.99999999999996
 21
-44.72286831598332
 31
0.0
 12
29.49999999999997
 22
-44.13953498264999
 32
0.0
 13
29.49999999999997
 23
-44.13953498264999
 33
0.0
  0
SOLID
  5
112A
330
107F
100
AcDbEntity
  8
SK2
100
AcDbTrace
 10
42.99999999999997
 20
-43.55620164931664
 30
0.0
 11
42.99999999999997
 21
-44.72286831598332
 31
0.0
 12
39.49999999999996
 22
-44.13953498264999
 32
0.0
 13
39.49999999999996
 23
-44.13953498264999
 33
0.0
  0
MTEXT
  5
112B
330
107F
100
AcDbEntity
  8
SK2
100
AcDbMText
 10
34.15644089819997
 20
-41.76453498264999
 30
0.0
 40
3.5
 41
0.0
 71
     5
 72
     1
  1
10
  7
isocp
 73
     1
 44
1.0
  0
POINT
  5
112C
330
107F
100
AcDbEntity
  8
Defpoints
 62
     0
100
AcDbPoint
 10
29.49999999999997
 20
-6.250000000050022
 30
0.0
  0
POINT
  5
112D
330
107F
100
AcDbEntity
  8
Defpoints
 62
     0
100
AcDbPoint
 10
39.49999999999996
 20
-11.50000000005002
 30
0.0
  0
POINT
  5
112E
330
107F
100
AcDbEntity
  8
Defpoints
 62
     0
100
AcDbPoint
 10
39.49999999999996
 20
-44.13953498264999
 30
0.0
  0
ENDBLK
  5
108C
330
107F
100
AcDbEntity
  8
0
100
AcDbBlockEnd
  0
BLOCK
  5
1097
330
108D
100
AcDbEntity
  8
0
100
AcDbBlockBegin
  2
*D5
 70
     1
 10
0.0
 20
0.0
 30
0.0
  3
*D5
  1

  0
LINE
  5
112F
330
108D
100
AcDbEntity
  8
SK2
370
    -2
100
AcDbLine
 10
80.5
 20
-19.70545018445
 30
0.0
 11
80.5
 21
-56.13953498264999
 31
0.0
  0
LINE
  5
1130
330
108D
100
AcDbEntity
  8
SK2
370
    -2
100
AcDbLine
 10
29.49999999999997
 20
-6.875000000050022
 30
0.0
 11
29.49999999999997
 21
-56.13953498264999
 31
0.0
  0
LINE
  5
1131
330
108D
100
AcDbEntity
  8
SK2
370
    -2
100
AcDbLine
 10
77.0
 20
-54.13953498264999
 30
0.0
 11
32.99999999999996
 21
-54.13953498264999
 31
0.0
  0
SOLID
  5
1132
330
108D
100
AcDbEntity
  8
SK2
100
AcDbTrace
 10
77.0
 20
-53.55620164931664
 30
0.0
 11
77.0
 21
-54.72286831598332
 31
0.0
 12
80.5
 22
-54.13953498264999
 32
0.0
 13
80.5
 23
-54.13953498264999
 33
0.0
  0
SOLID
  5
1133
330
108D
100
AcDbEntity
  8
SK2
100
AcDbTrace
 10
32.99999999999996
 20
-53.55620164931664
 30
0.0
 11
32.99999999999996
 21
-54.72286831598332
 31
0.0
 12
29.49999999999997
 22
-54.13953498264999
 32
0.0
 13
29.49999999999997
 23
-54.13953498264999
 33
0.0
  0
MTEXT
  5
1134
330
108D
100
AcDbEntity
  8
SK2
100
AcDbMText
 10
54.1049927933
 20
-51.76453498264999
 30
0.0
 40
3.5
 41
0.0
 71
     5
 72
     1
  1
51
  7
isocp
 73
     1
 44
1.0
  0
POINT
  5
1135
330
108D
100
AcDbEntity
  8
Defpoints
 62
     0
100
AcDbPoint
 10
80.5
 20
-19.08045018445
 30
0.0
  0
POINT
  5
1136
330
108D
100
AcDbEntity
  8
Defpoints
 62
     0
100
AcDbPoint
 10
29.49999999999997
 20
-6.250000000050022
 30
0.0
  0
POINT
  5
1137
330
108D
100
AcDbEntity
  8
Defpoints
 62
     0
100
AcDbPoint
 10
29.49999999999997
 20
-54.13953498264999
 30
0.0
  0
ENDBLK
  5
1098
330
108D
100
AcDbEntity
  8
0
100
AcDbBlockEnd
  0
BLOCK
  5
10A3
330
1099
100
AcDbEntity
  8
0
100
AcDbBlockBegin
  2
*D6
 70
     1
 10
0.0
 20
0.0
 30
0.0
  3
*D6
  1

  0
LINE
  5
1138
330
1099
100
AcDbEntity
  8
SK2
370
    -2
100
AcDbLine
 10
70.28243636079998
 20
-21.00000000005001
 30
0.0
 11
104.8750307683
 21
-21.00000000005003
 31
0.0
  0
LINE
  5
1139
330
1099
100
AcDbEntity
  8
SK2
370
    -2
100
AcDbLine
 10
70.28243636079998
 20
20.99999999994996
 30
0.0
 11
104.8750307683
 21
20.99999999994996
 31
0.0
  0
LINE
  5
113A
330
1099
100
AcDbEntity
  8
SK2
370
    -2
100
AcDbLine
 10
102.8750307683
 20
-17.50000000005003
 30
0.0
 11
102.8750307683
 21
17.49999999994996
 31
0.0
  0
SOLID
  5
113B
330
1099
100
AcDbEntity
  8
SK2
100
AcDbTrace
 10
102.2916974349665
 20
-17.50000000005003
 30
0.0
 11
103.4583641016333
 21
-17.50000000005003
 31
0.0
 12
102.8750307683
 22
-21.00000000005003
 32
0.0
 13
102.8750307683
 23
-21.00000000005003
 33
0.0
  0
SOLID
  5
113C
330
1099
100
AcDbEntity
  8
SK2
100
AcDbTrace
 10
102.2916974349665
 20
17.49999999994996
 30
0.0
 11
103.4583641016333
 21
17.49999999994996
 31
0.0
 12
102.8750307683
 22
20.99999999994996
 32
0.0
 13
102.8750307683
 23
20.99999999994996
 33
0.0
  0
MTEXT
  5
113D
330
1099
100
AcDbEntity
  8
SK2
100
AcDbMText
 10
100.499686280111
 20
0.6079831878499821
 30
0.0
 40
3.5
 41
0.0
 71
     5
 72
     1
  1
%%c42
  7
isocp
 11
0.0000000000000001
 21
1.0
 31
0.0
 73
     1
 44
1.0
  0
POINT
  5
113E
330
1099
100
AcDbEntity
  8
Defpoints
 62
     0
100
AcDbPoint
 10
69.65743636079998
 20
-21.00000000005001
 30
0.0
  0
POINT
  5
113F
330
1099
100
AcDbEntity
  8
Defpoints
 62
     0
100
AcDbPoint
 10
69.65743636079998
 20
20.99999999994996
 30
0.0
  0
POINT
  5
1140
330
1099
100
AcDbEntity
  8
Defpoints
 62
     0
100
AcDbPoint
 10
102.8750307683
 20
20.99999999994996
 30
0.0
  0
ENDBLK
  5
10A4
330
1099
100
AcDbEntity
  8
0
100
AcDbBlockEnd
  0
BLOCK
  5
10AF
330
10A5
100
AcDbEntity
  8
0
100
AcDbBlockBegin
  2
*D7
 70
     1
 10
0.0
 20
0.0
 30
0.0
  3
*D7
  1

  0
LINE
  5
1141
330
10A5
100
AcDbEntity
  8
SK2
370
    -2
100
AcDbLine
 10
44.98640712959999
 20
-24.75000000005001
 30
0.0
 11
114.8750307682999
 21
-24.75000000005004
 31
0.0
  0
LINE
  5
1142
330
10A5
100
AcDbEntity
  8
SK2
370
    -2
100
AcDbLine
 10
44.98640712959999
 20
24.74999999994997
 30
0.0
 11
114.8750307682999
 21
24.74999999994996
 31
0.0
  0
LINE
  5
1143
330
10A5
100
AcDbEntity
  8
SK2
370
    -2
100
AcDbLine
 10
112.8750307682999
 20
-21.25000000005003
 30
0.0
 11
112.8750307682999
 21
21.24999999994996
 31
0.0
  0
SOLID
  5
1144
330
10A5
100
AcDbEntity
  8
SK2
100
AcDbTrace
 10
112.2916974349666
 20
-21.25000000005003
 30
0.0
 11
113.4583641016333
 21
-21.25000000005003
 31
0.0
 12
112.8750307682999
 22
-24.75000000005004
 32
0.0
 13
112.8750307682999
 23
-24.75000000005004
 33
0.0
  0
SOLID
  5
1145
330
10A5
100
AcDbEntity
  8
SK2
100
AcDbTrace
 10
112.2916974349666
 20
21.24999999994996
 30
0.0
 11
113.4583641016333
 21
21.24999999994996
 31
0.0
 12
112.8750307682999
 22
24.74999999994996
 32
0.0
 13
112.8750307682999
 23
24.74999999994996
 33
0.0
  0
MTEXT
  5
1146
330
10A5
100
AcDbEntity
  8
SK2
100
AcDbMText
 10
110.5000307682999
 20
0.0957007801499972
 30
0.0
 40
3.5
 41
0.0
 71
     5
 72
     1
  1
%%c49.5
  7
isocp
 11
0.0000000000000001
 21
1.0
 31
0.0
 73
     1
 44
1.0
  0
POINT
  5
1147
330
10A5
100
AcDbEntity
  8
Defpoints
 62
     0
100
AcDbPoint
 10
44.36140712959999
 20
-24.75000000005001
 30
0.0
  0
POINT
  5
1148
330
10A5
100
AcDbEntity
  8
Defpoints
 62
     0
100
AcDbPoint
 10
44.36140712959999
 20
24.74999999994997
 30
0.0
  0
POINT
  5
1149
330
10A5
100
AcDbEntity
  8
Defpoints
 62
     0
100
AcDbPoint
 10
112.8750307682999
 20
24.74999999994996
 30
0.0
  0
ENDBLK
  5
10B0
330
10A5
100
AcDbEntity
  8
0
100
AcDbBlockEnd
  0
BLOCK
  5
10BB
330
10B1
100
AcDbEntity
  8
0
100
AcDbBlockBegin
  2
*D8
 70
     1
 10
0.0
 20
0.0
 30
0.0
  3
*D8
  1

  0
LINE
  5
114A
330
10B1
100
AcDbEntity
  8
SK2
370
    -2
100
AcDbLine
 10
80.5
 20
22.12499999994997
 30
0.0
 11
80.5
 21
51.30503825624998
 31
0.0
  0
LINE
  5
114B
330
10B1
100
AcDbEntity
  8
SK2
370
    -2
100
AcDbLine
 10
46.49999999999997
 20
22.12499999994997
 30
0.0
 11
46.49999999999997
 21
51.30503825624998
 31
0.0
  0
LINE
  5
114C
330
10B1
100
AcDbEntity
  8
SK2
370
    -2
100
AcDbLine
 10
77.0
 20
49.30503825624999
 30
0.0
 11
49.99999999999997
 21
49.30503825624999
 31
0.0
  0
SOLID
  5
114D
330
10B1
100
AcDbEntity
  8
SK2
100
AcDbTrace
 10
77.0
 20
49.88837158958332
 30
0.0
 11
77.0
 21
48.72170492291665
 31
0.0
 12
80.5
 22
49.30503825624999
 32
0.0
 13
80.5
 23
49.30503825624999
 33
0.0
  0
SOLID
  5
114E
330
10B1
100
AcDbEntity
  8
SK2
100
AcDbTrace
 10
49.99999999999997
 20
49.88837158958332
 30
0.0
 11
49.99999999999997
 21
48.72170492291665
 31
0.0
 12
46.49999999999997
 22
49.30503825624999
 32
0.0
 13
46.49999999999997
 23
49.30503825624999
 33
0.0
  0
MTEXT
  5
114F
330
10B1
100
AcDbEntity
  8
SK2
100
AcDbMText
 10
62.93863537369998
 20
51.68003825625
 30
0.0
 40
3.5
 41
0.0
 71
     5
 72
     1
  1
34
  7
isocp
 73
     1
 44
1.0
  0
POINT
  5
1150
330
10B1
100
AcDbEntity
  8
Defpoints
 62
     0
100
AcDbPoint
 10
80.5
 20
21.49999999994997
 30
0.0
  0
POINT
  5
1151
330
10B1
100
AcDbEntity
  8
Defpoints
 62
     0
100
AcDbPoint
 10
46.49999999999997
 20
21.49999999994997
 30
0.0
  0
POINT
  5
1152
330
10B1
100
AcDbEntity
  8
Defpoints
 62
     0
100
AcDbPoint
 10
46.49999999999997
 20
49.30503825624999
 30
0.0
  0
ENDBLK
  5
10BC
330
10B1
100
AcDbEntity
  8
0
100
AcDbBlockEnd
  0
BLOCK
  5
10C9
330
10BD
100
AcDbEntity
  8
0
100
AcDbBlockBegin
  2
*D9
 70
     1
 10
0.0
 20
0.0
 30
0.0
  3
*D9
  1

  0
LINE
  5
1153
330
10BD
100
AcDbEntity
  8
SK2
370
    -2
100
AcDbLine
 10
30.19746347919998
 20
7.999999999949976
 30
0.0
 11
37.99480604261054
 21
7.999999999949975
 31
0.0
  0
LINE
  5
1154
330
10BD
100
AcDbEntity
  8
SK2
370
    -2
100
AcDbLine
 10
30.13471492069996
 20
-8.000000000050022
 30
0.0
 11
37.99480604261054
 21
-8.000000000050022
 31
0.0
  0
LINE
  5
1155
330
10BD
100
AcDbEntity
  8
SK2
370
    -2
100
AcDbLine
 10
35.99480604261055
 20
11.49999999994997
 30
0.0
 11
35.99480604261055
 21
14.99999999994997
 31
0.0
  0
LINE
  5
1156
330
10BD
100
AcDbEntity
  8
SK2
370
    -2
100
AcDbLine
 10
35.99480604261055
 20
-11.50000000005002
 30
0.0
 11
35.99480604261055
 21
-15.00000000005002
 31
0.0
  0
LINE
  5
1157
330
10BD
100
AcDbEntity
  8
SK2
370
    -2
100
AcDbLine
 10
35.99480604261055
 20
7.999999999949976
 30
0.0
 11
35.99480604261055
 21
-8.000000000050022
 31
0.0
  0
SOLID
  5
1158
330
10BD
100
AcDbEntity
  8
SK2
100
AcDbTrace
 10
35.41147270927721
 20
11.49999999994997
 30
0.0
 11
36.57813937594388
 21
11.49999999994997
 31
0.0
 12
35.99480604261055
 22
7.999999999949976
 32
0.0
 13
35.99480604261055
 23
7.999999999949976
 33
0.0
  0
SOLID
  5
1159
330
10BD
100
AcDbEntity
  8
SK2
100
AcDbTrace
 10
35.41147270927721
 20
-11.50000000005002
 30
0.0
 11
36.57813937594388
 21
-11.50000000005002
 31
0.0
 12
35.99480604261055
 22
-8.000000000050022
 32
0.0
 13
35.99480604261055
 23
-8.000000000050022
 33
0.0
  0
MTEXT
  5
115A
330
10BD
100
AcDbEntity
  8
SK2
100
AcDbMText
 10
33.61980604261054
 20
0.4139437792499909
 30
0.0
 40
3.5
 41
0.0
 71
     5
 72
     1
  1
M16x1
  7
isocp
 11
0.0000000000000001
 21
1.0
 31
0.0
 73
     1
 44
1.0
  0
POINT
  5
115B
330
10BD
100
AcDbEntity
  8
Defpoints
 62
     0
100
AcDbPoint
 10
29.57246347919998
 20
7.999999999949977
 30
0.0
  0
POINT
  5
115C
330
10BD
100
AcDbEntity
  8
Defpoints
 62
     0
100
AcDbPoint
 10
29.50971492069996
 20
-8.000000000050022
 30
0.0
  0
POINT
  5
115D
330
10BD
100
AcDbEntity
  8
Defpoints
 62
     0
100
AcDbPoint
 10
35.99480604261055
 20
-8.000000000050022
 30
0.0
  0
ENDBLK
  5
10CA
330
10BD
100
AcDbEntity
  8
0
100
AcDbBlockEnd
  0
BLOCK
  5
10D5
330
10CB
100
AcDbEntity
  8
0
100
AcDbBlockBegin
  2
*D10
 70
     1
 10
0.0
 20
0.0
 30
0.0
  3
*D10
  1

  0
LINE
  5
115E
330
10CB
100
AcDbEntity
  8
SK2
370
    -2
100
AcDbLine
 10
81.62499999999999
 20
-10.00000000005001
 30
0.0
 11
94.8750307683
 21
-10.00000000005001
 31
0.0
  0
LINE
  5
115F
330
10CB
100
AcDbEntity
  8
SK2
370
    -2
100
AcDbLine
 10
81.62499999999999
 20
9.999999999949976
 30
0.0
 11
94.8750307683
 21
9.999999999949974
 31
0.0
  0
LINE
  5
1160
330
10CB
100
AcDbEntity
  8
SK2
370
    -2
100
AcDbLine
 10
92.87503076829999
 20
-6.500000000050023
 30
0.0
 11
92.87503076829999
 21
6.499999999949975
 31
0.0
  0
SOLID
  5
1161
330
10CB
100
AcDbEntity
  8
SK2
100
AcDbTrace
 10
92.29169743496667
 20
-6.500000000050023
 30
0.0
 11
93.45836410163334
 21
-6.500000000050023
 31
0.0
 12
92.87503076829999
 22
-10.00000000005001
 32
0.0
 13
92.87503076829999
 23
-10.00000000005001
 33
0.0
  0
SOLID
  5
1162
330
10CB
100
AcDbEntity
  8
SK2
100
AcDbTrace
 10
92.29169743496667
 20
6.499999999949975
 30
0.0
 11
93.45836410163334
 21
6.499999999949975
 31
0.0
 12
92.87503076829999
 22
9.999999999949974
 32
0.0
 13
92.87503076829999
 23
9.999999999949974
 33
0.0
  0
MTEXT
  5
1163
330
10CB
100
AcDbEntity
  8
SK2
100
AcDbMText
 10
90.49968628011106
 20
0.4365379384499878
 30
0.0
 40
3.5
 41
0.0
 71
     5
 72
     1
  1
%%c20
  7
isocp
 11
0.0000000000000001
 21
1.0
 31
0.0
 73
     1
 44
1.0
  0
POINT
  5
1164
330
10CB
100
AcDbEntity
  8
Defpoints
 62
     0
100
AcDbPoint
 10
81.0
 20
-10.00000000005001
 30
0.0
  0
POINT
  5
1165
330
10CB
100
AcDbEntity
  8
Defpoints
 62
     0
100
AcDbPoint
 10
81.0
 20
9.999999999949976
 30
0.0
  0
POINT
  5
1166
330
10CB
100
AcDbEntity
  8
Defpoints
 62
     0
100
AcDbPoint
 10
92.87503076829999
 20
9.999999999949974
 30
0.0
  0
ENDBLK
  5
10D6
330
10CB
100
AcDbEntity
  8
0
100
AcDbBlockEnd
  0
ENDSEC
  0
SECTION
  2
ENTITIES
  0
LINE
  5
F59
330
1F
100
AcDbEntity
  8
NOCUT
100
AcDbLine
 10
17.5
 20
31.77499999994995
 30
0.0
 11
14.34749999999996
 21
31.77499999994995
 31
0.0
  0
LINE
  5
F5A
330
1F
100
AcDbEntity
  8
NOCUT
100
AcDbLine
 10
80.5
 20
0.0
 30
0.0
 11
0.0
 21
0.0
 31
0.0
  0
LINE
  5
F5B
330
1F
100
AcDbEntity
  8
4
100
AcDbLine
 10
30.8274346496
 20
-0.0000000000500222
 30
0.0
 11
-71.4
 21
-0.0000000000500222
 31
0.0
  0
LINE
  5
F5C
330
1F
100
AcDbEntity
  8
4
100
AcDbLine
 10
-20.18329563739999
 20
0.0065089331500019
 30
0.0
 11
11.14139248929998
 21
-21.93902757345
 31
0.0
  0
LINE
  5
F5D
330
1F
100
AcDbEntity
  8
4
100
AcDbLine
 10
-20.18726947180002
 20
-0.0092914666500121
 30
0.0
 11
11.12837066539998
 21
21.94814635374999
 31
0.0
  0
LINE
  5
F5E
330
1F
100
AcDbEntity
  8
1
100
AcDbLine
 10
17.49999999999997
 20
31.77499999994997
 30
0.0
 11
14.34749999999996
 21
31.77499999994997
 31
0.0
  0
LINE
  5
F5F
330
1F
100
AcDbEntity
  8
1
100
AcDbLine
 10
3.19999999999996
 20
8.049999999949987
 30
0.0
 11
19.09999999999996
 21
8.049999999949987
 31
0.0
  0
LINE
  5
F60
330
1F
100
AcDbEntity
  8
1
100
AcDbLine
 10
3.19999999999996
 20
-8.050000000050005
 30
0.0
 11
19.09999999999996
 21
-8.050000000050005
 31
0.0
  0
LINE
  5
F61
330
1F
100
AcDbEntity
  8
1
100
AcDbLine
 10
3.19999999999996
 20
-18.50000000005001
 30
0.0
 11
19.09999999999996
 21
-18.50000000005001
 31
0.0
  0
LINE
  5
F62
330
1F
100
AcDbEntity
  8
1
100
AcDbLine
 10
17.50000000329998
 20
-25.83409810694998
 30
0.0
 11
14.34749999999996
 21
-25.83409810694998
 31
0.0
  0
LINE
  5
F63
330
1F
100
AcDbEntity
  8
1
100
AcDbLine
 10
17.49999999999997
 20
-31.77500000005002
 30
0.0
 11
14.34749999999996
 21
-31.77500000005002
 31
0.0
  0
LINE
  5
F64
330
1F
100
AcDbEntity
  8
SK3
100
AcDbLine
 10
15.41659940849998
 20
21.86908187694998
 30
0.0
 11
14.72023465589997
 21
21.99186677594999
 31
0.0
  0
LINE
  5
F65
330
1F
100
AcDbEntity
  8
SK3
100
AcDbLine
 10
12.54870014049997
 20
25.96483013444998
 30
0.0
 11
15.41659940849998
 21
21.86908187694998
 31
0.0
  0
LINE
  5
F66
330
1F
100
AcDbEntity
  8
SK3
100
AcDbLine
 10
15.41659940849998
 20
-21.86908187694998
 30
0.0
 11
12.54870014049997
 21
-25.96483013445001
 31
0.0
  0
LINE
  5
F67
330
1F
100
AcDbEntity
  8
SK3
100
AcDbLine
 10
4.499999999999971
 20
7.999999999949977
 30
0.0
 11
29.49999999999997
 21
7.999999999949977
 31
0.0
  0
LINE
  5
F68
330
1F
100
AcDbEntity
  8
SK3
100
AcDbLine
 10
-25.89999999999999
 20
7.499999999949948
 30
0.0
 11
19.07499999999996
 21
7.499999999949977
 31
0.0
  0
LINE
  5
F69
330
1F
100
AcDbEntity
  8
SK3
100
AcDbLine
 10
-25.89999999999999
 20
-7.500000000050049
 30
0.0
 11
19.07499999999996
 21
-7.500000000050022
 31
0.0
  0
LINE
  5
F6A
330
1F
100
AcDbEntity
  8
SK3
100
AcDbLine
 10
4.499999999999971
 20
-8.000000000050022
 30
0.0
 11
29.49999999999997
 21
-8.000000000050022
 31
0.0
  0
LINE
  5
F6B
330
1F
100
AcDbEntity
  8
SK3
100
AcDbLine
 10
19.10277284019996
 20
-24.45019121814998
 30
0.0
 11
15.00702458269998
 21
-21.58229195014999
 31
0.0
  0
LINE
  5
F6C
330
1F
100
AcDbEntity
  8
SK3
100
AcDbLine
 10
-5.976112233900011
 20
-7.500000000050022
 30
0.0
 11
18.81598291339996
 21
-24.85976604395
 31
0.0
  0
LINE
  5
F6D
330
1F
100
AcDbEntity
  8
SK3
100
AcDbLine
 10
19.10277284019996
 20
24.45019121814998
 30
0.0
 11
15.00702458269998
 21
21.58229195014999
 31
0.0
  0
LINE
  5
F6E
330
1F
100
AcDbEntity
  8
SK3
100
AcDbLine
 10
18.81598291339996
 20
24.85976604395
 30
0.0
 11
-5.976112233900011
 21
7.499999999949977
 31
0.0
  0
LINE
  5
F6F
330
1F
100
AcDbEntity
  8
SK3
100
AcDbLine
 10
11.14969137309998
 20
-24.37483587445001
 30
0.0
 11
16.52166349899999
 21
-28.13636464995001
 31
0.0
  0
LINE
  5
F70
330
1F
100
AcDbEntity
  8
SK3
100
AcDbLine
 10
16.23487357219997
 20
-28.54593947565001
 30
0.0
 11
12.13912531469998
 21
-25.67804020764997
 31
0.0
  0
LINE
  5
F71
330
1F
100
AcDbEntity
  8
SK3
100
AcDbLine
 10
16.52166349899999
 20
28.13636464994999
 30
0.0
 11
11.14969137309998
 21
24.37483587444998
 31
0.0
  0
LINE
  5
F72
330
1F
100
AcDbEntity
  8
SK3
100
AcDbLine
 10
16.23487357219997
 20
28.54593947564998
 30
0.0
 11
12.13912531469998
 21
25.67804020764997
 31
0.0
  0
LINE
  5
F73
330
1F
100
AcDbEntity
  8
SK3
100
AcDbLine
 10
15.41659940849998
 20
-21.86908187694998
 30
0.0
 11
14.72023465589997
 21
-21.99186677594999
 31
0.0
  0
DIMENSION
  5
F74
330
1F
100
AcDbEntity
  8
2
100
AcDbDimension
  2
*D3
 10
-0.0000000000000262
 20
59.30503825624999
 30
0.0
 11
38.76528132149999
 21
59.30503825624999
 31
0.0
 70
   160
 71
     5
 42
80.50000000000002
  3
ISO-25
100
AcDbAlignedDimension
 13
80.5
 23
18.76685432724997
 33
0.0
 14
-0.0000000000000284
 24
23.55418941964998
 34
0.0
 50
180.0
100
AcDbRotatedDimension
  0
LINE
  5
F75
330
1F
100
AcDbEntity
  8
1
100
AcDbLine
 10
3.19999999999996
 20
-30.12632953344999
 30
0.0
 11
3.19999999999996
 21
30.12632953345002
 31
0.0
  0
LINE
  5
F76
330
1F
100
AcDbEntity
  8
1
100
AcDbLine
 10
0.3196152423000171
 20
21.80829262144999
 30
0.0
 11
0.3196152423000171
 21
-21.80829262155
 31
0.0
  0
LINE
  5
F77
330
1F
100
AcDbEntity
  8
1
100
AcDbLine
 10
-0.8000000000000396
 20
-22.10829262155002
 30
0.0
 11
-0.8000000000000396
 21
22.10829262145
 31
0.0
  0
LINE
  5
F78
330
1F
100
AcDbEntity
  8
1
100
AcDbLine
 10
-0.8000000000000396
 20
-22.10829262155002
 30
0.0
 11
-67.37322744120001
 21
-12.39630905524998
 31
0.0
  0
LINE
  5
F79
330
1F
100
AcDbEntity
  8
SK3
100
AcDbLine
 10
-12.94985786829999
 20
-7.500000000050022
 30
0.0
 11
7.66286564569998
 21
-21.93331253795
 31
0.0
  0
TEXT
  5
F7A
330
1F
100
AcDbEntity
  8
6
100
AcDbText
 10
-59.51780315151168
 20
-45.89424067203554
 30
0.0
 40
3.5
  1
DIN 69871-A40
 41
0.8
  7
isocp
100
AcDbText
  0
ARC
  5
F7B
330
1F
100
AcDbEntity
  8
1
100
AcDbCircle
 10
4.799999999999981
 20
-30.17500000005
 30
0.0
 40
1.6
100
AcDbArc
 50
202.0424182021995
 51
270.0
  0
LINE
  5
F7C
330
1F
100
AcDbEntity
  8
1
100
AcDbLine
 10
7.852499999999962
 20
-31.77500000005002
 30
0.0
 11
9.224999999999962
 21
-29.39776026665001
 31
0.0
  0
LINE
  5
F7D
330
1F
100
AcDbEntity
  8
1
100
AcDbLine
 10
14.34749999999996
 20
-25.83409810694998
 30
0.0
 11
14.34749999999996
 21
-31.77499999995001
 31
0.0
  0
LINE
  5
F7E
330
1F
100
AcDbEntity
  8
1
100
AcDbLine
 10
7.852499999999962
 20
-31.77499999995001
 30
0.0
 11
7.852499999999962
 21
-25.83409810694998
 31
0.0
  0
LINE
  5
F7F
330
1F
100
AcDbEntity
  8
1
100
AcDbLine
 10
12.97499999999996
 20
-29.39776026665001
 30
0.0
 11
14.34749999999996
 21
-31.77500000005002
 31
0.0
  0
LINE
  5
F80
330
1F
100
AcDbEntity
  8
1
100
AcDbLine
 10
7.852499999999962
 20
-31.77500000005002
 30
0.0
 11
4.799999999999981
 21
-31.77500000005002
 31
0.0
  0
LINE
  5
F81
330
1F
100
AcDbEntity
  8
4
100
AcDbLine
 10
11.14139248929998
 20
-21.93902757345
 30
0.0
 11
1.732279265800001
 21
-28.52793842984998
 31
0.0
  0
LINE
  5
F82
330
1F
100
AcDbEntity
  8
1
100
AcDbLine
 10
7.852499999999962
 20
-25.83409810694998
 30
0.0
 11
4.800000001200003
 21
-25.83409810694998
 31
0.0
  0
LINE
  5
F83
330
1F
100
AcDbEntity
  8
SK3
100
AcDbLine
 10
6.184970151799973
 20
-28.46188146694998
 30
0.0
 11
10.28061198529998
 21
-25.59383021704999
 31
0.0
  0
LINE
  5
F84
330
1F
100
AcDbEntity
  8
SK3
100
AcDbLine
 10
11.14969137309998
 20
-24.37483587445001
 30
0.0
 11
5.898165026799973
 21
-28.05231728354998
 31
0.0
  0
LINE
  5
F85
330
1F
100
AcDbEntity
  8
SK3
100
AcDbLine
 10
7.66286564569998
 20
-21.93331253795
 30
0.0
 11
3.603724026899981
 21
-24.77580381675
 31
0.0
  0
LINE
  5
F86
330
1F
100
AcDbEntity
  8
SK3
100
AcDbLine
 10
3.316918901900009
 20
-24.36623963344999
 30
0.0
 11
7.227012429714816
 21
-21.62812212084229
 31
0.0
  0
SPLINE
  5
F87
330
1F
100
AcDbEntity
  8
1
100
AcDbSpline
210
0.0
220
0.0
230
1.0
 70
     8
 71
     3
 72
    12
 73
     8
 74
     6
 42
0.0000000001
 43
0.0000000001
 44
0.0000000001
 12
-1.0
 22
0.0
 32
0.0
 13
0.0
 23
1.0
 33
0.0
 40
0.0
 40
0.0
 40
0.0
 40
0.0
 40
0.4612744647176294
 40
0.9611108618838732
 40
1.51222059071173
 40
2.133899863390708
 40
2.823885457414231
 40
2.823885457414231
 40
2.823885457414231
 40
2.823885457414231
 10
4.800000001200003
 20
-25.83409810694998
 30
0.0
 10
4.646241846294127
 20
-25.83409810694998
 30
0.0
 10
4.323290429076716
 20
-25.77550132265886
 30
0.0
 10
3.881002188891353
 20
-25.51442050367293
 30
0.0
 10
3.511294496869105
 20
-25.08491027689498
 30
0.0
 10
3.258952455453886
 20
-24.50861665939171
 30
0.0
 10
3.19999999999996
 20
-24.06863242835784
 30
0.0
 10
3.19999999999996
 20
-23.83863723035
 30
0.0
 11
4.800000001200003
 21
-25.83409810694998
 31
0.0
 11
4.345887648000001
 21
-25.75312834425
 31
0.0
 11
3.912981890099985
 21
-25.50327032715
 31
0.0
 11
3.549052859099957
 21
-25.08941335475
 31
0.0
 11
3.294877822699986
 21
-24.52206851344998
 31
0.0
 11
3.19999999999996
 21
-23.83863723035
 31
0.0
  0
LINE
  5
F88
330
1F
100
AcDbEntity
  8
SK3
100
AcDbLine
 10
3.931265176899983
 20
-23.93603194594998
 30
0.0
 11
6.799316426799974
 21
-28.03167377944999
 31
0.0
  0
LINE
  5
F89
330
1F
100
AcDbEntity
  8
SK3
100
AcDbLine
 10
6.328372714299972
 20
-28.66666355855
 30
0.0
 11
3.219007896399999
 21
-24.22642051055001
 31
0.0
  0
SPLINE
  5
F8A
330
1F
100
AcDbEntity
  8
1
100
AcDbSpline
210
0.0
220
0.0
230
1.0
 70
     8
 71
     3
 72
    10
 73
     6
 74
     4
 42
0.0000000001
 43
0.0000000001
 44
0.0000000001
 12
0.0
 22
-1.0
 32
0.0
 13
0.0851462884431527
 23
-0.9963684607434919
 33
0.0
 40
0.0
 40
0.0
 40
0.0
 40
0.0
 40
0.3348611159938053
 40
0.5735266350262318
 40
0.6623863951854539
 40
0.6623863951854539
 40
0.6623863951854539
 40
0.6623863951854539
 10
3.19999999999996
 20
-30.12632953344999
 30
0.0
 10
3.19999999999996
 20
-30.23794990544792
 30
0.0
 10
3.223278326694577
 20
-30.42838463204272
 30
0.0
 10
3.261489000068173
 20
-30.64653168111142
 30
0.0
 10
3.31442828144348
 20
-30.74595713719938
 30
0.0
 10
3.316950307699983
 20
-30.77546949135001
 30
0.0
 11
3.19999999999996
 21
-30.12632953344999
 31
0.0
 11
3.230525666000005
 21
-30.45979639945
 31
0.0
 11
3.288208729999978
 21
-30.69138632605
 31
0.0
 11
3.316950307699983
 21
-30.77546949135001
 31
0.0
  0
LINE
  5
F8B
330
1F
100
AcDbEntity
  8
SK3
100
AcDbLine
 10
6.328372714299972
 20
-28.66666355855
 30
0.0
 11
3.316950524800005
 21
-30.77546933934999
 31
0.0
  0
ARC
  5
F8C
330
1F
100
AcDbEntity
  8
1
100
AcDbCircle
 10
2.409731931299971
 20
-22.80829262155001
 30
0.0
 40
1.0
100
AcDbArc
 50
37.5379335793999
 51
90.0
  0
LINE
  5
F8D
330
1F
100
AcDbEntity
  8
1
100
AcDbLine
 10
-0.8000000000000396
 20
-22.10829262155002
 30
0.0
 11
0.3196152423000171
 21
-21.80829262155
 31
0.0
  0
LINE
  5
F8E
330
1F
100
AcDbEntity
  8
1
100
AcDbLine
 10
0.3196152423000171
 20
-21.80829262155
 30
0.0
 11
2.409731931299971
 21
-21.80829262155
 31
0.0
  0
LINE
  5
F8F
330
1F
100
AcDbEntity
  8
1
100
AcDbLine
 10
12.97499999999996
 20
-29.39739672895001
 30
0.0
 11
12.97499999999996
 21
-21.84354881884999
 31
0.0
  0
LINE
  5
F90
330
1F
100
AcDbEntity
  8
1
100
AcDbLine
 10
9.224999999999962
 20
-29.39739672895001
 30
0.0
 11
9.224999999999962
 21
-21.84354881884999
 31
0.0
  0
SPLINE
  5
F91
330
1F
100
AcDbEntity
  8
1
100
AcDbSpline
210
0.0
220
0.0
230
1.0
 70
     8
 71
     3
 72
    10
 73
     6
 74
     4
 42
0.0000000001
 43
0.0000000001
 44
0.0000000001
 12
-0.4093743989143582
 22
-0.9123664842120779
 32
0.0
 13
-0.4249194534150649
 23
-0.9052311628028736
 33
0.0
 40
0.0
 40
0.0
 40
0.0
 40
0.0
 40
1.064064351320623
 40
2.159673086605948
 40
3.287502624669667
 40
3.287502624669667
 40
3.287502624669667
 40
3.287502624669667
 10
9.224999999999962
 20
-22.84684461135
 30
0.0
 10
9.07979976525727
 20
-23.1704501617466
 30
0.0
 10
8.783031496779798
 20
-23.82633066784232
 30
0.0
 10
8.325446534352304
 20
-24.82206168417654
 30
0.0
 10
8.012245570286429
 20
-25.49378262555503
 30
0.0
 10
7.852499999999962
 20
-25.83409810694998
 30
0.0
 11
9.224999999999962
 21
-22.84684461135
 31
0.0
 11
8.786435181900003
 21
-23.81632583555
 31
0.0
 11
8.329027523299997
 21
-24.81188433944998
 31
0.0
 11
7.852499999999962
 21
-25.83409810694998
 31
0.0
  0
SPLINE
  5
F92
330
1F
100
AcDbEntity
  8
1
100
AcDbSpline
210
0.0
220
0.0
230
1.0
 70
     8
 71
     3
 72
    10
 73
     6
 74
     4
 42
0.0000000001
 43
0.0000000001
 44
0.0000000001
 12
0.4093743989143582
 22
-0.9123664842120779
 32
0.0
 13
0.4249194534150649
 23
-0.9052311628028736
 33
0.0
 40
0.0
 40
0.0
 40
0.0
 40
0.0
 40
1.064064351320647
 40
2.15967308660597
 40
3.287502624669666
 40
3.287502624669666
 40
3.287502624669666
 40
3.287502624669666
 10
12.97499999999996
 20
-22.84684461135
 30
0.0
 10
13.12020023474265
 20
-23.1704501617466
 30
0.0
 10
13.4169685032202
 20
-23.82633066784232
 30
0.0
 10
13.87455346564768
 20
-24.82206168417653
 30
0.0
 10
14.18775442971349
 20
-25.49378262555504
 30
0.0
 10
14.34749999999996
 20
-25.83409810694998
 30
0.0
 11
12.97499999999996
 21
-22.84684461135
 31
0.0
 11
13.41356481809998
 21
-23.81632583555
 31
0.0
 11
13.87097247669998
 21
-24.81188433944998
 31
0.0
 11
14.34749999999996
 21
-25.83409810694998
 31
0.0
  0
LINE
  5
F93
330
1F
100
AcDbEntity
  8
SK3
100
AcDbLine
 10
12.54870014049997
 20
-25.96483013445001
 30
0.0
 11
12.42591524149998
 21
-25.26846538194998
 31
0.0
  0
LINE
  5
F94
330
1F
100
AcDbEntity
  8
1
100
AcDbLine
 10
9.724999999999962
 20
-28.12500000005002
 30
0.0
 11
12.47499999999996
 21
-28.12500000005002
 31
0.0
  0
ARC
  5
F95
330
1F
100
AcDbEntity
  8
1
100
AcDbCircle
 10
9.724999999999962
 20
-28.62500000005002
 30
0.0
 40
0.5
100
AcDbArc
 50
90.0
 51
180.0
  0
ARC
  5
F96
330
1F
100
AcDbEntity
  8
1
100
AcDbCircle
 10
12.47499999999996
 20
-28.62500000005002
 30
0.0
 40
0.5
100
AcDbArc
 50
0.0
 51
90.0
  0
LINE
  5
F97
330
1F
100
AcDbEntity
  8
1
100
AcDbLine
 10
9.724999999999962
 20
-21.18408895844998
 30
0.0
 11
12.47499999999996
 21
-21.18408895844998
 31
0.0
  0
SPLINE
  5
F98
330
1F
100
AcDbEntity
  8
1
100
AcDbSpline
210
0.0
220
0.0
230
1.0
 70
     8
 71
     3
 72
    12
 73
     8
 74
     6
 42
0.0000000001
 43
0.0000000001
 44
0.0000000001
 12
-1.0
 22
0.0
 32
0.0
 13
0.0
 23
-1.0
 33
0.0
 40
0.0
 40
0.0
 40
0.0
 40
0.0
 40
0.1551842573856469
 40
0.3185715853792714
 40
0.4968264268953267
 40
0.6963250574299569
 40
0.9108050541876792
 40
0.9108050541876792
 40
0.9108050541876792
 40
0.9108050541876792
 10
9.724999999999962
 20
-21.18408895844998
 30
0.0
 10
9.673271914204747
 20
-21.18408895844998
 30
0.0
 10
9.566043893845865
 20
-21.20702681154037
 30
0.0
 10
9.426552429856451
 20
-21.3022756789932
 30
0.0
 10
9.315576344331388
 20
-21.44778906353595
 30
0.0
 10
9.242218023442234
 20
-21.6333979781752
 30
0.0
 10
9.224999999999962
 20
-21.77205548659741
 30
0.0
 10
9.224999999999962
 20
-21.84354881884999
 30
0.0
 11
9.724999999999962
 21
-21.18408895844998
 31
0.0
 11
9.573025013700004
 21
-21.21548573025
 31
0.0
 11
9.436640775399981
 21
-21.30545660605
 31
0.0
 11
9.326764036099973
 21
-21.44582002965
 31
0.0
 11
9.25198366539999
 21
-21.63077299594998
 31
0.0
 11
9.224999999999962
 21
-21.84354881884999
 31
0.0
  0
LINE
  5
F99
330
1F
100
AcDbEntity
  8
SK3
100
AcDbLine
 10
11.14969137309998
 20
-24.37483587445001
 30
0.0
 11
11.14969137309998
 21
-21.93327956503384
 31
0.0
  0
LINE
  5
F9A
330
1F
100
AcDbEntity
  8
SK3
100
AcDbLine
 10
7.66286564569998
 20
-21.93331253795
 30
0.0
 11
11.14973846288636
 21
-21.93331253795
 31
0.0
  0
LINE
  5
F9B
330
1F
100
AcDbEntity
  8
SK3
100
AcDbLine
 10
7.717264717247302
 20
-21.93331253795
 30
0.0
 11
10.28061198529998
 21
-25.59383021704999
 31
0.0
  0
SPLINE
  5
F9C
330
1F
100
AcDbEntity
  8
1
100
AcDbSpline
210
0.0
220
0.0
230
1.0
 70
     8
 71
     3
 72
    12
 73
     8
 74
     6
 42
0.0000000001
 43
0.0000000001
 44
0.0000000001
 12
0.0
 22
1.0
 32
0.0
 13
-1.0
 23
0.0
 33
0.0
 40
0.0
 40
0.0
 40
0.0
 40
0.0
 40
0.2147563617697138
 40
0.4144905476098556
 40
0.5926956286157679
 40
0.755927382205951
 40
0.9108072845931165
 40
0.9108072845931165
 40
0.9108072845931165
 40
0.9108072845931165
 10
12.97499999999996
 20
-21.84354881884999
 30
0.0
 10
12.97499999999996
 20
-21.77196336492675
 30
0.0
 10
12.95773866944809
 20
-21.63313274186836
 30
0.0
 10
12.88422666649837
 20
-21.44740906582088
 30
0.0
 10
12.77312617264625
 20
-21.30197467644169
 30
0.0
 10
12.63369678295211
 20
-21.20694452428679
 30
0.0
 10
12.52662663412901
 20
-21.18408895844998
 30
0.0
 10
12.47499999999996
 20
-21.18408895844998
 30
0.0
 11
12.97499999999996
 21
-21.84354881884999
 31
0.0
 11
12.94794608249998
 21
-21.63050332964998
 31
0.0
 11
12.8729782469
 21
-21.44537210965001
 31
0.0
 11
12.76301768669998
 21
-21.30513757005002
 31
0.0
 11
12.62668916209999
 21
-21.21536486395001
 31
0.0
 11
12.47499999999996
 21
-21.18408895844998
 31
0.0
  0
LINE
  5
F9D
330
1F
100
AcDbEntity
  8
SK3
100
AcDbLine
 10
15.00702458269998
 20
-21.58229195014999
 30
0.0
 11
12.13912531469998
 21
-25.67804020764997
 31
0.0
  0
LINE
  5
F9E
330
1F
100
AcDbEntity
  8
1
100
AcDbLine
 10
-0.8000000000000396
 20
22.10829262145
 30
0.0
 11
-67.37322744120001
 21
12.39630905525001
 31
0.0
  0
LINE
  5
F9F
330
1F
100
AcDbEntity
  8
SK3
100
AcDbLine
 10
-36.2
 20
7.999999999949977
 30
0.0
 11
-60.20000000000002
 21
7.999999999949977
 31
0.0
  0
LINE
  5
FA0
330
1F
100
AcDbEntity
  8
SK3
100
AcDbLine
 10
-26.248499159
 20
6.919999999949991
 30
0.0
 11
-60.20000000000002
 21
6.919999999949991
 31
0.0
  0
LINE
  5
FA1
330
1F
100
AcDbEntity
  8
SK3
100
AcDbLine
 10
-26.248499159
 20
-6.920000000050007
 30
0.0
 11
-60.20000000000002
 21
-6.920000000050007
 31
0.0
  0
LINE
  5
FA2
330
1F
100
AcDbEntity
  8
SK3
100
AcDbLine
 10
-36.2
 20
-8.000000000050022
 30
0.0
 11
-60.20000000000002
 21
-8.000000000050022
 31
0.0
  0
LINE
  5
FA3
330
1F
100
AcDbEntity
  8
1
100
AcDbLine
 10
-68.4
 20
11.20887810834997
 30
0.0
 11
-68.4
 21
-11.20887810844999
 31
0.0
  0
LINE
  5
FA4
330
1F
100
AcDbEntity
  8
SK3
100
AcDbLine
 10
-60.20000000000002
 20
-8.499323850750016
 30
0.0
 11
-60.20000000000002
 21
8.499323850750016
 31
0.0
  0
LINE
  5
FA5
330
1F
100
AcDbEntity
  8
SK3
100
AcDbLine
 10
-60.20000000000002
 20
-8.500000000050022
 30
0.0
 11
-67.40000000000001
 21
-8.500000000050022
 31
0.0
  0
ARC
  5
FA6
330
1F
100
AcDbEntity
  8
SK3
100
AcDbCircle
 10
-67.40000000000001
 20
-9.500000000050023
 30
0.0
 40
1.0
100
AcDbArc
 50
90.0
 51
179.9999999351993
  0
ARC
  5
FA7
330
1F
100
AcDbEntity
  8
1
100
AcDbCircle
 10
-67.2
 20
-11.20887810844999
 30
0.0
 40
1.199999999999999
100
AcDbArc
 50
180.0
 51
261.7000000000007
  0
LINE
  5
FA8
330
1F
100
AcDbEntity
  8
SK3
100
AcDbLine
 10
-60.20000000000002
 20
8.499999999949977
 30
0.0
 11
-67.40000000000001
 21
8.499999999949977
 31
0.0
  0
ARC
  5
FA9
330
1F
100
AcDbEntity
  8
SK3
100
AcDbCircle
 10
-67.40000000000001
 20
9.499999999949976
 30
0.0
 40
1.0
100
AcDbArc
 50
180.0000000648006
 51
270.0
  0
ARC
  5
FAA
330
1F
100
AcDbEntity
  8
1
100
AcDbCircle
 10
-67.2
 20
11.20887810834997
 30
0.0
 40
1.199999999999999
100
AcDbArc
 50
98.29999999999918
 51
180.0
  0
LINE
  5
FAB
330
1F
100
AcDbEntity
  8
NOCUT
100
AcDbLine
 10
3.19999999999993
 20
22.19900607373955
 30
0.0
 11
3.19999999999993
 21
30.12632953345002
 31
0.0
  0
LINE
  5
FAC
330
1F
100
AcDbEntity
  8
4
100
AcDbLine
 10
11.12837066539998
 20
21.94814635374999
 30
0.0
 11
1.689968753899989
 21
28.55756717214998
 31
0.0
  0
LINE
  5
FAD
330
1F
100
AcDbEntity
  8
1
100
AcDbLine
 10
14.34749999999996
 20
31.77499999994997
 30
0.0
 11
14.34749999999996
 21
8.049999999949987
 31
0.0
  0
LINE
  5
FAE
330
1F
100
AcDbEntity
  8
1
100
AcDbLine
 10
12.97499999999996
 20
8.049999999949987
 30
0.0
 11
12.97499999999996
 21
29.39776026645001
 31
0.0
  0
LINE
  5
FAF
330
1F
100
AcDbEntity
  8
1
100
AcDbLine
 10
9.224999999999962
 20
29.39776026645001
 30
0.0
 11
9.224999999999962
 21
8.049999999949987
 31
0.0
  0
LINE
  5
FB0
330
1F
100
AcDbEntity
  8
1
100
AcDbLine
 10
7.852499999999962
 20
8.049999999949987
 30
0.0
 11
7.852499999999962
 21
31.77499999994997
 31
0.0
  0
LINE
  5
FB1
330
1F
100
AcDbEntity
  8
SK3
100
AcDbLine
 10
6.184970151799973
 20
28.46188146694998
 30
0.0
 11
10.28061198529998
 21
25.59383021704997
 31
0.0
  0
LINE
  5
FB2
330
1F
100
AcDbEntity
  8
SK3
100
AcDbLine
 10
5.898165026799973
 20
28.05231728354998
 30
0.0
 11
11.14969137309998
 21
24.37483587444998
 31
0.0
  0
LINE
  5
FB3
330
1F
100
AcDbEntity
  8
SK3
100
AcDbLine
 10
3.219007896399999
 20
24.22642051054998
 30
0.0
 11
6.328372714299972
 21
28.66666355855
 31
0.0
  0
LINE
  5
FB4
330
1F
100
AcDbEntity
  8
SK3
100
AcDbLine
 10
-25.89999999999999
 20
7.499999999949977
 30
0.0
 11
-25.89999999999999
 21
-7.500000000050022
 31
0.0
  0
LINE
  5
FB5
330
1F
100
AcDbEntity
  8
SK3
100
AcDbLine
 10
-26.248499159
 20
6.919999999949991
 30
0.0
 11
-26.248499159
 21
-6.920000000050007
 31
0.0
  0
LINE
  5
FB6
330
1F
100
AcDbEntity
  8
SK3
100
AcDbLine
 10
-36.2
 20
7.999999999949977
 30
0.0
 11
-36.2
 21
-8.000000000050022
 31
0.0
  0
LINE
  5
FB7
330
1F
100
AcDbEntity
  8
SK3
100
AcDbLine
 10
-26.248499159
 20
-6.920000000050007
 30
0.0
 11
-25.89999999999999
 21
-7.500000000050022
 31
0.0
  0
LINE
  5
FB8
330
1F
100
AcDbEntity
  8
SK3
100
AcDbLine
 10
-26.248499159
 20
6.919999999949991
 30
0.0
 11
-25.89999999999999
 21
7.499999999949977
 31
0.0
  0
INSERT
  5
FB9
330
1F
100
AcDbEntity
  8
1
100
AcDbBlockReference
  2
nullpunkt_1
 10
0.0
 20
0.0
 30
0.0
 41
-1.0
 50
180.0
  0
LINE
  5
FBA
330
1F
100
AcDbEntity
  8
NOCUT
100
AcDbLine
 10
0.0
 20
0.0
 30
0.0
 11
-0.0000000000002274
 21
22.19900607373955
 31
0.0
  0
LINE
  5
FBB
330
1F
100
AcDbEntity
  8
SK3
100
AcDbLine
 10
4.499999999999971
 20
7.999999999949977
 30
0.0
 11
4.499999999999971
 21
-8.000000000050022
 31
0.0
  0
LINE
  5
FBC
330
1F
100
AcDbEntity
  8
1
100
AcDbLine
 10
14.34749999999996
 20
-8.050000000050005
 30
0.0
 11
14.34749999999996
 21
-18.50000000005001
 31
0.0
  0
LINE
  5
FBD
330
1F
100
AcDbEntity
  8
1
100
AcDbLine
 10
12.97499999999996
 20
-18.50000000005001
 30
0.0
 11
12.97499999999996
 21
-8.050000000050005
 31
0.0
  0
LINE
  5
FBE
330
1F
100
AcDbEntity
  8
1
100
AcDbLine
 10
9.224999999999962
 20
-8.050000000050005
 30
0.0
 11
9.224999999999962
 21
-18.50000000005001
 31
0.0
  0
LINE
  5
FBF
330
1F
100
AcDbEntity
  8
1
100
AcDbLine
 10
7.852499999999962
 20
-18.50000000005001
 30
0.0
 11
7.852499999999962
 21
-8.050000000050005
 31
0.0
  0
LINE
  5
FC0
330
1F
100
AcDbEntity
  8
SK3
100
AcDbLine
 10
7.66286564569998
 20
21.93331253794996
 30
0.0
 11
-12.94985786829999
 21
7.499999999949977
 31
0.0
  0
LINE
  5
FC1
330
1F
100
AcDbEntity
  8
SK3
100
AcDbLine
 10
3.603724026899981
 20
24.77580381675
 30
0.0
 11
7.66286564569998
 21
21.93331253794996
 31
0.0
  0
LINE
  5
FC2
330
1F
100
AcDbEntity
  8
SK3
100
AcDbLine
 10
3.316918901900009
 20
24.36623963345002
 30
0.0
 11
7.227012429716296
 21
21.62812212084121
 31
0.0
  0
LINE
  5
FC3
330
1F
100
AcDbEntity
  8
NOCUT
100
AcDbLine
 10
3.202682057587252
 20
22.19900607373955
 30
0.0
 11
-0.0000000000001137
 21
22.19900607373955
 31
0.0
  0
ARC
  5
FC4
330
1F
100
AcDbEntity
  8
1
100
AcDbCircle
 10
2.409731931299971
 20
22.80829262144999
 30
0.0
 40
1.0
100
AcDbArc
 50
270.0
 51
322.4620664206
  0
LINE
  5
FC5
330
1F
100
AcDbEntity
  8
1
100
AcDbLine
 10
-0.8000000000000396
 20
22.10829262145
 30
0.0
 11
0.3196152423000171
 21
21.80829262144999
 31
0.0
  0
LINE
  5
FC6
330
1F
100
AcDbEntity
  8
1
100
AcDbLine
 10
0.3196152423000171
 20
21.80829262144999
 30
0.0
 11
2.409731931299971
 21
21.80829262144999
 31
0.0
  0
LINE
  5
FC7
330
1F
100
AcDbEntity
  8
SK3
100
AcDbLine
 10
7.717264717247302
 20
21.93331253784994
 30
0.0
 11
10.28061198529998
 21
25.59383021694995
 31
0.0
  0
LINE
  5
FC8
330
1F
100
AcDbEntity
  8
SK3
100
AcDbLine
 10
7.66286564569998
 20
21.93331253784994
 30
0.0
 11
11.14973846288636
 21
21.93331253784994
 31
0.0
  0
LINE
  5
FC9
330
1F
100
AcDbEntity
  8
SK3
100
AcDbLine
 10
11.14969137309998
 20
24.37483587434996
 30
0.0
 11
11.14969137309998
 21
21.9332795649338
 31
0.0
  0
LINE
  5
FCA
330
1F
100
AcDbEntity
  8
SK3
100
AcDbLine
 10
12.13912531469998
 20
25.67804020764997
 30
0.0
 11
15.00702458269998
 21
21.58229195014999
 31
0.0
  0
LINE
  5
FCB
330
1F
100
AcDbEntity
  8
SK3
100
AcDbLine
 10
12.54870014049997
 20
25.96483013444998
 30
0.0
 11
12.42591524149998
 21
25.26846538194998
 31
0.0
  0
LINE
  5
FCC
330
1F
100
AcDbEntity
  8
NOCUT
100
AcDbLine
 10
7.852499999999962
 20
31.77499999994995
 30
0.0
 11
4.799999999999954
 21
31.77499999994995
 31
0.0
  0
LINE
  5
FCD
330
1F
100
AcDbEntity
  8
1
100
AcDbLine
 10
7.852499999999962
 20
31.77499999994997
 30
0.0
 11
4.799999999999981
 21
31.77499999994997
 31
0.0
  0
ARC
  5
FCE
330
1F
100
AcDbEntity
  8
NOCUT
100
AcDbCircle
 10
4.799999999999954
 20
30.17499999994999
 30
0.0
 40
1.6
100
AcDbArc
 50
90.0
 51
157.9578028179
  0
SPLINE
  5
FCF
330
1F
100
AcDbEntity
  8
NOCUT
100
AcDbSpline
210
0.0
220
0.0
230
1.0
 70
     8
 71
     3
 72
    10
 73
     6
 74
     4
 42
0.0000000001
 43
0.0000000001
 44
0.0000000001
 12
0.0
 22
1.0
 32
0.0
 13
-0.6650735218310815
 23
0.7467778856923938
 33
0.0
 40
0.0
 40
0.0
 40
0.0
 40
0.0
 40
0.3348555943584936
 40
0.573527805604007
 40
0.6623864041110435
 40
0.6623864041110435
 40
0.6623864041110435
 40
0.6623864041110435
 10
3.19999999999993
 20
30.12632953345002
 30
0.0
 10
3.19999999999993
 20
30.23794806490285
 30
0.0
 10
3.239162108283387
 20
30.43366764091701
 30
0.0
 10
3.232875924475326
 20
30.6370113602218
 30
0.0
 10
3.336649474418036
 20
30.75335027864374
 30
0.0
 10
3.316950307400019
 20
30.77546949074997
 30
0.0
 11
3.19999999999993
 21
30.12632953345002
 31
0.0
 11
3.230524666200038
 21
30.45979094624999
 31
0.0
 11
3.288209080300021
 21
30.69138743325004
 31
0.0
 11
3.316950307400019
 21
30.77546949074997
 31
0.0
  0
ARC
  5
FD0
330
1F
100
AcDbEntity
  8
1
100
AcDbCircle
 10
4.799999999999981
 20
30.17499999994999
 30
0.0
 40
1.6
100
AcDbArc
 50
90.0
 51
157.9578028179
  0
SPLINE
  5
FD1
330
1F
100
AcDbEntity
  8
1
100
AcDbSpline
210
0.0
220
0.0
230
1.0
 70
     8
 71
     3
 72
    10
 73
     6
 74
     4
 42
0.0000000001
 43
0.0000000001
 44
0.0000000001
 12
0.0
 22
1.0
 32
0.0
 13
-0.6650735218310815
 23
0.7467778856923938
 33
0.0
 40
0.0
 40
0.0
 40
0.0
 40
0.0
 40
0.3348555943584884
 40
0.5735278056039702
 40
0.662386404111054
 40
0.662386404111054
 40
0.662386404111054
 40
0.662386404111054
 10
3.19999999999996
 20
30.12632953345002
 30
0.0
 10
3.19999999999996
 20
30.23794806490285
 30
0.0
 10
3.239162108283323
 20
30.43366764091701
 30
0.0
 10
3.23287592447533
 20
30.63701136022179
 30
0.0
 10
3.336649474418017
 20
30.75335027864375
 30
0.0
 10
3.316950307399991
 20
30.77546949074998
 30
0.0
 11
3.19999999999996
 21
30.12632953345002
 31
0.0
 11
3.230524666200011
 21
30.45979094624999
 31
0.0
 11
3.288209080299992
 21
30.69138743325001
 31
0.0
 11
3.316950307399991
 21
30.77546949074998
 31
0.0
  0
LINE
  5
FD2
330
1F
100
AcDbEntity
  8
SK3
100
AcDbLine
 10
3.316952038999999
 20
30.77546827895
 30
0.0
 11
6.328372714299972
 21
28.66666355855
 31
0.0
  0
LINE
  5
FD3
330
1F
100
AcDbEntity
  8
NOCUT
100
AcDbLine
 10
9.725000000000024
 20
28.12499999994997
 30
0.0
 11
12.47500000000002
 21
28.12499999994997
 31
0.0
  0
LINE
  5
FD4
330
1F
100
AcDbEntity
  8
1
100
AcDbLine
 10
9.724999999999962
 20
28.12499999994997
 30
0.0
 11
12.47499999999996
 21
28.12499999994997
 31
0.0
  0
LINE
  5
FD5
330
1F
100
AcDbEntity
  8
NOCUT
100
AcDbLine
 10
9.225000000000024
 20
29.39776026645001
 30
0.0
 11
9.225000000000024
 21
28.62499999994998
 31
0.0
  0
LINE
  5
FD6
330
1F
100
AcDbEntity
  8
NOCUT
100
AcDbLine
 10
7.852499999999962
 20
31.77499999994995
 30
0.0
 11
9.225000000000024
 21
29.39776026665004
 31
0.0
  0
ARC
  5
FD7
330
1F
100
AcDbEntity
  8
NOCUT
100
AcDbCircle
 10
9.725000000000024
 20
28.62499999994998
 30
0.0
 40
0.5
100
AcDbArc
 50
180.0
 51
270.0
  0
ARC
  5
FD8
330
1F
100
AcDbEntity
  8
1
100
AcDbCircle
 10
9.724999999999962
 20
28.62499999994998
 30
0.0
 40
0.5
100
AcDbArc
 50
180.0
 51
270.0
  0
LINE
  5
FD9
330
1F
100
AcDbEntity
  8
1
100
AcDbLine
 10
7.852499999999962
 20
31.77499999994997
 30
0.0
 11
9.224999999999962
 21
29.39776026665001
 31
0.0
  0
ARC
  5
FDA
330
1F
100
AcDbEntity
  8
NOCUT
100
AcDbCircle
 10
12.47500000000002
 20
28.62499999994998
 30
0.0
 40
0.5
100
AcDbArc
 50
270.0
 51
0.0
  0
LINE
  5
FDB
330
1F
100
AcDbEntity
  8
NOCUT
100
AcDbLine
 10
12.97500000000002
 20
28.62499999994998
 30
0.0
 11
12.97500000000002
 21
29.39776026645001
 31
0.0
  0
LINE
  5
FDC
330
1F
100
AcDbEntity
  8
NOCUT
100
AcDbLine
 10
12.97500000000002
 20
29.39776026665004
 30
0.0
 11
14.34749999999996
 21
31.77499999994995
 31
0.0
  0
ARC
  5
FDD
330
1F
100
AcDbEntity
  8
1
100
AcDbCircle
 10
12.47499999999996
 20
28.62499999994998
 30
0.0
 40
0.5
100
AcDbArc
 50
270.0
 51
0.0
  0
LINE
  5
FDE
330
1F
100
AcDbEntity
  8
1
100
AcDbLine
 10
12.97499999999996
 20
29.39776026665001
 30
0.0
 11
14.34749999999996
 21
31.77499999994997
 31
0.0
  0
LINE
  5
FE0
330
1F
100
AcDbEntity
  8
1
100
AcDbLine
 10
69.15743636079998
 20
20.99999999994996
 30
0.0
 11
69.15743636079998
 21
-21.00000000005001
 31
0.0
  0
LINE
  5
FE1
330
1F
100
AcDbEntity
  8
1
100
AcDbLine
 10
61.29999999999999
 20
20.99999999994996
 30
0.0
 11
61.29999999999999
 21
-21.00000000005001
 31
0.0
  0
LINE
  5
FE2
330
1F
100
AcDbEntity
  8
1
100
AcDbLine
 10
59.69999999999996
 20
20.99999999994996
 30
0.0
 11
59.69999999999996
 21
-21.00000000005001
 31
0.0
  0
LINE
  5
FE3
330
1F
100
AcDbEntity
  8
1
100
AcDbLine
 10
58.29999999999998
 20
20.99999999994996
 30
0.0
 11
58.29999999999998
 21
-21.00000000005001
 31
0.0
  0
LINE
  5
FE4
330
1F
100
AcDbEntity
  8
1
100
AcDbLine
 10
56.69999999999996
 20
20.99999999994996
 30
0.0
 11
56.69999999999996
 21
-21.00000000005001
 31
0.0
  0
LINE
  5
FE5
330
1F
100
AcDbEntity
  8
1
100
AcDbLine
 10
55.29999999999998
 20
20.99999999994996
 30
0.0
 11
55.29999999999998
 21
-21.00000000005001
 31
0.0
  0
LINE
  5
FE6
330
1F
100
AcDbEntity
  8
1
100
AcDbLine
 10
53.69999999999996
 20
20.99999999994996
 30
0.0
 11
53.69999999999996
 21
-21.00000000005001
 31
0.0
  0
LINE
  5
FE7
330
1F
100
AcDbEntity
  8
1
100
AcDbLine
 10
46.49999999999997
 20
20.99999999994996
 30
0.0
 11
46.49999999999997
 21
-21.00000000005001
 31
0.0
  0
LINE
  5
FE8
330
1F
100
AcDbEntity
  8
1
100
AcDbLine
 10
44.33493649050001
 20
24.74999999994997
 30
0.0
 11
44.33493649050001
 21
-24.75000000005001
 31
0.0
  0
LINE
  5
FE9
330
1F
100
AcDbEntity
  8
1
100
AcDbLine
 10
19.09999999999996
 20
-30.12633029315
 30
0.0
 11
19.09999999999996
 21
-6.167923813550003
 31
0.0
  0
LINE
  5
FEA
330
1F
100
AcDbEntity
  8
1
100
AcDbLine
 10
69.15743636079998
 20
-21.00000000005001
 30
0.0
 11
80.08682408879996
 21
-19.07285406094999
 31
0.0
  0
DIMENSION
  5
FEB
330
1F
100
AcDbEntity
  8
SK2
100
AcDbDimension
  2
*D4
 10
39.49999999999996
 20
-44.13953498264999
 30
0.0
 11
34.15644089819997
 21
-44.13953498264999
 31
0.0
 70
   160
 71
     5
 42
10.0
  3
ISO-25
100
AcDbAlignedDimension
 13
29.49999999999997
 23
-6.250000000050022
 33
0.0
 14
39.49999999999996
 24
-11.50000000005002
 34
0.0
100
AcDbRotatedDimension
1001
ACAD
1000
DSTYLE
1002
{
1070
   179
1070
     4
1070
   275
1070
     1
1002
}
  0
DIMENSION
  5
FEC
330
1F
100
AcDbEntity
  8
SK2
100
AcDbDimension
  2
*D5
 10
29.49999999999997
 20
-54.13953498264999
 30
0.0
 11
54.1049927933
 21
-54.13953498264999
 31
0.0
 70
   160
 71
     5
 42
51.00000000000003
  3
ISO-25
100
AcDbAlignedDimension
 13
80.5
 23
-19.08045018445
 33
0.0
 14
29.49999999999997
 24
-6.250000000050022
 34
0.0
 50
180.0
100
AcDbRotatedDimension
1001
ACAD
1000
DSTYLE
1002
{
1070
   179
1070
     4
1070
   275
1070
     1
1002
}
  0
DIMENSION
  5
FED
330
1F
100
AcDbEntity
  8
SK2
100
AcDbDimension
  2
*D6
 10
102.8750307683
 20
20.99999999994996
 30
0.0
 11
102.8750307683
 21
0.6079831878499819
 31
0.0
 70
   160
  1
%%c<>
 71
     5
 42
42.0
  3
ISO-25
100
AcDbAlignedDimension
 13
69.65743636079998
 23
-21.00000000005001
 33
0.0
 14
69.65743636079998
 24
20.99999999994996
 34
0.0
 50
90.0
100
AcDbRotatedDimension
1001
ACAD
1000
DSTYLE
1002
{
1070
   179
1070
     4
1070
   275
1070
     1
1002
}
  0
DIMENSION
  5
FEE
330
1F
100
AcDbEntity
  8
SK2
100
AcDbDimension
  2
*D7
 10
112.8750307682999
 20
24.74999999994996
 30
0.0
 11
112.8750307682999
 21
0.095700780149997
 31
0.0
 70
   160
  1
%%c<>
 71
     5
 42
49.5
  3
ISO-25
100
AcDbAlignedDimension
 13
44.36140712959999
 23
-24.75000000005001
 33
0.0
 14
44.36140712959999
 24
24.74999999994997
 34
0.0
 50
90.0
100
AcDbRotatedDimension
1001
ACAD
1000
DSTYLE
1002
{
1070
   179
1070
     4
1070
   275
1070
     1
1002
}
  0
TEXT
  5
FEF
330
1F
100
AcDbEntity
  8
6
100
AcDbText
 10
18.20702472744411
 20
-67.03129669692247
 30
0.0
 40
3.5
  1
69871A40HC20SA080-G2
 41
0.8
  7
isocp
 72
     1
 11
38.65221993974238
 21
-67.03129669692247
 31
0.0
100
AcDbText
  0
LINE
  5
FF0
330
1F
100
AcDbEntity
  8
1
100
AcDbLine
 10
46.49999999999997
 20
-21.00000000005001
 30
0.0
 11
53.69999999999996
 21
-21.00000000005001
 31
0.0
  0
LINE
  5
FF1
330
1F
100
AcDbEntity
  8
1
100
AcDbLine
 10
20.09999999999996
 20
-24.75000000005001
 30
0.0
 11
44.33493649050001
 21
-24.75000000005001
 31
0.0
  0
ARC
  5
FF2
330
1F
100
AcDbEntity
  8
1
100
AcDbCircle
 10
17.49999999999997
 20
-30.17500000005
 30
0.0
 40
1.6
100
AcDbArc
 50
270.0
 51
337.9582952653009
  0
SPLINE
  5
FF3
330
1F
100
AcDbEntity
  8
1
100
AcDbSpline
210
0.0
220
0.0
230
1.0
 70
     8
 71
     3
 72
    12
 73
     8
 74
     6
 42
0.0000000001
 43
0.0000000001
 44
0.0000000001
 12
0.0
 22
-1.0
 32
0.0
 13
-1.0
 23
0.0
 33
0.0
 40
0.0
 40
0.0
 40
0.0
 40
0.0
 40
0.6873634985910652
 40
1.30400596555077
 40
1.850231241152634
 40
2.35273934787999
 40
2.823872814306798
 40
2.823872814306798
 40
2.823872814306798
 40
2.823872814306798
 10
19.09999999999996
 20
-23.83863723035
 30
0.0
 10
19.09999999999996
 20
-24.06775839654702
 30
0.0
 10
19.04161425001755
 20
-24.50515777119731
 30
0.0
 10
18.79232555426174
 20
-25.07799431502244
 30
0.0
 10
18.42676304514262
 20
-25.5074835334817
 30
0.0
 10
17.98431632470248
 20
-25.77337361516412
 30
0.0
 10
17.65704449210891
 20
-25.83409810694998
 30
0.0
 10
17.50000000329998
 20
-25.83409810694998
 30
0.0
 11
19.09999999999996
 21
-23.83863723035
 31
0.0
 11
19.00585351319998
 21
-24.51952269665
 31
0.0
 11
18.75511769189998
 21
-25.08288712575
 31
0.0
 11
18.39679638909996
 21
-25.49515875424998
 31
0.0
 11
17.96350618709998
 21
-25.74966611795
 31
0.0
 11
17.50000000329998
 21
-25.83409810694998
 31
0.0
  0
LINE
  5
FF4
330
1F
100
AcDbEntity
  8
SK3
100
AcDbLine
 10
19.24616780359996
 20
-24.24540380535001
 30
0.0
 11
16.09147860879997
 21
-28.75072688854999
 31
0.0
  0
LINE
  5
FF5
330
1F
100
AcDbEntity
  8
SK3
100
AcDbLine
 10
18.48841060159998
 20
-24.02000632795
 30
0.0
 11
15.62051133359998
 21
-28.11575458544998
 31
0.0
  0
LINE
  5
FF6
330
1F
100
AcDbEntity
  8
SK3
100
AcDbLine
 10
15.62094907749997
 20
-25.06411571295001
 30
0.0
 11
15.50347982289997
 21
-26.74390361564999
 31
0.0
  0
LINE
  5
FF7
330
1F
100
AcDbEntity
  8
SK3
100
AcDbLine
 10
18.0827688098
 20
-25.90689500715001
 30
0.0
 11
16.74531663369998
 21
-24.97039259645001
 31
0.0
  0
SPLINE
  5
FF8
330
1F
100
AcDbEntity
  8
1
100
AcDbSpline
210
0.0
220
0.0
230
1.0
 70
     8
 71
     3
 72
    10
 73
     6
 74
     4
 42
0.0000000001
 43
0.0000000001
 44
0.0000000001
 12
0.3450055268000326
 22
0.9386006533544668
 32
0.0
 13
0.0
 23
1.0
 33
0.0
 40
0.0
 40
0.0
 40
0.0
 40
0.0
 40
0.0881321396799604
 40
0.3236701223403786
 40
0.6623555098065534
 40
0.6623555098065534
 40
0.6623555098065534
 40
0.6623555098065534
 10
18.98305750159996
 20
-30.77545020364999
 30
0.0
 10
18.99319286002607
 20
-30.74787657568827
 30
0.0
 10
19.02812585172514
 20
-30.64575907021602
 30
0.0
 10
19.08199553192438
 20
-30.43113237600032
 30
0.0
 10
19.09999999999996
 20
-30.23922542230539
 30
0.0
 10
19.09999999999996
 20
-30.12633029315
 30
0.0
 11
18.98305750159996
 21
-30.77545020364999
 31
0.0
 11
19.01157840039997
 21
-30.69206056175
 31
0.0
 11
19.06877811409994
 21
-30.46357350735002
 31
0.0
 11
19.09999999999996
 21
-30.12633029315
 31
0.0
  0
LINE
  5
FF9
330
1F
100
AcDbEntity
  8
SK3
100
AcDbLine
 10
17.2548776026
 20
-27.08923568664999
 30
0.0
 11
15.91742542649997
 21
-26.15273327595
 31
0.0
  0
LINE
  5
FFA
330
1F
100
AcDbEntity
  8
SK3
100
AcDbLine
 10
16.84093199899999
 20
-27.68040602645001
 30
0.0
 11
15.50347982289997
 21
-26.74390361564999
 31
0.0
  0
LINE
  5
FFB
330
1F
100
AcDbEntity
  8
SK3
100
AcDbLine
 10
16.09147860879997
 20
-28.75072688854999
 30
0.0
 11
18.98305750159996
 21
-30.77545020364999
 31
0.0
  0
LINE
  5
FFC
330
1F
100
AcDbEntity
  8
SK3
100
AcDbLine
 10
16.66505846239999
 20
-27.93157723704998
 30
0.0
 11
15.62051133359998
 21
-28.11575458544998
 31
0.0
  0
SPLINE
  5
FFD
330
1F
100
AcDbEntity
  8
SK3
100
AcDbSpline
210
0.0
220
0.0
230
1.0
 70
     8
 71
     3
 72
     9
 73
     5
 74
     3
 42
0.0000000001
 43
0.0000000001
 44
0.0000000001
 12
-0.2967367880946188
 22
-0.9549593072960174
 32
0.0
 13
-0.3450040489100567
 23
-0.9386011965875962
 33
0.0
 40
0.0
 40
0.0
 40
0.0
 40
0.0
 40
0.0110836944825814
 40
0.0987946702904662
 40
0.0987946702904662
 40
0.0987946702904662
 40
0.0987946702904662
 10
19.0147704494
 20
-30.68188716025
 30
0.0
 10
19.01367413609967
 20
-30.68541531931845
 30
0.0
 10
19.00381196103569
 20
-30.71683518520026
 30
0.0
 10
18.99314438219582
 20
-30.74800832803427
 30
0.0
 10
18.98305750159996
 20
-30.77545020364999
 30
0.0
 11
19.0147704494
 21
-30.68188716025
 31
0.0
 11
19.01145113999996
 21
-30.69246215285
 31
0.0
 11
18.98305750159996
 21
-30.77545020364999
 31
0.0
  0
SPLINE
  5
FFE
330
1F
100
AcDbEntity
  8
SK3
100
AcDbSpline
210
0.0
220
0.0
230
1.0
 70
     8
 71
     3
 72
     8
 73
     4
 74
     2
 42
0.0000000001
 43
0.0000000001
 44
0.0000000001
 12
-0.1826871955242453
 22
-0.9831710881588648
 32
0.0
 13
-0.2967367881810085
 23
-0.9549593072691735
 33
0.0
 40
0.0
 40
0.0
 40
0.0
 40
0.0
 40
0.2240349877137911
 40
0.2240349877137911
 40
0.2240349877137911
 40
0.2240349877137911
 10
19.06862081339996
 20
-30.46442034895
 30
0.0
 10
19.05497803886505
 20
-30.53784192316874
 30
0.0
 10
19.03693025696478
 20
-30.61057239469292
 30
0.0
 10
19.0147704494
 20
-30.68188716025
 30
0.0
 11
19.06862081339996
 21
-30.46442034895
 31
0.0
 11
19.0147704494
 21
-30.68188716025
 31
0.0
  0
SPLINE
  5
FFF
330
1F
100
AcDbEntity
  8
SK3
100
AcDbSpline
210
0.0
220
0.0
230
1.0
 70
     8
 71
     3
 72
     8
 73
     4
 74
     2
 42
0.0000000001
 43
0.0000000001
 44
0.0000000001
 12
0.0
 22
-1.0
 32
0.0
 13
-0.1826871957067848
 23
-0.9831710881249463
 33
0.0
 40
0.0
 40
0.0
 40
0.0
 40
0.0
 40
0.3395431330221883
 40
0.3395431330221883
 40
0.3395431330221883
 40
0.3395431330221883
 10
19.09999999999996
 20
-30.12633029315
 30
0.0
 10
19.09999999999996
 20
-30.23951133749073
 30
0.0
 10
19.08929754099774
 20
-30.3531440184304
 30
0.0
 10
19.06862081339996
 20
-30.46442034895
 30
0.0
 11
19.09999999999996
 21
-30.12633029315
 31
0.0
 11
19.06862081339996
 21
-30.46442034895
 31
0.0
  0
SPLINE
  5
1000
330
1F
100
AcDbEntity
  8
1
100
AcDbSpline
210
0.0
220
0.0
230
1.0
 70
     8
 71
     3
 72
    12
 73
     8
 74
     6
 42
0.0000000001
 43
0.0000000001
 44
0.0000000001
 12
-0.9782284101923556
 22
-0.2075311482465627
 32
0.0
 13
0.0000966920952629
 23
-0.9999999953253194
 33
0.0
 40
0.0
 40
0.0
 40
0.0
 40
0.0
 40
0.104581474786131
 40
0.3514029107632341
 40
0.6279957808943576
 40
0.9211542055933346
 40
1.218989734619362
 40
1.218989734619362
 40
1.218989734619362
 40
1.218989734619362
 10
19.81993400349998
 20
-24.77833324735001
 30
0.0
 10
19.78583248022811
 20
-24.78556788519924
 30
0.0
 10
19.67248989562914
 20
-24.81582151355915
 30
0.0
 10
19.48090190422134
 20
-24.90641280402253
 30
0.0
 10
19.27524814143656
 20
-25.0917117220248
 30
0.0
 10
19.13261748956699
 20
-25.34966202472273
 30
0.0
 10
19.09999040055284
 20
-25.54838805723875
 30
0.0
 10
19.09999999999996
 20
-25.64766656645
 30
0.0
 11
19.81993400349998
 21
-24.77833324735001
 31
0.0
 11
19.71891199399999
 21
-24.80538576045001
 31
0.0
 11
19.49617986469998
 21
-24.91173997915001
 31
0.0
 11
19.2911626467
 21
-25.09740515125
 31
0.0
 11
19.1492650344
 21
-25.35393376485001
 31
0.0
 11
19.09999999999996
 21
-25.64766656645
 31
0.0
  0
LINE
  5
1001
330
1F
100
AcDbEntity
  8
SK3
100
AcDbLine
 10
19.24616780359996
 20
-24.24540380535001
 30
0.0
 11
19.97754713069996
 21
-24.75752567045001
 31
0.0
  0
SPLINE
  5
1002
330
1F
100
AcDbEntity
  8
SK3
100
AcDbSpline
210
0.0
220
0.0
230
1.0
 70
     8
 71
     3
 72
    12
 73
     8
 74
     6
 42
0.0000000001
 43
0.0000000001
 44
0.0000000001
 12
-0.9782410642639421
 22
-0.2074714924700496
 32
0.0
 13
0.0000680257135806
 23
-0.9999999976862511
 33
0.0
 40
0.0
 40
0.0
 40
0.0
 40
0.0
 40
0.1040053604994035
 40
0.3508519951942163
 40
0.6276163956620701
 40
0.9210877208358409
 40
1.218982135488671
 40
1.218982135488671
 40
1.218982135488671
 40
1.218982135488671
 10
19.81993786859996
 20
-24.77835147184999
 30
0.0
 10
19.78602376375193
 20
-24.78554418763922
 30
0.0
 10
19.67284354889441
 20
-24.81568345277949
 30
0.0
 10
19.48132301130374
 20
-24.90612977414122
 30
0.0
 10
19.27543596648332
 20
-25.09142758348252
 30
0.0
 10
19.13264282698051
 20
-25.34951802065326
 30
0.0
 10
19.09999324517325
 20
-25.54836842846214
 30
0.0
 10
19.09999999999996
 20
-25.64766656645
 30
0.0
 11
19.81993786859996
 21
-24.77835147184999
 31
0.0
 11
19.71945968179996
 21
-24.80520755104999
 31
0.0
 11
19.49664086199998
 21
-24.91143859454998
 31
0.0
 11
19.29139873169997
 21
-25.09711089005
 31
0.0
 11
19.14928468459998
 21
-25.35387735264999
 31
0.0
 11
19.09999999999996
 21
-25.64766656645
 31
0.0
  0
LINE
  5
1003
330
1F
100
AcDbEntity
  8
SK3
100
AcDbLine
 10
15.62094907749997
 20
-25.06411571295001
 30
0.0
 11
17.15926223719998
 21
-24.37922225665001
 31
0.0
  0
LINE
  5
1004
330
1F
100
AcDbEntity
  8
SK3
100
AcDbLine
 10
18.67258794999997
 20
-25.06455345674998
 30
0.0
 11
18.48841060159998
 21
-24.02000632795
 31
0.0
  0
LINE
  5
1005
330
1F
100
AcDbEntity
  8
SK3
100
AcDbLine
 10
18.49671441339998
 20
-25.31572466745001
 30
0.0
 11
17.15926223719998
 21
-24.37922225665001
 31
0.0
  0
LINE
  5
1006
330
1F
100
AcDbEntity
  8
1
100
AcDbLine
 10
20.09999999999996
 20
-24.75000000005001
 30
0.0
 11
19.97737892349998
 21
-24.75754643855001
 31
0.0
  0
SPLINE
  5
1007
330
1F
100
AcDbEntity
  8
1
100
AcDbSpline
210
0.0
220
0.0
230
1.0
 70
     8
 71
     3
 72
     9
 73
     5
 74
     3
 42
0.0000000001
 43
0.0000000001
 44
0.0000000001
 12
-0.9970551032357846
 22
-0.0766884679171447
 32
0.0
 13
-0.9782284101577062
 23
-0.2075311484098875
 33
0.0
 40
0.0
 40
0.0
 40
0.0
 40
0.0
 40
0.0520989455729502
 40
0.1358153469730133
 40
0.1358153469730133
 40
0.1358153469730133
 40
0.1358153469730133
 10
19.95430318819994
 20
-24.75905304874999
 30
0.0
 10
19.93698801501437
 20
-24.76038484485535
 30
0.0
 10
19.89193358651892
 20
-24.7649832543491
 30
0.0
 10
19.84723192424855
 20
-24.77254199370891
 30
0.0
 10
19.81993400349998
 20
-24.77833324735001
 30
0.0
 11
19.95430318819994
 21
-24.75905304874999
 31
0.0
 11
19.90247404859996
 21
-24.76434836915001
 31
0.0
 11
19.81993400349998
 21
-24.77833324735001
 31
0.0
  0
SPLINE
  5
1008
330
1F
100
AcDbEntity
  8
1
100
AcDbSpline
210
0.0
220
0.0
230
1.0
 70
     8
 71
     3
 72
     8
 73
     4
 74
     2
 42
0.0000000001
 43
0.0000000001
 44
0.0000000001
 12
-0.9985161630981204
 22
-0.0544561477870759
 32
0.0
 13
-0.997055103160538
 23
-0.0766884688954533
 33
0.0
 40
0.0
 40
0.0
 40
0.0
 40
0.0
 40
0.0232940710786134
 40
0.0232940710786134
 40
0.0232940710786134
 40
0.0232940710786134
 10
19.97754713069996
 20
-24.75752567045001
 30
0.0
 10
19.96979396187451
 20
-24.75794850557575
 30
0.0
 10
19.96204501234738
 20
-24.75845758653487
 30
0.0
 10
19.95430318819994
 20
-24.75905304874999
 30
0.0
 11
19.97754713069996
 21
-24.75752567045001
 31
0.0
 11
19.95430318819994
 21
-24.75905304874999
 31
0.0
  0
SPLINE
  5
1009
330
1F
100
AcDbEntity
  8
SK3
100
AcDbSpline
210
0.0
220
0.0
230
1.0
 70
     8
 71
     3
 72
     8
 73
     4
 74
     2
 42
0.0000000001
 43
0.0000000001
 44
0.0000000001
 12
-0.9984225142410339
 22
-0.0561469772704837
 32
0.0
 13
-0.996962550371165
 23
-0.0778824316352687
 33
0.0
 40
0.0
 40
0.0
 40
0.0
 40
0.0
 40
0.0231397243726919
 40
0.0231397243726919
 40
0.0231397243726919
 40
0.0231397243726919
 10
19.97742297119997
 20
-24.75745363585001
 30
0.0
 10
19.96972189727096
 20
-24.75788671104282
 30
0.0
 10
19.96202506887516
 20
-24.7584034745495
 30
0.0
 10
19.954335256
 20
-24.75900420055001
 30
0.0
 11
19.97742297119997
 21
-24.75745363585001
 31
0.0
 11
19.954335256
 21
-24.75900420055001
 31
0.0
  0
LINE
  5
100A
330
1F
100
AcDbEntity
  8
1
100
AcDbLine
 10
44.33493649050001
 20
-24.75000000005001
 30
0.0
 11
46.49999999999997
 21
-21.00000000005001
 31
0.0
  0
LINE
  5
100B
330
1F
100
AcDbEntity
  8
1
100
AcDbLine
 10
61.29999999999999
 20
-21.00000000005001
 30
0.0
 11
69.15743636079998
 21
-21.00000000005001
 31
0.0
  0
LINE
  5
100C
330
1F
100
AcDbEntity
  8
1
100
AcDbLine
 10
55.29999999999998
 20
-21.00000000005001
 30
0.0
 11
56.69999999999996
 21
-21.00000000005001
 31
0.0
  0
ARC
  5
100D
330
1F
100
AcDbEntity
  8
1
100
AcDbCircle
 10
54.49999999999997
 20
-21.00000000005001
 30
0.0
 40
0.8
100
AcDbArc
 50
0.0
 51
180.0
  0
ARC
  5
100E
330
1F
100
AcDbEntity
  8
1
100
AcDbCircle
 10
60.49999999999997
 20
-21.00000000005001
 30
0.0
 40
0.8
100
AcDbArc
 50
0.0
 51
180.0
  0
LINE
  5
100F
330
1F
100
AcDbEntity
  8
1
100
AcDbLine
 10
58.29999999999998
 20
-21.00000000005001
 30
0.0
 11
59.69999999999996
 21
-21.00000000005001
 31
0.0
  0
ARC
  5
1010
330
1F
100
AcDbEntity
  8
1
100
AcDbCircle
 10
57.49999999999997
 20
-21.00000000005001
 30
0.0
 40
0.8
100
AcDbArc
 50
0.0
 51
180.0
  0
INSERT
  5
1011
330
1F
100
AcDbEntity
  8
1
100
AcDbBlockReference
  2
nullpunkt_2
 10
80.5
 20
0.0
 30
0.0
 41
-1.0
 50
180.0
  0
LINE
  5
1012
330
1F
100
AcDbEntity
  8
4
100
AcDbLine
 10
83.50003344109994
 20
-0.0000000000500222
 30
0.0
 11
37.29053617739998
 21
-0.0000000000500222
 31
0.0
  0
LINE
  5
1013
330
1F
100
AcDbEntity
  8
NOCUT
100
AcDbLine
 10
19.10000000000001
 20
30.12633029314996
 30
0.0
 11
19.10000000000001
 21
25.64753674148505
 31
0.0
  0
LINE
  5
1014
330
1F
100
AcDbEntity
  8
1
100
AcDbLine
 10
19.09999999999996
 20
30.12633029314996
 30
0.0
 11
19.09999999999996
 21
6.167915809749985
 31
0.0
  0
LINE
  5
1015
330
1F
100
AcDbEntity
  8
SK3
100
AcDbLine
 10
19.24616780359996
 20
24.24540380525002
 30
0.0
 11
16.09147860879997
 21
28.75072688854999
 31
0.0
  0
LINE
  5
1016
330
1F
100
AcDbEntity
  8
SK3
100
AcDbLine
 10
15.62051133359998
 20
28.11575458544998
 30
0.0
 11
18.48841060159998
 21
24.02000632794996
 31
0.0
  0
LINE
  5
1017
330
1F
100
AcDbEntity
  8
SK3
100
AcDbLine
 10
15.62094907749997
 20
25.06411571294998
 30
0.0
 11
15.50347982289997
 21
26.74390361564996
 31
0.0
  0
LINE
  5
1018
330
1F
100
AcDbEntity
  8
SK3
100
AcDbLine
 10
17.2548776026
 20
27.08923568664999
 30
0.0
 11
15.91742542649997
 21
26.15273327595
 31
0.0
  0
DIMENSION
  5
1019
330
1F
100
AcDbEntity
  8
SK2
100
AcDbDimension
  2
*D8
 10
46.49999999999997
 20
49.30503825624999
 30
0.0
 11
62.93863537369998
 21
49.30503825624999
 31
0.0
 70
   160
 71
     5
 42
34.00000000000003
  3
ISO-25
100
AcDbAlignedDimension
 13
80.5
 23
21.49999999994997
 33
0.0
 14
46.49999999999997
 24
21.49999999994997
 34
0.0
 50
180.0
100
AcDbRotatedDimension
1001
ACAD
1000
DSTYLE
1002
{
1070
   179
1070
     4
1070
   275
1070
     1
1002
}
  0
LINE
  5
101A
330
1F
100
AcDbEntity
  8
NOCUT
100
AcDbLine
 10
46.5
 20
20.99999999994996
 30
0.0
 11
53.69999999999993
 21
20.99999999994996
 31
0.0
  0
LINE
  5
101B
330
1F
100
AcDbEntity
  8
1
100
AcDbLine
 10
46.49999999999997
 20
20.99999999994996
 30
0.0
 11
53.69999999999996
 21
20.99999999994996
 31
0.0
  0
LINE
  5
101C
330
1F
100
AcDbEntity
  8
SK3
100
AcDbLine
 10
76.79999999999996
 20
11.49999999994997
 30
0.0
 11
41.79999999999997
 21
11.49999999994997
 31
0.0
  0
LINE
  5
101D
330
1F
100
AcDbEntity
  8
SK3
100
AcDbLine
 10
53.29999999999998
 20
10.49999999994997
 30
0.0
 11
41.79999999999997
 21
10.49999999994997
 31
0.0
  0
LINE
  5
101E
330
1F
100
AcDbEntity
  8
SK3
100
AcDbLine
 10
39.49999999999996
 20
9.999999999949976
 30
0.0
 11
80.0
 21
9.999999999949976
 31
0.0
  0
LINE
  5
101F
330
1F
100
AcDbEntity
  8
SK3
100
AcDbLine
 10
39.49999999999996
 20
-10.00000000005001
 30
0.0
 11
80.0
 21
-10.00000000005001
 31
0.0
  0
LINE
  5
1020
330
1F
100
AcDbEntity
  8
SK3
100
AcDbLine
 10
53.29999999999998
 20
-10.50000000005001
 30
0.0
 11
41.79999999999997
 21
-10.50000000005001
 31
0.0
  0
LINE
  5
1021
330
1F
100
AcDbEntity
  8
SK3
100
AcDbLine
 10
70.04999999999995
 20
-11.50000000005002
 30
0.0
 11
41.79999999999997
 21
-11.50000000005002
 31
0.0
  0
LINE
  5
1022
330
1F
100
AcDbEntity
  8
SK3
100
AcDbLine
 10
28.73205080759999
 20
-14.00000000005002
 30
0.0
 11
70.04999999999995
 21
-14.00000000005002
 31
0.0
  0
LINE
  5
1023
330
1F
100
AcDbEntity
  8
SK3
100
AcDbLine
 10
28.73205080759999
 20
-16.00000000005001
 30
0.0
 11
71.04999999999995
 21
-16.00000000005001
 31
0.0
  0
SPLINE
  5
1024
330
1F
100
AcDbEntity
  8
1
100
AcDbSpline
210
0.0
220
0.0
230
1.0
 70
     8
 71
     3
 72
    11
 73
     7
 74
     5
 42
0.0000000001
 43
0.0000000001
 44
0.0000000001
 12
0.0
 22
1.0
 32
0.0
 13
0.0
 23
1.0
 33
0.0
 40
0.0
 40
0.0
 40
0.0
 40
0.0
 40
3.130385197454647
 40
6.185461195613669
 40
9.220103890809598
 40
12.35753690567086
 40
12.35753690567086
 40
12.35753690567086
 40
12.35753690567086
 10
19.09999999999996
 20
-6.169481339649991
 30
0.0
 10
19.09999999999996
 20
-5.126019607165108
 30
0.0
 10
19.27678447879502
 20
-3.06987039466391
 30
0.0
 10
19.5183075074148
 20
-0.0000905802689344
 30
0.0
 10
19.27669275030378
 20
3.071975774616225
 30
0.0
 10
19.09999999999996
 20
5.123670334696237
 30
0.0
 10
19.09999999999996
 20
6.169481339649991
 30
0.0
 11
19.09999999999996
 21
-6.169481339649991
 31
0.0
 11
19.27515781989998
 21
-3.044000381050011
 31
0.0
 11
19.43856115339996
 21
0.0067026043499823
 31
0.0
 11
19.27573988819998
 21
3.036974130650008
 31
0.0
 11
19.09999999999996
 21
6.169481339649991
 31
0.0
  0
LINE
  5
1025
330
1F
100
AcDbEntity
  8
SK3
100
AcDbLine
 10
41.79999999999997
 20
11.49999999994997
 30
0.0
 11
41.79999999999997
 21
-11.50000000005002
 31
0.0
  0
LINE
  5
1026
330
1F
100
AcDbEntity
  8
SK3
100
AcDbLine
 10
39.49999999999996
 20
10.99999999994997
 30
0.0
 11
39.49999999999996
 21
-11.00000000005002
 31
0.0
  0
LINE
  5
1027
330
1F
100
AcDbEntity
  8
SK3
100
AcDbLine
 10
29.49999999999997
 20
10.99999999994997
 30
0.0
 11
29.49999999999997
 21
-11.00000000005002
 31
0.0
  0
LINE
  5
1028
330
1F
100
AcDbEntity
  8
SK3
100
AcDbLine
 10
28.99999999999996
 20
7.499999999949977
 30
0.0
 11
28.99999999999996
 21
-7.500000000050022
 31
0.0
  0
DIMENSION
  5
1029
330
1F
100
AcDbEntity
  8
SK2
100
AcDbDimension
  2
*D9
 10
35.99480604261055
 20
-8.000000000050022
 30
0.0
 11
35.99480604261055
 21
0.4139437792499905
 31
0.0
 70
   160
  1
M<>x1
 71
     5
 42
16.0
  3
ISO-25
100
AcDbAlignedDimension
 13
29.57246347919998
 23
7.999999999949977
 33
0.0
 14
29.50971492069996
 24
-8.000000000050022
 34
0.0
 50
270.0
100
AcDbRotatedDimension
1001
ACAD
1000
DSTYLE
1002
{
1070
   179
1070
     4
1070
   275
1070
     1
1002
}
  0
LINE
  5
102B
330
1F
100
AcDbEntity
  8
SK3
100
AcDbLine
 10
29.49999999999997
 20
-11.00000000005002
 30
0.0
 11
39.49999999999996
 21
-11.00000000005002
 31
0.0
  0
CIRCLE
  5
102E
330
1F
100
AcDbEntity
  8
1
100
AcDbCircle
 10
26.99999999999997
 20
-15.00000000005002
 30
0.0
 40
2.0
  0
CIRCLE
  5
102F
330
1F
100
AcDbEntity
  8
1
100
AcDbCircle
 10
26.99999999999997
 20
-15.00000000005002
 30
0.0
 40
3.399999999999999
  0
LINE
  5
1030
330
1F
100
AcDbEntity
  8
SK3
100
AcDbLine
 10
29.00003827519998
 20
-7.499961716749992
 30
0.0
 11
29.50004082679999
 21
-7.999959164550006
 31
0.0
  0
LINE
  5
1031
330
1F
100
AcDbEntity
  8
NOCUT
100
AcDbLine
 10
20.10000000000002
 20
24.74999999994997
 30
0.0
 11
44.33493649050001
 21
24.74999999994997
 31
0.0
  0
LINE
  5
1032
330
1F
100
AcDbEntity
  8
1
100
AcDbLine
 10
20.09999999999996
 20
24.74999999994997
 30
0.0
 11
44.33493649050001
 21
24.74999999994997
 31
0.0
  0
LINE
  5
1033
330
1F
100
AcDbEntity
  8
SK3
100
AcDbLine
 10
29.49999999999997
 20
10.99999999994997
 30
0.0
 11
39.49999999999996
 21
10.99999999994997
 31
0.0
  0
LINE
  5
1034
330
1F
100
AcDbEntity
  8
SK3
100
AcDbLine
 10
29.00003827559999
 20
7.499961717249987
 30
0.0
 11
29.5000408273
 21
7.999959165049999
 31
0.0
  0
SPLINE
  5
1035
330
1F
100
AcDbEntity
  8
NOCUT
100
AcDbSpline
210
0.0
220
0.0
230
1.0
 70
     8
 71
     3
 72
    12
 73
     8
 74
     6
 42
0.0000000001
 43
0.0000000001
 44
0.0000000001
 12
-0.9782293684570767
 22
0.2075266312743232
 32
0.0
 13
0.0000721500727377
 23
0.9999999973971835
 33
0.0
 40
0.0
 40
0.0
 40
0.0
 40
0.0
 40
0.1045801615035112
 40
0.3514011919993067
 40
0.6279955734986166
 40
0.921153330839717
 40
1.218994310666307
 40
1.218994310666307
 40
1.218994310666307
 40
1.218994310666307
 10
19.8199385562999
 20
24.77833228165001
 30
0.0
 10
19.785837427853
 20
24.78556667118833
 30
0.0
 10
19.67249524853056
 20
24.81581954247712
 30
0.0
 10
19.48090666722479
 20
24.90640952476546
 30
0.0
 10
19.27525190670153
 20
25.0917072570145
 30
0.0
 10
19.1326172775916
 20
25.34965851372252
 30
0.0
 10
19.09999283691723
 20
25.54838624009951
 30
0.0
 10
19.10000000000001
 20
25.64766656644996
 30
0.0
 11
19.8199385562999
 21
24.77833228165001
 31
0.0
 11
19.71891766989995
 21
24.80538391175002
 31
0.0
 11
19.49618520460001
 21
24.91173648574998
 31
0.0
 11
19.29116568270001
 21
25.09740136534998
 31
0.0
 11
19.14926685310001
 21
25.35392854294996
 31
0.0
 11
19.10000000000001
 21
25.64766656644996
 31
0.0
  0
SPLINE
  5
1036
330
1F
100
AcDbEntity
  8
1
100
AcDbSpline
210
0.0
220
0.0
230
1.0
 70
     8
 71
     3
 72
    12
 73
     8
 74
     6
 42
0.0000000001
 43
0.0000000001
 44
0.0000000001
 12
-0.9782293684570767
 22
0.2075266312743232
 32
0.0
 13
0.0000721500727377
 23
0.9999999973971835
 33
0.0
 40
0.0
 40
0.0
 40
0.0
 40
0.0
 40
0.1045801615035414
 40
0.3514011919993702
 40
0.6279955734987038
 40
0.9211533308398042
 40
1.21899431066643
 40
1.21899431066643
 40
1.21899431066643
 40
1.21899431066643
 10
19.81993855629996
 20
24.77833228164999
 30
0.0
 10
19.78583742785304
 20
24.78556667118831
 30
0.0
 10
19.67249524853058
 20
24.81581954247709
 30
0.0
 10
19.4809066672248
 20
24.90640952476546
 30
0.0
 10
19.2752519067015
 20
25.09170725701448
 30
0.0
 10
19.13261727759156
 20
25.34965851372253
 30
0.0
 10
19.09999283691717
 20
25.54838624009953
 30
0.0
 10
19.09999999999996
 20
25.64766656645
 30
0.0
 11
19.81993855629996
 21
24.77833228164999
 31
0.0
 11
19.71891766989998
 21
24.80538391175
 31
0.0
 11
19.49618520460001
 21
24.91173648574998
 31
0.0
 11
19.29116568269997
 21
25.09740136534998
 31
0.0
 11
19.14926685309998
 21
25.35392854294996
 31
0.0
 11
19.09999999999996
 21
25.64766656645
 31
0.0
  0
LINE
  5
1037
330
1F
100
AcDbEntity
  8
SK3
100
AcDbLine
 10
19.97754713069996
 20
24.75752567044998
 30
0.0
 11
19.24616780359996
 21
24.24540380525002
 31
0.0
  0
LINE
  5
1038
330
1F
100
AcDbEntity
  8
SK3
100
AcDbLine
 10
15.62094907749997
 20
25.06411571294998
 30
0.0
 11
17.15926223719998
 21
24.37922225664999
 31
0.0
  0
LINE
  5
1039
330
1F
100
AcDbEntity
  8
SK3
100
AcDbLine
 10
18.67258794999997
 20
25.06455345674998
 30
0.0
 11
18.48841060159998
 21
24.02000632794996
 31
0.0
  0
LINE
  5
103A
330
1F
100
AcDbEntity
  8
SK3
100
AcDbLine
 10
18.49671441339998
 20
25.31572466744998
 30
0.0
 11
17.15926223719998
 21
24.37922225664999
 31
0.0
  0
LINE
  5
103B
330
1F
100
AcDbEntity
  8
SK3
100
AcDbLine
 10
18.0827688098
 20
25.90689500714998
 30
0.0
 11
16.74531663369998
 21
24.97039259645001
 31
0.0
  0
LINE
  5
103C
330
1F
100
AcDbEntity
  8
NOCUT
100
AcDbLine
 10
20.10000000000002
 20
24.74999999994997
 30
0.0
 11
19.97739148489995
 21
24.75754488665001
 31
0.0
  0
SPLINE
  5
103D
330
1F
100
AcDbEntity
  8
NOCUT
100
AcDbSpline
210
0.0
220
0.0
230
1.0
 70
     8
 71
     3
 72
     8
 73
     4
 74
     2
 42
0.0000000001
 43
0.0000000001
 44
0.0000000001
 12
-0.9985161623109599
 22
0.0544561622205664
 32
0.0
 13
-0.9970548560866244
 23
0.0766916811269686
 33
0.0
 40
0.0
 40
0.0
 40
0.0
 40
0.0
 40
0.0232974296755316
 40
0.0232974296755316
 40
0.0232974296755316
 40
0.0232974296755316
 10
19.97754713069991
 20
24.75752567044998
 30
0.0
 10
19.96979284400947
 20
24.75794856665322
 30
0.0
 10
19.9620427777641
 20
24.75845773353403
 30
0.0
 10
19.9542998393
 20
24.75905330654995
 30
0.0
 11
19.97754713069991
 21
24.75752567044998
 31
0.0
 11
19.9542998393
 21
24.75905330654995
 31
0.0
  0
SPLINE
  5
103E
330
1F
100
AcDbEntity
  8
NOCUT
100
AcDbSpline
210
0.0
220
0.0
230
1.0
 70
     8
 71
     3
 72
     9
 73
     5
 74
     3
 42
0.0000000001
 43
0.0000000001
 44
0.0000000001
 12
-0.9970548559966045
 22
0.0766916822973015
 32
0.0
 13
-0.9782293685300375
 23
0.2075266309304037
 33
0.0
 40
0.0
 40
0.0
 40
0.0
 40
0.0
 40
0.0520926691555488
 40
0.1358073375400988
 40
0.1358073375400988
 40
0.1358073375400988
 40
0.1358073375400988
 10
19.9542998393
 20
24.75905330654995
 30
0.0
 10
19.93698675638554
 20
24.76038499802758
 30
0.0
 10
19.89193499110757
 20
24.76498314597364
 30
0.0
 10
19.84723593869675
 20
24.77254127395358
 30
0.0
 10
19.8199385562999
 20
24.77833228165001
 30
0.0
 11
19.9542998393
 21
24.75905330654995
 31
0.0
 11
19.90247694469997
 21
24.76434799965
 31
0.0
 11
19.8199385562999
 21
24.77833228165001
 31
0.0
  0
LINE
  5
103F
330
1F
100
AcDbEntity
  8
1
100
AcDbLine
 10
20.09999999999996
 20
24.74999999994997
 30
0.0
 11
19.97739148489998
 21
24.75754488665001
 31
0.0
  0
SPLINE
  5
1040
330
1F
100
AcDbEntity
  8
1
100
AcDbSpline
210
0.0
220
0.0
230
1.0
 70
     8
 71
     3
 72
     9
 73
     5
 74
     3
 42
0.0000000001
 43
0.0000000001
 44
0.0000000001
 12
-0.9970548559966045
 22
0.0766916822973016
 32
0.0
 13
-0.9782293685300375
 23
0.2075266309304038
 33
0.0
 40
0.0
 40
0.0
 40
0.0
 40
0.0
 40
0.0520926691555177
 40
0.1358073375400068
 40
0.1358073375400068
 40
0.1358073375400068
 40
0.1358073375400068
 10
19.95429983929997
 20
24.75905330654998
 30
0.0
 10
19.93698675638552
 20
24.76038499802761
 30
0.0
 10
19.89193499110758
 20
24.76498314597363
 30
0.0
 10
19.84723593869678
 20
24.77254127395356
 30
0.0
 10
19.81993855629996
 20
24.77833228164999
 30
0.0
 11
19.95429983929997
 21
24.75905330654998
 31
0.0
 11
19.90247694469997
 21
24.76434799965
 31
0.0
 11
19.81993855629996
 21
24.77833228164999
 31
0.0
  0
SPLINE
  5
1041
330
1F
100
AcDbEntity
  8
1
100
AcDbSpline
210
0.0
220
0.0
230
1.0
 70
     8
 71
     3
 72
     8
 73
     4
 74
     2
 42
0.0000000001
 43
0.0000000001
 44
0.0000000001
 12
-0.9985161623109599
 22
0.0544561622205664
 32
0.0
 13
-0.9970548560866244
 23
0.0766916811269686
 33
0.0
 40
0.0
 40
0.0
 40
0.0
 40
0.0
 40
0.0232974296756185
 40
0.0232974296756185
 40
0.0232974296756185
 40
0.0232974296756185
 10
19.97754713069996
 20
24.75752567044998
 30
0.0
 10
19.96979284400949
 20
24.75794856665323
 30
0.0
 10
19.9620427777641
 20
24.75845773353405
 30
0.0
 10
19.95429983929997
 20
24.75905330654998
 30
0.0
 11
19.97754713069996
 21
24.75752567044998
 31
0.0
 11
19.95429983929997
 21
24.75905330654998
 31
0.0
  0
LINE
  5
1042
330
1F
100
AcDbEntity
  8
NOCUT
100
AcDbLine
 10
44.33493649050001
 20
24.74999999994997
 30
0.0
 11
46.5
 21
20.99999999994996
 31
0.0
  0
LINE
  5
1043
330
1F
100
AcDbEntity
  8
1
100
AcDbLine
 10
44.33493649050001
 20
24.74999999994997
 30
0.0
 11
46.49999999999997
 21
20.99999999994996
 31
0.0
  0
LINE
  5
1044
330
1F
100
AcDbEntity
  8
NOCUT
100
AcDbLine
 10
80.5
 20
18.58045018445
 30
0.0
 11
80.5
 21
0.0
 31
0.0
  0
LINE
  5
1045
330
1F
100
AcDbEntity
  8
1
100
AcDbLine
 10
80.5
 20
18.58045018445
 30
0.0
 11
80.5
 21
-18.58045018445
 31
0.0
  0
LINE
  5
1046
330
1F
100
AcDbEntity
  8
SK3
100
AcDbLine
 10
80.0
 20
9.999999999949976
 30
0.0
 11
80.0
 21
-10.00000000005001
 31
0.0
  0
LINE
  5
1047
330
1F
100
AcDbEntity
  8
SK3
100
AcDbLine
 10
76.79999999999996
 20
11.49999999994997
 30
0.0
 11
76.79999999999996
 21
-11.50000000005002
 31
0.0
  0
LINE
  5
1048
330
1F
100
AcDbEntity
  8
SK3
100
AcDbLine
 10
65.29999999999995
 20
11.39999999994998
 30
0.0
 11
65.29999999999995
 21
-11.40000000005002
 31
0.0
  0
LINE
  5
1049
330
1F
100
AcDbEntity
  8
SK3
100
AcDbLine
 10
53.29999999999998
 20
11.39999999994998
 30
0.0
 11
53.29999999999998
 21
-11.40000000005002
 31
0.0
  0
LINE
  5
104A
330
1F
100
AcDbEntity
  8
SK3
100
AcDbLine
 10
65.29999999999995
 20
-11.40000000005002
 30
0.0
 11
53.29999999999998
 21
-11.40000000005002
 31
0.0
  0
LINE
  5
104B
330
1F
100
AcDbEntity
  8
SK3
100
AcDbLine
 10
76.79999999999996
 20
-10.50000000005001
 30
0.0
 11
65.29999999999995
 21
-10.50000000005001
 31
0.0
  0
LINE
  5
104C
330
1F
100
AcDbEntity
  8
SK3
100
AcDbLine
 10
76.79999999999996
 20
-11.50000000005002
 30
0.0
 11
72.04999999999995
 21
-11.50000000005002
 31
0.0
  0
LINE
  5
104D
330
1F
100
AcDbEntity
  8
SK3
100
AcDbLine
 10
72.04999999999995
 20
-11.50000000005002
 30
0.0
 11
72.04999999999995
 21
-15.00000000005002
 31
0.0
  0
ARC
  5
104E
330
1F
100
AcDbEntity
  8
SK3
100
AcDbCircle
 10
71.04999999999995
 20
-15.00000000005002
 30
0.0
 40
1.0
100
AcDbArc
 50
270.0
 51
0.0
  0
LINE
  5
104F
330
1F
100
AcDbEntity
  8
SK3
100
AcDbLine
 10
70.04999999999995
 20
-11.50000000005002
 30
0.0
 11
70.04999999999995
 21
-14.00000000005002
 31
0.0
  0
SPLINE
  5
1050
330
1F
100
AcDbEntity
  8
SK3
100
AcDbSpline
210
0.0
220
0.0
230
1.0
 70
     8
 71
     3
 72
    18
 73
    14
 74
    12
 42
0.0000000001
 43
0.0000000001
 44
0.0000000001
 12
0.9962405755064054
 22
0.0866297622914107
 32
0.0
 13
0.9962405758740535
 23
-0.086629758063464
 33
0.0
 40
0.0
 40
0.0
 40
0.0
 40
0.0
 40
0.0400804454816672
 40
0.1583408721518711
 40
0.3455530659818239
 40
0.5848207865744503
 40
0.8598668402675018
 40
1.143837288365284
 40
1.419012780923155
 40
1.657773129066366
 40
1.84502087416105
 40
1.962700464230753
 40
2.002491170412348
 40
2.002491170412348
 40
2.002491170412348
 40
2.002491170412348
 10
70.04999999999995
 20
-11.50000000005002
 30
0.0
 10
70.06330992202435
 20
-11.49884261356181
 30
0.0
 10
70.11589961885852
 20
-11.49436019635478
 30
0.0
 10
70.23073340299885
 20
-11.48535482722776
 30
0.0
 10
70.4119363195902
 20
-11.47353439891998
 30
0.0
 10
70.64554012128422
 20
-11.46261585653696
 30
0.0
 10
70.91158179447475
 20
-11.4561387277393
 30
0.0
 10
71.18967436701942
 20
-11.45615345569507
 30
0.0
 10
71.45558940233548
 20
-11.46265713965199
 30
0.0
 10
71.68907807209989
 20
-11.47359238482341
 30
0.0
 10
71.86992997779589
 20
-11.4854032668465
 30
0.0
 10
71.98448579809613
 20
-11.49439256139329
 30
0.0
 10
72.03678629465303
 20
-11.49885098030012
 30
0.0
 10
72.04999999999995
 20
-11.50000000005002
 30
0.0
 11
70.04999999999995
 21
-11.50000000005002
 31
0.0
 11
70.08993564909997
 21
-11.49659617264997
 31
0.0
 11
70.20783417989997
 21
-11.48735144705
 31
0.0
 11
70.39464952449998
 21
-11.47516815764997
 31
0.0
 11
70.63365655169997
 21
-11.46400200044999
 31
0.0
 11
70.90862122129998
 21
-11.45731155025001
 31
0.0
 11
71.19259166899997
 21
-11.45732658105001
 31
0.0
 11
71.4676849924
 21
-11.46405080035
 31
0.0
 11
71.70618414679996
 21
-11.47521579905
 31
0.0
 11
71.89303407130002
 21
-11.48741513335002
 31
0.0
 11
72.01035308529998
 21
-11.49662028804999
 31
0.0
 11
72.04999999999995
 21
-11.50000000005002
 31
0.0
  0
ARC
  5
1051
330
1F
100
AcDbEntity
  8
1
100
AcDbCircle
 10
80.0
 20
-18.58045018445
 30
0.0
 40
0.5
100
AcDbArc
 50
280.0000000015992
 51
0.0
  0
LINE
  5
1052
330
1F
100
AcDbEntity
  8
SK3
100
AcDbLine
 10
80.0000233573
 20
-9.999976638050013
 30
0.0
 11
80.50002452519999
 21
-10.49997546995
 31
0.0
  0
LINE
  5
1053
330
1F
100
AcDbEntity
  8
NOCUT
100
AcDbLine
 10
61.29999999999995
 20
20.99999999994996
 30
0.0
 11
69.15743636080003
 21
20.99999999994996
 31
0.0
  0
LINE
  5
1054
330
1F
100
AcDbEntity
  8
1
100
AcDbLine
 10
61.29999999999999
 20
20.99999999994996
 30
0.0
 11
69.15743636079998
 21
20.99999999994996
 31
0.0
  0
LINE
  5
1055
330
1F
100
AcDbEntity
  8
SK3
100
AcDbLine
 10
65.29999999999995
 20
11.39999999994998
 30
0.0
 11
53.29999999999998
 21
11.39999999994998
 31
0.0
  0
LINE
  5
1056
330
1F
100
AcDbEntity
  8
NOCUT
100
AcDbLine
 10
55.29999999999995
 20
20.99999999994996
 30
0.0
 11
56.69999999999993
 21
20.99999999994996
 31
0.0
  0
LINE
  5
1057
330
1F
100
AcDbEntity
  8
1
100
AcDbLine
 10
55.29999999999998
 20
20.99999999994996
 30
0.0
 11
56.69999999999996
 21
20.99999999994996
 31
0.0
  0
ARC
  5
1058
330
1F
100
AcDbEntity
  8
NOCUT
100
AcDbCircle
 10
54.5
 20
20.99999999994996
 30
0.0
 40
0.8
100
AcDbArc
 50
180.0
 51
0.0
  0
ARC
  5
1059
330
1F
100
AcDbEntity
  8
1
100
AcDbCircle
 10
54.49999999999997
 20
20.99999999994996
 30
0.0
 40
0.8
100
AcDbArc
 50
180.0
 51
0.0
  0
ARC
  5
105A
330
1F
100
AcDbEntity
  8
NOCUT
100
AcDbCircle
 10
60.5
 20
20.99999999994996
 30
0.0
 40
0.8
100
AcDbArc
 50
180.0
 51
0.0
  0
ARC
  5
105B
330
1F
100
AcDbEntity
  8
NOCUT
100
AcDbCircle
 10
57.5
 20
20.99999999994996
 30
0.0
 40
0.8
100
AcDbArc
 50
180.0
 51
0.0
  0
ARC
  5
105C
330
1F
100
AcDbEntity
  8
1
100
AcDbCircle
 10
60.49999999999997
 20
20.99999999994996
 30
0.0
 40
0.8
100
AcDbArc
 50
180.0
 51
0.0
  0
ARC
  5
105D
330
1F
100
AcDbEntity
  8
1
100
AcDbCircle
 10
57.49999999999997
 20
20.99999999994996
 30
0.0
 40
0.8
100
AcDbArc
 50
180.0
 51
0.0
  0
LINE
  5
105E
330
1F
100
AcDbEntity
  8
NOCUT
100
AcDbLine
 10
58.29999999999995
 20
20.99999999994996
 30
0.0
 11
59.69999999999993
 21
20.99999999994996
 31
0.0
  0
LINE
  5
105F
330
1F
100
AcDbEntity
  8
1
100
AcDbLine
 10
58.29999999999998
 20
20.99999999994996
 30
0.0
 11
59.69999999999996
 21
20.99999999994996
 31
0.0
  0
LINE
  5
1060
330
1F
100
AcDbEntity
  8
SK3
100
AcDbLine
 10
76.79999999999996
 20
10.49999999994997
 30
0.0
 11
65.29999999999995
 21
10.49999999994997
 31
0.0
  0
LINE
  5
1061
330
1F
100
AcDbEntity
  8
SK3
100
AcDbLine
 10
80.00002335760001
 20
9.999976638250016
 30
0.0
 11
80.50002452550002
 21
10.49997547025
 31
0.0
  0
LINE
  5
1062
330
1F
100
AcDbEntity
  8
NOCUT
100
AcDbLine
 10
69.15743636080003
 20
20.99999999994996
 30
0.0
 11
80.08682408879996
 21
19.07285406095001
 31
0.0
  0
LINE
  5
1063
330
1F
100
AcDbEntity
  8
1
100
AcDbLine
 10
69.15743636079998
 20
20.99999999994996
 30
0.0
 11
80.08682408879996
 21
19.07285406095001
 31
0.0
  0
ARC
  5
1064
330
1F
100
AcDbEntity
  8
NOCUT
100
AcDbCircle
 10
80.0
 20
18.58045018445
 30
0.0
 40
0.5
100
AcDbArc
 50
0.0
 51
79.99999999910023
  0
ARC
  5
1065
330
1F
100
AcDbEntity
  8
1
100
AcDbCircle
 10
80.0
 20
18.58045018445
 30
0.0
 40
0.5
100
AcDbArc
 50
0.0
 51
79.99999999910023
  0
SPLINE
  5
1066
330
1F
100
AcDbEntity
  8
NOCUT
100
AcDbSpline
210
0.0
220
0.0
230
1.0
 70
     8
 71
     3
 72
    10
 73
     6
 74
     4
 42
0.0000000001
 43
0.0000000001
 44
0.0000000001
 12
0.0
 22
1.0
 32
0.0
 13
-0.345003736873367
 23
0.9386013112836636
 33
0.0
 40
0.0
 40
0.0
 40
0.0
 40
0.0
 40
0.340848232283205
 40
0.5752656246777143
 40
0.6623488989398481
 40
0.6623488989398481
 40
0.6623488989398481
 40
0.6623488989398481
 10
19.10000000000001
 20
30.12633029314996
 30
0.0
 10
19.10000000000001
 20
30.2399463705777
 30
0.0
 10
19.08184579887603
 20
30.43221016776002
 30
0.0
 10
19.02779822350797
 20
30.64678173632034
 30
0.0
 10
18.9930721866132
 20
30.74820471184561
 30
0.0
 10
18.9830575016
 20
30.77545020365004
 30
0.0
 11
19.10000000000001
 21
30.12633029314996
 31
0.0
 11
19.0683808678999
 21
30.46570876614998
 31
0.0
 11
19.01126130930004
 21
30.69306062974999
 31
0.0
 11
18.9830575016
 21
30.77545020365004
 31
0.0
  0
ARC
  5
1067
330
1F
100
AcDbEntity
  8
NOCUT
100
AcDbCircle
 10
17.5
 20
30.17499999994999
 30
0.0
 40
1.6
100
AcDbArc
 50
22.04170473469901
 51
90.0
  0
ARC
  5
1068
330
1F
100
AcDbEntity
  8
1
100
AcDbCircle
 10
17.49999999999997
 20
30.17499999994999
 30
0.0
 40
1.6
100
AcDbArc
 50
22.04170473469901
 51
90.0
  0
SPLINE
  5
1069
330
1F
100
AcDbEntity
  8
1
100
AcDbSpline
210
0.0
220
0.0
230
1.0
 70
     8
 71
     3
 72
    10
 73
     6
 74
     4
 42
0.0000000001
 43
0.0000000001
 44
0.0000000001
 12
0.0
 22
1.0
 32
0.0
 13
-0.345003736873367
 23
0.9386013112836636
 33
0.0
 40
0.0
 40
0.0
 40
0.0
 40
0.0
 40
0.340848232283226
 40
0.5752656246777328
 40
0.6623488989398317
 40
0.6623488989398317
 40
0.6623488989398317
 40
0.6623488989398317
 10
19.09999999999996
 20
30.12633029314996
 30
0.0
 10
19.09999999999996
 20
30.23994637057771
 30
0.0
 10
19.08184579887622
 20
30.43221016776007
 30
0.0
 10
19.02779822350787
 20
30.64678173632032
 30
0.0
 10
18.99307218661316
 20
30.74820471184559
 30
0.0
 10
18.98305750159996
 20
30.77545020365002
 30
0.0
 11
19.09999999999996
 21
30.12633029314996
 31
0.0
 11
19.06838086789996
 21
30.46570876615001
 31
0.0
 11
19.01126130929998
 21
30.69306062974999
 31
0.0
 11
18.98305750159996
 21
30.77545020365002
 31
0.0
  0
LINE
  5
106A
330
1F
100
AcDbEntity
  8
SK3
100
AcDbLine
 10
16.66505846239999
 20
27.93157723704996
 30
0.0
 11
15.62051133359998
 21
28.11575458544998
 31
0.0
  0
LINE
  5
106B
330
1F
100
AcDbEntity
  8
SK3
100
AcDbLine
 10
16.84093199899999
 20
27.68040602645001
 30
0.0
 11
15.50347982289997
 21
26.74390361564996
 31
0.0
  0
LINE
  5
106C
330
1F
100
AcDbEntity
  8
SK3
100
AcDbLine
 10
18.98305750159996
 20
30.77545020365002
 30
0.0
 11
16.09147860879997
 21
28.75072688854999
 31
0.0
  0
SPLINE
  5
106D
330
1F
100
AcDbEntity
  8
SK3
100
AcDbSpline
210
0.0
220
0.0
230
1.0
 70
     8
 71
     3
 72
     8
 73
     4
 74
     2
 42
0.0000000001
 43
0.0000000001
 44
0.0000000001
 12
0.1826700357934258
 22
-0.9831742765264094
 32
0.0
 13
0.0
 23
-1.0
 33
0.0
 40
0.0
 40
0.0
 40
0.0
 40
0.0
 40
0.3394970858938816
 40
0.3394970858938816
 40
0.3394970858938816
 40
0.3394970858938816
 10
19.06862951759998
 20
30.46437491174998
 30
0.0
 10
19.08930149921064
 20
30.3531133111478
 30
0.0
 10
19.09999999999996
 20
30.23949598844792
 30
0.0
 10
19.09999999999996
 20
30.12633029314996
 30
0.0
 11
19.06862951759998
 21
30.46437491174998
 31
0.0
 11
19.09999999999996
 21
30.12633029314996
 31
0.0
  0
SPLINE
  5
106E
330
1F
100
AcDbEntity
  8
SK3
100
AcDbSpline
210
0.0
220
0.0
230
1.0
 70
     8
 71
     3
 72
     8
 73
     4
 74
     2
 42
0.0000000001
 43
0.0000000001
 44
0.0000000001
 12
0.2504620551769164
 22
-0.9681264168054475
 32
0.0
 13
0.1826700362865237
 23
-0.9831742764347938
 33
0.0
 40
0.0
 40
0.0
 40
0.0
 40
0.0
 40
0.1317541524720205
 40
0.1317541524720205
 40
0.1317541524720205
 40
0.1317541524720205
 10
19.0400672392
 20
30.59299587794998
 30
0.0
 10
19.05106704446874
 20
30.55047765277266
 30
0.0
 10
19.06060700566232
 20
30.5075540095913
 30
0.0
 10
19.06862951759998
 20
30.46437491174998
 30
0.0
 11
19.0400672392
 21
30.59299587794998
 31
0.0
 11
19.06862951759998
 21
30.46437491174998
 31
0.0
  0
SPLINE
  5
106F
330
1F
100
AcDbEntity
  8
SK3
100
AcDbSpline
210
0.0
220
0.0
230
1.0
 70
     8
 71
     3
 72
     8
 73
     4
 74
     2
 42
0.0000000001
 43
0.0000000001
 44
0.0000000001
 12
0.2923236592494322
 22
-0.9563194436186174
 32
0.0
 13
0.2504620552960493
 23
-0.9681264167746268
 33
0.0
 40
0.0
 40
0.0
 40
0.0
 40
0.0
 40
0.0835187770153937
 40
0.0835187770153937
 40
0.0835187770153937
 40
0.0835187770153937
 10
19.01739297909998
 20
30.67337786625
 30
0.0
 10
19.02553115060437
 20
30.64675432279431
 30
0.0
 10
19.0330944776843
 20
30.61994812272509
 30
0.0
 10
19.0400672392
 20
30.59299587794998
 30
0.0
 11
19.01739297909998
 21
30.67337786625
 31
0.0
 11
19.0400672392
 21
30.59299587794998
 31
0.0
  0
SPLINE
  5
1070
330
1F
100
AcDbEntity
  8
SK3
100
AcDbSpline
210
0.0
220
0.0
230
1.0
 70
     8
 71
     3
 72
     9
 73
     5
 74
     3
 42
0.0000000001
 43
0.0000000001
 44
0.0000000001
 12
0.3055304241393588
 22
-0.9521823144362763
 32
0.0
 13
0.2923236602640189
 23
-0.9563194433084827
 33
0.0
 40
0.0
 40
0.0
 40
0.0
 40
0.0
 40
0.0076572608747745
 40
0.0267201040834444
 40
0.0267201040834444
 40
0.0267201040834444
 40
0.0267201040834444
 10
19.00940539209999
 20
30.69887601185001
 30
0.0
 10
19.01018523415427
 20
30.69644564238935
 30
0.0
 10
19.01288970418592
 20
30.68795945331071
 30
0.0
 10
19.01553547239938
 20
30.67945458878506
 30
0.0
 10
19.01739297909998
 20
30.67337786625
 30
0.0
 11
19.00940539209999
 21
30.69887601185001
 31
0.0
 11
19.01173046959998
 21
30.69158028304999
 31
0.0
 11
19.01739297909998
 21
30.67337786625
 31
0.0
  0
SPLINE
  5
1071
330
1F
100
AcDbEntity
  8
SK3
100
AcDbSpline
210
0.0
220
0.0
230
1.0
 70
     8
 71
     3
 72
     8
 73
     4
 74
     2
 42
0.0000000001
 43
0.0000000001
 44
0.0000000001
 12
0.3450066989646452
 22
-0.9386002224959884
 32
0.0
 13
0.3055304227695431
 23
-0.9521823148758141
 33
0.0
 40
0.0
 40
0.0
 40
0.0
 40
0.0
 40
0.0809803567763548
 40
0.0809803567763548
 40
0.0809803567763548
 40
0.0809803567763548
 10
18.98305750159996
 20
30.77545020365002
 30
0.0
 10
18.99237042345743
 20
30.75011414335399
 30
0.0
 10
19.00115807121936
 20
30.72457869970827
 30
0.0
 10
19.00940539209999
 20
30.69887601185001
 30
0.0
 11
18.98305750159996
 21
30.77545020365002
 31
0.0
 11
19.00940539209999
 21
30.69887601185001
 31
0.0
  0
DIMENSION
  5
1072
330
1F
100
AcDbEntity
  8
SK2
100
AcDbDimension
  2
*D10
 10
92.87503076829999
 20
9.999999999949974
 30
0.0
 11
92.87503076829999
 21
0.4365379384499876
 31
0.0
 70
   160
  1
%%c<>
 71
     5
 42
20.0
  3
ISO-25
100
AcDbAlignedDimension
 13
81.0
 23
-10.00000000005001
 33
0.0
 14
81.0
 24
9.999999999949976
 34
0.0
 50
90.0
100
AcDbRotatedDimension
1001
ACAD
1000
DSTYLE
1002
{
1070
   179
1070
     4
1070
   275
1070
     1
1002
}
  0
ENDSEC
  0
SECTION
  2
OBJECTS
  0
DICTIONARY
  5
9AF
330
0
100
AcDbDictionary
281
     1
  3
ACAD_GROUP
350
9B0
  3
ACAD_LAYOUT
350
9B8
  3
ACAD_MLINESTYLE
350
9B1
  3
ACAD_PLOTSETTINGS
350
9B9
  3
ACAD_PLOTSTYLENAME
350
9B6
  0
DICTIONARY
  5
9B0
102
{ACAD_REACTORS
330
9AF
102
}
330
9AF
100
AcDbDictionary
281
     1
  0
DICTIONARY
  5
9B8
102
{ACAD_REACTORS
330
9AF
102
}
330
9AF
100
AcDbDictionary
281
     1
  3
Layout1
350
9BB
  3
Model
350
9BA
  0
DICTIONARY
  5
9B1
102
{ACAD_REACTORS
330
9AF
102
}
330
9AF
100
AcDbDictionary
281
     1
  3
STANDARD
350
9B2
  0
DICTIONARY
  5
9B9
102
{ACAD_REACTORS
330
9AF
102
}
330
9AF
100
AcDbDictionary
281
     1
  0
ACDBDICTIONARYWDFLT
  5
9B6
102
{ACAD_REACTORS
330
9AF
102
}
330
9AF
100
AcDbDictionary
281
     1
  3
Normal
350
9B7
100
AcDbDictionaryWithDefault
340
9B7
  0
LAYOUT
  5
9BB
102
{ACAD_REACTORS
330
9B8
102
}
330
9B8
100
AcDbPlotSettings
  1

  2
Kein
  4

  6

 40
0.0
 41
0.0
 42
0.0
 43
0.0
 44
0.0
 45
0.0
 46
0.0
 47
0.0
 48
0.0
 49
0.0
140
0.0
141
0.0
142
1.0
143
1.0
 70
   688
 72
     0
 73
     0
 74
     5
  7

 75
    16
147
1.0
148
0.0
149
0.0
100
AcDbLayout
  1
Layout1
 70
     1
 71
     1
 10
0.0
 20
0.0
 11
12.0
 21
9.0
 12
0.0
 22
0.0
 32
0.0
 14
1.000000000000000E+20
 24
1.000000000000000E+20
 34
1.000000000000000E+20
 15
-1.000000000000000E+20
 25
-1.000000000000000E+20
 35
-1.000000000000000E+20
146
0.0
 13
0.0
 23
0.0
 33
0.0
 16
1.0
 26
0.0
 36
0.0
 17
0.0
 27
1.0
 37
0.0
 76
     0
330
1B
  0
LAYOUT
  5
9BA
102
{ACAD_REACTORS
330
9B8
102
}
330
9B8
100
AcDbPlotSettings
  1

  2
Kein
  4

  6

 40
0.0
 41
0.0
 42
0.0
 43
0.0
 44
0.0
 45
0.0
 46
0.0
 47
0.0
 48
0.0
 49
0.0
140
0.0
141
0.0
142
1.0
143
1.0
 70
  1712
 72
     0
 73
     0
 74
     0
  7

 75
     0
147
1.0
148
0.0
149
0.0
100
AcDbLayout
  1
Model
 70
     1
 71
     0
 10
0.0
 20
0.0
 11
12.0
 21
9.0
 12
0.0
 22
0.0
 32
0.0
 14
0.0
 24
0.0
 34
0.0
 15
0.0
 25
0.0
 35
0.0
146
0.0
 13
0.0
 23
0.0
 33
0.0
 16
1.0
 26
0.0
 36
0.0
 17
0.0
 27
1.0
 37
0.0
 76
     0
330
1F
  0
MLINESTYLE
  5
9B2
102
{ACAD_REACTORS
330
9B1
102
}
330
9B1
100
AcDbMlineStyle
  2
STANDARD
 70
     0
  3

 62
   256
 51
90.0
 52
90.0
 71
     2
 49
0.5
 62
   256
  6
BYLAYER
 49
-0.5
 62
   256
  6
BYLAYER
  0
ACDBPLACEHOLDER
  5
9B7
102
{ACAD_REACTORS
330
9B6
102
}
330
9B6
  0
ENDSEC
  0
EOF
