  0
SECTION
  2
HEADER
  9
$ACADVER
  1
AC1015
  9
$ACADMAINTVER
 70
    10
  9
$DWGCODEPAGE
  3
ANSI_1252
  9
$INSBASE
 10
0.0
 20
0.0
 30
0.0
  9
$EXTMIN
 10
-71.42812825539659
 20
-68.66073268004061
 30
-0.0000000000000012
  9
$EXTMAX
 10
114.9063493347373
 20
63.26346437383517
 30
0.0000000000000149
  9
$LIMMIN
 10
0.0
 20
0.0
  9
$LIMMAX
 10
420.0
 20
297.0
  9
$ORTHOMODE
 70
     0
  9
$REGENMODE
 70
     1
  9
$FILLMODE
 70
     1
  9
$QTEXTMODE
 70
     0
  9
$MIRRTEXT
 70
     1
  9
$LTSCALE
 40
23.1
  9
$ATTMODE
 70
     1
  9
$TEXTSIZE
 40
0.2
  9
$TRACEWID
 40
0.05
  9
$TEXTSTYLE
  7
STANDARD
  9
$CLAYER
  8
0
  9
$CELTYPE
  6
BYLAYER
  9
$CECOLOR
 62
   256
  9
$CELTSCALE
 40
1.0
  9
$DISPSILH
 70
     0
  9
$DIMSCALE
 40
1.0
  9
$DIMASZ
 40
2.5
  9
$DIMEXO
 40
0.0625
  9
$DIMDLI
 40
0.38
  9
$DIMRND
 40
0.0
  9
$DIMDLE
 40
0.0
  9
$DIMEXE
 40
0.18
  9
$DIMTP
 40
0.01
  9
$DIMTM
 40
0.01
  9
$DIMTXT
 40
3.5
  9
$DIMCEN
 40
0.09
  9
$DIMTSZ
 40
0.0
  9
$DIMTOL
 70
     1
  9
$DIMLIM
 70
     0
  9
$DIMTIH
 70
     0
  9
$DIMTOH
 70
     0
  9
$DIMSE1
 70
     0
  9
$DIMSE2
 70
     0
  9
$DIMTAD
 70
     1
  9
$DIMZIN
 70
     8
  9
$DIMBLK
  1
_ARROW_FILLED
  9
$DIMASO
 70
     1
  9
$DIMSHO
 70
     1
  9
$DIMPOST
  1

  9
$DIMAPOST
  1

  9
$DIMALT
 70
     0
  9
$DIMALTD
 70
     2
  9
$DIMALTF
 40
25.4
  9
$DIMLFAC
 40
1.0
  9
$DIMTOFL
 70
     0
  9
$DIMTVP
 40
0.0
  9
$DIMTIX
 70
     0
  9
$DIMSOXD
 70
     0
  9
$DIMSAH
 70
     0
  9
$DIMBLK1
  1
_ARROW_FILLED
  9
$DIMBLK2
  1
_ARROW_FILLED
  9
$DIMSTYLE
  2
STANDARD
  9
$DIMCLRD
 70
     0
  9
$DIMCLRE
 70
     0
  9
$DIMCLRT
 70
     5
  9
$DIMTFAC
 40
1.0
  9
$DIMGAP
 40
0.09
  9
$DIMJUST
 70
     0
  9
$DIMSD1
 70
     0
  9
$DIMSD2
 70
     0
  9
$DIMTOLJ
 70
     1
  9
$DIMTZIN
 70
     8
  9
$DIMALTZ
 70
     0
  9
$DIMALTTZ
 70
     0
  9
$DIMUPT
 70
     0
  9
$DIMDEC
 70
     3
  9
$DIMTDEC
 70
     3
  9
$DIMALTU
 70
     2
  9
$DIMALTTD
 70
     2
  9
$DIMTXSTY
  7
STANDARD
  9
$DIMAUNIT
 70
     0
  9
$DIMADEC
 70
     0
  9
$DIMALTRND
 40
0.0
  9
$DIMAZIN
 70
     0
  9
$DIMDSEP
 70
    46
  9
$DIMATFIT
 70
     3
  9
$DIMFRAC
 70
     0
  9
$DIMLDRBLK
  1
_ARROW_FILLED
  9
$DIMLUNIT
 70
     2
  9
$DIMLWD
 70
    -2
  9
$DIMLWE
 70
    -2
  9
$DIMTMOVE
 70
     0
  9
$LUNITS
 70
     2
  9
$LUPREC
 70
     4
  9
$SKETCHINC
 40
0.1
  9
$FILLETRAD
 40
0.0
  9
$AUNITS
 70
     0
  9
$AUPREC
 70
     0
  9
$MENU
  1
.
  9
$ELEVATION
 40
0.0
  9
$PELEVATION
 40
0.0
  9
$THICKNESS
 40
0.0
  9
$LIMCHECK
 70
     0
  9
$CHAMFERA
 40
0.0
  9
$CHAMFERB
 40
0.0
  9
$CHAMFERC
 40
0.0
  9
$CHAMFERD
 40
0.0
  9
$SKPOLY
 70
     0
  9
$TDCREATE
 40
2453886.623649814
  9
$TDUCREATE
 40
2453886.540316481
  9
$TDUPDATE
 40
2453889.532984652
  9
$TDUUPDATE
 40
2453889.449651319
  9
$TDINDWG
 40
0.1056248495
  9
$TDUSRTIMER
 40
0.1056246644
  9
$USRTIMER
 70
     1
  9
$ANGBASE
 50
0.0
  9
$ANGDIR
 70
     0
  9
$PDMODE
 70
     3
  9
$PDSIZE
 40
0.3125
  9
$PLINEWID
 40
0.0
  9
$SPLFRAME
 70
     0
  9
$SPLINETYPE
 70
     6
  9
$SPLINESEGS
 70
     8
  9
$HANDSEED
  5
12D9
  9
$SURFTAB1
 70
     6
  9
$SURFTAB2
 70
     6
  9
$SURFTYPE
 70
     6
  9
$SURFU
 70
     6
  9
$SURFV
 70
     6
  9
$UCSBASE
  2

  9
$UCSNAME
  2

  9
$UCSORG
 10
0.0
 20
0.0
 30
0.0
  9
$UCSXDIR
 10
1.0
 20
0.0
 30
0.0
  9
$UCSYDIR
 10
0.0
 20
1.0
 30
0.0
  9
$UCSORTHOREF
  2

  9
$UCSORTHOVIEW
 70
     0
  9
$UCSORGTOP
 10
0.0
 20
0.0
 30
0.0
  9
$UCSORGBOTTOM
 10
0.0
 20
0.0
 30
0.0
  9
$UCSORGLEFT
 10
0.0
 20
0.0
 30
0.0
  9
$UCSORGRIGHT
 10
0.0
 20
0.0
 30
0.0
  9
$UCSORGFRONT
 10
0.0
 20
0.0
 30
0.0
  9
$UCSORGBACK
 10
0.0
 20
0.0
 30
0.0
  9
$PUCSBASE
  2

  9
$PUCSNAME
  2

  9
$PUCSORG
 10
0.0
 20
0.0
 30
0.0
  9
$PUCSXDIR
 10
1.0
 20
0.0
 30
0.0
  9
$PUCSYDIR
 10
0.0
 20
1.0
 30
0.0
  9
$PUCSORTHOREF
  2

  9
$PUCSORTHOVIEW
 70
     0
  9
$PUCSORGTOP
 10
0.0
 20
0.0
 30
0.0
  9
$PUCSORGBOTTOM
 10
0.0
 20
0.0
 30
0.0
  9
$PUCSORGLEFT
 10
0.0
 20
0.0
 30
0.0
  9
$PUCSORGRIGHT
 10
0.0
 20
0.0
 30
0.0
  9
$PUCSORGFRONT
 10
0.0
 20
0.0
 30
0.0
  9
$PUCSORGBACK
 10
0.0
 20
0.0
 30
0.0
  9
$USERI1
 70
     0
  9
$USERI2
 70
     0
  9
$USERI3
 70
     0
  9
$USERI4
 70
     0
  9
$USERI5
 70
     0
  9
$USERR1
 40
0.0
  9
$USERR2
 40
0.0
  9
$USERR3
 40
0.0
  9
$USERR4
 40
0.0
  9
$USERR5
 40
0.0
  9
$WORLDVIEW
 70
     1
  9
$SHADEDGE
 70
     3
  9
$SHADEDIF
 70
    70
  9
$TILEMODE
 70
     1
  9
$MAXACTVP
 70
    64
  9
$PINSBASE
 10
0.0
 20
0.0
 30
0.0
  9
$PLIMCHECK
 70
     0
  9
$PEXTMIN
 10
1.000000000000000E+20
 20
1.000000000000000E+20
 30
1.000000000000000E+20
  9
$PEXTMAX
 10
-1.000000000000000E+20
 20
-1.000000000000000E+20
 30
-1.000000000000000E+20
  9
$PLIMMIN
 10
0.0
 20
0.0
  9
$PLIMMAX
 10
12.0
 20
9.0
  9
$UNITMODE
 70
     0
  9
$VISRETAIN
 70
     1
  9
$PLINEGEN
 70
     0
  9
$PSLTSCALE
 70
     1
  9
$TREEDEPTH
 70
  3020
  9
$CMLSTYLE
  2
STANDARD
  9
$CMLJUST
 70
     0
  9
$CMLSCALE
 40
1.0
  9
$PROXYGRAPHICS
 70
     1
  9
$MEASUREMENT
 70
     1
  9
$CELWEIGHT
370
    -1
  9
$ENDCAPS
280
     0
  9
$JOINSTYLE
280
     0
  9
$LWDISPLAY
290
     0
  9
$INSUNITS
 70
     0
  9
$HYPERLINKBASE
  1

  9
$STYLESHEET
  1

  9
$XEDIT
290
     1
  9
$CEPSNTYPE
380
     0
  9
$PSTYLEMODE
290
     1
  9
$FINGERPRINTGUID
  2
{30681769-B0F7-41B4-BDD0-21BFC54618C5}
  9
$VERSIONGUID
  2
{42AC8083-3D7C-4129-ABCC-4A7C33CB40DF}
  9
$EXTNAMES
290
     1
  9
$PSVPSCALE
 40
0.0
  9
$OLESTARTUP
290
     0
  0
ENDSEC
  0
SECTION
  2
CLASSES
  0
CLASS
  1
ACDBDICTIONARYWDFLT
  2
AcDbDictionaryWithDefault
  3
AutoCAD 2000
 90
        0
280
     0
281
     0
  0
CLASS
  1
ACDBPLACEHOLDER
  2
AcDbPlaceHolder
  3
AutoCAD 2000
 90
        0
280
     0
281
     0
  0
CLASS
  1
LAYOUT
  2
AcDbLayout
  3
AutoCAD 2000
 90
        0
280
     0
281
     0
  0
ENDSEC
  0
SECTION
  2
TABLES
  0
TABLE
  2
VPORT
  5
8
330
0
100
AcDbSymbolTable
 70
     3
  0
VPORT
  5
12D8
330
8
100
AcDbSymbolTableRecord
100
AcDbViewportTableRecord
  2
*Active
 70
     0
 10
0.0
 20
0.0
 11
1.0
 21
1.0
 12
21.73911053967037
 22
-2.698634153102716
 13
0.0
 23
0.0
 14
1.0
 24
1.0
 15
0.0
 25
0.0
 16
0.0
 26
0.0
 36
1.0
 17
0.0
 27
0.0
 37
0.0
 40
132.7086818728284
 41
1.539682539682539
 42
50.0
 43
0.0
 44
0.0
 50
0.0
 51
0.0
 71
     0
 72
   100
 73
     1
 74
     1
 75
     0
 76
     0
 77
     0
 78
     0
281
     0
 65
     1
110
0.0
120
0.0
130
0.0
111
1.0
121
0.0
131
0.0
112
0.0
122
1.0
132
0.0
 79
     0
146
0.0
  0
ENDTAB
  0
TABLE
  2
LTYPE
  5
5
330
0
100
AcDbSymbolTable
 70
     3
  0
LTYPE
  5
14
330
5
100
AcDbSymbolTableRecord
100
AcDbLinetypeTableRecord
  2
BYBLOCK
 70
     0
  3

 72
    65
 73
     0
 40
0.0
  0
LTYPE
  5
15
330
5
100
AcDbSymbolTableRecord
100
AcDbLinetypeTableRecord
  2
BYLAYER
 70
     0
  3

 72
    65
 73
     0
 40
0.0
  0
LTYPE
  5
16
330
5
100
AcDbSymbolTableRecord
100
AcDbLinetypeTableRecord
  2
CONTINUOUS
 70
     0
  3
Solid line
 72
    65
 73
     0
 40
0.0
  0
LTYPE
  5
1F5
330
5
100
AcDbSymbolTableRecord
100
AcDbLinetypeTableRecord
  2
CENTER
 70
     0
  3
____ _ ____ _ ____ _ ____ _ ____ _ ____ _ ____
 72
    65
 73
     4
 40
0.6
 49
0.375
 74
     0
 49
-0.075
 74
     0
 49
0.075
 74
     0
 49
-0.075
 74
     0
  0
LTYPE
  5
1F6
330
5
100
AcDbSymbolTableRecord
100
AcDbLinetypeTableRecord
  2
HIDDEN
 70
     0
  3
- - - - - - - - - - - - - - - - - - - -
 72
    65
 73
     2
 40
0.2
 49
0.1
 74
     0
 49
-0.1
 74
     0
  0
ENDTAB
  0
TABLE
  2
LAYER
  5
2
330
0
100
AcDbSymbolTable
 70
     9
  0
LAYER
  5
10
330
2
100
AcDbSymbolTableRecord
100
AcDbLayerTableRecord
  2
0
 70
     0
 62
     7
  6
CONTINUOUS
370
    -3
390
9B7
  0
LAYER
  5
A35
330
2
100
AcDbSymbolTableRecord
100
AcDbLayerTableRecord
  2
Defpoints
 70
     0
 62
     7
  6
CONTINUOUS
290
     0
370
    -3
390
9B7
  0
LAYER
  5
A36
330
2
100
AcDbSymbolTableRecord
100
AcDbLayerTableRecord
  2
1
 70
     0
 62
     4
  6
CONTINUOUS
370
    -3
390
9B7
  0
LAYER
  5
A37
330
2
100
AcDbSymbolTableRecord
100
AcDbLayerTableRecord
  2
4
 70
     0
 62
     2
  6
CENTER
370
    -3
390
9B7
  0
LAYER
  5
A38
330
2
100
AcDbSymbolTableRecord
100
AcDbLayerTableRecord
  2
6
 70
     0
 62
     5
  6
CONTINUOUS
370
    -3
390
9B7
  0
LAYER
  5
A39
330
2
100
AcDbSymbolTableRecord
100
AcDbLayerTableRecord
  2
NOCUT
 70
     0
 62
     7
  6
CONTINUOUS
370
    -3
390
9B7
  0
LAYER
  5
A3A
330
2
100
AcDbSymbolTableRecord
100
AcDbLayerTableRecord
  2
2
 70
     0
 62
     7
  6
CONTINUOUS
370
    -3
390
9B7
  0
LAYER
  5
A3B
330
2
100
AcDbSymbolTableRecord
100
AcDbLayerTableRecord
  2
SK2
 70
     0
 62
     7
  6
CONTINUOUS
370
    -3
390
9B7
  0
LAYER
  5
A3C
330
2
100
AcDbSymbolTableRecord
100
AcDbLayerTableRecord
  2
SK3
 70
     0
 62
     1
  6
HIDDEN
370
    -3
390
9B7
  0
ENDTAB
  0
TABLE
  2
STYLE
  5
3
330
0
100
AcDbSymbolTable
 70
     2
  0
STYLE
  5
11
330
3
100
AcDbSymbolTableRecord
100
AcDbTextStyleTableRecord
  2
STANDARD
 70
     0
 40
0.0
 41
0.8
 50
0.0
 71
     0
 42
0.2
  3
isocp.shx
  4

  0
STYLE
  5
A3D
330
3
100
AcDbSymbolTableRecord
100
AcDbTextStyleTableRecord
  2
isocp
 70
     0
 40
0.0
 41
0.8
 50
0.0
 71
     0
 42
0.2
  3
isocp.shx
  4

  0
ENDTAB
  0
TABLE
  2
VIEW
  5
6
330
0
100
AcDbSymbolTable
 70
     0
  0
ENDTAB
  0
TABLE
  2
UCS
  5
7
330
0
100
AcDbSymbolTable
 70
     0
  0
ENDTAB
  0
TABLE
  2
APPID
  5
9
330
0
100
AcDbSymbolTable
 70
     1
  0
APPID
  5
215
330
9
100
AcDbSymbolTableRecord
100
AcDbRegAppTableRecord
  2
ACAD
 70
     0
  0
ENDTAB
  0
TABLE
  2
DIMSTYLE
  5
A
330
0
100
AcDbSymbolTable
 70
     2
100
AcDbDimStyleTable
 71
     2
340
220
340
A3E
  0
DIMSTYLE
105
220
330
A
100
AcDbSymbolTableRecord
100
AcDbDimStyleTableRecord
  2
STANDARD
 70
     0
 41
2.5
 47
0.01
 48
0.01
 71
     1
 73
     0
 74
     0
 77
     1
 78
     8
140
3.5
178
     5
271
     3
272
     3
284
     8
340
11
341
216
342
216
343
216
344
216
  0
DIMSTYLE
105
A3E
102
{ACAD_REACTORS
330
1014
330
10DF
330
10E0
330
10E1
330
1105
330
110F
330
1126
330
119D
102
}
330
A
100
AcDbSymbolTableRecord
100
AcDbDimStyleTableRecord
  2
ISO-25
 70
     0
 41
3.5
 42
0.625
 43
3.75
 44
2.0
 73
     0
 74
     0
 77
     1
 78
     8
140
3.5
141
2.5
143
0.03937007874016
147
0.625
171
     3
172
     1
176
   256
177
   256
178
   256
271
     1
272
     1
274
     3
283
     0
284
     8
289
     0
340
A3D
  0
ENDTAB
  0
TABLE
  2
BLOCK_RECORD
  5
1
330
0
100
AcDbSymbolTable
 70
    11
  0
BLOCK_RECORD
  5
1F
330
1
100
AcDbSymbolTableRecord
100
AcDbBlockTableRecord
  2
*MODEL_SPACE
340
9BA
  0
BLOCK_RECORD
  5
1B
330
1
100
AcDbSymbolTableRecord
100
AcDbBlockTableRecord
  2
*PAPER_SPACE
340
9BB
  0
BLOCK_RECORD
  5
216
330
1
100
AcDbSymbolTableRecord
100
AcDbBlockTableRecord
  2
_ARROW_FILLED
340
0
102
{BLKREFS
331
676
331
677
331
681
331
682
331
68B
331
68C
331
695
331
696
331
69E
331
69F
331
6AB
331
6AC
331
6B5
331
6B6
331
6BE
331
6BF
102
}
  0
BLOCK_RECORD
  5
A22
330
1
100
AcDbSymbolTableRecord
100
AcDbBlockTableRecord
  2
nullpunkt_1
340
0
310
2800000020000000200000000100080000000000000400000000000000000000000000000000000000000000000080000080000000808000800000008000800080800000C0C0C000C0DCC000F0CAA6000020400000206000002080000020A0000020C0000020E00000400000004020000040400000406000004080000040A0
310
000040C0000040E00000600000006020000060400000606000006080000060A0000060C0000060E00000800000008020000080400000806000008080000080A0000080C0000080E00000A0000000A0200000A0400000A0600000A0800000A0A00000A0C00000A0E00000C0000000C0200000C0400000C0600000C0800000C0
310
A00000C0C00000C0E00000E0000000E0200000E0400000E0600000E0800000E0A00000E0C00000E0E00040000000400020004000400040006000400080004000A0004000C0004000E00040200000402020004020400040206000402080004020A0004020C0004020E000404000004040200040404000404060004040800040
310
40A0004040C0004040E00040600000406020004060400040606000406080004060A0004060C0004060E00040800000408020004080400040806000408080004080A0004080C0004080E00040A0000040A0200040A0400040A0600040A0800040A0A00040A0C00040A0E00040C0000040C0200040C0400040C0600040C08000
310
40C0A00040C0C00040C0E00040E0000040E0200040E0400040E0600040E0800040E0A00040E0C00040E0E00080000000800020008000400080006000800080008000A0008000C0008000E00080200000802020008020400080206000802080008020A0008020C0008020E00080400000804020008040400080406000804080
310
008040A0008040C0008040E00080600000806020008060400080606000806080008060A0008060C0008060E00080800000808020008080400080806000808080008080A0008080C0008080E00080A0000080A0200080A0400080A0600080A0800080A0A00080A0C00080A0E00080C0000080C0200080C0400080C0600080C0
310
800080C0A00080C0C00080C0E00080E0000080E0200080E0400080E0600080E0800080E0A00080E0C00080E0E000C0000000C0002000C0004000C0006000C0008000C000A000C000C000C000E000C0200000C0202000C0204000C0206000C0208000C020A000C020C000C020E000C0400000C0402000C0404000C0406000C0
310
408000C040A000C040C000C040E000C0600000C0602000C0604000C0606000C0608000C060A000C060C000C060E000C0800000C0802000C0804000C0806000C0808000C080A000C080C000C080E000C0A00000C0A02000C0A04000C0A06000C0A08000C0A0A000C0A0C000C0A0E000C0C00000C0C02000C0C04000C0C06000
310
C0C08000C0C0A000F0FBFF00A4A0A000808080000000FF0000FF000000FFFF00FF000000FF00FF00FFFF0000FFFFFF0000000000000000000000000000000000000000000000000000000000000000000000000000000000000000000000FEFE0000000000000000000000000000000000000000000000000000FEFEFEFEFE
310
FEFEFE00000000000000000000000000000000000000000000FEFEFEFEFEFE00FE0000FEFE00000000000000000000000000000000000000FEFEFEFE00FE0000FE00000000FEFE00000000000000000000000000000000FEFEFE0000FE000000FE000000000000FEFE00000000000000000000000000FEFE000000FE000000
310
00FE0000000000000000FEFE00000000000000000000FEFE000000FE0000000000FE00000000000000000000FE0000000000000000FEFEFE0000FE000000000000FE00000000000000000000FE0000000000000000FEFE0000FE00000000000000FE0000000000000000000000FE000000000000FEFEFE00FE000000000000
310
0000FE0000000000000000000000FE000000000000FEFE00FE000000000000000000FE000000000000000000000000FE0000000000FEFEFE00000000000000000000FE000000000000000000000000FE0000000000FEFE0000000000000000000000FE00000000000000000000000000FE000000FEFE000000000000000000
310
000000FE00000000000000000000000000FE000000FEFEFEFEFEFEFEFEFEFEFEFEFEFEFEFEFEFEFEFEFEFEFEFEFEFEFEFEFEFE000000FE000000000000000000000000FE00000000000000000000000000FEFE000000FE000000000000000000000000FE000000000000000000000000FEFEFE00000000FE00000000000000
310
00000000FE0000000000000000000000FE00FE0000000000FE0000000000000000000000FE00000000000000000000FE00FEFE000000000000FE00000000000000000000FE000000000000000000FE0000FEFE000000000000FE00000000000000000000FE0000000000000000FE0000FEFEFE00000000000000FE00000000
310
0000000000FE00000000000000FE000000FEFE0000000000000000FE000000000000000000FE000000000000FE000000FEFEFE000000000000000000FE0000000000000000FE0000000000FE00000000FEFE00000000000000000000FE0000000000000000FE00000000FE00000000FEFE000000000000000000000000FEFE
310
000000000000FE000000FE000000FEFEFE000000000000000000000000000000FEFE00000000FE0000FE0000FEFEFEFE000000000000000000000000000000000000FEFE0000FE00FE00FEFEFEFEFE000000000000000000000000000000000000000000FEFEFEFEFEFEFEFEFE000000000000000000000000000000000000
310
00000000000000FEFEFE00000000000000000000000000000000000000000000000000000000000000000000000000000000000000000000
102
{BLKREFS
331
AA0
331
BBE
331
DE4
331
EE7
331
1091
102
}
  0
BLOCK_RECORD
  5
A2B
330
1
100
AcDbSymbolTableRecord
100
AcDbBlockTableRecord
  2
nullpunkt_2
340
0
310
2800000020000000200000000100080000000000000400000000000000000000000000000000000000000000000080000080000000808000800000008000800080800000C0C0C000C0DCC000F0CAA6000020400000206000002080000020A0000020C0000020E00000400000004020000040400000406000004080000040A0
310
000040C0000040E00000600000006020000060400000606000006080000060A0000060C0000060E00000800000008020000080400000806000008080000080A0000080C0000080E00000A0000000A0200000A0400000A0600000A0800000A0A00000A0C00000A0E00000C0000000C0200000C0400000C0600000C0800000C0
310
A00000C0C00000C0E00000E0000000E0200000E0400000E0600000E0800000E0A00000E0C00000E0E00040000000400020004000400040006000400080004000A0004000C0004000E00040200000402020004020400040206000402080004020A0004020C0004020E000404000004040200040404000404060004040800040
310
40A0004040C0004040E00040600000406020004060400040606000406080004060A0004060C0004060E00040800000408020004080400040806000408080004080A0004080C0004080E00040A0000040A0200040A0400040A0600040A0800040A0A00040A0C00040A0E00040C0000040C0200040C0400040C0600040C08000
310
40C0A00040C0C00040C0E00040E0000040E0200040E0400040E0600040E0800040E0A00040E0C00040E0E00080000000800020008000400080006000800080008000A0008000C0008000E00080200000802020008020400080206000802080008020A0008020C0008020E00080400000804020008040400080406000804080
310
008040A0008040C0008040E00080600000806020008060400080606000806080008060A0008060C0008060E00080800000808020008080400080806000808080008080A0008080C0008080E00080A0000080A0200080A0400080A0600080A0800080A0A00080A0C00080A0E00080C0000080C0200080C0400080C0600080C0
310
800080C0A00080C0C00080C0E00080E0000080E0200080E0400080E0600080E0800080E0A00080E0C00080E0E000C0000000C0002000C0004000C0006000C0008000C000A000C000C000C000E000C0200000C0202000C0204000C0206000C0208000C020A000C020C000C020E000C0400000C0402000C0404000C0406000C0
310
408000C040A000C040C000C040E000C0600000C0602000C0604000C0606000C0608000C060A000C060C000C060E000C0800000C0802000C0804000C0806000C0808000C080A000C080C000C080E000C0A00000C0A02000C0A04000C0A06000C0A08000C0A0A000C0A0C000C0A0E000C0C00000C0C02000C0C04000C0C06000
310
C0C08000C0C0A000F0FBFF00A4A0A000808080000000FF0000FF000000FFFF00FF000000FF00FF00FFFF0000FFFFFF0000000000000000000000000000000000000000000000000000000000000000000000000000000000000000000000FEFE0000000000000000000000000000000000000000000000000000FEFEFEFEFE
310
FEFEFE00000000000000000000000000000000000000000000FEFEFEFEFEFE00FE0000FEFE00000000000000000000000000000000000000FEFEFEFE00FE0000FE00000000FEFE00000000000000000000000000000000FEFEFE0000FE000000FE000000000000FEFE00000000000000000000000000FEFE000000FE000000
310
00FE0000000000000000FEFE00000000000000000000FEFE000000FE0000000000FE00000000000000000000FE0000000000000000FEFEFE0000FE000000000000FE00000000000000000000FE0000000000000000FEFE0000FE00000000000000FE0000000000000000000000FE000000000000FEFEFE00FE000000000000
310
0000FE0000000000000000000000FE000000000000FEFE00FE000000000000000000FE000000000000000000000000FE0000000000FEFEFE00000000000000000000FE000000000000000000000000FE0000000000FEFE0000000000000000000000FE00000000000000000000000000FE000000FEFE000000000000000000
310
000000FE00000000000000000000000000FE000000FEFEFEFEFEFEFEFEFEFEFEFEFEFEFEFEFEFEFEFEFEFEFEFEFEFEFEFEFEFE000000FE000000000000000000000000FE00000000000000000000000000FEFE000000FE000000000000000000000000FE000000000000000000000000FEFEFE00000000FE00000000000000
310
00000000FE0000000000000000000000FE00FE0000000000FE0000000000000000000000FE00000000000000000000FE00FEFE000000000000FE00000000000000000000FE000000000000000000FE0000FEFE000000000000FE00000000000000000000FE0000000000000000FE0000FEFEFE00000000000000FE00000000
310
0000000000FE00000000000000FE000000FEFE0000000000000000FE000000000000000000FE000000000000FE000000FEFEFE000000000000000000FE0000000000000000FE0000000000FE00000000FEFE00000000000000000000FE0000000000000000FE00000000FE00000000FEFE000000000000000000000000FEFE
310
000000000000FE000000FE000000FEFEFE000000000000000000000000000000FEFE00000000FE0000FE0000FEFEFEFE000000000000000000000000000000000000FEFE0000FE00FE00FEFEFEFEFE000000000000000000000000000000000000000000FEFEFEFEFEFEFEFEFE000000000000000000000000000000000000
310
00000000000000FEFEFE00000000000000000000000000000000000000000000000000000000000000000000000000000000000000000000
102
{BLKREFS
331
AF8
331
C16
331
DE6
331
F5A
331
1104
102
}
  0
BLOCK_RECORD
  5
119E
330
1
100
AcDbSymbolTableRecord
100
AcDbBlockTableRecord
  2
*D3
340
0
  0
BLOCK_RECORD
  5
11AA
330
1
100
AcDbSymbolTableRecord
100
AcDbBlockTableRecord
  2
*D4
340
0
  0
BLOCK_RECORD
  5
11B6
330
1
100
AcDbSymbolTableRecord
100
AcDbBlockTableRecord
  2
*D5
340
0
  0
BLOCK_RECORD
  5
11C4
330
1
100
AcDbSymbolTableRecord
100
AcDbBlockTableRecord
  2
*D6
340
0
  0
BLOCK_RECORD
  5
11D0
330
1
100
AcDbSymbolTableRecord
100
AcDbBlockTableRecord
  2
*D7
340
0
  0
BLOCK_RECORD
  5
11DC
330
1
100
AcDbSymbolTableRecord
100
AcDbBlockTableRecord
  2
*D8
340
0
  0
BLOCK_RECORD
  5
11E8
330
1
100
AcDbSymbolTableRecord
100
AcDbBlockTableRecord
  2
*D9
340
0
  0
BLOCK_RECORD
  5
11F6
330
1
100
AcDbSymbolTableRecord
100
AcDbBlockTableRecord
  2
*D10
340
0
  0
ENDTAB
  0
ENDSEC
  0
SECTION
  2
BLOCKS
  0
BLOCK
  5
20
330
1F
100
AcDbEntity
  8
0
100
AcDbBlockBegin
  2
*MODEL_SPACE
 70
     0
 10
0.0
 20
0.0
 30
0.0
  3
*MODEL_SPACE
  1

  0
ENDBLK
  5
21
330
1F
100
AcDbEntity
  8
0
100
AcDbBlockEnd
  0
BLOCK
  5
1C
330
1B
100
AcDbEntity
 67
     1
  8
0
100
AcDbBlockBegin
  2
*PAPER_SPACE
 70
     0
 10
0.0
 20
0.0
 30
0.0
  3
*PAPER_SPACE
  1

  0
ENDBLK
  5
1D
330
1B
100
AcDbEntity
 67
     1
  8
0
100
AcDbBlockEnd
  0
BLOCK
  5
6C1
330
216
100
AcDbEntity
  8
0
100
AcDbBlockBegin
  2
_ARROW_FILLED
 70
     0
 10
0.0
 20
0.0
 30
0.0
  3
_ARROW_FILLED
  1

  0
SOLID
  5
6C2
330
216
100
AcDbEntity
  8
0
  6
ByBlock
 62
     0
100
AcDbTrace
 10
0.0
 20
0.0
 30
0.0
 11
-1.0
 21
0.132
 31
0.0
 12
-1.0
 22
-0.132
 32
0.0
 13
-1.0
 23
-0.132
 33
0.0
  0
ENDBLK
  5
6C3
330
216
100
AcDbEntity
  8
0
  6
ByBlock
 62
     0
100
AcDbBlockEnd
  0
BLOCK
  5
A29
330
A22
100
AcDbEntity
  8
0
100
AcDbBlockBegin
  2
nullpunkt_1
 70
     0
 10
0.0
 20
0.0
 30
0.0
  3
nullpunkt_1
  1

  0
LWPOLYLINE
  5
A23
102
{ACAD_REACTORS
330
A24
102
}
330
A22
100
AcDbEntity
  8
1
100
AcDbPolyline
 90
        3
 70
     1
 43
0.0
 10
0.0
 20
2.950972054112752
 10
0.0
 20
0.0
 10
2.950972054112638
 20
0.0
 42
0.4142135623730966
  0
HATCH
  5
A24
330
A22
100
AcDbEntity
  8
1
100
AcDbHatch
 10
0.0
 20
0.0
 30
0.0
210
0.0
220
0.0
230
1.0
  2
SOLID
 70
     1
 71
     1
 91
        2
 92
        7
 72
     1
 73
     1
 93
        3
 10
0.0
 20
0.0
 42
0.0
 10
2.950972054112638
 20
0.0
 42
0.4142135623730968
 10
0.0
 20
2.950972054112752
 42
0.0
 97
        1
330
A23
 92
        7
 72
     1
 73
     1
 93
        3
 10
0.0
 20
-2.950972054112412
 42
0.0
 10
0.0
 20
0.0
 42
0.0
 10
-2.950972054112583
 20
0.0
 42
0.4142135623730966
 97
        1
330
A26
 75
     0
 76
     1
 47
0.1190009775223266
 98
        2
 10
0.7445530588119596
 20
0.9212244733765826
 10
-1.27946460185285
 20
-1.696796923046235
  0
CIRCLE
  5
A25
330
A22
100
AcDbEntity
  8
1
100
AcDbCircle
 10
0.0
 20
0.0
 30
0.0
 40
2.950972054112601
  0
LWPOLYLINE
  5
A26
102
{ACAD_REACTORS
330
A24
102
}
330
A22
100
AcDbEntity
  8
1
100
AcDbPolyline
 90
        3
 70
     1
 43
0.0
 10
0.0
 20
0.0
 10
-2.950972054112583
 20
0.0
 42
0.4142135623730966
 10
0.0
 20
-2.950972054112412
  0
LINE
  5
A27
330
A22
100
AcDbEntity
  8
1
100
AcDbLine
 10
-2.950972054112752
 20
0.0
 30
0.0
 11
2.950972054112583
 21
0.0
 31
0.0
  0
LINE
  5
A28
330
A22
100
AcDbEntity
  8
1
100
AcDbLine
 10
0.0
 20
2.950972054112752
 30
0.0
 11
0.0
 21
-2.950972054112412
 31
0.0
  0
ENDBLK
  5
A2A
330
A22
100
AcDbEntity
  8
0
100
AcDbBlockEnd
  0
BLOCK
  5
A31
330
A2B
100
AcDbEntity
  8
0
100
AcDbBlockBegin
  2
nullpunkt_2
 70
     0
 10
0.0
 20
0.0
 30
0.0
  3
nullpunkt_2
  1

  0
CIRCLE
  5
A2C
330
A2B
100
AcDbEntity
  8
1
100
AcDbCircle
 10
0.0
 20
0.0
 30
0.0
 40
1.0
  0
HATCH
  5
A2D
330
A2B
100
AcDbEntity
  8
1
100
AcDbHatch
 10
0.0
 20
0.0
 30
0.0
210
0.0
220
0.0
230
1.0
  2
SOLID
 70
     1
 71
     0
 91
        2
 92
        1
 93
        3
 72
     1
 10
0.0
 20
0.0
 11
-1.0
 21
0.0
 72
     2
 10
0.0
 20
0.0
 40
1.0
 50
180.0
 51
270.0
 73
     1
 72
     1
 10
0.0
 20
-0.9999999999998864
 11
0.0
 21
0.0
 97
        0
 92
        1
 93
        3
 72
     1
 10
0.0
 20
1.000000000000113
 11
0.0
 21
0.0
 72
     1
 10
0.0
 20
0.0
 11
1.0
 21
0.0
 72
     2
 10
0.0
 20
0.0
 40
1.0
 50
0.0
 51
90.0
 73
     1
 97
        0
 75
     0
 76
     1
 98
        1
 10
-109.9295341761981
 20
-32.53620011044962
  0
LINE
  5
A2E
330
A2B
100
AcDbEntity
  8
1
100
AcDbLine
 10
-1.0
 20
0.0
 30
0.0
 11
1.0
 21
0.0
 31
0.0
  0
LWPOLYLINE
  5
A2F
330
A2B
100
AcDbEntity
  8
1
100
AcDbPolyline
 90
        3
 70
     1
 43
0.0
 10
0.0
 20
0.0
 10
-1.0
 20
0.0
 42
0.4142135623730951
 10
0.0
 20
-0.9999999999998864
  0
LWPOLYLINE
  5
A30
330
A2B
100
AcDbEntity
  8
1
100
AcDbPolyline
 90
        3
 70
     1
 43
0.0
 10
0.0
 20
1.000000000000113
 10
0.0
 20
0.0
 10
1.0
 20
0.0
 42
0.4142135623730951
  0
ENDBLK
  5
A32
330
A2B
100
AcDbEntity
  8
0
100
AcDbBlockEnd
  0
BLOCK
  5
11A8
330
119E
100
AcDbEntity
  8
0
100
AcDbBlockBegin
  2
*D3
 70
     1
 10
0.0
 20
0.0
 30
0.0
  3
*D3
  1

  0
LINE
  5
1202
330
119E
100
AcDbEntity
  8
2
370
    -2
100
AcDbLine
 10
80.5
 20
17.12055725145001
 30
0.0
 11
80.5
 21
61.30503825624998
 31
0.0
  0
LINE
  5
1203
330
119E
100
AcDbEntity
  8
2
370
    -2
100
AcDbLine
 10
0.0
 20
24.20581318814998
 30
0.0
 11
0.0000000000000023
 21
61.30503825624998
 31
0.0
  0
LINE
  5
1204
330
119E
100
AcDbEntity
  8
2
370
    -2
100
AcDbLine
 10
77.0
 20
59.30503825624999
 30
0.0
 11
3.500000000000001
 21
59.30503825624999
 31
0.0
  0
SOLID
  5
1205
330
119E
100
AcDbEntity
  8
2
100
AcDbTrace
 10
77.0
 20
59.88837158958332
 30
0.0
 11
77.0
 21
58.72170492291665
 31
0.0
 12
80.5
 22
59.30503825624999
 32
0.0
 13
80.5
 23
59.30503825624999
 33
0.0
  0
SOLID
  5
1206
330
119E
100
AcDbEntity
  8
2
100
AcDbTrace
 10
3.500000000000001
 20
59.88837158958332
 30
0.0
 11
3.500000000000001
 21
58.72170492291665
 31
0.0
 12
0.0000000000000022
 22
59.30503825624999
 32
0.0
 13
0.0000000000000022
 23
59.30503825624999
 33
0.0
  0
MTEXT
  5
1207
330
119E
100
AcDbEntity
  8
2
100
AcDbMText
 10
39.75286421659999
 20
61.68003825625
 30
0.0
 40
3.5
 41
0.0
 71
     5
 72
     1
  1
80.5
  7
isocp
 73
     1
 44
1.0
  0
POINT
  5
1208
330
119E
100
AcDbEntity
  8
Defpoints
 62
     0
100
AcDbPoint
 10
80.5
 20
16.49555725145001
 30
0.0
  0
POINT
  5
1209
330
119E
100
AcDbEntity
  8
Defpoints
 62
     0
100
AcDbPoint
 10
0.0
 20
23.58081318814998
 30
0.0
  0
POINT
  5
120A
330
119E
100
AcDbEntity
  8
Defpoints
 62
     0
100
AcDbPoint
 10
0.0000000000000022
 20
59.30503825624999
 30
0.0
  0
ENDBLK
  5
11A9
330
119E
100
AcDbEntity
  8
0
100
AcDbBlockEnd
  0
BLOCK
  5
11B4
330
11AA
100
AcDbEntity
  8
0
100
AcDbBlockBegin
  2
*D4
 70
     1
 10
0.0
 20
0.0
 30
0.0
  3
*D4
  1

  0
LINE
  5
124F
330
11AA
100
AcDbEntity
  8
SK2
370
    -2
100
AcDbLine
 10
80.5
 20
-17.70545018445
 30
0.0
 11
80.5
 21
-56.13953498264999
 31
0.0
  0
LINE
  5
1250
330
11AA
100
AcDbEntity
  8
SK2
370
    -2
100
AcDbLine
 10
31.5
 20
-5.875000000050022
 30
0.0
 11
31.49999999999999
 21
-56.13953498264999
 31
0.0
  0
LINE
  5
1251
330
11AA
100
AcDbEntity
  8
SK2
370
    -2
100
AcDbLine
 10
77.0
 20
-54.13953498264999
 30
0.0
 11
35.0
 21
-54.13953498264999
 31
0.0
  0
SOLID
  5
1252
330
11AA
100
AcDbEntity
  8
SK2
100
AcDbTrace
 10
77.0
 20
-53.55620164931664
 30
0.0
 11
77.0
 21
-54.72286831598332
 31
0.0
 12
80.5
 22
-54.13953498264999
 32
0.0
 13
80.5
 23
-54.13953498264999
 33
0.0
  0
SOLID
  5
1253
330
11AA
100
AcDbEntity
  8
SK2
100
AcDbTrace
 10
35.0
 20
-53.55620164931664
 30
0.0
 11
35.0
 21
-54.72286831598332
 31
0.0
 12
31.49999999999999
 22
-54.13953498264999
 32
0.0
 13
31.49999999999999
 23
-54.13953498264999
 33
0.0
  0
MTEXT
  5
1254
330
11AA
100
AcDbEntity
  8
SK2
100
AcDbMText
 10
55.21706395380002
 20
-51.76453498264999
 30
0.0
 40
3.5
 41
0.0
 71
     5
 72
     1
  1
49
  7
isocp
 73
     1
 44
1.0
  0
POINT
  5
1255
330
11AA
100
AcDbEntity
  8
Defpoints
 62
     0
100
AcDbPoint
 10
80.5
 20
-17.08045018445
 30
0.0
  0
POINT
  5
1256
330
11AA
100
AcDbEntity
  8
Defpoints
 62
     0
100
AcDbPoint
 10
31.5
 20
-5.250000000050021
 30
0.0
  0
POINT
  5
1257
330
11AA
100
AcDbEntity
  8
Defpoints
 62
     0
100
AcDbPoint
 10
31.49999999999999
 20
-54.13953498264999
 30
0.0
  0
ENDBLK
  5
11B5
330
11AA
100
AcDbEntity
  8
0
100
AcDbBlockEnd
  0
BLOCK
  5
11C2
330
11B6
100
AcDbEntity
  8
0
100
AcDbBlockBegin
  2
*D5
 70
     1
 10
0.0
 20
0.0
 30
0.0
  3
*D5
  1

  0
LINE
  5
1258
330
11B6
100
AcDbEntity
  8
SK2
370
    -2
100
AcDbLine
 10
31.5
 20
-5.875000000050022
 30
0.0
 11
31.49999999999999
 21
-46.13953498264999
 31
0.0
  0
LINE
  5
1259
330
11B6
100
AcDbEntity
  8
SK2
370
    -2
100
AcDbLine
 10
41.5
 20
-10.12500000005001
 30
0.0
 11
41.5
 21
-46.13953498264999
 31
0.0
  0
LINE
  5
125A
330
11B6
100
AcDbEntity
  8
SK2
370
    -2
100
AcDbLine
 10
27.99999999999998
 20
-44.13953498264999
 30
0.0
 11
24.49999999999999
 21
-44.13953498264999
 31
0.0
  0
LINE
  5
125B
330
11B6
100
AcDbEntity
  8
SK2
370
    -2
100
AcDbLine
 10
45.0
 20
-44.13953498264999
 30
0.0
 11
48.5
 21
-44.13953498264999
 31
0.0
  0
LINE
  5
125C
330
11B6
100
AcDbEntity
  8
SK2
370
    -2
100
AcDbLine
 10
31.49999999999999
 20
-44.13953498264999
 30
0.0
 11
41.5
 21
-44.13953498264999
 31
0.0
  0
SOLID
  5
125D
330
11B6
100
AcDbEntity
  8
SK2
100
AcDbTrace
 10
27.99999999999998
 20
-43.55620164931664
 30
0.0
 11
27.99999999999998
 21
-44.72286831598332
 31
0.0
 12
31.49999999999999
 22
-44.13953498264999
 32
0.0
 13
31.49999999999999
 23
-44.13953498264999
 33
0.0
  0
SOLID
  5
125E
330
11B6
100
AcDbEntity
  8
SK2
100
AcDbTrace
 10
45.0
 20
-43.55620164931664
 30
0.0
 11
45.0
 21
-44.72286831598332
 31
0.0
 12
41.5
 22
-44.13953498264999
 32
0.0
 13
41.5
 23
-44.13953498264999
 33
0.0
  0
MTEXT
  5
125F
330
11B6
100
AcDbEntity
  8
SK2
100
AcDbMText
 10
36.59660304010003
 20
-41.76453498264999
 30
0.0
 40
3.5
 41
0.0
 71
     5
 72
     1
  1
10
  7
isocp
 73
     1
 44
1.0
  0
POINT
  5
1260
330
11B6
100
AcDbEntity
  8
Defpoints
 62
     0
100
AcDbPoint
 10
31.5
 20
-5.250000000050021
 30
0.0
  0
POINT
  5
1261
330
11B6
100
AcDbEntity
  8
Defpoints
 62
     0
100
AcDbPoint
 10
41.5
 20
-9.500000000050023
 30
0.0
  0
POINT
  5
1262
330
11B6
100
AcDbEntity
  8
Defpoints
 62
     0
100
AcDbPoint
 10
41.5
 20
-44.13953498264999
 30
0.0
  0
ENDBLK
  5
11C3
330
11B6
100
AcDbEntity
  8
0
100
AcDbBlockEnd
  0
BLOCK
  5
11CE
330
11C4
100
AcDbEntity
  8
0
100
AcDbBlockBegin
  2
*D6
 70
     1
 10
0.0
 20
0.0
 30
0.0
  3
*D6
  1

  0
LINE
  5
1263
330
11C4
100
AcDbEntity
  8
SK2
370
    -2
100
AcDbLine
 10
44.9549669973
 20
-24.75000000005001
 30
0.0
 11
114.8750503328999
 21
-24.75000000005004
 31
0.0
  0
LINE
  5
1264
330
11C4
100
AcDbEntity
  8
SK2
370
    -2
100
AcDbLine
 10
44.9549669973
 20
24.74999999994997
 30
0.0
 11
114.8750503328999
 21
24.74999999994996
 31
0.0
  0
LINE
  5
1265
330
11C4
100
AcDbEntity
  8
SK2
370
    -2
100
AcDbLine
 10
112.8750503328999
 20
-21.25000000005003
 30
0.0
 11
112.8750503328999
 21
21.24999999994996
 31
0.0
  0
SOLID
  5
1266
330
11C4
100
AcDbEntity
  8
SK2
100
AcDbTrace
 10
112.2917169995665
 20
-21.25000000005003
 30
0.0
 11
113.4583836662332
 21
-21.25000000005003
 31
0.0
 12
112.8750503328999
 22
-24.75000000005004
 32
0.0
 13
112.8750503328999
 23
-24.75000000005004
 33
0.0
  0
SOLID
  5
1267
330
11C4
100
AcDbEntity
  8
SK2
100
AcDbTrace
 10
112.2917169995665
 20
21.24999999994996
 30
0.0
 11
113.4583836662332
 21
21.24999999994996
 31
0.0
 12
112.8750503328999
 22
24.74999999994996
 32
0.0
 13
112.8750503328999
 23
24.74999999994996
 33
0.0
  0
MTEXT
  5
1268
330
11C4
100
AcDbEntity
  8
SK2
100
AcDbMText
 10
110.5000503329
 20
0.1339994608499924
 30
0.0
 40
3.5
 41
0.0
 71
     5
 72
     1
  1
%%c49.5
  7
isocp
 11
0.0000000000000001
 21
1.0
 31
0.0
 73
     1
 44
1.0
  0
POINT
  5
1269
330
11C4
100
AcDbEntity
  8
Defpoints
 62
     0
100
AcDbPoint
 10
44.3299669973
 20
-24.75000000005001
 30
0.0
  0
POINT
  5
126A
330
11C4
100
AcDbEntity
  8
Defpoints
 62
     0
100
AcDbPoint
 10
44.3299669973
 20
24.74999999994997
 30
0.0
  0
POINT
  5
126B
330
11C4
100
AcDbEntity
  8
Defpoints
 62
     0
100
AcDbPoint
 10
112.8750503328999
 20
24.74999999994996
 30
0.0
  0
ENDBLK
  5
11CF
330
11C4
100
AcDbEntity
  8
0
100
AcDbBlockEnd
  0
BLOCK
  5
11DA
330
11D0
100
AcDbEntity
  8
0
100
AcDbBlockBegin
  2
*D7
 70
     1
 10
0.0
 20
0.0
 30
0.0
  3
*D7
  1

  0
LINE
  5
126C
330
11D0
100
AcDbEntity
  8
SK2
370
    -2
100
AcDbLine
 10
70.28243636080003
 20
-19.00000000005001
 30
0.0
 11
104.8750503329
 21
-19.00000000005003
 31
0.0
  0
LINE
  5
126D
330
11D0
100
AcDbEntity
  8
SK2
370
    -2
100
AcDbLine
 10
70.28243636080003
 20
18.99999999994996
 30
0.0
 11
104.8750503329
 21
18.99999999994996
 31
0.0
  0
LINE
  5
126E
330
11D0
100
AcDbEntity
  8
SK2
370
    -2
100
AcDbLine
 10
102.8750503329
 20
-15.50000000005002
 30
0.0
 11
102.8750503329
 21
15.49999999994996
 31
0.0
  0
SOLID
  5
126F
330
11D0
100
AcDbEntity
  8
SK2
100
AcDbTrace
 10
102.2917169995665
 20
-15.50000000005002
 30
0.0
 11
103.4583836662333
 21
-15.50000000005002
 31
0.0
 12
102.8750503329
 22
-19.00000000005003
 32
0.0
 13
102.8750503329
 23
-19.00000000005003
 33
0.0
  0
SOLID
  5
1270
330
11D0
100
AcDbEntity
  8
SK2
100
AcDbTrace
 10
102.2917169995665
 20
15.49999999994996
 30
0.0
 11
103.4583836662333
 21
15.49999999994996
 31
0.0
 12
102.8750503329
 22
18.99999999994996
 32
0.0
 13
102.8750503329
 23
18.99999999994996
 33
0.0
  0
MTEXT
  5
1271
330
11D0
100
AcDbEntity
  8
SK2
100
AcDbMText
 10
100.5000503329
 20
-0.2334670364500082
 30
0.0
 40
3.5
 41
0.0
 71
     5
 72
     1
  1
%%c38
  7
isocp
 11
0.0000000000000001
 21
1.0
 31
0.0
 73
     1
 44
1.0
  0
POINT
  5
1272
330
11D0
100
AcDbEntity
  8
Defpoints
 62
     0
100
AcDbPoint
 10
69.65743636080003
 20
-19.00000000005001
 30
0.0
  0
POINT
  5
1273
330
11D0
100
AcDbEntity
  8
Defpoints
 62
     0
100
AcDbPoint
 10
69.65743636080003
 20
18.99999999994996
 30
0.0
  0
POINT
  5
1274
330
11D0
100
AcDbEntity
  8
Defpoints
 62
     0
100
AcDbPoint
 10
102.8750503329
 20
18.99999999994996
 30
0.0
  0
ENDBLK
  5
11DB
330
11D0
100
AcDbEntity
  8
0
100
AcDbBlockEnd
  0
BLOCK
  5
11E6
330
11DC
100
AcDbEntity
  8
0
100
AcDbBlockBegin
  2
*D8
 70
     1
 10
0.0
 20
0.0
 30
0.0
  3
*D8
  1

  0
LINE
  5
1275
330
11DC
100
AcDbEntity
  8
SK2
370
    -2
100
AcDbLine
 10
80.5
 20
20.12499999994996
 30
0.0
 11
80.5
 21
51.30503825624998
 31
0.0
  0
LINE
  5
1276
330
11DC
100
AcDbEntity
  8
SK2
370
    -2
100
AcDbLine
 10
47.5
 20
20.12499999994996
 30
0.0
 11
47.5
 21
51.30503825624998
 31
0.0
  0
LINE
  5
1277
330
11DC
100
AcDbEntity
  8
SK2
370
    -2
100
AcDbLine
 10
77.0
 20
49.30503825624999
 30
0.0
 11
51.0
 21
49.30503825624999
 31
0.0
  0
SOLID
  5
1278
330
11DC
100
AcDbEntity
  8
SK2
100
AcDbTrace
 10
77.0
 20
49.88837158958332
 30
0.0
 11
77.0
 21
48.72170492291665
 31
0.0
 12
80.5
 22
49.30503825624999
 32
0.0
 13
80.5
 23
49.30503825624999
 33
0.0
  0
SOLID
  5
1279
330
11DC
100
AcDbEntity
  8
SK2
100
AcDbTrace
 10
51.0
 20
49.88837158958332
 30
0.0
 11
51.0
 21
48.72170492291665
 31
0.0
 12
47.5
 22
49.30503825624999
 32
0.0
 13
47.5
 23
49.30503825624999
 33
0.0
  0
MTEXT
  5
127A
330
11DC
100
AcDbEntity
  8
SK2
100
AcDbMText
 10
63.89184293200003
 20
51.68003825625
 30
0.0
 40
3.5
 41
0.0
 71
     5
 72
     1
  1
33
  7
isocp
 73
     1
 44
1.0
  0
POINT
  5
127B
330
11DC
100
AcDbEntity
  8
Defpoints
 62
     0
100
AcDbPoint
 10
80.5
 20
19.49999999994996
 30
0.0
  0
POINT
  5
127C
330
11DC
100
AcDbEntity
  8
Defpoints
 62
     0
100
AcDbPoint
 10
47.5
 20
19.49999999994996
 30
0.0
  0
POINT
  5
127D
330
11DC
100
AcDbEntity
  8
Defpoints
 62
     0
100
AcDbPoint
 10
47.5
 20
49.30503825624999
 30
0.0
  0
ENDBLK
  5
11E7
330
11DC
100
AcDbEntity
  8
0
100
AcDbBlockEnd
  0
BLOCK
  5
11F4
330
11E8
100
AcDbEntity
  8
0
100
AcDbBlockBegin
  2
*D9
 70
     1
 10
0.0
 20
0.0
 30
0.0
  3
*D9
  1

  0
LINE
  5
127E
330
11E8
100
AcDbEntity
  8
SK2
370
    -2
100
AcDbLine
 10
32.625
 20
5.999999999949977
 30
0.0
 11
37.01710955150002
 21
5.999999999949976
 31
0.0
  0
LINE
  5
127F
330
11E8
100
AcDbEntity
  8
SK2
370
    -2
100
AcDbLine
 10
32.625
 20
-6.000000000050022
 30
0.0
 11
37.01710955150002
 21
-6.000000000050022
 31
0.0
  0
LINE
  5
1280
330
11E8
100
AcDbEntity
  8
SK2
370
    -2
100
AcDbLine
 10
35.01710955150002
 20
-9.500000000050023
 30
0.0
 11
35.01710955150002
 21
-13.00000000005002
 31
0.0
  0
LINE
  5
1281
330
11E8
100
AcDbEntity
  8
SK2
370
    -2
100
AcDbLine
 10
35.01710955150002
 20
9.499999999949976
 30
0.0
 11
35.01710955150002
 21
22.64999999995001
 31
0.0
  0
LINE
  5
1282
330
11E8
100
AcDbEntity
  8
SK2
370
    -2
100
AcDbLine
 10
35.01710955150002
 20
-6.000000000050022
 30
0.0
 11
35.01710955150002
 21
5.999999999949976
 31
0.0
  0
SOLID
  5
1283
330
11E8
100
AcDbEntity
  8
SK2
100
AcDbTrace
 10
34.43377621816669
 20
-9.500000000050023
 30
0.0
 11
35.60044288483336
 21
-9.500000000050023
 31
0.0
 12
35.01710955150002
 22
-6.000000000050022
 32
0.0
 13
35.01710955150002
 23
-6.000000000050022
 33
0.0
  0
SOLID
  5
1284
330
11E8
100
AcDbEntity
  8
SK2
100
AcDbTrace
 10
34.43377621816669
 20
9.499999999949976
 30
0.0
 11
35.60044288483336
 21
9.499999999949976
 31
0.0
 12
35.01710955150002
 22
5.999999999949976
 32
0.0
 13
35.01710955150002
 23
5.999999999949976
 33
0.0
  0
MTEXT
  5
1285
330
11E8
100
AcDbEntity
  8
SK2
100
AcDbMText
 10
32.64176506331105
 20
17.82499999995001
 30
0.0
 40
3.5
 41
0.0
 71
     5
 72
     1
  1
M12x1
  7
isocp
 11
0.0000000000000001
 21
1.0
 31
0.0
 73
     1
 44
1.0
  0
POINT
  5
1286
330
11E8
100
AcDbEntity
  8
Defpoints
 62
     0
100
AcDbPoint
 10
32.0
 20
5.999999999949977
 30
0.0
  0
POINT
  5
1287
330
11E8
100
AcDbEntity
  8
Defpoints
 62
     0
100
AcDbPoint
 10
32.0
 20
-6.000000000050022
 30
0.0
  0
POINT
  5
1288
330
11E8
100
AcDbEntity
  8
Defpoints
 62
     0
100
AcDbPoint
 10
35.01710955150002
 20
-6.000000000050022
 30
0.0
  0
ENDBLK
  5
11F5
330
11E8
100
AcDbEntity
  8
0
100
AcDbBlockEnd
  0
BLOCK
  5
1200
330
11F6
100
AcDbEntity
  8
0
100
AcDbBlockBegin
  2
*D10
 70
     1
 10
0.0
 20
0.0
 30
0.0
  3
*D10
  1

  0
LINE
  5
1289
330
11F6
100
AcDbEntity
  8
SK2
370
    -2
100
AcDbLine
 10
81.62499999999999
 20
-8.000000000050022
 30
0.0
 11
94.8750503329
 21
-8.000000000050025
 31
0.0
  0
LINE
  5
128A
330
11F6
100
AcDbEntity
  8
SK2
370
    -2
100
AcDbLine
 10
81.62499999999999
 20
7.999999999949977
 30
0.0
 11
94.8750503329
 21
7.999999999949972
 31
0.0
  0
LINE
  5
128B
330
11F6
100
AcDbEntity
  8
SK2
370
    -2
100
AcDbLine
 10
92.87505033290001
 20
-4.500000000050023
 30
0.0
 11
92.87505033290001
 21
4.499999999949974
 31
0.0
  0
SOLID
  5
128C
330
11F6
100
AcDbEntity
  8
SK2
100
AcDbTrace
 10
92.29171699956669
 20
-4.500000000050023
 30
0.0
 11
93.45838366623331
 21
-4.500000000050023
 31
0.0
 12
92.87505033290001
 22
-8.000000000050025
 32
0.0
 13
92.87505033290001
 23
-8.000000000050025
 33
0.0
  0
SOLID
  5
128D
330
11F6
100
AcDbEntity
  8
SK2
100
AcDbTrace
 10
92.29171699956669
 20
4.499999999949974
 30
0.0
 11
93.45838366623331
 21
4.499999999949974
 31
0.0
 12
92.87505033290001
 22
7.999999999949974
 32
0.0
 13
92.87505033290001
 23
7.999999999949974
 33
0.0
  0
MTEXT
  5
128E
330
11F6
100
AcDbEntity
  8
SK2
100
AcDbMText
 10
90.5000503329
 20
0.3492303507499915
 30
0.0
 40
3.5
 41
0.0
 71
     5
 72
     1
  1
%%c16
  7
isocp
 11
0.0000000000000001
 21
1.0
 31
0.0
 73
     1
 44
1.0
  0
POINT
  5
128F
330
11F6
100
AcDbEntity
  8
Defpoints
 62
     0
100
AcDbPoint
 10
81.0
 20
-8.000000000050022
 30
0.0
  0
POINT
  5
1290
330
11F6
100
AcDbEntity
  8
Defpoints
 62
     0
100
AcDbPoint
 10
81.0
 20
7.999999999949977
 30
0.0
  0
POINT
  5
1291
330
11F6
100
AcDbEntity
  8
Defpoints
 62
     0
100
AcDbPoint
 10
92.87505033290001
 20
7.999999999949974
 30
0.0
  0
ENDBLK
  5
1201
330
11F6
100
AcDbEntity
  8
0
100
AcDbBlockEnd
  0
ENDSEC
  0
SECTION
  2
ENTITIES
  0
LINE
  5
FF7
330
1F
100
AcDbEntity
  8
NOCUT
100
AcDbLine
 10
17.5
 20
31.77499999994995
 30
0.0
 11
14.34749999999996
 21
31.77499999994995
 31
0.0
  0
LINE
  5
FF8
330
1F
100
AcDbEntity
  8
NOCUT
100
AcDbLine
 10
80.5
 20
0.0
 30
0.0
 11
0.0
 21
0.0
 31
0.0
  0
LINE
  5
FFA
330
1F
100
AcDbEntity
  8
1
100
AcDbLine
 10
3.199999999999988
 20
8.049999999949987
 30
0.0
 11
19.09999999999998
 21
8.049999999949987
 31
0.0
  0
LINE
  5
FFB
330
1F
100
AcDbEntity
  8
1
100
AcDbLine
 10
3.199999999999988
 20
-8.050000000050005
 30
0.0
 11
19.09999999999998
 21
-8.050000000050005
 31
0.0
  0
LINE
  5
FFC
330
1F
100
AcDbEntity
  8
1
100
AcDbLine
 10
3.199999999999988
 20
-18.50000000005001
 30
0.0
 11
19.09999999999998
 21
-18.50000000005001
 31
0.0
  0
LINE
  5
FFD
330
1F
100
AcDbEntity
  8
1
100
AcDbLine
 10
17.5000000008
 20
-25.83409810694998
 30
0.0
 11
14.34749999999999
 21
-25.83409810694998
 31
0.0
  0
LINE
  5
FFE
330
1F
100
AcDbEntity
  8
1
100
AcDbLine
 10
17.5
 20
-31.77500000005002
 30
0.0
 11
14.34749999999999
 21
-31.77500000005002
 31
0.0
  0
LINE
  5
1001
330
1F
100
AcDbEntity
  8
SK3
100
AcDbLine
 10
15.41659940850002
 20
-21.86908187694998
 30
0.0
 11
12.54870014049997
 21
-25.96483013445001
 31
0.0
  0
LINE
  5
1002
330
1F
100
AcDbEntity
  8
SK3
100
AcDbLine
 10
6.5
 20
5.999999999949977
 30
0.0
 11
31.5
 21
5.999999999949977
 31
0.0
  0
LINE
  5
1003
330
1F
100
AcDbEntity
  8
SK3
100
AcDbLine
 10
-24.58016261769998
 20
5.499999999949976
 30
0.0
 11
31.0
 21
5.499999999949976
 31
0.0
  0
LINE
  5
1004
330
1F
100
AcDbEntity
  8
SK3
100
AcDbLine
 10
-24.58016261769998
 20
-5.500000000050021
 30
0.0
 11
31.0
 21
-5.500000000050021
 31
0.0
  0
LINE
  5
1005
330
1F
100
AcDbEntity
  8
SK3
100
AcDbLine
 10
6.5
 20
-6.000000000050022
 30
0.0
 11
31.5
 21
-6.000000000050022
 31
0.0
  0
LINE
  5
1006
330
1F
100
AcDbEntity
  8
SK3
100
AcDbLine
 10
19.1027728402
 20
-24.45019121814998
 30
0.0
 11
15.00702458270001
 21
-21.58229195014999
 31
0.0
  0
LINE
  5
1007
330
1F
100
AcDbEntity
  8
SK3
100
AcDbLine
 10
-8.832382886999994
 20
-5.500000000050021
 30
0.0
 11
18.81598291339999
 21
-24.85976604395
 31
0.0
  0
LINE
  5
1009
330
1F
100
AcDbEntity
  8
SK3
100
AcDbLine
 10
18.81598291339999
 20
24.85976604395
 30
0.0
 11
-8.832382886999994
 21
5.499999999949976
 31
0.0
  0
LINE
  5
100A
330
1F
100
AcDbEntity
  8
SK3
100
AcDbLine
 10
11.1496913731
 20
-24.37483587445001
 30
0.0
 11
16.52166349900002
 21
-28.13636464995001
 31
0.0
  0
LINE
  5
100B
330
1F
100
AcDbEntity
  8
SK3
100
AcDbLine
 10
16.2348735722
 20
-28.54593947565001
 30
0.0
 11
12.1391253147
 21
-25.67804020764997
 31
0.0
  0
LINE
  5
1010
330
1F
100
AcDbEntity
  8
SK3
100
AcDbLine
 10
15.41659940850002
 20
-21.86908187694998
 30
0.0
 11
14.72023465590001
 21
-21.99186677594999
 31
0.0
  0
LINE
  5
1011
330
1F
100
AcDbEntity
  8
4
100
AcDbLine
 10
83.50005384650001
 20
-0.0000000000500222
 30
0.0
 11
-71.39999999999997
 21
-0.0000000000500222
 31
0.0
  0
LINE
  5
1012
330
1F
100
AcDbEntity
  8
4
100
AcDbLine
 10
-20.18057468680001
 20
0.0046036861500056
 30
0.0
 11
11.14973846290892
 21
-21.93331253794998
 31
0.0
  0
LINE
  5
1013
330
1F
100
AcDbEntity
  8
4
100
AcDbLine
 10
-20.1543085207
 20
0.0137882446499873
 30
0.0
 11
11.14973846290892
 21
21.93331253784994
 31
0.0
  0
DIMENSION
  5
1014
330
1F
100
AcDbEntity
  8
2
100
AcDbDimension
  2
*D3
 10
0.0000000000000022
 20
59.30503825624999
 30
0.0
 11
39.75286421659999
 21
59.30503825624999
 31
0.0
 70
   160
 71
     5
 42
80.5
  3
ISO-25
100
AcDbAlignedDimension
 13
80.5
 23
16.49555725145001
 33
0.0
 14
0.0
 24
23.58081318814998
 34
0.0
 50
180.0
100
AcDbRotatedDimension
  0
LINE
  5
1015
330
1F
100
AcDbEntity
  8
1
100
AcDbLine
 10
3.199999999999986
 20
-30.17500000005
 30
0.0
 11
3.199999999999997
 21
30.17499999994996
 31
0.0
  0
LINE
  5
1016
330
1F
100
AcDbEntity
  8
1
100
AcDbLine
 10
0.3196152422999887
 20
21.80829262144999
 30
0.0
 11
0.3196152422999887
 21
-21.80829262155
 31
0.0
  0
LINE
  5
1017
330
1F
100
AcDbEntity
  8
1
100
AcDbLine
 10
-0.8000000000000111
 20
-22.10829262155002
 30
0.0
 11
-0.8000000000000111
 21
22.10829262145
 31
0.0
  0
LINE
  5
1018
330
1F
100
AcDbEntity
  8
1
100
AcDbLine
 10
-0.8000000000000111
 20
-22.10829262155002
 30
0.0
 11
-67.37322744119999
 21
-12.39630905524998
 31
0.0
  0
LINE
  5
101E
330
1F
100
AcDbEntity
  8
SK3
100
AcDbLine
 10
-15.80612852139998
 20
-5.500000000050021
 30
0.0
 11
7.662865645700009
 21
-21.93331253795
 31
0.0
  0
TEXT
  5
101F
330
1F
100
AcDbEntity
  8
6
100
AcDbText
 10
-38.63681370569125
 20
-55.84076066182337
 30
0.0
 40
3.5
  1
DIN 69871-A40
 41
0.8
100
AcDbText
  0
ARC
  5
1020
330
1F
100
AcDbEntity
  8
1
100
AcDbCircle
 10
4.800000000000012
 20
-30.17500000005
 30
0.0
 40
1.6
100
AcDbArc
 50
180.0
 51
270.0
  0
LINE
  5
1021
330
1F
100
AcDbEntity
  8
1
100
AcDbLine
 10
7.852499999999992
 20
-31.77500000005002
 30
0.0
 11
9.224999999999994
 21
-29.39776026665001
 31
0.0
  0
LINE
  5
1022
330
1F
100
AcDbEntity
  8
1
100
AcDbLine
 10
14.34749999999999
 20
-25.83409810694998
 30
0.0
 11
14.34749999999999
 21
-31.77499999995001
 31
0.0
  0
LINE
  5
1023
330
1F
100
AcDbEntity
  8
1
100
AcDbLine
 10
7.852499999999992
 20
-31.77499999995001
 30
0.0
 11
7.852499999999992
 21
-25.83409810694998
 31
0.0
  0
LINE
  5
1024
330
1F
100
AcDbEntity
  8
1
100
AcDbLine
 10
12.97499999999999
 20
-29.39776026665001
 30
0.0
 11
14.34749999999999
 21
-31.77500000005002
 31
0.0
  0
LINE
  5
1025
330
1F
100
AcDbEntity
  8
1
100
AcDbLine
 10
7.852499999999992
 20
-31.77500000005002
 30
0.0
 11
4.800000000000012
 21
-31.77500000005002
 31
0.0
  0
LINE
  5
1026
330
1F
100
AcDbEntity
  8
1
100
AcDbLine
 10
7.852499999999992
 20
-25.83409810694998
 30
0.0
 11
4.800000001200031
 21
-25.83409810694998
 31
0.0
  0
LINE
  5
1027
330
1F
100
AcDbEntity
  8
SK3
100
AcDbLine
 10
6.1849701518
 20
-28.46188146694998
 30
0.0
 11
10.28061198530002
 21
-25.59383021704999
 31
0.0
  0
LINE
  5
1029
330
1F
100
AcDbEntity
  8
SK3
100
AcDbLine
 10
11.1496913731
 20
-24.37483587445001
 30
0.0
 11
5.898165026799999
 21
-28.05231728354998
 31
0.0
  0
LINE
  5
102A
330
1F
100
AcDbEntity
  8
SK3
100
AcDbLine
 10
7.662865645700009
 20
-21.93331253795
 30
0.0
 11
3.603724026900038
 21
-24.77580381675
 31
0.0
  0
LINE
  5
102B
330
1F
100
AcDbEntity
  8
SK3
100
AcDbLine
 10
3.316918901900038
 20
-24.36623963344999
 30
0.0
 11
7.227012429714129
 21
-21.62812212084274
 31
0.0
  0
LINE
  5
102E
330
1F
100
AcDbEntity
  8
4
100
AcDbLine
 10
11.14973846290892
 20
-21.93331253794998
 30
0.0
 11
1.798206056400004
 21
-28.48177193825
 31
0.0
  0
SPLINE
  5
102F
330
1F
100
AcDbEntity
  8
1
100
AcDbSpline
210
0.0
220
0.0
230
1.0
 70
     8
 71
     3
 72
    12
 73
     8
 74
     6
 42
0.0000000001
 43
0.0000000001
 44
0.0000000001
 12
-1.0
 22
0.0
 32
0.0
 13
0.0
 23
1.0
 33
0.0
 40
0.0
 40
0.0
 40
0.0
 40
0.0
 40
0.4612732253514731
 40
0.9611088094046909
 40
1.512218571973031
 40
2.133898701966515
 40
2.823885458757151
 40
2.823885458757151
 40
2.823885458757151
 40
2.823885458757151
 10
4.800000001200031
 20
-25.83409810694998
 30
0.0
 10
4.646242259416207
 20
-25.83409810694998
 30
0.0
 10
4.323291544785123
 20
-25.7755016158851
 30
0.0
 10
3.881003607251249
 20
-25.5144216713246
 30
0.0
 10
3.511295392250718
 20
-25.08491183613925
 30
0.0
 10
3.258952645781914
 20
-24.50861773492255
 30
0.0
 10
3.199999999999988
 20
-24.06863281594687
 30
0.0
 10
3.199999999999988
 20
-23.83863723035
 30
0.0
 11
4.800000001200031
 21
-25.83409810694998
 31
0.0
 11
4.345888830100022
 21
-25.75312877505001
 31
0.0
 11
3.912983496599991
 21
-25.50327164924999
 31
0.0
 11
3.549053962700013
 21
-25.08941507415002
 31
0.0
 11
3.294878147700018
 21
-24.52206964225001
 31
0.0
 11
3.199999999999988
 21
-23.83863723035
 31
0.0
  0
LINE
  5
1036
330
1F
100
AcDbEntity
  8
SK3
100
AcDbLine
 10
6.328372714300003
 20
-28.66666355855
 30
0.0
 11
3.199999999999988
 21
-24.19927680603473
 31
0.0
  0
LINE
  5
1042
330
1F
100
AcDbEntity
  8
SK3
100
AcDbLine
 10
6.328372714300003
 20
-28.66666355855
 30
0.0
 11
3.316950524800005
 21
-30.77546933934999
 31
0.0
  0
ARC
  5
1046
330
1F
100
AcDbEntity
  8
1
100
AcDbCircle
 10
2.4097319313
 20
-22.80829262155001
 30
0.0
 40
1.0
100
AcDbArc
 50
37.5379335793999
 51
90.0
  0
LINE
  5
1047
330
1F
100
AcDbEntity
  8
1
100
AcDbLine
 10
-0.8000000000000111
 20
-22.10829262155002
 30
0.0
 11
0.3196152422999887
 21
-21.80829262155
 31
0.0
  0
LINE
  5
1048
330
1F
100
AcDbEntity
  8
1
100
AcDbLine
 10
0.3196152422999887
 20
-21.80829262155
 30
0.0
 11
2.4097319313
 21
-21.80829262155
 31
0.0
  0
SPLINE
  5
1054
330
1F
100
AcDbEntity
  8
1
100
AcDbSpline
210
0.0
220
0.0
230
1.0
 70
     8
 71
     3
 72
    10
 73
     6
 74
     4
 42
0.0000000001
 43
0.0000000001
 44
0.0000000001
 12
0.4093743989143582
 22
-0.9123664842120779
 32
0.0
 13
0.4249194534150649
 23
-0.9052311628028736
 33
0.0
 40
0.0
 40
0.0
 40
0.0
 40
0.0
 40
1.064064352123296
 40
2.159673087408625
 40
3.287502624668853
 40
3.287502624668853
 40
3.287502624668853
 40
3.287502624668853
 10
12.97499999999999
 20
-22.84684461135
 30
0.0
 10
13.12020023485221
 20
-23.17045016199071
 30
0.0
 10
13.41696850353468
 20
-23.82633066828747
 30
0.0
 10
13.87455346595299
 20
-24.82206168462507
 30
0.0
 10
14.18775442982733
 20
-25.49378262579748
 30
0.0
 10
14.34749999999999
 20
-25.83409810694998
 30
0.0
 11
12.97499999999999
 21
-22.84684461135
 31
0.0
 11
13.41356481850002
 21
-23.81632583625
 31
0.0
 11
13.87097247710002
 21
-24.81188434014999
 31
0.0
 11
14.34749999999999
 21
-25.83409810694998
 31
0.0
  0
SPLINE
  5
1055
330
1F
100
AcDbEntity
  8
1
100
AcDbSpline
210
0.0
220
0.0
230
1.0
 70
     8
 71
     3
 72
    10
 73
     6
 74
     4
 42
0.0000000001
 43
0.0000000001
 44
0.0000000001
 12
-0.4093743989143582
 22
-0.9123664842120779
 32
0.0
 13
-0.4249194534150649
 23
-0.9052311628028736
 33
0.0
 40
0.0
 40
0.0
 40
0.0
 40
0.0
 40
1.06406435208206
 40
2.159673087409135
 40
3.287502624669388
 40
3.287502624669388
 40
3.287502624669388
 40
3.287502624669388
 10
9.224999999999994
 20
-22.84684461135
 30
0.0
 10
9.079799765153397
 20
-23.17045016197817
 30
0.0
 10
8.783031496625685
 20
-23.82633066834535
 30
0.0
 10
8.325446534006843
 20
-24.82206168459137
 30
0.0
 10
8.012245570172655
 20
-25.49378262579748
 30
0.0
 10
7.852499999999992
 20
-25.83409810694998
 30
0.0
 11
9.224999999999994
 21
-22.84684461135
 31
0.0
 11
8.786435181600012
 21
-23.81632583625
 31
0.0
 11
8.32902752290002
 21
-24.81188434014999
 31
0.0
 11
7.852499999999992
 21
-25.83409810694998
 31
0.0
  0
LINE
  5
1056
330
1F
100
AcDbEntity
  8
1
100
AcDbLine
 10
12.97499999999999
 20
-29.39739672895001
 30
0.0
 11
12.97499999999999
 21
-21.84354881884999
 31
0.0
  0
LINE
  5
1057
330
1F
100
AcDbEntity
  8
1
100
AcDbLine
 10
9.224999999999994
 20
-29.39739672895001
 30
0.0
 11
9.224999999999994
 21
-21.84354881884999
 31
0.0
  0
LINE
  5
1059
330
1F
100
AcDbEntity
  8
SK3
100
AcDbLine
 10
12.54870014049997
 20
-25.96483013445001
 30
0.0
 11
12.4259152415
 21
-25.26846538194998
 31
0.0
  0
LINE
  5
105A
330
1F
100
AcDbEntity
  8
1
100
AcDbLine
 10
9.724999999999994
 20
-28.12500000005002
 30
0.0
 11
12.47499999999999
 21
-28.12500000005002
 31
0.0
  0
ARC
  5
105B
330
1F
100
AcDbEntity
  8
1
100
AcDbCircle
 10
9.724999999999994
 20
-28.62500000005002
 30
0.0
 40
0.5
100
AcDbArc
 50
90.0
 51
180.0
  0
ARC
  5
105C
330
1F
100
AcDbEntity
  8
1
100
AcDbCircle
 10
12.47499999999999
 20
-28.62500000005002
 30
0.0
 40
0.5
100
AcDbArc
 50
0.0
 51
90.0
  0
LINE
  5
105D
330
1F
100
AcDbEntity
  8
1
100
AcDbLine
 10
9.724999999999994
 20
-21.18408895844998
 30
0.0
 11
12.47499999999999
 21
-21.18408895844998
 31
0.0
  0
SPLINE
  5
105E
330
1F
100
AcDbEntity
  8
1
100
AcDbSpline
210
0.0
220
0.0
230
1.0
 70
     8
 71
     3
 72
    12
 73
     8
 74
     6
 42
0.0000000001
 43
0.0000000001
 44
0.0000000001
 12
-1.0
 22
0.0
 32
0.0
 13
0.0
 23
-1.0
 33
0.0
 40
0.0
 40
0.0
 40
0.0
 40
0.0
 40
0.1551844733709366
 40
0.318571745678035
 40
0.4968262654021731
 40
0.6963243902261641
 40
0.9108050534164453
 40
0.9108050534164453
 40
0.9108050534164453
 40
0.9108050534164453
 10
9.724999999999994
 20
-21.18408895844998
 30
0.0
 10
9.673271842209681
 20
-21.18408895844998
 30
0.0
 10
9.566043765509141
 20
-21.2070268583107
 30
0.0
 10
9.426552391076043
 20
-21.30227574868505
 30
0.0
 10
9.315576487140658
 20
-21.44778888414354
 30
0.0
 10
9.242218084102589
 20
-21.63339769475379
 30
0.0
 10
9.224999999999994
 20
-21.77205526445323
 30
0.0
 10
9.224999999999994
 20
-21.84354881884999
 30
0.0
 11
9.724999999999994
 21
-21.18408895844998
 31
0.0
 11
9.573024810899994
 21
-21.21548581614999
 31
0.0
 11
9.436640656200038
 21
-21.30545671755001
 31
0.0
 11
9.326764116900022
 21
-21.44581988905
 31
0.0
 11
9.251983834700011
 21
-21.63077234565
 31
0.0
 11
9.224999999999994
 21
-21.84354881884999
 31
0.0
  0
LINE
  5
1066
330
1F
100
AcDbEntity
  8
SK3
100
AcDbLine
 10
7.717264717247497
 20
-21.93331253795
 30
0.0
 11
10.28061198530002
 21
-25.59383021704999
 31
0.0
  0
SPLINE
  5
1067
330
1F
100
AcDbEntity
  8
1
100
AcDbSpline
210
0.0
220
0.0
230
1.0
 70
     8
 71
     3
 72
    12
 73
     8
 74
     6
 42
0.0000000001
 43
0.0000000001
 44
0.0000000001
 12
0.0
 22
1.0
 32
0.0
 13
-1.0
 23
0.0
 33
0.0
 40
0.0
 40
0.0
 40
0.0
 40
0.0
 40
0.2147571163785207
 40
0.4144906788100812
 40
0.5926954357571458
 40
0.7559271415371277
 40
0.9108072837869443
 40
0.9108072837869443
 40
0.9108072837869443
 40
0.9108072837869443
 10
12.97499999999999
 20
-21.84354881884999
 30
0.0
 10
12.97499999999999
 20
-21.77196311339048
 30
0.0
 10
12.95773860281467
 20
-21.63313243768301
 30
0.0
 10
12.88422651425318
 20
-21.44740888225996
 30
0.0
 10
12.7731262326496
 20
-21.30197476641732
 30
0.0
 10
12.63369693021938
 20
-21.20694457694675
 30
0.0
 10
12.52662671408326
 20
-21.18408895844998
 30
0.0
 10
12.47499999999999
 20
-21.18408895844998
 30
0.0
 11
12.97499999999999
 21
-21.84354881884999
 31
0.0
 11
12.94794589060001
 21
-21.63050259335
 31
0.0
 11
12.87297818089998
 21
-21.44537199495001
 31
0.0
 11
12.76301782960003
 21
-21.30513770335002
 31
0.0
 11
12.6266893874
 21
-21.21536495905001
 31
0.0
 11
12.47499999999999
 21
-21.18408895844998
 31
0.0
  0
LINE
  5
1069
330
1F
100
AcDbEntity
  8
SK3
100
AcDbLine
 10
15.00702458270001
 20
-21.58229195014999
 30
0.0
 11
12.1391253147
 21
-25.67804020764997
 31
0.0
  0
LINE
  5
106C
330
1F
100
AcDbEntity
  8
1
100
AcDbLine
 10
-0.8000000000000111
 20
22.10829262145
 30
0.0
 11
-67.37322744119999
 21
12.39630905525001
 31
0.0
  0
LINE
  5
106D
330
1F
100
AcDbEntity
  8
SK3
100
AcDbLine
 10
-36.19999999999999
 20
7.999999999949977
 30
0.0
 11
-60.19999999999999
 21
7.999999999949977
 31
0.0
  0
LINE
  5
106E
330
1F
100
AcDbEntity
  8
SK3
100
AcDbLine
 10
-25.39999999999996
 20
6.919999999949991
 30
0.0
 11
-60.19999999999999
 21
6.919999999949991
 31
0.0
  0
LINE
  5
106F
330
1F
100
AcDbEntity
  8
SK3
100
AcDbLine
 10
-25.39999999999996
 20
-6.920000000050007
 30
0.0
 11
-60.19999999999999
 21
-6.920000000050007
 31
0.0
  0
LINE
  5
1070
330
1F
100
AcDbEntity
  8
SK3
100
AcDbLine
 10
-36.19999999999999
 20
-8.000000000050022
 30
0.0
 11
-60.19999999999999
 21
-8.000000000050022
 31
0.0
  0
LINE
  5
1071
330
1F
100
AcDbEntity
  8
1
100
AcDbLine
 10
-68.39999999999998
 20
11.20887810834997
 30
0.0
 11
-68.39999999999998
 21
-11.20887810844999
 31
0.0
  0
LINE
  5
1072
330
1F
100
AcDbEntity
  8
SK3
100
AcDbLine
 10
-60.19999999999999
 20
-8.499323850750016
 30
0.0
 11
-60.19999999999999
 21
8.499323850750016
 31
0.0
  0
LINE
  5
1073
330
1F
100
AcDbEntity
  8
SK3
100
AcDbLine
 10
-60.19999999999999
 20
-8.500000000050022
 30
0.0
 11
-67.39999999999998
 21
-8.500000000050022
 31
0.0
  0
ARC
  5
1074
330
1F
100
AcDbEntity
  8
SK3
100
AcDbCircle
 10
-67.39999999999998
 20
-9.500000000050023
 30
0.0
 40
1.0
100
AcDbArc
 50
90.0
 51
179.9999999351993
  0
ARC
  5
1075
330
1F
100
AcDbEntity
  8
1
100
AcDbCircle
 10
-67.19999999999997
 20
-11.20887810844999
 30
0.0
 40
1.199999999999999
100
AcDbArc
 50
180.0
 51
261.7000000000007
  0
LINE
  5
1076
330
1F
100
AcDbEntity
  8
SK3
100
AcDbLine
 10
-60.19999999999999
 20
8.499999999949977
 30
0.0
 11
-67.39999999999998
 21
8.499999999949977
 31
0.0
  0
ARC
  5
1077
330
1F
100
AcDbEntity
  8
SK3
100
AcDbCircle
 10
-67.39999999999998
 20
9.499999999949976
 30
0.0
 40
1.0
100
AcDbArc
 50
180.0000000648006
 51
270.0
  0
ARC
  5
1078
330
1F
100
AcDbEntity
  8
1
100
AcDbCircle
 10
-67.19999999999997
 20
11.20887810834997
 30
0.0
 40
1.199999999999999
100
AcDbArc
 50
98.29999999999918
 51
180.0
  0
LINE
  5
1079
330
1F
100
AcDbEntity
  8
NOCUT
100
AcDbLine
 10
3.199999999999988
 20
22.19900607373961
 30
0.0
 11
3.199999999999988
 21
30.12632953345002
 31
0.0
  0
LINE
  5
107A
330
1F
100
AcDbEntity
  8
1
100
AcDbLine
 10
14.34749999999999
 20
31.77499999994997
 30
0.0
 11
14.34749999999999
 21
8.049999999949987
 31
0.0
  0
LINE
  5
107B
330
1F
100
AcDbEntity
  8
1
100
AcDbLine
 10
12.97499999999999
 20
8.049999999949987
 30
0.0
 11
12.97499999999999
 21
29.39776026645001
 31
0.0
  0
LINE
  5
107C
330
1F
100
AcDbEntity
  8
1
100
AcDbLine
 10
9.224999999999994
 20
29.39776026645001
 30
0.0
 11
9.224999999999994
 21
8.049999999949987
 31
0.0
  0
LINE
  5
107D
330
1F
100
AcDbEntity
  8
1
100
AcDbLine
 10
7.852499999999992
 20
8.049999999949987
 30
0.0
 11
7.852499999999992
 21
31.77499999994997
 31
0.0
  0
LINE
  5
108C
330
1F
100
AcDbEntity
  8
SK3
100
AcDbLine
 10
-25.39999999999996
 20
6.919999999949991
 30
0.0
 11
-25.39999999999996
 21
-6.920000000050007
 31
0.0
  0
LINE
  5
108D
330
1F
100
AcDbEntity
  8
SK3
100
AcDbLine
 10
-36.19999999999999
 20
7.999999999949977
 30
0.0
 11
-36.19999999999999
 21
-8.000000000050022
 31
0.0
  0
LINE
  5
108E
330
1F
100
AcDbEntity
  8
SK3
100
AcDbLine
 10
-24.58016261769998
 20
-5.500000000050021
 30
0.0
 11
-25.39999999999996
 21
-6.920000000050007
 31
0.0
  0
LINE
  5
108F
330
1F
100
AcDbEntity
  8
SK3
100
AcDbLine
 10
-24.58016261769998
 20
5.499999999949976
 30
0.0
 11
-25.39999999999996
 21
6.919999999949991
 31
0.0
  0
LINE
  5
1090
330
1F
100
AcDbEntity
  8
NOCUT
100
AcDbLine
 10
0.0
 20
0.0
 30
0.0
 11
-0.0000000000002274
 21
22.19900607373955
 31
0.0
  0
INSERT
  5
1091
330
1F
100
AcDbEntity
  8
1
100
AcDbBlockReference
  2
nullpunkt_1
 10
0.0
 20
0.0
 30
0.0
 41
-1.0
 50
180.0
  0
LINE
  5
1093
330
1F
100
AcDbEntity
  8
SK3
100
AcDbLine
 10
6.5
 20
5.999999999949977
 30
0.0
 11
6.5
 21
-6.000000000050022
 31
0.0
  0
LINE
  5
1095
330
1F
100
AcDbEntity
  8
1
100
AcDbLine
 10
14.34749999999999
 20
-8.050000000050005
 30
0.0
 11
14.34749999999999
 21
-18.50000000005001
 31
0.0
  0
LINE
  5
1096
330
1F
100
AcDbEntity
  8
1
100
AcDbLine
 10
12.97499999999999
 20
-18.50000000005001
 30
0.0
 11
12.97499999999999
 21
-8.050000000050005
 31
0.0
  0
LINE
  5
1097
330
1F
100
AcDbEntity
  8
1
100
AcDbLine
 10
9.224999999999994
 20
-8.050000000050005
 30
0.0
 11
9.224999999999994
 21
-18.50000000005001
 31
0.0
  0
LINE
  5
1098
330
1F
100
AcDbEntity
  8
1
100
AcDbLine
 10
7.852499999999992
 20
-18.50000000005001
 30
0.0
 11
7.852499999999992
 21
-8.050000000050005
 31
0.0
  0
LINE
  5
109F
330
1F
100
AcDbEntity
  8
SK3
100
AcDbLine
 10
7.662865645700009
 20
21.93331253794996
 30
0.0
 11
-15.80612852139998
 21
5.499999999949976
 31
0.0
  0
LINE
  5
10A7
330
1F
100
AcDbEntity
  8
NOCUT
100
AcDbLine
 10
3.202682057587252
 20
22.19900607373955
 30
0.0
 11
-0.0000000000001137
 21
22.19900607373955
 31
0.0
  0
LINE
  5
10C2
330
1F
100
AcDbEntity
  8
NOCUT
100
AcDbLine
 10
7.852499999999962
 20
31.77499999994995
 30
0.0
 11
4.800000000000012
 21
31.77499999994995
 31
0.0
  0
ARC
  5
10C6
330
1F
100
AcDbEntity
  8
NOCUT
100
AcDbCircle
 10
4.799791816318363
 20
30.17520818363162
 30
0.0
 40
1.599791829864016
100
AcDbArc
 50
89.99254400095502
 51
180.0074559990454
  0
LINE
  5
10D0
330
1F
100
AcDbEntity
  8
NOCUT
100
AcDbLine
 10
9.725000000000024
 20
28.12499999994997
 30
0.0
 11
12.47500000000002
 21
28.12499999994997
 31
0.0
  0
LINE
  5
10D2
330
1F
100
AcDbEntity
  8
NOCUT
100
AcDbLine
 10
9.225000000000024
 20
29.39776026645001
 30
0.0
 11
9.225000000000024
 21
28.62499999994998
 31
0.0
  0
ARC
  5
10D3
330
1F
100
AcDbEntity
  8
NOCUT
100
AcDbCircle
 10
9.725000000000024
 20
28.62499999994998
 30
0.0
 40
0.5
100
AcDbArc
 50
180.0
 51
270.0
  0
LINE
  5
10D4
330
1F
100
AcDbEntity
  8
NOCUT
100
AcDbLine
 10
7.852499999999962
 20
31.77499999994995
 30
0.0
 11
9.225000000000024
 21
29.39776026665004
 31
0.0
  0
LINE
  5
10D7
330
1F
100
AcDbEntity
  8
NOCUT
100
AcDbLine
 10
12.97500000000002
 20
28.62499999994998
 30
0.0
 11
12.97500000000002
 21
29.39776026645001
 31
0.0
  0
ARC
  5
10D8
330
1F
100
AcDbEntity
  8
NOCUT
100
AcDbCircle
 10
12.47500000000002
 20
28.62499999994998
 30
0.0
 40
0.5
100
AcDbArc
 50
270.0
 51
0.0
  0
LINE
  5
10D9
330
1F
100
AcDbEntity
  8
NOCUT
100
AcDbLine
 10
12.97500000000002
 20
29.39776026665004
 30
0.0
 11
14.34749999999996
 21
31.77499999994995
 31
0.0
  0
LINE
  5
10DC
330
1F
100
AcDbEntity
  8
1
100
AcDbLine
 10
44.18023595220001
 20
-24.75000000005001
 30
0.0
 11
47.5
 21
-19.00000000005001
 31
0.0
  0
LINE
  5
10DD
330
1F
100
AcDbEntity
  8
1
100
AcDbLine
 10
44.18023595220001
 20
24.74999999994997
 30
0.0
 11
44.18023595220001
 21
-24.75000000005001
 31
0.0
  0
LINE
  5
10DE
330
1F
100
AcDbEntity
  8
1
100
AcDbLine
 10
19.09999999999998
 20
-30.17500000005
 30
0.0
 11
19.09999999999998
 21
30.17499999994996
 31
0.0
  0
DIMENSION
  5
10DF
330
1F
100
AcDbEntity
  8
SK2
100
AcDbDimension
  2
*D4
 10
31.49999999999999
 20
-54.13953498264999
 30
0.0
 11
55.21706395380002
 21
-54.13953498264999
 31
0.0
 70
   160
 71
     5
 42
49.0
  3
ISO-25
100
AcDbAlignedDimension
 13
80.5
 23
-17.08045018445
 33
0.0
 14
31.5
 24
-5.250000000050021
 34
0.0
 50
180.0
100
AcDbRotatedDimension
1001
ACAD
1000
DSTYLE
1002
{
1070
   179
1070
     4
1070
   275
1070
     1
1002
}
  0
DIMENSION
  5
10E0
330
1F
100
AcDbEntity
  8
SK2
100
AcDbDimension
  2
*D5
 10
41.5
 20
-44.13953498264999
 30
0.0
 11
36.59660304010003
 21
-44.13953498264999
 31
0.0
 70
   160
 71
     5
 42
10.0
  3
ISO-25
100
AcDbAlignedDimension
 13
31.5
 23
-5.250000000050021
 33
0.0
 14
41.5
 24
-9.500000000050023
 34
0.0
100
AcDbRotatedDimension
1001
ACAD
1000
DSTYLE
1002
{
1070
   179
1070
     4
1070
   275
1070
     1
1002
}
  0
DIMENSION
  5
10E1
330
1F
100
AcDbEntity
  8
SK2
100
AcDbDimension
  2
*D6
 10
112.8750503328999
 20
24.74999999994996
 30
0.0
 11
112.8750503328999
 21
0.1339994608499921
 31
0.0
 70
   160
  1
%%c<>
 71
     5
 42
49.5
  3
ISO-25
100
AcDbAlignedDimension
 13
44.3299669973
 23
-24.75000000005001
 33
0.0
 14
44.3299669973
 24
24.74999999994997
 34
0.0
 50
90.0
100
AcDbRotatedDimension
1001
ACAD
1000
DSTYLE
1002
{
1070
   179
1070
     4
1070
   275
1070
     1
1002
}
  0
TEXT
  5
10E2
330
1F
100
AcDbEntity
  8
6
100
AcDbText
 10
39.08556196142477
 20
-68.63243001239652
 30
0.0
 40
3.5
  1
69871A40HC16SA080-G2
 41
0.8
 72
     1
 11
59.25075717372306
 21
-68.63243001239652
 31
0.0
100
AcDbText
  0
LINE
  5
10E3
330
1F
100
AcDbEntity
  8
1
100
AcDbLine
 10
20.09999999999998
 20
-24.75000000005001
 30
0.0
 11
44.18023595220001
 21
-24.75000000005001
 31
0.0
  0
ARC
  5
10E4
330
1F
100
AcDbEntity
  8
1
100
AcDbCircle
 10
17.5
 20
-30.17500000005
 30
0.0
 40
1.6
100
AcDbArc
 50
270.0
 51
0.0
  0
SPLINE
  5
10E5
330
1F
100
AcDbEntity
  8
1
100
AcDbSpline
210
0.0
220
0.0
230
1.0
 70
     8
 71
     3
 72
    12
 73
     8
 74
     6
 42
0.0000000001
 43
0.0000000001
 44
0.0000000001
 12
0.0
 22
-1.0
 32
0.0
 13
-1.0
 23
0.0
 33
0.0
 40
0.0
 40
0.0
 40
0.0
 40
0.0
 40
0.6873641788932197
 40
1.304007321386043
 40
1.850232598296678
 40
2.352740453215385
 40
2.823872818644422
 40
2.823872818644422
 40
2.823872818644422
 40
2.823872818644422
 10
19.09999999999998
 20
-23.83863723035
 30
0.0
 10
19.09999999999998
 20
-24.0677586233144
 30
0.0
 10
19.04161413209098
 20
-24.50515845801229
 30
0.0
 10
18.79232498116535
 20
-25.07799533088547
 30
0.0
 10
18.4267620465588
 20
-25.50748438731518
 30
0.0
 10
17.98431548812603
 20
-25.7733738536084
 30
0.0
 10
17.65704412260968
 20
-25.83409810694998
 30
0.0
 10
17.5000000008
 20
-25.83409810694998
 30
0.0
 11
19.09999999999998
 21
-23.83863723035
 31
0.0
 11
19.00585332389998
 21
-24.51952335724999
 31
0.0
 11
18.7551169559
 21
-25.08288828244999
 31
0.0
 11
18.39679533470001
 21
-25.49515963594997
 31
0.0
 11
17.96350513679998
 21
-25.74966650945
 31
0.0
 11
17.5000000008
 21
-25.83409810694998
 31
0.0
  0
LINE
  5
10E9
330
1F
100
AcDbEntity
  8
SK3
100
AcDbLine
 10
19.2461678036
 20
-24.24540380535001
 30
0.0
 11
16.0914786088
 21
-28.75072688854999
 31
0.0
  0
LINE
  5
10EA
330
1F
100
AcDbEntity
  8
SK3
100
AcDbLine
 10
18.4884106016
 20
-24.02000632795
 30
0.0
 11
15.62051133359999
 21
-28.11575458544998
 31
0.0
  0
LINE
  5
10EB
330
1F
100
AcDbEntity
  8
SK3
100
AcDbLine
 10
15.6209490775
 20
-25.06411571295001
 30
0.0
 11
15.50347982289999
 21
-26.74390361564999
 31
0.0
  0
LINE
  5
10EC
330
1F
100
AcDbEntity
  8
SK3
100
AcDbLine
 10
18.0827688098
 20
-25.90689500715001
 30
0.0
 11
16.74531663370004
 21
-24.97039259645001
 31
0.0
  0
LINE
  5
10F4
330
1F
100
AcDbEntity
  8
SK3
100
AcDbLine
 10
17.25487760260002
 20
-27.08923568664999
 30
0.0
 11
15.91742542650001
 21
-26.15273327595
 31
0.0
  0
LINE
  5
10F5
330
1F
100
AcDbEntity
  8
SK3
100
AcDbLine
 10
16.84093199900002
 20
-27.68040602645001
 30
0.0
 11
15.50347982289999
 21
-26.74390361564999
 31
0.0
  0
LINE
  5
10F6
330
1F
100
AcDbEntity
  8
SK3
100
AcDbLine
 10
16.0914786088
 20
-28.75072688854999
 30
0.0
 11
18.9830575016
 21
-30.77545020364999
 31
0.0
  0
LINE
  5
10F7
330
1F
100
AcDbEntity
  8
SK3
100
AcDbLine
 10
16.66505846240001
 20
-27.93157723704998
 30
0.0
 11
15.62051133359999
 21
-28.11575458544998
 31
0.0
  0
SPLINE
  5
10F8
330
1F
100
AcDbEntity
  8
1
100
AcDbSpline
210
0.0
220
0.0
230
1.0
 70
     8
 71
     3
 72
    12
 73
     8
 74
     6
 42
0.0000000001
 43
0.0000000001
 44
0.0000000001
 12
-0.9782284101721941
 22
-0.2075311483415955
 32
0.0
 13
0.0000966920952709
 23
-0.9999999953253194
 33
0.0
 40
0.0
 40
0.0
 40
0.0
 40
0.0
 40
0.1045814745929209
 40
0.3514029098131172
 40
0.6279957791849103
 40
0.9211542037274398
 40
1.21898973452932
 40
1.21898973452932
 40
1.21898973452932
 40
1.21898973452932
 10
19.81993400339998
 20
-24.77833324735001
 30
0.0
 10
19.78583248019182
 20
-24.78556788518918
 30
0.0
 10
19.67248989593248
 20
-24.81582151358324
 30
0.0
 10
19.48090190495348
 20
-24.90641280352525
 30
0.0
 10
19.27524814235914
 20
-25.09171172089605
 30
0.0
 10
19.13261748988658
 20
-25.34966202356376
 30
0.0
 10
19.09999040055281
 20
-25.5483880566468
 30
0.0
 10
19.09999999999998
 20
-25.64766656645
 30
0.0
 11
19.81993400339998
 21
-24.77833324735001
 31
0.0
 11
19.71891199410001
 21
-24.80538576045001
 31
0.0
 11
19.49617986540001
 21
-24.91173997864998
 31
0.0
 11
19.29116264770001
 21
-25.09740514995002
 31
0.0
 11
19.14926503500001
 21
-25.35393376314998
 31
0.0
 11
19.09999999999998
 21
-25.64766656645
 31
0.0
  0
LINE
  5
10FA
330
1F
100
AcDbEntity
  8
SK3
100
AcDbLine
 10
19.2461678036
 20
-24.24540380535001
 30
0.0
 11
19.97754713069999
 21
-24.75752567045001
 31
0.0
  0
LINE
  5
10FC
330
1F
100
AcDbEntity
  8
SK3
100
AcDbLine
 10
15.6209490775
 20
-25.06411571295001
 30
0.0
 11
17.15926223729999
 21
-24.37922225665001
 31
0.0
  0
LINE
  5
10FD
330
1F
100
AcDbEntity
  8
SK3
100
AcDbLine
 10
18.67258795
 20
-25.06455345674998
 30
0.0
 11
18.4884106016
 21
-24.02000632795
 31
0.0
  0
LINE
  5
10FF
330
1F
100
AcDbEntity
  8
SK3
100
AcDbLine
 10
18.49671441340001
 20
-25.31572466745001
 30
0.0
 11
17.15926223729999
 21
-24.37922225665001
 31
0.0
  0
SPLINE
  5
1100
330
1F
100
AcDbEntity
  8
1
100
AcDbSpline
210
0.0
220
0.0
230
1.0
 70
     8
 71
     3
 72
     9
 73
     5
 74
     3
 42
0.0000000001
 43
0.0000000001
 44
0.0000000001
 12
-0.9970551032357846
 22
-0.0766884679171447
 32
0.0
 13
-0.9782284101577062
 23
-0.2075311484098875
 33
0.0
 40
0.0
 40
0.0
 40
0.0
 40
0.0
 40
0.05209894567248
 40
0.135815346973964
 40
0.135815346973964
 40
0.135815346973964
 40
0.135815346973964
 10
19.95430318810001
 20
-24.75905304874999
 30
0.0
 10
19.93698801488136
 20
-24.76038484485789
 30
0.0
 10
19.89193358638272
 20
-24.76498325432722
 30
0.0
 10
19.84723192411641
 20
-24.77254199371573
 30
0.0
 10
19.81993400339998
 20
-24.77833324735001
 30
0.0
 11
19.95430318810001
 21
-24.75905304874999
 31
0.0
 11
19.90247404839998
 21
-24.76434836915001
 31
0.0
 11
19.81993400339998
 21
-24.77833324735001
 31
0.0
  0
SPLINE
  5
1101
330
1F
100
AcDbEntity
  8
1
100
AcDbSpline
210
0.0
220
0.0
230
1.0
 70
     8
 71
     3
 72
     8
 73
     4
 74
     2
 42
0.0000000001
 43
0.0000000001
 44
0.0000000001
 12
-0.9985161631108535
 22
-0.0544561475536006
 32
0.0
 13
-0.9970551031857796
 23
-0.0766884685672774
 33
0.0
 40
0.0
 40
0.0
 40
0.0
 40
0.0
 40
0.0232940711783609
 40
0.0232940711783609
 40
0.0232940711783609
 40
0.0232940711783609
 10
19.97754713069999
 20
-24.75752567045001
 30
0.0
 10
19.96979396184125
 20
-24.75794850557575
 30
0.0
 10
19.9620450122808
 20
-24.75845758653486
 30
0.0
 10
19.95430318810001
 20
-24.75905304874999
 30
0.0
 11
19.97754713069999
 21
-24.75752567045001
 31
0.0
 11
19.95430318810001
 21
-24.75905304874999
 31
0.0
  0
LINE
  5
1102
330
1F
100
AcDbEntity
  8
1
100
AcDbLine
 10
20.09999999999998
 20
-24.75000000005001
 30
0.0
 11
19.97737892350001
 21
-24.75754643855001
 31
0.0
  0
INSERT
  5
1104
330
1F
100
AcDbEntity
  8
1
100
AcDbBlockReference
  2
nullpunkt_2
 10
80.5
 20
0.0
 30
0.0
 41
-1.0
 50
180.0
  0
DIMENSION
  5
1105
330
1F
100
AcDbEntity
  8
SK2
100
AcDbDimension
  2
*D7
 10
102.8750503329
 20
18.99999999994996
 30
0.0
 11
102.8750503329
 21
-0.2334670364500084
 31
0.0
 70
   160
  1
%%c<>
 71
     5
 42
38.0
  3
ISO-25
100
AcDbAlignedDimension
 13
69.65743636080003
 23
-19.00000000005001
 33
0.0
 14
69.65743636080003
 24
18.99999999994996
 34
0.0
 50
90.0
100
AcDbRotatedDimension
1001
ACAD
1000
DSTYLE
1002
{
1070
   179
1070
     4
1070
   275
1070
     1
1002
}
  0
LINE
  5
1106
330
1F
100
AcDbEntity
  8
NOCUT
100
AcDbLine
 10
19.10000000000001
 20
30.17499999994996
 30
0.0
 11
19.10000000000001
 21
25.64753674063615
 31
0.0
  0
DIMENSION
  5
110F
330
1F
100
AcDbEntity
  8
SK2
100
AcDbDimension
  2
*D8
 10
47.5
 20
49.30503825624999
 30
0.0
 11
63.89184293200003
 21
49.30503825624999
 31
0.0
 70
   160
 71
     5
 42
33.0
  3
ISO-25
100
AcDbAlignedDimension
 13
80.5
 23
19.49999999994996
 33
0.0
 14
47.5
 24
19.49999999994996
 34
0.0
 50
180.0
100
AcDbRotatedDimension
1001
ACAD
1000
DSTYLE
1002
{
1070
   179
1070
     4
1070
   275
1070
     1
1002
}
  0
LINE
  5
1110
330
1F
100
AcDbEntity
  8
NOCUT
100
AcDbLine
 10
47.5
 20
18.99999999994996
 30
0.0
 11
54.69999999999998
 21
18.99999999994996
 31
0.0
  0
LINE
  5
1111
330
1F
100
AcDbEntity
  8
1
100
AcDbLine
 10
47.5
 20
18.99999999994996
 30
0.0
 11
54.69999999999998
 21
18.99999999994996
 31
0.0
  0
LINE
  5
1112
330
1F
100
AcDbEntity
  8
1
100
AcDbLine
 10
47.5
 20
-19.00000000005001
 30
0.0
 11
54.69999999999998
 21
-19.00000000005001
 31
0.0
  0
LINE
  5
1113
330
1F
100
AcDbEntity
  8
SK3
100
AcDbLine
 10
76.89999999999997
 20
9.499999999949976
 30
0.0
 11
43.89999999999999
 21
9.499999999949976
 31
0.0
  0
LINE
  5
1114
330
1F
100
AcDbEntity
  8
SK3
100
AcDbLine
 10
54.40000000000001
 20
8.499999999949977
 30
0.0
 11
43.89999999999999
 21
8.499999999949977
 31
0.0
  0
LINE
  5
1115
330
1F
100
AcDbEntity
  8
SK3
100
AcDbLine
 10
41.5
 20
7.999999999949977
 30
0.0
 11
80.0
 21
7.999999999949977
 31
0.0
  0
LINE
  5
1116
330
1F
100
AcDbEntity
  8
SK3
100
AcDbLine
 10
41.5
 20
-8.000000000050022
 30
0.0
 11
80.0
 21
-8.000000000050022
 31
0.0
  0
LINE
  5
1117
330
1F
100
AcDbEntity
  8
SK3
100
AcDbLine
 10
54.40000000000001
 20
-8.500000000050022
 30
0.0
 11
43.89999999999999
 21
-8.500000000050022
 31
0.0
  0
LINE
  5
1118
330
1F
100
AcDbEntity
  8
SK3
100
AcDbLine
 10
76.89999999999997
 20
-9.500000000050023
 30
0.0
 11
43.89999999999999
 21
-9.500000000050023
 31
0.0
  0
LINE
  5
1119
330
1F
100
AcDbEntity
  8
SK3
100
AcDbLine
 10
28.73205080760001
 20
-12.00000000005002
 30
0.0
 11
70.64999999999997
 21
-12.00000000005002
 31
0.0
  0
LINE
  5
111A
330
1F
100
AcDbEntity
  8
SK3
100
AcDbLine
 10
28.73205080760001
 20
-14.00000000005002
 30
0.0
 11
71.64999999999998
 21
-14.00000000005002
 31
0.0
  0
LINE
  5
111C
330
1F
100
AcDbEntity
  8
1
100
AcDbLine
 10
47.5
 20
18.99999999994996
 30
0.0
 11
47.5
 21
-19.00000000005001
 31
0.0
  0
LINE
  5
111D
330
1F
100
AcDbEntity
  8
SK3
100
AcDbLine
 10
43.89999999999999
 20
9.499999999949976
 30
0.0
 11
43.89999999999999
 21
-9.500000000050023
 31
0.0
  0
LINE
  5
111E
330
1F
100
AcDbEntity
  8
SK3
100
AcDbLine
 10
41.5
 20
8.999999999949976
 30
0.0
 11
41.5
 21
-9.000000000050023
 31
0.0
  0
LINE
  5
1120
330
1F
100
AcDbEntity
  8
SK3
100
AcDbLine
 10
31.5
 20
8.999999999949976
 30
0.0
 11
31.5
 21
-9.000000000050023
 31
0.0
  0
LINE
  5
1122
330
1F
100
AcDbEntity
  8
SK3
100
AcDbLine
 10
31.00000000010001
 20
5.499999999949976
 30
0.0
 11
31.0
 21
-5.500000000050021
 31
0.0
  0
DIMENSION
  5
1126
330
1F
100
AcDbEntity
  8
SK2
100
AcDbDimension
  2
*D9
 10
35.01710955150002
 20
-6.000000000050022
 30
0.0
 11
35.01710955150002
 21
17.82499999995001
 31
0.0
 70
   160
  1
M<>x1
 71
     5
 42
12.0
  3
ISO-25
100
AcDbAlignedDimension
 13
32.0
 23
5.999999999949977
 33
0.0
 14
32.0
 24
-6.000000000050022
 34
0.0
 50
270.0
100
AcDbRotatedDimension
1001
ACAD
1000
DSTYLE
1002
{
1070
   179
1070
     4
1070
   275
1070
     1
1002
}
  0
LINE
  5
1127
330
1F
100
AcDbEntity
  8
SK3
100
AcDbLine
 10
31.5
 20
-9.000000000050023
 30
0.0
 11
41.5
 21
-9.000000000050023
 31
0.0
  0
CIRCLE
  5
112B
330
1F
100
AcDbEntity
  8
1
100
AcDbCircle
 10
27.0
 20
-13.00000000005002
 30
0.0
 40
2.0
  0
CIRCLE
  5
112C
330
1F
100
AcDbEntity
  8
1
100
AcDbCircle
 10
27.0
 20
-13.00000000005002
 30
0.0
 40
3.399999999999999
  0
LINE
  5
1138
330
1F
100
AcDbEntity
  8
SK3
100
AcDbLine
 10
19.09999999999998
 20
-8.050000000050005
 30
0.0
 11
19.10159018729998
 21
-8.050000000050005
 31
0.0
  0
LINE
  5
1140
330
1F
100
AcDbEntity
  8
SK3
100
AcDbLine
 10
31.00005185210003
 20
-5.499948132849993
 30
0.0
 11
31.50005656589998
 21
-5.999943417550014
 31
0.0
  0
LINE
  5
1141
330
1F
100
AcDbEntity
  8
NOCUT
100
AcDbLine
 10
20.10000000000002
 20
24.74999999994997
 30
0.0
 11
44.18023595220001
 21
24.74999999994997
 31
0.0
  0
LINE
  5
1142
330
1F
100
AcDbEntity
  8
1
100
AcDbLine
 10
20.09999999999998
 20
24.74999999994997
 30
0.0
 11
44.18023595220001
 21
24.74999999994997
 31
0.0
  0
LINE
  5
1143
330
1F
100
AcDbEntity
  8
SK3
100
AcDbLine
 10
31.5
 20
8.999999999949976
 30
0.0
 11
41.5
 21
8.999999999949976
 31
0.0
  0
LINE
  5
1146
330
1F
100
AcDbEntity
  8
SK3
100
AcDbLine
 10
19.09999999999998
 20
8.049999999949987
 30
0.0
 11
19.10159018729998
 21
8.049999999949987
 31
0.0
  0
LINE
  5
1149
330
1F
100
AcDbEntity
  8
SK3
100
AcDbLine
 10
31.00005185280002
 20
5.499948133549992
 30
0.0
 11
31.50005656659998
 21
5.99994341835
 31
0.0
  0
SPLINE
  5
114A
330
1F
100
AcDbEntity
  8
NOCUT
100
AcDbSpline
210
0.0
220
0.0
230
1.0
 70
     8
 71
     3
 72
    12
 73
     8
 74
     6
 42
0.0000000001
 43
0.0000000001
 44
0.0000000001
 12
-0.9782293684369161
 22
0.2075266313693556
 32
0.0
 13
0.0000721500727437
 23
0.9999999973971835
 33
0.0
 40
0.0
 40
0.0
 40
0.0
 40
0.0
 40
0.1045801613104072
 40
0.3514011910924233
 40
0.6279955716910976
 40
0.9211533288758161
 40
1.218994310494791
 40
1.218994310494791
 40
1.218994310494791
 40
1.218994310494791
 10
19.81993855620004
 20
24.77833228165001
 30
0.0
 10
19.7858374278168
 20
24.78556667117829
 30
0.0
 10
19.67249524881386
 20
24.81581954249256
 30
0.0
 10
19.48090666803121
 20
24.90640952437559
 30
0.0
 10
19.2752519076784
 20
25.09170725590873
 30
0.0
 10
19.13261727805667
 20
25.34965851258116
 30
0.0
 10
19.09999283691719
 20
25.54838623950205
 30
0.0
 10
19.10000000000001
 20
25.64766656644996
 30
0.0
 11
19.81993855620004
 21
24.77833228165001
 31
0.0
 11
19.71891766999998
 21
24.80538391175002
 31
0.0
 11
19.49618520530003
 21
24.91173648534998
 31
0.0
 11
19.29116568380004
 21
25.09740136404996
 31
0.0
 11
19.14926685379997
 21
25.35392854124994
 31
0.0
 11
19.10000000000001
 21
25.64766656644996
 31
0.0
  0
LINE
  5
1157
330
1F
100
AcDbEntity
  8
NOCUT
100
AcDbLine
 10
20.10000000000002
 20
24.74999999994997
 30
0.0
 11
19.97739148490001
 21
24.75754488665001
 31
0.0
  0
SPLINE
  5
1158
330
1F
100
AcDbEntity
  8
NOCUT
100
AcDbSpline
210
0.0
220
0.0
230
1.0
 70
     8
 71
     3
 72
     8
 73
     4
 74
     2
 42
0.0000000001
 43
0.0000000001
 44
0.0000000001
 12
-0.9985161623236912
 22
0.0544561619871247
 32
0.0
 13
-0.9970548561118645
 23
0.0766916807988263
 33
0.0
 40
0.0
 40
0.0
 40
0.0
 40
0.0
 40
0.0232974297754174
 40
0.0232974297754174
 40
0.0232974297754174
 40
0.0232974297754174
 10
19.97754713070003
 20
24.75752567044998
 30
0.0
 10
19.96979284397624
 20
24.75794856665322
 30
0.0
 10
19.96204277769751
 20
24.75845773353403
 30
0.0
 10
19.95429983920002
 20
24.75905330654995
 30
0.0
 11
19.97754713070003
 21
24.75752567044998
 31
0.0
 11
19.95429983920002
 21
24.75905330654995
 31
0.0
  0
SPLINE
  5
1159
330
1F
100
AcDbEntity
  8
NOCUT
100
AcDbSpline
210
0.0
220
0.0
230
1.0
 70
     8
 71
     3
 72
     9
 73
     5
 74
     3
 42
0.0000000001
 43
0.0000000001
 44
0.0000000001
 12
-0.9970548559966045
 22
0.0766916822973015
 32
0.0
 13
-0.9782293683806729
 23
0.2075266316344718
 33
0.0
 40
0.0
 40
0.0
 40
0.0
 40
0.0
 40
0.0520926692651944
 40
0.1358073375343383
 40
0.1358073375343383
 40
0.1358073375343383
 40
0.1358073375343383
 10
19.95429983920002
 20
24.75905330654995
 30
0.0
 10
19.93698675624912
 20
24.76038499803038
 30
0.0
 10
19.89193499099483
 20
24.76498314616646
 30
0.0
 10
19.84723593855508
 20
24.77254127394192
 30
0.0
 10
19.81993855620004
 20
24.77833228165001
 30
0.0
 11
19.95429983920002
 21
24.75905330654995
 31
0.0
 11
19.90247694449998
 21
24.76434799974998
 31
0.0
 11
19.81993855620004
 21
24.77833228165001
 31
0.0
  0
LINE
  5
115E
330
1F
100
AcDbEntity
  8
NOCUT
100
AcDbLine
 10
44.18023595220001
 20
24.74999999994997
 30
0.0
 11
47.5
 21
18.99999999994996
 31
0.0
  0
LINE
  5
115F
330
1F
100
AcDbEntity
  8
1
100
AcDbLine
 10
44.18023595220001
 20
24.74999999994997
 30
0.0
 11
47.5
 21
18.99999999994996
 31
0.0
  0
LINE
  5
1160
330
1F
100
AcDbEntity
  8
NOCUT
100
AcDbLine
 10
80.5
 20
16.58045018445
 30
0.0
 11
80.5
 21
0.0000000000000284
 31
0.0
  0
LINE
  5
1161
330
1F
100
AcDbEntity
  8
1
100
AcDbLine
 10
80.5
 20
16.58045018445
 30
0.0
 11
80.5
 21
-16.58045018445
 31
0.0
  0
LINE
  5
1162
330
1F
100
AcDbEntity
  8
1
100
AcDbLine
 10
69.15743636080003
 20
18.99999999994996
 30
0.0
 11
69.15743636080003
 21
-19.00000000005001
 31
0.0
  0
LINE
  5
1163
330
1F
100
AcDbEntity
  8
1
100
AcDbLine
 10
62.30000000000001
 20
18.99999999994996
 30
0.0
 11
62.30000000000001
 21
-19.00000000005001
 31
0.0
  0
LINE
  5
1164
330
1F
100
AcDbEntity
  8
1
100
AcDbLine
 10
60.69999999999999
 20
18.99999999994996
 30
0.0
 11
60.69999999999999
 21
-19.00000000005001
 31
0.0
  0
LINE
  5
1165
330
1F
100
AcDbEntity
  8
1
100
AcDbLine
 10
59.30000000000001
 20
18.99999999994996
 30
0.0
 11
59.30000000000001
 21
-19.00000000005001
 31
0.0
  0
LINE
  5
1166
330
1F
100
AcDbEntity
  8
1
100
AcDbLine
 10
57.69999999999999
 20
18.99999999994996
 30
0.0
 11
57.69999999999999
 21
-19.00000000005001
 31
0.0
  0
LINE
  5
1167
330
1F
100
AcDbEntity
  8
1
100
AcDbLine
 10
56.30000000000001
 20
18.99999999994996
 30
0.0
 11
56.30000000000001
 21
-19.00000000005001
 31
0.0
  0
LINE
  5
1168
330
1F
100
AcDbEntity
  8
1
100
AcDbLine
 10
54.69999999999998
 20
18.99999999994996
 30
0.0
 11
54.69999999999998
 21
-19.00000000005001
 31
0.0
  0
LINE
  5
1169
330
1F
100
AcDbEntity
  8
SK3
100
AcDbLine
 10
80.0
 20
7.999999999949977
 30
0.0
 11
80.0
 21
-8.000000000050022
 31
0.0
  0
LINE
  5
116A
330
1F
100
AcDbEntity
  8
SK3
100
AcDbLine
 10
76.89999999999997
 20
9.499999999949976
 30
0.0
 11
76.89999999999997
 21
-9.500000000050023
 31
0.0
  0
LINE
  5
116B
330
1F
100
AcDbEntity
  8
SK3
100
AcDbLine
 10
66.39999999999997
 20
9.399999999949985
 30
0.0
 11
66.39999999999997
 21
-9.400000000050027
 31
0.0
  0
LINE
  5
116C
330
1F
100
AcDbEntity
  8
SK3
100
AcDbLine
 10
54.40000000000001
 20
9.399999999949985
 30
0.0
 11
54.40000000000001
 21
-9.400000000050027
 31
0.0
  0
LINE
  5
116D
330
1F
100
AcDbEntity
  8
1
100
AcDbLine
 10
62.30000000000001
 20
-19.00000000005001
 30
0.0
 11
69.15743636080003
 21
-19.00000000005001
 31
0.0
  0
LINE
  5
116E
330
1F
100
AcDbEntity
  8
SK3
100
AcDbLine
 10
66.39999999999997
 20
-9.400000000050027
 30
0.0
 11
54.40000000000001
 21
-9.400000000050027
 31
0.0
  0
LINE
  5
116F
330
1F
100
AcDbEntity
  8
1
100
AcDbLine
 10
56.30000000000001
 20
-19.00000000005001
 30
0.0
 11
57.69999999999999
 21
-19.00000000005001
 31
0.0
  0
ARC
  5
1170
330
1F
100
AcDbEntity
  8
1
100
AcDbCircle
 10
55.5
 20
-19.00000000005001
 30
0.0
 40
0.8
100
AcDbArc
 50
0.0
 51
180.0
  0
LINE
  5
1171
330
1F
100
AcDbEntity
  8
1
100
AcDbLine
 10
59.30000000000001
 20
-19.00000000005001
 30
0.0
 11
60.69999999999999
 21
-19.00000000005001
 31
0.0
  0
ARC
  5
1172
330
1F
100
AcDbEntity
  8
1
100
AcDbCircle
 10
58.5
 20
-19.00000000005001
 30
0.0
 40
0.8
100
AcDbArc
 50
0.0
 51
180.0
  0
ARC
  5
1173
330
1F
100
AcDbEntity
  8
1
100
AcDbCircle
 10
61.5
 20
-19.00000000005001
 30
0.0
 40
0.8
100
AcDbArc
 50
0.0
 51
180.0
  0
LINE
  5
1174
330
1F
100
AcDbEntity
  8
SK3
100
AcDbLine
 10
80.00004203470002
 20
-7.999957957350004
 30
0.0
 11
80.50004466190001
 21
-8.499955329649992
 31
0.0
  0
LINE
  5
1175
330
1F
100
AcDbEntity
  8
1
100
AcDbLine
 10
69.15743636080003
 20
-19.00000000005001
 30
0.0
 11
80.08682408880003
 21
-17.07285406094999
 31
0.0
  0
ARC
  5
1176
330
1F
100
AcDbEntity
  8
SK3
100
AcDbCircle
 10
71.64999999999998
 20
-13.00000000005002
 30
0.0
 40
1.0
100
AcDbArc
 50
270.0
 51
0.0
  0
LINE
  5
1177
330
1F
100
AcDbEntity
  8
SK3
100
AcDbLine
 10
76.89999999999997
 20
-8.500000000050022
 30
0.0
 11
66.39999999999997
 21
-8.500000000050022
 31
0.0
  0
LINE
  5
117A
330
1F
100
AcDbEntity
  8
SK3
100
AcDbLine
 10
72.64999999999997
 20
-9.500000000050023
 30
0.0
 11
72.64999999999997
 21
-13.00000000005002
 31
0.0
  0
LINE
  5
117B
330
1F
100
AcDbEntity
  8
SK3
100
AcDbLine
 10
70.64999999999997
 20
-9.500000000050023
 30
0.0
 11
70.64999999999997
 21
-12.00000000005002
 31
0.0
  0
ARC
  5
117C
330
1F
100
AcDbEntity
  8
1
100
AcDbCircle
 10
80.0
 20
-16.58045018445
 30
0.0
 40
0.5
100
AcDbArc
 50
280.0000000016999
 51
0.0
  0
LINE
  5
117D
330
1F
100
AcDbEntity
  8
NOCUT
100
AcDbLine
 10
62.30000000000001
 20
18.99999999994996
 30
0.0
 11
69.15743636080003
 21
18.99999999994996
 31
0.0
  0
LINE
  5
117E
330
1F
100
AcDbEntity
  8
1
100
AcDbLine
 10
62.30000000000001
 20
18.99999999994996
 30
0.0
 11
69.15743636080003
 21
18.99999999994996
 31
0.0
  0
LINE
  5
117F
330
1F
100
AcDbEntity
  8
SK3
100
AcDbLine
 10
66.39999999999997
 20
9.399999999949985
 30
0.0
 11
54.40000000000001
 21
9.399999999949985
 31
0.0
  0
LINE
  5
1180
330
1F
100
AcDbEntity
  8
NOCUT
100
AcDbLine
 10
56.30000000000001
 20
18.99999999994996
 30
0.0
 11
57.69999999999999
 21
18.99999999994996
 31
0.0
  0
LINE
  5
1181
330
1F
100
AcDbEntity
  8
1
100
AcDbLine
 10
56.30000000000001
 20
18.99999999994996
 30
0.0
 11
57.69999999999999
 21
18.99999999994996
 31
0.0
  0
ARC
  5
1182
330
1F
100
AcDbEntity
  8
NOCUT
100
AcDbCircle
 10
55.5
 20
18.99999999994996
 30
0.0
 40
0.8
100
AcDbArc
 50
180.0
 51
0.0
  0
ARC
  5
1183
330
1F
100
AcDbEntity
  8
1
100
AcDbCircle
 10
55.5
 20
18.99999999994996
 30
0.0
 40
0.8
100
AcDbArc
 50
180.0
 51
0.0
  0
LINE
  5
1184
330
1F
100
AcDbEntity
  8
NOCUT
100
AcDbLine
 10
59.30000000000001
 20
18.99999999994996
 30
0.0
 11
60.69999999999999
 21
18.99999999994996
 31
0.0
  0
LINE
  5
1185
330
1F
100
AcDbEntity
  8
1
100
AcDbLine
 10
59.30000000000001
 20
18.99999999994996
 30
0.0
 11
60.69999999999999
 21
18.99999999994996
 31
0.0
  0
ARC
  5
1186
330
1F
100
AcDbEntity
  8
NOCUT
100
AcDbCircle
 10
58.5
 20
18.99999999994996
 30
0.0
 40
0.8
100
AcDbArc
 50
180.0
 51
0.0
  0
ARC
  5
1187
330
1F
100
AcDbEntity
  8
1
100
AcDbCircle
 10
58.5
 20
18.99999999994996
 30
0.0
 40
0.8
100
AcDbArc
 50
180.0
 51
0.0
  0
ARC
  5
1188
330
1F
100
AcDbEntity
  8
NOCUT
100
AcDbCircle
 10
61.5
 20
18.99999999994996
 30
0.0
 40
0.8
100
AcDbArc
 50
180.0
 51
0.0
  0
ARC
  5
1189
330
1F
100
AcDbEntity
  8
1
100
AcDbCircle
 10
61.5
 20
18.99999999994996
 30
0.0
 40
0.8
100
AcDbArc
 50
180.0
 51
0.0
  0
LINE
  5
118A
330
1F
100
AcDbEntity
  8
SK3
100
AcDbLine
 10
76.89999999999997
 20
8.499999999949977
 30
0.0
 11
66.39999999999997
 21
8.499999999949977
 31
0.0
  0
LINE
  5
118B
330
1F
100
AcDbEntity
  8
SK3
100
AcDbLine
 10
80.0000420351
 20
7.999957957750012
 30
0.0
 11
80.50004466230001
 21
8.499955330149987
 31
0.0
  0
LINE
  5
118C
330
1F
100
AcDbEntity
  8
NOCUT
100
AcDbLine
 10
69.15743636080003
 20
18.99999999994996
 30
0.0
 11
80.08682408880003
 21
17.07285406095001
 31
0.0
  0
LINE
  5
118D
330
1F
100
AcDbEntity
  8
1
100
AcDbLine
 10
69.15743636080003
 20
18.99999999994996
 30
0.0
 11
80.08682408880003
 21
17.07285406095001
 31
0.0
  0
ARC
  5
118E
330
1F
100
AcDbEntity
  8
NOCUT
100
AcDbCircle
 10
80.0
 20
16.58045018445
 30
0.0
 40
0.5
100
AcDbArc
 50
0.0
 51
79.99999999910023
  0
ARC
  5
118F
330
1F
100
AcDbEntity
  8
1
100
AcDbCircle
 10
80.0
 20
16.58045018445
 30
0.0
 40
0.5
100
AcDbArc
 50
0.0
 51
79.99999999910023
  0
ARC
  5
1190
330
1F
100
AcDbEntity
  8
NOCUT
100
AcDbCircle
 10
17.49999999999999
 20
30.17499999994997
 30
0.0
 40
1.600000000000014
100
AcDbArc
 50
359.9999999999991
 51
89.99999999999976
  0
DIMENSION
  5
119D
330
1F
100
AcDbEntity
  8
SK2
100
AcDbDimension
  2
*D10
 10
92.87505033290001
 20
7.999999999949974
 30
0.0
 11
92.87505033290001
 21
0.3492303507499912
 31
0.0
 70
   160
  1
%%c<>
 71
     5
 42
16.0
  3
ISO-25
100
AcDbAlignedDimension
 13
81.0
 23
-8.000000000050022
 33
0.0
 14
81.0
 24
7.999999999949977
 34
0.0
 50
90.0
100
AcDbRotatedDimension
1001
ACAD
1000
DSTYLE
1002
{
1070
   179
1070
     4
1070
   275
1070
     1
1002
}
  0
LINE
  5
1293
330
1F
100
AcDbEntity
  8
SK3
100
AcDbLine
 10
11.1496913731
 20
-24.37483587445001
 30
0.0
 11
11.1496913731
 21
-21.93327956501807
 31
0.0
  0
LINE
  5
1294
330
1F
100
AcDbEntity
  8
SK3
100
AcDbLine
 10
7.662865645700009
 20
-21.93331253795
 30
0.0
 11
11.14973846290892
 21
-21.93331253794998
 31
0.0
  0
LINE
  5
1296
330
1F
100
AcDbEntity
  8
SK3
100
AcDbLine
 10
15.50347982289999
 20
-26.74390361564999
 30
0.0
 11
17.15926223739525
 21
-24.37922225671671
 31
0.0
  0
LINE
  5
1297
330
1F
100
AcDbEntity
  8
SK3
100
AcDbLine
 10
15.00702458270001
 20
21.58229195004993
 30
0.0
 11
12.1391253147
 21
25.67804020754993
 31
0.0
  0
LINE
  5
1299
330
1F
100
AcDbEntity
  8
1
100
AcDbLine
 10
12.975
 20
29.39776026654996
 30
0.0
 11
14.3475
 21
31.77499999994997
 31
0.0
  0
LINE
  5
129A
330
1F
100
AcDbEntity
  8
SK3
100
AcDbLine
 10
16.23487357220001
 20
28.54593947554997
 30
0.0
 11
12.1391253147
 21
25.67804020754993
 31
0.0
  0
LINE
  5
129B
330
1F
100
AcDbEntity
  8
SK3
100
AcDbLine
 10
11.1496913731
 20
24.37483587434996
 30
0.0
 11
16.52166349900003
 21
28.13636464984996
 31
0.0
  0
LINE
  5
129C
330
1F
100
AcDbEntity
  8
SK3
100
AcDbLine
 10
15.41659940850002
 20
21.86908187684994
 30
0.0
 11
12.54870014049999
 21
25.96483013434996
 31
0.0
  0
LINE
  5
129D
330
1F
100
AcDbEntity
  8
SK3
100
AcDbLine
 10
6.328372714300009
 20
28.66666355844995
 30
0.0
 11
3.199999999999993
 21
24.19927680593469
 31
0.0
  0
LINE
  5
129E
330
1F
100
AcDbEntity
  8
SK3
100
AcDbLine
 10
7.717264717247504
 20
21.93331253784994
 30
0.0
 11
10.28061198530002
 21
25.59383021694995
 31
0.0
  0
LINE
  5
129F
330
1F
100
AcDbEntity
  8
SK3
100
AcDbLine
 10
12.54870014049999
 20
25.96483013434996
 30
0.0
 11
12.42591524150001
 21
25.26846538184994
 31
0.0
  0
LINE
  5
12A0
330
1F
100
AcDbEntity
  8
4
100
AcDbLine
 10
11.1496913731
 20
21.93327956491801
 30
0.0
 11
1.798206056400012
 21
28.48177193814996
 31
0.0
  0
LINE
  5
12A1
330
1F
100
AcDbEntity
  8
SK3
100
AcDbLine
 10
11.1496913731
 20
24.37483587434996
 30
0.0
 11
5.898165026800008
 21
28.05231728344995
 31
0.0
  0
LINE
  5
12A2
330
1F
100
AcDbEntity
  8
SK3
100
AcDbLine
 10
6.328372714300009
 20
28.66666355844995
 30
0.0
 11
3.316950524800013
 21
30.77546933924995
 31
0.0
  0
LINE
  5
12A3
330
1F
100
AcDbEntity
  8
1
100
AcDbLine
 10
7.8525
 20
31.77499999994997
 30
0.0
 11
4.800000000000018
 21
31.77499999994997
 31
0.0
  0
ARC
  5
12A4
330
1F
100
AcDbEntity
  8
1
100
AcDbCircle
 10
4.800000000000018
 20
30.17499999994996
 30
0.0
 40
1.6
100
AcDbArc
 50
90.0
 51
180.0
  0
LINE
  5
12A5
330
1F
100
AcDbEntity
  8
1
100
AcDbLine
 10
7.8525
 20
31.77499999994997
 30
0.0
 11
9.224999999999999
 21
29.39776026654996
 31
0.0
  0
LINE
  5
12A6
330
1F
100
AcDbEntity
  8
SK3
100
AcDbLine
 10
6.184970151800007
 20
28.46188146684994
 30
0.0
 11
10.28061198530002
 21
25.59383021694995
 31
0.0
  0
ARC
  5
12A7
330
1F
100
AcDbEntity
  8
1
100
AcDbCircle
 10
12.475
 20
28.62499999994997
 30
0.0
 40
0.5
100
AcDbArc
 50
270.0
 51
0.0
  0
ARC
  5
12A8
330
1F
100
AcDbEntity
  8
1
100
AcDbCircle
 10
9.724999999999999
 20
28.62499999994997
 30
0.0
 40
0.5
100
AcDbArc
 50
180.0
 51
270.0
  0
LINE
  5
12A9
330
1F
100
AcDbEntity
  8
1
100
AcDbLine
 10
9.724999999999999
 20
28.12499999994997
 30
0.0
 11
12.475
 21
28.12499999994997
 31
0.0
  0
LINE
  5
12AA
330
1F
100
AcDbEntity
  8
SK3
100
AcDbLine
 10
3.316918901900044
 20
24.36623963334994
 30
0.0
 11
7.227012429714133
 21
21.62812212074271
 31
0.0
  0
LINE
  5
12AB
330
1F
100
AcDbEntity
  8
SK3
100
AcDbLine
 10
7.662865645700013
 20
21.93331253784994
 30
0.0
 11
3.603724026900044
 21
24.77580381664994
 31
0.0
  0
LINE
  5
12AC
330
1F
100
AcDbEntity
  8
1
100
AcDbLine
 10
0.319615242299994
 20
21.80829262144996
 30
0.0
 11
2.409731931300005
 21
21.80829262144996
 31
0.0
  0
LINE
  5
12AD
330
1F
100
AcDbEntity
  8
1
100
AcDbLine
 10
-0.8000000000000058
 20
22.10829262144996
 30
0.0
 11
0.319615242299994
 21
21.80829262144996
 31
0.0
  0
ARC
  5
12AE
330
1F
100
AcDbEntity
  8
1
100
AcDbCircle
 10
2.409731931300006
 20
22.80829262144996
 30
0.0
 40
1.0
100
AcDbArc
 50
270.0
 51
322.4620664206
  0
LINE
  5
12AF
330
1F
100
AcDbEntity
  8
SK3
100
AcDbLine
 10
7.662865645700013
 20
21.93331253784994
 30
0.0
 11
11.14973846290892
 21
21.93331253784994
 31
0.0
  0
LINE
  5
12B0
330
1F
100
AcDbEntity
  8
SK3
100
AcDbLine
 10
11.1496913731
 20
24.37483587434996
 30
0.0
 11
11.1496913731
 21
21.93327956491801
 31
0.0
  0
LINE
  5
12B1
330
1F
100
AcDbEntity
  8
SK3
100
AcDbLine
 10
15.5034798229
 20
26.74390361554995
 30
0.0
 11
17.15926223739525
 21
24.37922225661667
 31
0.0
  0
SPLINE
  5
12B2
330
1F
100
AcDbEntity
  8
1
100
AcDbSpline
210
0.0
220
0.0
230
1.0
 70
     8
 71
     3
 72
    12
 73
     8
 74
     6
 42
0.0000000001
 43
0.0000000001
 44
0.0000000001
 12
-0.9782284101721941
 22
0.2075311483415958
 32
0.0
 13
0.0000966920952711
 23
0.9999999953253194
 33
0.0
 40
0.0
 40
0.0
 40
0.0
 40
0.0
 40
0.1045814745929319
 40
0.3514029098131217
 40
0.627995779184915
 40
0.9211542037274568
 40
1.218989734529322
 40
1.218989734529322
 40
1.218989734529322
 40
1.218989734529322
 10
19.8199340034
 20
24.77833324724997
 30
0.0
 10
19.78583248019183
 20
24.78556788508914
 30
0.0
 10
19.67248989593248
 20
24.81582151348316
 30
0.0
 10
19.4809019049535
 20
24.90641280342522
 30
0.0
 10
19.27524814235914
 20
25.09171172079601
 30
0.0
 10
19.13261748988659
 20
25.34966202346372
 30
0.0
 10
19.09999040055283
 20
25.54838805654676
 30
0.0
 10
19.1
 20
25.64766656634995
 30
0.0
 11
19.8199340034
 21
24.77833324724997
 31
0.0
 11
19.71891199410001
 21
24.80538576034996
 31
0.0
 11
19.49617986540003
 21
24.91173997854994
 31
0.0
 11
19.29116264770001
 21
25.09740514984997
 31
0.0
 11
19.14926503500002
 21
25.35393376304995
 31
0.0
 11
19.1
 21
25.64766656634995
 31
0.0
  0
LINE
  5
12B3
330
1F
100
AcDbEntity
  8
SK3
100
AcDbLine
 10
18.0827688098
 20
25.90689500704996
 30
0.0
 11
16.74531663370005
 21
24.97039259634996
 31
0.0
  0
LINE
  5
12B4
330
1F
100
AcDbEntity
  8
SK3
100
AcDbLine
 10
15.6209490775
 20
25.06411571284996
 30
0.0
 11
15.5034798229
 21
26.74390361554995
 31
0.0
  0
LINE
  5
12B5
330
1F
100
AcDbEntity
  8
SK3
100
AcDbLine
 10
18.48841060160001
 20
24.02000632784995
 30
0.0
 11
15.62051133360001
 21
28.11575458534994
 31
0.0
  0
LINE
  5
12B6
330
1F
100
AcDbEntity
  8
SK3
100
AcDbLine
 10
19.2461678036
 20
24.24540380524996
 30
0.0
 11
16.09147860880001
 21
28.75072688844994
 31
0.0
  0
ARC
  5
12B8
330
1F
100
AcDbEntity
  8
1
100
AcDbCircle
 10
17.5
 20
30.17499999994996
 30
0.0
 40
1.6
100
AcDbArc
 50
0.0
 51
90.0
  0
LINE
  5
12B9
330
1F
100
AcDbEntity
  8
1
100
AcDbLine
 10
17.5
 20
31.77499999994997
 30
0.0
 11
14.3475
 21
31.77499999994997
 31
0.0
  0
LINE
  5
12BA
330
1F
100
AcDbEntity
  8
SK3
100
AcDbLine
 10
16.09147860880001
 20
28.75072688844994
 30
0.0
 11
18.9830575016
 21
30.77545020354994
 31
0.0
  0
LINE
  5
12BB
330
1F
100
AcDbEntity
  8
SK3
100
AcDbLine
 10
17.25487760260004
 20
27.08923568654995
 30
0.0
 11
15.91742542650002
 21
26.15273327584994
 31
0.0
  0
LINE
  5
12BD
330
1F
100
AcDbEntity
  8
SK3
100
AcDbLine
 10
16.66505846240003
 20
27.93157723694994
 30
0.0
 11
15.62051133360001
 21
28.11575458534994
 31
0.0
  0
LINE
  5
12BE
330
1F
100
AcDbEntity
  8
SK3
100
AcDbLine
 10
16.84093199900002
 20
27.68040602634997
 30
0.0
 11
15.5034798229
 21
26.74390361554995
 31
0.0
  0
LINE
  5
12BF
330
1F
100
AcDbEntity
  8
SK3
100
AcDbLine
 10
18.49671441340002
 20
25.31572466734996
 30
0.0
 11
17.1592622373
 21
24.37922225654997
 31
0.0
  0
LINE
  5
12C0
330
1F
100
AcDbEntity
  8
SK3
100
AcDbLine
 10
19.10277284020001
 20
24.45019121804994
 30
0.0
 11
15.00702458270001
 21
21.58229195004993
 31
0.0
  0
LINE
  5
12C1
330
1F
100
AcDbEntity
  8
SK3
100
AcDbLine
 10
15.6209490775
 20
25.06411571284996
 30
0.0
 11
17.1592622373
 21
24.37922225654997
 31
0.0
  0
LINE
  5
12C2
330
1F
100
AcDbEntity
  8
SK3
100
AcDbLine
 10
15.41659940850002
 20
21.86908187684994
 30
0.0
 11
14.72023465590002
 21
21.99186677584994
 31
0.0
  0
LINE
  5
12C3
330
1F
100
AcDbEntity
  8
SK3
100
AcDbLine
 10
19.2461678036
 20
24.24540380524996
 30
0.0
 11
19.97754713070001
 21
24.75752567034996
 31
0.0
  0
SPLINE
  5
12C4
330
1F
100
AcDbEntity
  8
1
100
AcDbSpline
210
0.0
220
0.0
230
1.0
 70
     8
 71
     3
 72
     9
 73
     5
 74
     3
 42
0.0000000001
 43
0.0000000001
 44
0.0000000001
 12
-0.9970551032357846
 22
0.076688467917145
 32
0.0
 13
-0.978228410157706
 23
0.2075311484098878
 33
0.0
 40
0.0
 40
0.0
 40
0.0
 40
0.0
 40
0.0520989456724832
 40
0.1358153469739661
 40
0.1358153469739661
 40
0.1358153469739661
 40
0.1358153469739661
 10
19.95430318810003
 20
24.75905304864994
 30
0.0
 10
19.93698801488138
 20
24.76038484475784
 30
0.0
 10
19.89193358638273
 20
24.76498325422716
 30
0.0
 10
19.84723192411642
 20
24.77254199361569
 30
0.0
 10
19.8199340034
 20
24.77833324724997
 30
0.0
 11
19.95430318810003
 21
24.75905304864994
 31
0.0
 11
19.90247404839999
 21
24.76434836904996
 31
0.0
 11
19.8199340034
 21
24.77833324724997
 31
0.0
  0
LINE
  5
12C5
330
1F
100
AcDbEntity
  8
1
100
AcDbLine
 10
20.1
 20
24.74999999994997
 30
0.0
 11
19.97737892350003
 21
24.75754643844996
 31
0.0
  0
SPLINE
  5
12C6
330
1F
100
AcDbEntity
  8
1
100
AcDbSpline
210
0.0
220
0.0
230
1.0
 70
     8
 71
     3
 72
     8
 73
     4
 74
     2
 42
0.0000000001
 43
0.0000000001
 44
0.0000000001
 12
-0.9985161631108535
 22
0.0544561475536009
 32
0.0
 13
-0.9970551031857796
 23
0.0766884685672777
 33
0.0
 40
0.0
 40
0.0
 40
0.0
 40
0.0
 40
0.0232940711783574
 40
0.0232940711783574
 40
0.0232940711783574
 40
0.0232940711783574
 10
19.97754713070001
 20
24.75752567034996
 30
0.0
 10
19.96979396184126
 20
24.75794850547569
 30
0.0
 10
19.96204501228081
 20
24.75845758643481
 30
0.0
 10
19.95430318810003
 20
24.75905304864994
 30
0.0
 11
19.97754713070001
 21
24.75752567034996
 31
0.0
 11
19.95430318810003
 21
24.75905304864994
 31
0.0
  0
LINE
  5
12C7
330
1F
100
AcDbEntity
  8
SK3
100
AcDbLine
 10
18.67258795000001
 20
25.06455345664994
 30
0.0
 11
18.48841060160001
 21
24.02000632784995
 31
0.0
  0
LINE
  5
12C8
330
1F
100
AcDbEntity
  8
SK3
100
AcDbLine
 10
-24.58016261769998
 20
5.499999999949976
 30
0.0
 11
-24.58016261769998
 21
-5.500000000050028
 31
0.0
  0
ENDSEC
  0
SECTION
  2
OBJECTS
  0
DICTIONARY
  5
9AF
330
0
100
AcDbDictionary
281
     1
  3
ACAD_GROUP
350
9B0
  3
ACAD_LAYOUT
350
9B8
  3
ACAD_MLINESTYLE
350
9B1
  3
ACAD_PLOTSETTINGS
350
9B9
  3
ACAD_PLOTSTYLENAME
350
9B6
  0
DICTIONARY
  5
9B0
102
{ACAD_REACTORS
330
9AF
102
}
330
9AF
100
AcDbDictionary
281
     1
  0
DICTIONARY
  5
9B8
102
{ACAD_REACTORS
330
9AF
102
}
330
9AF
100
AcDbDictionary
281
     1
  3
Layout1
350
9BB
  3
Model
350
9BA
  0
DICTIONARY
  5
9B1
102
{ACAD_REACTORS
330
9AF
102
}
330
9AF
100
AcDbDictionary
281
     1
  3
STANDARD
350
9B2
  0
DICTIONARY
  5
9B9
102
{ACAD_REACTORS
330
9AF
102
}
330
9AF
100
AcDbDictionary
281
     1
  0
ACDBDICTIONARYWDFLT
  5
9B6
102
{ACAD_REACTORS
330
9AF
102
}
330
9AF
100
AcDbDictionary
281
     1
  3
Normal
350
9B7
100
AcDbDictionaryWithDefault
340
9B7
  0
LAYOUT
  5
9BB
102
{ACAD_REACTORS
330
9B8
102
}
330
9B8
100
AcDbPlotSettings
  1

  2
Kein
  4

  6

 40
0.0
 41
0.0
 42
0.0
 43
0.0
 44
0.0
 45
0.0
 46
0.0
 47
0.0
 48
0.0
 49
0.0
140
0.0
141
0.0
142
1.0
143
1.0
 70
   688
 72
     0
 73
     0
 74
     5
  7

 75
    16
147
1.0
148
0.0
149
0.0
100
AcDbLayout
  1
Layout1
 70
     1
 71
     1
 10
0.0
 20
0.0
 11
12.0
 21
9.0
 12
0.0
 22
0.0
 32
0.0
 14
1.000000000000000E+20
 24
1.000000000000000E+20
 34
1.000000000000000E+20
 15
-1.000000000000000E+20
 25
-1.000000000000000E+20
 35
-1.000000000000000E+20
146
0.0
 13
0.0
 23
0.0
 33
0.0
 16
1.0
 26
0.0
 36
0.0
 17
0.0
 27
1.0
 37
0.0
 76
     0
330
1B
  0
LAYOUT
  5
9BA
102
{ACAD_REACTORS
330
9B8
102
}
330
9B8
100
AcDbPlotSettings
  1

  2
Kein
  4

  6

 40
0.0
 41
0.0
 42
0.0
 43
0.0
 44
0.0
 45
0.0
 46
0.0
 47
0.0
 48
0.0
 49
0.0
140
0.0
141
0.0
142
1.0
143
1.0
 70
  1712
 72
     0
 73
     0
 74
     0
  7

 75
     0
147
1.0
148
0.0
149
0.0
100
AcDbLayout
  1
Model
 70
     1
 71
     0
 10
0.0
 20
0.0
 11
12.0
 21
9.0
 12
0.0
 22
0.0
 32
0.0
 14
0.0
 24
0.0
 34
0.0
 15
0.0
 25
0.0
 35
0.0
146
0.0
 13
0.0
 23
0.0
 33
0.0
 16
1.0
 26
0.0
 36
0.0
 17
0.0
 27
1.0
 37
0.0
 76
     0
330
1F
  0
MLINESTYLE
  5
9B2
102
{ACAD_REACTORS
330
9B1
102
}
330
9B1
100
AcDbMlineStyle
  2
STANDARD
 70
     0
  3

 62
   256
 51
90.0
 52
90.0
 71
     2
 49
0.5
 62
   256
  6
BYLAYER
 49
-0.5
 62
   256
  6
BYLAYER
  0
ACDBPLACEHOLDER
  5
9B7
102
{ACAD_REACTORS
330
9B6
102
}
330
9B6
  0
ENDSEC
  0
EOF
