  0
SECTION
  2
HEADER
  9
$ACADVER
  1
AC1015
  9
$ACADMAINTVER
 70
    10
  9
$DWGCODEPAGE
  3
ANSI_1252
  9
$INSBASE
 10
0.0
 20
0.0
 30
0.0
  9
$EXTMIN
 10
-71.40014280676552
 20
-73.35427772826313
 30
-0.0000000241633914
  9
$EXTMAX
 10
114.9004470210168
 20
63.25829310229483
 30
0.000000056393553
  9
$LIMMIN
 10
0.0
 20
0.0
  9
$LIMMAX
 10
420.0
 20
297.0
  9
$ORTHOMODE
 70
     0
  9
$REGENMODE
 70
     1
  9
$FILLMODE
 70
     1
  9
$QTEXTMODE
 70
     0
  9
$MIRRTEXT
 70
     1
  9
$LTSCALE
 40
23.1
  9
$ATTMODE
 70
     1
  9
$TEXTSIZE
 40
0.2
  9
$TRACEWID
 40
0.05
  9
$TEXTSTYLE
  7
STANDARD
  9
$CLAYER
  8
0
  9
$CELTYPE
  6
BYLAYER
  9
$CECOLOR
 62
   256
  9
$CELTSCALE
 40
1.0
  9
$DISPSILH
 70
     0
  9
$DIMSCALE
 40
1.0
  9
$DIMASZ
 40
3.5
  9
$DIMEXO
 40
0.625
  9
$DIMDLI
 40
3.75
  9
$DIMRND
 40
0.0
  9
$DIMDLE
 40
0.0
  9
$DIMEXE
 40
2.0
  9
$DIMTP
 40
0.0
  9
$DIMTM
 40
0.0
  9
$DIMTXT
 40
3.5
  9
$DIMCEN
 40
2.5
  9
$DIMTSZ
 40
0.0
  9
$DIMTOL
 70
     0
  9
$DIMLIM
 70
     0
  9
$DIMTIH
 70
     0
  9
$DIMTOH
 70
     0
  9
$DIMSE1
 70
     0
  9
$DIMSE2
 70
     0
  9
$DIMTAD
 70
     1
  9
$DIMZIN
 70
     8
  9
$DIMBLK
  1

  9
$DIMASO
 70
     1
  9
$DIMSHO
 70
     1
  9
$DIMPOST
  1

  9
$DIMAPOST
  1

  9
$DIMALT
 70
     0
  9
$DIMALTD
 70
     3
  9
$DIMALTF
 40
0.03937007874016
  9
$DIMLFAC
 40
1.0
  9
$DIMTOFL
 70
     1
  9
$DIMTVP
 40
0.0
  9
$DIMTIX
 70
     0
  9
$DIMSOXD
 70
     0
  9
$DIMSAH
 70
     0
  9
$DIMBLK1
  1

  9
$DIMBLK2
  1

  9
$DIMSTYLE
  2
ISO-25
  9
$DIMCLRD
 70
   256
  9
$DIMCLRE
 70
   256
  9
$DIMCLRT
 70
   256
  9
$DIMTFAC
 40
1.0
  9
$DIMGAP
 40
0.625
  9
$DIMJUST
 70
     0
  9
$DIMSD1
 70
     0
  9
$DIMSD2
 70
     0
  9
$DIMTOLJ
 70
     0
  9
$DIMTZIN
 70
     8
  9
$DIMALTZ
 70
     0
  9
$DIMALTTZ
 70
     0
  9
$DIMUPT
 70
     0
  9
$DIMDEC
 70
     1
  9
$DIMTDEC
 70
     1
  9
$DIMALTU
 70
     2
  9
$DIMALTTD
 70
     3
  9
$DIMTXSTY
  7
isocp
  9
$DIMAUNIT
 70
     0
  9
$DIMADEC
 70
     0
  9
$DIMALTRND
 40
0.0
  9
$DIMAZIN
 70
     0
  9
$DIMDSEP
 70
    46
  9
$DIMATFIT
 70
     0
  9
$DIMFRAC
 70
     0
  9
$DIMLDRBLK
  1

  9
$DIMLUNIT
 70
     2
  9
$DIMLWD
 70
    -2
  9
$DIMLWE
 70
    -2
  9
$DIMTMOVE
 70
     0
  9
$LUNITS
 70
     2
  9
$LUPREC
 70
     4
  9
$SKETCHINC
 40
0.1
  9
$FILLETRAD
 40
0.9
  9
$AUNITS
 70
     0
  9
$AUPREC
 70
     0
  9
$MENU
  1
.
  9
$ELEVATION
 40
0.0
  9
$PELEVATION
 40
0.0
  9
$THICKNESS
 40
0.0
  9
$LIMCHECK
 70
     0
  9
$CHAMFERA
 40
0.0
  9
$CHAMFERB
 40
0.0
  9
$CHAMFERC
 40
0.0
  9
$CHAMFERD
 40
0.0
  9
$SKPOLY
 70
     0
  9
$TDCREATE
 40
2453886.623645833
  9
$TDUCREATE
 40
2453886.540312500
  9
$TDUPDATE
 40
2453889.533160081
  9
$TDUUPDATE
 40
2453889.449826748
  9
$TDINDWG
 40
0.1152735185
  9
$TDUSRTIMER
 40
0.1152735185
  9
$USRTIMER
 70
     1
  9
$ANGBASE
 50
0.0
  9
$ANGDIR
 70
     0
  9
$PDMODE
 70
     3
  9
$PDSIZE
 40
0.3125
  9
$PLINEWID
 40
0.0
  9
$SPLFRAME
 70
     0
  9
$SPLINETYPE
 70
     6
  9
$SPLINESEGS
 70
     8
  9
$HANDSEED
  5
1319
  9
$SURFTAB1
 70
     6
  9
$SURFTAB2
 70
     6
  9
$SURFTYPE
 70
     6
  9
$SURFU
 70
     6
  9
$SURFV
 70
     6
  9
$UCSBASE
  2

  9
$UCSNAME
  2

  9
$UCSORG
 10
0.0
 20
0.0
 30
0.0
  9
$UCSXDIR
 10
1.0
 20
0.0
 30
0.0
  9
$UCSYDIR
 10
0.0
 20
1.0
 30
0.0
  9
$UCSORTHOREF
  2

  9
$UCSORTHOVIEW
 70
     0
  9
$UCSORGTOP
 10
0.0
 20
0.0
 30
0.0
  9
$UCSORGBOTTOM
 10
0.0
 20
0.0
 30
0.0
  9
$UCSORGLEFT
 10
0.0
 20
0.0
 30
0.0
  9
$UCSORGRIGHT
 10
0.0
 20
0.0
 30
0.0
  9
$UCSORGFRONT
 10
0.0
 20
0.0
 30
0.0
  9
$UCSORGBACK
 10
0.0
 20
0.0
 30
0.0
  9
$PUCSBASE
  2

  9
$PUCSNAME
  2

  9
$PUCSORG
 10
0.0
 20
0.0
 30
0.0
  9
$PUCSXDIR
 10
1.0
 20
0.0
 30
0.0
  9
$PUCSYDIR
 10
0.0
 20
1.0
 30
0.0
  9
$PUCSORTHOREF
  2

  9
$PUCSORTHOVIEW
 70
     0
  9
$PUCSORGTOP
 10
0.0
 20
0.0
 30
0.0
  9
$PUCSORGBOTTOM
 10
0.0
 20
0.0
 30
0.0
  9
$PUCSORGLEFT
 10
0.0
 20
0.0
 30
0.0
  9
$PUCSORGRIGHT
 10
0.0
 20
0.0
 30
0.0
  9
$PUCSORGFRONT
 10
0.0
 20
0.0
 30
0.0
  9
$PUCSORGBACK
 10
0.0
 20
0.0
 30
0.0
  9
$USERI1
 70
     0
  9
$USERI2
 70
     0
  9
$USERI3
 70
     0
  9
$USERI4
 70
     0
  9
$USERI5
 70
     0
  9
$USERR1
 40
0.0
  9
$USERR2
 40
0.0
  9
$USERR3
 40
0.0
  9
$USERR4
 40
0.0
  9
$USERR5
 40
0.0
  9
$WORLDVIEW
 70
     1
  9
$SHADEDGE
 70
     3
  9
$SHADEDIF
 70
    70
  9
$TILEMODE
 70
     1
  9
$MAXACTVP
 70
    64
  9
$PINSBASE
 10
0.0
 20
0.0
 30
0.0
  9
$PLIMCHECK
 70
     0
  9
$PEXTMIN
 10
1.000000000000000E+20
 20
1.000000000000000E+20
 30
1.000000000000000E+20
  9
$PEXTMAX
 10
-1.000000000000000E+20
 20
-1.000000000000000E+20
 30
-1.000000000000000E+20
  9
$PLIMMIN
 10
0.0
 20
0.0
  9
$PLIMMAX
 10
12.0
 20
9.0
  9
$UNITMODE
 70
     0
  9
$VISRETAIN
 70
     1
  9
$PLINEGEN
 70
     0
  9
$PSLTSCALE
 70
     1
  9
$TREEDEPTH
 70
  3020
  9
$CMLSTYLE
  2
STANDARD
  9
$CMLJUST
 70
     0
  9
$CMLSCALE
 40
1.0
  9
$PROXYGRAPHICS
 70
     1
  9
$MEASUREMENT
 70
     1
  9
$CELWEIGHT
370
    -1
  9
$ENDCAPS
280
     0
  9
$JOINSTYLE
280
     0
  9
$LWDISPLAY
290
     0
  9
$INSUNITS
 70
     0
  9
$HYPERLINKBASE
  1

  9
$STYLESHEET
  1

  9
$XEDIT
290
     1
  9
$CEPSNTYPE
380
     0
  9
$PSTYLEMODE
290
     1
  9
$FINGERPRINTGUID
  2
{428FF706-D66C-47DA-AB04-70CCED84CF81}
  9
$VERSIONGUID
  2
{76EF679D-088D-474C-91EC-71C0F527E09A}
  9
$EXTNAMES
290
     1
  9
$PSVPSCALE
 40
0.0
  9
$OLESTARTUP
290
     0
  0
ENDSEC
  0
SECTION
  2
CLASSES
  0
CLASS
  1
ACDBDICTIONARYWDFLT
  2
AcDbDictionaryWithDefault
  3
AutoCAD 2000
 90
        0
280
     0
281
     0
  0
CLASS
  1
ACDBPLACEHOLDER
  2
AcDbPlaceHolder
  3
AutoCAD 2000
 90
        0
280
     0
281
     0
  0
CLASS
  1
LAYOUT
  2
AcDbLayout
  3
AutoCAD 2000
 90
        0
280
     0
281
     0
  0
ENDSEC
  0
SECTION
  2
TABLES
  0
TABLE
  2
VPORT
  5
8
330
0
100
AcDbSymbolTable
 70
     3
  0
VPORT
  5
1318
330
8
100
AcDbSymbolTableRecord
100
AcDbViewportTableRecord
  2
*Active
 70
     0
 10
0.0
 20
0.0
 11
1.0
 21
1.0
 12
21.75015210712564
 22
-5.047992312984149
 13
0.0
 23
0.0
 14
1.0
 24
1.0
 15
0.0
 25
0.0
 16
0.0
 26
0.0
 36
1.0
 17
0.0
 27
0.0
 37
0.0
 40
137.4249349782123
 41
1.539682539682539
 42
50.0
 43
0.0
 44
0.0
 50
0.0
 51
0.0
 71
     0
 72
 20000
 73
     1
 74
     1
 75
     0
 76
     0
 77
     0
 78
     0
281
     0
 65
     1
110
0.0
120
0.0
130
0.0
111
1.0
121
0.0
131
0.0
112
0.0
122
1.0
132
0.0
 79
     0
146
0.0
  0
ENDTAB
  0
TABLE
  2
LTYPE
  5
5
330
0
100
AcDbSymbolTable
 70
     3
  0
LTYPE
  5
14
330
5
100
AcDbSymbolTableRecord
100
AcDbLinetypeTableRecord
  2
BYBLOCK
 70
     0
  3

 72
    65
 73
     0
 40
0.0
  0
LTYPE
  5
15
330
5
100
AcDbSymbolTableRecord
100
AcDbLinetypeTableRecord
  2
BYLAYER
 70
     0
  3

 72
    65
 73
     0
 40
0.0
  0
LTYPE
  5
16
330
5
100
AcDbSymbolTableRecord
100
AcDbLinetypeTableRecord
  2
CONTINUOUS
 70
     0
  3
Solid line
 72
    65
 73
     0
 40
0.0
  0
LTYPE
  5
1F5
330
5
100
AcDbSymbolTableRecord
100
AcDbLinetypeTableRecord
  2
CENTER
 70
     0
  3
____ _ ____ _ ____ _ ____ _ ____ _ ____ _ ____
 72
    65
 73
     4
 40
0.6
 49
0.375
 74
     0
 49
-0.075
 74
     0
 49
0.075
 74
     0
 49
-0.075
 74
     0
  0
LTYPE
  5
1F6
330
5
100
AcDbSymbolTableRecord
100
AcDbLinetypeTableRecord
  2
HIDDEN
 70
     0
  3
- - - - - - - - - - - - - - - - - - - -
 72
    65
 73
     2
 40
0.2
 49
0.1
 74
     0
 49
-0.1
 74
     0
  0
ENDTAB
  0
TABLE
  2
LAYER
  5
2
330
0
100
AcDbSymbolTable
 70
     9
  0
LAYER
  5
10
330
2
100
AcDbSymbolTableRecord
100
AcDbLayerTableRecord
  2
0
 70
     0
 62
     7
  6
CONTINUOUS
370
    -3
390
9B8
  0
LAYER
  5
A34
330
2
100
AcDbSymbolTableRecord
100
AcDbLayerTableRecord
  2
Defpoints
 70
     0
 62
     7
  6
CONTINUOUS
290
     0
370
    -3
390
9B8
  0
LAYER
  5
A35
330
2
100
AcDbSymbolTableRecord
100
AcDbLayerTableRecord
  2
1
 70
     0
 62
     4
  6
CONTINUOUS
370
    -3
390
9B8
  0
LAYER
  5
A36
330
2
100
AcDbSymbolTableRecord
100
AcDbLayerTableRecord
  2
4
 70
     0
 62
     2
  6
CENTER
370
    -3
390
9B8
  0
LAYER
  5
A37
330
2
100
AcDbSymbolTableRecord
100
AcDbLayerTableRecord
  2
6
 70
     0
 62
     5
  6
CONTINUOUS
370
    -3
390
9B8
  0
LAYER
  5
A38
330
2
100
AcDbSymbolTableRecord
100
AcDbLayerTableRecord
  2
NOCUT
 70
     0
 62
     7
  6
CONTINUOUS
370
    -3
390
9B8
  0
LAYER
  5
A39
330
2
100
AcDbSymbolTableRecord
100
AcDbLayerTableRecord
  2
2
 70
     0
 62
     7
  6
CONTINUOUS
370
    -3
390
9B8
  0
LAYER
  5
A3A
330
2
100
AcDbSymbolTableRecord
100
AcDbLayerTableRecord
  2
SK2
 70
     0
 62
     7
  6
CONTINUOUS
370
    -3
390
9B8
  0
LAYER
  5
A3B
330
2
100
AcDbSymbolTableRecord
100
AcDbLayerTableRecord
  2
SK3
 70
     0
 62
     1
  6
HIDDEN
370
    -3
390
9B8
  0
ENDTAB
  0
TABLE
  2
STYLE
  5
3
330
0
100
AcDbSymbolTable
 70
     2
  0
STYLE
  5
11
330
3
100
AcDbSymbolTableRecord
100
AcDbTextStyleTableRecord
  2
STANDARD
 70
     0
 40
0.0
 41
0.8
 50
0.0
 71
     0
 42
0.2
  3
txt
  4

  0
STYLE
  5
A3C
330
3
100
AcDbSymbolTableRecord
100
AcDbTextStyleTableRecord
  2
isocp
 70
     0
 40
0.0
 41
0.8
 50
0.0
 71
     0
 42
0.2
  3
isocp.shx
  4

  0
ENDTAB
  0
TABLE
  2
VIEW
  5
6
330
0
100
AcDbSymbolTable
 70
     0
  0
ENDTAB
  0
TABLE
  2
UCS
  5
7
330
0
100
AcDbSymbolTable
 70
     0
  0
ENDTAB
  0
TABLE
  2
APPID
  5
9
330
0
100
AcDbSymbolTable
 70
     1
  0
APPID
  5
215
330
9
100
AcDbSymbolTableRecord
100
AcDbRegAppTableRecord
  2
ACAD
 70
     0
  0
ENDTAB
  0
TABLE
  2
DIMSTYLE
  5
A
330
0
100
AcDbSymbolTable
 70
     2
100
AcDbDimStyleTable
 71
     2
340
A3D
340
220
  0
DIMSTYLE
105
220
330
A
100
AcDbSymbolTableRecord
100
AcDbDimStyleTableRecord
  2
STANDARD
 70
     0
 41
2.5
 47
0.01
 48
0.01
 71
     1
 73
     0
 74
     0
 77
     1
 78
     8
140
3.5
178
     5
271
     3
272
     3
284
     8
340
11
341
216
342
216
343
216
344
216
  0
DIMSTYLE
105
A3D
102
{ACAD_REACTORS
330
1117
330
11BC
330
11BD
330
11BE
330
11C0
330
11C1
330
11C2
330
11D2
102
}
330
A
100
AcDbSymbolTableRecord
100
AcDbDimStyleTableRecord
  2
ISO-25
 70
     0
 41
3.5
 42
0.625
 43
3.75
 44
2.0
 73
     0
 74
     0
 77
     1
 78
     8
140
3.5
141
2.5
143
0.03937007874016
147
0.625
171
     3
172
     1
176
   256
177
   256
178
   256
271
     1
272
     1
274
     3
283
     0
284
     8
289
     0
340
A3C
  0
ENDTAB
  0
TABLE
  2
BLOCK_RECORD
  5
1
330
0
100
AcDbSymbolTable
 70
    11
  0
BLOCK_RECORD
  5
1F
330
1
100
AcDbSymbolTableRecord
100
AcDbBlockTableRecord
  2
*MODEL_SPACE
340
9BB
  0
BLOCK_RECORD
  5
1B
330
1
100
AcDbSymbolTableRecord
100
AcDbBlockTableRecord
  2
*PAPER_SPACE
340
9BC
  0
BLOCK_RECORD
  5
216
330
1
100
AcDbSymbolTableRecord
100
AcDbBlockTableRecord
  2
_ARROW_FILLED
340
0
102
{BLKREFS
331
676
331
677
331
681
331
682
331
68B
331
68C
331
696
331
697
331
69F
331
6A0
331
6AC
331
6AD
331
6B5
331
6B6
331
6C0
331
6C1
331
B73
331
B74
102
}
  0
BLOCK_RECORD
  5
9BF
330
1
100
AcDbSymbolTableRecord
100
AcDbBlockTableRecord
  2
nullpunkt_1
340
0
310
2800000020000000200000000100080000000000000400000000000000000000000000000000000000000000000080000080000000808000800000008000800080800000C0C0C000C0DCC000F0CAA6000020400000206000002080000020A0000020C0000020E00000400000004020000040400000406000004080000040A0
310
000040C0000040E00000600000006020000060400000606000006080000060A0000060C0000060E00000800000008020000080400000806000008080000080A0000080C0000080E00000A0000000A0200000A0400000A0600000A0800000A0A00000A0C00000A0E00000C0000000C0200000C0400000C0600000C0800000C0
310
A00000C0C00000C0E00000E0000000E0200000E0400000E0600000E0800000E0A00000E0C00000E0E00040000000400020004000400040006000400080004000A0004000C0004000E00040200000402020004020400040206000402080004020A0004020C0004020E000404000004040200040404000404060004040800040
310
40A0004040C0004040E00040600000406020004060400040606000406080004060A0004060C0004060E00040800000408020004080400040806000408080004080A0004080C0004080E00040A0000040A0200040A0400040A0600040A0800040A0A00040A0C00040A0E00040C0000040C0200040C0400040C0600040C08000
310
40C0A00040C0C00040C0E00040E0000040E0200040E0400040E0600040E0800040E0A00040E0C00040E0E00080000000800020008000400080006000800080008000A0008000C0008000E00080200000802020008020400080206000802080008020A0008020C0008020E00080400000804020008040400080406000804080
310
008040A0008040C0008040E00080600000806020008060400080606000806080008060A0008060C0008060E00080800000808020008080400080806000808080008080A0008080C0008080E00080A0000080A0200080A0400080A0600080A0800080A0A00080A0C00080A0E00080C0000080C0200080C0400080C0600080C0
310
800080C0A00080C0C00080C0E00080E0000080E0200080E0400080E0600080E0800080E0A00080E0C00080E0E000C0000000C0002000C0004000C0006000C0008000C000A000C000C000C000E000C0200000C0202000C0204000C0206000C0208000C020A000C020C000C020E000C0400000C0402000C0404000C0406000C0
310
408000C040A000C040C000C040E000C0600000C0602000C0604000C0606000C0608000C060A000C060C000C060E000C0800000C0802000C0804000C0806000C0808000C080A000C080C000C080E000C0A00000C0A02000C0A04000C0A06000C0A08000C0A0A000C0A0C000C0A0E000C0C00000C0C02000C0C04000C0C06000
310
C0C08000C0C0A000F0FBFF00A4A0A000808080000000FF0000FF000000FFFF00FF000000FF00FF00FFFF0000FFFFFF0000000000000000000000000000000000000000000000000000000000000000000000000000000000000000000000FEFE0000000000000000000000000000000000000000000000000000FEFEFEFEFE
310
FEFEFE00000000000000000000000000000000000000000000FEFEFEFEFEFE00FE0000FEFE00000000000000000000000000000000000000FEFEFEFE00FE0000FE00000000FEFE00000000000000000000000000000000FEFEFE0000FE000000FE000000000000FEFE00000000000000000000000000FEFE000000FE000000
310
00FE0000000000000000FEFE00000000000000000000FEFE000000FE0000000000FE00000000000000000000FE0000000000000000FEFEFE0000FE000000000000FE00000000000000000000FE0000000000000000FEFE0000FE00000000000000FE0000000000000000000000FE000000000000FEFEFE00FE000000000000
310
0000FE0000000000000000000000FE000000000000FEFE00FE000000000000000000FE000000000000000000000000FE0000000000FEFEFE00000000000000000000FE000000000000000000000000FE0000000000FEFE0000000000000000000000FE00000000000000000000000000FE000000FEFE000000000000000000
310
000000FE00000000000000000000000000FE000000FEFEFEFEFEFEFEFEFEFEFEFEFEFEFEFEFEFEFEFEFEFEFEFEFEFEFEFEFEFE000000FE000000000000000000000000FE00000000000000000000000000FEFE000000FE000000000000000000000000FE000000000000000000000000FEFEFE00000000FE00000000000000
310
00000000FE0000000000000000000000FE00FE0000000000FE0000000000000000000000FE00000000000000000000FE00FEFE000000000000FE00000000000000000000FE000000000000000000FE0000FEFE000000000000FE00000000000000000000FE0000000000000000FE0000FEFEFE00000000000000FE00000000
310
0000000000FE00000000000000FE000000FEFE0000000000000000FE000000000000000000FE000000000000FE000000FEFEFE000000000000000000FE0000000000000000FE0000000000FE00000000FEFE00000000000000000000FE0000000000000000FE00000000FE00000000FEFE000000000000000000000000FEFE
310
000000000000FE000000FE000000FEFEFE000000000000000000000000000000FEFE00000000FE0000FE0000FEFEFEFE000000000000000000000000000000000000FEFE0000FE00FE00FEFEFEFEFE000000000000000000000000000000000000000000FEFEFEFEFEFEFEFEFE000000000000000000000000000000000000
310
00000000000000FEFEFE00000000000000000000000000000000000000000000000000000000000000000000000000000000000000000000
102
{BLKREFS
331
B07
331
CB2
331
DDD
331
F9D
331
107A
331
117F
102
}
  0
BLOCK_RECORD
  5
9C8
330
1
100
AcDbSymbolTableRecord
100
AcDbBlockTableRecord
  2
nullpunkt_2
340
0
310
2800000020000000200000000100080000000000000400000000000000000000000000000000000000000000000080000080000000808000800000008000800080800000C0C0C000C0DCC000F0CAA6000020400000206000002080000020A0000020C0000020E00000400000004020000040400000406000004080000040A0
310
000040C0000040E00000600000006020000060400000606000006080000060A0000060C0000060E00000800000008020000080400000806000008080000080A0000080C0000080E00000A0000000A0200000A0400000A0600000A0800000A0A00000A0C00000A0E00000C0000000C0200000C0400000C0600000C0800000C0
310
A00000C0C00000C0E00000E0000000E0200000E0400000E0600000E0800000E0A00000E0C00000E0E00040000000400020004000400040006000400080004000A0004000C0004000E00040200000402020004020400040206000402080004020A0004020C0004020E000404000004040200040404000404060004040800040
310
40A0004040C0004040E00040600000406020004060400040606000406080004060A0004060C0004060E00040800000408020004080400040806000408080004080A0004080C0004080E00040A0000040A0200040A0400040A0600040A0800040A0A00040A0C00040A0E00040C0000040C0200040C0400040C0600040C08000
310
40C0A00040C0C00040C0E00040E0000040E0200040E0400040E0600040E0800040E0A00040E0C00040E0E00080000000800020008000400080006000800080008000A0008000C0008000E00080200000802020008020400080206000802080008020A0008020C0008020E00080400000804020008040400080406000804080
310
008040A0008040C0008040E00080600000806020008060400080606000806080008060A0008060C0008060E00080800000808020008080400080806000808080008080A0008080C0008080E00080A0000080A0200080A0400080A0600080A0800080A0A00080A0C00080A0E00080C0000080C0200080C0400080C0600080C0
310
800080C0A00080C0C00080C0E00080E0000080E0200080E0400080E0600080E0800080E0A00080E0C00080E0E000C0000000C0002000C0004000C0006000C0008000C000A000C000C000C000E000C0200000C0202000C0204000C0206000C0208000C020A000C020C000C020E000C0400000C0402000C0404000C0406000C0
310
408000C040A000C040C000C040E000C0600000C0602000C0604000C0606000C0608000C060A000C060C000C060E000C0800000C0802000C0804000C0806000C0808000C080A000C080C000C080E000C0A00000C0A02000C0A04000C0A06000C0A08000C0A0A000C0A0C000C0A0E000C0C00000C0C02000C0C04000C0C06000
310
C0C08000C0C0A000F0FBFF00A4A0A000808080000000FF0000FF000000FFFF00FF000000FF00FF00FFFF0000FFFFFF0000000000000000000000000000000000000000000000000000000000000000000000000000000000000000000000FEFE0000000000000000000000000000000000000000000000000000FEFEFEFEFE
310
FEFEFE00000000000000000000000000000000000000000000FEFEFEFEFEFE00FE0000FEFE00000000000000000000000000000000000000FEFEFEFE00FE0000FE00000000FEFE00000000000000000000000000000000FEFEFE0000FE000000FE000000000000FEFE00000000000000000000000000FEFE000000FE000000
310
00FE0000000000000000FEFE00000000000000000000FEFE000000FE0000000000FE00000000000000000000FE0000000000000000FEFEFE0000FE000000000000FE00000000000000000000FE0000000000000000FEFE0000FE00000000000000FE0000000000000000000000FE000000000000FEFEFE00FE000000000000
310
0000FE0000000000000000000000FE000000000000FEFE00FE000000000000000000FE000000000000000000000000FE0000000000FEFEFE00000000000000000000FE000000000000000000000000FE0000000000FEFE0000000000000000000000FE00000000000000000000000000FE000000FEFE000000000000000000
310
000000FE00000000000000000000000000FE000000FEFEFEFEFEFEFEFEFEFEFEFEFEFEFEFEFEFEFEFEFEFEFEFEFEFEFEFEFEFE000000FE000000000000000000000000FE00000000000000000000000000FEFE000000FE000000000000000000000000FE000000000000000000000000FEFEFE00000000FE00000000000000
310
00000000FE0000000000000000000000FE00FE0000000000FE0000000000000000000000FE00000000000000000000FE00FEFE000000000000FE00000000000000000000FE000000000000000000FE0000FEFE000000000000FE00000000000000000000FE0000000000000000FE0000FEFEFE00000000000000FE00000000
310
0000000000FE00000000000000FE000000FEFE0000000000000000FE000000000000000000FE000000000000FE000000FEFEFE000000000000000000FE0000000000000000FE0000000000FE00000000FEFE00000000000000000000FE0000000000000000FE00000000FE00000000FEFE000000000000000000000000FEFE
310
000000000000FE000000FE000000FEFEFE000000000000000000000000000000FEFE00000000FE0000FE0000FEFEFEFE000000000000000000000000000000000000FEFE0000FE00FE00FEFEFEFEFE000000000000000000000000000000000000000000FEFEFEFEFEFEFEFEFE000000000000000000000000000000000000
310
00000000000000FEFEFE00000000000000000000000000000000000000000000000000000000000000000000000000000000000000000000
102
{BLKREFS
331
AA5
331
C50
331
D7B
331
F9B
331
10F7
331
11FC
102
}
  0
BLOCK_RECORD
  5
120F
330
1
100
AcDbSymbolTableRecord
100
AcDbBlockTableRecord
  2
*D3
340
0
  0
BLOCK_RECORD
  5
121B
330
1
100
AcDbSymbolTableRecord
100
AcDbBlockTableRecord
  2
*D4
340
0
  0
BLOCK_RECORD
  5
1227
330
1
100
AcDbSymbolTableRecord
100
AcDbBlockTableRecord
  2
*D5
340
0
  0
BLOCK_RECORD
  5
1235
330
1
100
AcDbSymbolTableRecord
100
AcDbBlockTableRecord
  2
*D6
340
0
  0
BLOCK_RECORD
  5
1241
330
1
100
AcDbSymbolTableRecord
100
AcDbBlockTableRecord
  2
*D7
340
0
  0
BLOCK_RECORD
  5
124D
330
1
100
AcDbSymbolTableRecord
100
AcDbBlockTableRecord
  2
*D8
340
0
  0
BLOCK_RECORD
  5
125B
330
1
100
AcDbSymbolTableRecord
100
AcDbBlockTableRecord
  2
*D9
340
0
  0
BLOCK_RECORD
  5
1267
330
1
100
AcDbSymbolTableRecord
100
AcDbBlockTableRecord
  2
*D10
340
0
  0
ENDTAB
  0
ENDSEC
  0
SECTION
  2
BLOCKS
  0
BLOCK
  5
20
330
1F
100
AcDbEntity
  8
0
100
AcDbBlockBegin
  2
*MODEL_SPACE
 70
     0
 10
0.0
 20
0.0
 30
0.0
  3
*MODEL_SPACE
  1

  0
ENDBLK
  5
21
330
1F
100
AcDbEntity
  8
0
100
AcDbBlockEnd
  0
BLOCK
  5
1C
330
1B
100
AcDbEntity
 67
     1
  8
0
100
AcDbBlockBegin
  2
*PAPER_SPACE
 70
     0
 10
0.0
 20
0.0
 30
0.0
  3
*PAPER_SPACE
  1

  0
ENDBLK
  5
1D
330
1B
100
AcDbEntity
 67
     1
  8
0
100
AcDbBlockEnd
  0
BLOCK
  5
6C3
330
216
100
AcDbEntity
  8
0
100
AcDbBlockBegin
  2
_ARROW_FILLED
 70
     0
 10
0.0
 20
0.0
 30
0.0
  3
_ARROW_FILLED
  1

  0
SOLID
  5
6C4
330
216
100
AcDbEntity
  8
0
  6
ByBlock
 62
     0
100
AcDbTrace
 10
0.0
 20
0.0
 30
0.0
 11
-1.0
 21
0.132
 31
0.0
 12
-1.0
 22
-0.132
 32
0.0
 13
-1.0
 23
-0.132
 33
0.0
  0
ENDBLK
  5
6C5
330
216
100
AcDbEntity
  8
0
  6
ByBlock
 62
     0
100
AcDbBlockEnd
  0
BLOCK
  5
9C6
330
9BF
100
AcDbEntity
  8
0
100
AcDbBlockBegin
  2
nullpunkt_1
 70
     0
 10
0.0
 20
0.0
 30
0.0
  3
nullpunkt_1
  1

  0
LWPOLYLINE
  5
9C0
102
{ACAD_REACTORS
330
9C1
102
}
330
9BF
100
AcDbEntity
  8
1
100
AcDbPolyline
 90
        3
 70
     1
 43
0.0
 10
0.0
 20
2.950972054112752
 10
0.0
 20
0.0
 10
2.950972054112638
 20
0.0
 42
0.4142135623730966
  0
HATCH
  5
9C1
330
9BF
100
AcDbEntity
  8
1
100
AcDbHatch
 10
0.0
 20
0.0
 30
0.0
210
0.0
220
0.0
230
1.0
  2
SOLID
 70
     1
 71
     1
 91
        2
 92
        7
 72
     1
 73
     1
 93
        3
 10
0.0
 20
0.0
 42
0.0
 10
2.950972054112638
 20
0.0
 42
0.4142135623730968
 10
0.0
 20
2.950972054112752
 42
0.0
 97
        1
330
9C0
 92
        7
 72
     1
 73
     1
 93
        3
 10
0.0
 20
-2.950972054112412
 42
0.0
 10
0.0
 20
0.0
 42
0.0
 10
-2.950972054112583
 20
0.0
 42
0.4142135623730966
 97
        1
330
9C3
 75
     0
 76
     1
 47
0.1190009775223266
 98
        2
 10
0.7445530588119596
 20
0.9212244733765826
 10
-1.27946460185285
 20
-1.696796923046235
  0
CIRCLE
  5
9C2
330
9BF
100
AcDbEntity
  8
1
100
AcDbCircle
 10
0.0
 20
0.0
 30
0.0
 40
2.950972054112601
  0
LWPOLYLINE
  5
9C3
102
{ACAD_REACTORS
330
9C1
102
}
330
9BF
100
AcDbEntity
  8
1
100
AcDbPolyline
 90
        3
 70
     1
 43
0.0
 10
0.0
 20
0.0
 10
-2.950972054112583
 20
0.0
 42
0.4142135623730966
 10
0.0
 20
-2.950972054112412
  0
LINE
  5
9C4
330
9BF
100
AcDbEntity
  8
1
100
AcDbLine
 10
-2.950972054112752
 20
0.0
 30
0.0
 11
2.950972054112583
 21
0.0
 31
0.0
  0
LINE
  5
9C5
330
9BF
100
AcDbEntity
  8
1
100
AcDbLine
 10
0.0
 20
2.950972054112752
 30
0.0
 11
0.0
 21
-2.950972054112412
 31
0.0
  0
ENDBLK
  5
9C7
330
9BF
100
AcDbEntity
  8
0
100
AcDbBlockEnd
  0
BLOCK
  5
9CE
330
9C8
100
AcDbEntity
  8
0
100
AcDbBlockBegin
  2
nullpunkt_2
 70
     0
 10
0.0
 20
0.0
 30
0.0
  3
nullpunkt_2
  1

  0
CIRCLE
  5
9C9
330
9C8
100
AcDbEntity
  8
1
100
AcDbCircle
 10
0.0
 20
0.0
 30
0.0
 40
1.0
  0
HATCH
  5
9CA
330
9C8
100
AcDbEntity
  8
1
100
AcDbHatch
 10
0.0
 20
0.0
 30
0.0
210
0.0
220
0.0
230
1.0
  2
SOLID
 70
     1
 71
     0
 91
        2
 92
        1
 93
        3
 72
     1
 10
0.0
 20
0.0
 11
-1.0
 21
0.0
 72
     2
 10
0.0
 20
0.0
 40
1.0
 50
180.0
 51
270.0
 73
     1
 72
     1
 10
0.0
 20
-0.9999999999998864
 11
0.0
 21
0.0
 97
        0
 92
        1
 93
        3
 72
     1
 10
0.0
 20
1.000000000000113
 11
0.0
 21
0.0
 72
     1
 10
0.0
 20
0.0
 11
1.0
 21
0.0
 72
     2
 10
0.0
 20
0.0
 40
1.0
 50
0.0
 51
90.0
 73
     1
 97
        0
 75
     0
 76
     1
 98
        1
 10
-109.9295341761981
 20
-32.53620011044962
  0
LINE
  5
9CB
330
9C8
100
AcDbEntity
  8
1
100
AcDbLine
 10
-1.0
 20
0.0
 30
0.0
 11
1.0
 21
0.0
 31
0.0
  0
LWPOLYLINE
  5
9CC
330
9C8
100
AcDbEntity
  8
1
100
AcDbPolyline
 90
        3
 70
     1
 43
0.0
 10
0.0
 20
0.0
 10
-1.0
 20
0.0
 42
0.4142135623730951
 10
0.0
 20
-0.9999999999998864
  0
LWPOLYLINE
  5
9CD
330
9C8
100
AcDbEntity
  8
1
100
AcDbPolyline
 90
        3
 70
     1
 43
0.0
 10
0.0
 20
1.000000000000113
 10
0.0
 20
0.0
 10
1.0
 20
0.0
 42
0.4142135623730951
  0
ENDBLK
  5
9CF
330
9C8
100
AcDbEntity
  8
0
100
AcDbBlockEnd
  0
BLOCK
  5
1219
330
120F
100
AcDbEntity
  8
0
100
AcDbBlockBegin
  2
*D3
 70
     1
 10
0.0
 20
0.0
 30
0.0
  3
*D3
  1

  0
LINE
  5
1275
330
120F
100
AcDbEntity
  8
2
370
    -2
100
AcDbLine
 10
80.5
 20
10.96192051769999
 30
0.0
 11
80.5
 21
61.3050382563
 31
0.0
  0
LINE
  5
1276
330
120F
100
AcDbEntity
  8
2
370
    -2
100
AcDbLine
 10
-0.0000000000000284
 20
23.2869699679
 30
0.0
 11
-0.0000000000000261
 21
61.3050382563
 31
0.0
  0
LINE
  5
1277
330
120F
100
AcDbEntity
  8
2
370
    -2
100
AcDbLine
 10
77.0
 20
59.30503825630001
 30
0.0
 11
3.499999999999973
 21
59.30503825630001
 31
0.0
  0
SOLID
  5
1278
330
120F
100
AcDbEntity
  8
2
100
AcDbTrace
 10
77.0
 20
59.88837158963335
 30
0.0
 11
77.0
 21
58.72170492296667
 31
0.0
 12
80.5
 22
59.30503825630001
 32
0.0
 13
80.5
 23
59.30503825630001
 33
0.0
  0
SOLID
  5
1279
330
120F
100
AcDbEntity
  8
2
100
AcDbTrace
 10
3.499999999999973
 20
59.88837158963335
 30
0.0
 11
3.499999999999973
 21
58.72170492296667
 31
0.0
 12
-0.0000000000000262
 22
59.30503825630001
 32
0.0
 13
-0.0000000000000262
 23
59.30503825630001
 33
0.0
  0
MTEXT
  5
127A
330
120F
100
AcDbEntity
  8
2
100
AcDbMText
 10
41.49999999999996
 20
61.68003825630001
 30
0.0
 40
3.5
 41
0.0
 71
     5
 72
     1
  1
80.5
  7
isocp
 73
     1
 44
1.0
  0
POINT
  5
127B
330
120F
100
AcDbEntity
  8
Defpoints
 62
     0
100
AcDbPoint
 10
80.5
 20
10.33692051769999
 30
0.0
  0
POINT
  5
127C
330
120F
100
AcDbEntity
  8
Defpoints
 62
     0
100
AcDbPoint
 10
-0.0000000000000284
 20
22.6619699679
 30
0.0
  0
POINT
  5
127D
330
120F
100
AcDbEntity
  8
Defpoints
 62
     0
100
AcDbPoint
 10
-0.0000000000000262
 20
59.30503825630001
 30
0.0
  0
ENDBLK
  5
121A
330
120F
100
AcDbEntity
  8
0
100
AcDbBlockEnd
  0
BLOCK
  5
1225
330
121B
100
AcDbEntity
  8
0
100
AcDbBlockBegin
  2
*D4
 70
     1
 10
0.0
 20
0.0
 30
0.0
  3
*D4
  1

  0
LINE
  5
12C4
330
121B
100
AcDbEntity
  8
SK2
370
    -2
100
AcDbLine
 10
44.79765244409998
 20
-24.75
 30
0.0
 11
114.8750710466998
 21
-24.75000000000001
 31
0.0
  0
LINE
  5
12C5
330
121B
100
AcDbEntity
  8
SK2
370
    -2
100
AcDbLine
 10
44.64445772109999
 20
24.75
 30
0.0
 11
114.8750710466998
 21
24.74999999999998
 31
0.0
  0
LINE
  5
12C6
330
121B
100
AcDbEntity
  8
SK2
370
    -2
100
AcDbLine
 10
112.8750710466998
 20
-21.25000000000001
 30
0.0
 11
112.8750710466998
 21
21.24999999999998
 31
0.0
  0
SOLID
  5
12C7
330
121B
100
AcDbEntity
  8
SK2
100
AcDbTrace
 10
112.2917377133665
 20
-21.25000000000001
 30
0.0
 11
113.4584043800332
 21
-21.25000000000001
 31
0.0
 12
112.8750710466998
 22
-24.75000000000001
 32
0.0
 13
112.8750710466998
 23
-24.75000000000001
 33
0.0
  0
SOLID
  5
12C8
330
121B
100
AcDbEntity
  8
SK2
100
AcDbTrace
 10
112.2917377133665
 20
21.24999999999998
 30
0.0
 11
113.4584043800332
 21
21.24999999999998
 31
0.0
 12
112.8750710466998
 22
24.74999999999998
 32
0.0
 13
112.8750710466998
 23
24.74999999999998
 33
0.0
  0
MTEXT
  5
12C9
330
121B
100
AcDbEntity
  8
SK2
100
AcDbMText
 10
110.5000710466998
 20
-0.0574939427999934
 30
0.0
 40
3.5
 41
0.0
 71
     5
 72
     1
  1
%%c49.5
  7
isocp
 11
0.0000000000000001
 21
1.0
 31
0.0
 73
     1
 44
1.0
  0
POINT
  5
12CA
330
121B
100
AcDbEntity
  8
Defpoints
 62
     0
100
AcDbPoint
 10
44.17265244409998
 20
-24.75
 30
0.0
  0
POINT
  5
12CB
330
121B
100
AcDbEntity
  8
Defpoints
 62
     0
100
AcDbPoint
 10
44.01945772109999
 20
24.75
 30
0.0
  0
POINT
  5
12CC
330
121B
100
AcDbEntity
  8
Defpoints
 62
     0
100
AcDbPoint
 10
112.8750710466998
 20
24.74999999999998
 30
0.0
  0
ENDBLK
  5
1226
330
121B
100
AcDbEntity
  8
0
100
AcDbBlockEnd
  0
BLOCK
  5
1233
330
1227
100
AcDbEntity
  8
0
100
AcDbBlockBegin
  2
*D5
 70
     1
 10
0.0
 20
0.0
 30
0.0
  3
*D5
  1

  0
LINE
  5
12CD
330
1227
100
AcDbEntity
  8
SK2
370
    -2
100
AcDbLine
 10
34.49999999999996
 20
-4.625
 30
0.0
 11
34.49999999999996
 21
-46.13953498259996
 31
0.0
  0
LINE
  5
12CE
330
1227
100
AcDbEntity
  8
SK2
370
    -2
100
AcDbLine
 10
44.49999999999997
 20
-8.125
 30
0.0
 11
44.49999999999997
 21
-46.13953498259996
 31
0.0
  0
LINE
  5
12CF
330
1227
100
AcDbEntity
  8
SK2
370
    -2
100
AcDbLine
 10
30.99999999999996
 20
-44.13953498259996
 30
0.0
 11
27.49999999999996
 21
-44.13953498259996
 31
0.0
  0
LINE
  5
12D0
330
1227
100
AcDbEntity
  8
SK2
370
    -2
100
AcDbLine
 10
47.99999999999997
 20
-44.13953498259996
 30
0.0
 11
51.49999999999997
 21
-44.13953498259996
 31
0.0
  0
LINE
  5
12D1
330
1227
100
AcDbEntity
  8
SK2
370
    -2
100
AcDbLine
 10
34.49999999999996
 20
-44.13953498259996
 30
0.0
 11
44.49999999999997
 21
-44.13953498259996
 31
0.0
  0
SOLID
  5
12D2
330
1227
100
AcDbEntity
  8
SK2
100
AcDbTrace
 10
30.99999999999996
 20
-43.55620164926663
 30
0.0
 11
30.99999999999996
 21
-44.72286831593329
 31
0.0
 12
34.49999999999996
 22
-44.13953498259996
 32
0.0
 13
34.49999999999996
 23
-44.13953498259996
 33
0.0
  0
SOLID
  5
12D3
330
1227
100
AcDbEntity
  8
SK2
100
AcDbTrace
 10
47.99999999999997
 20
-43.55620164926663
 30
0.0
 11
47.99999999999997
 21
-44.72286831593329
 31
0.0
 12
44.49999999999997
 22
-44.13953498259996
 32
0.0
 13
44.49999999999997
 23
-44.13953498259996
 33
0.0
  0
MTEXT
  5
12D4
330
1227
100
AcDbEntity
  8
SK2
100
AcDbMText
 10
39.29021359419996
 20
-41.76453498259997
 30
0.0
 40
3.5
 41
0.0
 71
     5
 72
     1
  1
10
  7
isocp
 73
     1
 44
1.0
  0
POINT
  5
12D5
330
1227
100
AcDbEntity
  8
Defpoints
 62
     0
100
AcDbPoint
 10
34.49999999999996
 20
-4.0
 30
0.0
  0
POINT
  5
12D6
330
1227
100
AcDbEntity
  8
Defpoints
 62
     0
100
AcDbPoint
 10
44.49999999999997
 20
-7.5
 30
0.0
  0
POINT
  5
12D7
330
1227
100
AcDbEntity
  8
Defpoints
 62
     0
100
AcDbPoint
 10
44.49999999999997
 20
-44.13953498259996
 30
0.0
  0
ENDBLK
  5
1234
330
1227
100
AcDbEntity
  8
0
100
AcDbBlockEnd
  0
BLOCK
  5
123F
330
1235
100
AcDbEntity
  8
0
100
AcDbBlockBegin
  2
*D6
 70
     1
 10
0.0
 20
0.0
 30
0.0
  3
*D6
  1

  0
LINE
  5
12D8
330
1235
100
AcDbEntity
  8
SK2
370
    -2
100
AcDbLine
 10
80.5
 20
-14.70545018439997
 30
0.0
 11
80.5
 21
-56.13953498259996
 31
0.0
  0
LINE
  5
12D9
330
1235
100
AcDbEntity
  8
SK2
370
    -2
100
AcDbLine
 10
34.49999999999996
 20
-4.625
 30
0.0
 11
34.49999999999996
 21
-56.13953498259996
 31
0.0
  0
LINE
  5
12DA
330
1235
100
AcDbEntity
  8
SK2
370
    -2
100
AcDbLine
 10
77.0
 20
-54.13953498259996
 30
0.0
 11
37.99999999999996
 21
-54.13953498259996
 31
0.0
  0
SOLID
  5
12DB
330
1235
100
AcDbEntity
  8
SK2
100
AcDbTrace
 10
77.0
 20
-53.55620164926663
 30
0.0
 11
77.0
 21
-54.72286831593329
 31
0.0
 12
80.5
 22
-54.13953498259996
 32
0.0
 13
80.5
 23
-54.13953498259996
 33
0.0
  0
SOLID
  5
12DC
330
1235
100
AcDbEntity
  8
SK2
100
AcDbTrace
 10
37.99999999999996
 20
-53.55620164926663
 30
0.0
 11
37.99999999999996
 21
-54.72286831593329
 31
0.0
 12
34.49999999999996
 22
-54.13953498259996
 32
0.0
 13
34.49999999999996
 23
-54.13953498259996
 33
0.0
  0
MTEXT
  5
12DD
330
1235
100
AcDbEntity
  8
SK2
100
AcDbMText
 10
57.12453744929999
 20
-51.76453498259996
 30
0.0
 40
3.5
 41
0.0
 71
     5
 72
     1
  1
46
  7
isocp
 73
     1
 44
1.0
  0
POINT
  5
12DE
330
1235
100
AcDbEntity
  8
Defpoints
 62
     0
100
AcDbPoint
 10
80.5
 20
-14.08045018439997
 30
0.0
  0
POINT
  5
12DF
330
1235
100
AcDbEntity
  8
Defpoints
 62
     0
100
AcDbPoint
 10
34.49999999999996
 20
-4.0
 30
0.0
  0
POINT
  5
12E0
330
1235
100
AcDbEntity
  8
Defpoints
 62
     0
100
AcDbPoint
 10
34.49999999999996
 20
-54.13953498259996
 30
0.0
  0
ENDBLK
  5
1240
330
1235
100
AcDbEntity
  8
0
100
AcDbBlockEnd
  0
BLOCK
  5
124B
330
1241
100
AcDbEntity
  8
0
100
AcDbBlockBegin
  2
*D7
 70
     1
 10
0.0
 20
0.0
 30
0.0
  3
*D7
  1

  0
LINE
  5
12E1
330
1241
100
AcDbEntity
  8
SK2
370
    -2
100
AcDbLine
 10
70.28243636079998
 20
-16.0
 30
0.0
 11
104.8750710466999
 21
-16.00000000000001
 31
0.0
  0
LINE
  5
12E2
330
1241
100
AcDbEntity
  8
SK2
370
    -2
100
AcDbLine
 10
70.28243636079998
 20
15.99999999999999
 30
0.0
 11
104.8750710466999
 21
15.99999999999998
 31
0.0
  0
LINE
  5
12E3
330
1241
100
AcDbEntity
  8
SK2
370
    -2
100
AcDbLine
 10
102.8750710466999
 20
-12.5
 30
0.0
 11
102.8750710466999
 21
12.49999999999998
 31
0.0
  0
SOLID
  5
12E4
330
1241
100
AcDbEntity
  8
SK2
100
AcDbTrace
 10
102.2917377133665
 20
-12.5
 30
0.0
 11
103.4584043800333
 21
-12.5
 31
0.0
 12
102.8750710466999
 22
-16.0
 32
0.0
 13
102.8750710466999
 23
-16.0
 33
0.0
  0
SOLID
  5
12E5
330
1241
100
AcDbEntity
  8
SK2
100
AcDbTrace
 10
102.2917377133665
 20
12.49999999999998
 30
0.0
 11
103.4584043800333
 21
12.49999999999998
 31
0.0
 12
102.8750710466999
 22
15.99999999999998
 32
0.0
 13
102.8750710466999
 23
15.99999999999998
 33
0.0
  0
MTEXT
  5
12E6
330
1241
100
AcDbEntity
  8
SK2
100
AcDbMText
 10
100.499726558511
 20
-0.5021242849999791
 30
0.0
 40
3.5
 41
0.0
 71
     5
 72
     1
  1
%%c32
  7
isocp
 11
0.0000000000000001
 21
1.0
 31
0.0
 73
     1
 44
1.0
  0
POINT
  5
12E7
330
1241
100
AcDbEntity
  8
Defpoints
 62
     0
100
AcDbPoint
 10
69.65743636079998
 20
-16.0
 30
0.0
  0
POINT
  5
12E8
330
1241
100
AcDbEntity
  8
Defpoints
 62
     0
100
AcDbPoint
 10
69.65743636079998
 20
15.99999999999999
 30
0.0
  0
POINT
  5
12E9
330
1241
100
AcDbEntity
  8
Defpoints
 62
     0
100
AcDbPoint
 10
102.8750710466999
 20
15.99999999999998
 30
0.0
  0
ENDBLK
  5
124C
330
1241
100
AcDbEntity
  8
0
100
AcDbBlockEnd
  0
BLOCK
  5
1259
330
124D
100
AcDbEntity
  8
0
100
AcDbBlockBegin
  2
*D8
 70
     1
 10
0.0
 20
0.0
 30
0.0
  3
*D8
  1

  0
LINE
  5
12EA
330
124D
100
AcDbEntity
  8
SK2
370
    -2
100
AcDbLine
 10
81.62499999999999
 20
-6.0
 30
0.0
 11
94.87507104669999
 21
-6.000000000000003
 31
0.0
  0
LINE
  5
12EB
330
124D
100
AcDbEntity
  8
SK2
370
    -2
100
AcDbLine
 10
81.62499999999999
 20
6.0
 30
0.0
 11
94.87507104669999
 21
5.999999999999995
 31
0.0
  0
LINE
  5
12EC
330
124D
100
AcDbEntity
  8
SK2
370
    -2
100
AcDbLine
 10
92.87507104669998
 20
-9.500000000000003
 30
0.0
 11
92.87507104669998
 21
-13.0
 31
0.0
  0
LINE
  5
12ED
330
124D
100
AcDbEntity
  8
SK2
370
    -2
100
AcDbLine
 10
92.87507104669998
 20
9.499999999999996
 30
0.0
 11
92.87507104669998
 21
19.45816535433073
 31
0.0
  0
LINE
  5
12EE
330
124D
100
AcDbEntity
  8
SK2
370
    -2
100
AcDbLine
 10
92.87507104669998
 20
-6.000000000000002
 30
0.0
 11
92.87507104669998
 21
5.999999999999996
 31
0.0
  0
SOLID
  5
12EF
330
124D
100
AcDbEntity
  8
SK2
100
AcDbTrace
 10
92.29173771336666
 20
-9.500000000000003
 30
0.0
 11
93.45840438003332
 21
-9.500000000000003
 31
0.0
 12
92.87507104669998
 22
-6.000000000000002
 32
0.0
 13
92.87507104669998
 23
-6.000000000000002
 33
0.0
  0
SOLID
  5
12F0
330
124D
100
AcDbEntity
  8
SK2
100
AcDbTrace
 10
92.29173771336666
 20
9.499999999999996
 30
0.0
 11
93.45840438003332
 21
9.499999999999996
 31
0.0
 12
92.87507104669998
 22
5.999999999999996
 32
0.0
 13
92.87507104669998
 23
5.999999999999996
 33
0.0
  0
MTEXT
  5
12F1
330
124D
100
AcDbEntity
  8
SK2
100
AcDbMText
 10
90.49972655851101
 20
16.22908267716539
 30
0.0
 40
3.5
 41
0.0
 71
     5
 72
     1
  1
%%c12
  7
isocp
 11
0.0000000000000001
 21
1.0
 31
0.0
 73
     1
 44
1.0
  0
POINT
  5
12F2
330
124D
100
AcDbEntity
  8
Defpoints
 62
     0
100
AcDbPoint
 10
81.0
 20
-6.0
 30
0.0
  0
POINT
  5
12F3
330
124D
100
AcDbEntity
  8
Defpoints
 62
     0
100
AcDbPoint
 10
81.0
 20
6.0
 30
0.0
  0
POINT
  5
12F4
330
124D
100
AcDbEntity
  8
Defpoints
 62
     0
100
AcDbPoint
 10
92.87507104669998
 20
5.999999999999996
 30
0.0
  0
ENDBLK
  5
125A
330
124D
100
AcDbEntity
  8
0
100
AcDbBlockEnd
  0
BLOCK
  5
1265
330
125B
100
AcDbEntity
  8
0
100
AcDbBlockBegin
  2
*D9
 70
     1
 10
0.0
 20
0.0
 30
0.0
  3
*D9
  1

  0
LINE
  5
12F5
330
125B
100
AcDbEntity
  8
SK2
370
    -2
100
AcDbLine
 10
80.5
 20
17.125
 30
0.0
 11
80.5
 21
51.3050382563
 31
0.0
  0
LINE
  5
12F6
330
125B
100
AcDbEntity
  8
SK2
370
    -2
100
AcDbLine
 10
48.99999999999997
 20
17.125
 30
0.0
 11
48.99999999999997
 21
51.3050382563
 31
0.0
  0
LINE
  5
12F7
330
125B
100
AcDbEntity
  8
SK2
370
    -2
100
AcDbLine
 10
77.0
 20
49.30503825630001
 30
0.0
 11
52.49999999999997
 21
49.30503825630001
 31
0.0
  0
SOLID
  5
12F8
330
125B
100
AcDbEntity
  8
SK2
100
AcDbTrace
 10
77.0
 20
49.88837158963335
 30
0.0
 11
77.0
 21
48.72170492296667
 31
0.0
 12
80.5
 22
49.30503825630001
 32
0.0
 13
80.5
 23
49.30503825630001
 33
0.0
  0
SOLID
  5
12F9
330
125B
100
AcDbEntity
  8
SK2
100
AcDbTrace
 10
52.49999999999997
 20
49.88837158963335
 30
0.0
 11
52.49999999999997
 21
48.72170492296667
 31
0.0
 12
48.99999999999997
 22
49.30503825630001
 32
0.0
 13
48.99999999999997
 23
49.30503825630001
 33
0.0
  0
MTEXT
  5
12FA
330
125B
100
AcDbEntity
  8
SK2
100
AcDbMText
 10
64.60024759949999
 20
51.68003825630001
 30
0.0
 40
3.5
 41
0.0
 71
     5
 72
     1
  1
31.5
  7
isocp
 73
     1
 44
1.0
  0
POINT
  5
12FB
330
125B
100
AcDbEntity
  8
Defpoints
 62
     0
100
AcDbPoint
 10
80.5
 20
16.5
 30
0.0
  0
POINT
  5
12FC
330
125B
100
AcDbEntity
  8
Defpoints
 62
     0
100
AcDbPoint
 10
48.99999999999997
 20
16.5
 30
0.0
  0
POINT
  5
12FD
330
125B
100
AcDbEntity
  8
Defpoints
 62
     0
100
AcDbPoint
 10
48.99999999999997
 20
49.30503825630001
 30
0.0
  0
ENDBLK
  5
1266
330
125B
100
AcDbEntity
  8
0
100
AcDbBlockEnd
  0
BLOCK
  5
1273
330
1267
100
AcDbEntity
  8
0
100
AcDbBlockBegin
  2
*D10
 70
     1
 10
0.0
 20
0.0
 30
0.0
  3
*D10
  1

  0
LINE
  5
12FE
330
1267
100
AcDbEntity
  8
SK2
370
    -2
100
AcDbLine
 10
35.03248420009995
 20
5.0
 30
0.0
 11
39.33569942369996
 21
4.999999999999999
 31
0.0
  0
LINE
  5
12FF
330
1267
100
AcDbEntity
  8
SK2
370
    -2
100
AcDbLine
 10
34.97224558389996
 20
-5.0
 30
0.0
 11
39.33569942369996
 21
-5.0
 31
0.0
  0
LINE
  5
1300
330
1267
100
AcDbEntity
  8
SK2
370
    -2
100
AcDbLine
 10
37.33569942369996
 20
-8.500000000000001
 30
0.0
 11
37.33569942369996
 21
-12.0
 31
0.0
  0
LINE
  5
1301
330
1267
100
AcDbEntity
  8
SK2
370
    -2
100
AcDbLine
 10
37.33569942369996
 20
8.499999999999998
 30
0.0
 11
37.33569942369997
 21
21.65000000000004
 31
0.0
  0
LINE
  5
1302
330
1267
100
AcDbEntity
  8
SK2
370
    -2
100
AcDbLine
 10
37.33569942369996
 20
-5.0
 30
0.0
 11
37.33569942369996
 21
5.0
 31
0.0
  0
SOLID
  5
1303
330
1267
100
AcDbEntity
  8
SK2
100
AcDbTrace
 10
36.75236609036661
 20
-8.500000000000001
 30
0.0
 11
37.91903275703329
 21
-8.500000000000001
 31
0.0
 12
37.33569942369996
 22
-5.0
 32
0.0
 13
37.33569942369996
 23
-5.0
 33
0.0
  0
SOLID
  5
1304
330
1267
100
AcDbEntity
  8
SK2
100
AcDbTrace
 10
36.75236609036661
 20
8.499999999999998
 30
0.0
 11
37.91903275703329
 21
8.499999999999998
 31
0.0
 12
37.33569942369996
 22
5.0
 32
0.0
 13
37.33569942369996
 23
5.0
 33
0.0
  0
MTEXT
  5
1305
330
1267
100
AcDbEntity
  8
SK2
100
AcDbMText
 10
34.96069942369996
 20
16.82500000000003
 30
0.0
 40
3.5
 41
0.0
 71
     5
 72
     1
  1
M10x1
  7
isocp
 11
0.0000000000000001
 21
1.0
 31
0.0
 73
     1
 44
1.0
  0
POINT
  5
1306
330
1267
100
AcDbEntity
  8
Defpoints
 62
     0
100
AcDbPoint
 10
34.40748420009995
 20
5.0
 30
0.0
  0
POINT
  5
1307
330
1267
100
AcDbEntity
  8
Defpoints
 62
     0
100
AcDbPoint
 10
34.34724558389996
 20
-5.0
 30
0.0
  0
POINT
  5
1308
330
1267
100
AcDbEntity
  8
Defpoints
 62
     0
100
AcDbPoint
 10
37.33569942369996
 20
-5.0
 30
0.0
  0
ENDBLK
  5
1274
330
1267
100
AcDbEntity
  8
0
100
AcDbBlockEnd
  0
ENDSEC
  0
SECTION
  2
ENTITIES
  0
LINE
  5
110D
330
1F
100
AcDbEntity
  8
NOCUT
100
AcDbLine
 10
80.5
 20
0.0
 30
0.0
 11
0.0
 21
0.0
 31
0.0
  0
LINE
  5
110E
330
1F
100
AcDbEntity
  8
NOCUT
100
AcDbLine
 10
19.99999999999987
 20
24.74999999994997
 30
0.0
 11
43.94818514459984
 21
24.74999999994997
 31
0.0
  0
LINE
  5
110F
330
1F
100
AcDbEntity
  8
SK3
100
AcDbLine
 10
9.499999999999973
 20
5.0
 30
0.0
 11
34.49999999999996
 21
5.0
 31
0.0
  0
LINE
  5
1110
330
1F
100
AcDbEntity
  8
SK3
100
AcDbLine
 10
-24.0028123486
 20
4.5
 30
0.0
 11
33.99999999999996
 21
4.5
 31
0.0
  0
LINE
  5
1111
330
1F
100
AcDbEntity
  8
SK3
100
AcDbLine
 10
-24.0028123486
 20
-4.499999999999971
 30
0.0
 11
33.99999999999996
 21
-4.5
 31
0.0
  0
LINE
  5
1112
330
1F
100
AcDbEntity
  8
SK3
100
AcDbLine
 10
9.499999999999973
 20
-5.0
 30
0.0
 11
34.49999999999996
 21
-5.0
 31
0.0
  0
LINE
  5
1113
330
1F
100
AcDbEntity
  8
4
100
AcDbLine
 10
83.50007193029995
 20
0.0
 30
0.0
 11
-71.40000000000002
 21
0.0
 31
0.0
  0
LINE
  5
1114
330
1F
100
AcDbEntity
  8
4
100
AcDbLine
 10
-13.74739103076811
 20
4.5
 30
0.0
 11
11.1497384628728
 21
21.93331253799998
 31
0.0
  0
LINE
  5
1115
330
1F
100
AcDbEntity
  8
1
100
AcDbLine
 10
19.99999999999996
 20
24.75
 30
0.0
 11
43.94818514459996
 21
24.75
 31
0.0
  0
LINE
  5
1116
330
1F
100
AcDbEntity
  8
1
100
AcDbLine
 10
20.0
 20
-24.75
 30
0.0
 11
43.94818514459996
 21
-24.75
 31
0.0
  0
DIMENSION
  5
1117
330
1F
100
AcDbEntity
  8
2
100
AcDbDimension
  2
*D3
 10
-0.0000000000000262
 20
59.30503825630001
 30
0.0
 11
41.49999999999996
 21
59.30503825630001
 31
0.0
 70
   160
 71
     5
 42
80.50000000000002
  3
ISO-25
100
AcDbAlignedDimension
 13
80.5
 23
10.33692051769999
 33
0.0
 14
-0.0000000000000284
 24
22.6619699679
 34
0.0
 50
180.0
100
AcDbRotatedDimension
  0
LINE
  5
1118
330
1F
100
AcDbEntity
  8
SK3
100
AcDbLine
 10
-10.2605182135
 20
-4.5
 30
0.0
 11
18.81598291339996
 21
-24.85976604389998
 31
0.0
  0
LINE
  5
1119
330
1F
100
AcDbEntity
  8
SK3
100
AcDbLine
 10
-17.23426384790001
 20
-4.5
 30
0.0
 11
7.66286564569998
 21
-21.93331253789998
 31
0.0
  0
LINE
  5
111A
330
1F
100
AcDbEntity
  8
4
100
AcDbLine
 10
-13.74739103067074
 20
-4.5
 30
0.0
 11
11.14969137309995
 21
-21.93327956494598
 31
0.0
  0
LINE
  5
111B
330
1F
100
AcDbEntity
  8
1
100
AcDbLine
 10
19.09999999999996
 20
-30.17499999999998
 30
0.0
 11
19.09999999999998
 21
-6.169481339602754
 31
0.0
  0
LINE
  5
111C
330
1F
100
AcDbEntity
  8
1
100
AcDbLine
 10
14.34749999999996
 20
-8.049999999999982
 30
0.0
 11
14.34749999999996
 21
-18.5
 31
0.0
  0
LINE
  5
111D
330
1F
100
AcDbEntity
  8
1
100
AcDbLine
 10
12.97499999999996
 20
-18.5
 30
0.0
 11
12.97499999999996
 21
-8.049999999999982
 31
0.0
  0
LINE
  5
111E
330
1F
100
AcDbEntity
  8
1
100
AcDbLine
 10
9.224999999999962
 20
-8.049999999999982
 30
0.0
 11
9.224999999999962
 21
-18.5
 31
0.0
  0
LINE
  5
111F
330
1F
100
AcDbEntity
  8
1
100
AcDbLine
 10
7.852499999999992
 20
-18.5
 30
0.0
 11
7.852499999999992
 21
-8.049999999999982
 31
0.0
  0
LINE
  5
1120
330
1F
100
AcDbEntity
  8
1
100
AcDbLine
 10
3.199999999999988
 20
-30.17499999999998
 30
0.0
 11
3.199999999999988
 21
30.175
 31
0.0
  0
LINE
  5
1121
330
1F
100
AcDbEntity
  8
1
100
AcDbLine
 10
0.3196152422999887
 20
21.80829262150001
 30
0.0
 11
0.3196152422999887
 21
-21.80829262149998
 31
0.0
  0
LINE
  5
1122
330
1F
100
AcDbEntity
  8
1
100
AcDbLine
 10
-0.8000000000000111
 20
-22.10829262149998
 30
0.0
 11
-0.8000000000000111
 21
22.10829262150002
 31
0.0
  0
LINE
  5
1123
330
1F
100
AcDbEntity
  8
1
100
AcDbLine
 10
-0.8000000000000111
 20
-22.10829262149998
 30
0.0
 11
-67.37322744120003
 21
-12.39630905519996
 31
0.0
  0
TEXT
  5
1124
330
1F
100
AcDbEntity
  8
6
100
AcDbText
 10
-43.85223595763434
 20
-41.2122817262406
 30
0.0
 40
3.5
  1
DIN 69871-A40
 41
0.8
  7
isocp
100
AcDbText
  0
LINE
  5
1125
330
1F
100
AcDbEntity
  8
SK3
100
AcDbLine
 10
6.328372714299972
 20
-28.66666355849996
 30
0.0
 11
3.316950524799977
 21
-30.77546933929997
 31
0.0
  0
LINE
  5
1126
330
1F
100
AcDbEntity
  8
SK3
100
AcDbLine
 10
3.316918901899952
 20
-24.36623963339997
 30
0.0
 11
7.22701242971425
 21
-21.62812212079268
 31
0.0
  0
LINE
  5
1127
330
1F
100
AcDbEntity
  8
SK3
100
AcDbLine
 10
6.328372714299972
 20
-28.66666355849996
 30
0.0
 11
3.200000000000017
 21
-24.19927680598478
 31
0.0
  0
LINE
  5
1128
330
1F
100
AcDbEntity
  8
4
100
AcDbLine
 10
11.12336968229996
 20
-21.95164838739998
 30
0.0
 11
1.968375345699968
 21
-28.36260765019996
 31
0.0
  0
ARC
  5
1129
330
1F
100
AcDbEntity
  8
1
100
AcDbCircle
 10
4.799999999999981
 20
-30.17499999999998
 30
0.0
 40
1.6
100
AcDbArc
 50
180.0
 51
270.0
  0
LINE
  5
112A
330
1F
100
AcDbEntity
  8
1
100
AcDbLine
 10
3.199999999999988
 20
-18.5
 30
0.0
 11
19.09999999999996
 21
-18.5
 31
0.0
  0
SPLINE
  5
112B
330
1F
100
AcDbEntity
  8
1
100
AcDbSpline
210
0.0
220
0.0
230
1.0
 70
     8
 71
     3
 72
    12
 73
     8
 74
     6
 42
0.0000000001
 43
0.0000000001
 44
0.0000000001
 12
-1.0
 22
0.0
 32
0.0
 13
0.0
 23
1.0
 33
0.0
 40
0.0
 40
0.0
 40
0.0
 40
0.0
 40
0.4612732270319521
 40
0.9611088119814443
 40
1.51221857431284
 40
2.133898703208286
 40
2.823885458755298
 40
2.823885458755298
 40
2.823885458755298
 40
2.823885458755298
 10
4.800000001199974
 20
-25.83409810689996
 30
0.0
 10
4.646242258855989
 20
-25.83409810689996
 30
0.0
 10
4.323291543338292
 20
-25.77550161543689
 30
0.0
 10
3.881003605531765
 20
-25.51442166975269
 30
0.0
 10
3.511295391186251
 20
-25.08491183425205
 30
0.0
 10
3.258952645487823
 20
-24.50861773367308
 30
0.0
 10
3.199999999999988
 20
-24.0686328154823
 30
0.0
 10
3.199999999999988
 20
-23.83863723029997
 30
0.0
 11
4.800000001199974
 21
-25.83409810689996
 31
0.0
 11
4.345888828499965
 21
-25.75312877439998
 31
0.0
 11
3.912983494599956
 21
-25.50327164749998
 31
0.0
 11
3.549053961399977
 21
-25.08941507209998
 31
0.0
 11
3.294878147299981
 21
-24.52206964099997
 31
0.0
 11
3.199999999999988
 21
-23.83863723029997
 31
0.0
  0
LINE
  5
112C
330
1F
100
AcDbEntity
  8
1
100
AcDbLine
 10
-0.8000000000000111
 20
-22.10829262149998
 30
0.0
 11
0.3196152422999887
 21
-21.80829262149998
 31
0.0
  0
ARC
  5
112D
330
1F
100
AcDbEntity
  8
1
100
AcDbCircle
 10
2.4097319313
 20
-22.80829262149997
 30
0.0
 40
1.0
100
AcDbArc
 50
37.5379335793999
 51
90.0
  0
LINE
  5
112E
330
1F
100
AcDbEntity
  8
1
100
AcDbLine
 10
0.3196152422999887
 20
-21.80829262149998
 30
0.0
 11
2.4097319313
 21
-21.80829262149998
 31
0.0
  0
LINE
  5
112F
330
1F
100
AcDbEntity
  8
SK3
100
AcDbLine
 10
16.0914786088
 20
-28.75072688849996
 30
0.0
 11
18.98305750159996
 21
-30.77545020359996
 31
0.0
  0
LINE
  5
1130
330
1F
100
AcDbEntity
  8
1
100
AcDbLine
 10
14.34749999999996
 20
-25.83409810689996
 30
0.0
 11
14.34749999999996
 21
-31.77499999989999
 31
0.0
  0
LINE
  5
1131
330
1F
100
AcDbEntity
  8
1
100
AcDbLine
 10
12.97499999999996
 20
-29.39739672889999
 30
0.0
 11
12.97499999999996
 21
-21.84354881879996
 31
0.0
  0
LINE
  5
1132
330
1F
100
AcDbEntity
  8
1
100
AcDbLine
 10
9.224999999999962
 20
-29.39739672889999
 30
0.0
 11
9.224999999999962
 21
-21.84354881879996
 31
0.0
  0
LINE
  5
1133
330
1F
100
AcDbEntity
  8
1
100
AcDbLine
 10
7.852499999999992
 20
-31.77499999989999
 30
0.0
 11
7.852499999999992
 21
-25.83409810689996
 31
0.0
  0
LINE
  5
1134
330
1F
100
AcDbEntity
  8
1
100
AcDbLine
 10
7.852499999999992
 20
-31.775
 30
0.0
 11
4.799999999999981
 21
-31.775
 31
0.0
  0
LINE
  5
1135
330
1F
100
AcDbEntity
  8
1
100
AcDbLine
 10
7.852499999999992
 20
-31.775
 30
0.0
 11
9.224999999999962
 21
-29.39776026659998
 31
0.0
  0
LINE
  5
1136
330
1F
100
AcDbEntity
  8
1
100
AcDbLine
 10
17.49999999999997
 20
-31.775
 30
0.0
 11
14.34749999999996
 21
-31.775
 31
0.0
  0
LINE
  5
1137
330
1F
100
AcDbEntity
  8
1
100
AcDbLine
 10
12.97499999999996
 20
-29.39776026659998
 30
0.0
 11
14.34749999999996
 21
-31.775
 31
0.0
  0
ARC
  5
1138
330
1F
100
AcDbEntity
  8
1
100
AcDbCircle
 10
17.49999999999997
 20
-30.17499999999998
 30
0.0
 40
1.6
100
AcDbArc
 50
270.0
 51
0.0
  0
LINE
  5
1139
330
1F
100
AcDbEntity
  8
SK3
100
AcDbLine
 10
11.14969137309998
 20
-24.37483587439999
 30
0.0
 11
16.52166349899999
 21
-28.1363646499
 31
0.0
  0
LINE
  5
113A
330
1F
100
AcDbEntity
  8
1
100
AcDbLine
 10
9.724999999999962
 20
-21.18408895839996
 30
0.0
 11
12.47499999999996
 21
-21.18408895839996
 31
0.0
  0
LINE
  5
113B
330
1F
100
AcDbEntity
  8
1
100
AcDbLine
 10
9.724999999999962
 20
-28.125
 30
0.0
 11
12.47499999999996
 21
-28.125
 31
0.0
  0
LINE
  5
113C
330
1F
100
AcDbEntity
  8
SK3
100
AcDbLine
 10
7.66286564569998
 20
-21.93331253789998
 30
0.0
 11
3.603724026899953
 21
-24.77580381669996
 31
0.0
  0
LINE
  5
113D
330
1F
100
AcDbEntity
  8
SK3
100
AcDbLine
 10
7.717264717247445
 20
-21.9333125379
 30
0.0
 11
10.28061198529997
 21
-25.59383021699996
 31
0.0
  0
LINE
  5
113E
330
1F
100
AcDbEntity
  8
SK3
100
AcDbLine
 10
11.14969137309998
 20
-24.37483587439999
 30
0.0
 11
11.14969137309995
 21
-21.93327956494598
 31
0.0
  0
SPLINE
  5
113F
330
1F
100
AcDbEntity
  8
1
100
AcDbSpline
210
0.0
220
0.0
230
1.0
 70
     8
 71
     3
 72
    10
 73
     6
 74
     4
 42
0.0000000001
 43
0.0000000001
 44
0.0000000001
 12
-0.4093743989143582
 22
-0.9123664842120779
 32
0.0
 13
-0.4249194534150649
 23
-0.9052311628028736
 33
0.0
 40
0.0
 40
0.0
 40
0.0
 40
0.0
 40
1.064064352752351
 40
2.159673088079454
 40
3.28750262466912
 40
3.28750262466912
 40
3.28750262466912
 40
3.28750262466912
 10
9.224999999999962
 20
-22.84684461129998
 30
0.0
 10
9.079799765061899
 20
-23.170450162132
 30
0.0
 10
8.783031496409282
 20
-23.82633066868794
 30
0.0
 10
8.325446533796299
 20
-24.82206168493641
 30
0.0
 10
8.012245570077674
 20
-25.4937826259498
 30
0.0
 10
7.852499999999992
 20
-25.83409810689996
 30
0.0
 11
9.224999999999962
 21
-22.84684461129998
 31
0.0
 11
8.786435181299991
 21
-23.81632583679996
 31
0.0
 11
8.329027522599972
 21
-24.81188434069997
 31
0.0
 11
7.852499999999992
 21
-25.83409810689996
 31
0.0
  0
LINE
  5
1140
330
1F
100
AcDbEntity
  8
SK3
100
AcDbLine
 10
6.184970151799973
 20
-28.46188146689996
 30
0.0
 11
10.28061198529997
 21
-25.59383021699996
 31
0.0
  0
LINE
  5
1141
330
1F
100
AcDbEntity
  8
SK3
100
AcDbLine
 10
11.14969137309998
 20
-24.37483587439999
 30
0.0
 11
5.898165026799973
 21
-28.05231728349997
 31
0.0
  0
LINE
  5
1142
330
1F
100
AcDbEntity
  8
1
100
AcDbLine
 10
7.852499999999992
 20
-25.83409810689996
 30
0.0
 11
4.800000001199974
 21
-25.83409810689996
 31
0.0
  0
LINE
  5
1143
330
1F
100
AcDbEntity
  8
SK3
100
AcDbLine
 10
3.9230094463
 20
-25.23175059259997
 30
0.0
 11
5.260426869999974
 21
-24.29519855269997
 31
0.0
  0
ARC
  5
1144
330
1F
100
AcDbEntity
  8
1
100
AcDbCircle
 10
9.724999999999962
 20
-28.625
 30
0.0
 40
0.5
100
AcDbArc
 50
90.0
 51
180.0
  0
LINE
  5
1145
330
1F
100
AcDbEntity
  8
SK3
100
AcDbLine
 10
7.66286564569998
 20
-21.93331253789998
 30
0.0
 11
11.14973846294031
 21
-21.93331253789998
 31
0.0
  0
SPLINE
  5
1146
330
1F
100
AcDbEntity
  8
1
100
AcDbSpline
210
0.0
220
0.0
230
1.0
 70
     8
 71
     3
 72
    12
 73
     8
 74
     6
 42
0.0000000001
 43
0.0000000001
 44
0.0000000001
 12
-1.0
 22
0.0
 32
0.0
 13
0.0
 23
-1.0
 33
0.0
 40
0.0
 40
0.0
 40
0.0
 40
0.0
 40
0.1551844736849277
 40
0.3185717465177966
 40
0.4968262664165401
 40
0.6963243912207988
 40
0.9108050533938529
 40
0.9108050533938529
 40
0.9108050533938529
 40
0.9108050533938529
 10
9.724999999999962
 20
-21.18408895839996
 30
0.0
 10
9.673271842104986
 20
-21.18408895839996
 30
0.0
 10
9.566043765099264
 20
-21.20702685831783
 30
0.0
 10
9.426552390557015
 20
-21.30227574917893
 30
0.0
 10
9.315576486651892
 20
-21.44778888493829
 30
0.0
 10
9.242218084080118
 20
-21.63339769541983
 30
0.0
 10
9.224999999999962
 20
-21.77205526474228
 30
0.0
 10
9.224999999999962
 20
-21.84354881879996
 30
0.0
 11
9.724999999999962
 21
-21.18408895839996
 31
0.0
 11
9.573024810600003
 21
-21.21548581619998
 31
0.0
 11
9.436640655599999
 21
-21.30545671809997
 31
0.0
 11
9.326764116399973
 21
-21.44581988989997
 31
0.0
 11
9.251983834499979
 21
-21.63077234659998
 31
0.0
 11
9.224999999999962
 21
-21.84354881879996
 31
0.0
  0
LINE
  5
1147
330
1F
100
AcDbEntity
  8
SK3
100
AcDbLine
 10
15.41659940849996
 20
-21.86908187689996
 30
0.0
 11
12.54870014049996
 21
-25.96483013439998
 31
0.0
  0
LINE
  5
1148
330
1F
100
AcDbEntity
  8
SK3
100
AcDbLine
 10
15.00702458269998
 20
-21.58229195009996
 30
0.0
 11
12.13912531469998
 21
-25.67804020759996
 31
0.0
  0
LINE
  5
1149
330
1F
100
AcDbEntity
  8
SK3
100
AcDbLine
 10
19.10277284019996
 20
-24.45019121809997
 30
0.0
 11
15.00702458269998
 21
-21.58229195009996
 31
0.0
  0
SPLINE
  5
114A
330
1F
100
AcDbEntity
  8
1
100
AcDbSpline
210
0.0
220
0.0
230
1.0
 70
     8
 71
     3
 72
    10
 73
     6
 74
     4
 42
0.0000000001
 43
0.0000000001
 44
0.0000000001
 12
0.4093743989143582
 22
-0.9123664842120779
 32
0.0
 13
0.4249194534150649
 23
-0.9052311628028736
 33
0.0
 40
0.0
 40
0.0
 40
0.0
 40
0.0
 40
1.064064352752362
 40
2.159673088079457
 40
3.287502624669133
 40
3.287502624669133
 40
3.287502624669133
 40
3.287502624669133
 10
12.97499999999996
 20
-22.84684461129998
 30
0.0
 10
13.12020023493802
 20
-23.170450162132
 30
0.0
 10
13.41696850359068
 20
-23.82633066868793
 30
0.0
 10
13.87455346620362
 20
-24.82206168493641
 30
0.0
 10
14.18775442992227
 20
-25.4937826259498
 30
0.0
 10
14.34749999999996
 20
-25.83409810689996
 30
0.0
 11
12.97499999999996
 21
-22.84684461129998
 31
0.0
 11
13.41356481869996
 21
-23.81632583679996
 31
0.0
 11
13.87097247739996
 21
-24.81188434069997
 31
0.0
 11
14.34749999999996
 21
-25.83409810689996
 31
0.0
  0
LINE
  5
114C
330
1F
100
AcDbEntity
  8
SK3
100
AcDbLine
 10
18.48841060159998
 20
-24.02000632789997
 30
0.0
 11
15.62051133359998
 21
-28.11575458539996
 31
0.0
  0
LINE
  5
114D
330
1F
100
AcDbEntity
  8
SK3
100
AcDbLine
 10
17.25487760259997
 20
-27.08923568659997
 30
0.0
 11
15.91742542649997
 21
-26.15273327589997
 31
0.0
  0
LINE
  5
114E
330
1F
100
AcDbEntity
  8
SK3
100
AcDbLine
 10
16.84093199899999
 20
-27.68040602639999
 30
0.0
 11
15.50347982289997
 21
-26.74390361559997
 31
0.0
  0
LINE
  5
114F
330
1F
100
AcDbEntity
  8
SK3
100
AcDbLine
 10
16.2348735722
 20
-28.54593947559999
 30
0.0
 11
12.13912531469998
 21
-25.67804020759996
 31
0.0
  0
LINE
  5
1150
330
1F
100
AcDbEntity
  8
SK3
100
AcDbLine
 10
16.66505846239997
 20
-27.93157723699997
 30
0.0
 11
15.62051133359998
 21
-28.11575458539996
 31
0.0
  0
LINE
  5
1151
330
1F
100
AcDbEntity
  8
SK3
100
AcDbLine
 10
15.50347982289997
 20
-26.74390361559997
 30
0.0
 11
17.15926223727925
 21
-24.37922225665551
 31
0.0
  0
LINE
  5
1152
330
1F
100
AcDbEntity
  8
1
100
AcDbLine
 10
17.50000000309998
 20
-25.83409810689996
 30
0.0
 11
14.34749999999996
 21
-25.83409810689996
 31
0.0
  0
LINE
  5
1154
330
1F
100
AcDbEntity
  8
SK3
100
AcDbLine
 10
12.54870014049996
 20
-25.96483013439998
 30
0.0
 11
12.4259152415
 21
-25.26846538189996
 31
0.0
  0
ARC
  5
1155
330
1F
100
AcDbEntity
  8
1
100
AcDbCircle
 10
12.47499999999996
 20
-28.625
 30
0.0
 40
0.5
100
AcDbArc
 50
0.0
 51
90.0
  0
LINE
  5
1156
330
1F
100
AcDbEntity
  8
SK3
100
AcDbLine
 10
19.24616780359996
 20
-24.24540380529998
 30
0.0
 11
16.0914786088
 21
-28.75072688849996
 31
0.0
  0
LINE
  5
1157
330
1F
100
AcDbEntity
  8
SK3
100
AcDbLine
 10
18.67258794999997
 20
-25.06455345669996
 30
0.0
 11
18.48841060159998
 21
-24.02000632789997
 31
0.0
  0
LINE
  5
1158
330
1F
100
AcDbEntity
  8
SK3
100
AcDbLine
 10
19.24616780359996
 20
-24.24540380529998
 30
0.0
 11
19.97754713069996
 21
-24.75752567039998
 31
0.0
  0
LINE
  5
1159
330
1F
100
AcDbEntity
  8
SK3
100
AcDbLine
 10
18.49671441339998
 20
-25.31572466739998
 30
0.0
 11
17.15926223719998
 21
-24.37922225659999
 31
0.0
  0
LINE
  5
115A
330
1F
100
AcDbEntity
  8
SK3
100
AcDbLine
 10
18.08276880979996
 20
-25.90689500709999
 30
0.0
 11
16.74531663359999
 21
-24.97039259639999
 31
0.0
  0
ARC
  5
115B
330
1F
100
AcDbEntity
  8
1
100
AcDbCircle
 10
20.0
 20
-25.64999999999999
 30
0.0
 40
0.9
100
AcDbArc
 50
90.0
 51
180.0
  0
SPLINE
  5
115C
330
1F
100
AcDbEntity
  8
1
100
AcDbSpline
210
0.0
220
0.0
230
1.0
 70
     8
 71
     3
 72
    12
 73
     8
 74
     6
 42
0.0000000001
 43
0.0000000001
 44
0.0000000001
 12
0.0
 22
-1.0
 32
0.0
 13
-1.0
 23
0.0
 33
0.0
 40
0.0
 40
0.0
 40
0.0
 40
0.0
 40
0.6873641776634495
 40
1.304007319150813
 40
1.850232595763085
 40
2.352740450863813
 40
2.823872816355799
 40
2.823872816355799
 40
2.823872816355799
 40
2.823872816355799
 10
19.09999999999996
 20
-23.83863723029997
 30
0.0
 10
19.09999999999996
 20
-24.06775862285445
 30
0.0
 10
19.04161413223228
 20
-24.50515845679404
 30
0.0
 10
18.79232498214384
 20
-25.07799532900598
 30
0.0
 10
18.42676204847442
 20
-25.50748438580491
 30
0.0
 10
17.98431549037122
 20
-25.77337385238893
 30
0.0
 10
17.65704412493064
 20
-25.83409810689996
 30
0.0
 10
17.50000000309998
 20
-25.83409810689996
 30
0.0
 11
19.09999999999996
 21
-23.83863723029997
 31
0.0
 11
19.00585332419996
 21
-24.51952335599997
 31
0.0
 11
18.75511695709996
 21
-25.08288828049998
 31
0.0
 11
18.39679533669995
 21
-25.49515963429996
 31
0.0
 11
17.963505139
 21
-25.74966650849998
 31
0.0
 11
17.50000000309998
 21
-25.83409810689996
 31
0.0
  0
LINE
  5
115D
330
1F
100
AcDbEntity
  8
SK3
100
AcDbLine
 10
15.41659940849996
 20
-21.86908187689996
 30
0.0
 11
14.72023465589997
 21
-21.99186677589997
 31
0.0
  0
SPLINE
  5
115E
330
1F
100
AcDbEntity
  8
1
100
AcDbSpline
210
0.0
220
0.0
230
1.0
 70
     8
 71
     3
 72
    12
 73
     8
 74
     6
 42
0.0000000001
 43
0.0000000001
 44
0.0000000001
 12
0.0
 22
1.0
 32
0.0
 13
-1.0
 23
0.0
 33
0.0
 40
0.0
 40
0.0
 40
0.0
 40
0.0
 40
0.2147571152494907
 40
0.414490677791351
 40
0.59269543505326
 40
0.7559271411652019
 40
0.9108072837492384
 40
0.9108072837492384
 40
0.9108072837492384
 40
0.9108072837492384
 10
12.97499999999996
 20
-21.84354881879996
 30
0.0
 10
12.97499999999996
 20
-21.7719631137168
 30
0.0
 10
12.95773860297778
 20
-21.63313243835228
 30
0.0
 10
12.88422651471352
 20
-21.4474088830718
 30
0.0
 10
12.77312623317942
 20
-21.30197476683644
 30
0.0
 10
12.63369693052986
 20
-21.20694457710952
 30
0.0
 10
12.52662671419464
 20
-21.18408895839996
 30
0.0
 10
12.47499999999996
 20
-21.18408895839996
 30
0.0
 11
12.97499999999996
 21
-21.84354881879996
 31
0.0
 11
12.94794589089997
 21
-21.63050259439998
 31
0.0
 11
12.87297818139998
 21
-21.44537199579999
 31
0.0
 11
12.76301783009994
 21
-21.30513770379996
 31
0.0
 11
12.62668938769999
 21
-21.21536495919996
 31
0.0
 11
12.47499999999996
 21
-21.18408895839996
 31
0.0
  0
LINE
  5
115F
330
1F
100
AcDbEntity
  8
SK3
100
AcDbLine
 10
-36.2
 20
8.0
 30
0.0
 11
-60.20000000000002
 21
8.0
 31
0.0
  0
LINE
  5
1160
330
1F
100
AcDbEntity
  8
SK3
100
AcDbLine
 10
-25.40000000000003
 20
6.920000000000014
 30
0.0
 11
-60.20000000000002
 21
6.920000000000014
 31
0.0
  0
LINE
  5
1161
330
1F
100
AcDbEntity
  8
SK3
100
AcDbLine
 10
-25.40000000000003
 20
-6.919999999999986
 30
0.0
 11
-60.20000000000002
 21
-6.919999999999986
 31
0.0
  0
LINE
  5
1162
330
1F
100
AcDbEntity
  8
SK3
100
AcDbLine
 10
-36.2
 20
-8.0
 30
0.0
 11
-60.20000000000002
 21
-8.0
 31
0.0
  0
LINE
  5
1163
330
1F
100
AcDbEntity
  8
1
100
AcDbLine
 10
-0.8000000000000111
 20
22.10829262150002
 30
0.0
 11
-67.37322744120003
 21
12.39630905530002
 31
0.0
  0
LINE
  5
1164
330
1F
100
AcDbEntity
  8
SK3
100
AcDbLine
 10
-60.20000000000002
 20
-8.499323850699994
 30
0.0
 11
-60.20000000000002
 21
8.499323850800037
 31
0.0
  0
LINE
  5
1165
330
1F
100
AcDbEntity
  8
1
100
AcDbLine
 10
-68.40000000000002
 20
11.20887810839999
 30
0.0
 11
-68.40000000000002
 21
-11.20887810839997
 31
0.0
  0
LINE
  5
1166
330
1F
100
AcDbEntity
  8
SK3
100
AcDbLine
 10
-60.20000000000002
 20
-8.5
 30
0.0
 11
-67.40000000000001
 21
-8.5
 31
0.0
  0
ARC
  5
1167
330
1F
100
AcDbEntity
  8
1
100
AcDbCircle
 10
-67.20000000000002
 20
-11.20887810839997
 30
0.0
 40
1.199999999999999
100
AcDbArc
 50
180.0
 51
261.7000000000007
  0
ARC
  5
1168
330
1F
100
AcDbEntity
  8
SK3
100
AcDbCircle
 10
-67.40000000000001
 20
-9.5
 30
0.0
 40
1.0
100
AcDbArc
 50
90.0
 51
179.9999999351993
  0
LINE
  5
1169
330
1F
100
AcDbEntity
  8
SK3
100
AcDbLine
 10
-60.20000000000002
 20
8.5
 30
0.0
 11
-67.40000000000001
 21
8.5
 31
0.0
  0
ARC
  5
116A
330
1F
100
AcDbEntity
  8
1
100
AcDbCircle
 10
-67.20000000000002
 20
11.20887810839999
 30
0.0
 40
1.199999999999999
100
AcDbArc
 50
98.29999999999918
 51
180.0
  0
ARC
  5
116B
330
1F
100
AcDbEntity
  8
SK3
100
AcDbCircle
 10
-67.40000000000001
 20
9.5
 30
0.0
 40
1.0
100
AcDbArc
 50
180.0000000648006
 51
270.0
  0
LINE
  5
116C
330
1F
100
AcDbEntity
  8
NOCUT
100
AcDbLine
 10
19.09999999999991
 20
30.17499999995003
 30
0.0
 11
19.09999999999991
 21
25.64999999995001
 31
0.0
  0
LINE
  5
116D
330
1F
100
AcDbEntity
  8
NOCUT
100
AcDbLine
 10
12.9749999999999
 20
29.39776026665004
 30
0.0
 11
14.34749999999985
 21
31.77499999995001
 31
0.0
  0
LINE
  5
116E
330
1F
100
AcDbEntity
  8
NOCUT
100
AcDbLine
 10
7.852499999999962
 20
31.77499999995001
 30
0.0
 11
9.224999999999909
 21
29.39776026665004
 31
0.0
  0
LINE
  5
116F
330
1F
100
AcDbEntity
  8
NOCUT
100
AcDbLine
 10
3.19999999999993
 20
22.19900607378956
 30
0.0
 11
3.19999999999993
 21
30.17499999995003
 31
0.0
  0
LINE
  5
1170
330
1F
100
AcDbEntity
  8
SK3
100
AcDbLine
 10
3.316952038999999
 20
30.77546827900002
 30
0.0
 11
6.328372714299972
 21
28.66666355860002
 31
0.0
  0
LINE
  5
1171
330
1F
100
AcDbEntity
  8
SK3
100
AcDbLine
 10
18.98305750159996
 20
30.77545020370003
 30
0.0
 11
16.0914786088
 21
28.75072688860001
 31
0.0
  0
LINE
  5
1172
330
1F
100
AcDbEntity
  8
1
100
AcDbLine
 10
7.852499999999992
 20
31.775
 30
0.0
 11
9.224999999999962
 21
29.39776026670003
 31
0.0
  0
LINE
  5
1173
330
1F
100
AcDbEntity
  8
1
100
AcDbLine
 10
19.09999999999996
 20
30.175
 30
0.0
 11
19.09999999999996
 21
6.169481339700012
 31
0.0
  0
LINE
  5
1174
330
1F
100
AcDbEntity
  8
1
100
AcDbLine
 10
14.34749999999996
 20
31.775
 30
0.0
 11
14.34749999999996
 21
8.050000000000011
 31
0.0
  0
LINE
  5
1175
330
1F
100
AcDbEntity
  8
1
100
AcDbLine
 10
7.852499999999992
 20
8.050000000000011
 30
0.0
 11
7.852499999999992
 21
31.775
 31
0.0
  0
LINE
  5
1176
330
1F
100
AcDbEntity
  8
1
100
AcDbLine
 10
12.97499999999996
 20
29.39776026670003
 30
0.0
 11
14.34749999999996
 21
31.775
 31
0.0
  0
LINE
  5
1177
330
1F
100
AcDbEntity
  8
SK3
100
AcDbLine
 10
7.66286564569998
 20
21.93331253799998
 30
0.0
 11
-17.23426384790001
 21
4.5
 31
0.0
  0
LINE
  5
1178
330
1F
100
AcDbEntity
  8
SK3
100
AcDbLine
 10
-24.00281234860003
 20
4.5
 30
0.0
 11
-25.40000000000003
 21
6.920000000000014
 31
0.0
  0
LINE
  5
1179
330
1F
100
AcDbEntity
  8
SK3
100
AcDbLine
 10
-25.40000000000003
 20
6.920000000000014
 30
0.0
 11
-25.40000000000003
 21
-6.919999999999986
 31
0.0
  0
LINE
  5
117A
330
1F
100
AcDbEntity
  8
SK3
100
AcDbLine
 10
-36.2
 20
8.0
 30
0.0
 11
-36.2
 21
-8.0
 31
0.0
  0
LINE
  5
117B
330
1F
100
AcDbEntity
  8
SK3
100
AcDbLine
 10
-24.00281234860003
 20
-4.5
 30
0.0
 11
-25.40000000000003
 21
-6.919999999999986
 31
0.0
  0
LINE
  5
117C
330
1F
100
AcDbEntity
  8
SK3
100
AcDbLine
 10
-24.00281234860003
 20
4.5
 30
0.0
 11
-24.00281234860003
 21
-4.5
 31
0.0
  0
LINE
  5
117D
330
1F
100
AcDbEntity
  8
NOCUT
100
AcDbLine
 10
0.0
 20
0.0
 30
0.0
 11
-0.0000000000001137
 21
22.19900607378963
 31
0.0
  0
LINE
  5
117E
330
1F
100
AcDbEntity
  8
SK3
100
AcDbLine
 10
18.81598291339996
 20
24.85976604400002
 30
0.0
 11
-10.2605182135
 21
4.5
 31
0.0
  0
INSERT
  5
117F
330
1F
100
AcDbEntity
  8
1
100
AcDbBlockReference
  2
nullpunkt_1
 10
0.0
 20
0.0
 30
0.0
 41
-1.0
 50
180.0
  0
LINE
  5
1180
330
1F
100
AcDbEntity
  8
1
100
AcDbLine
 10
3.199999999999988
 20
-8.049999999999982
 30
0.0
 11
19.09999999999996
 21
-8.049999999999982
 31
0.0
  0
SPLINE
  5
1181
330
1F
100
AcDbEntity
  8
1
100
AcDbSpline
210
0.0
220
0.0
230
1.0
 70
     8
 71
     3
 72
    11
 73
     7
 74
     5
 42
0.0000000001
 43
0.0000000001
 44
0.0000000001
 12
0.0
 22
1.0
 32
0.0
 13
0.0
 23
1.0
 33
0.0
 40
0.0
 40
0.0
 40
0.0
 40
0.0
 40
3.130385197654335
 40
6.185461195314079
 40
9.220103890809568
 40
12.35753690567082
 40
12.35753690567082
 40
12.35753690567082
 40
12.35753690567082
 10
19.09999999999996
 20
-6.169481339599967
 30
0.0
 10
19.09999999999996
 20
-5.126019607048522
 30
0.0
 10
19.27678447876471
 20
-3.069870394645424
 30
0.0
 10
19.51830750741741
 20
-0.0000905802539019
 30
0.0
 10
19.27669275031225
 20
3.071975774567163
 30
0.0
 10
19.09999999999996
 20
5.123670334746259
 30
0.0
 10
19.09999999999996
 20
6.169481339700012
 30
0.0
 11
19.09999999999996
 21
-6.169481339599967
 31
0.0
 11
19.27515781989995
 21
-3.044000380799984
 31
0.0
 11
19.43856115339996
 21
0.0067026041000133
 31
0.0
 11
19.27573988819998
 21
3.036974130700031
 31
0.0
 11
19.09999999999996
 21
6.169481339700012
 31
0.0
  0
LINE
  5
1182
330
1F
100
AcDbEntity
  8
SK3
100
AcDbLine
 10
19.09999999999996
 20
-8.049999999999982
 30
0.0
 11
19.10159018729996
 21
-8.049999999999982
 31
0.0
  0
LINE
  5
1183
330
1F
100
AcDbEntity
  8
SK3
100
AcDbLine
 10
9.499999999999973
 20
5.0
 30
0.0
 11
9.499999999999973
 21
-5.0
 31
0.0
  0
LINE
  5
1184
330
1F
100
AcDbEntity
  8
SK3
100
AcDbLine
 10
3.316918901899952
 20
24.36623963350003
 30
0.0
 11
7.227012429715499
 21
21.62812212089173
 31
0.0
  0
LINE
  5
1185
330
1F
100
AcDbEntity
  8
SK3
100
AcDbLine
 10
3.200000000000017
 20
24.19927680608478
 30
0.0
 11
6.328372714299972
 21
28.66666355860002
 31
0.0
  0
LINE
  5
1186
330
1F
100
AcDbEntity
  8
4
100
AcDbLine
 10
11.13788942489994
 20
21.94148066100003
 30
0.0
 11
1.701138898599991
 21
28.54974506549998
 31
0.0
  0
LINE
  5
1187
330
1F
100
AcDbEntity
  8
1
100
AcDbLine
 10
3.199999999999988
 20
8.050000000000011
 30
0.0
 11
19.09999999999996
 21
8.050000000000011
 31
0.0
  0
LINE
  5
1188
330
1F
100
AcDbEntity
  8
1
100
AcDbLine
 10
-0.8000000000000111
 20
22.10829262150002
 30
0.0
 11
0.3196152422999887
 21
21.80829262150001
 31
0.0
  0
LINE
  5
1189
330
1F
100
AcDbEntity
  8
NOCUT
100
AcDbLine
 10
3.202682057587366
 20
22.19900607378963
 30
0.0
 11
0.0
 21
22.19900607378963
 31
0.0
  0
ARC
  5
118A
330
1F
100
AcDbEntity
  8
1
100
AcDbCircle
 10
2.4097319313
 20
22.80829262150001
 30
0.0
 40
1.0
100
AcDbArc
 50
270.0
 51
322.4620664206
  0
LINE
  5
118B
330
1F
100
AcDbEntity
  8
1
100
AcDbLine
 10
0.3196152422999887
 20
21.80829262150001
 30
0.0
 11
2.4097319313
 21
21.80829262150001
 31
0.0
  0
LINE
  5
118C
330
1F
100
AcDbEntity
  8
1
100
AcDbLine
 10
12.97499999999996
 20
8.050000000000011
 30
0.0
 11
12.97499999999996
 21
29.39776026650003
 31
0.0
  0
LINE
  5
118D
330
1F
100
AcDbEntity
  8
1
100
AcDbLine
 10
9.224999999999962
 20
29.39776026650003
 30
0.0
 11
9.224999999999962
 21
8.050000000000011
 31
0.0
  0
LINE
  5
118E
330
1F
100
AcDbEntity
  8
SK3
100
AcDbLine
 10
19.09999999999996
 20
8.050000000000011
 30
0.0
 11
19.10159018729996
 21
8.050000000000011
 31
0.0
  0
LINE
  5
118F
330
1F
100
AcDbEntity
  8
NOCUT
100
AcDbLine
 10
9.724999999999909
 20
28.12499999994997
 30
0.0
 11
12.4749999999999
 21
28.12499999994997
 31
0.0
  0
LINE
  5
1190
330
1F
100
AcDbEntity
  8
SK3
100
AcDbLine
 10
16.52166349899999
 20
28.13636465
 30
0.0
 11
11.14969137309998
 21
24.3748358745
 31
0.0
  0
LINE
  5
1191
330
1F
100
AcDbEntity
  8
1
100
AcDbLine
 10
9.724999999999962
 20
28.125
 30
0.0
 11
12.47499999999996
 21
28.125
 31
0.0
  0
LINE
  5
1192
330
1F
100
AcDbEntity
  8
SK3
100
AcDbLine
 10
3.603724026899953
 20
24.77580381680001
 30
0.0
 11
7.66286564569998
 21
21.93331253799998
 31
0.0
  0
LINE
  5
1193
330
1F
100
AcDbEntity
  8
SK3
100
AcDbLine
 10
10.28061198529997
 20
25.59383021709998
 30
0.0
 11
7.717264717247445
 21
21.93331253799998
 31
0.0
  0
LINE
  5
1194
330
1F
100
AcDbEntity
  8
SK3
100
AcDbLine
 10
11.14969137309998
 20
24.3748358745
 30
0.0
 11
11.14969137309998
 21
21.93327956509335
 31
0.0
  0
LINE
  5
1195
330
1F
100
AcDbEntity
  8
SK3
100
AcDbLine
 10
7.66286564569998
 20
21.93331253799998
 30
0.0
 11
11.1497384628728
 21
21.93331253799998
 31
0.0
  0
LINE
  5
1196
330
1F
100
AcDbEntity
  8
SK3
100
AcDbLine
 10
6.184970151799973
 20
28.46188146700001
 30
0.0
 11
10.28061198529997
 21
25.59383021709998
 31
0.0
  0
LINE
  5
1197
330
1F
100
AcDbEntity
  8
SK3
100
AcDbLine
 10
5.898165026799973
 20
28.05231728360002
 30
0.0
 11
11.14969137309998
 21
24.3748358745
 31
0.0
  0
LINE
  5
1198
330
1F
100
AcDbEntity
  8
NOCUT
100
AcDbLine
 10
9.224999999999909
 20
29.39776026645006
 30
0.0
 11
9.224999999999909
 21
28.62499999994998
 31
0.0
  0
ARC
  5
1199
330
1F
100
AcDbEntity
  8
NOCUT
100
AcDbCircle
 10
9.724999999999909
 20
28.62499999994998
 30
0.0
 40
0.5
100
AcDbArc
 50
180.0
 51
270.0
  0
ARC
  5
119A
330
1F
100
AcDbEntity
  8
1
100
AcDbCircle
 10
9.724999999999962
 20
28.625
 30
0.0
 40
0.5
100
AcDbArc
 50
180.0
 51
270.0
  0
LINE
  5
119B
330
1F
100
AcDbEntity
  8
SK3
100
AcDbLine
 10
15.62051133359998
 20
28.11575458550001
 30
0.0
 11
18.48841060159998
 21
24.02000632799998
 31
0.0
  0
LINE
  5
119C
330
1F
100
AcDbEntity
  8
SK3
100
AcDbLine
 10
12.54870014049996
 20
25.96483013449999
 30
0.0
 11
15.41659940849996
 21
21.86908187700001
 31
0.0
  0
LINE
  5
119D
330
1F
100
AcDbEntity
  8
SK3
100
AcDbLine
 10
12.13912531469998
 20
25.67804020770001
 30
0.0
 11
15.00702458269998
 21
21.5822919502
 31
0.0
  0
LINE
  5
119E
330
1F
100
AcDbEntity
  8
SK3
100
AcDbLine
 10
18.67258794999997
 20
25.06455345680001
 30
0.0
 11
18.48841060159998
 21
24.02000632799998
 31
0.0
  0
LINE
  5
119F
330
1F
100
AcDbEntity
  8
SK3
100
AcDbLine
 10
19.10277284019996
 20
24.45019121820001
 30
0.0
 11
15.00702458269998
 21
21.5822919502
 31
0.0
  0
LINE
  5
11A0
330
1F
100
AcDbEntity
  8
SK3
100
AcDbLine
 10
15.41659940849996
 20
21.86908187700001
 30
0.0
 11
14.72023465589997
 21
21.99186677600001
 31
0.0
  0
LINE
  5
11A1
330
1F
100
AcDbEntity
  8
SK3
100
AcDbLine
 10
16.66505846239997
 20
27.93157723709998
 30
0.0
 11
15.62051133359998
 21
28.11575458550001
 31
0.0
  0
LINE
  5
11A3
330
1F
100
AcDbEntity
  8
SK3
100
AcDbLine
 10
17.25487760259997
 20
27.08923568670002
 30
0.0
 11
15.91742542649997
 21
26.15273327600001
 31
0.0
  0
LINE
  5
11A4
330
1F
100
AcDbEntity
  8
SK3
100
AcDbLine
 10
16.84093199899999
 20
27.68040602650003
 30
0.0
 11
15.50347982289997
 21
26.74390361569999
 31
0.0
  0
LINE
  5
11A5
330
1F
100
AcDbEntity
  8
SK3
100
AcDbLine
 10
16.2348735722
 20
28.5459394757
 30
0.0
 11
12.13912531469998
 21
25.67804020770001
 31
0.0
  0
LINE
  5
11A6
330
1F
100
AcDbEntity
  8
SK3
100
AcDbLine
 10
15.50347982289997
 20
26.74390361569999
 30
0.0
 11
17.15926223727925
 21
24.37922225675555
 31
0.0
  0
LINE
  5
11A7
330
1F
100
AcDbEntity
  8
NOCUT
100
AcDbLine
 10
12.9749999999999
 20
28.62499999994998
 30
0.0
 11
12.9749999999999
 21
29.39776026645006
 31
0.0
  0
ARC
  5
11A8
330
1F
100
AcDbEntity
  8
NOCUT
100
AcDbCircle
 10
12.4749999999999
 20
28.62499999994998
 30
0.0
 40
0.5
100
AcDbArc
 50
270.0
 51
0.0
  0
LINE
  5
11AA
330
1F
100
AcDbEntity
  8
SK3
100
AcDbLine
 10
12.54870014049996
 20
25.96483013449999
 30
0.0
 11
12.4259152415
 21
25.26846538200001
 31
0.0
  0
ARC
  5
11AB
330
1F
100
AcDbEntity
  8
1
100
AcDbCircle
 10
12.47499999999996
 20
28.625
 30
0.0
 40
0.5
100
AcDbArc
 50
270.0
 51
0.0
  0
ARC
  5
11AC
330
1F
100
AcDbEntity
  8
NOCUT
100
AcDbCircle
 10
19.99999999999987
 20
25.64999999995001
 30
0.0
 40
0.9
100
AcDbArc
 50
180.0
 51
270.0
  0
LINE
  5
11AD
330
1F
100
AcDbEntity
  8
SK3
100
AcDbLine
 10
19.24616780359996
 20
24.24540380530004
 30
0.0
 11
16.0914786088
 21
28.75072688860001
 31
0.0
  0
LINE
  5
11AE
330
1F
100
AcDbEntity
  8
SK3
100
AcDbLine
 10
19.9676310183457
 20
24.75058227223016
 30
0.0
 11
19.24616780359996
 21
24.24540380530004
 31
0.0
  0
LINE
  5
11AF
330
1F
100
AcDbEntity
  8
SK3
100
AcDbLine
 10
18.49671441339998
 20
25.31572466750001
 30
0.0
 11
17.15926223719998
 21
24.37922225670002
 31
0.0
  0
LINE
  5
11B0
330
1F
100
AcDbEntity
  8
SK3
100
AcDbLine
 10
18.08276880979996
 20
25.90689500719999
 30
0.0
 11
16.74531663359999
 21
24.97039259650003
 31
0.0
  0
ARC
  5
11B1
330
1F
100
AcDbEntity
  8
1
100
AcDbCircle
 10
19.99999999999996
 20
25.64999999999999
 30
0.0
 40
0.9
100
AcDbArc
 50
180.0
 51
270.0
  0
ARC
  5
11B2
330
1F
100
AcDbEntity
  8
NOCUT
100
AcDbCircle
 10
4.799999999999954
 20
30.17499999995003
 30
0.0
 40
1.6
100
AcDbArc
 50
90.0
 51
180.0
  0
ARC
  5
11B3
330
1F
100
AcDbEntity
  8
1
100
AcDbCircle
 10
4.799999999999981
 20
30.175
 30
0.0
 40
1.6
100
AcDbArc
 50
90.0
 51
180.0
  0
LINE
  5
11B4
330
1F
100
AcDbEntity
  8
NOCUT
100
AcDbLine
 10
7.852499999999962
 20
31.77499999995001
 30
0.0
 11
4.799999999999954
 21
31.77499999995001
 31
0.0
  0
LINE
  5
11B5
330
1F
100
AcDbEntity
  8
1
100
AcDbLine
 10
7.852499999999992
 20
31.775
 30
0.0
 11
4.799999999999981
 21
31.775
 31
0.0
  0
LINE
  5
11B6
330
1F
100
AcDbEntity
  8
NOCUT
100
AcDbLine
 10
17.49999999999988
 20
31.77499999995001
 30
0.0
 11
14.34749999999985
 21
31.77499999995001
 31
0.0
  0
LINE
  5
11B7
330
1F
100
AcDbEntity
  8
1
100
AcDbLine
 10
17.49999999999997
 20
31.775
 30
0.0
 11
14.34749999999996
 21
31.775
 31
0.0
  0
ARC
  5
11B8
330
1F
100
AcDbEntity
  8
NOCUT
100
AcDbCircle
 10
17.49999999999988
 20
30.17499999995003
 30
0.0
 40
1.6
100
AcDbArc
 50
0.0
 51
90.0
  0
ARC
  5
11B9
330
1F
100
AcDbEntity
  8
1
100
AcDbCircle
 10
17.49999999999997
 20
30.175
 30
0.0
 40
1.6
100
AcDbArc
 50
0.0
 51
90.0
  0
LINE
  5
11BA
330
1F
100
AcDbEntity
  8
1
100
AcDbLine
 10
43.94818514459996
 20
-24.75
 30
0.0
 11
48.99999999999997
 21
-16.0
 31
0.0
  0
LINE
  5
11BB
330
1F
100
AcDbEntity
  8
1
100
AcDbLine
 10
43.94818514459996
 20
24.75
 30
0.0
 11
43.94818514459996
 21
-24.75
 31
0.0
  0
DIMENSION
  5
11BC
330
1F
100
AcDbEntity
  8
SK2
100
AcDbDimension
  2
*D4
 10
112.8750710466998
 20
24.74999999999998
 30
0.0
 11
112.8750710466998
 21
-0.0574939427999937
 31
0.0
 70
   160
  1
%%c<>
 71
     5
 42
49.5
  3
ISO-25
100
AcDbAlignedDimension
 13
44.17265244409998
 23
-24.75
 33
0.0
 14
44.01945772109999
 24
24.75
 34
0.0
 50
90.0
100
AcDbRotatedDimension
1001
ACAD
1000
DSTYLE
1002
{
1070
   179
1070
     4
1070
   275
1070
     1
1002
}
  0
DIMENSION
  5
11BD
330
1F
100
AcDbEntity
  8
SK2
100
AcDbDimension
  2
*D5
 10
44.49999999999997
 20
-44.13953498259996
 30
0.0
 11
39.29021359419996
 21
-44.13953498259996
 31
0.0
 70
   160
 71
     5
 42
10.0
  3
ISO-25
100
AcDbAlignedDimension
 13
34.49999999999996
 23
-4.0
 33
0.0
 14
44.49999999999997
 24
-7.5
 34
0.0
100
AcDbRotatedDimension
1001
ACAD
1000
DSTYLE
1002
{
1070
   179
1070
     4
1070
   275
1070
     1
1002
}
  0
DIMENSION
  5
11BE
330
1F
100
AcDbEntity
  8
SK2
100
AcDbDimension
  2
*D6
 10
34.49999999999996
 20
-54.13953498259996
 30
0.0
 11
57.12453744929999
 21
-54.13953498259996
 31
0.0
 70
   160
 71
     5
 42
46.00000000000003
  3
ISO-25
100
AcDbAlignedDimension
 13
80.5
 23
-14.08045018439997
 33
0.0
 14
34.49999999999996
 24
-4.0
 34
0.0
 50
180.0
100
AcDbRotatedDimension
1001
ACAD
1000
DSTYLE
1002
{
1070
   179
1070
     4
1070
   275
1070
     1
1002
}
  0
TEXT
  5
11BF
330
1F
100
AcDbEntity
  8
6
100
AcDbText
 10
29.89431712202512
 20
-73.33512026051039
 30
0.0
 40
3.5
  1
69871A40HC12SA080-G2
 41
0.8
  7
isocp
 72
     1
 11
50.05951233432341
 21
-73.33512026051039
 31
0.0
100
AcDbText
  0
DIMENSION
  5
11C0
330
1F
100
AcDbEntity
  8
SK2
100
AcDbDimension
  2
*D7
 10
102.8750710466999
 20
15.99999999999998
 30
0.0
 11
102.8750710466999
 21
-0.5021242849999794
 31
0.0
 70
   160
  1
%%c<>
 71
     5
 42
32.0
  3
ISO-25
100
AcDbAlignedDimension
 13
69.65743636079998
 23
-16.0
 33
0.0
 14
69.65743636079998
 24
16.0
 34
0.0
 50
90.0
100
AcDbRotatedDimension
1001
ACAD
1000
DSTYLE
1002
{
1070
   179
1070
     4
1070
   275
1070
     1
1002
}
  0
DIMENSION
  5
11C1
330
1F
100
AcDbEntity
  8
SK2
100
AcDbDimension
  2
*D8
 10
92.87507104669998
 20
5.999999999999996
 30
0.0
 11
92.87507104669998
 21
16.22908267716539
 31
0.0
 70
   160
  1
%%c<>
 71
     5
 42
12.0
  3
ISO-25
100
AcDbAlignedDimension
 13
81.0
 23
-6.0
 33
0.0
 14
81.0
 24
6.0
 34
0.0
 50
90.0
100
AcDbRotatedDimension
1001
ACAD
1000
DSTYLE
1002
{
1070
   179
1070
     4
1070
   275
1070
     1
1002
}
  0
DIMENSION
  5
11C2
330
1F
100
AcDbEntity
  8
SK2
100
AcDbDimension
  2
*D9
 10
48.99999999999997
 20
49.30503825630001
 30
0.0
 11
64.60024759949999
 21
49.30503825630001
 31
0.0
 70
   160
 71
     5
 42
31.50000000000003
  3
ISO-25
100
AcDbAlignedDimension
 13
80.5
 23
16.5
 33
0.0
 14
48.99999999999997
 24
16.5
 34
0.0
 50
180.0
100
AcDbRotatedDimension
1001
ACAD
1000
DSTYLE
1002
{
1070
   179
1070
     4
1070
   275
1070
     1
1002
}
  0
LINE
  5
11C3
330
1F
100
AcDbEntity
  8
NOCUT
100
AcDbLine
 10
48.99999999999988
 20
15.99999999994997
 30
0.0
 11
55.69999999999993
 21
15.99999999994997
 31
0.0
  0
LINE
  5
11C4
330
1F
100
AcDbEntity
  8
SK3
100
AcDbLine
 10
76.89999999999997
 20
7.5
 30
0.0
 11
46.39999999999997
 21
7.5
 31
0.0
  0
LINE
  5
11C5
330
1F
100
AcDbEntity
  8
SK3
100
AcDbLine
 10
55.64999999999997
 20
6.5
 30
0.0
 11
46.39999999999997
 21
6.5
 31
0.0
  0
LINE
  5
11C6
330
1F
100
AcDbEntity
  8
SK3
100
AcDbLine
 10
44.49999999999997
 20
6.0
 30
0.0
 11
80.0
 21
6.0
 31
0.0
  0
LINE
  5
11C7
330
1F
100
AcDbEntity
  8
SK3
100
AcDbLine
 10
44.49999999999997
 20
-6.0
 30
0.0
 11
80.0
 21
-6.0
 31
0.0
  0
LINE
  5
11C8
330
1F
100
AcDbEntity
  8
SK3
100
AcDbLine
 10
55.64999999999997
 20
-6.5
 30
0.0
 11
46.39999999999997
 21
-6.5
 31
0.0
  0
LINE
  5
11C9
330
1F
100
AcDbEntity
  8
SK3
100
AcDbLine
 10
76.89999999999997
 20
-7.5
 30
0.0
 11
46.39999999999997
 21
-7.5
 31
0.0
  0
LINE
  5
11CA
330
1F
100
AcDbEntity
  8
SK3
100
AcDbLine
 10
28.73205080759996
 20
-10.0
 30
0.0
 11
71.27499999999997
 21
-10.0
 31
0.0
  0
LINE
  5
11CB
330
1F
100
AcDbEntity
  8
SK3
100
AcDbLine
 10
28.73205080759996
 20
-12.0
 30
0.0
 11
72.27499999999998
 21
-12.0
 31
0.0
  0
LINE
  5
11CC
330
1F
100
AcDbEntity
  8
1
100
AcDbLine
 10
48.99999999999997
 20
16.0
 30
0.0
 11
55.69999999999999
 21
16.0
 31
0.0
  0
LINE
  5
11CD
330
1F
100
AcDbEntity
  8
1
100
AcDbLine
 10
48.99999999999997
 20
-16.0
 30
0.0
 11
55.69999999999999
 21
-16.0
 31
0.0
  0
LINE
  5
11CE
330
1F
100
AcDbEntity
  8
SK3
100
AcDbLine
 10
46.39999999999997
 20
7.5
 30
0.0
 11
46.39999999999997
 21
-7.5
 31
0.0
  0
LINE
  5
11CF
330
1F
100
AcDbEntity
  8
SK3
100
AcDbLine
 10
44.49999999999997
 20
7.0
 30
0.0
 11
44.49999999999997
 21
-7.0
 31
0.0
  0
LINE
  5
11D0
330
1F
100
AcDbEntity
  8
SK3
100
AcDbLine
 10
34.49999999999996
 20
7.0
 30
0.0
 11
34.49999999999996
 21
-7.0
 31
0.0
  0
LINE
  5
11D1
330
1F
100
AcDbEntity
  8
1
100
AcDbLine
 10
48.99999999999997
 20
16.0
 30
0.0
 11
48.99999999999997
 21
-16.0
 31
0.0
  0
DIMENSION
  5
11D2
330
1F
100
AcDbEntity
  8
SK2
100
AcDbDimension
  2
*D10
 10
37.33569942369996
 20
-5.0
 30
0.0
 11
37.33569942369996
 21
16.82500000000003
 31
0.0
 70
   160
  1
M<>x1
 71
     5
 42
10.0
  3
ISO-25
100
AcDbAlignedDimension
 13
34.40748420009995
 23
5.0
 33
0.0
 14
34.34724558389996
 24
-5.0
 34
0.0
 50
270.0
100
AcDbRotatedDimension
1001
ACAD
1000
DSTYLE
1002
{
1070
   179
1070
     4
1070
   275
1070
     1
1002
}
  0
LINE
  5
11D3
330
1F
100
AcDbEntity
  8
SK3
100
AcDbLine
 10
34.49999999999996
 20
-7.0
 30
0.0
 11
44.49999999999997
 21
-7.0
 31
0.0
  0
CIRCLE
  5
11D5
330
1F
100
AcDbEntity
  8
1
100
AcDbCircle
 10
26.99999999999997
 20
-11.0
 30
0.0
 40
2.0
  0
CIRCLE
  5
11D6
330
1F
100
AcDbEntity
  8
1
100
AcDbCircle
 10
26.99999999999997
 20
-11.0
 30
0.0
 40
3.399999999999999
  0
LINE
  5
11DA
330
1F
100
AcDbEntity
  8
SK3
100
AcDbLine
 10
33.99999999999996
 20
4.5
 30
0.0
 11
33.99999999999996
 21
-4.5
 31
0.0
  0
LINE
  5
11DB
330
1F
100
AcDbEntity
  8
SK3
100
AcDbLine
 10
34.00006624779996
 20
-4.49993372839998
 30
0.0
 11
34.50007360859999
 21
-4.999926364799987
 31
0.0
  0
LINE
  5
11DC
330
1F
100
AcDbEntity
  8
SK3
100
AcDbLine
 10
34.00006624879998
 20
4.499933729500013
 30
0.0
 11
34.50007360969999
 21
4.999926366000038
 31
0.0
  0
LINE
  5
11DD
330
1F
100
AcDbEntity
  8
SK3
100
AcDbLine
 10
34.49999999999996
 20
7.0
 30
0.0
 11
44.49999999999997
 21
7.0
 31
0.0
  0
LINE
  5
11DE
330
1F
100
AcDbEntity
  8
NOCUT
100
AcDbLine
 10
43.94818514459984
 20
24.74999999994997
 30
0.0
 11
48.99999999999988
 21
15.99999999994997
 31
0.0
  0
LINE
  5
11DF
330
1F
100
AcDbEntity
  8
1
100
AcDbLine
 10
43.94818514459996
 20
24.75
 30
0.0
 11
48.99999999999997
 21
16.0
 31
0.0
  0
LINE
  5
11E0
330
1F
100
AcDbEntity
  8
NOCUT
100
AcDbLine
 10
80.5
 20
13.58045018444999
 30
0.0
 11
80.50000000000009
 21
-0.0000000000000568
 31
0.0
  0
LINE
  5
11E1
330
1F
100
AcDbEntity
  8
SK3
100
AcDbLine
 10
76.89999999999997
 20
7.5
 30
0.0
 11
76.89999999999997
 21
-7.5
 31
0.0
  0
LINE
  5
11E2
330
1F
100
AcDbEntity
  8
SK3
100
AcDbLine
 10
67.64999999999997
 20
7.400000000000004
 30
0.0
 11
67.64999999999997
 21
-7.400000000000004
 31
0.0
  0
LINE
  5
11E3
330
1F
100
AcDbEntity
  8
SK3
100
AcDbLine
 10
55.64999999999997
 20
7.400000000000004
 30
0.0
 11
55.64999999999997
 21
-7.400000000000004
 31
0.0
  0
LINE
  5
11E4
330
1F
100
AcDbEntity
  8
SK3
100
AcDbLine
 10
80.00005840609999
 20
5.999941580400018
 30
0.0
 11
80.5000632732
 21
6.499936712100009
 31
0.0
  0
LINE
  5
11E5
330
1F
100
AcDbEntity
  8
1
100
AcDbLine
 10
80.5
 20
13.58045018450002
 30
0.0
 11
80.5
 21
-13.58045018439997
 31
0.0
  0
LINE
  5
11E6
330
1F
100
AcDbEntity
  8
1
100
AcDbLine
 10
69.15743636079998
 20
16.0
 30
0.0
 11
69.15743636079998
 21
-16.0
 31
0.0
  0
LINE
  5
11E7
330
1F
100
AcDbEntity
  8
1
100
AcDbLine
 10
63.29999999999995
 20
16.0
 30
0.0
 11
63.29999999999995
 21
-16.0
 31
0.0
  0
LINE
  5
11E8
330
1F
100
AcDbEntity
  8
1
100
AcDbLine
 10
61.69999999999999
 20
16.0
 30
0.0
 11
61.69999999999999
 21
-16.0
 31
0.0
  0
LINE
  5
11E9
330
1F
100
AcDbEntity
  8
1
100
AcDbLine
 10
60.29999999999998
 20
16.0
 30
0.0
 11
60.29999999999998
 21
-16.0
 31
0.0
  0
LINE
  5
11EA
330
1F
100
AcDbEntity
  8
1
100
AcDbLine
 10
58.69999999999999
 20
16.0
 30
0.0
 11
58.69999999999999
 21
-16.0
 31
0.0
  0
LINE
  5
11EB
330
1F
100
AcDbEntity
  8
1
100
AcDbLine
 10
57.29999999999998
 20
16.0
 30
0.0
 11
57.29999999999998
 21
-16.0
 31
0.0
  0
LINE
  5
11EC
330
1F
100
AcDbEntity
  8
1
100
AcDbLine
 10
55.69999999999999
 20
16.0
 30
0.0
 11
55.69999999999999
 21
-16.0
 31
0.0
  0
LINE
  5
11ED
330
1F
100
AcDbEntity
  8
SK3
100
AcDbLine
 10
76.89999999999997
 20
-6.5
 30
0.0
 11
67.64999999999997
 21
-6.5
 31
0.0
  0
LINE
  5
11EE
330
1F
100
AcDbEntity
  8
1
100
AcDbLine
 10
69.15743636079998
 20
-16.0
 30
0.0
 11
80.08682408879996
 21
-14.07285406089997
 31
0.0
  0
LINE
  5
11EF
330
1F
100
AcDbEntity
  8
SK3
100
AcDbLine
 10
67.64999999999997
 20
-7.400000000000004
 30
0.0
 11
55.64999999999997
 21
-7.400000000000004
 31
0.0
  0
ARC
  5
11F0
330
1F
100
AcDbEntity
  8
1
100
AcDbCircle
 10
62.5
 20
-16.0
 30
0.0
 40
0.8
100
AcDbArc
 50
0.0
 51
180.0
  0
LINE
  5
11F1
330
1F
100
AcDbEntity
  8
1
100
AcDbLine
 10
57.29999999999998
 20
-16.0
 30
0.0
 11
58.69999999999999
 21
-16.0
 31
0.0
  0
ARC
  5
11F2
330
1F
100
AcDbEntity
  8
1
100
AcDbCircle
 10
56.49999999999997
 20
-16.0
 30
0.0
 40
0.8
100
AcDbArc
 50
0.0
 51
180.0
  0
LINE
  5
11F3
330
1F
100
AcDbEntity
  8
1
100
AcDbLine
 10
60.29999999999998
 20
-16.0
 30
0.0
 11
61.69999999999999
 21
-16.0
 31
0.0
  0
ARC
  5
11F4
330
1F
100
AcDbEntity
  8
1
100
AcDbCircle
 10
59.49999999999997
 20
-16.0
 30
0.0
 40
0.8
100
AcDbArc
 50
0.0
 51
180.0
  0
LINE
  5
11F5
330
1F
100
AcDbEntity
  8
1
100
AcDbLine
 10
63.29999999999995
 20
-16.0
 30
0.0
 11
69.15743636079998
 21
-16.0
 31
0.0
  0
LINE
  5
11F6
330
1F
100
AcDbEntity
  8
SK3
100
AcDbLine
 10
80.0
 20
6.0
 30
0.0
 11
80.0
 21
-6.0
 31
0.0
  0
ARC
  5
11F7
330
1F
100
AcDbEntity
  8
SK3
100
AcDbCircle
 10
72.27499999999998
 20
-11.0
 30
0.0
 40
1.0
100
AcDbArc
 50
270.0
 51
0.0
  0
LINE
  5
11F8
330
1F
100
AcDbEntity
  8
SK3
100
AcDbLine
 10
73.27499999999997
 20
-7.5
 30
0.0
 11
73.27499999999997
 21
-11.0
 31
0.0
  0
LINE
  5
11F9
330
1F
100
AcDbEntity
  8
SK3
100
AcDbLine
 10
71.27499999999997
 20
-7.5
 30
0.0
 11
71.27499999999997
 21
-10.0
 31
0.0
  0
ARC
  5
11FA
330
1F
100
AcDbEntity
  8
1
100
AcDbCircle
 10
80.0
 20
-13.58045018439997
 30
0.0
 40
0.5
100
AcDbArc
 50
280.0
 51
0.0
  0
LINE
  5
11FB
330
1F
100
AcDbEntity
  8
SK3
100
AcDbLine
 10
80.00005840529997
 20
-5.999941579599976
 30
0.0
 11
80.50006327239998
 21
-6.499936711199977
 31
0.0
  0
INSERT
  5
11FC
330
1F
100
AcDbEntity
  8
1
100
AcDbBlockReference
  2
nullpunkt_2
 10
80.5
 20
0.0
 30
0.0
 41
-1.0
 50
180.0
  0
LINE
  5
11FD
330
1F
100
AcDbEntity
  8
NOCUT
100
AcDbLine
 10
69.15743636079992
 20
15.99999999994997
 30
0.0
 11
80.08682408879986
 21
14.07285406095001
 31
0.0
  0
LINE
  5
11FE
330
1F
100
AcDbEntity
  8
SK3
100
AcDbLine
 10
76.89999999999997
 20
6.5
 30
0.0
 11
67.64999999999997
 21
6.5
 31
0.0
  0
LINE
  5
11FF
330
1F
100
AcDbEntity
  8
1
100
AcDbLine
 10
69.15743636079998
 20
16.0
 30
0.0
 11
80.08682408879996
 21
14.07285406100004
 31
0.0
  0
ARC
  5
1200
330
1F
100
AcDbEntity
  8
NOCUT
100
AcDbCircle
 10
62.5
 20
15.99999999994997
 30
0.0
 40
0.8
100
AcDbArc
 50
180.0
 51
0.0
  0
LINE
  5
1201
330
1F
100
AcDbEntity
  8
SK3
100
AcDbLine
 10
67.64999999999997
 20
7.400000000000004
 30
0.0
 11
55.64999999999997
 21
7.400000000000004
 31
0.0
  0
ARC
  5
1202
330
1F
100
AcDbEntity
  8
1
100
AcDbCircle
 10
62.5
 20
16.0
 30
0.0
 40
0.8
100
AcDbArc
 50
180.0
 51
0.0
  0
LINE
  5
1203
330
1F
100
AcDbEntity
  8
NOCUT
100
AcDbLine
 10
57.29999999999995
 20
15.99999999994997
 30
0.0
 11
58.69999999999993
 21
15.99999999994997
 31
0.0
  0
LINE
  5
1204
330
1F
100
AcDbEntity
  8
1
100
AcDbLine
 10
57.29999999999998
 20
16.0
 30
0.0
 11
58.69999999999999
 21
16.0
 31
0.0
  0
ARC
  5
1205
330
1F
100
AcDbEntity
  8
NOCUT
100
AcDbCircle
 10
56.49999999999988
 20
15.99999999994997
 30
0.0
 40
0.8
100
AcDbArc
 50
180.0
 51
0.0
  0
ARC
  5
1206
330
1F
100
AcDbEntity
  8
1
100
AcDbCircle
 10
56.49999999999997
 20
16.0
 30
0.0
 40
0.8
100
AcDbArc
 50
180.0
 51
0.0
  0
ARC
  5
1207
330
1F
100
AcDbEntity
  8
NOCUT
100
AcDbCircle
 10
59.49999999999988
 20
15.99999999994997
 30
0.0
 40
0.8
100
AcDbArc
 50
180.0
 51
0.0
  0
LINE
  5
1208
330
1F
100
AcDbEntity
  8
NOCUT
100
AcDbLine
 10
60.29999999999995
 20
15.99999999994997
 30
0.0
 11
61.69999999999993
 21
15.99999999994997
 31
0.0
  0
LINE
  5
1209
330
1F
100
AcDbEntity
  8
1
100
AcDbLine
 10
60.29999999999998
 20
16.0
 30
0.0
 11
61.69999999999999
 21
16.0
 31
0.0
  0
ARC
  5
120A
330
1F
100
AcDbEntity
  8
1
100
AcDbCircle
 10
59.49999999999997
 20
16.0
 30
0.0
 40
0.8
100
AcDbArc
 50
180.0
 51
0.0
  0
LINE
  5
120B
330
1F
100
AcDbEntity
  8
NOCUT
100
AcDbLine
 10
63.29999999999995
 20
15.99999999994997
 30
0.0
 11
69.15743636079992
 21
15.99999999994997
 31
0.0
  0
LINE
  5
120C
330
1F
100
AcDbEntity
  8
1
100
AcDbLine
 10
63.29999999999995
 20
16.0
 30
0.0
 11
69.15743636079998
 21
16.0
 31
0.0
  0
ARC
  5
120D
330
1F
100
AcDbEntity
  8
NOCUT
100
AcDbCircle
 10
80.0
 20
13.58045018444999
 30
0.0
 40
0.5
100
AcDbArc
 50
0.0
 51
79.9999999999998
  0
ARC
  5
120E
330
1F
100
AcDbEntity
  8
1
100
AcDbCircle
 10
80.0
 20
13.58045018450002
 30
0.0
 40
0.5
100
AcDbArc
 50
0.0
 51
79.9999999999998
  0
ENDSEC
  0
SECTION
  2
OBJECTS
  0
DICTIONARY
  5
9B0
330
0
100
AcDbDictionary
281
     1
  3
ACAD_GROUP
350
9B1
  3
ACAD_LAYOUT
350
9B9
  3
ACAD_MLINESTYLE
350
9B2
  3
ACAD_PLOTSETTINGS
350
9BA
  3
ACAD_PLOTSTYLENAME
350
9B7
  0
DICTIONARY
  5
9B1
102
{ACAD_REACTORS
330
9B0
102
}
330
9B0
100
AcDbDictionary
281
     1
  0
DICTIONARY
  5
9B9
102
{ACAD_REACTORS
330
9B0
102
}
330
9B0
100
AcDbDictionary
281
     1
  3
Layout1
350
9BC
  3
Model
350
9BB
  0
DICTIONARY
  5
9B2
102
{ACAD_REACTORS
330
9B0
102
}
330
9B0
100
AcDbDictionary
281
     1
  3
STANDARD
350
9B3
  0
DICTIONARY
  5
9BA
102
{ACAD_REACTORS
330
9B0
102
}
330
9B0
100
AcDbDictionary
281
     1
  0
ACDBDICTIONARYWDFLT
  5
9B7
102
{ACAD_REACTORS
330
9B0
102
}
330
9B0
100
AcDbDictionary
281
     1
  3
Normal
350
9B8
100
AcDbDictionaryWithDefault
340
9B8
  0
LAYOUT
  5
9BC
102
{ACAD_REACTORS
330
9B9
102
}
330
9B9
100
AcDbPlotSettings
  1

  2
Kein
  4

  6

 40
0.0
 41
0.0
 42
0.0
 43
0.0
 44
0.0
 45
0.0
 46
0.0
 47
0.0
 48
0.0
 49
0.0
140
0.0
141
0.0
142
1.0
143
1.0
 70
   688
 72
     0
 73
     0
 74
     5
  7

 75
    16
147
1.0
148
0.0
149
0.0
100
AcDbLayout
  1
Layout1
 70
     1
 71
     1
 10
0.0
 20
0.0
 11
12.0
 21
9.0
 12
0.0
 22
0.0
 32
0.0
 14
1.000000000000000E+20
 24
1.000000000000000E+20
 34
1.000000000000000E+20
 15
-1.000000000000000E+20
 25
-1.000000000000000E+20
 35
-1.000000000000000E+20
146
0.0
 13
0.0
 23
0.0
 33
0.0
 16
1.0
 26
0.0
 36
0.0
 17
0.0
 27
1.0
 37
0.0
 76
     0
330
1B
  0
LAYOUT
  5
9BB
102
{ACAD_REACTORS
330
9B9
102
}
330
9B9
100
AcDbPlotSettings
  1

  2
Kein
  4

  6

 40
0.0
 41
0.0
 42
0.0
 43
0.0
 44
0.0
 45
0.0
 46
0.0
 47
0.0
 48
0.0
 49
0.0
140
0.0
141
0.0
142
1.0
143
1.0
 70
  1712
 72
     0
 73
     0
 74
     0
  7

 75
     0
147
1.0
148
0.0
149
0.0
100
AcDbLayout
  1
Model
 70
     1
 71
     0
 10
0.0
 20
0.0
 11
12.0
 21
9.0
 12
0.0
 22
0.0
 32
0.0
 14
0.0
 24
0.0
 34
0.0
 15
0.0
 25
0.0
 35
0.0
146
0.0
 13
0.0
 23
0.0
 33
0.0
 16
1.0
 26
0.0
 36
0.0
 17
0.0
 27
1.0
 37
0.0
 76
     0
330
1F
  0
MLINESTYLE
  5
9B3
102
{ACAD_REACTORS
330
9B2
102
}
330
9B2
100
AcDbMlineStyle
  2
STANDARD
 70
     0
  3

 62
   256
 51
90.0
 52
90.0
 71
     2
 49
0.5
 62
   256
  6
BYLAYER
 49
-0.5
 62
   256
  6
BYLAYER
  0
ACDBPLACEHOLDER
  5
9B8
102
{ACAD_REACTORS
330
9B7
102
}
330
9B7
  0
ENDSEC
  0
EOF
