  0
SECTION
  2
HEADER
  9
$ACADVER
  1
AC1015
  9
$ACADMAINTVER
 70
    10
  9
$DWGCODEPAGE
  3
ANSI_1252
  9
$INSBASE
 10
0.0
 20
0.0
 30
0.0
  9
$EXTMIN
 10
-71.42063411952233
 20
-69.85089570556249
 30
-0.0000000349181948
  9
$EXTMAX
 10
114.9110019240804
 20
63.26851439863514
 30
0.0000000814935747
  9
$LIMMIN
 10
0.0
 20
0.0
  9
$LIMMAX
 10
420.0
 20
297.0
  9
$ORTHOMODE
 70
     0
  9
$REGENMODE
 70
     1
  9
$FILLMODE
 70
     1
  9
$QTEXTMODE
 70
     0
  9
$MIRRTEXT
 70
     1
  9
$LTSCALE
 40
23.1
  9
$ATTMODE
 70
     1
  9
$TEXTSIZE
 40
0.2
  9
$TRACEWID
 40
0.05
  9
$TEXTSTYLE
  7
STANDARD
  9
$CLAYER
  8
0
  9
$CELTYPE
  6
BYLAYER
  9
$CECOLOR
 62
   256
  9
$CELTSCALE
 40
1.0
  9
$DISPSILH
 70
     0
  9
$DIMSCALE
 40
1.0
  9
$DIMASZ
 40
2.5
  9
$DIMEXO
 40
2.625
  9
$DIMDLI
 40
15.96
  9
$DIMRND
 40
0.0
  9
$DIMDLE
 40
0.0
  9
$DIMEXE
 40
7.559999999999998
  9
$DIMTP
 40
0.01
  9
$DIMTM
 40
0.01
  9
$DIMTXT
 40
3.5
  9
$DIMCEN
 40
3.779999999999998
  9
$DIMTSZ
 40
0.0
  9
$DIMTOL
 70
     1
  9
$DIMLIM
 70
     0
  9
$DIMTIH
 70
     1
  9
$DIMTOH
 70
     1
  9
$DIMSE1
 70
     0
  9
$DIMSE2
 70
     0
  9
$DIMTAD
 70
     0
  9
$DIMZIN
 70
     0
  9
$DIMBLK
  1
_ARROW_FILLED
  9
$DIMASO
 70
     1
  9
$DIMSHO
 70
     1
  9
$DIMPOST
  1

  9
$DIMAPOST
  1

  9
$DIMALT
 70
     0
  9
$DIMALTD
 70
     2
  9
$DIMALTF
 40
25.4
  9
$DIMLFAC
 40
1.0
  9
$DIMTOFL
 70
     0
  9
$DIMTVP
 40
0.0
  9
$DIMTIX
 70
     0
  9
$DIMSOXD
 70
     0
  9
$DIMSAH
 70
     0
  9
$DIMBLK1
  1

  9
$DIMBLK2
  1

  9
$DIMSTYLE
  2
STANDARD
  9
$DIMCLRD
 70
     0
  9
$DIMCLRE
 70
     0
  9
$DIMCLRT
 70
     0
  9
$DIMTFAC
 40
1.0
  9
$DIMGAP
 40
0.09
  9
$DIMJUST
 70
     0
  9
$DIMSD1
 70
     0
  9
$DIMSD2
 70
     0
  9
$DIMTOLJ
 70
     1
  9
$DIMTZIN
 70
     0
  9
$DIMALTZ
 70
     0
  9
$DIMALTTZ
 70
     0
  9
$DIMUPT
 70
     0
  9
$DIMDEC
 70
     4
  9
$DIMTDEC
 70
     4
  9
$DIMALTU
 70
     2
  9
$DIMALTTD
 70
     2
  9
$DIMTXSTY
  7
STANDARD
  9
$DIMAUNIT
 70
     0
  9
$DIMADEC
 70
     0
  9
$DIMALTRND
 40
0.0
  9
$DIMAZIN
 70
     0
  9
$DIMDSEP
 70
    46
  9
$DIMATFIT
 70
     3
  9
$DIMFRAC
 70
     0
  9
$DIMLDRBLK
  1
_ARROW_FILLED
  9
$DIMLUNIT
 70
     2
  9
$DIMLWD
 70
    -2
  9
$DIMLWE
 70
    -2
  9
$DIMTMOVE
 70
     0
  9
$LUNITS
 70
     2
  9
$LUPREC
 70
     4
  9
$SKETCHINC
 40
0.1
  9
$FILLETRAD
 40
0.9
  9
$AUNITS
 70
     0
  9
$AUPREC
 70
     0
  9
$MENU
  1
.
  9
$ELEVATION
 40
0.0
  9
$PELEVATION
 40
0.0
  9
$THICKNESS
 40
0.0
  9
$LIMCHECK
 70
     0
  9
$CHAMFERA
 40
0.0
  9
$CHAMFERB
 40
0.0
  9
$CHAMFERC
 40
0.0
  9
$CHAMFERD
 40
0.0
  9
$SKPOLY
 70
     0
  9
$TDCREATE
 40
2453886.623641678
  9
$TDUCREATE
 40
2453886.540308345
  9
$TDUPDATE
 40
2453889.492908333
  9
$TDUUPDATE
 40
2453889.409575000
  9
$TDINDWG
 40
0.0821413194
  9
$TDUSRTIMER
 40
0.0821413194
  9
$USRTIMER
 70
     1
  9
$ANGBASE
 50
0.0
  9
$ANGDIR
 70
     0
  9
$PDMODE
 70
     3
  9
$PDSIZE
 40
0.3125
  9
$PLINEWID
 40
0.0
  9
$SPLFRAME
 70
     0
  9
$SPLINETYPE
 70
     6
  9
$SPLINESEGS
 70
     8
  9
$HANDSEED
  5
11F0
  9
$SURFTAB1
 70
     6
  9
$SURFTAB2
 70
     6
  9
$SURFTYPE
 70
     6
  9
$SURFU
 70
     6
  9
$SURFV
 70
     6
  9
$UCSBASE
  2

  9
$UCSNAME
  2

  9
$UCSORG
 10
0.0
 20
0.0
 30
0.0
  9
$UCSXDIR
 10
1.0
 20
0.0
 30
0.0
  9
$UCSYDIR
 10
0.0
 20
1.0
 30
0.0
  9
$UCSORTHOREF
  2

  9
$UCSORTHOVIEW
 70
     0
  9
$UCSORGTOP
 10
0.0
 20
0.0
 30
0.0
  9
$UCSORGBOTTOM
 10
0.0
 20
0.0
 30
0.0
  9
$UCSORGLEFT
 10
0.0
 20
0.0
 30
0.0
  9
$UCSORGRIGHT
 10
0.0
 20
0.0
 30
0.0
  9
$UCSORGFRONT
 10
0.0
 20
0.0
 30
0.0
  9
$UCSORGBACK
 10
0.0
 20
0.0
 30
0.0
  9
$PUCSBASE
  2

  9
$PUCSNAME
  2

  9
$PUCSORG
 10
0.0
 20
0.0
 30
0.0
  9
$PUCSXDIR
 10
1.0
 20
0.0
 30
0.0
  9
$PUCSYDIR
 10
0.0
 20
1.0
 30
0.0
  9
$PUCSORTHOREF
  2

  9
$PUCSORTHOVIEW
 70
     0
  9
$PUCSORGTOP
 10
0.0
 20
0.0
 30
0.0
  9
$PUCSORGBOTTOM
 10
0.0
 20
0.0
 30
0.0
  9
$PUCSORGLEFT
 10
0.0
 20
0.0
 30
0.0
  9
$PUCSORGRIGHT
 10
0.0
 20
0.0
 30
0.0
  9
$PUCSORGFRONT
 10
0.0
 20
0.0
 30
0.0
  9
$PUCSORGBACK
 10
0.0
 20
0.0
 30
0.0
  9
$USERI1
 70
     0
  9
$USERI2
 70
     0
  9
$USERI3
 70
     0
  9
$USERI4
 70
     0
  9
$USERI5
 70
     0
  9
$USERR1
 40
0.0
  9
$USERR2
 40
0.0
  9
$USERR3
 40
0.0
  9
$USERR4
 40
0.0
  9
$USERR5
 40
0.0
  9
$WORLDVIEW
 70
     1
  9
$SHADEDGE
 70
     3
  9
$SHADEDIF
 70
    70
  9
$TILEMODE
 70
     1
  9
$MAXACTVP
 70
    64
  9
$PINSBASE
 10
0.0
 20
0.0
 30
0.0
  9
$PLIMCHECK
 70
     0
  9
$PEXTMIN
 10
1.000000000000000E+20
 20
1.000000000000000E+20
 30
1.000000000000000E+20
  9
$PEXTMAX
 10
-1.000000000000000E+20
 20
-1.000000000000000E+20
 30
-1.000000000000000E+20
  9
$PLIMMIN
 10
0.0
 20
0.0
  9
$PLIMMAX
 10
12.0
 20
9.0
  9
$UNITMODE
 70
     0
  9
$VISRETAIN
 70
     1
  9
$PLINEGEN
 70
     0
  9
$PSLTSCALE
 70
     1
  9
$TREEDEPTH
 70
  3020
  9
$CMLSTYLE
  2
STANDARD
  9
$CMLJUST
 70
     0
  9
$CMLSCALE
 40
1.0
  9
$PROXYGRAPHICS
 70
     1
  9
$MEASUREMENT
 70
     1
  9
$CELWEIGHT
370
    -1
  9
$ENDCAPS
280
     0
  9
$JOINSTYLE
280
     0
  9
$LWDISPLAY
290
     0
  9
$INSUNITS
 70
     0
  9
$HYPERLINKBASE
  1

  9
$STYLESHEET
  1

  9
$XEDIT
290
     1
  9
$CEPSNTYPE
380
     0
  9
$PSTYLEMODE
290
     1
  9
$FINGERPRINTGUID
  2
{408C7B08-545A-4169-AE50-CBD893491EAE}
  9
$VERSIONGUID
  2
{A9B19AB9-CFF8-4810-8F17-7E0B6D254A75}
  9
$EXTNAMES
290
     1
  9
$PSVPSCALE
 40
0.0
  9
$OLESTARTUP
290
     0
  0
ENDSEC
  0
SECTION
  2
CLASSES
  0
CLASS
  1
ACDBDICTIONARYWDFLT
  2
AcDbDictionaryWithDefault
  3
AutoCAD 2000
 90
        0
280
     0
281
     0
  0
CLASS
  1
ACDBPLACEHOLDER
  2
AcDbPlaceHolder
  3
AutoCAD 2000
 90
        0
280
     0
281
     0
  0
CLASS
  1
LAYOUT
  2
AcDbLayout
  3
AutoCAD 2000
 90
        0
280
     0
281
     0
  0
ENDSEC
  0
SECTION
  2
TABLES
  0
TABLE
  2
VPORT
  5
8
330
0
100
AcDbSymbolTable
 70
     2
  0
VPORT
  5
11EF
330
8
100
AcDbSymbolTableRecord
100
AcDbViewportTableRecord
  2
*Active
 70
     0
 10
0.0
 20
0.0
 11
1.0
 21
1.0
 12
21.74518390227905
 22
-3.291190653463672
 13
0.0
 23
0.0
 14
1.0
 24
1.0
 15
0.0
 25
0.0
 16
0.0
 26
0.0
 36
1.0
 17
0.0
 27
0.0
 37
0.0
 40
133.9110022356398
 41
1.539682539682539
 42
50.0
 43
0.0
 44
0.0
 50
0.0
 51
0.0
 71
     0
 72
   100
 73
     1
 74
     1
 75
     0
 76
     0
 77
     0
 78
     0
281
     0
 65
     1
110
0.0
120
0.0
130
0.0
111
1.0
121
0.0
131
0.0
112
0.0
122
1.0
132
0.0
 79
     0
146
0.0
  0
ENDTAB
  0
TABLE
  2
LTYPE
  5
5
330
0
100
AcDbSymbolTable
 70
     3
  0
LTYPE
  5
14
330
5
100
AcDbSymbolTableRecord
100
AcDbLinetypeTableRecord
  2
BYBLOCK
 70
     0
  3

 72
    65
 73
     0
 40
0.0
  0
LTYPE
  5
15
330
5
100
AcDbSymbolTableRecord
100
AcDbLinetypeTableRecord
  2
BYLAYER
 70
     0
  3

 72
    65
 73
     0
 40
0.0
  0
LTYPE
  5
16
330
5
100
AcDbSymbolTableRecord
100
AcDbLinetypeTableRecord
  2
CONTINUOUS
 70
     0
  3
Solid line
 72
    65
 73
     0
 40
0.0
  0
LTYPE
  5
1F5
330
5
100
AcDbSymbolTableRecord
100
AcDbLinetypeTableRecord
  2
CENTER
 70
     0
  3
____ _ ____ _ ____ _ ____ _ ____ _ ____ _ ____
 72
    65
 73
     4
 40
0.6
 49
0.375
 74
     0
 49
-0.075
 74
     0
 49
0.075
 74
     0
 49
-0.075
 74
     0
  0
LTYPE
  5
1F6
330
5
100
AcDbSymbolTableRecord
100
AcDbLinetypeTableRecord
  2
HIDDEN
 70
     0
  3
- - - - - - - - - - - - - - - - - - - -
 72
    65
 73
     2
 40
0.2
 49
0.1
 74
     0
 49
-0.1
 74
     0
  0
ENDTAB
  0
TABLE
  2
LAYER
  5
2
330
0
100
AcDbSymbolTable
 70
     9
  0
LAYER
  5
10
330
2
100
AcDbSymbolTableRecord
100
AcDbLayerTableRecord
  2
0
 70
     0
 62
     7
  6
CONTINUOUS
370
    -3
390
9BC
  0
LAYER
  5
A3B
330
2
100
AcDbSymbolTableRecord
100
AcDbLayerTableRecord
  2
Defpoints
 70
     0
 62
     7
  6
CONTINUOUS
290
     0
370
    -3
390
9BC
  0
LAYER
  5
A3C
330
2
100
AcDbSymbolTableRecord
100
AcDbLayerTableRecord
  2
1
 70
     0
 62
     4
  6
CONTINUOUS
370
    -3
390
9BC
  0
LAYER
  5
A3D
330
2
100
AcDbSymbolTableRecord
100
AcDbLayerTableRecord
  2
4
 70
     0
 62
     2
  6
CENTER
370
    -3
390
9BC
  0
LAYER
  5
A3E
330
2
100
AcDbSymbolTableRecord
100
AcDbLayerTableRecord
  2
6
 70
     0
 62
     5
  6
CONTINUOUS
370
    -3
390
9BC
  0
LAYER
  5
A3F
330
2
100
AcDbSymbolTableRecord
100
AcDbLayerTableRecord
  2
NOCUT
 70
     0
 62
     7
  6
CONTINUOUS
370
    -3
390
9BC
  0
LAYER
  5
A40
330
2
100
AcDbSymbolTableRecord
100
AcDbLayerTableRecord
  2
2
 70
     0
 62
     7
  6
CONTINUOUS
370
    -3
390
9BC
  0
LAYER
  5
A41
330
2
100
AcDbSymbolTableRecord
100
AcDbLayerTableRecord
  2
SK2
 70
     0
 62
     7
  6
CONTINUOUS
370
    -3
390
9BC
  0
LAYER
  5
A42
330
2
100
AcDbSymbolTableRecord
100
AcDbLayerTableRecord
  2
SK3
 70
     0
 62
     1
  6
HIDDEN
370
    -3
390
9BC
  0
ENDTAB
  0
TABLE
  2
STYLE
  5
3
330
0
100
AcDbSymbolTable
 70
     2
  0
STYLE
  5
11
330
3
100
AcDbSymbolTableRecord
100
AcDbTextStyleTableRecord
  2
STANDARD
 70
     0
 40
0.0
 41
0.8
 50
0.0
 71
     0
 42
0.2
  3
txt
  4

  0
STYLE
  5
A43
330
3
100
AcDbSymbolTableRecord
100
AcDbTextStyleTableRecord
  2
isocp
 70
     0
 40
0.0
 41
0.8
 50
0.0
 71
     0
 42
0.2
  3
isocp.shx
  4

  0
ENDTAB
  0
TABLE
  2
VIEW
  5
6
330
0
100
AcDbSymbolTable
 70
     0
  0
ENDTAB
  0
TABLE
  2
UCS
  5
7
330
0
100
AcDbSymbolTable
 70
     0
  0
ENDTAB
  0
TABLE
  2
APPID
  5
9
330
0
100
AcDbSymbolTable
 70
     1
  0
APPID
  5
215
330
9
100
AcDbSymbolTableRecord
100
AcDbRegAppTableRecord
  2
ACAD
 70
     0
  0
ENDTAB
  0
TABLE
  2
DIMSTYLE
  5
A
330
0
100
AcDbSymbolTable
 70
     2
100
AcDbDimStyleTable
 71
     1
340
A44
  0
DIMSTYLE
105
220
330
A
100
AcDbSymbolTableRecord
100
AcDbDimStyleTableRecord
  2
STANDARD
 70
     0
 41
2.5
 47
0.01
 48
0.01
 71
     1
 73
     0
 74
     0
 77
     1
 78
     8
140
3.5
178
     5
271
     3
272
     3
284
     8
340
11
341
216
342
216
343
216
344
216
  0
DIMSTYLE
105
A44
102
{ACAD_REACTORS
330
1002
330
1042
330
1043
330
1059
330
105A
330
105B
330
106C
330
10DD
102
}
330
A
100
AcDbSymbolTableRecord
100
AcDbDimStyleTableRecord
  2
ISO-25
 70
     0
 41
3.5
 42
0.625
 43
3.75
 44
2.0
 73
     0
 74
     0
 77
     1
 78
     8
140
3.5
141
2.5
143
0.03937007874016
147
0.625
171
     3
172
     1
176
   256
177
   256
178
   256
271
     1
272
     1
274
     3
283
     0
284
     8
289
     0
340
A43
  0
ENDTAB
  0
TABLE
  2
BLOCK_RECORD
  5
1
330
0
100
AcDbSymbolTable
 70
    11
  0
BLOCK_RECORD
  5
1F
330
1
100
AcDbSymbolTableRecord
100
AcDbBlockTableRecord
  2
*MODEL_SPACE
340
9BF
  0
BLOCK_RECORD
  5
1B
330
1
100
AcDbSymbolTableRecord
100
AcDbBlockTableRecord
  2
*PAPER_SPACE
340
9C0
  0
BLOCK_RECORD
  5
216
330
1
100
AcDbSymbolTableRecord
100
AcDbBlockTableRecord
  2
_ARROW_FILLED
340
0
102
{BLKREFS
331
676
331
677
331
681
331
682
331
68B
331
68C
331
696
331
697
331
6A2
331
6A3
331
6AB
331
6AC
331
6B4
331
6B5
331
6C1
331
6C2
102
}
  0
BLOCK_RECORD
  5
A28
330
1
100
AcDbSymbolTableRecord
100
AcDbBlockTableRecord
  2
nullpunkt_1
340
0
310
2800000020000000200000000100080000000000000400000000000000000000000000000000000000000000000080000080000000808000800000008000800080800000C0C0C000C0DCC000F0CAA6000020400000206000002080000020A0000020C0000020E00000400000004020000040400000406000004080000040A0
310
000040C0000040E00000600000006020000060400000606000006080000060A0000060C0000060E00000800000008020000080400000806000008080000080A0000080C0000080E00000A0000000A0200000A0400000A0600000A0800000A0A00000A0C00000A0E00000C0000000C0200000C0400000C0600000C0800000C0
310
A00000C0C00000C0E00000E0000000E0200000E0400000E0600000E0800000E0A00000E0C00000E0E00040000000400020004000400040006000400080004000A0004000C0004000E00040200000402020004020400040206000402080004020A0004020C0004020E000404000004040200040404000404060004040800040
310
40A0004040C0004040E00040600000406020004060400040606000406080004060A0004060C0004060E00040800000408020004080400040806000408080004080A0004080C0004080E00040A0000040A0200040A0400040A0600040A0800040A0A00040A0C00040A0E00040C0000040C0200040C0400040C0600040C08000
310
40C0A00040C0C00040C0E00040E0000040E0200040E0400040E0600040E0800040E0A00040E0C00040E0E00080000000800020008000400080006000800080008000A0008000C0008000E00080200000802020008020400080206000802080008020A0008020C0008020E00080400000804020008040400080406000804080
310
008040A0008040C0008040E00080600000806020008060400080606000806080008060A0008060C0008060E00080800000808020008080400080806000808080008080A0008080C0008080E00080A0000080A0200080A0400080A0600080A0800080A0A00080A0C00080A0E00080C0000080C0200080C0400080C0600080C0
310
800080C0A00080C0C00080C0E00080E0000080E0200080E0400080E0600080E0800080E0A00080E0C00080E0E000C0000000C0002000C0004000C0006000C0008000C000A000C000C000C000E000C0200000C0202000C0204000C0206000C0208000C020A000C020C000C020E000C0400000C0402000C0404000C0406000C0
310
408000C040A000C040C000C040E000C0600000C0602000C0604000C0606000C0608000C060A000C060C000C060E000C0800000C0802000C0804000C0806000C0808000C080A000C080C000C080E000C0A00000C0A02000C0A04000C0A06000C0A08000C0A0A000C0A0C000C0A0E000C0C00000C0C02000C0C04000C0C06000
310
C0C08000C0C0A000F0FBFF00A4A0A000808080000000FF0000FF000000FFFF00FF000000FF00FF00FFFF0000FFFFFF0000000000000000000000000000000000000000000000000000000000000000000000000000000000000000000000FEFE0000000000000000000000000000000000000000000000000000FEFEFEFEFE
310
FEFEFE00000000000000000000000000000000000000000000FEFEFEFEFEFE00FE0000FEFE00000000000000000000000000000000000000FEFEFEFE00FE0000FE00000000FEFE00000000000000000000000000000000FEFEFE0000FE000000FE000000000000FEFE00000000000000000000000000FEFE000000FE000000
310
00FE0000000000000000FEFE00000000000000000000FEFE000000FE0000000000FE00000000000000000000FE0000000000000000FEFEFE0000FE000000000000FE00000000000000000000FE0000000000000000FEFE0000FE00000000000000FE0000000000000000000000FE000000000000FEFEFE00FE000000000000
310
0000FE0000000000000000000000FE000000000000FEFE00FE000000000000000000FE000000000000000000000000FE0000000000FEFEFE00000000000000000000FE000000000000000000000000FE0000000000FEFE0000000000000000000000FE00000000000000000000000000FE000000FEFE000000000000000000
310
000000FE00000000000000000000000000FE000000FEFEFEFEFEFEFEFEFEFEFEFEFEFEFEFEFEFEFEFEFEFEFEFEFEFEFEFEFEFE000000FE000000000000000000000000FE00000000000000000000000000FEFE000000FE000000000000000000000000FE000000000000000000000000FEFEFE00000000FE00000000000000
310
00000000FE0000000000000000000000FE00FE0000000000FE0000000000000000000000FE00000000000000000000FE00FEFE000000000000FE00000000000000000000FE000000000000000000FE0000FEFE000000000000FE00000000000000000000FE0000000000000000FE0000FEFEFE00000000000000FE00000000
310
0000000000FE00000000000000FE000000FEFE0000000000000000FE000000000000000000FE000000000000FE000000FEFEFE000000000000000000FE0000000000000000FE0000000000FE00000000FEFE00000000000000000000FE0000000000000000FE00000000FE00000000FEFE000000000000000000000000FEFE
310
000000000000FE000000FE000000FEFEFE000000000000000000000000000000FEFE00000000FE0000FE0000FEFEFEFE000000000000000000000000000000000000FEFE0000FE00FE00FEFEFEFEFE000000000000000000000000000000000000000000FEFEFEFEFEFEFEFEFE000000000000000000000000000000000000
310
00000000000000FEFEFE00000000000000000000000000000000000000000000000000000000000000000000000000000000000000000000
102
{BLKREFS
331
AB8
331
BBE
331
E7E
331
F22
331
1021
102
}
  0
BLOCK_RECORD
  5
A31
330
1
100
AcDbSymbolTableRecord
100
AcDbBlockTableRecord
  2
nullpunkt_2
340
0
310
2800000020000000200000000100080000000000000400000000000000000000000000000000000000000000000080000080000000808000800000008000800080800000C0C0C000C0DCC000F0CAA6000020400000206000002080000020A0000020C0000020E00000400000004020000040400000406000004080000040A0
310
000040C0000040E00000600000006020000060400000606000006080000060A0000060C0000060E00000800000008020000080400000806000008080000080A0000080C0000080E00000A0000000A0200000A0400000A0600000A0800000A0A00000A0C00000A0E00000C0000000C0200000C0400000C0600000C0800000C0
310
A00000C0C00000C0E00000E0000000E0200000E0400000E0600000E0800000E0A00000E0C00000E0E00040000000400020004000400040006000400080004000A0004000C0004000E00040200000402020004020400040206000402080004020A0004020C0004020E000404000004040200040404000404060004040800040
310
40A0004040C0004040E00040600000406020004060400040606000406080004060A0004060C0004060E00040800000408020004080400040806000408080004080A0004080C0004080E00040A0000040A0200040A0400040A0600040A0800040A0A00040A0C00040A0E00040C0000040C0200040C0400040C0600040C08000
310
40C0A00040C0C00040C0E00040E0000040E0200040E0400040E0600040E0800040E0A00040E0C00040E0E00080000000800020008000400080006000800080008000A0008000C0008000E00080200000802020008020400080206000802080008020A0008020C0008020E00080400000804020008040400080406000804080
310
008040A0008040C0008040E00080600000806020008060400080606000806080008060A0008060C0008060E00080800000808020008080400080806000808080008080A0008080C0008080E00080A0000080A0200080A0400080A0600080A0800080A0A00080A0C00080A0E00080C0000080C0200080C0400080C0600080C0
310
800080C0A00080C0C00080C0E00080E0000080E0200080E0400080E0600080E0800080E0A00080E0C00080E0E000C0000000C0002000C0004000C0006000C0008000C000A000C000C000C000E000C0200000C0202000C0204000C0206000C0208000C020A000C020C000C020E000C0400000C0402000C0404000C0406000C0
310
408000C040A000C040C000C040E000C0600000C0602000C0604000C0606000C0608000C060A000C060C000C060E000C0800000C0802000C0804000C0806000C0808000C080A000C080C000C080E000C0A00000C0A02000C0A04000C0A06000C0A08000C0A0A000C0A0C000C0A0E000C0C00000C0C02000C0C04000C0C06000
310
C0C08000C0C0A000F0FBFF00A4A0A000808080000000FF0000FF000000FFFF00FF000000FF00FF00FFFF0000FFFFFF0000000000000000000000000000000000000000000000000000000000000000000000000000000000000000000000FEFE0000000000000000000000000000000000000000000000000000FEFEFEFEFE
310
FEFEFE00000000000000000000000000000000000000000000FEFEFEFEFEFE00FE0000FEFE00000000000000000000000000000000000000FEFEFEFE00FE0000FE00000000FEFE00000000000000000000000000000000FEFEFE0000FE000000FE000000000000FEFE00000000000000000000000000FEFE000000FE000000
310
00FE0000000000000000FEFE00000000000000000000FEFE000000FE0000000000FE00000000000000000000FE0000000000000000FEFEFE0000FE000000000000FE00000000000000000000FE0000000000000000FEFE0000FE00000000000000FE0000000000000000000000FE000000000000FEFEFE00FE000000000000
310
0000FE0000000000000000000000FE000000000000FEFE00FE000000000000000000FE000000000000000000000000FE0000000000FEFEFE00000000000000000000FE000000000000000000000000FE0000000000FEFE0000000000000000000000FE00000000000000000000000000FE000000FEFE000000000000000000
310
000000FE00000000000000000000000000FE000000FEFEFEFEFEFEFEFEFEFEFEFEFEFEFEFEFEFEFEFEFEFEFEFEFEFEFEFEFEFE000000FE000000000000000000000000FE00000000000000000000000000FEFE000000FE000000000000000000000000FE000000000000000000000000FEFEFE00000000FE00000000000000
310
00000000FE0000000000000000000000FE00FE0000000000FE0000000000000000000000FE00000000000000000000FE00FEFE000000000000FE00000000000000000000FE000000000000000000FE0000FEFE000000000000FE00000000000000000000FE0000000000000000FE0000FEFEFE00000000000000FE00000000
310
0000000000FE00000000000000FE000000FEFE0000000000000000FE000000000000000000FE000000000000FE000000FEFEFE000000000000000000FE0000000000000000FE0000000000FE00000000FEFE00000000000000000000FE0000000000000000FE00000000FE00000000FEFE000000000000000000000000FEFE
310
000000000000FE000000FE000000FEFEFE000000000000000000000000000000FEFE00000000FE0000FE0000FEFEFEFE000000000000000000000000000000000000FEFE0000FE00FE00FEFEFEFEFE000000000000000000000000000000000000000000FEFEFEFEFEFEFEFEFE000000000000000000000000000000000000
310
00000000000000FEFEFE00000000000000000000000000000000000000000000000000000000000000000000000000000000000000000000
102
{BLKREFS
331
B35
331
C3B
331
E81
331
FE2
331
10E1
102
}
  0
BLOCK_RECORD
  5
10E5
330
1
100
AcDbSymbolTableRecord
100
AcDbBlockTableRecord
  2
*D3
340
0
  0
BLOCK_RECORD
  5
10F1
330
1
100
AcDbSymbolTableRecord
100
AcDbBlockTableRecord
  2
*D4
340
0
  0
BLOCK_RECORD
  5
10FF
330
1
100
AcDbSymbolTableRecord
100
AcDbBlockTableRecord
  2
*D5
340
0
  0
BLOCK_RECORD
  5
110B
330
1
100
AcDbSymbolTableRecord
100
AcDbBlockTableRecord
  2
*D6
340
0
  0
BLOCK_RECORD
  5
1117
330
1
100
AcDbSymbolTableRecord
100
AcDbBlockTableRecord
  2
*D7
340
0
  0
BLOCK_RECORD
  5
1123
330
1
100
AcDbSymbolTableRecord
100
AcDbBlockTableRecord
  2
*D8
340
0
  0
BLOCK_RECORD
  5
112F
330
1
100
AcDbSymbolTableRecord
100
AcDbBlockTableRecord
  2
*D9
340
0
  0
BLOCK_RECORD
  5
113D
330
1
100
AcDbSymbolTableRecord
100
AcDbBlockTableRecord
  2
*D10
340
0
  0
ENDTAB
  0
ENDSEC
  0
SECTION
  2
BLOCKS
  0
BLOCK
  5
20
330
1F
100
AcDbEntity
  8
0
100
AcDbBlockBegin
  2
*MODEL_SPACE
 70
     0
 10
0.0
 20
0.0
 30
0.0
  3
*MODEL_SPACE
  1

  0
ENDBLK
  5
21
330
1F
100
AcDbEntity
  8
0
100
AcDbBlockEnd
  0
BLOCK
  5
1C
330
1B
100
AcDbEntity
 67
     1
  8
0
100
AcDbBlockBegin
  2
*PAPER_SPACE
 70
     0
 10
0.0
 20
0.0
 30
0.0
  3
*PAPER_SPACE
  1

  0
ENDBLK
  5
1D
330
1B
100
AcDbEntity
 67
     1
  8
0
100
AcDbBlockEnd
  0
BLOCK
  5
6C4
330
216
100
AcDbEntity
  8
0
100
AcDbBlockBegin
  2
_ARROW_FILLED
 70
     0
 10
0.0
 20
0.0
 30
0.0
  3
_ARROW_FILLED
  1

  0
SOLID
  5
6C5
330
216
100
AcDbEntity
  8
0
  6
ByBlock
 62
     0
100
AcDbTrace
 10
0.0
 20
0.0
 30
0.0
 11
-1.0
 21
0.132
 31
0.0
 12
-1.0
 22
-0.132
 32
0.0
 13
-1.0
 23
-0.132
 33
0.0
  0
ENDBLK
  5
6C6
330
216
100
AcDbEntity
  8
0
  6
ByBlock
 62
     0
100
AcDbBlockEnd
  0
BLOCK
  5
A2F
330
A28
100
AcDbEntity
  8
0
100
AcDbBlockBegin
  2
nullpunkt_1
 70
     0
 10
0.0
 20
0.0
 30
0.0
  3
nullpunkt_1
  1

  0
LWPOLYLINE
  5
A29
102
{ACAD_REACTORS
330
A2A
102
}
330
A28
100
AcDbEntity
  8
1
100
AcDbPolyline
 90
        3
 70
     1
 43
0.0
 10
0.0
 20
2.950972054112752
 10
0.0
 20
0.0
 10
2.950972054112638
 20
0.0
 42
0.4142135623730966
  0
HATCH
  5
A2A
330
A28
100
AcDbEntity
  8
1
100
AcDbHatch
 10
0.0
 20
0.0
 30
0.0
210
0.0
220
0.0
230
1.0
  2
SOLID
 70
     1
 71
     1
 91
        2
 92
        7
 72
     1
 73
     1
 93
        3
 10
0.0
 20
0.0
 42
0.0
 10
2.950972054112638
 20
0.0
 42
0.4142135623730968
 10
0.0
 20
2.950972054112752
 42
0.0
 97
        1
330
A29
 92
        7
 72
     1
 73
     1
 93
        3
 10
0.0
 20
-2.950972054112412
 42
0.0
 10
0.0
 20
0.0
 42
0.0
 10
-2.950972054112583
 20
0.0
 42
0.4142135623730966
 97
        1
330
A2C
 75
     0
 76
     1
 47
0.1190009775223266
 98
        2
 10
0.7445530588119596
 20
0.9212244733765826
 10
-1.27946460185285
 20
-1.696796923046235
  0
CIRCLE
  5
A2B
330
A28
100
AcDbEntity
  8
1
100
AcDbCircle
 10
0.0
 20
0.0
 30
0.0
 40
2.950972054112601
  0
LWPOLYLINE
  5
A2C
102
{ACAD_REACTORS
330
A2A
102
}
330
A28
100
AcDbEntity
  8
1
100
AcDbPolyline
 90
        3
 70
     1
 43
0.0
 10
0.0
 20
0.0
 10
-2.950972054112583
 20
0.0
 42
0.4142135623730966
 10
0.0
 20
-2.950972054112412
  0
LINE
  5
A2D
330
A28
100
AcDbEntity
  8
1
100
AcDbLine
 10
-2.950972054112752
 20
0.0
 30
0.0
 11
2.950972054112583
 21
0.0
 31
0.0
  0
LINE
  5
A2E
330
A28
100
AcDbEntity
  8
1
100
AcDbLine
 10
0.0
 20
2.950972054112752
 30
0.0
 11
0.0
 21
-2.950972054112412
 31
0.0
  0
ENDBLK
  5
A30
330
A28
100
AcDbEntity
  8
0
100
AcDbBlockEnd
  0
BLOCK
  5
A37
330
A31
100
AcDbEntity
  8
0
100
AcDbBlockBegin
  2
nullpunkt_2
 70
     0
 10
0.0
 20
0.0
 30
0.0
  3
nullpunkt_2
  1

  0
CIRCLE
  5
A32
330
A31
100
AcDbEntity
  8
1
100
AcDbCircle
 10
0.0
 20
0.0
 30
0.0
 40
1.0
  0
HATCH
  5
A33
330
A31
100
AcDbEntity
  8
1
100
AcDbHatch
 10
0.0
 20
0.0
 30
0.0
210
0.0
220
0.0
230
1.0
  2
SOLID
 70
     1
 71
     0
 91
        2
 92
        1
 93
        3
 72
     1
 10
0.0
 20
0.0
 11
-1.0
 21
0.0
 72
     2
 10
0.0
 20
0.0
 40
1.0
 50
180.0
 51
270.0
 73
     1
 72
     1
 10
0.0
 20
-0.9999999999998864
 11
0.0
 21
0.0
 97
        0
 92
        1
 93
        3
 72
     1
 10
0.0
 20
1.000000000000113
 11
0.0
 21
0.0
 72
     1
 10
0.0
 20
0.0
 11
1.0
 21
0.0
 72
     2
 10
0.0
 20
0.0
 40
1.0
 50
0.0
 51
90.0
 73
     1
 97
        0
 75
     0
 76
     1
 98
        1
 10
-109.9295341761981
 20
-32.53620011044962
  0
LINE
  5
A34
330
A31
100
AcDbEntity
  8
1
100
AcDbLine
 10
-1.0
 20
0.0
 30
0.0
 11
1.0
 21
0.0
 31
0.0
  0
LWPOLYLINE
  5
A35
330
A31
100
AcDbEntity
  8
1
100
AcDbPolyline
 90
        3
 70
     1
 43
0.0
 10
0.0
 20
0.0
 10
-1.0
 20
0.0
 42
0.4142135623730951
 10
0.0
 20
-0.9999999999998864
  0
LWPOLYLINE
  5
A36
330
A31
100
AcDbEntity
  8
1
100
AcDbPolyline
 90
        3
 70
     1
 43
0.0
 10
0.0
 20
1.000000000000113
 10
0.0
 20
0.0
 10
1.0
 20
0.0
 42
0.4142135623730951
  0
ENDBLK
  5
A38
330
A31
100
AcDbEntity
  8
0
100
AcDbBlockEnd
  0
BLOCK
  5
10EF
330
10E5
100
AcDbEntity
  8
0
100
AcDbBlockBegin
  2
*D3
 70
     1
 10
0.0
 20
0.0
 30
0.0
  3
*D3
  1

  0
LINE
  5
114B
330
10E5
100
AcDbEntity
  8
2
370
    -2
100
AcDbLine
 10
80.5
 20
9.88597859080002
 30
0.0
 11
80.5
 21
61.30503825630004
 31
0.0
  0
LINE
  5
114C
330
10E5
100
AcDbEntity
  8
2
370
    -2
100
AcDbLine
 10
0.0000000000000285
 20
24.34801233360005
 30
0.0
 11
0.0000000000000307
 21
61.30503825630004
 31
0.0
  0
LINE
  5
114D
330
10E5
100
AcDbEntity
  8
2
370
    -2
100
AcDbLine
 10
77.0
 20
59.30503825630004
 30
0.0
 11
3.500000000000029
 21
59.30503825630004
 31
0.0
  0
SOLID
  5
114E
330
10E5
100
AcDbEntity
  8
2
100
AcDbTrace
 10
77.0
 20
59.88837158963337
 30
0.0
 11
77.0
 21
58.7217049229667
 31
0.0
 12
80.5
 22
59.30503825630004
 32
0.0
 13
80.5
 23
59.30503825630004
 33
0.0
  0
SOLID
  5
114F
330
10E5
100
AcDbEntity
  8
2
100
AcDbTrace
 10
3.500000000000029
 20
59.88837158963337
 30
0.0
 11
3.500000000000029
 21
58.7217049229667
 31
0.0
 12
0.0000000000000306
 22
59.30503825630004
 32
0.0
 13
0.0000000000000306
 23
59.30503825630004
 33
0.0
  0
MTEXT
  5
1150
330
10E5
100
AcDbEntity
  8
2
100
AcDbMText
 10
39.74817177659999
 20
61.68003825630004
 30
0.0
 40
3.5
 41
0.0
 71
     5
 72
     1
  1
80.5
  7
isocp
 73
     1
 44
1.0
  0
POINT
  5
1151
330
10E5
100
AcDbEntity
  8
Defpoints
 62
     0
100
AcDbPoint
 10
80.5
 20
9.26097859080002
 30
0.0
  0
POINT
  5
1152
330
10E5
100
AcDbEntity
  8
Defpoints
 62
     0
100
AcDbPoint
 10
0.0000000000000284
 20
23.72301233360004
 30
0.0
  0
POINT
  5
1153
330
10E5
100
AcDbEntity
  8
Defpoints
 62
     0
100
AcDbPoint
 10
0.0000000000000306
 20
59.30503825630004
 30
0.0
  0
ENDBLK
  5
10F0
330
10E5
100
AcDbEntity
  8
0
100
AcDbBlockEnd
  0
BLOCK
  5
10FD
330
10F1
100
AcDbEntity
  8
0
100
AcDbBlockBegin
  2
*D4
 70
     1
 10
0.0
 20
0.0
 30
0.0
  3
*D4
  1

  0
LINE
  5
119A
330
10F1
100
AcDbEntity
  8
SK2
370
    -2
100
AcDbLine
 10
39.50000000000002
 20
-3.874999999999971
 30
0.0
 11
39.50000000000002
 21
-46.13953498259996
 31
0.0
  0
LINE
  5
119B
330
10F1
100
AcDbEntity
  8
SK2
370
    -2
100
AcDbLine
 10
49.50000000000002
 20
-7.124999999999971
 30
0.0
 11
49.50000000000002
 21
-46.13953498259996
 31
0.0
  0
LINE
  5
119C
330
10F1
100
AcDbEntity
  8
SK2
370
    -2
100
AcDbLine
 10
36.00000000000003
 20
-44.13953498259996
 30
0.0
 11
32.50000000000003
 21
-44.13953498259996
 31
0.0
  0
LINE
  5
119D
330
10F1
100
AcDbEntity
  8
SK2
370
    -2
100
AcDbLine
 10
53.00000000000003
 20
-44.13953498259996
 30
0.0
 11
56.50000000000003
 21
-44.13953498259996
 31
0.0
  0
LINE
  5
119E
330
10F1
100
AcDbEntity
  8
SK2
370
    -2
100
AcDbLine
 10
39.50000000000002
 20
-44.13953498259996
 30
0.0
 11
49.50000000000002
 21
-44.13953498259996
 31
0.0
  0
SOLID
  5
119F
330
10F1
100
AcDbEntity
  8
SK2
100
AcDbTrace
 10
36.00000000000003
 20
-43.55620164926663
 30
0.0
 11
36.00000000000003
 21
-44.72286831593329
 31
0.0
 12
39.50000000000002
 22
-44.13953498259996
 32
0.0
 13
39.50000000000002
 23
-44.13953498259996
 33
0.0
  0
SOLID
  5
11A0
330
10F1
100
AcDbEntity
  8
SK2
100
AcDbTrace
 10
53.00000000000003
 20
-43.55620164926663
 30
0.0
 11
53.00000000000003
 21
-44.72286831593329
 31
0.0
 12
49.50000000000002
 22
-44.13953498259996
 32
0.0
 13
49.50000000000002
 23
-44.13953498259996
 33
0.0
  0
MTEXT
  5
11A1
330
10F1
100
AcDbEntity
  8
SK2
100
AcDbMText
 10
44.1146941107
 20
-41.76453498259997
 30
0.0
 40
3.5
 41
0.0
 71
     5
 72
     1
  1
10
  7
isocp
 73
     1
 44
1.0
  0
POINT
  5
11A2
330
10F1
100
AcDbEntity
  8
Defpoints
 62
     0
100
AcDbPoint
 10
39.50000000000002
 20
-3.249999999999971
 30
0.0
  0
POINT
  5
11A3
330
10F1
100
AcDbEntity
  8
Defpoints
 62
     0
100
AcDbPoint
 10
49.50000000000002
 20
-6.499999999999971
 30
0.0
  0
POINT
  5
11A4
330
10F1
100
AcDbEntity
  8
Defpoints
 62
     0
100
AcDbPoint
 10
49.50000000000002
 20
-44.13953498259996
 30
0.0
  0
ENDBLK
  5
10FE
330
10F1
100
AcDbEntity
  8
0
100
AcDbBlockEnd
  0
BLOCK
  5
1109
330
10FF
100
AcDbEntity
  8
0
100
AcDbBlockBegin
  2
*D5
 70
     1
 10
0.0
 20
0.0
 30
0.0
  3
*D5
  1

  0
LINE
  5
11A5
330
10FF
100
AcDbEntity
  8
SK2
370
    -2
100
AcDbLine
 10
80.5
 20
-13.70545018439996
 30
0.0
 11
80.5
 21
-56.13953498259996
 31
0.0
  0
LINE
  5
11A6
330
10FF
100
AcDbEntity
  8
SK2
370
    -2
100
AcDbLine
 10
39.50000000000002
 20
-3.874999999999971
 30
0.0
 11
39.50000000000002
 21
-56.13953498259996
 31
0.0
  0
LINE
  5
11A7
330
10FF
100
AcDbEntity
  8
SK2
370
    -2
100
AcDbLine
 10
77.0
 20
-54.13953498259996
 30
0.0
 11
43.00000000000003
 21
-54.13953498259996
 31
0.0
  0
SOLID
  5
11A8
330
10FF
100
AcDbEntity
  8
SK2
100
AcDbTrace
 10
77.0
 20
-53.55620164926663
 30
0.0
 11
77.0
 21
-54.72286831593329
 31
0.0
 12
80.5
 22
-54.13953498259996
 32
0.0
 13
80.5
 23
-54.13953498259996
 33
0.0
  0
SOLID
  5
11A9
330
10FF
100
AcDbEntity
  8
SK2
100
AcDbTrace
 10
43.00000000000003
 20
-53.55620164926663
 30
0.0
 11
43.00000000000003
 21
-54.72286831593329
 31
0.0
 12
39.50000000000002
 22
-54.13953498259996
 32
0.0
 13
39.50000000000002
 23
-54.13953498259996
 33
0.0
  0
MTEXT
  5
11AA
330
10FF
100
AcDbEntity
  8
SK2
100
AcDbMText
 10
59.66534859619997
 20
-51.76453498259996
 30
0.0
 40
3.5
 41
0.0
 71
     5
 72
     1
  1
41
  7
isocp
 73
     1
 44
1.0
  0
POINT
  5
11AB
330
10FF
100
AcDbEntity
  8
Defpoints
 62
     0
100
AcDbPoint
 10
80.5
 20
-13.08045018439996
 30
0.0
  0
POINT
  5
11AC
330
10FF
100
AcDbEntity
  8
Defpoints
 62
     0
100
AcDbPoint
 10
39.50000000000002
 20
-3.249999999999971
 30
0.0
  0
POINT
  5
11AD
330
10FF
100
AcDbEntity
  8
Defpoints
 62
     0
100
AcDbPoint
 10
39.50000000000002
 20
-54.13953498259996
 30
0.0
  0
ENDBLK
  5
110A
330
10FF
100
AcDbEntity
  8
0
100
AcDbBlockEnd
  0
BLOCK
  5
1115
330
110B
100
AcDbEntity
  8
0
100
AcDbBlockBegin
  2
*D6
 70
     1
 10
0.0
 20
0.0
 30
0.0
  3
*D6
  1

  0
LINE
  5
11AE
330
110B
100
AcDbEntity
  8
SK2
370
    -2
100
AcDbLine
 10
70.28243636079998
 20
-14.99999999999997
 30
0.0
 11
104.875057507
 21
-14.99999999999998
 31
0.0
  0
LINE
  5
11AF
330
110B
100
AcDbEntity
  8
SK2
370
    -2
100
AcDbLine
 10
70.28243636079998
 20
15.00000000000001
 30
0.0
 11
104.875057507
 21
15.0
 31
0.0
  0
LINE
  5
11B0
330
110B
100
AcDbEntity
  8
SK2
370
    -2
100
AcDbLine
 10
102.875057507
 20
-11.49999999999998
 30
0.0
 11
102.875057507
 21
11.50000000000001
 31
0.0
  0
SOLID
  5
11B1
330
110B
100
AcDbEntity
  8
SK2
100
AcDbTrace
 10
102.2917241736665
 20
-11.49999999999998
 30
0.0
 11
103.4583908403333
 21
-11.49999999999998
 31
0.0
 12
102.875057507
 22
-14.99999999999998
 32
0.0
 13
102.875057507
 23
-14.99999999999998
 33
0.0
  0
SOLID
  5
11B2
330
110B
100
AcDbEntity
  8
SK2
100
AcDbTrace
 10
102.2917241736665
 20
11.50000000000001
 30
0.0
 11
103.4583908403333
 21
11.50000000000001
 31
0.0
 12
102.875057507
 22
15.0
 32
0.0
 13
102.875057507
 23
15.0
 33
0.0
  0
MTEXT
  5
11B3
330
110B
100
AcDbEntity
  8
SK2
100
AcDbMText
 10
100.500057507
 20
-0.3777720760999725
 30
0.0
 40
3.5
 41
0.0
 71
     5
 72
     1
  1
%%c30
  7
isocp
 11
0.0000000000000001
 21
1.0
 31
0.0
 73
     1
 44
1.0
  0
POINT
  5
11B4
330
110B
100
AcDbEntity
  8
Defpoints
 62
     0
100
AcDbPoint
 10
69.65743636079998
 20
-14.99999999999997
 30
0.0
  0
POINT
  5
11B5
330
110B
100
AcDbEntity
  8
Defpoints
 62
     0
100
AcDbPoint
 10
69.65743636079998
 20
15.00000000000001
 30
0.0
  0
POINT
  5
11B6
330
110B
100
AcDbEntity
  8
Defpoints
 62
     0
100
AcDbPoint
 10
102.875057507
 20
15.0
 30
0.0
  0
ENDBLK
  5
1116
330
110B
100
AcDbEntity
  8
0
100
AcDbBlockEnd
  0
BLOCK
  5
1121
330
1117
100
AcDbEntity
  8
0
100
AcDbBlockBegin
  2
*D7
 70
     1
 10
0.0
 20
0.0
 30
0.0
  3
*D7
  1

  0
LINE
  5
11B7
330
1117
100
AcDbEntity
  8
SK2
370
    -2
100
AcDbLine
 10
44.60464489479999
 20
-24.74999999999996
 30
0.0
 11
114.875057507
 21
-24.74999999999999
 31
0.0
  0
LINE
  5
11B8
330
1117
100
AcDbEntity
  8
SK2
370
    -2
100
AcDbLine
 10
44.72720067309999
 20
24.75000000000003
 30
0.0
 11
114.875057507
 21
24.75000000000001
 31
0.0
  0
LINE
  5
11B9
330
1117
100
AcDbEntity
  8
SK2
370
    -2
100
AcDbLine
 10
112.875057507
 20
-21.24999999999999
 30
0.0
 11
112.875057507
 21
21.25000000000001
 31
0.0
  0
SOLID
  5
11BA
330
1117
100
AcDbEntity
  8
SK2
100
AcDbTrace
 10
112.2917241736665
 20
-21.24999999999999
 30
0.0
 11
113.4583908403332
 21
-21.24999999999999
 31
0.0
 12
112.875057507
 22
-24.74999999999999
 32
0.0
 13
112.875057507
 23
-24.74999999999999
 33
0.0
  0
SOLID
  5
11BB
330
1117
100
AcDbEntity
  8
SK2
100
AcDbTrace
 10
112.2917241736665
 20
21.25000000000001
 30
0.0
 11
113.4583908403332
 21
21.25000000000001
 31
0.0
 12
112.875057507
 22
24.75000000000001
 32
0.0
 13
112.875057507
 23
24.75000000000001
 33
0.0
  0
MTEXT
  5
11BC
330
1117
100
AcDbEntity
  8
SK2
100
AcDbMText
 10
110.500057507
 20
0.7581826444000229
 30
0.0
 40
3.5
 41
0.0
 71
     5
 72
     1
  1
%%c49.5
  7
isocp
 11
0.0000000000000001
 21
1.0
 31
0.0
 73
     1
 44
1.0
  0
POINT
  5
11BD
330
1117
100
AcDbEntity
  8
Defpoints
 62
     0
100
AcDbPoint
 10
43.97964489479999
 20
-24.74999999999996
 30
0.0
  0
POINT
  5
11BE
330
1117
100
AcDbEntity
  8
Defpoints
 62
     0
100
AcDbPoint
 10
44.10220067309999
 20
24.75000000000003
 30
0.0
  0
POINT
  5
11BF
330
1117
100
AcDbEntity
  8
Defpoints
 62
     0
100
AcDbPoint
 10
112.875057507
 20
24.75000000000001
 30
0.0
  0
ENDBLK
  5
1122
330
1117
100
AcDbEntity
  8
0
100
AcDbBlockEnd
  0
BLOCK
  5
112D
330
1123
100
AcDbEntity
  8
0
100
AcDbBlockBegin
  2
*D8
 70
     1
 10
0.0
 20
0.0
 30
0.0
  3
*D8
  1

  0
LINE
  5
11C0
330
1123
100
AcDbEntity
  8
SK2
370
    -2
100
AcDbLine
 10
80.5
 20
14.12500000000003
 30
0.0
 11
80.5
 21
51.30503825630004
 31
0.0
  0
LINE
  5
11C1
330
1123
100
AcDbEntity
  8
SK2
370
    -2
100
AcDbLine
 10
49.50000000000002
 20
16.12500000000001
 30
0.0
 11
49.50000000000002
 21
51.30503825630004
 31
0.0
  0
LINE
  5
11C2
330
1123
100
AcDbEntity
  8
SK2
370
    -2
100
AcDbLine
 10
77.0
 20
49.30503825630004
 30
0.0
 11
53.00000000000003
 21
49.30503825630004
 31
0.0
  0
SOLID
  5
11C3
330
1123
100
AcDbEntity
  8
SK2
100
AcDbTrace
 10
77.0
 20
49.88837158963337
 30
0.0
 11
77.0
 21
48.7217049229667
 31
0.0
 12
80.5
 22
49.30503825630004
 32
0.0
 13
80.5
 23
49.30503825630004
 33
0.0
  0
SOLID
  5
11C4
330
1123
100
AcDbEntity
  8
SK2
100
AcDbTrace
 10
53.00000000000003
 20
49.88837158963337
 30
0.0
 11
53.00000000000003
 21
48.7217049229667
 31
0.0
 12
49.50000000000002
 22
49.30503825630004
 32
0.0
 13
49.50000000000002
 23
49.30503825630004
 33
0.0
  0
MTEXT
  5
11C5
330
1123
100
AcDbEntity
  8
SK2
100
AcDbMText
 10
64.51302566629999
 20
51.68003825630004
 30
0.0
 40
3.5
 41
0.0
 71
     5
 72
     1
  1
31
  7
isocp
 73
     1
 44
1.0
  0
POINT
  5
11C6
330
1123
100
AcDbEntity
  8
Defpoints
 62
     0
100
AcDbPoint
 10
80.5
 20
13.50000000000002
 30
0.0
  0
POINT
  5
11C7
330
1123
100
AcDbEntity
  8
Defpoints
 62
     0
100
AcDbPoint
 10
49.50000000000002
 20
15.50000000000002
 30
0.0
  0
POINT
  5
11C8
330
1123
100
AcDbEntity
  8
Defpoints
 62
     0
100
AcDbPoint
 10
49.50000000000002
 20
49.30503825630004
 30
0.0
  0
ENDBLK
  5
112E
330
1123
100
AcDbEntity
  8
0
100
AcDbBlockEnd
  0
BLOCK
  5
113B
330
112F
100
AcDbEntity
  8
0
100
AcDbBlockBegin
  2
*D9
 70
     1
 10
0.0
 20
0.0
 30
0.0
  3
*D9
  1

  0
LINE
  5
11C9
330
112F
100
AcDbEntity
  8
SK2
370
    -2
100
AcDbLine
 10
33.57734512239999
 20
4.000000000000028
 30
0.0
 11
27.41341815309999
 21
4.00000000000003
 31
0.0
  0
LINE
  5
11CA
330
112F
100
AcDbEntity
  8
SK2
370
    -2
100
AcDbLine
 10
29.4134181531
 20
-3.999999999999971
 30
0.0
 11
27.41341815309999
 21
-3.999999999999971
 31
0.0
  0
LINE
  5
11CB
330
112F
100
AcDbEntity
  8
SK2
370
    -2
100
AcDbLine
 10
29.4134181531
 20
-7.499999999999969
 30
0.0
 11
29.41341815309998
 21
-10.99999999999997
 31
0.0
  0
LINE
  5
11CC
330
112F
100
AcDbEntity
  8
SK2
370
    -2
100
AcDbLine
 10
29.4134181531
 20
7.50000000000003
 30
0.0
 11
29.4134181531
 21
19.25000000000006
 31
0.0
  0
LINE
  5
11CD
330
112F
100
AcDbEntity
  8
SK2
370
    -2
100
AcDbLine
 10
29.4134181531
 20
-3.999999999999971
 30
0.0
 11
29.4134181531
 21
4.00000000000003
 31
0.0
  0
SOLID
  5
11CE
330
112F
100
AcDbEntity
  8
SK2
100
AcDbTrace
 10
28.83008481976666
 20
-7.499999999999969
 30
0.0
 11
29.99675148643333
 21
-7.499999999999969
 31
0.0
 12
29.4134181531
 22
-3.999999999999971
 32
0.0
 13
29.4134181531
 23
-3.999999999999971
 33
0.0
  0
SOLID
  5
11CF
330
112F
100
AcDbEntity
  8
SK2
100
AcDbTrace
 10
28.83008481976666
 20
7.50000000000003
 30
0.0
 11
29.99675148643333
 21
7.50000000000003
 31
0.0
 12
29.4134181531
 22
4.00000000000003
 32
0.0
 13
29.4134181531
 23
4.00000000000003
 33
0.0
  0
MTEXT
  5
11D0
330
112F
100
AcDbEntity
  8
SK2
100
AcDbMText
 10
27.03841815309999
 20
15.12500000000008
 30
0.0
 40
3.5
 41
0.0
 71
     5
 72
     1
  1
M8x1
  7
isocp
 11
0.0000000000000001
 21
1.0
 31
0.0
 73
     1
 44
1.0
  0
POINT
  5
11D1
330
112F
100
AcDbEntity
  8
Defpoints
 62
     0
100
AcDbPoint
 10
34.20234512239999
 20
4.000000000000028
 30
0.0
  0
POINT
  5
11D2
330
112F
100
AcDbEntity
  8
Defpoints
 62
     0
100
AcDbPoint
 10
30.03841815309999
 20
-3.999999999999971
 30
0.0
  0
POINT
  5
11D3
330
112F
100
AcDbEntity
  8
Defpoints
 62
     0
100
AcDbPoint
 10
29.4134181531
 20
-3.999999999999971
 30
0.0
  0
ENDBLK
  5
113C
330
112F
100
AcDbEntity
  8
0
100
AcDbBlockEnd
  0
BLOCK
  5
1149
330
113D
100
AcDbEntity
  8
0
100
AcDbBlockBegin
  2
*D10
 70
     1
 10
0.0
 20
0.0
 30
0.0
  3
*D10
  1

  0
LINE
  5
11D4
330
113D
100
AcDbEntity
  8
SK2
370
    -2
100
AcDbLine
 10
81.62499999999999
 20
-4.999999999999971
 30
0.0
 11
94.87505750700007
 21
-4.999999999999976
 31
0.0
  0
LINE
  5
11D5
330
113D
100
AcDbEntity
  8
SK2
370
    -2
100
AcDbLine
 10
81.62499999999999
 20
5.000000000000028
 30
0.0
 11
94.87505750700007
 21
5.000000000000023
 31
0.0
  0
LINE
  5
11D6
330
113D
100
AcDbEntity
  8
SK2
370
    -2
100
AcDbLine
 10
92.87505750700006
 20
-8.499999999999975
 30
0.0
 11
92.87505750700006
 21
-11.99999999999997
 31
0.0
  0
LINE
  5
11D7
330
113D
100
AcDbEntity
  8
SK2
370
    -2
100
AcDbLine
 10
92.87505750700006
 20
8.500000000000023
 30
0.0
 11
92.87505750700006
 21
12.00000000000001
 31
0.0
  0
LINE
  5
11D8
330
113D
100
AcDbEntity
  8
SK2
370
    -2
100
AcDbLine
 10
92.87505750700006
 20
-4.999999999999974
 30
0.0
 11
92.87505750700006
 21
5.000000000000023
 31
0.0
  0
SOLID
  5
11D9
330
113D
100
AcDbEntity
  8
SK2
100
AcDbTrace
 10
92.29172417366672
 20
-8.499999999999975
 30
0.0
 11
93.45839084033341
 21
-8.499999999999975
 31
0.0
 12
92.87505750700006
 22
-4.999999999999974
 32
0.0
 13
92.87505750700006
 23
-4.999999999999974
 33
0.0
  0
SOLID
  5
11DA
330
113D
100
AcDbEntity
  8
SK2
100
AcDbTrace
 10
92.29172417366672
 20
8.500000000000023
 30
0.0
 11
93.45839084033341
 21
8.500000000000023
 31
0.0
 12
92.87505750700006
 22
5.000000000000023
 32
0.0
 13
92.87505750700006
 23
5.000000000000023
 33
0.0
  0
MTEXT
  5
11DB
330
113D
100
AcDbEntity
  8
SK2
100
AcDbMText
 10
90.50005750700007
 20
0.0000000000000287
 30
0.0
 40
3.5
 41
0.0
 71
     5
 72
     1
  1
%%c10
  7
isocp
 11
0.0000000000000001
 21
1.0
 31
0.0
 73
     1
 44
1.0
  0
POINT
  5
11DC
330
113D
100
AcDbEntity
  8
Defpoints
 62
     0
100
AcDbPoint
 10
81.0
 20
-4.999999999999971
 30
0.0
  0
POINT
  5
11DD
330
113D
100
AcDbEntity
  8
Defpoints
 62
     0
100
AcDbPoint
 10
81.0
 20
5.000000000000028
 30
0.0
  0
POINT
  5
11DE
330
113D
100
AcDbEntity
  8
Defpoints
 62
     0
100
AcDbPoint
 10
92.87505750700006
 20
5.000000000000023
 30
0.0
  0
ENDBLK
  5
114A
330
113D
100
AcDbEntity
  8
0
100
AcDbBlockEnd
  0
ENDSEC
  0
SECTION
  2
ENTITIES
  0
LINE
  5
FE9
330
1F
100
AcDbEntity
  8
NOCUT
100
AcDbLine
 10
7.852500000000077
 20
31.775
 30
0.0
 11
9.225000000000079
 21
29.39776026659998
 31
0.0
  0
LINE
  5
FEA
330
1F
100
AcDbEntity
  8
NOCUT
100
AcDbLine
 10
80.5
 20
0.0
 30
0.0
 11
0.0
 21
0.0
 31
0.0
  0
SPLINE
  5
FEB
330
1F
100
AcDbEntity
  8
1
100
AcDbSpline
210
0.0
220
0.0
230
1.0
 70
     8
 71
     3
 72
    10
 73
     6
 74
     4
 42
0.0000000001
 43
0.0000000001
 44
0.0000000001
 12
-0.4093743989143582
 22
-0.9123664842120779
 32
0.0
 13
-0.4249194534150649
 23
-0.9052311628028736
 33
0.0
 40
0.0
 40
0.0
 40
0.0
 40
0.0
 40
1.064064352214388
 40
2.159673087590602
 40
3.287502624669563
 40
3.287502624669563
 40
3.287502624669563
 40
3.287502624669563
 10
9.225000000000024
 20
-22.84684461129998
 30
0.0
 10
9.079799765135371
 20
-23.17045016196839
 30
0.0
 10
8.78303149645929
 20
-23.82633066833438
 30
0.0
 10
8.325446534130115
 20
-24.82206168471368
 30
0.0
 10
8.012245570147005
 20
-25.49378262580216
 30
0.0
 10
7.852500000000018
 20
-25.83409810689996
 30
0.0
 11
9.225000000000024
 21
-22.84684461129998
 31
0.0
 11
8.786435181499996
 21
-23.81632583629996
 31
0.0
 11
8.329027522899991
 21
-24.81188434029997
 31
0.0
 11
7.852500000000018
 21
-25.83409810689996
 31
0.0
  0
LINE
  5
FEC
330
1F
100
AcDbEntity
  8
1
100
AcDbLine
 10
7.852500000000018
 20
-31.77499999999996
 30
0.0
 11
9.225000000000024
 21
-29.39776026659996
 31
0.0
  0
LINE
  5
FED
330
1F
100
AcDbEntity
  8
1
100
AcDbLine
 10
3.200000000000017
 20
8.050000000000039
 30
0.0
 11
19.10000000000001
 21
8.050000000000039
 31
0.0
  0
LINE
  5
FEE
330
1F
100
AcDbEntity
  8
1
100
AcDbLine
 10
3.200000000000017
 20
-8.049999999999952
 30
0.0
 11
19.10000000000001
 21
-8.049999999999952
 31
0.0
  0
LINE
  5
FEF
330
1F
100
AcDbEntity
  8
1
100
AcDbLine
 10
3.200000000000017
 20
-18.49999999999996
 30
0.0
 11
19.10000000000001
 21
-18.49999999999996
 31
0.0
  0
LINE
  5
FF0
330
1F
100
AcDbEntity
  8
1
100
AcDbLine
 10
7.852500000000018
 20
31.77500000000003
 30
0.0
 11
9.225000000000024
 21
29.39776026660002
 31
0.0
  0
LINE
  5
FF1
330
1F
100
AcDbEntity
  8
4
100
AcDbLine
 10
11.1524605273
 20
-21.93127696889999
 30
0.0
 11
1.809640460000025
 21
-28.47376477919997
 31
0.0
  0
LINE
  5
FF2
330
1F
100
AcDbEntity
  8
4
100
AcDbLine
 10
83.50005763910003
 20
0.0000000000000284
 30
0.0
 11
-71.4
 21
0.0000000000000284
 31
0.0
  0
LINE
  5
FF3
330
1F
100
AcDbEntity
  8
4
100
AcDbLine
 10
-16.07200422467076
 20
2.872273865892083
 30
0.0
 11
11.1524605273
 21
21.93127696890005
 31
0.0
  0
LINE
  5
FF4
330
1F
100
AcDbEntity
  8
4
100
AcDbLine
 10
11.1524605273
 20
21.93127696890005
 30
0.0
 11
1.809640460000025
 21
28.47376477920002
 31
0.0
  0
LINE
  5
FF5
330
1F
100
AcDbEntity
  8
4
100
AcDbLine
 10
-16.07199395147591
 20
-2.872281059306516
 30
0.0
 11
11.14955368888423
 21
-21.9333125379
 31
0.0
  0
LINE
  5
FF6
330
1F
100
AcDbEntity
  8
SK3
100
AcDbLine
 10
6.18497015180003
 20
-28.46188146689996
 30
0.0
 11
10.28061198529998
 21
-25.59383021699996
 31
0.0
  0
LINE
  5
FF7
330
1F
100
AcDbEntity
  8
SK3
100
AcDbLine
 10
11.14969137309998
 20
-24.37483587439996
 30
0.0
 11
5.898165026800028
 21
-28.05231728349997
 31
0.0
  0
LINE
  5
FF8
330
1F
100
AcDbEntity
  8
SK3
100
AcDbLine
 10
-23.42546207930002
 20
3.500000000000028
 30
0.0
 11
39.00000000000003
 21
3.500000000000028
 31
0.0
  0
LINE
  5
FF9
330
1F
100
AcDbEntity
  8
SK3
100
AcDbLine
 10
-23.42546207930002
 20
-3.499999999999971
 30
0.0
 11
39.00000000000003
 21
-3.499999999999971
 31
0.0
  0
LINE
  5
FFA
330
1F
100
AcDbEntity
  8
SK3
100
AcDbLine
 10
7.71726471718486
 20
-21.93331253789998
 30
0.0
 11
10.28061198529998
 21
-25.59383021699996
 31
0.0
  0
LINE
  5
FFB
330
1F
100
AcDbEntity
  8
SK3
100
AcDbLine
 10
-11.68865353999999
 20
-3.499999999999971
 30
0.0
 11
18.81598291349998
 21
-24.85976604389998
 31
0.0
  0
LINE
  5
FFC
330
1F
100
AcDbEntity
  8
SK3
100
AcDbLine
 10
18.81598291349998
 20
24.85976604390003
 30
0.0
 11
-11.68865353999999
 21
3.500000000000028
 31
0.0
  0
LINE
  5
FFD
330
1F
100
AcDbEntity
  8
SK3
100
AcDbLine
 10
11.14969137309998
 20
24.37483587440002
 30
0.0
 11
5.898165026800028
 21
28.05231728350003
 31
0.0
  0
LINE
  5
FFE
330
1F
100
AcDbEntity
  8
SK3
100
AcDbLine
 10
6.18497015180003
 20
28.46188146690002
 30
0.0
 11
10.28061198529998
 21
25.59383021700003
 31
0.0
  0
LINE
  5
FFF
330
1F
100
AcDbEntity
  8
SK3
100
AcDbLine
 10
7.662865645700009
 20
21.93331253790003
 30
0.0
 11
11.14973846298136
 21
21.93331253790006
 31
0.0
  0
LINE
  5
1000
330
1F
100
AcDbEntity
  8
SK3
100
AcDbLine
 10
7.71726471718486
 20
21.93331253790003
 30
0.0
 11
10.28061198529998
 21
25.59383021700003
 31
0.0
  0
LINE
  5
1001
330
1F
100
AcDbEntity
  8
SK3
100
AcDbLine
 10
7.662865645700009
 20
-21.93331253789998
 30
0.0
 11
11.14973846298136
 21
-21.9333125379
 31
0.0
  0
DIMENSION
  5
1002
330
1F
100
AcDbEntity
  8
2
100
AcDbDimension
  2
*D3
 10
0.0000000000000306
 20
59.30503825630004
 30
0.0
 11
39.74817177659999
 21
59.30503825630004
 31
0.0
 70
   160
 71
     5
 42
80.49999999999997
  3
ISO-25
100
AcDbAlignedDimension
 13
80.5
 23
9.26097859080002
 33
0.0
 14
0.0000000000000284
 24
23.72301233360004
 34
0.0
 50
180.0
100
AcDbRotatedDimension
  0
TEXT
  5
1003
330
1F
100
AcDbEntity
  8
6
100
AcDbText
 10
-54.35073567732211
 20
-27.16265854171064
 30
0.0
 40
3.5
  1
DIN69871-A 40
 41
0.8
  7
isocp
 72
     1
 11
-42.1647412524254
 21
-27.16265854171064
 31
0.0
100
AcDbText
  0
LINE
  5
1004
330
1F
100
AcDbEntity
  8
1
100
AcDbLine
 10
7.852500000000018
 20
-31.77499999999996
 30
0.0
 11
7.852500000000018
 21
-25.83409810689996
 31
0.0
  0
LINE
  5
1005
330
1F
100
AcDbEntity
  8
1
100
AcDbLine
 10
3.200000000000017
 20
-30.17499999999994
 30
0.0
 11
3.200000000000017
 21
30.12632953350001
 31
0.0
  0
LINE
  5
1006
330
1F
100
AcDbEntity
  8
SK3
100
AcDbLine
 10
6.32837271430003
 20
-28.66666355859996
 30
0.0
 11
3.200000000000017
 21
-24.19927680584052
 31
0.0
  0
ARC
  5
1007
330
1F
100
AcDbEntity
  8
1
100
AcDbCircle
 10
4.800000000000012
 20
-30.17499999999994
 30
0.0
 40
1.6
100
AcDbArc
 50
180.0
 51
270.0
  0
LINE
  5
1008
330
1F
100
AcDbEntity
  8
1
100
AcDbLine
 10
7.852500000000018
 20
-31.77499999999996
 30
0.0
 11
4.800000000000012
 21
-31.77499999999996
 31
0.0
  0
LINE
  5
1009
330
1F
100
AcDbEntity
  8
SK3
100
AcDbLine
 10
6.32837271430003
 20
-28.66666355859996
 30
0.0
 11
3.316950524800005
 21
-30.77546933929997
 31
0.0
  0
LINE
  5
100A
330
1F
100
AcDbEntity
  8
1
100
AcDbLine
 10
-0.7999999999999829
 20
22.10829262149998
 30
0.0
 11
-67.37322744119999
 21
12.3963090553
 31
0.0
  0
LINE
  5
100B
330
1F
100
AcDbEntity
  8
1
100
AcDbLine
 10
-0.7999999999999829
 20
-22.10829262149996
 30
0.0
 11
-67.37322744119999
 21
-12.39630905529998
 31
0.0
  0
LINE
  5
100C
330
1F
100
AcDbEntity
  8
SK3
100
AcDbLine
 10
-36.2
 20
8.000000000000026
 30
0.0
 11
-60.20000000000002
 21
8.000000000000026
 31
0.0
  0
LINE
  5
100D
330
1F
100
AcDbEntity
  8
SK3
100
AcDbLine
 10
-25.39999999999996
 20
6.920000000000044
 30
0.0
 11
-60.20000000000002
 21
6.920000000000044
 31
0.0
  0
LINE
  5
100E
330
1F
100
AcDbEntity
  8
SK3
100
AcDbLine
 10
-25.39999999999996
 20
-6.919999999999959
 30
0.0
 11
-60.20000000000002
 21
-6.919999999999959
 31
0.0
  0
LINE
  5
100F
330
1F
100
AcDbEntity
  8
SK3
100
AcDbLine
 10
-36.2
 20
-7.999999999999971
 30
0.0
 11
-60.20000000000002
 21
-7.999999999999971
 31
0.0
  0
LINE
  5
1010
330
1F
100
AcDbEntity
  8
1
100
AcDbLine
 10
-68.4
 20
11.20887810840001
 30
0.0
 11
-68.4
 21
-11.20887810839997
 31
0.0
  0
LINE
  5
1011
330
1F
100
AcDbEntity
  8
SK3
100
AcDbLine
 10
-60.20000000000002
 20
-8.499323850699964
 30
0.0
 11
-60.20000000000002
 21
8.499323850700022
 31
0.0
  0
LINE
  5
1012
330
1F
100
AcDbEntity
  8
SK3
100
AcDbLine
 10
-60.20000000000002
 20
-8.499999999999971
 30
0.0
 11
-67.40000000000001
 21
-8.499999999999971
 31
0.0
  0
ARC
  5
1013
330
1F
100
AcDbEntity
  8
SK3
100
AcDbCircle
 10
-67.40000000000001
 20
-9.499999999999973
 30
0.0
 40
1.0
100
AcDbArc
 50
90.0
 51
179.9999999351993
  0
ARC
  5
1014
330
1F
100
AcDbEntity
  8
1
100
AcDbCircle
 10
-67.20000000000002
 20
-11.20887810839997
 30
0.0
 40
1.199999999999999
100
AcDbArc
 50
180.0
 51
261.7000000000007
  0
ARC
  5
1015
330
1F
100
AcDbEntity
  8
SK3
100
AcDbCircle
 10
-67.40000000000001
 20
9.500000000000026
 30
0.0
 40
1.0
100
AcDbArc
 50
180.0000000648006
 51
270.0
  0
LINE
  5
1016
330
1F
100
AcDbEntity
  8
SK3
100
AcDbLine
 10
-60.20000000000002
 20
8.500000000000026
 30
0.0
 11
-67.40000000000001
 21
8.500000000000026
 31
0.0
  0
ARC
  5
1017
330
1F
100
AcDbEntity
  8
1
100
AcDbCircle
 10
-67.20000000000002
 20
11.20887810840001
 30
0.0
 40
1.199999999999999
100
AcDbArc
 50
98.29999999999918
 51
180.0
  0
LINE
  5
1018
330
1F
100
AcDbEntity
  8
NOCUT
100
AcDbLine
 10
0.0
 20
0.0
 30
0.0
 11
-0.0000000000001137
 21
22.19900607378965
 31
0.0
  0
LINE
  5
1019
330
1F
100
AcDbEntity
  8
1
100
AcDbLine
 10
7.852500000000018
 20
8.050000000000039
 30
0.0
 11
7.852500000000018
 21
31.77500000000003
 31
0.0
  0
LINE
  5
101A
330
1F
100
AcDbEntity
  8
1
100
AcDbLine
 10
0.3196152423000171
 20
21.80829262150001
 30
0.0
 11
0.3196152423000171
 21
-21.80829262149996
 31
0.0
  0
LINE
  5
101B
330
1F
100
AcDbEntity
  8
1
100
AcDbLine
 10
-0.7999999999999829
 20
-22.10829262149996
 30
0.0
 11
-0.7999999999999829
 21
22.10829262149998
 31
0.0
  0
LINE
  5
101C
330
1F
100
AcDbEntity
  8
SK3
100
AcDbLine
 10
7.662865645700009
 20
21.93331253790003
 30
0.0
 11
-18.6623991744
 21
3.500000000000028
 31
0.0
  0
LINE
  5
101D
330
1F
100
AcDbEntity
  8
SK3
100
AcDbLine
 10
-23.42546207929999
 20
3.500000000000028
 30
0.0
 11
-25.39999999999996
 21
6.920000000000044
 31
0.0
  0
LINE
  5
101E
330
1F
100
AcDbEntity
  8
SK3
100
AcDbLine
 10
-23.42546207929999
 20
-3.499999999999971
 30
0.0
 11
-25.39999999999996
 21
-6.919999999999959
 31
0.0
  0
LINE
  5
101F
330
1F
100
AcDbEntity
  8
SK3
100
AcDbLine
 10
-25.39999999999996
 20
6.920000000000044
 30
0.0
 11
-25.39999999999996
 21
-6.919999999999959
 31
0.0
  0
LINE
  5
1020
330
1F
100
AcDbEntity
  8
SK3
100
AcDbLine
 10
-36.2
 20
8.000000000000026
 30
0.0
 11
-36.2
 21
-7.999999999999971
 31
0.0
  0
INSERT
  5
1021
330
1F
100
AcDbEntity
  8
1
100
AcDbBlockReference
  2
nullpunkt_1
 10
0.0
 20
0.0
 30
0.0
 41
-1.0
 50
180.0
  0
LINE
  5
1022
330
1F
100
AcDbEntity
  8
SK3
100
AcDbLine
 10
-23.42546207929999
 20
3.500000000000028
 30
0.0
 11
-23.42546207929999
 21
-3.499999999999971
 31
0.0
  0
LINE
  5
1023
330
1F
100
AcDbEntity
  8
SK3
100
AcDbLine
 10
-18.6623991744
 20
-3.499999999999971
 30
0.0
 11
7.662865645700009
 21
-21.93331253789998
 31
0.0
  0
LINE
  5
1024
330
1F
100
AcDbEntity
  8
1
100
AcDbLine
 10
7.852500000000018
 20
-18.49999999999996
 30
0.0
 11
7.852500000000018
 21
-8.049999999999952
 31
0.0
  0
LINE
  5
1025
330
1F
100
AcDbEntity
  8
1
100
AcDbLine
 10
0.3196152423000171
 20
-21.80829262149996
 30
0.0
 11
2.409731931299971
 21
-21.80829262149996
 31
0.0
  0
LINE
  5
1026
330
1F
100
AcDbEntity
  8
1
100
AcDbLine
 10
-0.7999999999999829
 20
-22.10829262149996
 30
0.0
 11
0.3196152423000171
 21
-21.80829262149996
 31
0.0
  0
LINE
  5
1027
330
1F
100
AcDbEntity
  8
1
100
AcDbLine
 10
7.852500000000018
 20
-25.83409810689996
 30
0.0
 11
4.800000002399997
 21
-25.83409810689996
 31
0.0
  0
LINE
  5
1028
330
1F
100
AcDbEntity
  8
SK3
100
AcDbLine
 10
7.662865645700009
 20
-21.93331253789998
 30
0.0
 11
3.603724026900009
 21
-24.77580381679996
 31
0.0
  0
LINE
  5
1029
330
1F
100
AcDbEntity
  8
SK3
100
AcDbLine
 10
3.316918901999996
 20
-24.36623963339997
 30
0.0
 11
7.227012429784878
 21
-21.62812212084178
 31
0.0
  0
SPLINE
  5
102A
330
1F
100
AcDbEntity
  8
1
100
AcDbSpline
210
0.0
220
0.0
230
1.0
 70
     8
 71
     3
 72
    12
 73
     8
 74
     6
 42
0.0000000001
 43
0.0000000001
 44
0.0000000001
 12
-1.0
 22
0.0
 32
0.0
 13
0.0
 23
1.0
 33
0.0
 40
0.0
 40
0.0
 40
0.0
 40
0.0
 40
0.4612732263183853
 40
0.9611088106447489
 40
1.512218573213139
 40
2.133898703206601
 40
2.823885459898166
 40
2.823885459898166
 40
2.823885459898166
 40
2.823885459898166
 10
4.800000002399997
 20
-25.83409810689996
 30
0.0
 10
4.646242260293869
 20
-25.83409810689996
 30
0.0
 10
4.323291545153375
 20
-25.77550161620805
 30
0.0
 10
3.881003607337314
 20
-25.51442167117647
 30
0.0
 10
3.511295392241766
 20
-25.08491183601102
 30
0.0
 10
3.258952645801771
 20
-24.50861773479562
 30
0.0
 10
3.200000000000017
 20
-24.06863281586382
 30
0.0
 10
3.200000000000017
 20
-23.83863723029997
 30
0.0
 11
4.800000002399997
 21
-25.83409810689996
 31
0.0
 11
4.345888830299998
 21
-25.75312877509997
 31
0.0
 11
3.912983496600019
 21
-25.50327164909996
 31
0.0
 11
3.549053962700013
 21
-25.08941507399994
 31
0.0
 11
3.294878147700018
 21
-24.52206964209997
 31
0.0
 11
3.200000000000017
 21
-23.83863723029997
 31
0.0
  0
ARC
  5
102B
330
1F
100
AcDbEntity
  8
1
100
AcDbCircle
 10
2.409731931299971
 20
-22.80829262149996
 30
0.0
 40
1.0
100
AcDbArc
 50
37.5379335793999
 51
90.0
  0
ARC
  5
102C
330
1F
100
AcDbEntity
  8
NOCUT
100
AcDbCircle
 10
4.800000000000068
 20
30.17499999999998
 30
0.0
 40
1.6
100
AcDbArc
 50
90.0
 51
180.0
  0
ARC
  5
102D
330
1F
100
AcDbEntity
  8
1
100
AcDbCircle
 10
4.800000000000012
 20
30.175
 30
0.0
 40
1.6
100
AcDbArc
 50
90.0
 51
180.0
  0
LINE
  5
102E
330
1F
100
AcDbEntity
  8
NOCUT
100
AcDbLine
 10
3.202682057587366
 20
22.19900607378965
 30
0.0
 11
0.0
 21
22.19900607378965
 31
0.0
  0
LINE
  5
102F
330
1F
100
AcDbEntity
  8
1
100
AcDbLine
 10
0.3196152423000171
 20
21.80829262150001
 30
0.0
 11
2.409731931299971
 21
21.80829262150001
 31
0.0
  0
LINE
  5
1030
330
1F
100
AcDbEntity
  8
1
100
AcDbLine
 10
-0.7999999999999829
 20
22.10829262150002
 30
0.0
 11
0.3196152423000171
 21
21.80829262150001
 31
0.0
  0
LINE
  5
1031
330
1F
100
AcDbEntity
  8
NOCUT
100
AcDbLine
 10
3.199999999999988
 20
22.19900607378965
 30
0.0
 11
3.200000000000044
 21
30.12632953350001
 31
0.0
  0
LINE
  5
1032
330
1F
100
AcDbEntity
  8
SK3
100
AcDbLine
 10
6.32837271430003
 20
28.66666355860002
 30
0.0
 11
3.200000000000017
 21
24.19927680584057
 31
0.0
  0
LINE
  5
1033
330
1F
100
AcDbEntity
  8
SK3
100
AcDbLine
 10
7.662865645700009
 20
21.93331253790003
 30
0.0
 11
3.603724026900009
 21
24.77580381680001
 31
0.0
  0
LINE
  5
1034
330
1F
100
AcDbEntity
  8
SK3
100
AcDbLine
 10
3.316918901999996
 20
24.36623963340002
 30
0.0
 11
7.227012429784878
 21
21.62812212084185
 31
0.0
  0
ARC
  5
1035
330
1F
100
AcDbEntity
  8
1
100
AcDbCircle
 10
2.409731931299971
 20
22.80829262150001
 30
0.0
 40
1.0
100
AcDbArc
 50
270.0
 51
322.4620664206
  0
LINE
  5
1036
330
1F
100
AcDbEntity
  8
NOCUT
100
AcDbLine
 10
7.852500000000077
 20
31.775
 30
0.0
 11
4.800000000000068
 21
31.775
 31
0.0
  0
LINE
  5
1037
330
1F
100
AcDbEntity
  8
1
100
AcDbLine
 10
7.852500000000018
 20
31.77500000000003
 30
0.0
 11
4.800000000000012
 21
31.77500000000003
 31
0.0
  0
LINE
  5
1038
330
1F
100
AcDbEntity
  8
SK3
100
AcDbLine
 10
6.32837271430003
 20
28.66666355860002
 30
0.0
 11
3.316950524800005
 21
30.77546933930003
 31
0.0
  0
LINE
  5
1039
330
1F
100
AcDbEntity
  8
1
100
AcDbLine
 10
19.09999999999998
 20
-30.17499999999994
 30
0.0
 11
19.09999999999998
 21
-6.169481339602754
 31
0.0
  0
LINE
  5
103A
330
1F
100
AcDbEntity
  8
1
100
AcDbLine
 10
14.34750000000001
 20
-25.83409810689996
 30
0.0
 11
14.34750000000001
 21
-31.77499999999996
 31
0.0
  0
LINE
  5
103B
330
1F
100
AcDbEntity
  8
1
100
AcDbLine
 10
12.97500000000002
 20
-29.39739672889999
 30
0.0
 11
12.97500000000002
 21
-21.84354881879996
 31
0.0
  0
LINE
  5
103C
330
1F
100
AcDbEntity
  8
1
100
AcDbLine
 10
9.225000000000024
 20
-29.39739672889999
 30
0.0
 11
9.225000000000024
 21
-21.84354881879996
 31
0.0
  0
LINE
  5
103D
330
1F
100
AcDbEntity
  8
SK3
100
AcDbLine
 10
19.24616780369999
 20
-24.24540380529998
 30
0.0
 11
16.09147860890002
 21
-28.75072688849996
 31
0.0
  0
LINE
  5
103E
330
1F
100
AcDbEntity
  8
SK3
100
AcDbLine
 10
18.4884106016
 20
-24.02000632799996
 30
0.0
 11
15.62051133359999
 21
-28.11575458539996
 31
0.0
  0
LINE
  5
103F
330
1F
100
AcDbEntity
  8
SK3
100
AcDbLine
 10
16.74531663370001
 20
-24.97039259639999
 30
0.0
 11
15.50347982289997
 21
-26.74390361559997
 31
0.0
  0
LINE
  5
1040
330
1F
100
AcDbEntity
  8
SK3
100
AcDbLine
 10
11.14969137309998
 20
-24.37483587439996
 30
0.0
 11
16.52166349910001
 21
-28.13636464989997
 31
0.0
  0
LINE
  5
1041
330
1F
100
AcDbEntity
  8
SK3
100
AcDbLine
 10
16.23487357230001
 20
-28.54593947559999
 30
0.0
 11
12.13912531479999
 21
-25.67804020769996
 31
0.0
  0
DIMENSION
  5
1042
330
1F
100
AcDbEntity
  8
SK2
100
AcDbDimension
  2
*D4
 10
49.50000000000002
 20
-44.13953498259996
 30
0.0
 11
44.1146941107
 21
-44.13953498259996
 31
0.0
 70
   160
 71
     5
 42
10.0
  3
ISO-25
100
AcDbAlignedDimension
 13
39.50000000000002
 23
-3.249999999999971
 33
0.0
 14
49.50000000000002
 24
-6.499999999999971
 34
0.0
100
AcDbRotatedDimension
1001
ACAD
1000
DSTYLE
1002
{
1070
   179
1070
     4
1070
   275
1070
     1
1002
}
  0
DIMENSION
  5
1043
330
1F
100
AcDbEntity
  8
SK2
100
AcDbDimension
  2
*D5
 10
39.50000000000002
 20
-54.13953498259996
 30
0.0
 11
59.66534859619997
 21
-54.13953498259996
 31
0.0
 70
   160
 71
     5
 42
40.99999999999996
  3
ISO-25
100
AcDbAlignedDimension
 13
80.5
 23
-13.08045018439996
 33
0.0
 14
39.50000000000002
 24
-3.249999999999971
 34
0.0
 50
180.0
100
AcDbRotatedDimension
1001
ACAD
1000
DSTYLE
1002
{
1070
   179
1070
     4
1070
   275
1070
     1
1002
}
  0
TEXT
  5
1044
330
1F
100
AcDbEntity
  8
6
100
AcDbText
 10
55.9670894483391
 20
-69.84368893613832
 30
0.0
 40
3.5
  1
69871A40HC10SA080-G2
 41
0.8
  7
isocp
 72
     1
 11
76.13228466063738
 21
-69.84368893613832
 31
0.0
100
AcDbText
  0
LINE
  5
1045
330
1F
100
AcDbEntity
  8
1
100
AcDbLine
 10
17.50000000000001
 20
-31.77499999999996
 30
0.0
 11
14.34750000000001
 21
-31.77499999999996
 31
0.0
  0
LINE
  5
1046
330
1F
100
AcDbEntity
  8
SK3
100
AcDbLine
 10
17.25487760270002
 20
-27.08923568659997
 30
0.0
 11
15.91742542649997
 21
-26.15273327589997
 31
0.0
  0
LINE
  5
1047
330
1F
100
AcDbEntity
  8
SK3
100
AcDbLine
 10
16.09147860890002
 20
-28.75072688849996
 30
0.0
 11
18.9830575016
 21
-30.77545020359996
 31
0.0
  0
LINE
  5
1048
330
1F
100
AcDbEntity
  8
1
100
AcDbLine
 10
12.97500000000002
 20
-29.39776026659996
 30
0.0
 11
14.34750000000001
 21
-31.77499999999996
 31
0.0
  0
ARC
  5
1049
330
1F
100
AcDbEntity
  8
1
100
AcDbCircle
 10
12.47500000000002
 20
-28.62499999999997
 30
0.0
 40
0.5
100
AcDbArc
 50
0.0
 51
90.0
  0
ARC
  5
104A
330
1F
100
AcDbEntity
  8
1
100
AcDbCircle
 10
9.725000000000024
 20
-28.62499999999997
 30
0.0
 40
0.5
100
AcDbArc
 50
90.0
 51
180.0
  0
LINE
  5
104B
330
1F
100
AcDbEntity
  8
1
100
AcDbLine
 10
9.725000000000024
 20
-28.12499999999996
 30
0.0
 11
12.47500000000002
 21
-28.12499999999996
 31
0.0
  0
LINE
  5
104C
330
1F
100
AcDbEntity
  8
SK3
100
AcDbLine
 10
16.8409319991
 20
-27.68040602639999
 30
0.0
 11
15.50347982289997
 21
-26.74390361559997
 31
0.0
  0
LINE
  5
104D
330
1F
100
AcDbEntity
  8
SK3
100
AcDbLine
 10
16.66505846250001
 20
-27.93157723699997
 30
0.0
 11
15.62051133359999
 21
-28.11575458539996
 31
0.0
  0
ARC
  5
104E
330
1F
100
AcDbEntity
  8
1
100
AcDbCircle
 10
17.50000000000001
 20
-30.17499999999994
 30
0.0
 40
1.6
100
AcDbArc
 50
270.0
 51
0.0
  0
LINE
  5
104F
330
1F
100
AcDbEntity
  8
NOCUT
100
AcDbLine
 10
69.15743636080003
 20
15.00000000000001
 30
0.0
 11
80.08682408890013
 21
13.07285406090002
 31
0.0
  0
LINE
  5
1050
330
1F
100
AcDbEntity
  8
1
100
AcDbLine
 10
69.15743636079998
 20
15.00000000000001
 30
0.0
 11
80.08682408890001
 21
13.07285406090002
 31
0.0
  0
LINE
  5
1051
330
1F
100
AcDbEntity
  8
1
100
AcDbLine
 10
69.15743636079998
 20
-14.99999999999997
 30
0.0
 11
80.08682408890001
 21
-13.07285406089997
 31
0.0
  0
ARC
  5
1052
330
1F
100
AcDbEntity
  8
SK3
100
AcDbCircle
 10
73.52500000000003
 20
-9.999999999999973
 30
0.0
 40
1.0
100
AcDbArc
 50
270.0
 51
0.0
  0
LINE
  5
1053
330
1F
100
AcDbEntity
  8
SK3
100
AcDbLine
 10
76.90000000000003
 20
6.500000000000027
 30
0.0
 11
51.4
 21
6.500000000000027
 31
0.0
  0
LINE
  5
1054
330
1F
100
AcDbEntity
  8
SK3
100
AcDbLine
 10
76.90000000000003
 20
5.500000000000028
 30
0.0
 11
70.15000000000004
 21
5.500000000000028
 31
0.0
  0
LINE
  5
1055
330
1F
100
AcDbEntity
  8
SK3
100
AcDbLine
 10
49.50000000000002
 20
5.000000000000028
 30
0.0
 11
80.0
 21
5.000000000000028
 31
0.0
  0
LINE
  5
1056
330
1F
100
AcDbEntity
  8
SK3
100
AcDbLine
 10
49.50000000000002
 20
-4.999999999999971
 30
0.0
 11
80.0
 21
-4.999999999999971
 31
0.0
  0
LINE
  5
1057
330
1F
100
AcDbEntity
  8
SK3
100
AcDbLine
 10
76.90000000000003
 20
-5.499999999999971
 30
0.0
 11
70.15000000000004
 21
-5.499999999999971
 31
0.0
  0
LINE
  5
1058
330
1F
100
AcDbEntity
  8
SK3
100
AcDbLine
 10
76.90000000000003
 20
-6.499999999999971
 30
0.0
 11
51.4
 21
-6.499999999999971
 31
0.0
  0
DIMENSION
  5
1059
330
1F
100
AcDbEntity
  8
SK2
100
AcDbDimension
  2
*D6
 10
102.875057507
 20
15.0
 30
0.0
 11
102.875057507
 21
-0.3777720760999728
 31
0.0
 70
   160
  1
%%c<>
 71
     5
 42
30.0
  3
ISO-25
100
AcDbAlignedDimension
 13
69.65743636079998
 23
-14.99999999999997
 33
0.0
 14
69.65743636079998
 24
15.00000000000001
 34
0.0
 50
90.0
100
AcDbRotatedDimension
1001
ACAD
1000
DSTYLE
1002
{
1070
   179
1070
     4
1070
   275
1070
     1
1002
}
  0
DIMENSION
  5
105A
330
1F
100
AcDbEntity
  8
SK2
100
AcDbDimension
  2
*D7
 10
112.875057507
 20
24.75000000000001
 30
0.0
 11
112.875057507
 21
0.7581826444000228
 31
0.0
 70
   160
  1
%%c<>
 71
     5
 42
49.5
  3
ISO-25
100
AcDbAlignedDimension
 13
43.97964489479999
 23
-24.74999999999996
 33
0.0
 14
44.10220067309999
 24
24.75000000000003
 34
0.0
 50
90.0
100
AcDbRotatedDimension
1001
ACAD
1000
DSTYLE
1002
{
1070
   179
1070
     4
1070
   275
1070
     1
1002
}
  0
DIMENSION
  5
105B
330
1F
100
AcDbEntity
  8
SK2
100
AcDbDimension
  2
*D8
 10
49.50000000000002
 20
49.30503825630004
 30
0.0
 11
64.51302566629999
 21
49.30503825630004
 31
0.0
 70
   160
 71
     5
 42
30.99999999999996
  3
ISO-25
100
AcDbAlignedDimension
 13
80.5
 23
13.50000000000002
 33
0.0
 14
49.50000000000002
 24
15.50000000000002
 34
0.0
 50
180.0
100
AcDbRotatedDimension
1001
ACAD
1000
DSTYLE
1002
{
1070
   179
1070
     4
1070
   275
1070
     1
1002
}
  0
LINE
  5
105C
330
1F
100
AcDbEntity
  8
NOCUT
100
AcDbLine
 10
43.87083487540006
 20
24.75000000000003
 30
0.0
 11
49.5000000000001
 21
15.00000000000001
 31
0.0
  0
LINE
  5
105D
330
1F
100
AcDbEntity
  8
1
100
AcDbLine
 10
43.87083487539999
 20
24.75000000000003
 30
0.0
 11
49.50000000000002
 21
15.00000000000001
 31
0.0
  0
LINE
  5
105E
330
1F
100
AcDbEntity
  8
1
100
AcDbLine
 10
43.87083487539999
 20
24.75000000000003
 30
0.0
 11
43.87083487539999
 21
-24.74999999999996
 31
0.0
  0
LINE
  5
105F
330
1F
100
AcDbEntity
  8
1
100
AcDbLine
 10
19.10000000000001
 20
30.12633029320002
 30
0.0
 11
19.10000000000001
 21
6.167915809800034
 31
0.0
  0
LINE
  5
1060
330
1F
100
AcDbEntity
  8
1
100
AcDbLine
 10
14.34750000000001
 20
31.77500000000003
 30
0.0
 11
14.34750000000001
 21
8.050000000000039
 31
0.0
  0
LINE
  5
1061
330
1F
100
AcDbEntity
  8
1
100
AcDbLine
 10
12.97500000000002
 20
8.050000000000039
 30
0.0
 11
12.97500000000002
 21
29.39776026640001
 31
0.0
  0
LINE
  5
1062
330
1F
100
AcDbEntity
  8
1
100
AcDbLine
 10
9.225000000000024
 20
29.39776026640001
 30
0.0
 11
9.225000000000024
 21
8.050000000000039
 31
0.0
  0
LINE
  5
1063
330
1F
100
AcDbEntity
  8
1
100
AcDbLine
 10
20.0
 20
-24.74999999999996
 30
0.0
 11
43.87083487539999
 21
-24.74999999999996
 31
0.0
  0
LINE
  5
1064
330
1F
100
AcDbEntity
  8
SK3
100
AcDbLine
 10
39.50000000000002
 20
6.000000000000027
 30
0.0
 11
49.50000000000002
 21
6.000000000000027
 31
0.0
  0
LINE
  5
1065
330
1F
100
AcDbEntity
  8
SK3
100
AcDbLine
 10
39.50000000000002
 20
-5.999999999999971
 30
0.0
 11
49.50000000000002
 21
-5.999999999999971
 31
0.0
  0
LINE
  5
1066
330
1F
100
AcDbEntity
  8
SK3
100
AcDbLine
 10
28.73205080759999
 20
-8.999999999999969
 30
0.0
 11
72.52500000000003
 21
-8.999999999999969
 31
0.0
  0
LINE
  5
1067
330
1F
100
AcDbEntity
  8
SK3
100
AcDbLine
 10
28.73205080759999
 20
-10.99999999999997
 30
0.0
 11
73.52500000000003
 21
-10.99999999999997
 31
0.0
  0
SPLINE
  5
1068
330
1F
100
AcDbEntity
  8
1
100
AcDbSpline
210
0.0
220
0.0
230
1.0
 70
     8
 71
     3
 72
    11
 73
     7
 74
     5
 42
0.0000000001
 43
0.0000000001
 44
0.0000000001
 12
0.0
 22
1.0
 32
0.0
 13
0.0
 23
1.0
 33
0.0
 40
0.0
 40
0.0
 40
0.0
 40
0.0
 40
3.130385197560099
 40
6.185461195419531
 40
9.220103890720697
 40
12.35753690558195
 40
12.35753690558195
 40
12.35753690558195
 40
12.35753690558195
 10
19.10000000000001
 20
-6.169481339599967
 30
0.0
 10
19.10000000000001
 20
-5.126019607079934
 30
0.0
 10
19.27678447891111
 20
-3.0698703946512
 30
0.0
 10
19.51830750754244
 20
-0.0000905802819328
 30
0.0
 10
19.2766927502684
 20
3.071975774529114
 30
0.0
 10
19.10000000000001
 20
5.123670334646273
 30
0.0
 10
19.10000000000001
 20
6.169481339600025
 30
0.0
 11
19.10000000000001
 21
-6.169481339599967
 31
0.0
 11
19.27515782
 21
-3.044000380899972
 31
0.0
 11
19.43856115349998
 21
0.0067026042000009
 31
0.0
 11
19.2757398882
 21
3.036974130600043
 31
0.0
 11
19.10000000000001
 21
6.169481339600025
 31
0.0
  0
LINE
  5
1069
330
1F
100
AcDbEntity
  8
SK3
100
AcDbLine
 10
39.50000000000002
 20
6.000000000000027
 30
0.0
 11
39.50000000000002
 21
-5.999999999999971
 31
0.0
  0
LINE
  5
106A
330
1F
100
AcDbEntity
  8
SK3
100
AcDbLine
 10
39.00000000009999
 20
3.500000000000028
 30
0.0
 11
39.00000000009999
 21
-3.499999999999971
 31
0.0
  0
LINE
  5
106B
330
1F
100
AcDbEntity
  8
SK3
100
AcDbLine
 10
14.50000000000001
 20
4.000000000000028
 30
0.0
 11
14.50000000000001
 21
-3.999999999999971
 31
0.0
  0
DIMENSION
  5
106C
330
1F
100
AcDbEntity
  8
SK2
100
AcDbDimension
  2
*D9
 10
29.4134181531
 20
-3.999999999999971
 30
0.0
 11
29.4134181531
 21
15.12500000000008
 31
0.0
 70
   160
  1
M<>x1
 71
     5
 42
8.000000000000001
  3
ISO-25
100
AcDbAlignedDimension
 13
34.20234512239999
 23
4.000000000000028
 33
0.0
 14
30.03841815309999
 24
-3.999999999999971
 34
0.0
 50
270.0
100
AcDbRotatedDimension
1001
ACAD
1000
DSTYLE
1002
{
1070
   179
1070
     4
1070
   275
1070
     1
1002
}
  0
CIRCLE
  5
106D
330
1F
100
AcDbEntity
  8
1
100
AcDbCircle
 10
27.00000000000001
 20
-9.999999999999973
 30
0.0
 40
2.0
  0
CIRCLE
  5
106E
330
1F
100
AcDbEntity
  8
1
100
AcDbCircle
 10
27.00000000000001
 20
-9.999999999999973
 30
0.0
 40
3.399999999999999
  0
LINE
  5
1070
330
1F
100
AcDbEntity
  8
SK3
100
AcDbLine
 10
14.50000000000001
 20
-3.999999999999971
 30
0.0
 11
39.50000000000002
 21
-3.999999999999971
 31
0.0
  0
LINE
  5
1071
330
1F
100
AcDbEntity
  8
1
100
AcDbLine
 10
14.34750000000001
 20
-8.049999999999952
 30
0.0
 11
14.34750000000001
 21
-18.49999999999996
 31
0.0
  0
LINE
  5
1072
330
1F
100
AcDbEntity
  8
1
100
AcDbLine
 10
12.97500000000002
 20
-18.49999999999996
 30
0.0
 11
12.97500000000002
 21
-8.049999999999952
 31
0.0
  0
LINE
  5
1073
330
1F
100
AcDbEntity
  8
1
100
AcDbLine
 10
9.225000000000024
 20
-8.049999999999952
 30
0.0
 11
9.225000000000024
 21
-18.49999999999996
 31
0.0
  0
LINE
  5
1074
330
1F
100
AcDbEntity
  8
1
100
AcDbLine
 10
17.50000000299999
 20
-25.83409810689996
 30
0.0
 11
14.34750000000001
 21
-25.83409810689996
 31
0.0
  0
LINE
  5
1075
330
1F
100
AcDbEntity
  8
SK3
100
AcDbLine
 10
19.10277284029998
 20
-24.45019121819996
 30
0.0
 11
15.0070245828
 21
-21.58229195019996
 31
0.0
  0
LINE
  5
1076
330
1F
100
AcDbEntity
  8
SK3
100
AcDbLine
 10
18.08276880989998
 20
-25.90689500709999
 30
0.0
 11
16.74531663370001
 21
-24.97039259639999
 31
0.0
  0
SPLINE
  5
1077
330
1F
100
AcDbEntity
  8
1
100
AcDbSpline
210
0.0
220
0.0
230
1.0
 70
     8
 71
     3
 72
    10
 73
     6
 74
     4
 42
0.0000000001
 43
0.0000000001
 44
0.0000000001
 12
0.4093743989143582
 22
-0.9123664842120779
 32
0.0
 13
0.4249194534150649
 23
-0.9052311628028736
 33
0.0
 40
0.0
 40
0.0
 40
0.0
 40
0.0
 40
1.064064352255589
 40
2.159673087631789
 40
3.287502624668526
 40
3.287502624668526
 40
3.287502624668526
 40
3.287502624668526
 10
12.97500000000002
 20
-22.84684461129998
 30
0.0
 10
13.12020023487029
 20
-23.17045016198092
 30
0.0
 10
13.4169685036647
 20
-23.8263306683086
 30
0.0
 10
13.87455346598927
 20
-24.82206168468892
 30
0.0
 10
14.18775442985901
 20
-25.4937826258149
 30
0.0
 10
14.34750000000001
 20
-25.83409810689996
 30
0.0
 11
12.97500000000002
 21
-22.84684461129998
 31
0.0
 11
13.41356481860001
 21
-23.81632583629996
 31
0.0
 11
13.87097247719998
 21
-24.81188434029997
 31
0.0
 11
14.34750000000001
 21
-25.83409810689996
 31
0.0
  0
LINE
  5
1078
330
1F
100
AcDbEntity
  8
SK3
100
AcDbLine
 10
15.41659940849998
 20
-21.86908187699998
 30
0.0
 11
12.5487001405
 21
-25.96483013449997
 31
0.0
  0
LINE
  5
1079
330
1F
100
AcDbEntity
  8
SK3
100
AcDbLine
 10
15.0070245828
 20
-21.58229195019996
 30
0.0
 11
12.13912531479999
 21
-25.67804020769996
 31
0.0
  0
SPLINE
  5
107A
330
1F
100
AcDbEntity
  8
1
100
AcDbSpline
210
0.0
220
0.0
230
1.0
 70
     8
 71
     3
 72
    12
 73
     8
 74
     6
 42
0.0000000001
 43
0.0000000001
 44
0.0000000001
 12
-1.0
 22
0.0
 32
0.0
 13
0.0
 23
-1.0
 33
0.0
 40
0.0
 40
0.0
 40
0.0
 40
0.0
 40
0.1551844733709391
 40
0.3185717458166013
 40
0.4968262656195
 40
0.6963243904059838
 40
0.9108050533978751
 40
0.9108050533978751
 40
0.9108050533978751
 40
0.9108050533978751
 10
9.725000000000024
 20
-21.18408895839996
 30
0.0
 10
9.673271842209711
 20
-21.18408895839996
 30
0.0
 10
9.566043765461376
 20
-21.20702685826914
 30
0.0
 10
9.426552390984927
 20
-21.30227574871838
 30
0.0
 10
9.315576487046806
 20
-21.44778888425983
 30
0.0
 10
9.242218084162223
 20
-21.63339769486489
 30
0.0
 10
9.225000000000024
 20
-21.77205526446933
 30
0.0
 10
9.225000000000024
 20
-21.84354881879996
 30
0.0
 11
9.725000000000024
 21
-21.18408895839996
 31
0.0
 11
9.573024810900022
 21
-21.21548581609996
 31
0.0
 11
9.436640656100024
 21
-21.30545671759997
 31
0.0
 11
9.326764116800005
 21
-21.44581988919997
 31
0.0
 11
9.251983834699984
 21
-21.63077234579995
 31
0.0
 11
9.225000000000024
 21
-21.84354881879996
 31
0.0
  0
SPLINE
  5
107B
330
1F
100
AcDbEntity
  8
1
100
AcDbSpline
210
0.0
220
0.0
230
1.0
 70
     8
 71
     3
 72
    12
 73
     8
 74
     6
 42
0.0000000001
 43
0.0000000001
 44
0.0000000001
 12
0.0
 22
1.0
 32
0.0
 13
-1.0
 23
0.0
 33
0.0
 40
0.0
 40
0.0
 40
0.0
 40
0.0
 40
0.2147571160683315
 40
0.414490678592585
 40
0.5926954356183952
 40
0.7559271413983055
 40
0.910807283766239
 40
0.910807283766239
 40
0.910807283766239
 40
0.910807283766239
 10
12.97500000000002
 20
-21.84354881879996
 30
0.0
 10
12.97500000000002
 20
-21.77196311344385
 30
0.0
 10
12.95773860289428
 20
-21.63313243779994
 30
0.0
 10
12.88422651434092
 20
-21.44740888242894
 30
0.0
 10
12.77312623278822
 20
-21.30197476645983
 30
0.0
 10
12.63369693027339
 20
-21.20694457701728
 30
0.0
 10
12.52662671412266
 20
-21.18408895839996
 30
0.0
 10
12.47500000000002
 20
-21.18408895839996
 30
0.0
 11
12.97500000000002
 21
-21.84354881879996
 31
0.0
 11
12.94794589069999
 21
-21.63050259359996
 31
0.0
 11
12.87297818099999
 21
-21.44537199509997
 31
0.0
 11
12.76301782969997
 21
-21.30513770339996
 31
0.0
 11
12.62668938750001
 21
-21.21536495909996
 31
0.0
 11
12.47500000000002
 21
-21.18408895839996
 31
0.0
  0
LINE
  5
107C
330
1F
100
AcDbEntity
  8
1
100
AcDbLine
 10
9.725000000000024
 20
-21.18408895839996
 30
0.0
 11
12.47500000000002
 21
-21.18408895839996
 31
0.0
  0
LINE
  5
107D
330
1F
100
AcDbEntity
  8
SK3
100
AcDbLine
 10
12.5487001405
 20
-25.96483013449997
 30
0.0
 11
12.42591524160002
 21
-25.26846538189996
 31
0.0
  0
LINE
  5
107E
330
1F
100
AcDbEntity
  8
SK3
100
AcDbLine
 10
11.14969137309998
 20
-24.37483587439996
 30
0.0
 11
11.14969137309998
 21
-21.93321612190391
 31
0.0
  0
LINE
  5
107F
330
1F
100
AcDbEntity
  8
SK3
100
AcDbLine
 10
15.41659940849998
 20
-21.86908187699998
 30
0.0
 11
14.72023465599999
 21
-21.99186677589997
 31
0.0
  0
SPLINE
  5
1080
330
1F
100
AcDbEntity
  8
1
100
AcDbSpline
210
0.0
220
0.0
230
1.0
 70
     8
 71
     3
 72
    12
 73
     8
 74
     6
 42
0.0000000001
 43
0.0000000001
 44
0.0000000001
 12
0.0
 22
-1.0
 32
0.0
 13
-1.0
 23
0.0
 33
0.0
 40
0.0
 40
0.0
 40
0.0
 40
0.0
 40
0.6873641783705461
 40
1.304007320558686
 40
1.850232597206936
 40
2.352740452018843
 40
2.823872816535802
 40
2.823872816535802
 40
2.823872816535802
 40
2.823872816535802
 10
19.10000000000001
 20
-23.83863723029997
 30
0.0
 10
19.10000000000001
 20
-24.06775862309015
 30
0.0
 10
19.04161413225165
 20
-24.50515845752017
 30
0.0
 10
18.79232498161752
 20
-25.07799533010231
 30
0.0
 10
18.426762047405
 20
-25.50748438658343
 30
0.0
 10
17.98431548957392
 20
-25.77337385286647
 30
0.0
 10
17.65704412450564
 20
-25.83409810689996
 30
0.0
 10
17.50000000299999
 20
-25.83409810689996
 30
0.0
 11
19.10000000000001
 21
-23.83863723029997
 31
0.0
 11
19.0058533241
 21
-24.51952335669997
 31
0.0
 11
18.7551169564
 21
-25.08288828169998
 31
0.0
 11
18.39679533559998
 21
-25.49515963519996
 31
0.0
 11
17.96350513800001
 21
-25.74966650899995
 31
0.0
 11
17.50000000299999
 21
-25.83409810689996
 31
0.0
  0
ARC
  5
1081
330
1F
100
AcDbEntity
  8
1
100
AcDbCircle
 10
20.0
 20
-25.64999999999996
 30
0.0
 40
0.9
100
AcDbArc
 50
90.0
 51
180.0
  0
LINE
  5
1082
330
1F
100
AcDbEntity
  8
SK3
100
AcDbLine
 10
18.67258795009998
 20
-25.06455345679995
 30
0.0
 11
18.4884106016
 21
-24.02000632799996
 31
0.0
  0
LINE
  5
1083
330
1F
100
AcDbEntity
  8
SK3
100
AcDbLine
 10
19.24616780369999
 20
-24.24540380529998
 30
0.0
 11
19.97754713079998
 21
-24.75752567039998
 31
0.0
  0
LINE
  5
1084
330
1F
100
AcDbEntity
  8
SK3
100
AcDbLine
 10
18.49671441349999
 20
-25.31572466739996
 30
0.0
 11
17.15926223729999
 21
-24.37922225659997
 31
0.0
  0
LINE
  5
1085
330
1F
100
AcDbEntity
  8
SK3
100
AcDbLine
 10
19.10000000000001
 20
-8.049999999999952
 30
0.0
 11
19.10159018730001
 21
-8.049999999999952
 31
0.0
  0
LINE
  5
1089
330
1F
100
AcDbEntity
  8
SK3
100
AcDbLine
 10
39.00004694340001
 20
-3.499953033599978
 30
0.0
 11
39.50005364959999
 21
-3.999946324099965
 31
0.0
  0
LINE
  5
108A
330
1F
100
AcDbEntity
  8
SK3
100
AcDbLine
 10
14.50000000000001
 20
4.000000000000028
 30
0.0
 11
39.50000000000002
 21
4.000000000000028
 31
0.0
  0
LINE
  5
108B
330
1F
100
AcDbEntity
  8
SK3
100
AcDbLine
 10
19.10000000000001
 20
8.050000000000039
 30
0.0
 11
19.10159018730001
 21
8.050000000000039
 31
0.0
  0
LINE
  5
108C
330
1F
100
AcDbEntity
  8
SK3
100
AcDbLine
 10
39.00004694419999
 20
3.499953034500038
 30
0.0
 11
39.50005365049999
 21
3.999946325100011
 31
0.0
  0
LINE
  5
108D
330
1F
100
AcDbEntity
  8
1
100
AcDbLine
 10
69.15743636079998
 20
15.00000000000001
 30
0.0
 11
69.15743636079998
 21
-14.99999999999997
 31
0.0
  0
LINE
  5
108E
330
1F
100
AcDbEntity
  8
1
100
AcDbLine
 10
63.30000000000001
 20
15.00000000000001
 30
0.0
 11
63.30000000000001
 21
-14.99999999999997
 31
0.0
  0
LINE
  5
108F
330
1F
100
AcDbEntity
  8
1
100
AcDbLine
 10
61.69999999999999
 20
15.00000000000001
 30
0.0
 11
61.69999999999999
 21
-14.99999999999997
 31
0.0
  0
LINE
  5
1090
330
1F
100
AcDbEntity
  8
1
100
AcDbLine
 10
60.30000000000001
 20
15.00000000000001
 30
0.0
 11
60.30000000000001
 21
-14.99999999999997
 31
0.0
  0
LINE
  5
1091
330
1F
100
AcDbEntity
  8
1
100
AcDbLine
 10
58.69999999999999
 20
15.00000000000001
 30
0.0
 11
58.69999999999999
 21
-14.99999999999997
 31
0.0
  0
LINE
  5
1092
330
1F
100
AcDbEntity
  8
1
100
AcDbLine
 10
57.30000000000001
 20
15.00000000000001
 30
0.0
 11
57.30000000000001
 21
-14.99999999999997
 31
0.0
  0
LINE
  5
1093
330
1F
100
AcDbEntity
  8
1
100
AcDbLine
 10
55.69999999999999
 20
15.00000000000001
 30
0.0
 11
55.69999999999999
 21
-14.99999999999997
 31
0.0
  0
LINE
  5
1094
330
1F
100
AcDbEntity
  8
1
100
AcDbLine
 10
49.50000000000002
 20
15.00000000000001
 30
0.0
 11
49.50000000000002
 21
-14.99999999999997
 31
0.0
  0
LINE
  5
1095
330
1F
100
AcDbEntity
  8
SK3
100
AcDbLine
 10
70.15000000000004
 20
6.400000000000034
 30
0.0
 11
70.15000000000004
 21
-6.399999999999977
 31
0.0
  0
LINE
  5
1096
330
1F
100
AcDbEntity
  8
SK3
100
AcDbLine
 10
58.15000000000003
 20
6.400000000000034
 30
0.0
 11
58.15000000000003
 21
-6.399999999999977
 31
0.0
  0
LINE
  5
1097
330
1F
100
AcDbEntity
  8
SK3
100
AcDbLine
 10
51.4
 20
6.500000000000027
 30
0.0
 11
51.4
 21
-6.499999999999971
 31
0.0
  0
LINE
  5
1098
330
1F
100
AcDbEntity
  8
1
100
AcDbLine
 10
57.30000000000001
 20
-14.99999999999997
 30
0.0
 11
58.69999999999999
 21
-14.99999999999997
 31
0.0
  0
LINE
  5
1099
330
1F
100
AcDbEntity
  8
SK3
100
AcDbLine
 10
58.15000000000003
 20
-5.499999999999971
 30
0.0
 11
51.4
 21
-5.499999999999971
 31
0.0
  0
ARC
  5
109A
330
1F
100
AcDbEntity
  8
1
100
AcDbCircle
 10
56.5
 20
-14.99999999999997
 30
0.0
 40
0.8
100
AcDbArc
 50
0.0
 51
180.0
  0
LINE
  5
109B
330
1F
100
AcDbEntity
  8
1
100
AcDbLine
 10
49.50000000000002
 20
-14.99999999999997
 30
0.0
 11
55.69999999999999
 21
-14.99999999999997
 31
0.0
  0
LINE
  5
109C
330
1F
100
AcDbEntity
  8
1
100
AcDbLine
 10
43.87083487539999
 20
-24.74999999999996
 30
0.0
 11
49.50000000000002
 21
-14.99999999999997
 31
0.0
  0
ARC
  5
109D
330
1F
100
AcDbEntity
  8
1
100
AcDbCircle
 10
62.5
 20
-14.99999999999997
 30
0.0
 40
0.8
100
AcDbArc
 50
0.0
 51
180.0
  0
ARC
  5
109E
330
1F
100
AcDbEntity
  8
1
100
AcDbCircle
 10
59.5
 20
-14.99999999999997
 30
0.0
 40
0.8
100
AcDbArc
 50
0.0
 51
180.0
  0
LINE
  5
109F
330
1F
100
AcDbEntity
  8
1
100
AcDbLine
 10
63.30000000000001
 20
-14.99999999999997
 30
0.0
 11
69.15743636079998
 21
-14.99999999999997
 31
0.0
  0
LINE
  5
10A0
330
1F
100
AcDbEntity
  8
1
100
AcDbLine
 10
60.30000000000001
 20
-14.99999999999997
 30
0.0
 11
61.69999999999999
 21
-14.99999999999997
 31
0.0
  0
LINE
  5
10A1
330
1F
100
AcDbEntity
  8
SK3
100
AcDbLine
 10
70.15000000000004
 20
-6.399999999999977
 30
0.0
 11
58.15000000000003
 21
-6.399999999999977
 31
0.0
  0
LINE
  5
10A2
330
1F
100
AcDbEntity
  8
SK3
100
AcDbLine
 10
74.52500000000005
 20
-6.499999999999971
 30
0.0
 11
74.52500000000005
 21
-9.999999999999973
 31
0.0
  0
LINE
  5
10A3
330
1F
100
AcDbEntity
  8
SK3
100
AcDbLine
 10
72.52500000000003
 20
-6.499999999999971
 30
0.0
 11
72.52500000000003
 21
-8.999999999999969
 31
0.0
  0
LINE
  5
10A4
330
1F
100
AcDbEntity
  8
NOCUT
100
AcDbLine
 10
57.30000000000007
 20
15.00000000000001
 30
0.0
 11
58.70000000000004
 21
15.00000000000001
 31
0.0
  0
LINE
  5
10A5
330
1F
100
AcDbEntity
  8
1
100
AcDbLine
 10
57.30000000000001
 20
15.00000000000001
 30
0.0
 11
58.69999999999999
 21
15.00000000000001
 31
0.0
  0
LINE
  5
10A6
330
1F
100
AcDbEntity
  8
SK3
100
AcDbLine
 10
58.15000000000003
 20
5.500000000000028
 30
0.0
 11
51.4
 21
5.500000000000028
 31
0.0
  0
LINE
  5
10A7
330
1F
100
AcDbEntity
  8
NOCUT
100
AcDbLine
 10
49.5000000000001
 20
15.00000000000001
 30
0.0
 11
55.70000000000003
 21
15.00000000000001
 31
0.0
  0
LINE
  5
10A8
330
1F
100
AcDbEntity
  8
1
100
AcDbLine
 10
49.50000000000002
 20
15.00000000000001
 30
0.0
 11
55.69999999999999
 21
15.00000000000001
 31
0.0
  0
ARC
  5
10A9
330
1F
100
AcDbEntity
  8
NOCUT
100
AcDbCircle
 10
56.50000000000005
 20
15.00000000000001
 30
0.0
 40
0.8
100
AcDbArc
 50
180.0
 51
0.0
  0
ARC
  5
10AA
330
1F
100
AcDbEntity
  8
1
100
AcDbCircle
 10
56.5
 20
15.00000000000001
 30
0.0
 40
0.8
100
AcDbArc
 50
180.0
 51
0.0
  0
LINE
  5
10AB
330
1F
100
AcDbEntity
  8
SK3
100
AcDbLine
 10
70.15000000000004
 20
6.400000000000034
 30
0.0
 11
58.15000000000003
 21
6.400000000000034
 31
0.0
  0
LINE
  5
10AC
330
1F
100
AcDbEntity
  8
NOCUT
100
AcDbLine
 10
63.30000000000007
 20
15.00000000000001
 30
0.0
 11
69.15743636080003
 21
15.00000000000001
 31
0.0
  0
LINE
  5
10AD
330
1F
100
AcDbEntity
  8
1
100
AcDbLine
 10
63.30000000000001
 20
15.00000000000001
 30
0.0
 11
69.15743636079998
 21
15.00000000000001
 31
0.0
  0
ARC
  5
10AE
330
1F
100
AcDbEntity
  8
NOCUT
100
AcDbCircle
 10
59.5
 20
15.00000000000001
 30
0.0
 40
0.8
100
AcDbArc
 50
180.0
 51
0.0
  0
ARC
  5
10AF
330
1F
100
AcDbEntity
  8
NOCUT
100
AcDbCircle
 10
62.5
 20
15.00000000000001
 30
0.0
 40
0.8
100
AcDbArc
 50
180.0
 51
0.0
  0
ARC
  5
10B0
330
1F
100
AcDbEntity
  8
1
100
AcDbCircle
 10
62.5
 20
15.00000000000001
 30
0.0
 40
0.8
100
AcDbArc
 50
180.0
 51
0.0
  0
ARC
  5
10B1
330
1F
100
AcDbEntity
  8
1
100
AcDbCircle
 10
59.5
 20
15.00000000000001
 30
0.0
 40
0.8
100
AcDbArc
 50
180.0
 51
0.0
  0
LINE
  5
10B2
330
1F
100
AcDbEntity
  8
NOCUT
100
AcDbLine
 10
60.30000000000007
 20
15.00000000000001
 30
0.0
 11
61.70000000000005
 21
15.00000000000001
 31
0.0
  0
LINE
  5
10B3
330
1F
100
AcDbEntity
  8
1
100
AcDbLine
 10
60.30000000000001
 20
15.00000000000001
 30
0.0
 11
61.69999999999999
 21
15.00000000000001
 31
0.0
  0
LINE
  5
10B4
330
1F
100
AcDbEntity
  8
NOCUT
100
AcDbLine
 10
20.10000000000008
 20
24.75000000000003
 30
0.0
 11
43.87083487540006
 21
24.75000000000003
 31
0.0
  0
LINE
  5
10B5
330
1F
100
AcDbEntity
  8
1
100
AcDbLine
 10
20.10000000000002
 20
24.75000000000003
 30
0.0
 11
43.87083487539999
 21
24.75000000000003
 31
0.0
  0
ARC
  5
10B6
330
1F
100
AcDbEntity
  8
NOCUT
100
AcDbCircle
 10
17.50000000000011
 20
30.17499999999998
 30
0.0
 40
1.6
100
AcDbArc
 50
0.0
 51
90.0
  0
ARC
  5
10B7
330
1F
100
AcDbEntity
  8
1
100
AcDbCircle
 10
17.50000000000001
 20
30.175
 30
0.0
 40
1.6
100
AcDbArc
 50
0.0
 51
90.0
  0
LINE
  5
10B8
330
1F
100
AcDbEntity
  8
NOCUT
100
AcDbLine
 10
17.50000000000011
 20
31.775
 30
0.0
 11
14.34750000000008
 21
31.775
 31
0.0
  0
LINE
  5
10B9
330
1F
100
AcDbEntity
  8
1
100
AcDbLine
 10
17.50000000000001
 20
31.77500000000003
 30
0.0
 11
14.34750000000001
 21
31.77500000000003
 31
0.0
  0
LINE
  5
10BA
330
1F
100
AcDbEntity
  8
SK3
100
AcDbLine
 10
18.08276880989998
 20
25.90689500710004
 30
0.0
 11
16.74531663370001
 21
24.97039259640003
 31
0.0
  0
LINE
  5
10BB
330
1F
100
AcDbEntity
  8
SK3
100
AcDbLine
 10
19.10277284029998
 20
24.45019121820001
 30
0.0
 11
15.0070245828
 21
21.5822919502
 31
0.0
  0
LINE
  5
10BC
330
1F
100
AcDbEntity
  8
SK3
100
AcDbLine
 10
15.50347982289997
 20
26.74390361560003
 30
0.0
 11
17.15926223729999
 21
24.37922225660003
 31
0.0
  0
LINE
  5
10BD
330
1F
100
AcDbEntity
  8
SK3
100
AcDbLine
 10
16.09147860890002
 20
28.75072688850002
 30
0.0
 11
18.9830575016
 21
30.77545020360003
 31
0.0
  0
LINE
  5
10BE
330
1F
100
AcDbEntity
  8
SK3
100
AcDbLine
 10
17.25487760270002
 20
27.08923568660003
 30
0.0
 11
15.91742542649997
 21
26.15273327590003
 31
0.0
  0
LINE
  5
10BF
330
1F
100
AcDbEntity
  8
SK3
100
AcDbLine
 10
18.4884106016
 20
24.02000632800002
 30
0.0
 11
15.62051133359999
 21
28.11575458540001
 31
0.0
  0
LINE
  5
10C0
330
1F
100
AcDbEntity
  8
SK3
100
AcDbLine
 10
19.24616780369999
 20
24.24540380530004
 30
0.0
 11
16.09147860890002
 21
28.75072688850002
 31
0.0
  0
LINE
  5
10C1
330
1F
100
AcDbEntity
  8
SK3
100
AcDbLine
 10
16.23487357230001
 20
28.54593947560005
 30
0.0
 11
12.13912531479999
 21
25.67804020770003
 31
0.0
  0
LINE
  5
10C2
330
1F
100
AcDbEntity
  8
SK3
100
AcDbLine
 10
11.14969137309998
 20
24.37483587440002
 30
0.0
 11
16.52166349910001
 21
28.13636464990003
 31
0.0
  0
LINE
  5
10C3
330
1F
100
AcDbEntity
  8
SK3
100
AcDbLine
 10
15.0070245828
 20
21.5822919502
 30
0.0
 11
12.13912531479999
 21
25.67804020770003
 31
0.0
  0
LINE
  5
10C4
330
1F
100
AcDbEntity
  8
SK3
100
AcDbLine
 10
15.41659940849998
 20
21.86908187700004
 30
0.0
 11
12.5487001405
 21
25.96483013450002
 31
0.0
  0
LINE
  5
10C5
330
1F
100
AcDbEntity
  8
SK3
100
AcDbLine
 10
12.5487001405
 20
25.96483013450002
 30
0.0
 11
12.42591524160002
 21
25.26846538190003
 31
0.0
  0
LINE
  5
10C6
330
1F
100
AcDbEntity
  8
SK3
100
AcDbLine
 10
11.14969137309998
 20
24.37483587440002
 30
0.0
 11
11.14969137309998
 21
21.93321612190396
 31
0.0
  0
LINE
  5
10C7
330
1F
100
AcDbEntity
  8
SK3
100
AcDbLine
 10
15.41659940849998
 20
21.86908187700004
 30
0.0
 11
14.72023465599999
 21
21.99186677590002
 31
0.0
  0
LINE
  5
10C8
330
1F
100
AcDbEntity
  8
NOCUT
100
AcDbLine
 10
12.97500000000008
 20
29.39776026659998
 30
0.0
 11
14.34750000000008
 21
31.775
 31
0.0
  0
ARC
  5
10C9
330
1F
100
AcDbEntity
  8
NOCUT
100
AcDbCircle
 10
12.47500000000008
 20
28.62500000000002
 30
0.0
 40
0.5
100
AcDbArc
 50
270.0
 51
0.0
  0
ARC
  5
10CA
330
1F
100
AcDbEntity
  8
1
100
AcDbCircle
 10
12.47500000000002
 20
28.62500000000002
 30
0.0
 40
0.5
100
AcDbArc
 50
270.0
 51
0.0
  0
LINE
  5
10CB
330
1F
100
AcDbEntity
  8
1
100
AcDbLine
 10
12.97500000000002
 20
29.39776026660002
 30
0.0
 11
14.34750000000001
 21
31.77500000000003
 31
0.0
  0
LINE
  5
10CC
330
1F
100
AcDbEntity
  8
NOCUT
100
AcDbLine
 10
9.725000000000079
 20
28.12500000000003
 30
0.0
 11
12.47500000000008
 21
28.12500000000003
 31
0.0
  0
LINE
  5
10CD
330
1F
100
AcDbEntity
  8
NOCUT
100
AcDbLine
 10
9.225000000000079
 20
29.39776026639995
 30
0.0
 11
9.225000000000024
 21
28.62500000000002
 31
0.0
  0
LINE
  5
10CE
330
1F
100
AcDbEntity
  8
NOCUT
100
AcDbLine
 10
12.97500000000013
 20
28.62500000000002
 30
0.0
 11
12.97500000000008
 21
29.39776026639995
 31
0.0
  0
ARC
  5
10CF
330
1F
100
AcDbEntity
  8
NOCUT
100
AcDbCircle
 10
9.725000000000079
 20
28.62500000000002
 30
0.0
 40
0.5
100
AcDbArc
 50
180.0
 51
270.0
  0
LINE
  5
10D0
330
1F
100
AcDbEntity
  8
1
100
AcDbLine
 10
9.725000000000024
 20
28.12500000000003
 30
0.0
 11
12.47500000000002
 21
28.12500000000003
 31
0.0
  0
ARC
  5
10D1
330
1F
100
AcDbEntity
  8
1
100
AcDbCircle
 10
9.725000000000024
 20
28.62500000000002
 30
0.0
 40
0.5
100
AcDbArc
 50
180.0
 51
270.0
  0
LINE
  5
10D2
330
1F
100
AcDbEntity
  8
SK3
100
AcDbLine
 10
16.66505846250001
 20
27.93157723700002
 30
0.0
 11
15.62051133359999
 21
28.11575458540001
 31
0.0
  0
LINE
  5
10D3
330
1F
100
AcDbEntity
  8
SK3
100
AcDbLine
 10
16.8409319991
 20
27.68040602640005
 30
0.0
 11
15.50347982289997
 21
26.74390361560003
 31
0.0
  0
LINE
  5
10D4
330
1F
100
AcDbEntity
  8
NOCUT
100
AcDbLine
 10
19.10000000000008
 20
30.12633029320002
 30
0.0
 11
19.10000000000001
 21
25.64999999999999
 31
0.0
  0
ARC
  5
10D5
330
1F
100
AcDbEntity
  8
NOCUT
100
AcDbCircle
 10
20.00000000000004
 20
25.64999999999999
 30
0.0
 40
0.9
100
AcDbArc
 50
180.0
 51
270.0
  0
ARC
  5
10D6
330
1F
100
AcDbEntity
  8
1
100
AcDbCircle
 10
20.0
 20
25.65000000000003
 30
0.0
 40
0.9
100
AcDbArc
 50
180.0
 51
270.0
  0
LINE
  5
10D7
330
1F
100
AcDbEntity
  8
SK3
100
AcDbLine
 10
18.49671441349999
 20
25.31572466740001
 30
0.0
 11
17.15926223729999
 21
24.37922225660003
 31
0.0
  0
LINE
  5
10D8
330
1F
100
AcDbEntity
  8
SK3
100
AcDbLine
 10
19.24616780369999
 20
24.24540380530004
 30
0.0
 11
19.97754713079998
 21
24.75752567040004
 31
0.0
  0
LINE
  5
10D9
330
1F
100
AcDbEntity
  8
SK3
100
AcDbLine
 10
18.67258795009998
 20
25.06455345680001
 30
0.0
 11
18.4884106016
 21
24.02000632800002
 31
0.0
  0
LINE
  5
10DA
330
1F
100
AcDbEntity
  8
1
100
AcDbLine
 10
80.5
 20
12.5804501844
 30
0.0
 11
80.5
 21
-12.58045018439998
 31
0.0
  0
LINE
  5
10DB
330
1F
100
AcDbEntity
  8
SK3
100
AcDbLine
 10
80.00000000009999
 20
5.000000000000028
 30
0.0
 11
80.00000000009999
 21
-4.999999999999971
 31
0.0
  0
LINE
  5
10DC
330
1F
100
AcDbEntity
  8
SK3
100
AcDbLine
 10
76.90000000000003
 20
6.500000000000027
 30
0.0
 11
76.90000000000003
 21
-6.499999999999971
 31
0.0
  0
DIMENSION
  5
10DD
330
1F
100
AcDbEntity
  8
SK2
100
AcDbDimension
  2
*D10
 10
92.87505750700006
 20
5.000000000000023
 30
0.0
 11
92.87505750700006
 21
0.0000000000000284
 31
0.0
 70
   160
  1
%%c<>
 71
     5
 42
10.0
  3
ISO-25
100
AcDbAlignedDimension
 13
81.0
 23
-4.999999999999971
 33
0.0
 14
81.0
 24
5.000000000000028
 34
0.0
 50
90.0
100
AcDbRotatedDimension
1001
ACAD
1000
DSTYLE
1002
{
1070
   179
1070
     4
1070
   275
1070
     1
1002
}
  0
ARC
  5
10DE
330
1F
100
AcDbEntity
  8
1
100
AcDbCircle
 10
80.0
 20
-12.58045018439998
 30
0.0
 40
0.5
100
AcDbArc
 50
280.0
 51
0.0
  0
LINE
  5
10DF
330
1F
100
AcDbEntity
  8
SK3
100
AcDbLine
 10
80.0000452657
 20
-4.999954719099973
 30
0.0
 11
80.50004979229999
 21
-5.499950190999981
 31
0.0
  0
LINE
  5
10E0
330
1F
100
AcDbEntity
  8
NOCUT
100
AcDbLine
 10
80.5
 20
12.5804501844
 30
0.0
 11
80.5
 21
0.0000000000000284
 31
0.0
  0
INSERT
  5
10E1
330
1F
100
AcDbEntity
  8
1
100
AcDbBlockReference
  2
nullpunkt_2
 10
80.5
 20
0.0
 30
0.0
 41
-1.0
 50
180.0
  0
LINE
  5
10E2
330
1F
100
AcDbEntity
  8
SK3
100
AcDbLine
 10
80.00004526640003
 20
4.99995471980003
 30
0.0
 11
80.50004979300002
 21
5.499950191800023
 31
0.0
  0
ARC
  5
10E3
330
1F
100
AcDbEntity
  8
NOCUT
100
AcDbCircle
 10
80.0
 20
12.5804501844
 30
0.0
 40
0.5
100
AcDbArc
 50
0.0
 51
79.9999999999998
  0
ARC
  5
10E4
330
1F
100
AcDbEntity
  8
1
100
AcDbCircle
 10
80.0
 20
12.5804501844
 30
0.0
 40
0.5
100
AcDbArc
 50
0.0
 51
79.9999999999998
  0
ENDSEC
  0
SECTION
  2
OBJECTS
  0
DICTIONARY
  5
9B4
330
0
100
AcDbDictionary
281
     1
  3
ACAD_GROUP
350
9B5
  3
ACAD_LAYOUT
350
9BD
  3
ACAD_MLINESTYLE
350
9B6
  3
ACAD_PLOTSETTINGS
350
9BE
  3
ACAD_PLOTSTYLENAME
350
9BB
  0
DICTIONARY
  5
9B5
102
{ACAD_REACTORS
330
9B4
102
}
330
9B4
100
AcDbDictionary
281
     1
  0
DICTIONARY
  5
9BD
102
{ACAD_REACTORS
330
9B4
102
}
330
9B4
100
AcDbDictionary
281
     1
  3
Layout1
350
9C0
  3
Model
350
9BF
  0
DICTIONARY
  5
9B6
102
{ACAD_REACTORS
330
9B4
102
}
330
9B4
100
AcDbDictionary
281
     1
  3
STANDARD
350
9B7
  0
DICTIONARY
  5
9BE
102
{ACAD_REACTORS
330
9B4
102
}
330
9B4
100
AcDbDictionary
281
     1
  0
ACDBDICTIONARYWDFLT
  5
9BB
102
{ACAD_REACTORS
330
9B4
102
}
330
9B4
100
AcDbDictionary
281
     1
  3
Normal
350
9BC
100
AcDbDictionaryWithDefault
340
9BC
  0
LAYOUT
  5
9C0
102
{ACAD_REACTORS
330
9BD
102
}
330
9BD
100
AcDbPlotSettings
  1

  2
Kein
  4

  6

 40
0.0
 41
0.0
 42
0.0
 43
0.0
 44
0.0
 45
0.0
 46
0.0
 47
0.0
 48
0.0
 49
0.0
140
0.0
141
0.0
142
1.0
143
1.0
 70
   688
 72
     0
 73
     0
 74
     5
  7

 75
    16
147
1.0
148
0.0
149
0.0
100
AcDbLayout
  1
Layout1
 70
     1
 71
     1
 10
0.0
 20
0.0
 11
12.0
 21
9.0
 12
0.0
 22
0.0
 32
0.0
 14
1.000000000000000E+20
 24
1.000000000000000E+20
 34
1.000000000000000E+20
 15
-1.000000000000000E+20
 25
-1.000000000000000E+20
 35
-1.000000000000000E+20
146
0.0
 13
0.0
 23
0.0
 33
0.0
 16
1.0
 26
0.0
 36
0.0
 17
0.0
 27
1.0
 37
0.0
 76
     0
330
1B
  0
LAYOUT
  5
9BF
102
{ACAD_REACTORS
330
9BD
102
}
330
9BD
100
AcDbPlotSettings
  1

  2
Kein
  4

  6

 40
0.0
 41
0.0
 42
0.0
 43
0.0
 44
0.0
 45
0.0
 46
0.0
 47
0.0
 48
0.0
 49
0.0
140
0.0
141
0.0
142
1.0
143
1.0
 70
  1712
 72
     0
 73
     0
 74
     0
  7

 75
     0
147
1.0
148
0.0
149
0.0
100
AcDbLayout
  1
Model
 70
     1
 71
     0
 10
0.0
 20
0.0
 11
12.0
 21
9.0
 12
0.0
 22
0.0
 32
0.0
 14
0.0
 24
0.0
 34
0.0
 15
0.0
 25
0.0
 35
0.0
146
0.0
 13
0.0
 23
0.0
 33
0.0
 16
1.0
 26
0.0
 36
0.0
 17
0.0
 27
1.0
 37
0.0
 76
     0
330
1F
  0
MLINESTYLE
  5
9B7
102
{ACAD_REACTORS
330
9B6
102
}
330
9B6
100
AcDbMlineStyle
  2
STANDARD
 70
     0
  3

 62
   256
 51
90.0
 52
90.0
 71
     2
 49
0.5
 62
   256
  6
BYLAYER
 49
-0.5
 62
   256
  6
BYLAYER
  0
ACDBPLACEHOLDER
  5
9BC
102
{ACAD_REACTORS
330
9BB
102
}
330
9BB
  0
ENDSEC
  0
EOF
