  0
SECTION
  2
HEADER
  9
$ACADVER
  1
AC1015
  9
$ACADMAINTVER
 70
    10
  9
$DWGCODEPAGE
  3
ANSI_1252
  9
$INSBASE
 10
0.0
 20
0.0
 30
0.0
  9
$EXTMIN
 10
-71.42063411952233
 20
-73.14014647037947
 30
-0.0000000241633985
  9
$EXTMAX
 10
114.9110019240804
 20
63.28048340811495
 30
0.0000000563935459
  9
$LIMMIN
 10
0.0
 20
0.0
  9
$LIMMAX
 10
420.0
 20
297.0
  9
$ORTHOMODE
 70
     0
  9
$REGENMODE
 70
     1
  9
$FILLMODE
 70
     1
  9
$QTEXTMODE
 70
     0
  9
$MIRRTEXT
 70
     1
  9
$LTSCALE
 40
23.1
  9
$ATTMODE
 70
     1
  9
$TEXTSIZE
 40
0.2
  9
$TRACEWID
 40
0.05
  9
$TEXTSTYLE
  7
STANDARD
  9
$CLAYER
  8
0
  9
$CELTYPE
  6
BYLAYER
  9
$CECOLOR
 62
   256
  9
$CELTSCALE
 40
1.0
  9
$DISPSILH
 70
     0
  9
$DIMSCALE
 40
1.0
  9
$DIMASZ
 40
2.5
  9
$DIMEXO
 40
2.625
  9
$DIMDLI
 40
15.96
  9
$DIMRND
 40
0.0
  9
$DIMDLE
 40
0.0
  9
$DIMEXE
 40
7.559999999999998
  9
$DIMTP
 40
0.01
  9
$DIMTM
 40
0.01
  9
$DIMTXT
 40
3.5
  9
$DIMCEN
 40
3.779999999999998
  9
$DIMTSZ
 40
0.0
  9
$DIMTOL
 70
     1
  9
$DIMLIM
 70
     0
  9
$DIMTIH
 70
     1
  9
$DIMTOH
 70
     1
  9
$DIMSE1
 70
     0
  9
$DIMSE2
 70
     0
  9
$DIMTAD
 70
     0
  9
$DIMZIN
 70
     0
  9
$DIMBLK
  1
_ARROW_FILLED
  9
$DIMASO
 70
     1
  9
$DIMSHO
 70
     1
  9
$DIMPOST
  1

  9
$DIMAPOST
  1

  9
$DIMALT
 70
     0
  9
$DIMALTD
 70
     2
  9
$DIMALTF
 40
25.4
  9
$DIMLFAC
 40
1.0
  9
$DIMTOFL
 70
     0
  9
$DIMTVP
 40
0.0
  9
$DIMTIX
 70
     0
  9
$DIMSOXD
 70
     0
  9
$DIMSAH
 70
     0
  9
$DIMBLK1
  1

  9
$DIMBLK2
  1

  9
$DIMSTYLE
  2
STANDARD
  9
$DIMCLRD
 70
     0
  9
$DIMCLRE
 70
     0
  9
$DIMCLRT
 70
     0
  9
$DIMTFAC
 40
1.0
  9
$DIMGAP
 40
0.09
  9
$DIMJUST
 70
     0
  9
$DIMSD1
 70
     0
  9
$DIMSD2
 70
     0
  9
$DIMTOLJ
 70
     1
  9
$DIMTZIN
 70
     0
  9
$DIMALTZ
 70
     0
  9
$DIMALTTZ
 70
     0
  9
$DIMUPT
 70
     0
  9
$DIMDEC
 70
     4
  9
$DIMTDEC
 70
     4
  9
$DIMALTU
 70
     2
  9
$DIMALTTD
 70
     2
  9
$DIMTXSTY
  7
STANDARD
  9
$DIMAUNIT
 70
     0
  9
$DIMADEC
 70
     0
  9
$DIMALTRND
 40
0.0
  9
$DIMAZIN
 70
     0
  9
$DIMDSEP
 70
    46
  9
$DIMATFIT
 70
     3
  9
$DIMFRAC
 70
     0
  9
$DIMLDRBLK
  1
_ARROW_FILLED
  9
$DIMLUNIT
 70
     2
  9
$DIMLWD
 70
    -2
  9
$DIMLWE
 70
    -2
  9
$DIMTMOVE
 70
     0
  9
$LUNITS
 70
     2
  9
$LUPREC
 70
     4
  9
$SKETCHINC
 40
0.1
  9
$FILLETRAD
 40
0.9
  9
$AUNITS
 70
     0
  9
$AUPREC
 70
     0
  9
$MENU
  1
.
  9
$ELEVATION
 40
0.0
  9
$PELEVATION
 40
0.0
  9
$THICKNESS
 40
0.0
  9
$LIMCHECK
 70
     0
  9
$CHAMFERA
 40
0.0
  9
$CHAMFERB
 40
0.0
  9
$CHAMFERC
 40
0.0
  9
$CHAMFERD
 40
0.0
  9
$SKPOLY
 70
     0
  9
$TDCREATE
 40
2453886.623637696
  9
$TDUCREATE
 40
2453886.540304363
  9
$TDUPDATE
 40
2453889.493071377
  9
$TDUUPDATE
 40
2453889.409738043
  9
$TDINDWG
 40
0.0925966319
  9
$TDUSRTIMER
 40
0.0925964468
  9
$USRTIMER
 70
     1
  9
$ANGBASE
 50
0.0
  9
$ANGDIR
 70
     0
  9
$PDMODE
 70
     3
  9
$PDSIZE
 40
0.3125
  9
$PLINEWID
 40
0.0
  9
$SPLFRAME
 70
     0
  9
$SPLINETYPE
 70
     6
  9
$SPLINESEGS
 70
     8
  9
$HANDSEED
  5
1166
  9
$SURFTAB1
 70
     6
  9
$SURFTAB2
 70
     6
  9
$SURFTYPE
 70
     6
  9
$SURFU
 70
     6
  9
$SURFV
 70
     6
  9
$UCSBASE
  2

  9
$UCSNAME
  2

  9
$UCSORG
 10
0.0
 20
0.0
 30
0.0
  9
$UCSXDIR
 10
1.0
 20
0.0
 30
0.0
  9
$UCSYDIR
 10
0.0
 20
1.0
 30
0.0
  9
$UCSORTHOREF
  2

  9
$UCSORTHOVIEW
 70
     0
  9
$UCSORGTOP
 10
0.0
 20
0.0
 30
0.0
  9
$UCSORGBOTTOM
 10
0.0
 20
0.0
 30
0.0
  9
$UCSORGLEFT
 10
0.0
 20
0.0
 30
0.0
  9
$UCSORGRIGHT
 10
0.0
 20
0.0
 30
0.0
  9
$UCSORGFRONT
 10
0.0
 20
0.0
 30
0.0
  9
$UCSORGBACK
 10
0.0
 20
0.0
 30
0.0
  9
$PUCSBASE
  2

  9
$PUCSNAME
  2

  9
$PUCSORG
 10
0.0
 20
0.0
 30
0.0
  9
$PUCSXDIR
 10
1.0
 20
0.0
 30
0.0
  9
$PUCSYDIR
 10
0.0
 20
1.0
 30
0.0
  9
$PUCSORTHOREF
  2

  9
$PUCSORTHOVIEW
 70
     0
  9
$PUCSORGTOP
 10
0.0
 20
0.0
 30
0.0
  9
$PUCSORGBOTTOM
 10
0.0
 20
0.0
 30
0.0
  9
$PUCSORGLEFT
 10
0.0
 20
0.0
 30
0.0
  9
$PUCSORGRIGHT
 10
0.0
 20
0.0
 30
0.0
  9
$PUCSORGFRONT
 10
0.0
 20
0.0
 30
0.0
  9
$PUCSORGBACK
 10
0.0
 20
0.0
 30
0.0
  9
$USERI1
 70
     0
  9
$USERI2
 70
     0
  9
$USERI3
 70
     0
  9
$USERI4
 70
     0
  9
$USERI5
 70
     0
  9
$USERR1
 40
0.0
  9
$USERR2
 40
0.0
  9
$USERR3
 40
0.0
  9
$USERR4
 40
0.0
  9
$USERR5
 40
0.0
  9
$WORLDVIEW
 70
     1
  9
$SHADEDGE
 70
     3
  9
$SHADEDIF
 70
    70
  9
$TILEMODE
 70
     1
  9
$MAXACTVP
 70
    64
  9
$PINSBASE
 10
0.0
 20
0.0
 30
0.0
  9
$PLIMCHECK
 70
     0
  9
$PEXTMIN
 10
1.000000000000000E+20
 20
1.000000000000000E+20
 30
1.000000000000000E+20
  9
$PEXTMAX
 10
-1.000000000000000E+20
 20
-1.000000000000000E+20
 30
-1.000000000000000E+20
  9
$PLIMMIN
 10
0.0
 20
0.0
  9
$PLIMMAX
 10
12.0
 20
9.0
  9
$UNITMODE
 70
     0
  9
$VISRETAIN
 70
     1
  9
$PLINEGEN
 70
     0
  9
$PSLTSCALE
 70
     1
  9
$TREEDEPTH
 70
  3020
  9
$CMLSTYLE
  2
STANDARD
  9
$CMLJUST
 70
     0
  9
$CMLSCALE
 40
1.0
  9
$PROXYGRAPHICS
 70
     1
  9
$MEASUREMENT
 70
     1
  9
$CELWEIGHT
370
    -1
  9
$ENDCAPS
280
     0
  9
$JOINSTYLE
280
     0
  9
$LWDISPLAY
290
     0
  9
$INSUNITS
 70
     0
  9
$HYPERLINKBASE
  1

  9
$STYLESHEET
  1

  9
$XEDIT
290
     1
  9
$CEPSNTYPE
380
     0
  9
$PSTYLEMODE
290
     1
  9
$FINGERPRINTGUID
  2
{998947FA-07A0-40F6-9ECB-F48566DED67B}
  9
$VERSIONGUID
  2
{B1B95559-06A4-4C9E-9C65-A7B77DFA8556}
  9
$EXTNAMES
290
     1
  9
$PSVPSCALE
 40
0.0
  9
$OLESTARTUP
290
     0
  0
ENDSEC
  0
SECTION
  2
CLASSES
  0
CLASS
  1
ACDBDICTIONARYWDFLT
  2
AcDbDictionaryWithDefault
  3
AutoCAD 2000
 90
        0
280
     0
281
     0
  0
CLASS
  1
ACDBPLACEHOLDER
  2
AcDbPlaceHolder
  3
AutoCAD 2000
 90
        0
280
     0
281
     0
  0
CLASS
  1
LAYOUT
  2
AcDbLayout
  3
AutoCAD 2000
 90
        0
280
     0
281
     0
  0
ENDSEC
  0
SECTION
  2
TABLES
  0
TABLE
  2
VPORT
  5
8
330
0
100
AcDbSymbolTable
 70
     2
  0
VPORT
  5
1165
330
8
100
AcDbSymbolTableRecord
100
AcDbViewportTableRecord
  2
*Active
 70
     0
 10
0.0
 20
0.0
 11
1.0
 21
1.0
 12
21.74518390227905
 22
-4.929831531132265
 13
0.0
 23
0.0
 14
1.0
 24
1.0
 15
0.0
 25
0.0
 16
0.0
 26
0.0
 36
1.0
 17
0.0
 27
0.0
 37
0.0
 40
137.2318526527966
 41
1.539682539682539
 42
50.0
 43
0.0
 44
0.0
 50
0.0
 51
0.0
 71
     0
 72
 20000
 73
     1
 74
     1
 75
     0
 76
     0
 77
     0
 78
     0
281
     0
 65
     1
110
0.0
120
0.0
130
0.0
111
1.0
121
0.0
131
0.0
112
0.0
122
1.0
132
0.0
 79
     0
146
0.0
  0
ENDTAB
  0
TABLE
  2
LTYPE
  5
5
330
0
100
AcDbSymbolTable
 70
     3
  0
LTYPE
  5
14
330
5
100
AcDbSymbolTableRecord
100
AcDbLinetypeTableRecord
  2
BYBLOCK
 70
     0
  3

 72
    65
 73
     0
 40
0.0
  0
LTYPE
  5
15
330
5
100
AcDbSymbolTableRecord
100
AcDbLinetypeTableRecord
  2
BYLAYER
 70
     0
  3

 72
    65
 73
     0
 40
0.0
  0
LTYPE
  5
16
330
5
100
AcDbSymbolTableRecord
100
AcDbLinetypeTableRecord
  2
CONTINUOUS
 70
     0
  3
Solid line
 72
    65
 73
     0
 40
0.0
  0
LTYPE
  5
1F5
330
5
100
AcDbSymbolTableRecord
100
AcDbLinetypeTableRecord
  2
CENTER
 70
     0
  3
____ _ ____ _ ____ _ ____ _ ____ _ ____ _ ____
 72
    65
 73
     4
 40
0.6
 49
0.375
 74
     0
 49
-0.075
 74
     0
 49
0.075
 74
     0
 49
-0.075
 74
     0
  0
LTYPE
  5
1F6
330
5
100
AcDbSymbolTableRecord
100
AcDbLinetypeTableRecord
  2
HIDDEN
 70
     0
  3
- - - - - - - - - - - - - - - - - - - -
 72
    65
 73
     2
 40
0.2
 49
0.1
 74
     0
 49
-0.1
 74
     0
  0
ENDTAB
  0
TABLE
  2
LAYER
  5
2
330
0
100
AcDbSymbolTable
 70
     9
  0
LAYER
  5
10
330
2
100
AcDbSymbolTableRecord
100
AcDbLayerTableRecord
  2
0
 70
     0
 62
     7
  6
CONTINUOUS
370
    -3
390
9BC
  0
LAYER
  5
A3C
330
2
100
AcDbSymbolTableRecord
100
AcDbLayerTableRecord
  2
Defpoints
 70
     0
 62
     7
  6
CONTINUOUS
290
     0
370
    -3
390
9BC
  0
LAYER
  5
A3D
330
2
100
AcDbSymbolTableRecord
100
AcDbLayerTableRecord
  2
1
 70
     0
 62
     4
  6
CONTINUOUS
370
    -3
390
9BC
  0
LAYER
  5
A3E
330
2
100
AcDbSymbolTableRecord
100
AcDbLayerTableRecord
  2
4
 70
     0
 62
     2
  6
CENTER
370
    -3
390
9BC
  0
LAYER
  5
A3F
330
2
100
AcDbSymbolTableRecord
100
AcDbLayerTableRecord
  2
6
 70
     0
 62
     5
  6
CONTINUOUS
370
    -3
390
9BC
  0
LAYER
  5
A40
330
2
100
AcDbSymbolTableRecord
100
AcDbLayerTableRecord
  2
NOCUT
 70
     0
 62
     7
  6
CONTINUOUS
370
    -3
390
9BC
  0
LAYER
  5
A41
330
2
100
AcDbSymbolTableRecord
100
AcDbLayerTableRecord
  2
2
 70
     0
 62
     7
  6
CONTINUOUS
370
    -3
390
9BC
  0
LAYER
  5
A42
330
2
100
AcDbSymbolTableRecord
100
AcDbLayerTableRecord
  2
SK2
 70
     0
 62
     7
  6
CONTINUOUS
370
    -3
390
9BC
  0
LAYER
  5
A43
330
2
100
AcDbSymbolTableRecord
100
AcDbLayerTableRecord
  2
SK3
 70
     0
 62
     1
  6
HIDDEN
370
    -3
390
9BC
  0
ENDTAB
  0
TABLE
  2
STYLE
  5
3
330
0
100
AcDbSymbolTable
 70
     2
  0
STYLE
  5
11
330
3
100
AcDbSymbolTableRecord
100
AcDbTextStyleTableRecord
  2
STANDARD
 70
     0
 40
0.0
 41
0.8
 50
0.0
 71
     0
 42
0.2
  3
txt
  4

  0
STYLE
  5
A44
330
3
100
AcDbSymbolTableRecord
100
AcDbTextStyleTableRecord
  2
isocp
 70
     0
 40
0.0
 41
0.8
 50
0.0
 71
     0
 42
0.2
  3
isocp.shx
  4

  0
ENDTAB
  0
TABLE
  2
VIEW
  5
6
330
0
100
AcDbSymbolTable
 70
     0
  0
ENDTAB
  0
TABLE
  2
UCS
  5
7
330
0
100
AcDbSymbolTable
 70
     0
  0
ENDTAB
  0
TABLE
  2
APPID
  5
9
330
0
100
AcDbSymbolTable
 70
     1
  0
APPID
  5
215
330
9
100
AcDbSymbolTableRecord
100
AcDbRegAppTableRecord
  2
ACAD
 70
     0
  0
ENDTAB
  0
TABLE
  2
DIMSTYLE
  5
A
330
0
100
AcDbSymbolTable
 70
     2
100
AcDbDimStyleTable
 71
     1
340
A45
  0
DIMSTYLE
105
220
330
A
100
AcDbSymbolTableRecord
100
AcDbDimStyleTableRecord
  2
STANDARD
 70
     0
 41
2.5
 47
0.01
 48
0.01
 71
     1
 73
     0
 74
     0
 77
     1
 78
     8
140
3.5
178
     5
271
     3
272
     3
284
     8
340
11
341
216
342
216
343
216
344
216
  0
DIMSTYLE
105
A45
102
{ACAD_REACTORS
330
F7D
330
FBD
330
FBE
330
FC9
330
FCA
330
FCB
330
FFF
330
102F
102
}
330
A
100
AcDbSymbolTableRecord
100
AcDbDimStyleTableRecord
  2
ISO-25
 70
     0
 41
3.5
 42
0.625
 43
3.75
 44
2.0
 73
     0
 74
     0
 77
     1
 78
     8
140
3.5
141
2.5
143
0.03937007874016
147
0.625
171
     3
172
     1
176
   256
177
   256
178
   256
271
     1
272
     1
274
     3
283
     0
284
     8
289
     0
340
A44
  0
ENDTAB
  0
TABLE
  2
BLOCK_RECORD
  5
1
330
0
100
AcDbSymbolTable
 70
    11
  0
BLOCK_RECORD
  5
1F
330
1
100
AcDbSymbolTableRecord
100
AcDbBlockTableRecord
  2
*MODEL_SPACE
340
9BF
  0
BLOCK_RECORD
  5
1B
330
1
100
AcDbSymbolTableRecord
100
AcDbBlockTableRecord
  2
*PAPER_SPACE
340
9C0
  0
BLOCK_RECORD
  5
216
330
1
100
AcDbSymbolTableRecord
100
AcDbBlockTableRecord
  2
_ARROW_FILLED
340
0
102
{BLKREFS
331
677
331
678
331
682
331
683
331
68C
331
68D
331
696
331
697
331
6A2
331
6A3
331
6AB
331
6AC
331
6B4
331
6B5
331
6C0
331
6C1
102
}
  0
BLOCK_RECORD
  5
A29
330
1
100
AcDbSymbolTableRecord
100
AcDbBlockTableRecord
  2
nullpunkt_1
340
0
310
2800000020000000200000000100080000000000000400000000000000000000000000000000000000000000000080000080000000808000800000008000800080800000C0C0C000C0DCC000F0CAA6000020400000206000002080000020A0000020C0000020E00000400000004020000040400000406000004080000040A0
310
000040C0000040E00000600000006020000060400000606000006080000060A0000060C0000060E00000800000008020000080400000806000008080000080A0000080C0000080E00000A0000000A0200000A0400000A0600000A0800000A0A00000A0C00000A0E00000C0000000C0200000C0400000C0600000C0800000C0
310
A00000C0C00000C0E00000E0000000E0200000E0400000E0600000E0800000E0A00000E0C00000E0E00040000000400020004000400040006000400080004000A0004000C0004000E00040200000402020004020400040206000402080004020A0004020C0004020E000404000004040200040404000404060004040800040
310
40A0004040C0004040E00040600000406020004060400040606000406080004060A0004060C0004060E00040800000408020004080400040806000408080004080A0004080C0004080E00040A0000040A0200040A0400040A0600040A0800040A0A00040A0C00040A0E00040C0000040C0200040C0400040C0600040C08000
310
40C0A00040C0C00040C0E00040E0000040E0200040E0400040E0600040E0800040E0A00040E0C00040E0E00080000000800020008000400080006000800080008000A0008000C0008000E00080200000802020008020400080206000802080008020A0008020C0008020E00080400000804020008040400080406000804080
310
008040A0008040C0008040E00080600000806020008060400080606000806080008060A0008060C0008060E00080800000808020008080400080806000808080008080A0008080C0008080E00080A0000080A0200080A0400080A0600080A0800080A0A00080A0C00080A0E00080C0000080C0200080C0400080C0600080C0
310
800080C0A00080C0C00080C0E00080E0000080E0200080E0400080E0600080E0800080E0A00080E0C00080E0E000C0000000C0002000C0004000C0006000C0008000C000A000C000C000C000E000C0200000C0202000C0204000C0206000C0208000C020A000C020C000C020E000C0400000C0402000C0404000C0406000C0
310
408000C040A000C040C000C040E000C0600000C0602000C0604000C0606000C0608000C060A000C060C000C060E000C0800000C0802000C0804000C0806000C0808000C080A000C080C000C080E000C0A00000C0A02000C0A04000C0A06000C0A08000C0A0A000C0A0C000C0A0E000C0C00000C0C02000C0C04000C0C06000
310
C0C08000C0C0A000F0FBFF00A4A0A000808080000000FF0000FF000000FFFF00FF000000FF00FF00FFFF0000FFFFFF0000000000000000000000000000000000000000000000000000000000000000000000000000000000000000000000FEFE0000000000000000000000000000000000000000000000000000FEFEFEFEFE
310
FEFEFE00000000000000000000000000000000000000000000FEFEFEFEFEFE00FE0000FEFE00000000000000000000000000000000000000FEFEFEFE00FE0000FE00000000FEFE00000000000000000000000000000000FEFEFE0000FE000000FE000000000000FEFE00000000000000000000000000FEFE000000FE000000
310
00FE0000000000000000FEFE00000000000000000000FEFE000000FE0000000000FE00000000000000000000FE0000000000000000FEFEFE0000FE000000000000FE00000000000000000000FE0000000000000000FEFE0000FE00000000000000FE0000000000000000000000FE000000000000FEFEFE00FE000000000000
310
0000FE0000000000000000000000FE000000000000FEFE00FE000000000000000000FE000000000000000000000000FE0000000000FEFEFE00000000000000000000FE000000000000000000000000FE0000000000FEFE0000000000000000000000FE00000000000000000000000000FE000000FEFE000000000000000000
310
000000FE00000000000000000000000000FE000000FEFEFEFEFEFEFEFEFEFEFEFEFEFEFEFEFEFEFEFEFEFEFEFEFEFEFEFEFEFE000000FE000000000000000000000000FE00000000000000000000000000FEFE000000FE000000000000000000000000FE000000000000000000000000FEFEFE00000000FE00000000000000
310
00000000FE0000000000000000000000FE00FE0000000000FE0000000000000000000000FE00000000000000000000FE00FEFE000000000000FE00000000000000000000FE000000000000000000FE0000FEFE000000000000FE00000000000000000000FE0000000000000000FE0000FEFEFE00000000000000FE00000000
310
0000000000FE00000000000000FE000000FEFE0000000000000000FE000000000000000000FE000000000000FE000000FEFEFE000000000000000000FE0000000000000000FE0000000000FE00000000FEFE00000000000000000000FE0000000000000000FE00000000FE00000000FEFE000000000000000000000000FEFE
310
000000000000FE000000FE000000FEFEFE000000000000000000000000000000FEFE00000000FE0000FE0000FEFEFEFE000000000000000000000000000000000000FEFE0000FE00FE00FEFEFEFEFE000000000000000000000000000000000000000000FEFEFEFEFEFEFEFEFE000000000000000000000000000000000000
310
00000000000000FEFEFE00000000000000000000000000000000000000000000000000000000000000000000000000000000000000000000
102
{BLKREFS
331
A7F
331
B7F
331
DF5
331
EA5
331
FA7
102
}
  0
BLOCK_RECORD
  5
A32
330
1
100
AcDbSymbolTableRecord
100
AcDbBlockTableRecord
  2
nullpunkt_2
340
0
310
2800000020000000200000000100080000000000000400000000000000000000000000000000000000000000000080000080000000808000800000008000800080800000C0C0C000C0DCC000F0CAA6000020400000206000002080000020A0000020C0000020E00000400000004020000040400000406000004080000040A0
310
000040C0000040E00000600000006020000060400000606000006080000060A0000060C0000060E00000800000008020000080400000806000008080000080A0000080C0000080E00000A0000000A0200000A0400000A0600000A0800000A0A00000A0C00000A0E00000C0000000C0200000C0400000C0600000C0800000C0
310
A00000C0C00000C0E00000E0000000E0200000E0400000E0600000E0800000E0A00000E0C00000E0E00040000000400020004000400040006000400080004000A0004000C0004000E00040200000402020004020400040206000402080004020A0004020C0004020E000404000004040200040404000404060004040800040
310
40A0004040C0004040E00040600000406020004060400040606000406080004060A0004060C0004060E00040800000408020004080400040806000408080004080A0004080C0004080E00040A0000040A0200040A0400040A0600040A0800040A0A00040A0C00040A0E00040C0000040C0200040C0400040C0600040C08000
310
40C0A00040C0C00040C0E00040E0000040E0200040E0400040E0600040E0800040E0A00040E0C00040E0E00080000000800020008000400080006000800080008000A0008000C0008000E00080200000802020008020400080206000802080008020A0008020C0008020E00080400000804020008040400080406000804080
310
008040A0008040C0008040E00080600000806020008060400080606000806080008060A0008060C0008060E00080800000808020008080400080806000808080008080A0008080C0008080E00080A0000080A0200080A0400080A0600080A0800080A0A00080A0C00080A0E00080C0000080C0200080C0400080C0600080C0
310
800080C0A00080C0C00080C0E00080E0000080E0200080E0400080E0600080E0800080E0A00080E0C00080E0E000C0000000C0002000C0004000C0006000C0008000C000A000C000C000C000E000C0200000C0202000C0204000C0206000C0208000C020A000C020C000C020E000C0400000C0402000C0404000C0406000C0
310
408000C040A000C040C000C040E000C0600000C0602000C0604000C0606000C0608000C060A000C060C000C060E000C0800000C0802000C0804000C0806000C0808000C080A000C080C000C080E000C0A00000C0A02000C0A04000C0A06000C0A08000C0A0A000C0A0C000C0A0E000C0C00000C0C02000C0C04000C0C06000
310
C0C08000C0C0A000F0FBFF00A4A0A000808080000000FF0000FF000000FFFF00FF000000FF00FF00FFFF0000FFFFFF0000000000000000000000000000000000000000000000000000000000000000000000000000000000000000000000FEFE0000000000000000000000000000000000000000000000000000FEFEFEFEFE
310
FEFEFE00000000000000000000000000000000000000000000FEFEFEFEFEFE00FE0000FEFE00000000000000000000000000000000000000FEFEFEFE00FE0000FE00000000FEFE00000000000000000000000000000000FEFEFE0000FE000000FE000000000000FEFE00000000000000000000000000FEFE000000FE000000
310
00FE0000000000000000FEFE00000000000000000000FEFE000000FE0000000000FE00000000000000000000FE0000000000000000FEFEFE0000FE000000000000FE00000000000000000000FE0000000000000000FEFE0000FE00000000000000FE0000000000000000000000FE000000000000FEFEFE00FE000000000000
310
0000FE0000000000000000000000FE000000000000FEFE00FE000000000000000000FE000000000000000000000000FE0000000000FEFEFE00000000000000000000FE000000000000000000000000FE0000000000FEFE0000000000000000000000FE00000000000000000000000000FE000000FEFE000000000000000000
310
000000FE00000000000000000000000000FE000000FEFEFEFEFEFEFEFEFEFEFEFEFEFEFEFEFEFEFEFEFEFEFEFEFEFEFEFEFEFE000000FE000000000000000000000000FE00000000000000000000000000FEFE000000FE000000000000000000000000FE000000000000000000000000FEFEFE00000000FE00000000000000
310
00000000FE0000000000000000000000FE00FE0000000000FE0000000000000000000000FE00000000000000000000FE00FEFE000000000000FE00000000000000000000FE000000000000000000FE0000FEFE000000000000FE00000000000000000000FE0000000000000000FE0000FEFEFE00000000000000FE00000000
310
0000000000FE00000000000000FE000000FEFE0000000000000000FE000000000000000000FE000000000000FE000000FEFEFE000000000000000000FE0000000000000000FE0000000000FE00000000FEFE00000000000000000000FE0000000000000000FE00000000FE00000000FEFE000000000000000000000000FEFE
310
000000000000FE000000FE000000FEFEFE000000000000000000000000000000FEFE00000000FE0000FE0000FEFEFEFE000000000000000000000000000000000000FEFE0000FE00FE00FEFEFEFEFE000000000000000000000000000000000000000000FEFEFEFEFEFEFEFEFE000000000000000000000000000000000000
310
00000000000000FEFEFE00000000000000000000000000000000000000000000000000000000000000000000000000000000000000000000
102
{BLKREFS
331
B3F
331
C3F
331
DF9
331
F35
331
1037
102
}
  0
BLOCK_RECORD
  5
1063
330
1
100
AcDbSymbolTableRecord
100
AcDbBlockTableRecord
  2
*D3
340
0
  0
BLOCK_RECORD
  5
106F
330
1
100
AcDbSymbolTableRecord
100
AcDbBlockTableRecord
  2
*D4
340
0
  0
BLOCK_RECORD
  5
107B
330
1
100
AcDbSymbolTableRecord
100
AcDbBlockTableRecord
  2
*D5
340
0
  0
BLOCK_RECORD
  5
1087
330
1
100
AcDbSymbolTableRecord
100
AcDbBlockTableRecord
  2
*D6
340
0
  0
BLOCK_RECORD
  5
1093
330
1
100
AcDbSymbolTableRecord
100
AcDbBlockTableRecord
  2
*D7
340
0
  0
BLOCK_RECORD
  5
109F
330
1
100
AcDbSymbolTableRecord
100
AcDbBlockTableRecord
  2
*D8
340
0
  0
BLOCK_RECORD
  5
10AD
330
1
100
AcDbSymbolTableRecord
100
AcDbBlockTableRecord
  2
*D9
340
0
  0
BLOCK_RECORD
  5
10BB
330
1
100
AcDbSymbolTableRecord
100
AcDbBlockTableRecord
  2
*D10
340
0
  0
ENDTAB
  0
ENDSEC
  0
SECTION
  2
BLOCKS
  0
BLOCK
  5
20
330
1F
100
AcDbEntity
  8
0
100
AcDbBlockBegin
  2
*MODEL_SPACE
 70
     0
 10
0.0
 20
0.0
 30
0.0
  3
*MODEL_SPACE
  1

  0
ENDBLK
  5
21
330
1F
100
AcDbEntity
  8
0
100
AcDbBlockEnd
  0
BLOCK
  5
1C
330
1B
100
AcDbEntity
 67
     1
  8
0
100
AcDbBlockBegin
  2
*PAPER_SPACE
 70
     0
 10
0.0
 20
0.0
 30
0.0
  3
*PAPER_SPACE
  1

  0
ENDBLK
  5
1D
330
1B
100
AcDbEntity
 67
     1
  8
0
100
AcDbBlockEnd
  0
BLOCK
  5
6C3
330
216
100
AcDbEntity
  8
0
100
AcDbBlockBegin
  2
_ARROW_FILLED
 70
     0
 10
0.0
 20
0.0
 30
0.0
  3
_ARROW_FILLED
  1

  0
SOLID
  5
6C4
330
216
100
AcDbEntity
  8
0
  6
ByBlock
 62
     0
100
AcDbTrace
 10
0.0
 20
0.0
 30
0.0
 11
-1.0
 21
0.132
 31
0.0
 12
-1.0
 22
-0.132
 32
0.0
 13
-1.0
 23
-0.132
 33
0.0
  0
ENDBLK
  5
6C5
330
216
100
AcDbEntity
  8
0
  6
ByBlock
 62
     0
100
AcDbBlockEnd
  0
BLOCK
  5
A30
330
A29
100
AcDbEntity
  8
0
100
AcDbBlockBegin
  2
nullpunkt_1
 70
     0
 10
0.0
 20
0.0
 30
0.0
  3
nullpunkt_1
  1

  0
LWPOLYLINE
  5
A2A
102
{ACAD_REACTORS
330
A2B
102
}
330
A29
100
AcDbEntity
  8
1
100
AcDbPolyline
 90
        3
 70
     1
 43
0.0
 10
0.0
 20
2.950972054112752
 10
0.0
 20
0.0
 10
2.950972054112638
 20
0.0
 42
0.4142135623730966
  0
HATCH
  5
A2B
330
A29
100
AcDbEntity
  8
1
100
AcDbHatch
 10
0.0
 20
0.0
 30
0.0
210
0.0
220
0.0
230
1.0
  2
SOLID
 70
     1
 71
     1
 91
        2
 92
        7
 72
     1
 73
     1
 93
        3
 10
0.0
 20
0.0
 42
0.0
 10
2.950972054112638
 20
0.0
 42
0.4142135623730968
 10
0.0
 20
2.950972054112752
 42
0.0
 97
        1
330
A2A
 92
        7
 72
     1
 73
     1
 93
        3
 10
0.0
 20
-2.950972054112412
 42
0.0
 10
0.0
 20
0.0
 42
0.0
 10
-2.950972054112583
 20
0.0
 42
0.4142135623730966
 97
        1
330
A2D
 75
     0
 76
     1
 47
0.1190009775223266
 98
        2
 10
0.7445530588119596
 20
0.9212244733765826
 10
-1.27946460185285
 20
-1.696796923046235
  0
CIRCLE
  5
A2C
330
A29
100
AcDbEntity
  8
1
100
AcDbCircle
 10
0.0
 20
0.0
 30
0.0
 40
2.950972054112601
  0
LWPOLYLINE
  5
A2D
102
{ACAD_REACTORS
330
A2B
102
}
330
A29
100
AcDbEntity
  8
1
100
AcDbPolyline
 90
        3
 70
     1
 43
0.0
 10
0.0
 20
0.0
 10
-2.950972054112583
 20
0.0
 42
0.4142135623730966
 10
0.0
 20
-2.950972054112412
  0
LINE
  5
A2E
330
A29
100
AcDbEntity
  8
1
100
AcDbLine
 10
-2.950972054112752
 20
0.0
 30
0.0
 11
2.950972054112583
 21
0.0
 31
0.0
  0
LINE
  5
A2F
330
A29
100
AcDbEntity
  8
1
100
AcDbLine
 10
0.0
 20
2.950972054112752
 30
0.0
 11
0.0
 21
-2.950972054112412
 31
0.0
  0
ENDBLK
  5
A31
330
A29
100
AcDbEntity
  8
0
100
AcDbBlockEnd
  0
BLOCK
  5
A38
330
A32
100
AcDbEntity
  8
0
100
AcDbBlockBegin
  2
nullpunkt_2
 70
     0
 10
0.0
 20
0.0
 30
0.0
  3
nullpunkt_2
  1

  0
CIRCLE
  5
A33
330
A32
100
AcDbEntity
  8
1
100
AcDbCircle
 10
0.0
 20
0.0
 30
0.0
 40
1.0
  0
HATCH
  5
A34
330
A32
100
AcDbEntity
  8
1
100
AcDbHatch
 10
0.0
 20
0.0
 30
0.0
210
0.0
220
0.0
230
1.0
  2
SOLID
 70
     1
 71
     0
 91
        2
 92
        1
 93
        3
 72
     1
 10
0.0
 20
0.0
 11
-1.0
 21
0.0
 72
     2
 10
0.0
 20
0.0
 40
1.0
 50
180.0
 51
270.0
 73
     1
 72
     1
 10
0.0
 20
-0.9999999999998864
 11
0.0
 21
0.0
 97
        0
 92
        1
 93
        3
 72
     1
 10
0.0
 20
1.000000000000113
 11
0.0
 21
0.0
 72
     1
 10
0.0
 20
0.0
 11
1.0
 21
0.0
 72
     2
 10
0.0
 20
0.0
 40
1.0
 50
0.0
 51
90.0
 73
     1
 97
        0
 75
     0
 76
     1
 98
        1
 10
-109.9295341761981
 20
-32.53620011044962
  0
LINE
  5
A35
330
A32
100
AcDbEntity
  8
1
100
AcDbLine
 10
-1.0
 20
0.0
 30
0.0
 11
1.0
 21
0.0
 31
0.0
  0
LWPOLYLINE
  5
A36
330
A32
100
AcDbEntity
  8
1
100
AcDbPolyline
 90
        3
 70
     1
 43
0.0
 10
0.0
 20
0.0
 10
-1.0
 20
0.0
 42
0.4142135623730951
 10
0.0
 20
-0.9999999999998864
  0
LWPOLYLINE
  5
A37
330
A32
100
AcDbEntity
  8
1
100
AcDbPolyline
 90
        3
 70
     1
 43
0.0
 10
0.0
 20
1.000000000000113
 10
0.0
 20
0.0
 10
1.0
 20
0.0
 42
0.4142135623730951
  0
ENDBLK
  5
A39
330
A32
100
AcDbEntity
  8
0
100
AcDbBlockEnd
  0
BLOCK
  5
106D
330
1063
100
AcDbEntity
  8
0
100
AcDbBlockBegin
  2
*D3
 70
     1
 10
0.0
 20
0.0
 30
0.0
  3
*D3
  1

  0
LINE
  5
10C9
330
1063
100
AcDbEntity
  8
2
370
    -2
100
AcDbLine
 10
80.5
 20
12.25077459640002
 30
0.0
 11
80.5
 21
61.30503825630004
 31
0.0
  0
LINE
  5
10CA
330
1063
100
AcDbEntity
  8
2
370
    -2
100
AcDbLine
 10
0.0000000000000285
 20
24.02033988780002
 30
0.0
 11
0.0000000000000307
 21
61.30503825630004
 31
0.0
  0
LINE
  5
10CB
330
1063
100
AcDbEntity
  8
2
370
    -2
100
AcDbLine
 10
77.0
 20
59.30503825630004
 30
0.0
 11
3.500000000000029
 21
59.30503825630004
 31
0.0
  0
SOLID
  5
10CC
330
1063
100
AcDbEntity
  8
2
100
AcDbTrace
 10
77.0
 20
59.88837158963337
 30
0.0
 11
77.0
 21
58.7217049229667
 31
0.0
 12
80.5
 22
59.30503825630004
 32
0.0
 13
80.5
 23
59.30503825630004
 33
0.0
  0
SOLID
  5
10CD
330
1063
100
AcDbEntity
  8
2
100
AcDbTrace
 10
3.500000000000029
 20
59.88837158963337
 30
0.0
 11
3.500000000000029
 21
58.7217049229667
 31
0.0
 12
0.0000000000000306
 22
59.30503825630004
 32
0.0
 13
0.0000000000000306
 23
59.30503825630004
 33
0.0
  0
MTEXT
  5
10CE
330
1063
100
AcDbEntity
  8
2
100
AcDbMText
 10
38.84952661969998
 20
61.68003825630004
 30
0.0
 40
3.5
 41
0.0
 71
     5
 72
     1
  1
80.5
  7
isocp
 73
     1
 44
1.0
  0
POINT
  5
10CF
330
1063
100
AcDbEntity
  8
Defpoints
 62
     0
100
AcDbPoint
 10
80.5
 20
11.62577459640002
 30
0.0
  0
POINT
  5
10D0
330
1063
100
AcDbEntity
  8
Defpoints
 62
     0
100
AcDbPoint
 10
0.0000000000000284
 20
23.39533988780002
 30
0.0
  0
POINT
  5
10D1
330
1063
100
AcDbEntity
  8
Defpoints
 62
     0
100
AcDbPoint
 10
0.0000000000000306
 20
59.30503825630004
 30
0.0
  0
ENDBLK
  5
106E
330
1063
100
AcDbEntity
  8
0
100
AcDbBlockEnd
  0
BLOCK
  5
1079
330
106F
100
AcDbEntity
  8
0
100
AcDbBlockBegin
  2
*D4
 70
     1
 10
0.0
 20
0.0
 30
0.0
  3
*D4
  1

  0
LINE
  5
1118
330
106F
100
AcDbEntity
  8
SK2
370
    -2
100
AcDbLine
 10
29.38229279719998
 20
-24.74999999999996
 30
0.0
 11
114.8750711334999
 21
-24.74999999999999
 31
0.0
  0
LINE
  5
1119
330
106F
100
AcDbEntity
  8
SK2
370
    -2
100
AcDbLine
 10
29.38229279719998
 20
24.75000000000003
 30
0.0
 11
114.8750711334999
 21
24.75
 31
0.0
  0
LINE
  5
111A
330
106F
100
AcDbEntity
  8
SK2
370
    -2
100
AcDbLine
 10
112.8750711334999
 20
-21.24999999999999
 30
0.0
 11
112.8750711334999
 21
21.25
 31
0.0
  0
SOLID
  5
111B
330
106F
100
AcDbEntity
  8
SK2
100
AcDbTrace
 10
112.2917378001665
 20
-21.24999999999999
 30
0.0
 11
113.4584044668333
 21
-21.24999999999999
 31
0.0
 12
112.8750711334999
 22
-24.74999999999999
 32
0.0
 13
112.8750711334999
 23
-24.74999999999999
 33
0.0
  0
SOLID
  5
111C
330
106F
100
AcDbEntity
  8
SK2
100
AcDbTrace
 10
112.2917378001665
 20
21.25
 30
0.0
 11
113.4584044668333
 21
21.25
 31
0.0
 12
112.8750711334999
 22
24.75
 32
0.0
 13
112.8750711334999
 23
24.75
 33
0.0
  0
MTEXT
  5
111D
330
106F
100
AcDbEntity
  8
SK2
100
AcDbMText
 10
110.5000711334999
 20
0.4876744514999988
 30
0.0
 40
3.5
 41
0.0
 71
     5
 72
     1
  1
%%c49.5
  7
isocp
 11
0.0000000000000001
 21
1.0
 31
0.0
 73
     1
 44
1.0
  0
POINT
  5
111E
330
106F
100
AcDbEntity
  8
Defpoints
 62
     0
100
AcDbPoint
 10
28.75729279719998
 20
-24.74999999999996
 30
0.0
  0
POINT
  5
111F
330
106F
100
AcDbEntity
  8
Defpoints
 62
     0
100
AcDbPoint
 10
28.75729279719998
 20
24.75000000000003
 30
0.0
  0
POINT
  5
1120
330
106F
100
AcDbEntity
  8
Defpoints
 62
     0
100
AcDbPoint
 10
112.8750711334999
 20
24.75
 30
0.0
  0
ENDBLK
  5
107A
330
106F
100
AcDbEntity
  8
0
100
AcDbBlockEnd
  0
BLOCK
  5
1085
330
107B
100
AcDbEntity
  8
0
100
AcDbBlockBegin
  2
*D5
 70
     1
 10
0.0
 20
0.0
 30
0.0
  3
*D5
  1

  0
LINE
  5
1121
330
107B
100
AcDbEntity
  8
SK2
370
    -2
100
AcDbLine
 10
80.5
 20
13.12500000000001
 30
0.0
 11
80.5
 21
51.30503825630004
 31
0.0
  0
LINE
  5
1122
330
107B
100
AcDbEntity
  8
SK2
370
    -2
100
AcDbLine
 10
50.50000000000003
 20
15.12500000000001
 30
0.0
 11
50.50000000000003
 21
51.30503825630004
 31
0.0
  0
LINE
  5
1123
330
107B
100
AcDbEntity
  8
SK2
370
    -2
100
AcDbLine
 10
77.0
 20
49.30503825630004
 30
0.0
 11
54.00000000000003
 21
49.30503825630004
 31
0.0
  0
SOLID
  5
1124
330
107B
100
AcDbEntity
  8
SK2
100
AcDbTrace
 10
77.0
 20
49.88837158963337
 30
0.0
 11
77.0
 21
48.7217049229667
 31
0.0
 12
80.5
 22
49.30503825630004
 32
0.0
 13
80.5
 23
49.30503825630004
 33
0.0
  0
SOLID
  5
1125
330
107B
100
AcDbEntity
  8
SK2
100
AcDbTrace
 10
54.00000000000003
 20
49.88837158963337
 30
0.0
 11
54.00000000000003
 21
48.7217049229667
 31
0.0
 12
50.50000000000003
 22
49.30503825630004
 32
0.0
 13
50.50000000000003
 23
49.30503825630004
 33
0.0
  0
MTEXT
  5
1126
330
107B
100
AcDbEntity
  8
SK2
100
AcDbMText
 10
65.71403030160003
 20
51.68003825630004
 30
0.0
 40
3.5
 41
0.0
 71
     5
 72
     1
  1
30
  7
isocp
 73
     1
 44
1.0
  0
POINT
  5
1127
330
107B
100
AcDbEntity
  8
Defpoints
 62
     0
100
AcDbPoint
 10
80.5
 20
12.50000000000001
 30
0.0
  0
POINT
  5
1128
330
107B
100
AcDbEntity
  8
Defpoints
 62
     0
100
AcDbPoint
 10
50.50000000000003
 20
14.50000000000001
 30
0.0
  0
POINT
  5
1129
330
107B
100
AcDbEntity
  8
Defpoints
 62
     0
100
AcDbPoint
 10
50.50000000000003
 20
49.30503825630004
 30
0.0
  0
ENDBLK
  5
1086
330
107B
100
AcDbEntity
  8
0
100
AcDbBlockEnd
  0
BLOCK
  5
1091
330
1087
100
AcDbEntity
  8
0
100
AcDbBlockBegin
  2
*D6
 70
     1
 10
0.0
 20
0.0
 30
0.0
  3
*D6
  1

  0
LINE
  5
112A
330
1087
100
AcDbEntity
  8
SK2
370
    -2
100
AcDbLine
 10
80.5
 20
-12.70545018439998
 30
0.0
 11
80.5
 21
-56.13953498259996
 31
0.0
  0
LINE
  5
112B
330
1087
100
AcDbEntity
  8
SK2
370
    -2
100
AcDbLine
 10
43.50000000000003
 20
-2.683665841999982
 30
0.0
 11
43.50000000000003
 21
-56.13953498259996
 31
0.0
  0
LINE
  5
112C
330
1087
100
AcDbEntity
  8
SK2
370
    -2
100
AcDbLine
 10
77.0
 20
-54.13953498259996
 30
0.0
 11
47.00000000000001
 21
-54.13953498259996
 31
0.0
  0
SOLID
  5
112D
330
1087
100
AcDbEntity
  8
SK2
100
AcDbTrace
 10
77.0
 20
-53.55620164926663
 30
0.0
 11
77.0
 21
-54.72286831593329
 31
0.0
 12
80.5
 22
-54.13953498259996
 32
0.0
 13
80.5
 23
-54.13953498259996
 33
0.0
  0
SOLID
  5
112E
330
1087
100
AcDbEntity
  8
SK2
100
AcDbTrace
 10
47.00000000000001
 20
-53.55620164926663
 30
0.0
 11
47.00000000000001
 21
-54.72286831593329
 31
0.0
 12
43.50000000000003
 22
-54.13953498259996
 32
0.0
 13
43.50000000000003
 23
-54.13953498259996
 33
0.0
  0
MTEXT
  5
112F
330
1087
100
AcDbEntity
  8
SK2
100
AcDbMText
 10
61.69799751359999
 20
-51.76453498259996
 30
0.0
 40
3.5
 41
0.0
 71
     5
 72
     1
  1
37
  7
isocp
 73
     1
 44
1.0
  0
POINT
  5
1130
330
1087
100
AcDbEntity
  8
Defpoints
 62
     0
100
AcDbPoint
 10
80.5
 20
-12.08045018439998
 30
0.0
  0
POINT
  5
1131
330
1087
100
AcDbEntity
  8
Defpoints
 62
     0
100
AcDbPoint
 10
43.50000000000003
 20
-2.058665841999982
 30
0.0
  0
POINT
  5
1132
330
1087
100
AcDbEntity
  8
Defpoints
 62
     0
100
AcDbPoint
 10
43.50000000000003
 20
-54.13953498259996
 30
0.0
  0
ENDBLK
  5
1092
330
1087
100
AcDbEntity
  8
0
100
AcDbBlockEnd
  0
BLOCK
  5
109D
330
1093
100
AcDbEntity
  8
0
100
AcDbBlockBegin
  2
*D7
 70
     1
 10
0.0
 20
0.0
 30
0.0
  3
*D7
  1

  0
LINE
  5
1133
330
1093
100
AcDbEntity
  8
SK2
370
    -2
100
AcDbLine
 10
70.28243636079998
 20
-13.99999999999997
 30
0.0
 11
104.8750711335
 21
-13.99999999999998
 31
0.0
  0
LINE
  5
1134
330
1093
100
AcDbEntity
  8
SK2
370
    -2
100
AcDbLine
 10
70.28243636079998
 20
14.00000000000003
 30
0.0
 11
104.8750711335
 21
14.00000000000002
 31
0.0
  0
LINE
  5
1135
330
1093
100
AcDbEntity
  8
SK2
370
    -2
100
AcDbLine
 10
102.8750711335
 20
-10.49999999999998
 30
0.0
 11
102.8750711335
 21
10.50000000000002
 31
0.0
  0
SOLID
  5
1136
330
1093
100
AcDbEntity
  8
SK2
100
AcDbTrace
 10
102.2917378001665
 20
-10.49999999999998
 30
0.0
 11
103.4584044668332
 21
-10.49999999999998
 31
0.0
 12
102.8750711335
 22
-13.99999999999998
 32
0.0
 13
102.8750711335
 23
-13.99999999999998
 33
0.0
  0
SOLID
  5
1137
330
1093
100
AcDbEntity
  8
SK2
100
AcDbTrace
 10
102.2917378001665
 20
10.50000000000002
 30
0.0
 11
103.4584044668332
 21
10.50000000000002
 31
0.0
 12
102.8750711335
 22
14.00000000000002
 32
0.0
 13
102.8750711335
 23
14.00000000000002
 33
0.0
  0
MTEXT
  5
1138
330
1093
100
AcDbEntity
  8
SK2
100
AcDbMText
 10
100.4997266453109
 20
-0.3087397400999801
 30
0.0
 40
3.5
 41
0.0
 71
     5
 72
     1
  1
%%c28
  7
isocp
 11
0.0000000000000001
 21
1.0
 31
0.0
 73
     1
 44
1.0
  0
POINT
  5
1139
330
1093
100
AcDbEntity
  8
Defpoints
 62
     0
100
AcDbPoint
 10
69.65743636079998
 20
-13.99999999999997
 30
0.0
  0
POINT
  5
113A
330
1093
100
AcDbEntity
  8
Defpoints
 62
     0
100
AcDbPoint
 10
69.65743636079998
 20
14.00000000000003
 30
0.0
  0
POINT
  5
113B
330
1093
100
AcDbEntity
  8
Defpoints
 62
     0
100
AcDbPoint
 10
102.8750711335
 20
14.00000000000002
 30
0.0
  0
ENDBLK
  5
109E
330
1093
100
AcDbEntity
  8
0
100
AcDbBlockEnd
  0
BLOCK
  5
10AB
330
109F
100
AcDbEntity
  8
0
100
AcDbBlockBegin
  2
*D8
 70
     1
 10
0.0
 20
0.0
 30
0.0
  3
*D8
  1

  0
LINE
  5
113C
330
109F
100
AcDbEntity
  8
SK2
370
    -2
100
AcDbLine
 10
43.50000000000003
 20
-3.124999999999971
 30
0.0
 11
43.50000000000003
 21
-46.13953498259996
 31
0.0
  0
LINE
  5
113D
330
109F
100
AcDbEntity
  8
SK2
370
    -2
100
AcDbLine
 10
53.50000000000003
 20
-6.124999999999971
 30
0.0
 11
53.50000000000003
 21
-46.13953498259996
 31
0.0
  0
LINE
  5
113E
330
109F
100
AcDbEntity
  8
SK2
370
    -2
100
AcDbLine
 10
40.00000000000002
 20
-44.13953498259996
 30
0.0
 11
36.50000000000003
 21
-44.13953498259996
 31
0.0
  0
LINE
  5
113F
330
109F
100
AcDbEntity
  8
SK2
370
    -2
100
AcDbLine
 10
57.00000000000002
 20
-44.13953498259996
 30
0.0
 11
60.50000000000003
 21
-44.13953498259996
 31
0.0
  0
LINE
  5
1140
330
109F
100
AcDbEntity
  8
SK2
370
    -2
100
AcDbLine
 10
43.50000000000003
 20
-44.13953498259996
 30
0.0
 11
53.50000000000003
 21
-44.13953498259996
 31
0.0
  0
SOLID
  5
1141
330
109F
100
AcDbEntity
  8
SK2
100
AcDbTrace
 10
40.00000000000002
 20
-43.55620164926663
 30
0.0
 11
40.00000000000002
 21
-44.72286831593329
 31
0.0
 12
43.50000000000003
 22
-44.13953498259996
 32
0.0
 13
43.50000000000003
 23
-44.13953498259996
 33
0.0
  0
SOLID
  5
1142
330
109F
100
AcDbEntity
  8
SK2
100
AcDbTrace
 10
57.00000000000002
 20
-43.55620164926663
 30
0.0
 11
57.00000000000002
 21
-44.72286831593329
 31
0.0
 12
53.50000000000003
 22
-44.13953498259996
 32
0.0
 13
53.50000000000003
 23
-44.13953498259996
 33
0.0
  0
MTEXT
  5
1143
330
109F
100
AcDbEntity
  8
SK2
100
AcDbMText
 10
48.29393755949999
 20
-41.76453498259997
 30
0.0
 40
3.5
 41
0.0
 71
     5
 72
     1
  1
10
  7
isocp
 73
     1
 44
1.0
  0
POINT
  5
1144
330
109F
100
AcDbEntity
  8
Defpoints
 62
     0
100
AcDbPoint
 10
43.50000000000003
 20
-2.49999999999997
 30
0.0
  0
POINT
  5
1145
330
109F
100
AcDbEntity
  8
Defpoints
 62
     0
100
AcDbPoint
 10
53.50000000000003
 20
-5.499999999999971
 30
0.0
  0
POINT
  5
1146
330
109F
100
AcDbEntity
  8
Defpoints
 62
     0
100
AcDbPoint
 10
53.50000000000003
 20
-44.13953498259996
 30
0.0
  0
ENDBLK
  5
10AC
330
109F
100
AcDbEntity
  8
0
100
AcDbBlockEnd
  0
BLOCK
  5
10B9
330
10AD
100
AcDbEntity
  8
0
100
AcDbBlockBegin
  2
*D9
 70
     1
 10
0.0
 20
0.0
 30
0.0
  3
*D9
  1

  0
LINE
  5
1147
330
10AD
100
AcDbEntity
  8
SK2
370
    -2
100
AcDbLine
 10
32.11117288590003
 20
3.000000000000028
 30
0.0
 11
30.11117288590003
 21
3.000000000000028
 31
0.0
  0
LINE
  5
1148
330
10AD
100
AcDbEntity
  8
SK2
370
    -2
100
AcDbLine
 10
32.11117288590003
 20
-2.999999999999971
 30
0.0
 11
30.11117288590003
 21
-2.999999999999971
 31
0.0
  0
LINE
  5
1149
330
10AD
100
AcDbEntity
  8
SK2
370
    -2
100
AcDbLine
 10
32.11117288590003
 20
-6.499999999999971
 30
0.0
 11
32.11117288590003
 21
-9.999999999999973
 31
0.0
  0
LINE
  5
114A
330
10AD
100
AcDbEntity
  8
SK2
370
    -2
100
AcDbLine
 10
32.11117288590003
 20
6.500000000000027
 30
0.0
 11
32.11117288590003
 21
15.02889763779532
 31
0.0
  0
LINE
  5
114B
330
10AD
100
AcDbEntity
  8
SK2
370
    -2
100
AcDbLine
 10
32.11117288590003
 20
-2.999999999999971
 30
0.0
 11
32.11117288590003
 21
3.000000000000028
 31
0.0
  0
SOLID
  5
114C
330
10AD
100
AcDbEntity
  8
SK2
100
AcDbTrace
 10
31.5278395525667
 20
-6.499999999999971
 30
0.0
 11
32.69450621923336
 21
-6.499999999999971
 31
0.0
 12
32.11117288590003
 22
-2.999999999999971
 32
0.0
 13
32.11117288590003
 23
-2.999999999999971
 33
0.0
  0
SOLID
  5
114D
330
10AD
100
AcDbEntity
  8
SK2
100
AcDbTrace
 10
31.5278395525667
 20
6.500000000000027
 30
0.0
 11
32.69450621923336
 21
6.500000000000027
 31
0.0
 12
32.11117288590003
 22
3.000000000000028
 32
0.0
 13
32.11117288590003
 23
3.000000000000028
 33
0.0
  0
MTEXT
  5
114E
330
10AD
100
AcDbEntity
  8
SK2
100
AcDbMText
 10
29.73617288590002
 20
12.5144488188977
 30
0.0
 40
3.5
 41
0.0
 71
     5
 72
     1
  1
M6
  7
isocp
 11
0.0000000000000001
 21
1.0
 31
0.0
 73
     1
 44
1.0
  0
POINT
  5
114F
330
10AD
100
AcDbEntity
  8
Defpoints
 62
     0
100
AcDbPoint
 10
32.73617288590003
 20
3.000000000000028
 30
0.0
  0
POINT
  5
1150
330
10AD
100
AcDbEntity
  8
Defpoints
 62
     0
100
AcDbPoint
 10
32.73617288590003
 20
-2.999999999999971
 30
0.0
  0
POINT
  5
1151
330
10AD
100
AcDbEntity
  8
Defpoints
 62
     0
100
AcDbPoint
 10
32.11117288590003
 20
-2.999999999999971
 30
0.0
  0
ENDBLK
  5
10BA
330
10AD
100
AcDbEntity
  8
0
100
AcDbBlockEnd
  0
BLOCK
  5
10C7
330
10BB
100
AcDbEntity
  8
0
100
AcDbBlockBegin
  2
*D10
 70
     1
 10
0.0
 20
0.0
 30
0.0
  3
*D10
  1

  0
LINE
  5
1152
330
10BB
100
AcDbEntity
  8
SK2
370
    -2
100
AcDbLine
 10
81.62499999999999
 20
-3.999999999999971
 30
0.0
 11
94.8750711335
 21
-3.999999999999975
 31
0.0
  0
LINE
  5
1153
330
10BB
100
AcDbEntity
  8
SK2
370
    -2
100
AcDbLine
 10
81.62499999999999
 20
4.000000000000028
 30
0.0
 11
94.8750711335
 21
4.000000000000023
 31
0.0
  0
LINE
  5
1154
330
10BB
100
AcDbEntity
  8
SK2
370
    -2
100
AcDbLine
 10
92.87507113350001
 20
7.500000000000023
 30
0.0
 11
92.87507113350001
 21
11.00000000000002
 31
0.0
  0
LINE
  5
1155
330
10BB
100
AcDbEntity
  8
SK2
370
    -2
100
AcDbLine
 10
92.87507113350001
 20
-7.499999999999975
 30
0.0
 11
92.87507113350001
 21
-15.88999999999997
 31
0.0
  0
LINE
  5
1156
330
10BB
100
AcDbEntity
  8
SK2
370
    -2
100
AcDbLine
 10
92.87507113350001
 20
4.000000000000023
 30
0.0
 11
92.87507113350001
 21
-3.999999999999975
 31
0.0
  0
SOLID
  5
1157
330
10BB
100
AcDbEntity
  8
SK2
100
AcDbTrace
 10
92.29173780016669
 20
7.500000000000023
 30
0.0
 11
93.45840446683331
 21
7.500000000000023
 31
0.0
 12
92.87507113350001
 22
4.000000000000023
 32
0.0
 13
92.87507113350001
 23
4.000000000000023
 33
0.0
  0
SOLID
  5
1158
330
10BB
100
AcDbEntity
  8
SK2
100
AcDbTrace
 10
92.29173780016669
 20
-7.499999999999975
 30
0.0
 11
93.45840446683331
 21
-7.499999999999975
 31
0.0
 12
92.87507113350001
 22
-3.999999999999975
 32
0.0
 13
92.87507113350001
 23
-3.999999999999975
 33
0.0
  0
MTEXT
  5
1159
330
10BB
100
AcDbEntity
  8
SK2
100
AcDbMText
 10
90.5000711335
 20
-13.44499999999996
 30
0.0
 40
3.5
 41
0.0
 71
     5
 72
     1
  1
%%c8
  7
isocp
 11
0.0000000000000001
 21
1.0
 31
0.0
 73
     1
 44
1.0
  0
POINT
  5
115A
330
10BB
100
AcDbEntity
  8
Defpoints
 62
     0
100
AcDbPoint
 10
81.0
 20
-3.999999999999971
 30
0.0
  0
POINT
  5
115B
330
10BB
100
AcDbEntity
  8
Defpoints
 62
     0
100
AcDbPoint
 10
81.0
 20
4.000000000000028
 30
0.0
  0
POINT
  5
115C
330
10BB
100
AcDbEntity
  8
Defpoints
 62
     0
100
AcDbPoint
 10
92.87507113350001
 20
4.000000000000023
 30
0.0
  0
ENDBLK
  5
10C8
330
10BB
100
AcDbEntity
  8
0
100
AcDbBlockEnd
  0
ENDSEC
  0
SECTION
  2
ENTITIES
  0
LINE
  5
F64
330
1F
100
AcDbEntity
  8
NOCUT
100
AcDbLine
 10
7.852499999999962
 20
31.77499999999996
 30
0.0
 11
9.224999999999909
 21
29.39776026659996
 31
0.0
  0
LINE
  5
F65
330
1F
100
AcDbEntity
  8
NOCUT
100
AcDbLine
 10
80.5
 20
0.0
 30
0.0
 11
0.0
 21
0.0
 31
0.0
  0
LINE
  5
F66
330
1F
100
AcDbEntity
  8
4
100
AcDbLine
 10
11.17039742769998
 20
21.91871631250001
 30
0.0
 11
2.022063120500007
 21
28.32501176280001
 31
0.0
  0
LINE
  5
F67
330
1F
100
AcDbEntity
  8
4
100
AcDbLine
 10
11.17039742769998
 20
-21.91871631249994
 30
0.0
 11
2.022063120500007
 21
-28.32501176279996
 31
0.0
  0
LINE
  5
F68
330
1F
100
AcDbEntity
  8
4
100
AcDbLine
 10
83.50007168389998
 20
0.0000000000000284
 30
0.0
 11
-71.4
 21
0.0000000000000284
 31
0.0
  0
LINE
  5
F69
330
1F
100
AcDbEntity
  8
4
100
AcDbLine
 10
-16.60366168368351
 20
-2.49999999999997
 30
0.0
 11
11.17039742769998
 21
-21.91871631249994
 31
0.0
  0
LINE
  5
F6A
330
1F
100
AcDbEntity
  8
4
100
AcDbLine
 10
-16.60366168376586
 20
2.5
 30
0.0
 11
11.17039742769998
 21
21.91871631250001
 31
0.0
  0
LINE
  5
F6B
330
1F
100
AcDbEntity
  8
SK3
100
AcDbLine
 10
11.14969137309998
 20
24.37483587440002
 30
0.0
 11
5.898165026800028
 21
28.05231728350003
 31
0.0
  0
LINE
  5
F6C
330
1F
100
AcDbEntity
  8
SK3
100
AcDbLine
 10
6.18497015180003
 20
28.46188146690002
 30
0.0
 11
10.28061198529998
 21
25.59383021700003
 31
0.0
  0
LINE
  5
F6D
330
1F
100
AcDbEntity
  8
SK3
100
AcDbLine
 10
7.717264717184917
 20
21.93331253790003
 30
0.0
 11
10.28061198529998
 21
25.59383021700003
 31
0.0
  0
LINE
  5
F6E
330
1F
100
AcDbEntity
  8
SK3
100
AcDbLine
 10
7.662865645700009
 20
21.93331253790003
 30
0.0
 11
11.14969137309995
 21
21.93331253790003
 31
0.0
  0
LINE
  5
F6F
330
1F
100
AcDbEntity
  8
SK3
100
AcDbLine
 10
7.662865645700009
 20
-21.93331253789998
 30
0.0
 11
11.14969137309995
 21
-21.93331253789998
 31
0.0
  0
LINE
  5
F70
330
1F
100
AcDbEntity
  8
SK3
100
AcDbLine
 10
6.18497015180003
 20
-28.46188146689996
 30
0.0
 11
10.28061198529998
 21
-25.59383021699996
 31
0.0
  0
LINE
  5
F71
330
1F
100
AcDbEntity
  8
SK3
100
AcDbLine
 10
11.14969137309998
 20
-24.37483587439996
 30
0.0
 11
5.898165026800028
 21
-28.05231728349997
 31
0.0
  0
LINE
  5
F72
330
1F
100
AcDbEntity
  8
SK3
100
AcDbLine
 10
-22.84811181019998
 20
2.5
 30
0.0
 11
43.00000000000003
 21
2.500000000000028
 31
0.0
  0
LINE
  5
F73
330
1F
100
AcDbEntity
  8
SK3
100
AcDbLine
 10
-22.84811181019998
 20
-2.49999999999997
 30
0.0
 11
43.00000000000003
 21
-2.49999999999997
 31
0.0
  0
LINE
  5
F74
330
1F
100
AcDbEntity
  8
SK3
100
AcDbLine
 10
7.717264717184917
 20
-21.93331253789998
 30
0.0
 11
10.28061198529998
 21
-25.59383021699996
 31
0.0
  0
LINE
  5
F75
330
1F
100
AcDbEntity
  8
SK3
100
AcDbLine
 10
-13.1167888665
 20
-2.49999999999997
 30
0.0
 11
18.81598291340003
 21
-24.85976604389998
 31
0.0
  0
LINE
  5
F76
330
1F
100
AcDbEntity
  8
SK3
100
AcDbLine
 10
18.81598291340003
 20
24.85976604390003
 30
0.0
 11
-13.1167888665
 21
2.500000000000028
 31
0.0
  0
LINE
  5
F77
330
1F
100
AcDbEntity
  8
1
100
AcDbLine
 10
7.852500000000018
 20
31.77500000000003
 30
0.0
 11
9.225000000000024
 21
29.39776026660002
 31
0.0
  0
SPLINE
  5
F78
330
1F
100
AcDbEntity
  8
1
100
AcDbSpline
210
0.0
220
0.0
230
1.0
 70
     8
 71
     3
 72
    10
 73
     6
 74
     4
 42
0.0000000001
 43
0.0000000001
 44
0.0000000001
 12
-0.4093743989143582
 22
-0.9123664842120779
 32
0.0
 13
-0.4249194534150649
 23
-0.9052311628028736
 33
0.0
 40
0.0
 40
0.0
 40
0.0
 40
0.0
 40
1.064064352752377
 40
2.159673088170328
 40
3.287502624669368
 40
3.287502624669368
 40
3.287502624669368
 40
3.287502624669368
 10
9.225000000000024
 20
-22.84684461129998
 30
0.0
 10
9.079799765061958
 20
-23.17045016213201
 30
0.0
 10
8.783031496377297
 20
-23.82633066870653
 30
0.0
 10
8.325446533854792
 20
-24.8220616849968
 30
0.0
 10
8.012245570064864
 20
-25.49378262597715
 30
0.0
 10
7.852500000000018
 20
-25.83409810689996
 30
0.0
 11
9.225000000000024
 21
-22.84684461129998
 31
0.0
 11
8.786435181299991
 21
-23.81632583679996
 31
0.0
 11
8.3290275226
 21
-24.81188434079996
 31
0.0
 11
7.852500000000018
 21
-25.83409810689996
 31
0.0
  0
LINE
  5
F79
330
1F
100
AcDbEntity
  8
1
100
AcDbLine
 10
7.852500000000018
 20
-31.77499999999996
 30
0.0
 11
9.225000000000024
 21
-29.39776026659996
 31
0.0
  0
LINE
  5
F7A
330
1F
100
AcDbEntity
  8
1
100
AcDbLine
 10
3.200000000000017
 20
8.050000000000039
 30
0.0
 11
19.10000000000001
 21
8.050000000000039
 31
0.0
  0
LINE
  5
F7B
330
1F
100
AcDbEntity
  8
1
100
AcDbLine
 10
3.200000000000017
 20
-8.049999999999952
 30
0.0
 11
19.10000000000001
 21
-8.049999999999952
 31
0.0
  0
LINE
  5
F7C
330
1F
100
AcDbEntity
  8
1
100
AcDbLine
 10
3.200000000000017
 20
-18.49999999999996
 30
0.0
 11
19.10000000000001
 21
-18.49999999999996
 31
0.0
  0
DIMENSION
  5
F7D
330
1F
100
AcDbEntity
  8
2
100
AcDbDimension
  2
*D3
 10
0.0000000000000306
 20
59.30503825630004
 30
0.0
 11
38.84952661969998
 21
59.30503825630004
 31
0.0
 70
   160
 71
     5
 42
80.49999999999997
  3
ISO-25
100
AcDbAlignedDimension
 13
80.5
 23
11.62577459640002
 33
0.0
 14
0.0000000000000284
 24
23.39533988780002
 34
0.0
 50
180.0
100
AcDbRotatedDimension
  0
TEXT
  5
F7E
330
1F
100
AcDbEntity
  8
6
100
AcDbText
 10
1.513019765399711
 20
-73.10896515402244
 30
0.0
 40
3.5
  1
69871A40HC08SA080-G2
 41
0.8
  7
isocp
 72
     1
 11
21.95821497769798
 21
-73.10896515402244
 31
0.0
100
AcDbText
  0
LINE
  5
F7F
330
1F
100
AcDbEntity
  8
NOCUT
100
AcDbLine
 10
0.0
 20
0.0
 30
0.0
 11
-0.0000000000001137
 21
22.19900607378963
 31
0.0
  0
LINE
  5
F80
330
1F
100
AcDbEntity
  8
SK3
100
AcDbLine
 10
7.662865645700009
 20
21.93331253790003
 30
0.0
 11
-20.09053450089998
 21
2.500000000000028
 31
0.0
  0
LINE
  5
F81
330
1F
100
AcDbEntity
  8
1
100
AcDbLine
 10
-0.7999999999999829
 20
22.10829262149998
 30
0.0
 11
-67.37322744119999
 21
12.3963090553
 31
0.0
  0
LINE
  5
F82
330
1F
100
AcDbEntity
  8
1
100
AcDbLine
 10
7.852500000000018
 20
8.050000000000039
 30
0.0
 11
7.852500000000018
 21
31.77500000000003
 31
0.0
  0
LINE
  5
F83
330
1F
100
AcDbEntity
  8
1
100
AcDbLine
 10
3.200000000000017
 20
-30.17499999999994
 30
0.0
 11
3.200000000000017
 21
30.12632953350001
 31
0.0
  0
LINE
  5
F84
330
1F
100
AcDbEntity
  8
1
100
AcDbLine
 10
0.3196152423000171
 20
21.80829262150001
 30
0.0
 11
0.3196152423000171
 21
-21.80829262149996
 31
0.0
  0
LINE
  5
F85
330
1F
100
AcDbEntity
  8
1
100
AcDbLine
 10
-0.7999999999999829
 20
-22.10829262149996
 30
0.0
 11
-0.7999999999999829
 21
22.10829262149998
 31
0.0
  0
LINE
  5
F86
330
1F
100
AcDbEntity
  8
SK3
100
AcDbLine
 10
-36.19999999999999
 20
8.000000000000026
 30
0.0
 11
-60.19999999999999
 21
8.000000000000026
 31
0.0
  0
LINE
  5
F87
330
1F
100
AcDbEntity
  8
SK3
100
AcDbLine
 10
-25.39999999999996
 20
6.920000000000044
 30
0.0
 11
-60.19999999999999
 21
6.920000000000044
 31
0.0
  0
LINE
  5
F88
330
1F
100
AcDbEntity
  8
SK3
100
AcDbLine
 10
-25.39999999999996
 20
-6.919999999999959
 30
0.0
 11
-60.19999999999999
 21
-6.919999999999959
 31
0.0
  0
LINE
  5
F89
330
1F
100
AcDbEntity
  8
SK3
100
AcDbLine
 10
-36.19999999999999
 20
-7.999999999999971
 30
0.0
 11
-60.19999999999999
 21
-7.999999999999971
 31
0.0
  0
LINE
  5
F8A
330
1F
100
AcDbEntity
  8
1
100
AcDbLine
 10
-0.7999999999999829
 20
-22.10829262149996
 30
0.0
 11
-67.37322744119999
 21
-12.39630905529998
 31
0.0
  0
LINE
  5
F8B
330
1F
100
AcDbEntity
  8
SK3
100
AcDbLine
 10
-60.19999999999999
 20
-8.499323850699964
 30
0.0
 11
-60.19999999999999
 21
8.499323850700022
 31
0.0
  0
LINE
  5
F8C
330
1F
100
AcDbEntity
  8
1
100
AcDbLine
 10
-68.4
 20
11.20887810840001
 30
0.0
 11
-68.4
 21
-11.20887810839997
 31
0.0
  0
LINE
  5
F8D
330
1F
100
AcDbEntity
  8
SK3
100
AcDbLine
 10
-60.19999999999999
 20
-8.499999999999971
 30
0.0
 11
-67.40000000000001
 21
-8.499999999999971
 31
0.0
  0
ARC
  5
F8E
330
1F
100
AcDbEntity
  8
SK3
100
AcDbCircle
 10
-67.40000000000001
 20
-9.499999999999973
 30
0.0
 40
1.0
100
AcDbArc
 50
90.0
 51
179.9999999351993
  0
ARC
  5
F8F
330
1F
100
AcDbEntity
  8
1
100
AcDbCircle
 10
-67.19999999999997
 20
-11.20887810839997
 30
0.0
 40
1.199999999999999
100
AcDbArc
 50
180.0
 51
261.7000000000007
  0
LINE
  5
F90
330
1F
100
AcDbEntity
  8
SK3
100
AcDbLine
 10
-60.19999999999999
 20
8.500000000000026
 30
0.0
 11
-67.40000000000001
 21
8.500000000000026
 31
0.0
  0
ARC
  5
F91
330
1F
100
AcDbEntity
  8
SK3
100
AcDbCircle
 10
-67.40000000000001
 20
9.500000000000026
 30
0.0
 40
1.0
100
AcDbArc
 50
180.0000000648006
 51
270.0
  0
ARC
  5
F92
330
1F
100
AcDbEntity
  8
1
100
AcDbCircle
 10
-67.19999999999997
 20
11.20887810840001
 30
0.0
 40
1.199999999999999
100
AcDbArc
 50
98.29999999999918
 51
180.0
  0
TEXT
  5
F93
330
1F
100
AcDbEntity
  8
6
100
AcDbText
 10
-53.07650618007198
 20
-61.81987444873715
 30
0.0
 40
3.5
  1
DIN69871-A 40
 41
0.8
  7
isocp
 72
     1
 11
-40.89051175517528
 21
-61.81987444873715
 31
0.0
100
AcDbText
  0
LINE
  5
F94
330
1F
100
AcDbEntity
  8
SK3
100
AcDbLine
 10
-22.84811181019998
 20
2.500000000000028
 30
0.0
 11
-25.39999999999996
 21
6.920000000000044
 31
0.0
  0
LINE
  5
F95
330
1F
100
AcDbEntity
  8
SK3
100
AcDbLine
 10
-22.84811181019998
 20
-2.49999999999997
 30
0.0
 11
-25.39999999999996
 21
-6.919999999999959
 31
0.0
  0
LINE
  5
F96
330
1F
100
AcDbEntity
  8
SK3
100
AcDbLine
 10
-25.39999999999996
 20
6.920000000000044
 30
0.0
 11
-25.39999999999996
 21
-6.919999999999959
 31
0.0
  0
LINE
  5
F97
330
1F
100
AcDbEntity
  8
SK3
100
AcDbLine
 10
-36.19999999999999
 20
8.000000000000026
 30
0.0
 11
-36.19999999999999
 21
-7.999999999999971
 31
0.0
  0
LINE
  5
F98
330
1F
100
AcDbEntity
  8
SK3
100
AcDbLine
 10
-20.09053450089998
 20
-2.49999999999997
 30
0.0
 11
7.662865645700009
 21
-21.93331253789998
 31
0.0
  0
LINE
  5
F99
330
1F
100
AcDbEntity
  8
1
100
AcDbLine
 10
7.852500000000018
 20
-18.49999999999996
 30
0.0
 11
7.852500000000018
 21
-8.049999999999952
 31
0.0
  0
LINE
  5
F9A
330
1F
100
AcDbEntity
  8
SK3
100
AcDbLine
 10
6.32837271430003
 20
-28.66666355859996
 30
0.0
 11
3.200000000000017
 21
-24.19927680598417
 31
0.0
  0
LINE
  5
F9B
330
1F
100
AcDbEntity
  8
1
100
AcDbLine
 10
7.852500000000018
 20
-31.77499999999996
 30
0.0
 11
7.852500000000018
 21
-25.83409810689996
 31
0.0
  0
LINE
  5
F9C
330
1F
100
AcDbEntity
  8
SK3
100
AcDbLine
 10
6.32837271430003
 20
-28.66666355859996
 30
0.0
 11
3.316950524800005
 21
-30.77546933929997
 31
0.0
  0
LINE
  5
F9D
330
1F
100
AcDbEntity
  8
1
100
AcDbLine
 10
7.852500000000018
 20
-31.77499999999996
 30
0.0
 11
4.800000000000012
 21
-31.77499999999996
 31
0.0
  0
ARC
  5
F9E
330
1F
100
AcDbEntity
  8
1
100
AcDbCircle
 10
4.800000000000012
 20
-30.17499999999994
 30
0.0
 40
1.6
100
AcDbArc
 50
180.0
 51
270.0
  0
LINE
  5
F9F
330
1F
100
AcDbEntity
  8
1
100
AcDbLine
 10
0.3196152423000171
 20
-21.80829262149996
 30
0.0
 11
2.4097319313
 21
-21.80829262149996
 31
0.0
  0
LINE
  5
FA0
330
1F
100
AcDbEntity
  8
1
100
AcDbLine
 10
-0.7999999999999829
 20
-22.10829262149996
 30
0.0
 11
0.3196152423000171
 21
-21.80829262149996
 31
0.0
  0
LINE
  5
FA1
330
1F
100
AcDbEntity
  8
SK3
100
AcDbLine
 10
7.662865645700009
 20
-21.93331253789998
 30
0.0
 11
3.603724026900009
 21
-24.77580381679996
 31
0.0
  0
LINE
  5
FA2
330
1F
100
AcDbEntity
  8
SK3
100
AcDbLine
 10
3.316918901900009
 20
-24.36623963339997
 30
0.0
 11
7.227012429782745
 21
-21.62812212084014
 31
0.0
  0
LINE
  5
FA3
330
1F
100
AcDbEntity
  8
1
100
AcDbLine
 10
7.852500000000018
 20
-25.83409810689996
 30
0.0
 11
4.800000001200003
 21
-25.83409810689996
 31
0.0
  0
SPLINE
  5
FA4
330
1F
100
AcDbEntity
  8
1
100
AcDbSpline
210
0.0
220
0.0
230
1.0
 70
     8
 71
     3
 72
    12
 73
     8
 74
     6
 42
0.0000000001
 43
0.0000000001
 44
0.0000000001
 12
-1.0
 22
0.0
 32
0.0
 13
0.0
 23
1.0
 33
0.0
 40
0.0
 40
0.0
 40
0.0
 40
0.0
 40
0.4612732269159658
 40
0.9611088119520328
 40
1.512218574292524
 40
2.133898703137572
 40
2.82388545878363
 40
2.82388545878363
 40
2.82388545878363
 40
2.82388545878363
 10
4.800000001200003
 20
-25.83409810689996
 30
0.0
 10
4.646242258894681
 20
-25.83409810689996
 30
0.0
 10
4.323291543388084
 20
-25.7755016155278
 30
0.0
 10
3.881003605498984
 20
-25.51442166990969
 30
0.0
 10
3.511295391384408
 20
-25.08491183421053
 30
0.0
 10
3.258952645397411
 20
-24.5086177337639
 30
0.0
 10
3.200000000000017
 20
-24.06863281551532
 30
0.0
 10
3.200000000000017
 20
-23.83863723029997
 30
0.0
 11
4.800000001200003
 21
-25.83409810689996
 31
0.0
 11
4.345888828599981
 21
-25.75312877449997
 31
0.0
 11
3.912983494600013
 21
-25.50327164759996
 31
0.0
 11
3.549053961499993
 21
-25.08941507209996
 31
0.0
 11
3.294878147300011
 21
-24.52206964109996
 31
0.0
 11
3.200000000000017
 21
-23.83863723029997
 31
0.0
  0
ARC
  5
FA5
330
1F
100
AcDbEntity
  8
1
100
AcDbCircle
 10
2.4097319313
 20
-22.80829262149996
 30
0.0
 40
1.0
100
AcDbArc
 50
37.5379335793999
 51
90.0
  0
LINE
  5
FA6
330
1F
100
AcDbEntity
  8
SK3
100
AcDbLine
 10
-22.84811181019998
 20
2.500000000000028
 30
0.0
 11
-22.84811181019998
 21
-2.49999999999997
 31
0.0
  0
INSERT
  5
FA7
330
1F
100
AcDbEntity
  8
1
100
AcDbBlockReference
  2
nullpunkt_1
 10
0.0
 20
0.0
 30
0.0
 41
-1.0
 50
180.0
  0
ARC
  5
FA8
330
1F
100
AcDbEntity
  8
NOCUT
100
AcDbCircle
 10
4.799999999999954
 20
30.17499999999994
 30
0.0
 40
1.6
100
AcDbArc
 50
90.0
 51
180.0
  0
ARC
  5
FA9
330
1F
100
AcDbEntity
  8
1
100
AcDbCircle
 10
4.800000000000012
 20
30.175
 30
0.0
 40
1.6
100
AcDbArc
 50
90.0
 51
180.0
  0
LINE
  5
FAA
330
1F
100
AcDbEntity
  8
1
100
AcDbLine
 10
7.852500000000018
 20
31.77500000000003
 30
0.0
 11
7.852500000000018
 21
25.83409810690003
 31
0.0
  0
LINE
  5
FAB
330
1F
100
AcDbEntity
  8
NOCUT
100
AcDbLine
 10
3.202682057587366
 20
22.19900607378963
 30
0.0
 11
0.0
 21
22.19900607378963
 31
0.0
  0
LINE
  5
FAC
330
1F
100
AcDbEntity
  8
1
100
AcDbLine
 10
0.3196152423000171
 20
21.80829262150001
 30
0.0
 11
2.4097319313
 21
21.80829262150001
 31
0.0
  0
LINE
  5
FAD
330
1F
100
AcDbEntity
  8
1
100
AcDbLine
 10
-0.7999999999999829
 20
22.10829262150002
 30
0.0
 11
0.3196152423000171
 21
21.80829262150001
 31
0.0
  0
LINE
  5
FAE
330
1F
100
AcDbEntity
  8
NOCUT
100
AcDbLine
 10
3.200000000000044
 20
22.19900607378963
 30
0.0
 11
3.19999999999993
 21
30.12632953349998
 31
0.0
  0
LINE
  5
FAF
330
1F
100
AcDbEntity
  8
SK3
100
AcDbLine
 10
7.662865645700009
 20
21.93331253790003
 30
0.0
 11
3.603724026900009
 21
24.77580381680001
 31
0.0
  0
LINE
  5
FB0
330
1F
100
AcDbEntity
  8
SK3
100
AcDbLine
 10
3.316918901900009
 20
24.36623963340002
 30
0.0
 11
7.227012429782745
 21
21.6281221208402
 31
0.0
  0
LINE
  5
FB1
330
1F
100
AcDbEntity
  8
SK3
100
AcDbLine
 10
6.32837271430003
 20
28.66666355860002
 30
0.0
 11
3.200000000000017
 21
24.19927680598422
 31
0.0
  0
ARC
  5
FB2
330
1F
100
AcDbEntity
  8
1
100
AcDbCircle
 10
2.4097319313
 20
22.80829262150001
 30
0.0
 40
1.0
100
AcDbArc
 50
270.0
 51
322.4620664206
  0
LINE
  5
FB3
330
1F
100
AcDbEntity
  8
SK3
100
AcDbLine
 10
6.32837271430003
 20
28.66666355860002
 30
0.0
 11
3.316950524800005
 21
30.77546933930003
 31
0.0
  0
LINE
  5
FB4
330
1F
100
AcDbEntity
  8
NOCUT
100
AcDbLine
 10
7.852499999999962
 20
31.77499999999996
 30
0.0
 11
4.799999999999954
 21
31.77499999999996
 31
0.0
  0
LINE
  5
FB5
330
1F
100
AcDbEntity
  8
1
100
AcDbLine
 10
7.852500000000018
 20
31.77500000000003
 30
0.0
 11
4.800000000000012
 21
31.77500000000003
 31
0.0
  0
LINE
  5
FB6
330
1F
100
AcDbEntity
  8
NOCUT
100
AcDbLine
 10
44.29348460619997
 20
24.75
 30
0.0
 11
50.5
 21
14.0
 31
0.0
  0
LINE
  5
FB7
330
1F
100
AcDbEntity
  8
1
100
AcDbLine
 10
44.29348460619999
 20
24.75000000000003
 30
0.0
 11
50.50000000000003
 21
14.00000000000003
 31
0.0
  0
LINE
  5
FB8
330
1F
100
AcDbEntity
  8
1
100
AcDbLine
 10
44.29348460619999
 20
24.75000000000003
 30
0.0
 11
44.29348460619999
 21
-24.74999999999996
 31
0.0
  0
LINE
  5
FB9
330
1F
100
AcDbEntity
  8
1
100
AcDbLine
 10
19.10000000000001
 20
30.12633029320002
 30
0.0
 11
19.10000000000001
 21
6.167915809800034
 31
0.0
  0
LINE
  5
FBA
330
1F
100
AcDbEntity
  8
1
100
AcDbLine
 10
14.34750000000001
 20
31.77500000000003
 30
0.0
 11
14.34750000000001
 21
8.050000000000039
 31
0.0
  0
LINE
  5
FBB
330
1F
100
AcDbEntity
  8
1
100
AcDbLine
 10
12.97500000000002
 20
8.050000000000039
 30
0.0
 11
12.97500000000002
 21
29.39776026640001
 31
0.0
  0
LINE
  5
FBC
330
1F
100
AcDbEntity
  8
1
100
AcDbLine
 10
9.225000000000024
 20
29.39776026640001
 30
0.0
 11
9.225000000000024
 21
8.050000000000039
 31
0.0
  0
DIMENSION
  5
FBD
330
1F
100
AcDbEntity
  8
SK2
100
AcDbDimension
  2
*D4
 10
112.8750711334999
 20
24.75
 30
0.0
 11
112.8750711334999
 21
0.4876744514999986
 31
0.0
 70
   160
  1
%%c<>
 71
     5
 42
49.5
  3
ISO-25
100
AcDbAlignedDimension
 13
28.75729279719998
 23
-24.74999999999996
 33
0.0
 14
28.75729279719998
 24
24.75000000000003
 34
0.0
 50
90.0
100
AcDbRotatedDimension
1001
ACAD
1000
DSTYLE
1002
{
1070
   179
1070
     4
1070
   275
1070
     1
1002
}
  0
DIMENSION
  5
FBE
330
1F
100
AcDbEntity
  8
SK2
100
AcDbDimension
  2
*D5
 10
50.50000000000003
 20
49.30503825630004
 30
0.0
 11
65.71403030160003
 21
49.30503825630004
 31
0.0
 70
   160
 71
     5
 42
29.99999999999996
  3
ISO-25
100
AcDbAlignedDimension
 13
80.5
 23
12.50000000000001
 33
0.0
 14
50.50000000000003
 24
14.50000000000001
 34
0.0
 50
180.0
100
AcDbRotatedDimension
1001
ACAD
1000
DSTYLE
1002
{
1070
   179
1070
     4
1070
   275
1070
     1
1002
}
  0
LINE
  5
FBF
330
1F
100
AcDbEntity
  8
NOCUT
100
AcDbLine
 10
69.15743636079992
 20
14.0
 30
0.0
 11
80.08682408879986
 21
12.0728540609
 31
0.0
  0
LINE
  5
FC0
330
1F
100
AcDbEntity
  8
SK3
100
AcDbLine
 10
76.90000000000003
 20
5.500000000000028
 30
0.0
 11
56.40000000000004
 21
5.500000000000028
 31
0.0
  0
LINE
  5
FC1
330
1F
100
AcDbEntity
  8
SK3
100
AcDbLine
 10
76.90000000000003
 20
4.500000000000028
 30
0.0
 11
72.65000000000005
 21
4.500000000000028
 31
0.0
  0
LINE
  5
FC2
330
1F
100
AcDbEntity
  8
SK3
100
AcDbLine
 10
53.50000000000003
 20
4.000000000000028
 30
0.0
 11
80.0
 21
4.000000000000028
 31
0.0
  0
LINE
  5
FC3
330
1F
100
AcDbEntity
  8
SK3
100
AcDbLine
 10
53.50000000000003
 20
-3.999999999999971
 30
0.0
 11
80.0
 21
-3.999999999999971
 31
0.0
  0
LINE
  5
FC4
330
1F
100
AcDbEntity
  8
SK3
100
AcDbLine
 10
76.90000000000003
 20
-4.499999999999971
 30
0.0
 11
72.65000000000005
 21
-4.499999999999971
 31
0.0
  0
LINE
  5
FC5
330
1F
100
AcDbEntity
  8
SK3
100
AcDbLine
 10
76.90000000000003
 20
-5.499999999999971
 30
0.0
 11
56.40000000000004
 21
-5.499999999999971
 31
0.0
  0
LINE
  5
FC6
330
1F
100
AcDbEntity
  8
SK3
100
AcDbLine
 10
28.73205080759999
 20
-9.999999999999973
 30
0.0
 11
74.77500000000003
 21
-9.999999999999973
 31
0.0
  0
LINE
  5
FC7
330
1F
100
AcDbEntity
  8
1
100
AcDbLine
 10
69.15743636079998
 20
14.00000000000003
 30
0.0
 11
80.08682408879996
 21
12.07285406090002
 31
0.0
  0
LINE
  5
FC8
330
1F
100
AcDbEntity
  8
1
100
AcDbLine
 10
69.15743636079998
 20
-13.99999999999997
 30
0.0
 11
80.08682408879996
 21
-12.07285406089997
 31
0.0
  0
DIMENSION
  5
FC9
330
1F
100
AcDbEntity
  8
SK2
100
AcDbDimension
  2
*D6
 10
43.50000000000003
 20
-54.13953498259996
 30
0.0
 11
61.69799751359999
 21
-54.13953498259996
 31
0.0
 70
   160
 71
     5
 42
36.99999999999996
  3
ISO-25
100
AcDbAlignedDimension
 13
80.5
 23
-12.08045018439998
 33
0.0
 14
43.50000000000003
 24
-2.058665841999982
 34
0.0
 50
180.0
100
AcDbRotatedDimension
1001
ACAD
1000
DSTYLE
1002
{
1070
   179
1070
     4
1070
   275
1070
     1
1002
}
  0
DIMENSION
  5
FCA
330
1F
100
AcDbEntity
  8
SK2
100
AcDbDimension
  2
*D7
 10
102.8750711335
 20
14.00000000000002
 30
0.0
 11
102.8750711335
 21
-0.3087397400999805
 31
0.0
 70
   160
  1
%%c<>
 71
     5
 42
28.0
  3
ISO-25
100
AcDbAlignedDimension
 13
69.65743636079998
 23
-13.99999999999997
 33
0.0
 14
69.65743636079998
 24
14.00000000000003
 34
0.0
 50
90.0
100
AcDbRotatedDimension
1001
ACAD
1000
DSTYLE
1002
{
1070
   179
1070
     4
1070
   275
1070
     1
1002
}
  0
DIMENSION
  5
FCB
330
1F
100
AcDbEntity
  8
SK2
100
AcDbDimension
  2
*D8
 10
53.50000000000003
 20
-44.13953498259996
 30
0.0
 11
48.29393755949999
 21
-44.13953498259996
 31
0.0
 70
   160
 71
     5
 42
10.0
  3
ISO-25
100
AcDbAlignedDimension
 13
43.50000000000003
 23
-2.49999999999997
 33
0.0
 14
53.50000000000003
 24
-5.499999999999971
 34
0.0
100
AcDbRotatedDimension
1001
ACAD
1000
DSTYLE
1002
{
1070
   179
1070
     4
1070
   275
1070
     1
1002
}
  0
LINE
  5
FCC
330
1F
100
AcDbEntity
  8
SK3
100
AcDbLine
 10
26.50000000000003
 20
3.000000000000028
 30
0.0
 11
43.50000000000003
 21
3.000000000000028
 31
0.0
  0
LINE
  5
FCD
330
1F
100
AcDbEntity
  8
SK3
100
AcDbLine
 10
26.50000000000003
 20
-2.999999999999971
 30
0.0
 11
43.50000000000003
 21
-2.999999999999971
 31
0.0
  0
LINE
  5
FCE
330
1F
100
AcDbEntity
  8
SK3
100
AcDbLine
 10
28.73205080759999
 20
-7.999999999999971
 30
0.0
 11
73.77500000000003
 21
-7.999999999999971
 31
0.0
  0
LINE
  5
FCF
330
1F
100
AcDbEntity
  8
1
100
AcDbLine
 10
20.0
 20
-24.74999999999996
 30
0.0
 11
44.29348460619999
 21
-24.74999999999996
 31
0.0
  0
LINE
  5
FD1
330
1F
100
AcDbEntity
  8
1
100
AcDbLine
 10
19.09999999999998
 20
-30.17499999999994
 30
0.0
 11
19.10000000000001
 21
-6.169481339599997
 31
0.0
  0
LINE
  5
FD2
330
1F
100
AcDbEntity
  8
1
100
AcDbLine
 10
14.34750000000001
 20
-8.049999999999952
 30
0.0
 11
14.34750000000001
 21
-18.49999999999996
 31
0.0
  0
LINE
  5
FD3
330
1F
100
AcDbEntity
  8
1
100
AcDbLine
 10
12.97500000000002
 20
-18.49999999999996
 30
0.0
 11
12.97500000000002
 21
-8.049999999999952
 31
0.0
  0
LINE
  5
FD4
330
1F
100
AcDbEntity
  8
1
100
AcDbLine
 10
9.225000000000024
 20
-8.049999999999952
 30
0.0
 11
9.225000000000024
 21
-18.49999999999996
 31
0.0
  0
LINE
  5
FD5
330
1F
100
AcDbEntity
  8
SK3
100
AcDbLine
 10
19.24616780359996
 20
-24.24540380529998
 30
0.0
 11
16.0914786088
 21
-28.75072688849996
 31
0.0
  0
LINE
  5
FD6
330
1F
100
AcDbEntity
  8
SK3
100
AcDbLine
 10
18.4884106016
 20
-24.02000632799996
 30
0.0
 11
15.62051133359998
 21
-28.11575458539996
 31
0.0
  0
LINE
  5
FD7
330
1F
100
AcDbEntity
  8
SK3
100
AcDbLine
 10
11.14969137309998
 20
-24.37483587439996
 30
0.0
 11
16.52166349899999
 21
-28.13636464989997
 31
0.0
  0
LINE
  5
FD8
330
1F
100
AcDbEntity
  8
SK3
100
AcDbLine
 10
16.2348735722
 20
-28.54593947559999
 30
0.0
 11
12.13912531480001
 21
-25.67804020769996
 31
0.0
  0
LINE
  5
FD9
330
1F
100
AcDbEntity
  8
SK3
100
AcDbLine
 10
16.66505846239999
 20
-27.93157723699997
 30
0.0
 11
15.62051133359998
 21
-28.11575458539996
 31
0.0
  0
LINE
  5
FDA
330
1F
100
AcDbEntity
  8
1
100
AcDbLine
 10
14.34750000000001
 20
-25.83409810689996
 30
0.0
 11
14.34750000000001
 21
-31.77499999999996
 31
0.0
  0
LINE
  5
FDB
330
1F
100
AcDbEntity
  8
1
100
AcDbLine
 10
12.97500000000002
 20
-29.39739672889999
 30
0.0
 11
12.97500000000002
 21
-21.84354881879996
 31
0.0
  0
LINE
  5
FDC
330
1F
100
AcDbEntity
  8
1
100
AcDbLine
 10
9.225000000000024
 20
-29.39739672889999
 30
0.0
 11
9.225000000000024
 21
-21.84354881879996
 31
0.0
  0
LINE
  5
FDD
330
1F
100
AcDbEntity
  8
SK3
100
AcDbLine
 10
16.0914786088
 20
-28.75072688849996
 30
0.0
 11
18.98305750160003
 21
-30.77545020359996
 31
0.0
  0
LINE
  5
FDE
330
1F
100
AcDbEntity
  8
1
100
AcDbLine
 10
17.50000000000001
 20
-31.77499999999996
 30
0.0
 11
14.34750000000001
 21
-31.77499999999996
 31
0.0
  0
ARC
  5
FDF
330
1F
100
AcDbEntity
  8
1
100
AcDbCircle
 10
12.47500000000002
 20
-28.62499999999997
 30
0.0
 40
0.5
100
AcDbArc
 50
0.0
 51
90.0
  0
LINE
  5
FE0
330
1F
100
AcDbEntity
  8
1
100
AcDbLine
 10
12.97500000000002
 20
-29.39776026659996
 30
0.0
 11
14.34750000000001
 21
-31.77499999999996
 31
0.0
  0
ARC
  5
FE1
330
1F
100
AcDbEntity
  8
1
100
AcDbCircle
 10
9.725000000000024
 20
-28.62499999999997
 30
0.0
 40
0.5
100
AcDbArc
 50
90.0
 51
180.0
  0
LINE
  5
FE2
330
1F
100
AcDbEntity
  8
1
100
AcDbLine
 10
9.725000000000024
 20
-28.12499999999996
 30
0.0
 11
12.47500000000002
 21
-28.12499999999996
 31
0.0
  0
ARC
  5
FE3
330
1F
100
AcDbEntity
  8
1
100
AcDbCircle
 10
17.50000000000001
 20
-30.17499999999994
 30
0.0
 40
1.6
100
AcDbArc
 50
270.0
 51
0.0
  0
LINE
  5
FE4
330
1F
100
AcDbEntity
  8
SK3
100
AcDbLine
 10
15.50347982289999
 20
-26.74390361559997
 30
0.0
 11
17.15926223730002
 21
-24.37922225659997
 31
0.0
  0
LINE
  5
FE5
330
1F
100
AcDbEntity
  8
SK3
100
AcDbLine
 10
19.10277284019996
 20
-24.45019121819996
 30
0.0
 11
15.00702458269998
 21
-21.58229195019996
 31
0.0
  0
LINE
  5
FE6
330
1F
100
AcDbEntity
  8
SK3
100
AcDbLine
 10
18.08276880980002
 20
-25.90689500709999
 30
0.0
 11
16.74531663370001
 21
-24.97039259639999
 31
0.0
  0
LINE
  5
FE7
330
1F
100
AcDbEntity
  8
SK3
100
AcDbLine
 10
17.2548776026
 20
-27.08923568659997
 30
0.0
 11
15.91742542649997
 21
-26.15273327589997
 31
0.0
  0
LINE
  5
FE8
330
1F
100
AcDbEntity
  8
1
100
AcDbLine
 10
17.50000000090003
 20
-25.83409810689996
 30
0.0
 11
14.34750000000001
 21
-25.83409810689996
 31
0.0
  0
LINE
  5
FE9
330
1F
100
AcDbEntity
  8
SK3
100
AcDbLine
 10
15.41659940849998
 20
-21.86908187699998
 30
0.0
 11
12.5487001405
 21
-25.96483013449997
 31
0.0
  0
LINE
  5
FEA
330
1F
100
AcDbEntity
  8
SK3
100
AcDbLine
 10
15.00702458269998
 20
-21.58229195019996
 30
0.0
 11
12.13912531480001
 21
-25.67804020769996
 31
0.0
  0
SPLINE
  5
FEB
330
1F
100
AcDbEntity
  8
1
100
AcDbSpline
210
0.0
220
0.0
230
1.0
 70
     8
 71
     3
 72
    10
 73
     6
 74
     4
 42
0.0000000001
 43
0.0000000001
 44
0.0000000001
 12
0.4093743989143582
 22
-0.9123664842120779
 32
0.0
 13
0.4249194534150649
 23
-0.9052311628028736
 33
0.0
 40
0.0
 40
0.0
 40
0.0
 40
0.0
 40
1.064064352752351
 40
2.159673088170302
 40
3.287502624669367
 40
3.287502624669367
 40
3.287502624669367
 40
3.287502624669367
 10
12.97500000000002
 20
-22.84684461129998
 30
0.0
 10
13.12020023493808
 20
-23.170450162132
 30
0.0
 10
13.41696850362266
 20
-23.82633066870655
 30
0.0
 10
13.87455346614517
 20
-24.82206168499681
 30
0.0
 10
14.18775442993517
 20
-25.49378262597714
 30
0.0
 10
14.34750000000001
 20
-25.83409810689996
 30
0.0
 11
12.97500000000002
 21
-22.84684461129998
 31
0.0
 11
13.41356481869999
 21
-23.81632583679996
 31
0.0
 11
13.87097247739998
 21
-24.81188434079996
 31
0.0
 11
14.34750000000001
 21
-25.83409810689996
 31
0.0
  0
LINE
  5
FEC
330
1F
100
AcDbEntity
  8
SK3
100
AcDbLine
 10
11.14969137309998
 20
-24.37483587439996
 30
0.0
 11
11.14969137309995
 21
-21.93331253789998
 31
0.0
  0
LINE
  5
FED
330
1F
100
AcDbEntity
  8
SK3
100
AcDbLine
 10
12.5487001405
 20
-25.96483013449997
 30
0.0
 11
12.42591524160002
 21
-25.26846538189996
 31
0.0
  0
SPLINE
  5
FEE
330
1F
100
AcDbEntity
  8
1
100
AcDbSpline
210
0.0
220
0.0
230
1.0
 70
     8
 71
     3
 72
    12
 73
     8
 74
     6
 42
0.0000000001
 43
0.0000000001
 44
0.0000000001
 12
0.0
 22
1.0
 32
0.0
 13
-1.0
 23
0.0
 33
0.0
 40
0.0
 40
0.0
 40
0.0
 40
0.0
 40
0.2147571152494904
 40
0.4144906777913904
 40
0.5926954349915588
 40
0.7559271411035259
 40
0.9108072837854658
 40
0.9108072837854658
 40
0.9108072837854658
 40
0.9108072837854658
 10
12.97500000000002
 20
-21.84354881879996
 30
0.0
 10
12.97500000000002
 20
-21.7719631137168
 30
0.0
 10
12.9577386029857
 20
-21.63313243834622
 30
0.0
 10
12.88422651469693
 20
-21.4474088831098
 30
0.0
 10
12.77312623328381
 20
-21.30197476680931
 30
0.0
 10
12.63369693059739
 20
-21.20694457708842
 30
0.0
 10
12.52662671422733
 20
-21.18408895839996
 30
0.0
 10
12.47500000000002
 20
-21.18408895839996
 30
0.0
 11
12.97500000000002
 21
-21.84354881879996
 31
0.0
 11
12.94794589090003
 21
-21.63050259439998
 31
0.0
 11
12.87297818140001
 21
-21.44537199579996
 31
0.0
 11
12.7630178302
 21
-21.30513770379996
 31
0.0
 11
12.6266893878
 21
-21.21536495919996
 31
0.0
 11
12.47500000000002
 21
-21.18408895839996
 31
0.0
  0
SPLINE
  5
FEF
330
1F
100
AcDbEntity
  8
1
100
AcDbSpline
210
0.0
220
0.0
230
1.0
 70
     8
 71
     3
 72
    12
 73
     8
 74
     6
 42
0.0000000001
 43
0.0000000001
 44
0.0000000001
 12
-1.0
 22
0.0
 32
0.0
 13
0.0
 23
-1.0
 33
0.0
 40
0.0
 40
0.0
 40
0.0
 40
0.0
 40
0.1551844736849885
 40
0.3185717465178575
 40
0.4968262664165705
 40
0.696324391220836
 40
0.9108050533939035
 40
0.9108050533939035
 40
0.9108050533939035
 40
0.9108050533939035
 10
9.725000000000024
 20
-21.18408895839996
 30
0.0
 10
9.673271842105028
 20
-21.18408895839996
 30
0.0
 10
9.566043765099278
 20
-21.20702685831781
 30
0.0
 10
9.426552390557018
 20
-21.30227574917893
 30
0.0
 10
9.315576486651933
 20
-21.44778888493828
 30
0.0
 10
9.242218084080079
 20
-21.63339769541981
 30
0.0
 10
9.225000000000024
 20
-21.77205526474228
 30
0.0
 10
9.225000000000024
 20
-21.84354881879996
 30
0.0
 11
9.725000000000024
 21
-21.18408895839996
 31
0.0
 11
9.573024810600003
 21
-21.21548581619998
 31
0.0
 11
9.436640655599999
 21
-21.30545671809997
 31
0.0
 11
9.326764116399999
 21
-21.44581988989995
 31
0.0
 11
9.251983834499979
 21
-21.63077234659997
 31
0.0
 11
9.225000000000024
 21
-21.84354881879996
 31
0.0
  0
LINE
  5
FF0
330
1F
100
AcDbEntity
  8
1
100
AcDbLine
 10
9.725000000000024
 20
-21.18408895839996
 30
0.0
 11
12.47500000000002
 21
-21.18408895839996
 31
0.0
  0
LINE
  5
FF1
330
1F
100
AcDbEntity
  8
SK3
100
AcDbLine
 10
16.84093199899999
 20
-27.68040602639999
 30
0.0
 11
15.50347982289999
 21
-26.74390361559997
 31
0.0
  0
LINE
  5
FF2
330
1F
100
AcDbEntity
  8
SK3
100
AcDbLine
 10
15.41659940849998
 20
-21.86908187699998
 30
0.0
 11
14.72023465590001
 21
-21.99186677589997
 31
0.0
  0
LINE
  5
FF3
330
1F
100
AcDbEntity
  8
SK3
100
AcDbLine
 10
18.67258795
 20
-25.06455345679995
 30
0.0
 11
18.4884106016
 21
-24.02000632799996
 31
0.0
  0
LINE
  5
FF4
330
1F
100
AcDbEntity
  8
SK3
100
AcDbLine
 10
19.24616780359996
 20
-24.24540380529998
 30
0.0
 11
19.96763101847971
 21
-24.75058227222529
 31
0.0
  0
LINE
  5
FF5
330
1F
100
AcDbEntity
  8
SK3
100
AcDbLine
 10
18.49671441340001
 20
-25.31572466739996
 30
0.0
 11
17.15926223730002
 21
-24.37922225659997
 31
0.0
  0
ARC
  5
FF6
330
1F
100
AcDbEntity
  8
1
100
AcDbCircle
 10
20.0
 20
-25.64999999999996
 30
0.0
 40
0.9
100
AcDbArc
 50
90.0
 51
180.0
  0
SPLINE
  5
FF7
330
1F
100
AcDbEntity
  8
1
100
AcDbSpline
210
0.0
220
0.0
230
1.0
 70
     8
 71
     3
 72
    12
 73
     8
 74
     6
 42
0.0000000001
 43
0.0000000001
 44
0.0000000001
 12
0.0
 22
-1.0
 32
0.0
 13
-1.0
 23
0.0
 33
0.0
 40
0.0
 40
0.0
 40
0.0
 40
0.0
 40
0.6873641780733819
 40
1.30400731973343
 40
1.850232596542519
 40
2.352740451851299
 40
2.823872818550503
 40
2.823872818550503
 40
2.823872818550503
 40
2.823872818550503
 10
19.10000000000001
 20
-23.83863723029997
 30
0.0
 10
19.10000000000001
 20
-24.0677586229911
 30
0.0
 10
19.04161413218682
 20
-24.50515845712376
 30
0.0
 10
18.79232498187141
 20
-25.07799532956251
 30
0.0
 10
18.42676204786651
 20
-25.50748438627114
 30
0.0
 10
17.98431548919839
 20
-25.77337385319049
 30
0.0
 10
17.65704412313309
 20
-25.83409810689996
 30
0.0
 10
17.50000000090003
 20
-25.83409810689996
 30
0.0
 11
19.10000000000001
 21
-23.83863723029997
 31
0.0
 11
19.00585332410003
 21
-24.51952335639997
 31
0.0
 11
18.75511695680001
 21
-25.08288828099998
 31
0.0
 11
18.39679533609998
 21
-25.49515963479996
 31
0.0
 11
17.9635051381
 21
-25.74966650889999
 31
0.0
 11
17.50000000090003
 21
-25.83409810689996
 31
0.0
  0
CIRCLE
  5
FF9
330
1F
100
AcDbEntity
  8
1
100
AcDbCircle
 10
27.00000000000001
 20
-8.999999999999969
 30
0.0
 40
2.0
  0
CIRCLE
  5
FFA
330
1F
100
AcDbEntity
  8
1
100
AcDbCircle
 10
27.00000000000001
 20
-8.999999999999969
 30
0.0
 40
3.399999999999999
  0
SPLINE
  5
FFB
330
1F
100
AcDbEntity
  8
1
100
AcDbSpline
210
0.0
220
0.0
230
1.0
 70
     8
 71
     3
 72
    11
 73
     7
 74
     5
 42
0.0000000001
 43
0.0000000001
 44
0.0000000001
 12
0.0
 22
1.0
 32
0.0
 13
0.0
 23
1.0
 33
0.0
 40
0.0
 40
0.0
 40
0.0
 40
0.0
 40
3.130385197654362
 40
6.185461195314108
 40
9.220103890709726
 40
12.35753690557098
 40
12.35753690557098
 40
12.35753690557098
 40
12.35753690557098
 10
19.10000000000001
 20
-6.169481339599967
 30
0.0
 10
19.10000000000001
 20
-5.126019607048514
 30
0.0
 10
19.27678447876373
 20
-3.069870394645436
 30
0.0
 10
19.51830750741824
 20
-0.000090580287013
 30
0.0
 10
19.27669275030766
 20
3.071975774500269
 30
0.0
 10
19.10000000000001
 20
5.123670334646273
 30
0.0
 10
19.10000000000001
 20
6.169481339600025
 30
0.0
 11
19.10000000000001
 21
-6.169481339599967
 31
0.0
 11
19.27515781989998
 21
-3.044000380799956
 31
0.0
 11
19.43856115340003
 21
0.0067026041000418
 31
0.0
 11
19.2757398882
 21
3.036974130600043
 31
0.0
 11
19.10000000000001
 21
6.169481339600025
 31
0.0
  0
LINE
  5
FFC
330
1F
100
AcDbEntity
  8
SK3
100
AcDbLine
 10
19.10000000000001
 20
-8.049999999999952
 30
0.0
 11
19.10159018730001
 21
-8.049999999999952
 31
0.0
  0
LINE
  5
FFD
330
1F
100
AcDbEntity
  8
SK3
100
AcDbLine
 10
19.10000000000001
 20
8.050000000000039
 30
0.0
 11
19.10159018730001
 21
8.050000000000039
 31
0.0
  0
LINE
  5
FFE
330
1F
100
AcDbEntity
  8
SK3
100
AcDbLine
 10
26.50000000000003
 20
3.000000000000028
 30
0.0
 11
26.50000000000003
 21
-2.999999999999971
 31
0.0
  0
DIMENSION
  5
FFF
330
1F
100
AcDbEntity
  8
SK2
100
AcDbDimension
  2
*D9
 10
32.11117288590003
 20
-2.999999999999971
 30
0.0
 11
32.11117288590003
 21
12.5144488188977
 31
0.0
 70
   160
  1
M<>
 71
     5
 42
6.0
  3
ISO-25
100
AcDbAlignedDimension
 13
32.73617288590003
 23
3.000000000000028
 33
0.0
 14
32.73617288590003
 24
-2.999999999999971
 34
0.0
 50
270.0
100
AcDbRotatedDimension
1001
ACAD
1000
DSTYLE
1002
{
1070
   179
1070
     4
1070
   275
1070
     1
1002
}
  0
LINE
  5
1002
330
1F
100
AcDbEntity
  8
1
100
AcDbLine
 10
69.15743636079998
 20
14.00000000000003
 30
0.0
 11
69.15743636079998
 21
-13.99999999999997
 31
0.0
  0
LINE
  5
1003
330
1F
100
AcDbEntity
  8
1
100
AcDbLine
 10
64.30000000000001
 20
14.00000000000003
 30
0.0
 11
64.30000000000001
 21
-13.99999999999997
 31
0.0
  0
LINE
  5
1004
330
1F
100
AcDbEntity
  8
1
100
AcDbLine
 10
62.70000000000004
 20
14.00000000000003
 30
0.0
 11
62.70000000000004
 21
-13.99999999999997
 31
0.0
  0
LINE
  5
1005
330
1F
100
AcDbEntity
  8
1
100
AcDbLine
 10
61.30000000000001
 20
14.00000000000003
 30
0.0
 11
61.30000000000001
 21
-13.99999999999997
 31
0.0
  0
LINE
  5
1006
330
1F
100
AcDbEntity
  8
1
100
AcDbLine
 10
59.70000000000005
 20
14.00000000000003
 30
0.0
 11
59.70000000000005
 21
-13.99999999999997
 31
0.0
  0
LINE
  5
1007
330
1F
100
AcDbEntity
  8
1
100
AcDbLine
 10
58.30000000000001
 20
14.00000000000003
 30
0.0
 11
58.30000000000001
 21
-13.99999999999997
 31
0.0
  0
LINE
  5
1008
330
1F
100
AcDbEntity
  8
1
100
AcDbLine
 10
56.70000000000005
 20
14.00000000000003
 30
0.0
 11
56.70000000000005
 21
-13.99999999999997
 31
0.0
  0
LINE
  5
1009
330
1F
100
AcDbEntity
  8
1
100
AcDbLine
 10
50.50000000000003
 20
14.00000000000003
 30
0.0
 11
50.50000000000003
 21
-13.99999999999997
 31
0.0
  0
ARC
  5
100A
330
1F
100
AcDbEntity
  8
1
100
AcDbCircle
 10
57.5
 20
-13.99999999999997
 30
0.0
 40
0.8
100
AcDbArc
 50
0.0
 51
180.0
  0
LINE
  5
100B
330
1F
100
AcDbEntity
  8
1
100
AcDbLine
 10
44.29348460619999
 20
-24.74999999999996
 30
0.0
 11
50.50000000000003
 21
-13.99999999999997
 31
0.0
  0
LINE
  5
100C
330
1F
100
AcDbEntity
  8
1
100
AcDbLine
 10
50.50000000000003
 20
-13.99999999999997
 30
0.0
 11
56.70000000000005
 21
-13.99999999999997
 31
0.0
  0
LINE
  5
100D
330
1F
100
AcDbEntity
  8
1
100
AcDbLine
 10
64.30000000000001
 20
-13.99999999999997
 30
0.0
 11
69.15743636079998
 21
-13.99999999999997
 31
0.0
  0
LINE
  5
100E
330
1F
100
AcDbEntity
  8
1
100
AcDbLine
 10
61.30000000000001
 20
-13.99999999999997
 30
0.0
 11
62.70000000000004
 21
-13.99999999999997
 31
0.0
  0
ARC
  5
100F
330
1F
100
AcDbEntity
  8
1
100
AcDbCircle
 10
60.5
 20
-13.99999999999997
 30
0.0
 40
0.8
100
AcDbArc
 50
0.0
 51
180.0
  0
LINE
  5
1010
330
1F
100
AcDbEntity
  8
1
100
AcDbLine
 10
58.30000000000001
 20
-13.99999999999997
 30
0.0
 11
59.70000000000005
 21
-13.99999999999997
 31
0.0
  0
ARC
  5
1011
330
1F
100
AcDbEntity
  8
1
100
AcDbCircle
 10
63.5
 20
-13.99999999999997
 30
0.0
 40
0.8
100
AcDbArc
 50
0.0
 51
180.0
  0
ARC
  5
1012
330
1F
100
AcDbEntity
  8
NOCUT
100
AcDbCircle
 10
57.5
 20
14.0
 30
0.0
 40
0.8
100
AcDbArc
 50
180.0
 51
0.0
  0
LINE
  5
1013
330
1F
100
AcDbEntity
  8
SK3
100
AcDbLine
 10
60.65000000000003
 20
4.500000000000028
 30
0.0
 11
56.40000000000004
 21
4.500000000000028
 31
0.0
  0
LINE
  5
1014
330
1F
100
AcDbEntity
  8
SK3
100
AcDbLine
 10
60.65000000000003
 20
-4.499999999999971
 30
0.0
 11
56.40000000000004
 21
-4.499999999999971
 31
0.0
  0
ARC
  5
1015
330
1F
100
AcDbEntity
  8
1
100
AcDbCircle
 10
57.5
 20
14.00000000000003
 30
0.0
 40
0.8
100
AcDbArc
 50
180.0
 51
0.0
  0
LINE
  5
1016
330
1F
100
AcDbEntity
  8
SK3
100
AcDbLine
 10
56.40000000000004
 20
5.500000000000028
 30
0.0
 11
56.40000000000004
 21
-5.499999999999971
 31
0.0
  0
LINE
  5
1017
330
1F
100
AcDbEntity
  8
SK3
100
AcDbLine
 10
53.50000000000003
 20
5.000000000000028
 30
0.0
 11
53.50000000000003
 21
-4.999999999999971
 31
0.0
  0
LINE
  5
1018
330
1F
100
AcDbEntity
  8
SK3
100
AcDbLine
 10
43.50000000000003
 20
5.000000000000028
 30
0.0
 11
43.50000000000003
 21
-4.999999999999971
 31
0.0
  0
LINE
  5
1019
330
1F
100
AcDbEntity
  8
SK3
100
AcDbLine
 10
43.0000000001
 20
2.500000000000028
 30
0.0
 11
43.0000000001
 21
-2.49999999999997
 31
0.0
  0
LINE
  5
101A
330
1F
100
AcDbEntity
  8
SK3
100
AcDbLine
 10
43.50000000000003
 20
-4.999999999999971
 30
0.0
 11
53.50000000000003
 21
-4.999999999999971
 31
0.0
  0
LINE
  5
101B
330
1F
100
AcDbEntity
  8
SK3
100
AcDbLine
 10
43.00005244870003
 20
-2.499947512099963
 30
0.0
 11
43.50006293840002
 21
-2.999937014499977
 31
0.0
  0
LINE
  5
101C
330
1F
100
AcDbEntity
  8
SK3
100
AcDbLine
 10
43.50000000000003
 20
5.000000000000028
 30
0.0
 11
53.50000000000003
 21
5.000000000000028
 31
0.0
  0
LINE
  5
101D
330
1F
100
AcDbEntity
  8
SK3
100
AcDbLine
 10
43.00005244970001
 20
2.499947513100039
 30
0.0
 11
43.50006293949999
 21
2.999937015700026
 31
0.0
  0
LINE
  5
101E
330
1F
100
AcDbEntity
  8
NOCUT
100
AcDbLine
 10
50.5
 20
14.0
 30
0.0
 11
56.70000000000005
 21
14.0
 31
0.0
  0
LINE
  5
101F
330
1F
100
AcDbEntity
  8
1
100
AcDbLine
 10
50.50000000000003
 20
14.00000000000003
 30
0.0
 11
56.70000000000005
 21
14.00000000000003
 31
0.0
  0
LINE
  5
1020
330
1F
100
AcDbEntity
  8
SK3
100
AcDbLine
 10
72.65000000000005
 20
5.400000000000034
 30
0.0
 11
72.65000000000005
 21
-5.399999999999976
 31
0.0
  0
LINE
  5
1021
330
1F
100
AcDbEntity
  8
SK3
100
AcDbLine
 10
60.65000000000003
 20
5.400000000000034
 30
0.0
 11
60.65000000000003
 21
-5.399999999999976
 31
0.0
  0
LINE
  5
1022
330
1F
100
AcDbEntity
  8
SK3
100
AcDbLine
 10
72.65000000000005
 20
-5.399999999999976
 30
0.0
 11
60.65000000000003
 21
-5.399999999999976
 31
0.0
  0
LINE
  5
1023
330
1F
100
AcDbEntity
  8
SK3
100
AcDbLine
 10
73.77500000000003
 20
-5.499999999999971
 30
0.0
 11
73.77500000000003
 21
-7.999999999999971
 31
0.0
  0
LINE
  5
1024
330
1F
100
AcDbEntity
  8
NOCUT
100
AcDbLine
 10
64.29999999999997
 20
14.0
 30
0.0
 11
69.15743636079992
 21
14.0
 31
0.0
  0
LINE
  5
1025
330
1F
100
AcDbEntity
  8
SK3
100
AcDbLine
 10
72.65000000000005
 20
5.400000000000034
 30
0.0
 11
60.65000000000003
 21
5.400000000000034
 31
0.0
  0
LINE
  5
1026
330
1F
100
AcDbEntity
  8
1
100
AcDbLine
 10
64.30000000000001
 20
14.00000000000003
 30
0.0
 11
69.15743636079998
 21
14.00000000000003
 31
0.0
  0
LINE
  5
1027
330
1F
100
AcDbEntity
  8
NOCUT
100
AcDbLine
 10
61.29999999999995
 20
14.0
 30
0.0
 11
62.70000000000004
 21
14.0
 31
0.0
  0
LINE
  5
1028
330
1F
100
AcDbEntity
  8
1
100
AcDbLine
 10
61.30000000000001
 20
14.00000000000003
 30
0.0
 11
62.70000000000004
 21
14.00000000000003
 31
0.0
  0
LINE
  5
1029
330
1F
100
AcDbEntity
  8
NOCUT
100
AcDbLine
 10
58.29999999999995
 20
14.0
 30
0.0
 11
59.70000000000005
 21
14.0
 31
0.0
  0
ARC
  5
102A
330
1F
100
AcDbEntity
  8
NOCUT
100
AcDbCircle
 10
60.5
 20
14.0
 30
0.0
 40
0.8
100
AcDbArc
 50
180.0
 51
0.0
  0
ARC
  5
102B
330
1F
100
AcDbEntity
  8
1
100
AcDbCircle
 10
60.5
 20
14.00000000000003
 30
0.0
 40
0.8
100
AcDbArc
 50
180.0
 51
0.0
  0
LINE
  5
102C
330
1F
100
AcDbEntity
  8
1
100
AcDbLine
 10
58.30000000000001
 20
14.00000000000003
 30
0.0
 11
59.70000000000005
 21
14.00000000000003
 31
0.0
  0
ARC
  5
102D
330
1F
100
AcDbEntity
  8
NOCUT
100
AcDbCircle
 10
63.5
 20
14.0
 30
0.0
 40
0.8
100
AcDbArc
 50
180.0
 51
0.0
  0
ARC
  5
102E
330
1F
100
AcDbEntity
  8
1
100
AcDbCircle
 10
63.5
 20
14.00000000000003
 30
0.0
 40
0.8
100
AcDbArc
 50
180.0
 51
0.0
  0
DIMENSION
  5
102F
330
1F
100
AcDbEntity
  8
SK2
100
AcDbDimension
  2
*D10
 10
92.87507113350001
 20
4.000000000000023
 30
0.0
 11
92.87507113350001
 21
-13.44499999999996
 31
0.0
 70
   160
  1
%%c<>
 71
     5
 42
8.0
  3
ISO-25
100
AcDbAlignedDimension
 13
81.0
 23
-3.999999999999971
 33
0.0
 14
81.0
 24
4.000000000000028
 34
0.0
 50
90.0
100
AcDbRotatedDimension
1001
ACAD
1000
DSTYLE
1002
{
1070
   179
1070
     4
1070
   275
1070
     1
1002
}
  0
LINE
  5
1030
330
1F
100
AcDbEntity
  8
NOCUT
100
AcDbLine
 10
80.5
 20
11.58045018439997
 30
0.0
 11
80.5
 21
0.0
 31
0.0
  0
LINE
  5
1031
330
1F
100
AcDbEntity
  8
SK3
100
AcDbLine
 10
80.00000000009999
 20
4.000000000000028
 30
0.0
 11
80.00000000009999
 21
-3.999999999999971
 31
0.0
  0
LINE
  5
1032
330
1F
100
AcDbEntity
  8
SK3
100
AcDbLine
 10
76.90000000000003
 20
5.500000000000028
 30
0.0
 11
76.90000000000003
 21
-5.499999999999971
 31
0.0
  0
LINE
  5
1033
330
1F
100
AcDbEntity
  8
1
100
AcDbLine
 10
80.5
 20
11.58045018439999
 30
0.0
 11
80.5
 21
-11.58045018439997
 31
0.0
  0
LINE
  5
1034
330
1F
100
AcDbEntity
  8
SK3
100
AcDbLine
 10
75.77500000000005
 20
-5.499999999999971
 30
0.0
 11
75.77500000000005
 21
-8.999999999999969
 31
0.0
  0
ARC
  5
1035
330
1F
100
AcDbEntity
  8
SK3
100
AcDbCircle
 10
74.77500000000003
 20
-8.999999999999969
 30
0.0
 40
1.0
100
AcDbArc
 50
270.0
 51
0.0
  0
ARC
  5
1036
330
1F
100
AcDbEntity
  8
1
100
AcDbCircle
 10
80.0
 20
-11.58045018439997
 30
0.0
 40
0.5
100
AcDbArc
 50
280.0000000036
 51
0.0
  0
INSERT
  5
1037
330
1F
100
AcDbEntity
  8
1
100
AcDbBlockReference
  2
nullpunkt_2
 10
80.5
 20
0.0
 30
0.0
 41
-1.0
 50
180.0
  0
LINE
  5
1038
330
1F
100
AcDbEntity
  8
SK3
100
AcDbLine
 10
80.00005666869999
 20
-3.999943307799981
 30
0.0
 11
80.50006375219998
 21
-4.499936221199988
 31
0.0
  0
LINE
  5
1039
330
1F
100
AcDbEntity
  8
SK3
100
AcDbLine
 10
80.00005666959998
 20
3.999943308700011
 30
0.0
 11
80.50006375330003
 21
4.499936222300021
 31
0.0
  0
ARC
  5
103A
330
1F
100
AcDbEntity
  8
NOCUT
100
AcDbCircle
 10
80.0
 20
11.58045018439997
 30
0.0
 40
0.5
100
AcDbArc
 50
0.0
 51
79.99999999820065
  0
ARC
  5
103B
330
1F
100
AcDbEntity
  8
1
100
AcDbCircle
 10
80.0
 20
11.58045018439999
 30
0.0
 40
0.5
100
AcDbArc
 50
0.0
 51
79.99999999820065
  0
LINE
  5
103C
330
1F
100
AcDbEntity
  8
NOCUT
100
AcDbLine
 10
20.0
 20
24.75
 30
0.0
 11
44.29348460619997
 21
24.75
 31
0.0
  0
LINE
  5
103D
330
1F
100
AcDbEntity
  8
1
100
AcDbLine
 10
20.0
 20
24.75000000000003
 30
0.0
 11
44.29348460619999
 21
24.75000000000003
 31
0.0
  0
LINE
  5
103E
330
1F
100
AcDbEntity
  8
NOCUT
100
AcDbLine
 10
12.9749999999999
 20
29.39776026659996
 30
0.0
 11
14.34749999999996
 21
31.77499999999996
 31
0.0
  0
ARC
  5
103F
330
1F
100
AcDbEntity
  8
NOCUT
100
AcDbCircle
 10
17.5
 20
30.17499999999994
 30
0.0
 40
1.6
100
AcDbArc
 50
0.0
 51
90.0
  0
ARC
  5
1040
330
1F
100
AcDbEntity
  8
1
100
AcDbCircle
 10
17.50000000000001
 20
30.175
 30
0.0
 40
1.6
100
AcDbArc
 50
0.0
 51
90.0
  0
LINE
  5
1041
330
1F
100
AcDbEntity
  8
1
100
AcDbLine
 10
12.97500000000002
 20
29.39776026660002
 30
0.0
 11
14.34750000000001
 21
31.77500000000003
 31
0.0
  0
LINE
  5
1042
330
1F
100
AcDbEntity
  8
1
100
AcDbLine
 10
14.34750000000001
 20
25.83409810690003
 30
0.0
 11
14.34750000000001
 21
31.77500000000003
 31
0.0
  0
LINE
  5
1043
330
1F
100
AcDbEntity
  8
SK3
100
AcDbLine
 10
15.50347982289999
 20
26.74390361560003
 30
0.0
 11
17.15926223730002
 21
24.37922225660003
 31
0.0
  0
LINE
  5
1044
330
1F
100
AcDbEntity
  8
SK3
100
AcDbLine
 10
17.2548776026
 20
27.08923568660003
 30
0.0
 11
15.91742542649997
 21
26.15273327590003
 31
0.0
  0
LINE
  5
1045
330
1F
100
AcDbEntity
  8
SK3
100
AcDbLine
 10
18.08276880980002
 20
25.90689500710004
 30
0.0
 11
16.74531663370001
 21
24.97039259640003
 31
0.0
  0
LINE
  5
1046
330
1F
100
AcDbEntity
  8
SK3
100
AcDbLine
 10
19.10277284019996
 20
24.45019121820001
 30
0.0
 11
15.00702458269998
 21
21.5822919502
 31
0.0
  0
LINE
  5
1047
330
1F
100
AcDbEntity
  8
SK3
100
AcDbLine
 10
16.0914786088
 20
28.75072688850002
 30
0.0
 11
18.98305750160003
 21
30.77545020360003
 31
0.0
  0
LINE
  5
1048
330
1F
100
AcDbEntity
  8
SK3
100
AcDbLine
 10
18.4884106016
 20
24.02000632800002
 30
0.0
 11
15.62051133359998
 21
28.11575458540001
 31
0.0
  0
LINE
  5
1049
330
1F
100
AcDbEntity
  8
SK3
100
AcDbLine
 10
19.24616780359996
 20
24.24540380530004
 30
0.0
 11
16.0914786088
 21
28.75072688850002
 31
0.0
  0
LINE
  5
104A
330
1F
100
AcDbEntity
  8
SK3
100
AcDbLine
 10
11.14969137309998
 20
24.37483587440002
 30
0.0
 11
11.14969137309995
 21
21.93331253790003
 31
0.0
  0
LINE
  5
104B
330
1F
100
AcDbEntity
  8
SK3
100
AcDbLine
 10
15.00702458269998
 20
21.5822919502
 30
0.0
 11
12.13912531480001
 21
25.67804020770003
 31
0.0
  0
LINE
  5
104C
330
1F
100
AcDbEntity
  8
SK3
100
AcDbLine
 10
15.41659940849998
 20
21.86908187700004
 30
0.0
 11
12.5487001405
 21
25.96483013450002
 31
0.0
  0
LINE
  5
104D
330
1F
100
AcDbEntity
  8
SK3
100
AcDbLine
 10
15.41659940849998
 20
21.86908187700004
 30
0.0
 11
14.72023465590001
 21
21.99186677590002
 31
0.0
  0
ARC
  5
104E
330
1F
100
AcDbEntity
  8
NOCUT
100
AcDbCircle
 10
12.4749999999999
 20
28.625
 30
0.0
 40
0.5
100
AcDbArc
 50
270.0
 51
0.0
  0
LINE
  5
104F
330
1F
100
AcDbEntity
  8
SK3
100
AcDbLine
 10
16.2348735722
 20
28.54593947560005
 30
0.0
 11
12.13912531480001
 21
25.67804020770003
 31
0.0
  0
LINE
  5
1050
330
1F
100
AcDbEntity
  8
SK3
100
AcDbLine
 10
11.14969137309998
 20
24.37483587440002
 30
0.0
 11
16.52166349899999
 21
28.13636464990003
 31
0.0
  0
ARC
  5
1051
330
1F
100
AcDbEntity
  8
1
100
AcDbCircle
 10
12.47500000000002
 20
28.62500000000002
 30
0.0
 40
0.5
100
AcDbArc
 50
270.0
 51
0.0
  0
LINE
  5
1052
330
1F
100
AcDbEntity
  8
NOCUT
100
AcDbLine
 10
12.97500000000002
 20
28.625
 30
0.0
 11
12.9749999999999
 21
29.39776026639993
 31
0.0
  0
LINE
  5
1053
330
1F
100
AcDbEntity
  8
NOCUT
100
AcDbLine
 10
9.224999999999909
 20
29.39776026639993
 30
0.0
 11
9.224999999999797
 21
28.625
 31
0.0
  0
ARC
  5
1054
330
1F
100
AcDbEntity
  8
NOCUT
100
AcDbCircle
 10
9.724999999999909
 20
28.625
 30
0.0
 40
0.5
100
AcDbArc
 50
180.0
 51
270.0
  0
LINE
  5
1055
330
1F
100
AcDbEntity
  8
NOCUT
100
AcDbLine
 10
9.724999999999909
 20
28.125
 30
0.0
 11
12.4749999999999
 21
28.125
 31
0.0
  0
LINE
  5
1056
330
1F
100
AcDbEntity
  8
SK3
100
AcDbLine
 10
12.5487001405
 20
25.96483013450002
 30
0.0
 11
12.42591524160002
 21
25.26846538190003
 31
0.0
  0
LINE
  5
1057
330
1F
100
AcDbEntity
  8
1
100
AcDbLine
 10
9.725000000000024
 20
28.12500000000003
 30
0.0
 11
12.47500000000002
 21
28.12500000000003
 31
0.0
  0
ARC
  5
1058
330
1F
100
AcDbEntity
  8
1
100
AcDbCircle
 10
9.725000000000024
 20
28.62500000000002
 30
0.0
 40
0.5
100
AcDbArc
 50
180.0
 51
270.0
  0
LINE
  5
1059
330
1F
100
AcDbEntity
  8
SK3
100
AcDbLine
 10
16.84093199899999
 20
27.68040602640005
 30
0.0
 11
15.50347982289999
 21
26.74390361560003
 31
0.0
  0
LINE
  5
105A
330
1F
100
AcDbEntity
  8
SK3
100
AcDbLine
 10
16.66505846239999
 20
27.93157723700002
 30
0.0
 11
15.62051133359998
 21
28.11575458540001
 31
0.0
  0
LINE
  5
105B
330
1F
100
AcDbEntity
  8
SK3
100
AcDbLine
 10
19.24616780359996
 20
24.24540380530004
 30
0.0
 11
19.96763101847971
 21
24.75058227222536
 31
0.0
  0
LINE
  5
105C
330
1F
100
AcDbEntity
  8
SK3
100
AcDbLine
 10
18.67258795
 20
25.06455345680001
 30
0.0
 11
18.4884106016
 21
24.02000632800002
 31
0.0
  0
LINE
  5
105D
330
1F
100
AcDbEntity
  8
NOCUT
100
AcDbLine
 10
19.09999999999991
 20
30.12633029319998
 30
0.0
 11
19.09999999999991
 21
25.64999999999996
 31
0.0
  0
ARC
  5
105E
330
1F
100
AcDbEntity
  8
NOCUT
100
AcDbCircle
 10
20.0
 20
25.64999999999996
 30
0.0
 40
0.9
100
AcDbArc
 50
180.0
 51
270.0
  0
LINE
  5
105F
330
1F
100
AcDbEntity
  8
SK3
100
AcDbLine
 10
18.49671441340001
 20
25.31572466740001
 30
0.0
 11
17.15926223730002
 21
24.37922225660003
 31
0.0
  0
ARC
  5
1060
330
1F
100
AcDbEntity
  8
1
100
AcDbCircle
 10
20.0
 20
25.65000000000003
 30
0.0
 40
0.9
100
AcDbArc
 50
180.0
 51
270.0
  0
LINE
  5
1061
330
1F
100
AcDbEntity
  8
NOCUT
100
AcDbLine
 10
17.5
 20
31.77499999999996
 30
0.0
 11
14.34749999999996
 21
31.77499999999996
 31
0.0
  0
LINE
  5
1062
330
1F
100
AcDbEntity
  8
1
100
AcDbLine
 10
17.50000000000001
 20
31.77500000000003
 30
0.0
 11
14.34750000000001
 21
31.77500000000003
 31
0.0
  0
ENDSEC
  0
SECTION
  2
OBJECTS
  0
DICTIONARY
  5
9B4
330
0
100
AcDbDictionary
281
     1
  3
ACAD_GROUP
350
9B5
  3
ACAD_LAYOUT
350
9BD
  3
ACAD_MLINESTYLE
350
9B6
  3
ACAD_PLOTSETTINGS
350
9BE
  3
ACAD_PLOTSTYLENAME
350
9BB
  0
DICTIONARY
  5
9B5
102
{ACAD_REACTORS
330
9B4
102
}
330
9B4
100
AcDbDictionary
281
     1
  0
DICTIONARY
  5
9BD
102
{ACAD_REACTORS
330
9B4
102
}
330
9B4
100
AcDbDictionary
281
     1
  3
Layout1
350
9C0
  3
Model
350
9BF
  0
DICTIONARY
  5
9B6
102
{ACAD_REACTORS
330
9B4
102
}
330
9B4
100
AcDbDictionary
281
     1
  3
STANDARD
350
9B7
  0
DICTIONARY
  5
9BE
102
{ACAD_REACTORS
330
9B4
102
}
330
9B4
100
AcDbDictionary
281
     1
  0
ACDBDICTIONARYWDFLT
  5
9BB
102
{ACAD_REACTORS
330
9B4
102
}
330
9B4
100
AcDbDictionary
281
     1
  3
Normal
350
9BC
100
AcDbDictionaryWithDefault
340
9BC
  0
LAYOUT
  5
9C0
102
{ACAD_REACTORS
330
9BD
102
}
330
9BD
100
AcDbPlotSettings
  1

  2
Kein
  4

  6

 40
0.0
 41
0.0
 42
0.0
 43
0.0
 44
0.0
 45
0.0
 46
0.0
 47
0.0
 48
0.0
 49
0.0
140
0.0
141
0.0
142
1.0
143
1.0
 70
   688
 72
     0
 73
     0
 74
     5
  7

 75
    16
147
1.0
148
0.0
149
0.0
100
AcDbLayout
  1
Layout1
 70
     1
 71
     1
 10
0.0
 20
0.0
 11
12.0
 21
9.0
 12
0.0
 22
0.0
 32
0.0
 14
1.000000000000000E+20
 24
1.000000000000000E+20
 34
1.000000000000000E+20
 15
-1.000000000000000E+20
 25
-1.000000000000000E+20
 35
-1.000000000000000E+20
146
0.0
 13
0.0
 23
0.0
 33
0.0
 16
1.0
 26
0.0
 36
0.0
 17
0.0
 27
1.0
 37
0.0
 76
     0
330
1B
  0
LAYOUT
  5
9BF
102
{ACAD_REACTORS
330
9BD
102
}
330
9BD
100
AcDbPlotSettings
  1

  2
Kein
  4

  6

 40
0.0
 41
0.0
 42
0.0
 43
0.0
 44
0.0
 45
0.0
 46
0.0
 47
0.0
 48
0.0
 49
0.0
140
0.0
141
0.0
142
1.0
143
1.0
 70
  1712
 72
     0
 73
     0
 74
     0
  7

 75
     0
147
1.0
148
0.0
149
0.0
100
AcDbLayout
  1
Model
 70
     1
 71
     0
 10
0.0
 20
0.0
 11
12.0
 21
9.0
 12
0.0
 22
0.0
 32
0.0
 14
0.0
 24
0.0
 34
0.0
 15
0.0
 25
0.0
 35
0.0
146
0.0
 13
0.0
 23
0.0
 33
0.0
 16
1.0
 26
0.0
 36
0.0
 17
0.0
 27
1.0
 37
0.0
 76
     0
330
1F
  0
MLINESTYLE
  5
9B7
102
{ACAD_REACTORS
330
9B6
102
}
330
9B6
100
AcDbMlineStyle
  2
STANDARD
 70
     0
  3

 62
   256
 51
90.0
 52
90.0
 71
     2
 49
0.5
 62
   256
  6
BYLAYER
 49
-0.5
 62
   256
  6
BYLAYER
  0
ACDBPLACEHOLDER
  5
9BC
102
{ACAD_REACTORS
330
9BB
102
}
330
9BB
  0
ENDSEC
  0
EOF
