  0
SECTION
  2
HEADER
  9
$ACADVER
  1
AC1015
  9
$ACADMAINTVER
 70
    20
  9
$DWGCODEPAGE
  3
ANSI_1252
  9
$INSBASE
 10
0.0
 20
0.0
 30
0.0
  9
$EXTMIN
 10
-152.0499999999999
 20
-58.81788914890519
 30
0.0
  9
$EXTMAX
 10
74.69167231950234
 20
82.488437161689
 30
0.0
  9
$LIMMIN
 10
0.0
 20
0.0
  9
$LIMMAX
 10
297.0
 20
210.0
  9
$ORTHOMODE
 70
     0
  9
$REGENMODE
 70
     1
  9
$FILLMODE
 70
     1
  9
$QTEXTMODE
 70
     0
  9
$MIRRTEXT
 70
     1
  9
$LTSCALE
 40
16.335
  9
$ATTMODE
 70
     1
  9
$TEXTSIZE
 40
0.2
  9
$TRACEWID
 40
0.05
  9
$TEXTSTYLE
  7
STANDARD
  9
$CLAYER
  8
0
  9
$CELTYPE
  6
BYLAYER
  9
$CECOLOR
 62
   256
  9
$CELTSCALE
 40
1.0
  9
$DISPSILH
 70
     0
  9
$DIMSCALE
 40
1.0
  9
$DIMASZ
 40
2.5
  9
$DIMEXO
 40
1.85625
  9
$DIMDLI
 40
11.286
  9
$DIMRND
 40
0.0
  9
$DIMDLE
 40
0.0
  9
$DIMEXE
 40
5.346
  9
$DIMTP
 40
0.005
  9
$DIMTM
 40
0.005
  9
$DIMTXT
 40
3.5
  9
$DIMCEN
 40
2.673
  9
$DIMTSZ
 40
0.0
  9
$DIMTOL
 70
     1
  9
$DIMLIM
 70
     0
  9
$DIMTIH
 70
     1
  9
$DIMTOH
 70
     1
  9
$DIMSE1
 70
     0
  9
$DIMSE2
 70
     0
  9
$DIMTAD
 70
     0
  9
$DIMZIN
 70
     0
  9
$DIMBLK
  1
_FILLED
  9
$DIMASO
 70
     1
  9
$DIMSHO
 70
     1
  9
$DIMPOST
  1

  9
$DIMAPOST
  1

  9
$DIMALT
 70
     0
  9
$DIMALTD
 70
     2
  9
$DIMALTF
 40
25.4
  9
$DIMLFAC
 40
1.0
  9
$DIMTOFL
 70
     0
  9
$DIMTVP
 40
0.0
  9
$DIMTIX
 70
     0
  9
$DIMSOXD
 70
     0
  9
$DIMSAH
 70
     0
  9
$DIMBLK1
  1

  9
$DIMBLK2
  1

  9
$DIMSTYLE
  2
STANDARD
  9
$DIMCLRD
 70
     0
  9
$DIMCLRE
 70
     0
  9
$DIMCLRT
 70
     0
  9
$DIMTFAC
 40
1.0
  9
$DIMGAP
 40
0.09
  9
$DIMJUST
 70
     0
  9
$DIMSD1
 70
     0
  9
$DIMSD2
 70
     0
  9
$DIMTOLJ
 70
     1
  9
$DIMTZIN
 70
     0
  9
$DIMALTZ
 70
     0
  9
$DIMALTTZ
 70
     0
  9
$DIMUPT
 70
     0
  9
$DIMDEC
 70
     4
  9
$DIMTDEC
 70
     4
  9
$DIMALTU
 70
     2
  9
$DIMALTTD
 70
     2
  9
$DIMTXSTY
  7
STANDARD
  9
$DIMAUNIT
 70
     0
  9
$DIMADEC
 70
     0
  9
$DIMALTRND
 40
0.0
  9
$DIMAZIN
 70
     0
  9
$DIMDSEP
 70
    46
  9
$DIMATFIT
 70
     3
  9
$DIMFRAC
 70
     0
  9
$DIMLDRBLK
  1
_FILLED
  9
$DIMLUNIT
 70
     2
  9
$DIMLWD
 70
    -2
  9
$DIMLWE
 70
    -2
  9
$DIMTMOVE
 70
     0
  9
$LUNITS
 70
     2
  9
$LUPREC
 70
     4
  9
$SKETCHINC
 40
0.1
  9
$FILLETRAD
 40
0.0
  9
$AUNITS
 70
     0
  9
$AUPREC
 70
     0
  9
$MENU
  1
.
  9
$ELEVATION
 40
0.0
  9
$PELEVATION
 40
0.0
  9
$THICKNESS
 40
0.0
  9
$LIMCHECK
 70
     0
  9
$CHAMFERA
 40
0.0
  9
$CHAMFERB
 40
0.0
  9
$CHAMFERC
 40
0.0
  9
$CHAMFERD
 40
0.0
  9
$SKPOLY
 70
     0
  9
$TDCREATE
 40
2453782.649676435
  9
$TDUCREATE
 40
2453782.566343102
  9
$TDUPDATE
 40
2453899.539789896
  9
$TDUUPDATE
 40
2453899.456456563
  9
$TDINDWG
 40
0.0168554861
  9
$TDUSRTIMER
 40
0.0168553125
  9
$USRTIMER
 70
     1
  9
$ANGBASE
 50
0.0
  9
$ANGDIR
 70
     0
  9
$PDMODE
 70
     3
  9
$PDSIZE
 40
0.3125
  9
$PLINEWID
 40
0.0
  9
$SPLFRAME
 70
     0
  9
$SPLINETYPE
 70
     6
  9
$SPLINESEGS
 70
     8
  9
$HANDSEED
  5
643
  9
$SURFTAB1
 70
     6
  9
$SURFTAB2
 70
     6
  9
$SURFTYPE
 70
     6
  9
$SURFU
 70
     6
  9
$SURFV
 70
     6
  9
$UCSBASE
  2

  9
$UCSNAME
  2

  9
$UCSORG
 10
0.0
 20
0.0
 30
0.0
  9
$UCSXDIR
 10
1.0
 20
0.0
 30
0.0
  9
$UCSYDIR
 10
0.0
 20
1.0
 30
0.0
  9
$UCSORTHOREF
  2

  9
$UCSORTHOVIEW
 70
     0
  9
$UCSORGTOP
 10
0.0
 20
0.0
 30
0.0
  9
$UCSORGBOTTOM
 10
0.0
 20
0.0
 30
0.0
  9
$UCSORGLEFT
 10
0.0
 20
0.0
 30
0.0
  9
$UCSORGRIGHT
 10
0.0
 20
0.0
 30
0.0
  9
$UCSORGFRONT
 10
0.0
 20
0.0
 30
0.0
  9
$UCSORGBACK
 10
0.0
 20
0.0
 30
0.0
  9
$PUCSBASE
  2

  9
$PUCSNAME
  2

  9
$PUCSORG
 10
0.0
 20
0.0
 30
0.0
  9
$PUCSXDIR
 10
1.0
 20
0.0
 30
0.0
  9
$PUCSYDIR
 10
0.0
 20
1.0
 30
0.0
  9
$PUCSORTHOREF
  2

  9
$PUCSORTHOVIEW
 70
     0
  9
$PUCSORGTOP
 10
0.0
 20
0.0
 30
0.0
  9
$PUCSORGBOTTOM
 10
0.0
 20
0.0
 30
0.0
  9
$PUCSORGLEFT
 10
0.0
 20
0.0
 30
0.0
  9
$PUCSORGRIGHT
 10
0.0
 20
0.0
 30
0.0
  9
$PUCSORGFRONT
 10
0.0
 20
0.0
 30
0.0
  9
$PUCSORGBACK
 10
0.0
 20
0.0
 30
0.0
  9
$USERI1
 70
     0
  9
$USERI2
 70
     0
  9
$USERI3
 70
     0
  9
$USERI4
 70
     0
  9
$USERI5
 70
     0
  9
$USERR1
 40
0.0
  9
$USERR2
 40
0.0
  9
$USERR3
 40
0.0
  9
$USERR4
 40
0.0
  9
$USERR5
 40
0.0
  9
$WORLDVIEW
 70
     1
  9
$SHADEDGE
 70
     3
  9
$SHADEDIF
 70
    70
  9
$TILEMODE
 70
     1
  9
$MAXACTVP
 70
    64
  9
$PINSBASE
 10
0.0
 20
0.0
 30
0.0
  9
$PLIMCHECK
 70
     0
  9
$PEXTMIN
 10
1.000000000000000E+20
 20
1.000000000000000E+20
 30
1.000000000000000E+20
  9
$PEXTMAX
 10
-1.000000000000000E+20
 20
-1.000000000000000E+20
 30
-1.000000000000000E+20
  9
$PLIMMIN
 10
0.0
 20
0.0
  9
$PLIMMAX
 10
12.0
 20
9.0
  9
$UNITMODE
 70
     0
  9
$VISRETAIN
 70
     1
  9
$PLINEGEN
 70
     0
  9
$PSLTSCALE
 70
     1
  9
$TREEDEPTH
 70
  3020
  9
$CMLSTYLE
  2
STANDARD
  9
$CMLJUST
 70
     0
  9
$CMLSCALE
 40
1.0
  9
$PROXYGRAPHICS
 70
     1
  9
$MEASUREMENT
 70
     1
  9
$CELWEIGHT
370
    -1
  9
$ENDCAPS
280
     0
  9
$JOINSTYLE
280
     0
  9
$LWDISPLAY
290
     0
  9
$INSUNITS
 70
     0
  9
$HYPERLINKBASE
  1

  9
$STYLESHEET
  1

  9
$XEDIT
290
     1
  9
$CEPSNTYPE
380
     0
  9
$PSTYLEMODE
290
     1
  9
$FINGERPRINTGUID
  2
{A0278E7F-29D4-4CD6-9ECC-0ED8AB8F6D0D}
  9
$VERSIONGUID
  2
{F6136454-070C-4645-B343-18DBD85E7CA2}
  9
$EXTNAMES
290
     1
  9
$PSVPSCALE
 40
0.0
  9
$OLESTARTUP
290
     0
  0
ENDSEC
  0
SECTION
  2
CLASSES
  0
CLASS
  1
ACDBDICTIONARYWDFLT
  2
AcDbDictionaryWithDefault
  3
ObjectDBX Classes
 90
        0
280
     0
281
     0
  0
CLASS
  1
ACDBPLACEHOLDER
  2
AcDbPlaceHolder
  3
ObjectDBX Classes
 90
        0
280
     0
281
     0
  0
CLASS
  1
LAYOUT
  2
AcDbLayout
  3
ObjectDBX Classes
 90
        0
280
     0
281
     0
  0
CLASS
  1
TABLESTYLE
  2
AcDbTableStyle
  3
ObjectDBX Classes
 90
     2047
280
     0
281
     0
  0
CLASS
  1
DICTIONARYVAR
  2
AcDbDictionaryVar
  3
ObjectDBX Classes
 90
        0
280
     0
281
     0
  0
ENDSEC
  0
SECTION
  2
TABLES
  0
TABLE
  2
VPORT
  5
8
330
0
100
AcDbSymbolTable
 70
     2
  0
VPORT
  5
63D
330
8
100
AcDbSymbolTableRecord
100
AcDbViewportTableRecord
  2
*Active
 70
     0
 10
0.0
 20
0.0
 11
1.0
 21
1.0
 12
-38.68722349473328
 22
17.17675658552731
 13
0.0
 23
0.0
 14
1.0
 24
1.0
 15
0.0
 25
0.0
 16
0.0
 26
0.0
 36
1.0
 17
0.0
 27
0.0
 37
0.0
 40
153.1238496812495
 41
1.522727272727272
 42
50.0
 43
0.0
 44
0.0
 50
0.0
 51
0.0
 71
     0
 72
   100
 73
     1
 74
     1
 75
     0
 76
     0
 77
     0
 78
     0
281
     0
 65
     1
110
0.0
120
0.0
130
0.0
111
1.0
121
0.0
131
0.0
112
0.0
122
1.0
132
0.0
 79
     0
146
0.0
  0
ENDTAB
  0
TABLE
  2
LTYPE
  5
5
330
0
100
AcDbSymbolTable
 70
     3
  0
LTYPE
  5
14
330
5
100
AcDbSymbolTableRecord
100
AcDbLinetypeTableRecord
  2
BYBLOCK
 70
     0
  3

 72
    65
 73
     0
 40
0.0
  0
LTYPE
  5
15
330
5
100
AcDbSymbolTableRecord
100
AcDbLinetypeTableRecord
  2
BYLAYER
 70
     0
  3

 72
    65
 73
     0
 40
0.0
  0
LTYPE
  5
16
330
5
100
AcDbSymbolTableRecord
100
AcDbLinetypeTableRecord
  2
CONTINUOUS
 70
     0
  3
Solid line
 72
    65
 73
     0
 40
0.0
  0
LTYPE
  5
1F5
330
5
100
AcDbSymbolTableRecord
100
AcDbLinetypeTableRecord
  2
CENTER
 70
     0
  3
____ _ ____ _ ____ _ ____ _ ____ _ ____ _ ____
 72
    65
 73
     4
 40
0.6
 49
0.375
 74
     0
 49
-0.075
 74
     0
 49
0.075
 74
     0
 49
-0.075
 74
     0
  0
LTYPE
  5
1F6
330
5
100
AcDbSymbolTableRecord
100
AcDbLinetypeTableRecord
  2
HIDDEN
 70
     0
  3
- - - - - - - - - - - - - - - - - - - -
 72
    65
 73
     2
 40
0.2
 49
0.1
 74
     0
 49
-0.1
 74
     0
  0
ENDTAB
  0
TABLE
  2
LAYER
  5
2
330
0
100
AcDbSymbolTable
 70
    11
  0
LAYER
  5
10
330
2
100
AcDbSymbolTableRecord
100
AcDbLayerTableRecord
  2
0
 70
     0
 62
     7
  6
CONTINUOUS
370
    -3
390
2D9
  0
LAYER
  5
1FE
330
2
100
AcDbSymbolTableRecord
100
AcDbLayerTableRecord
  2
1
 70
     0
 62
     4
  6
CONTINUOUS
370
    -3
390
2D9
  0
LAYER
  5
1FF
330
2
100
AcDbSymbolTableRecord
100
AcDbLayerTableRecord
  2
2
 70
     0
 62
     7
  6
CONTINUOUS
370
    -3
390
2D9
  0
LAYER
  5
200
330
2
100
AcDbSymbolTableRecord
100
AcDbLayerTableRecord
  2
4
 70
     0
 62
     2
  6
CENTER
370
    -3
390
2D9
  0
LAYER
  5
201
330
2
100
AcDbSymbolTableRecord
100
AcDbLayerTableRecord
  2
6
 70
     0
 62
     5
  6
CONTINUOUS
370
    -3
390
2D9
  0
LAYER
  5
202
330
2
100
AcDbSymbolTableRecord
100
AcDbLayerTableRecord
  2
NOCUT
 70
     0
 62
     7
  6
CONTINUOUS
370
    -3
390
2D9
  0
LAYER
  5
203
330
2
100
AcDbSymbolTableRecord
100
AcDbLayerTableRecord
  2
SK1
 70
     0
 62
     4
  6
CONTINUOUS
370
    -3
390
2D9
  0
LAYER
  5
204
330
2
100
AcDbSymbolTableRecord
100
AcDbLayerTableRecord
  2
SK2
 70
     0
 62
     7
  6
CONTINUOUS
370
    -3
390
2D9
  0
LAYER
  5
205
330
2
100
AcDbSymbolTableRecord
100
AcDbLayerTableRecord
  2
SK3
 70
     0
 62
     1
  6
HIDDEN
370
    -3
390
2D9
  0
LAYER
  5
206
330
2
100
AcDbSymbolTableRecord
100
AcDbLayerTableRecord
  2
SK4
 70
     0
 62
     2
  6
CENTER
370
    -3
390
2D9
  0
LAYER
  5
346
330
2
100
AcDbSymbolTableRecord
100
AcDbLayerTableRecord
  2
Defpoints
 70
     0
 62
     7
  6
CONTINUOUS
290
     0
370
    -3
390
2D9
  0
ENDTAB
  0
TABLE
  2
STYLE
  5
3
330
0
100
AcDbSymbolTable
 70
     1
  0
STYLE
  5
11
330
3
100
AcDbSymbolTableRecord
100
AcDbTextStyleTableRecord
  2
STANDARD
 70
     0
 40
0.0
 41
0.8
 50
0.0
 71
     0
 42
0.2
  3
isocp.shx
  4

  0
ENDTAB
  0
TABLE
  2
VIEW
  5
6
330
0
100
AcDbSymbolTable
 70
     0
  0
ENDTAB
  0
TABLE
  2
UCS
  5
7
330
0
100
AcDbSymbolTable
 70
     0
  0
ENDTAB
  0
TABLE
  2
APPID
  5
9
330
0
100
AcDbSymbolTable
 70
     1
  0
APPID
  5
207
330
9
100
AcDbSymbolTableRecord
100
AcDbRegAppTableRecord
  2
ACAD
 70
     0
  0
ENDTAB
  0
TABLE
  2
DIMSTYLE
  5
A
330
0
100
AcDbSymbolTable
 70
     2
100
AcDbDimStyleTable
 71
     1
340
347
  0
DIMSTYLE
105
208
330
A
100
AcDbSymbolTableRecord
100
AcDbDimStyleTableRecord
  2
STANDARD
 70
     0
 41
2.5
 47
0.005
 48
0.005
 71
     1
 73
     0
 74
     0
 77
     1
 78
     8
140
3.5
178
     2
271
     3
272
     3
284
     8
340
11
341
20A
342
20A
343
20A
344
20A
  0
DIMSTYLE
105
347
102
{ACAD_REACTORS
330
268
330
267
330
26C
330
26B
330
26A
330
266
330
26D
330
269
102
}
330
A
100
AcDbSymbolTableRecord
100
AcDbDimStyleTableRecord
  2
ISO-25
 70
     0
 41
3.5
 42
0.625
 43
3.75
 44
2.0
 73
     0
 74
     0
 77
     1
 78
     8
140
3.5
141
2.5
143
0.03937007874016
147
0.625
171
     3
172
     1
176
   256
177
   256
178
   256
271
     2
272
     2
274
     3
283
     0
284
     8
340
11
  0
ENDTAB
  0
TABLE
  2
BLOCK_RECORD
  5
1
330
0
100
AcDbSymbolTable
 70
     9
  0
BLOCK_RECORD
  5
1B
330
1
100
AcDbSymbolTableRecord
100
AcDbBlockTableRecord
  2
*MODEL_SPACE
340
2DC
  0
BLOCK_RECORD
  5
1C
330
1
100
AcDbSymbolTableRecord
100
AcDbBlockTableRecord
  2
*PAPER_SPACE
340
2DD
  0
BLOCK_RECORD
  5
20A
330
1
100
AcDbSymbolTableRecord
100
AcDbBlockTableRecord
  2
_FILLED
340
0
  0
BLOCK_RECORD
  5
20B
330
1
100
AcDbSymbolTableRecord
100
AcDbBlockTableRecord
  2
*D1
340
0
  0
BLOCK_RECORD
  5
20C
330
1
100
AcDbSymbolTableRecord
100
AcDbBlockTableRecord
  2
*D2
340
0
  0
BLOCK_RECORD
  5
20D
330
1
100
AcDbSymbolTableRecord
100
AcDbBlockTableRecord
  2
*D3
340
0
  0
BLOCK_RECORD
  5
20E
330
1
100
AcDbSymbolTableRecord
100
AcDbBlockTableRecord
  2
*D4
340
0
  0
BLOCK_RECORD
  5
20F
330
1
100
AcDbSymbolTableRecord
100
AcDbBlockTableRecord
  2
*D5
340
0
  0
BLOCK_RECORD
  5
210
330
1
100
AcDbSymbolTableRecord
100
AcDbBlockTableRecord
  2
*D6
340
0
  0
BLOCK_RECORD
  5
211
330
1
100
AcDbSymbolTableRecord
100
AcDbBlockTableRecord
  2
*D7
340
0
  0
BLOCK_RECORD
  5
212
330
1
100
AcDbSymbolTableRecord
100
AcDbBlockTableRecord
  2
*D8
340
0
  0
ENDTAB
  0
ENDSEC
  0
SECTION
  2
BLOCKS
  0
BLOCK
  5
1E
330
1B
100
AcDbEntity
  8
0
100
AcDbBlockBegin
  2
*MODEL_SPACE
 70
     0
 10
0.0
 20
0.0
 30
0.0
  3
*MODEL_SPACE
  1

  0
ENDBLK
  5
1F
330
1B
100
AcDbEntity
  8
0
100
AcDbBlockEnd
  0
BLOCK
  5
20
330
1C
100
AcDbEntity
 67
     1
  8
0
100
AcDbBlockBegin
  2
*PAPER_SPACE
 70
     0
 10
0.0
 20
0.0
 30
0.0
  3
*PAPER_SPACE
  1

  0
ENDBLK
  5
21
330
1C
100
AcDbEntity
 67
     1
  8
0
100
AcDbBlockEnd
  0
BLOCK
  5
263
330
20A
100
AcDbEntity
  8
0
100
AcDbBlockBegin
  2
_FILLED
 70
     0
 10
0.0
 20
0.0
 30
0.0
  3
_FILLED
  1

  0
SOLID
  5
264
330
20A
100
AcDbEntity
  8
0
  6
ByBlock
 62
     0
100
AcDbTrace
 10
0.0
 20
0.0
 30
0.0
 11
-1.0
 21
0.132
 31
0.0
 12
-1.0
 22
-0.132
 32
0.0
 13
-1.0
 23
-0.132
 33
0.0
  0
ENDBLK
  5
265
330
20A
100
AcDbEntity
  8
0
  6
ByBlock
 62
     0
100
AcDbBlockEnd
  0
BLOCK
  5
213
330
20B
100
AcDbEntity
  8
2
  6
Continuous
 62
     7
100
AcDbBlockBegin
  2
*D1
 70
     1
 10
0.0
 20
0.0
 30
0.0
  3
*D1
  1

  0
LINE
  5
607
330
20B
100
AcDbEntity
  8
2
370
    -2
100
AcDbLine
 10
0.0
 20
36.7046365211
 30
0.0
 11
0.0000000000000017
 21
63.7741249429
 31
0.0
  0
LINE
  5
608
330
20B
100
AcDbEntity
  8
2
370
    -2
100
AcDbLine
 10
3.200000000000017
 20
50.37499999999997
 30
0.0
 11
3.200000000000017
 21
63.7741249429
 31
0.0
  0
LINE
  5
609
330
20B
100
AcDbEntity
  8
2
370
    -2
100
AcDbLine
 10
6.700000000000017
 20
61.7741249429
 30
0.0
 11
10.20000000000001
 21
61.7741249429
 31
0.0
  0
LINE
  5
60A
330
20B
100
AcDbEntity
  8
2
370
    -2
100
AcDbLine
 10
-3.499999999999998
 20
61.7741249429
 30
0.0
 11
-13.85000000000001
 21
61.7741249429
 31
0.0
  0
LINE
  5
60B
330
20B
100
AcDbEntity
  8
2
370
    -2
100
AcDbLine
 10
3.200000000000017
 20
61.7741249429
 30
0.0
 11
0.0000000000000016
 21
61.7741249429
 31
0.0
  0
SOLID
  5
60C
330
20B
100
AcDbEntity
  8
2
100
AcDbTrace
 10
6.700000000000017
 20
62.35745827623333
 30
0.0
 11
6.700000000000017
 21
61.19079160956665
 31
0.0
 12
3.200000000000017
 22
61.7741249429
 32
0.0
 13
3.200000000000017
 23
61.7741249429
 33
0.0
  0
SOLID
  5
60D
330
20B
100
AcDbEntity
  8
2
100
AcDbTrace
 10
-3.499999999999998
 20
62.35745827623333
 30
0.0
 11
-3.499999999999998
 21
61.19079160956665
 31
0.0
 12
0.0000000000000016
 22
61.7741249429
 32
0.0
 13
0.0000000000000016
 23
61.7741249429
 33
0.0
  0
MTEXT
  5
60E
330
20B
100
AcDbEntity
  8
2
100
AcDbMText
 10
-10.42500000000001
 20
64.1491249429
 30
0.0
 40
3.5
 41
0.0
 71
     5
 72
     1
  1
3.2
 73
     1
 44
1.0
1001
ACAD
1000
MTEXTBEGIN
1070
    73
1070
     1
1070
    44
1040
1.0
1070
    74
1070
     0
1000
MTEXTEND
  0
POINT
  5
60F
330
20B
100
AcDbEntity
  8
Defpoints
 62
     0
100
AcDbPoint
 10
0.0
 20
36.0796365211
 30
0.0
  0
POINT
  5
610
330
20B
100
AcDbEntity
  8
Defpoints
 62
     0
100
AcDbPoint
 10
3.200000000000017
 20
49.74999999999997
 30
0.0
  0
POINT
  5
611
330
20B
100
AcDbEntity
  8
Defpoints
 62
     0
100
AcDbPoint
 10
3.200000000000017
 20
61.7741249429
 30
0.0
  0
ENDBLK
  5
21D
330
20B
100
AcDbEntity
  8
0
  6
ByBlock
 62
     0
100
AcDbBlockEnd
  0
BLOCK
  5
21E
330
20C
100
AcDbEntity
  8
SK2
  6
Continuous
 62
     7
100
AcDbBlockBegin
  2
*D2
 70
     1
 10
0.0
 20
0.0
 30
0.0
  3
*D2
  1

  0
LINE
  5
5E1
330
20C
100
AcDbEntity
  8
SK2
370
    -2
100
AcDbLine
 10
-1.625
 20
-34.92499999999999
 30
0.0
 11
-141.4249999999999
 21
-34.92499999999996
 31
0.0
  0
LINE
  5
5E2
330
20C
100
AcDbEntity
  8
SK2
370
    -2
100
AcDbLine
 10
-1.625
 20
34.92499999999999
 30
0.0
 11
-141.4249999999999
 21
34.92500000000003
 31
0.0
  0
LINE
  5
5E3
330
20C
100
AcDbEntity
  8
SK2
370
    -2
100
AcDbLine
 10
-139.4249999999999
 20
-31.42499999999996
 30
0.0
 11
-139.4249999999999
 21
31.42500000000004
 31
0.0
  0
SOLID
  5
5E4
330
20C
100
AcDbEntity
  8
SK2
100
AcDbTrace
 10
-140.0083333333333
 20
-31.42499999999996
 30
0.0
 11
-138.8416666666666
 21
-31.42499999999996
 31
0.0
 12
-139.4249999999999
 22
-34.92499999999996
 32
0.0
 13
-139.4249999999999
 23
-34.92499999999996
 33
0.0
  0
SOLID
  5
5E5
330
20C
100
AcDbEntity
  8
SK2
100
AcDbTrace
 10
-140.0083333333333
 20
31.42500000000004
 30
0.0
 11
-138.8416666666666
 21
31.42500000000004
 31
0.0
 12
-139.4249999999999
 22
34.92500000000003
 32
0.0
 13
-139.4249999999999
 23
34.92500000000003
 33
0.0
  0
MTEXT
  5
5E6
330
20C
100
AcDbEntity
  8
SK2
100
AcDbMText
 10
-141.7999999999999
 20
0.0000000001000021
 30
0.0
 40
3.5
 41
0.0
 71
     5
 72
     1
  1
%%c69.85
 11
0.0000000000000001
 21
1.0
 31
0.0
 73
     1
 44
1.0
1001
ACAD
1000
MTEXTBEGIN
1070
    73
1070
     1
1070
    44
1040
1.0
1070
    74
1070
     0
1000
MTEXTEND
  0
POINT
  5
5E7
330
20C
100
AcDbEntity
  8
Defpoints
 62
     0
100
AcDbPoint
 10
-1.0
 20
-34.92499999999999
 30
0.0
  0
POINT
  5
5E8
330
20C
100
AcDbEntity
  8
Defpoints
 62
     0
100
AcDbPoint
 10
-1.0
 20
34.92499999999999
 30
0.0
  0
POINT
  5
5E9
330
20C
100
AcDbEntity
  8
Defpoints
 62
     0
100
AcDbPoint
 10
-139.4249999999999
 20
34.92500000000003
 30
0.0
  0
ENDBLK
  5
227
330
20C
100
AcDbEntity
  8
0
  6
ByBlock
 62
     0
100
AcDbBlockEnd
  0
BLOCK
  5
228
330
20D
100
AcDbEntity
  8
SK2
  6
Continuous
 62
     7
100
AcDbBlockBegin
  2
*D3
 70
     1
 10
0.0
 20
0.0
 30
0.0
  3
*D3
  1

  0
LINE
  5
5D8
330
20D
100
AcDbEntity
  8
SK2
370
    -2
100
AcDbLine
 10
1.575000000000015
 20
-48.75
 30
0.0
 11
-149.9249999999999
 21
-48.74999999999996
 31
0.0
  0
LINE
  5
5D9
330
20D
100
AcDbEntity
  8
SK2
370
    -2
100
AcDbLine
 10
1.575000000000017
 20
48.75
 30
0.0
 11
-149.9249999999999
 21
48.75000000000003
 31
0.0
  0
LINE
  5
5DA
330
20D
100
AcDbEntity
  8
SK2
370
    -2
100
AcDbLine
 10
-147.9249999999999
 20
-45.24999999999995
 30
0.0
 11
-147.9249999999999
 21
45.25000000000003
 31
0.0
  0
SOLID
  5
5DB
330
20D
100
AcDbEntity
  8
SK2
100
AcDbTrace
 10
-148.5083333333333
 20
-45.24999999999995
 30
0.0
 11
-147.3416666666666
 21
-45.24999999999995
 31
0.0
 12
-147.9249999999999
 22
-48.74999999999996
 32
0.0
 13
-147.9249999999999
 23
-48.74999999999996
 33
0.0
  0
SOLID
  5
5DC
330
20D
100
AcDbEntity
  8
SK2
100
AcDbTrace
 10
-148.5083333333333
 20
45.25000000000003
 30
0.0
 11
-147.3416666666666
 21
45.25000000000003
 31
0.0
 12
-147.9249999999999
 22
48.75000000000003
 32
0.0
 13
-147.9249999999999
 23
48.75000000000003
 33
0.0
  0
MTEXT
  5
5DD
330
20D
100
AcDbEntity
  8
SK2
100
AcDbMText
 10
-150.2999999999999
 20
0.0000000001000021
 30
0.0
 40
3.5
 41
0.0
 71
     5
 72
     1
  1
%%c97.5
 11
0.0000000000000001
 21
1.0
 31
0.0
 73
     1
 44
1.0
1001
ACAD
1000
MTEXTBEGIN
1070
    73
1070
     1
1070
    44
1040
1.0
1070
    74
1070
     0
1000
MTEXTEND
  0
POINT
  5
5DE
330
20D
100
AcDbEntity
  8
Defpoints
 62
     0
100
AcDbPoint
 10
2.200000000000017
 20
-48.75
 30
0.0
  0
POINT
  5
5DF
330
20D
100
AcDbEntity
  8
Defpoints
 62
     0
100
AcDbPoint
 10
2.200000000000017
 20
48.75
 30
0.0
  0
POINT
  5
5E0
330
20D
100
AcDbEntity
  8
Defpoints
 62
     0
100
AcDbPoint
 10
-147.9249999999999
 20
48.75000000000003
 30
0.0
  0
ENDBLK
  5
231
330
20D
100
AcDbEntity
  8
0
  6
ByBlock
 62
     0
100
AcDbBlockEnd
  0
BLOCK
  5
232
330
20E
100
AcDbEntity
  8
SK2
  6
Continuous
 62
     7
100
AcDbBlockBegin
  2
*D4
 70
     1
 10
0.0
 20
0.0
 30
0.0
  3
*D4
  1

  0
LINE
  5
5CF
330
20E
100
AcDbEntity
  8
SK2
370
    -2
100
AcDbLine
 10
36.125
 20
-39.0
 30
0.0
 11
59.87499999999999
 21
-39.0
 31
0.0
  0
LINE
  5
5D0
330
20E
100
AcDbEntity
  8
SK2
370
    -2
100
AcDbLine
 10
37.125
 20
38.99999999999998
 30
0.0
 11
59.875
 21
38.99999999999998
 31
0.0
  0
LINE
  5
5D1
330
20E
100
AcDbEntity
  8
SK2
370
    -2
100
AcDbLine
 10
57.87499999999999
 20
-35.5
 30
0.0
 11
57.87500000000001
 21
35.49999999999998
 31
0.0
  0
SOLID
  5
5D2
330
20E
100
AcDbEntity
  8
SK2
100
AcDbTrace
 10
57.29166666666666
 20
-35.5
 30
0.0
 11
58.45833333333333
 21
-35.5
 31
0.0
 12
57.87499999999999
 22
-39.0
 32
0.0
 13
57.87499999999999
 23
-39.0
 33
0.0
  0
SOLID
  5
5D3
330
20E
100
AcDbEntity
  8
SK2
100
AcDbTrace
 10
57.29166666666667
 20
35.49999999999998
 30
0.0
 11
58.45833333333334
 21
35.49999999999998
 31
0.0
 12
57.87500000000001
 22
38.99999999999998
 32
0.0
 13
57.87500000000001
 23
38.99999999999998
 33
0.0
  0
MTEXT
  5
5D4
330
20E
100
AcDbEntity
  8
SK2
100
AcDbMText
 10
55.5
 20
0.0000000000000003
 30
0.0
 40
3.5
 41
0.0
 71
     5
 72
     1
  1
%%c78
 11
0.0000000000000001
 21
1.0
 31
0.0
 73
     1
 44
1.0
1001
ACAD
1000
MTEXTBEGIN
1070
    73
1070
     1
1070
    44
1040
1.0
1070
    74
1070
     0
1000
MTEXTEND
  0
POINT
  5
5D5
330
20E
100
AcDbEntity
  8
Defpoints
 62
     0
100
AcDbPoint
 10
35.5
 20
-39.0
 30
0.0
  0
POINT
  5
5D6
330
20E
100
AcDbEntity
  8
Defpoints
 62
     0
100
AcDbPoint
 10
36.5
 20
38.99999999999998
 30
0.0
  0
POINT
  5
5D7
330
20E
100
AcDbEntity
  8
Defpoints
 62
     0
100
AcDbPoint
 10
57.87500000000001
 20
38.99999999999998
 30
0.0
  0
ENDBLK
  5
23B
330
20E
100
AcDbEntity
  8
0
  6
ByBlock
 62
     0
100
AcDbBlockEnd
  0
BLOCK
  5
23C
330
20F
100
AcDbEntity
  8
2
  6
Continuous
 62
     7
100
AcDbBlockBegin
  2
*D5
 70
     1
 10
0.0
 20
0.0
 30
0.0
  3
*D5
  1

  0
LINE
  5
5FE
330
20F
100
AcDbEntity
  8
2
370
    -2
100
AcDbLine
 10
0.0
 20
40.12499999999998
 30
0.0
 11
0.0000000000000025
 21
80.36309267350002
 31
0.0
  0
LINE
  5
5FF
330
20F
100
AcDbEntity
  8
2
370
    -2
100
AcDbLine
 10
35.0
 20
40.12499999999998
 30
0.0
 11
35.0
 21
80.36309267350002
 31
0.0
  0
LINE
  5
600
330
20F
100
AcDbEntity
  8
2
370
    -2
100
AcDbLine
 10
3.500000000000001
 20
78.36309267350002
 30
0.0
 11
31.5
 21
78.36309267350002
 31
0.0
  0
SOLID
  5
601
330
20F
100
AcDbEntity
  8
2
100
AcDbTrace
 10
3.500000000000001
 20
78.94642600683335
 30
0.0
 11
3.500000000000001
 21
77.77975934016668
 31
0.0
 12
0.0000000000000024
 22
78.36309267350002
 32
0.0
 13
0.0000000000000024
 23
78.36309267350002
 33
0.0
  0
SOLID
  5
602
330
20F
100
AcDbEntity
  8
2
100
AcDbTrace
 10
31.5
 20
78.94642600683335
 30
0.0
 11
31.5
 21
77.77975934016668
 31
0.0
 12
35.0
 22
78.36309267350002
 32
0.0
 13
35.0
 23
78.36309267350002
 33
0.0
  0
MTEXT
  5
603
330
20F
100
AcDbEntity
  8
2
100
AcDbMText
 10
17.5
 20
80.73809267350002
 30
0.0
 40
3.5
 41
0.0
 71
     5
 72
     1
  1
35
 73
     1
 44
1.0
1001
ACAD
1000
MTEXTBEGIN
1070
    73
1070
     1
1070
    44
1040
1.0
1070
    74
1070
     0
1000
MTEXTEND
  0
POINT
  5
604
330
20F
100
AcDbEntity
  8
Defpoints
 62
     0
100
AcDbPoint
 10
0.0
 20
39.49999999999998
 30
0.0
  0
POINT
  5
605
330
20F
100
AcDbEntity
  8
Defpoints
 62
     0
100
AcDbPoint
 10
35.0
 20
39.49999999999998
 30
0.0
  0
POINT
  5
606
330
20F
100
AcDbEntity
  8
Defpoints
 62
     0
100
AcDbPoint
 10
35.0
 20
78.36309267350002
 30
0.0
  0
ENDBLK
  5
244
330
20F
100
AcDbEntity
  8
0
  6
ByBlock
 62
     0
100
AcDbBlockEnd
  0
BLOCK
  5
245
330
210
100
AcDbEntity
  8
2
  6
Continuous
 62
     7
100
AcDbBlockBegin
  2
*D6
 70
     1
 10
0.0
 20
0.0
 30
0.0
  3
*D6
  1

  0
LINE
  5
5F3
330
210
100
AcDbEntity
  8
2
370
    -2
100
AcDbLine
 10
0.0
 20
50.37499999999997
 30
0.0
 11
0.0000000000000014
 21
71.86309267349999
 31
0.0
  0
LINE
  5
5F4
330
210
100
AcDbEntity
  8
2
370
    -2
100
AcDbLine
 10
15.20000000000001
 20
50.37499999999997
 30
0.0
 11
15.20000000000002
 21
71.86309267349999
 31
0.0
  0
LINE
  5
5F5
330
210
100
AcDbEntity
  8
2
370
    -2
100
AcDbLine
 10
-3.499999999999998
 20
69.86309267349999
 30
0.0
 11
-6.999999999999999
 21
69.86309267349999
 31
0.0
  0
LINE
  5
5F6
330
210
100
AcDbEntity
  8
2
370
    -2
100
AcDbLine
 10
18.70000000000001
 20
69.86309267349999
 30
0.0
 11
22.20000000000001
 21
69.86309267349999
 31
0.0
  0
LINE
  5
5F7
330
210
100
AcDbEntity
  8
2
370
    -2
100
AcDbLine
 10
0.0000000000000012
 20
69.86309267349999
 30
0.0
 11
15.20000000000002
 21
69.86309267349999
 31
0.0
  0
SOLID
  5
5F8
330
210
100
AcDbEntity
  8
2
100
AcDbTrace
 10
-3.499999999999998
 20
70.44642600683332
 30
0.0
 11
-3.499999999999998
 21
69.27975934016664
 31
0.0
 12
0.0000000000000012
 22
69.86309267349999
 32
0.0
 13
0.0000000000000012
 23
69.86309267349999
 33
0.0
  0
SOLID
  5
5F9
330
210
100
AcDbEntity
  8
2
100
AcDbTrace
 10
18.70000000000001
 20
70.44642600683332
 30
0.0
 11
18.70000000000001
 21
69.27975934016664
 31
0.0
 12
15.20000000000002
 22
69.86309267349999
 32
0.0
 13
15.20000000000002
 23
69.86309267349999
 33
0.0
  0
MTEXT
  5
5FA
330
210
100
AcDbEntity
  8
2
100
AcDbMText
 10
7.599999999999994
 20
72.23809267349999
 30
0.0
 40
3.5
 41
0.0
 71
     5
 72
     1
  1
15.2
 73
     1
 44
1.0
1001
ACAD
1000
MTEXTBEGIN
1070
    73
1070
     1
1070
    44
1040
1.0
1070
    74
1070
     0
1000
MTEXTEND
  0
POINT
  5
5FB
330
210
100
AcDbEntity
  8
Defpoints
 62
     0
100
AcDbPoint
 10
0.0
 20
49.74999999999997
 30
0.0
  0
POINT
  5
5FC
330
210
100
AcDbEntity
  8
Defpoints
 62
     0
100
AcDbPoint
 10
15.20000000000001
 20
49.74999999999997
 30
0.0
  0
POINT
  5
5FD
330
210
100
AcDbEntity
  8
Defpoints
 62
     0
100
AcDbPoint
 10
15.20000000000002
 20
69.86309267349999
 30
0.0
  0
ENDBLK
  5
24F
330
210
100
AcDbEntity
  8
0
  6
ByBlock
 62
     0
100
AcDbBlockEnd
  0
BLOCK
  5
250
330
211
100
AcDbEntity
  8
SK2
  6
Continuous
 62
     7
100
AcDbBlockBegin
  2
*D7
 70
     1
 10
0.0
 20
0.0
 30
0.0
  3
*D7
  1

  0
LINE
  5
5EA
330
211
100
AcDbEntity
  8
SK2
370
    -2
100
AcDbLine
 10
0.0
 20
36.7046365211
 30
0.0
 11
0.0000000000000027
 21
80.36309267350002
 31
0.0
  0
LINE
  5
5EB
330
211
100
AcDbEntity
  8
SK2
370
    -2
100
AcDbLine
 10
-126.8
 20
22.29408981609999
 30
0.0
 11
-126.8
 21
80.36309267350002
 31
0.0
  0
LINE
  5
5EC
330
211
100
AcDbEntity
  8
SK2
370
    -2
100
AcDbLine
 10
-3.499999999999996
 20
78.36309267350002
 30
0.0
 11
-123.3
 21
78.36309267350002
 31
0.0
  0
SOLID
  5
5ED
330
211
100
AcDbEntity
  8
SK2
100
AcDbTrace
 10
-3.499999999999996
 20
78.94642600683335
 30
0.0
 11
-3.499999999999996
 21
77.77975934016668
 31
0.0
 12
0.0000000000000026
 22
78.36309267350002
 32
0.0
 13
0.0000000000000026
 23
78.36309267350002
 33
0.0
  0
SOLID
  5
5EE
330
211
100
AcDbEntity
  8
SK2
100
AcDbTrace
 10
-123.3
 20
78.94642600683335
 30
0.0
 11
-123.3
 21
77.77975934016668
 31
0.0
 12
-126.8
 22
78.36309267350002
 32
0.0
 13
-126.8
 23
78.36309267350002
 33
0.0
  0
MTEXT
  5
5EF
330
211
100
AcDbEntity
  8
SK2
100
AcDbMText
 10
-63.39999999999999
 20
80.73809267350002
 30
0.0
 40
3.5
 41
0.0
 71
     5
 72
     1
  1
126.8
 73
     1
 44
1.0
1001
ACAD
1000
MTEXTBEGIN
1070
    73
1070
     1
1070
    44
1040
1.0
1070
    74
1070
     0
1000
MTEXTEND
  0
POINT
  5
5F0
330
211
100
AcDbEntity
  8
Defpoints
 62
     0
100
AcDbPoint
 10
0.0
 20
36.0796365211
 30
0.0
  0
POINT
  5
5F1
330
211
100
AcDbEntity
  8
Defpoints
 62
     0
100
AcDbPoint
 10
-126.8
 20
21.66908981609999
 30
0.0
  0
POINT
  5
5F2
330
211
100
AcDbEntity
  8
Defpoints
 62
     0
100
AcDbPoint
 10
-126.8
 20
78.36309267350002
 30
0.0
  0
ENDBLK
  5
258
330
211
100
AcDbEntity
  8
0
  6
ByBlock
 62
     0
100
AcDbBlockEnd
  0
BLOCK
  5
259
330
212
100
AcDbEntity
  8
SK2
  6
Continuous
 62
     7
100
AcDbBlockBegin
  2
*D8
 70
     1
 10
0.0
 20
0.0
 30
0.0
  3
*D8
  1

  0
LINE
  5
5C6
330
212
100
AcDbEntity
  8
SK2
370
    -2
100
AcDbLine
 10
35.125
 20
-18.5
 30
0.0
 11
51.37499999999999
 21
-18.5
 31
0.0
  0
LINE
  5
5C7
330
212
100
AcDbEntity
  8
SK2
370
    -2
100
AcDbLine
 10
35.125
 20
18.5
 30
0.0
 11
51.37500000000001
 21
18.49999999999999
 31
0.0
  0
LINE
  5
5C8
330
212
100
AcDbEntity
  8
SK2
370
    -2
100
AcDbLine
 10
49.375
 20
-15.0
 30
0.0
 11
49.375
 21
14.99999999999999
 31
0.0
  0
SOLID
  5
5C9
330
212
100
AcDbEntity
  8
SK2
100
AcDbTrace
 10
48.79166666666666
 20
-15.0
 30
0.0
 11
49.95833333333333
 21
-15.0
 31
0.0
 12
49.375
 22
-18.5
 32
0.0
 13
49.375
 23
-18.5
 33
0.0
  0
SOLID
  5
5CA
330
212
100
AcDbEntity
  8
SK2
100
AcDbTrace
 10
48.79166666666666
 20
14.99999999999999
 30
0.0
 11
49.95833333333333
 21
14.99999999999999
 31
0.0
 12
49.375
 22
18.49999999999999
 32
0.0
 13
49.375
 23
18.49999999999999
 33
0.0
  0
MTEXT
  5
5CB
330
212
100
AcDbEntity
  8
SK2
100
AcDbMText
 10
47.0
 20
0.0000000001000021
 30
0.0
 40
3.5
 41
0.0
 71
     5
 72
     1
  1
%%c37 H6
 11
0.0000000000000001
 21
1.0
 31
0.0
 73
     1
 44
1.0
1001
ACAD
1000
MTEXTBEGIN
1070
    73
1070
     1
1070
    44
1040
1.0
1070
    74
1070
     0
1000
MTEXTEND
  0
POINT
  5
5CC
330
212
100
AcDbEntity
  8
Defpoints
 62
     0
100
AcDbPoint
 10
34.5
 20
-18.5
 30
0.0
  0
POINT
  5
5CD
330
212
100
AcDbEntity
  8
Defpoints
 62
     0
100
AcDbPoint
 10
34.5
 20
18.5
 30
0.0
  0
POINT
  5
5CE
330
212
100
AcDbEntity
  8
Defpoints
 62
     0
100
AcDbPoint
 10
49.375
 20
18.49999999999999
 30
0.0
  0
ENDBLK
  5
262
330
212
100
AcDbEntity
  8
0
  6
ByBlock
 62
     0
100
AcDbBlockEnd
  0
ENDSEC
  0
SECTION
  2
ENTITIES
  0
DIMENSION
  5
266
330
1B
100
AcDbEntity
  8
2
100
AcDbDimension
  2
*D1
 10
3.200000000000017
 20
61.7741249429
 30
0.0
 11
-10.42500000000001
 21
61.7741249429
 31
0.0
 70
   160
  1
3.2
 71
     5
 42
3.200000000000017
  3
ISO-25
100
AcDbAlignedDimension
 13
0.0
 23
36.0796365211
 33
0.0
 14
3.200000000000017
 24
49.74999999999997
 34
0.0
100
AcDbRotatedDimension
  0
DIMENSION
  5
267
330
1B
100
AcDbEntity
  8
SK2
100
AcDbDimension
  2
*D2
 10
-139.4249999999999
 20
34.92500000000003
 30
0.0
 11
-139.4249999999999
 21
0.0000000001000018
 31
0.0
 70
   160
  1
%%c69.85
 71
     5
 42
69.84999999999999
  3
ISO-25
100
AcDbAlignedDimension
 13
-1.0
 23
-34.92499999999999
 33
0.0
 14
-1.0
 24
34.92499999999999
 34
0.0
 50
90.0
100
AcDbRotatedDimension
  0
DIMENSION
  5
268
330
1B
100
AcDbEntity
  8
SK2
100
AcDbDimension
  2
*D3
 10
-147.9249999999999
 20
48.75000000000003
 30
0.0
 11
-147.9249999999999
 21
0.0000000001000018
 31
0.0
 70
   160
  1
%%c97.5
 71
     5
 42
97.5
  3
ISO-25
100
AcDbAlignedDimension
 13
2.200000000000017
 23
-48.75
 33
0.0
 14
2.200000000000017
 24
48.75
 34
0.0
 50
90.0
100
AcDbRotatedDimension
  0
DIMENSION
  5
269
330
1B
100
AcDbEntity
  8
SK2
100
AcDbDimension
  2
*D4
 10
57.87500000000001
 20
38.99999999999998
 30
0.0
 11
57.875
 21
0.0
 31
0.0
 70
   160
  1
%%c78
 71
     5
 42
77.99999999999998
  3
ISO-25
100
AcDbAlignedDimension
 13
35.5
 23
-39.0
 33
0.0
 14
36.5
 24
38.99999999999998
 34
0.0
 50
90.0
100
AcDbRotatedDimension
  0
DIMENSION
  5
26A
330
1B
100
AcDbEntity
  8
2
100
AcDbDimension
  2
*D5
 10
35.0
 20
78.36309267350002
 30
0.0
 11
17.5
 21
78.36309267350002
 31
0.0
 70
   160
  1
35
 71
     5
 42
35.0
  3
ISO-25
100
AcDbAlignedDimension
 13
0.0
 23
39.49999999999998
 33
0.0
 14
35.0
 24
39.49999999999998
 34
0.0
100
AcDbRotatedDimension
  0
DIMENSION
  5
26B
330
1B
100
AcDbEntity
  8
2
100
AcDbDimension
  2
*D6
 10
15.20000000000002
 20
69.86309267349999
 30
0.0
 11
7.599999999999994
 21
69.86309267349999
 31
0.0
 70
   160
  1
15.2
 71
     5
 42
15.20000000000001
  3
ISO-25
100
AcDbAlignedDimension
 13
0.0
 23
49.74999999999997
 33
0.0
 14
15.20000000000001
 24
49.74999999999997
 34
0.0
100
AcDbRotatedDimension
  0
DIMENSION
  5
26C
330
1B
100
AcDbEntity
  8
SK2
100
AcDbDimension
  2
*D7
 10
-126.8
 20
78.36309267350002
 30
0.0
 11
-63.39999999999999
 21
78.36309267350002
 31
0.0
 70
   160
  1
126.8
 71
     5
 42
126.8
  3
ISO-25
100
AcDbAlignedDimension
 13
0.0
 23
36.0796365211
 33
0.0
 14
-126.8
 24
21.66908981609999
 34
0.0
 50
180.0
100
AcDbRotatedDimension
  0
DIMENSION
  5
26D
330
1B
100
AcDbEntity
  8
SK2
100
AcDbDimension
  2
*D8
 10
49.375
 20
18.49999999999999
 30
0.0
 11
49.375
 21
0.0000000001000018
 31
0.0
 70
   160
  1
%%c37 H6
 71
     5
 42
37.0
  3
ISO-25
100
AcDbAlignedDimension
 13
34.5
 23
-18.5
 33
0.0
 14
34.5
 24
18.5
 34
0.0
 50
90.0
100
AcDbRotatedDimension
  0
LINE
  5
26F
330
1B
100
AcDbEntity
  8
1
100
AcDbLine
 10
-126.8
 20
17.29999999999999
 30
0.0
 11
-126.8
 21
-17.29999999999999
 31
0.0
  0
LINE
  5
270
330
1B
100
AcDbEntity
  8
SK3
100
AcDbLine
 10
-115.3
 20
13.0
 30
0.0
 11
-115.3
 21
-13.0
 31
0.0
  0
LINE
  5
271
330
1B
100
AcDbEntity
  8
SK3
100
AcDbLine
 10
-112.6749999999999
 20
10.375
 30
0.0
 11
-112.6749999999999
 21
-10.375
 31
0.0
  0
LINE
  5
272
330
1B
100
AcDbEntity
  8
1
100
AcDbLine
 10
-109.8
 20
19.79999999999998
 30
0.0
 11
-109.8
 21
-19.79999999999998
 31
0.0
  0
LINE
  5
273
330
1B
100
AcDbEntity
  8
1
100
AcDbLine
 10
-101.8
 20
20.079429719
 30
0.0
 11
-101.8
 21
-20.0794297189
 31
0.0
  0
LINE
  5
274
330
1B
100
AcDbEntity
  8
1
100
AcDbLine
 10
14.70000000000001
 20
-48.75
 30
0.0
 11
3.700000000000017
 21
-48.75
 31
0.0
  0
LINE
  5
275
330
1B
100
AcDbEntity
  8
1
100
AcDbLine
 10
1.743315313800025
 20
-34.74752602869999
 30
0.0
 11
0.7000000000000171
 21
-35.0270815245
 31
0.0
  0
LINE
  5
276
330
1B
100
AcDbEntity
  8
1
100
AcDbLine
 10
34.5
 20
-39.0
 30
0.0
 11
16.20000000000001
 21
-39.0
 31
0.0
  0
LINE
  5
277
330
1B
100
AcDbEntity
  8
SK3
100
AcDbLine
 10
-115.3
 20
13.0
 30
0.0
 11
-112.6749999999999
 21
10.375
 31
0.0
  0
LINE
  5
278
330
1B
100
AcDbEntity
  8
SK3
100
AcDbLine
 10
-115.3
 20
-13.0
 30
0.0
 11
-112.6749999999999
 21
-10.375
 31
0.0
  0
LINE
  5
279
330
1B
100
AcDbEntity
  8
1
100
AcDbLine
 10
2.800000000000011
 20
-34.7270815245
 30
0.0
 11
1.898606740799975
 21
-34.7270815245
 31
0.0
  0
LINE
  5
27A
330
1B
100
AcDbEntity
  8
SK1
100
AcDbLine
 10
35.0
 20
-30.9807621135
 30
0.0
 11
40.66025403790002
 21
-30.9807621135
 31
0.0
  0
LINE
  5
27B
330
1B
100
AcDbEntity
  8
1
100
AcDbLine
 10
0.7000000000000171
 20
-35.0270815245
 30
0.0
 11
-101.8
 21
-20.0794297189
 31
0.0
  0
LINE
  5
27C
330
1B
100
AcDbEntity
  8
SK3
100
AcDbLine
 10
-65.3
 20
10.375
 30
0.0
 11
-65.3
 21
-10.375
 31
0.0
  0
LINE
  5
27D
330
1B
100
AcDbEntity
  8
SK3
100
AcDbLine
 10
-62.07037417269997
 20
5.0
 30
0.0
 11
-62.07037417269997
 21
-5.0
 31
0.0
  0
LINE
  5
27E
330
1B
100
AcDbEntity
  8
SK4
100
AcDbLine
 10
45.0
 20
-25.9807621135
 30
0.0
 11
15.0
 21
-25.9807621135
 31
0.0
  0
LINE
  5
27F
330
1B
100
AcDbEntity
  8
SK1
100
AcDbLine
 10
35.0
 20
-20.9807621135
 30
0.0
 11
40.66025403790002
 21
-20.9807621135
 31
0.0
  0
LINE
  5
280
330
1B
100
AcDbEntity
  8
1
100
AcDbLine
 10
-109.8
 20
-19.79999999999998
 30
0.0
 11
-124.3
 21
-19.79999999999998
 31
0.0
  0
LINE
  5
281
330
1B
100
AcDbEntity
  8
1
100
AcDbLine
 10
-102.1999999999999
 20
-19.0
 30
0.0
 11
-109.3999999999999
 21
-19.0
 31
0.0
  0
LINE
  5
282
330
1B
100
AcDbEntity
  8
SK3
100
AcDbLine
 10
35.0
 20
-18.5
 30
0.0
 11
-15.0
 21
-18.5
 31
0.0
  0
LINE
  5
283
330
1B
100
AcDbEntity
  8
SK3
100
AcDbLine
 10
-65.3
 20
-10.375
 30
0.0
 11
-62.07037417269997
 21
-5.0
 31
0.0
  0
LINE
  5
284
330
1B
100
AcDbEntity
  8
SK3
100
AcDbLine
 10
-123.7999999999999
 20
-13.0
 30
0.0
 11
-115.3
 21
-13.0
 31
0.0
  0
LINE
  5
285
330
1B
100
AcDbEntity
  8
1
100
AcDbLine
 10
15.20000000000001
 20
-12.85000000000001
 30
0.0
 11
3.200000000000017
 21
-12.85000000000001
 31
0.0
  0
LINE
  5
286
330
1B
100
AcDbEntity
  8
SK3
100
AcDbLine
 10
-112.6749999999999
 20
-10.375
 30
0.0
 11
-65.3
 21
-10.375
 31
0.0
  0
LINE
  5
287
330
1B
100
AcDbEntity
  8
SK3
100
AcDbLine
 10
-65.3
 20
10.375
 30
0.0
 11
-62.07037417269997
 21
5.0
 31
0.0
  0
LINE
  5
288
330
1B
100
AcDbEntity
  8
SK3
100
AcDbLine
 10
-62.07037417269997
 20
-5.0
 30
0.0
 11
-15.0
 21
-5.0
 31
0.0
  0
LINE
  5
289
330
1B
100
AcDbEntity
  8
NOCUT
100
AcDbLine
 10
35.0
 20
0.0
 30
0.0
 11
0.0
 21
0.0
 31
0.0
  0
LINE
  5
28A
330
1B
100
AcDbEntity
  8
4
100
AcDbLine
 10
38.0
 20
0.0
 30
0.0
 11
-129.7999999999999
 21
0.0
 31
0.0
  0
LINE
  5
28B
330
1B
100
AcDbEntity
  8
SK3
100
AcDbLine
 10
-62.07037417269997
 20
5.0
 30
0.0
 11
-15.0
 21
5.0
 31
0.0
  0
LINE
  5
28C
330
1B
100
AcDbEntity
  8
SK3
100
AcDbLine
 10
-112.6749999999999
 20
10.375
 30
0.0
 11
-65.3
 21
10.375
 31
0.0
  0
LINE
  5
28D
330
1B
100
AcDbEntity
  8
1
100
AcDbLine
 10
3.200000000000017
 20
12.84999999999999
 30
0.0
 11
15.20000000000001
 21
12.84999999999999
 31
0.0
  0
LINE
  5
28E
330
1B
100
AcDbEntity
  8
SK3
100
AcDbLine
 10
-123.7999999999999
 20
13.0
 30
0.0
 11
-115.3
 21
13.0
 31
0.0
  0
LINE
  5
28F
330
1B
100
AcDbEntity
  8
SK3
100
AcDbLine
 10
35.0
 20
18.5
 30
0.0
 11
-15.0
 21
18.5
 31
0.0
  0
LINE
  5
290
330
1B
100
AcDbEntity
  8
1
100
AcDbLine
 10
-102.1999999999999
 20
19.0
 30
0.0
 11
-109.3999999999999
 21
19.0
 31
0.0
  0
LINE
  5
291
330
1B
100
AcDbEntity
  8
1
100
AcDbLine
 10
-109.8
 20
19.79999999999998
 30
0.0
 11
-124.3
 21
19.79999999999998
 31
0.0
  0
LINE
  5
292
330
1B
100
AcDbEntity
  8
SK1
100
AcDbLine
 10
35.0
 20
20.11473670980001
 30
0.0
 11
40.66025403790002
 21
20.11473670980001
 31
0.0
  0
LINE
  5
293
330
1B
100
AcDbEntity
  8
SK4
100
AcDbLine
 10
45.0
 20
25.11473670980001
 30
0.0
 11
15.0
 21
25.11473670980001
 31
0.0
  0
LINE
  5
294
330
1B
100
AcDbEntity
  8
SK3
100
AcDbLine
 10
-15.0
 20
18.5
 30
0.0
 11
-15.0
 21
-18.5
 31
0.0
  0
LINE
  5
295
330
1B
100
AcDbEntity
  8
NOCUT
100
AcDbLine
 10
0.7000000000000171
 20
35.0270815246
 30
0.0
 11
0.0
 21
34.92500000009998
 31
0.0
  0
LINE
  5
296
330
1B
100
AcDbEntity
  8
1
100
AcDbLine
 10
0.7000000000000171
 20
35.0270815246
 30
0.0
 11
-101.8
 21
20.079429719
 31
0.0
  0
LINE
  5
297
330
1B
100
AcDbEntity
  8
SK1
100
AcDbLine
 10
35.0
 20
30.1147367098
 30
0.0
 11
40.66025403790002
 21
30.1147367098
 31
0.0
  0
LINE
  5
298
330
1B
100
AcDbEntity
  8
NOCUT
100
AcDbLine
 10
2.800000000000011
 20
34.72708152459999
 30
0.0
 11
1.898606740799975
 21
34.72708152459999
 31
0.0
  0
LINE
  5
299
330
1B
100
AcDbEntity
  8
1
100
AcDbLine
 10
2.800000000000011
 20
34.72708152459999
 30
0.0
 11
1.898606740799975
 21
34.72708152459999
 31
0.0
  0
LINE
  5
29A
330
1B
100
AcDbEntity
  8
NOCUT
100
AcDbLine
 10
0.0
 20
0.0
 30
0.0
 11
0.0
 21
34.92500000009998
 31
0.0
  0
LINE
  5
29B
330
1B
100
AcDbEntity
  8
NOCUT
100
AcDbLine
 10
34.5
 20
38.99999999999998
 30
0.0
 11
16.20000000000001
 21
38.99999999999998
 31
0.0
  0
LINE
  5
29C
330
1B
100
AcDbEntity
  8
1
100
AcDbLine
 10
34.5
 20
38.99999999999998
 30
0.0
 11
16.20000000000001
 21
38.99999999999998
 31
0.0
  0
LINE
  5
29D
330
1B
100
AcDbEntity
  8
NOCUT
100
AcDbLine
 10
1.743315313800025
 20
34.74752602880001
 30
0.0
 11
0.7000000000000171
 21
35.0270815246
 31
0.0
  0
LINE
  5
29E
330
1B
100
AcDbEntity
  8
1
100
AcDbLine
 10
1.743315313800025
 20
34.74752602880001
 30
0.0
 11
0.7000000000000171
 21
35.0270815246
 31
0.0
  0
LINE
  5
29F
330
1B
100
AcDbEntity
  8
1
100
AcDbLine
 10
0.7000000000000171
 20
35.0270815246
 30
0.0
 11
0.7000000000000171
 21
-35.0270815245
 31
0.0
  0
LINE
  5
2A0
330
1B
100
AcDbEntity
  8
1
100
AcDbLine
 10
3.200000000000017
 20
-48.2499957197
 30
0.0
 11
3.200000000000017
 21
-9.6648576172
 31
0.0
  0
LINE
  5
2A1
330
1B
100
AcDbEntity
  8
NOCUT
100
AcDbLine
 10
3.200000000000017
 20
34.8798679291
 30
0.0
 11
3.200000000000017
 21
48.2499957191
 31
0.0
  0
LINE
  5
2A2
330
1B
100
AcDbEntity
  8
1
100
AcDbLine
 10
3.200000000000017
 20
9.6648576173
 30
0.0
 11
3.200000000000017
 21
48.2499957191
 31
0.0
  0
LINE
  5
2A3
330
1B
100
AcDbEntity
  8
NOCUT
100
AcDbLine
 10
14.70000000000001
 20
48.75
 30
0.0
 11
3.700000000000017
 21
48.75
 31
0.0
  0
LINE
  5
2A4
330
1B
100
AcDbEntity
  8
1
100
AcDbLine
 10
14.70000000000001
 20
48.75
 30
0.0
 11
3.700000000000017
 21
48.75
 31
0.0
  0
LINE
  5
2A5
330
1B
100
AcDbEntity
  8
NOCUT
100
AcDbLine
 10
15.20000000000001
 20
48.2499957191
 30
0.0
 11
15.20000000000001
 21
39.99999999999998
 31
0.0
  0
LINE
  5
2A6
330
1B
100
AcDbEntity
  8
1
100
AcDbLine
 10
15.20000000000001
 20
48.2499957191
 30
0.0
 11
15.20000000000001
 21
12.84999999999999
 31
0.0
  0
LINE
  5
2A7
330
1B
100
AcDbEntity
  8
1
100
AcDbLine
 10
15.20000000000001
 20
-12.85000000000001
 30
0.0
 11
15.20000000000001
 21
-48.2499957197
 31
0.0
  0
LINE
  5
2A8
330
1B
100
AcDbEntity
  8
1
100
AcDbLine
 10
34.5
 20
38.99999999999998
 30
0.0
 11
34.5
 21
-39.0
 31
0.0
  0
LINE
  5
2A9
330
1B
100
AcDbEntity
  8
NOCUT
100
AcDbLine
 10
35.0
 20
38.49999999999998
 30
0.0
 11
35.0
 21
0.0
 31
0.0
  0
LINE
  5
2AA
330
1B
100
AcDbEntity
  8
1
100
AcDbLine
 10
35.0
 20
38.49999999999998
 30
0.0
 11
35.0
 21
-38.5
 31
0.0
  0
LINE
  5
2AB
330
1B
100
AcDbEntity
  8
SK1
100
AcDbLine
 10
40.66025403790002
 20
-30.9807621135
 30
0.0
 11
40.66025403790002
 21
-20.9807621135
 31
0.0
  0
LINE
  5
2AC
330
1B
100
AcDbEntity
  8
SK1
100
AcDbLine
 10
40.66025403790002
 20
20.11473670980001
 30
0.0
 11
40.66025403790002
 21
30.1147367098
 31
0.0
  0
LINE
  5
2AD
330
1B
100
AcDbEntity
  8
NOCUT
100
AcDbLine
 10
35.0
 20
38.49999999999998
 30
0.0
 11
34.5
 21
38.99999999999998
 31
0.0
  0
LINE
  5
2AE
330
1B
100
AcDbEntity
  8
1
100
AcDbLine
 10
35.0
 20
38.49999999999998
 30
0.0
 11
34.5
 21
38.99999999999998
 31
0.0
  0
LINE
  5
2AF
330
1B
100
AcDbEntity
  8
1
100
AcDbLine
 10
35.0
 20
-38.5
 30
0.0
 11
34.5
 21
-39.0
 31
0.0
  0
ARC
  5
2B0
330
1B
100
AcDbEntity
  8
SK3
100
AcDbCircle
 10
-123.7999999999999
 20
16.0
 30
0.0
 40
3.0
100
AcDbArc
 50
180.0
 51
270.0
  0
ARC
  5
2B1
330
1B
100
AcDbEntity
  8
SK3
100
AcDbCircle
 10
-123.7999999999999
 20
-16.0
 30
0.0
 40
3.0
100
AcDbArc
 50
90.0
 51
180.0
  0
ARC
  5
2B2
330
1B
100
AcDbEntity
  8
NOCUT
100
AcDbCircle
 10
3.700000000000017
 20
48.24999999999999
 30
0.0
 40
0.5
100
AcDbArc
 50
90.0
 51
180.0
  0
ARC
  5
2B3
330
1B
100
AcDbEntity
  8
NOCUT
100
AcDbCircle
 10
14.70000000000001
 20
48.24999999999999
 30
0.0
 40
0.5
100
AcDbArc
 50
0.0
 51
90.0
  0
ARC
  5
2B4
330
1B
100
AcDbEntity
  8
NOCUT
100
AcDbCircle
 10
2.800000000000011
 20
35.32708152459999
 30
0.0
 40
0.6
100
AcDbArc
 50
270.0
 51
311.8103148957999
  0
ARC
  5
2B5
330
1B
100
AcDbEntity
  8
NOCUT
100
AcDbCircle
 10
1.898606740799975
 20
35.32708152459999
 30
0.0
 40
0.6
100
AcDbArc
 50
255.0
 51
270.0
  0
ARC
  5
2B6
330
1B
100
AcDbEntity
  8
NOCUT
100
AcDbCircle
 10
16.20000000000001
 20
39.99999999999998
 30
0.0
 40
1.0
100
AcDbArc
 50
180.0
 51
270.0
  0
ARC
  5
2B7
330
1B
100
AcDbEntity
  8
SK1
100
AcDbCircle
 10
32.0
 20
25.11473670980001
 30
0.0
 40
10.0
100
AcDbArc
 50
330.0
 51
30.0
  0
ARC
  5
2B8
330
1B
100
AcDbEntity
  8
SK1
100
AcDbCircle
 10
32.0
 20
-25.9807621135
 30
0.0
 40
10.0
100
AcDbArc
 50
330.0
 51
30.0
  0
ARC
  5
2B9
330
1B
100
AcDbEntity
  8
1
100
AcDbCircle
 10
-124.3
 20
17.29999999999999
 30
0.0
 40
2.5
100
AcDbArc
 50
90.0
 51
180.0
  0
ARC
  5
2BA
330
1B
100
AcDbEntity
  8
1
100
AcDbCircle
 10
-124.3
 20
-17.29999999999999
 30
0.0
 40
2.5
100
AcDbArc
 50
180.0
 51
270.0
  0
ARC
  5
2BB
330
1B
100
AcDbEntity
  8
1
100
AcDbCircle
 10
15.20000000000001
 20
0.0
 30
0.0
 40
12.85
100
AcDbArc
 50
270.0
 51
270.2981211235
  0
ARC
  5
2BC
330
1B
100
AcDbEntity
  8
1
100
AcDbCircle
 10
15.20000000000001
 20
0.0
 30
0.0
 40
12.85
100
AcDbArc
 50
303.5265735089
 51
56.4734264911
  0
ARC
  5
2BD
330
1B
100
AcDbEntity
  8
1
100
AcDbCircle
 10
3.700000000000017
 20
-48.25
 30
0.0
 40
0.5
100
AcDbArc
 50
180.0
 51
270.0
  0
ARC
  5
2BE
330
1B
100
AcDbEntity
  8
1
100
AcDbCircle
 10
3.700000000000017
 20
48.24999999999999
 30
0.0
 40
0.5
100
AcDbArc
 50
90.0
 51
180.0
  0
ARC
  5
2BF
330
1B
100
AcDbEntity
  8
1
100
AcDbCircle
 10
14.70000000000001
 20
-48.25
 30
0.0
 40
0.5
100
AcDbArc
 50
270.0
 51
0.0
  0
ARC
  5
2C0
330
1B
100
AcDbEntity
  8
1
100
AcDbCircle
 10
14.70000000000001
 20
48.24999999999999
 30
0.0
 40
0.5
100
AcDbArc
 50
0.0
 51
90.0
  0
ARC
  5
2C1
330
1B
100
AcDbEntity
  8
1
100
AcDbCircle
 10
2.800000000000011
 20
-35.3270815245
 30
0.0
 40
0.6
100
AcDbArc
 50
48.1799514799
 51
90.0
  0
ARC
  5
2C2
330
1B
100
AcDbEntity
  8
1
100
AcDbCircle
 10
2.800000000000011
 20
35.32708152459999
 30
0.0
 40
0.6
100
AcDbArc
 50
270.0
 51
311.8200485201
  0
ARC
  5
2C3
330
1B
100
AcDbEntity
  8
1
100
AcDbCircle
 10
1.898606740799975
 20
-35.3270815245
 30
0.0
 40
0.6
100
AcDbArc
 50
90.0
 51
105.0
  0
ARC
  5
2C4
330
1B
100
AcDbEntity
  8
1
100
AcDbCircle
 10
1.898606740799975
 20
35.32708152459999
 30
0.0
 40
0.6
100
AcDbArc
 50
255.0
 51
270.0
  0
ARC
  5
2C5
330
1B
100
AcDbEntity
  8
1
100
AcDbCircle
 10
-102.1999999999999
 20
-19.39999999999999
 30
0.0
 40
0.4
100
AcDbArc
 50
0.0
 51
90.0
  0
ARC
  5
2C6
330
1B
100
AcDbEntity
  8
1
100
AcDbCircle
 10
-102.1999999999999
 20
19.39999999999999
 30
0.0
 40
0.4
100
AcDbArc
 50
270.0
 51
0.0
  0
ARC
  5
2C7
330
1B
100
AcDbEntity
  8
1
100
AcDbCircle
 10
-109.3999999999999
 20
-19.39999999999999
 30
0.0
 40
0.4
100
AcDbArc
 50
90.0
 51
180.0
  0
ARC
  5
2C8
330
1B
100
AcDbEntity
  8
1
100
AcDbCircle
 10
-109.3999999999999
 20
19.39999999999999
 30
0.0
 40
0.4
100
AcDbArc
 50
180.0
 51
270.0
  0
ARC
  5
2C9
330
1B
100
AcDbEntity
  8
1
100
AcDbCircle
 10
16.20000000000001
 20
-40.0
 30
0.0
 40
1.0
100
AcDbArc
 50
90.0
 51
180.0
  0
ARC
  5
2CA
330
1B
100
AcDbEntity
  8
1
100
AcDbCircle
 10
16.20000000000001
 20
39.99999999999998
 30
0.0
 40
1.0
100
AcDbArc
 50
180.0
 51
270.0
  0
ARC
  5
2CB
330
1B
100
AcDbEntity
  8
1
100
AcDbCircle
 10
15.20000000000001
 20
0.0
 30
0.0
 40
12.85
100
AcDbArc
 50
89.70187887649998
 51
90.0
  0
SPLINE
  5
2CC
330
1B
100
AcDbEntity
  8
1
100
AcDbSpline
210
0.0
220
0.0
230
1.0
 70
     8
 71
     3
 72
    19
 73
    15
 74
    13
 42
0.0000000001
 43
0.0000000001
 44
0.0000000001
 12
0.0368933007188246
 22
0.9993192104438254
 32
0.0
 13
-0.0368933007968738
 23
0.9993192104409438
 33
0.0
 40
0.0
 40
0.0
 40
0.0
 40
0.0
 40
1.603689128763555
 40
3.210216071291231
 40
4.820219158073788
 40
6.433600801571028
 40
8.049627209428068
 40
9.667100751173862
 40
11.28457498754135
 40
12.9006031126041
 40
14.51398608842907
 40
16.1239899600385
 40
17.7305138611581
 40
19.33420096184836
 40
19.33420096184836
 40
19.33420096184836
 40
19.33420096184836
 10
3.200000000000017
 20
-9.6648576172
 30
0.0
 10
3.219721795095678
 20
-9.130658499215552
 30
0.0
 10
3.256156272672399
 20
-8.0611998893123
 30
0.0
 10
3.301410173439813
 20
-6.45508844000569
 30
0.0
 10
3.337000943157131
 20
-4.845501096844206
 30
0.0
 10
3.362652750412742
 20
-3.232557487944146
 30
0.0
 10
3.378141681219175
 20
-1.616993646453475
 30
0.0
 10
3.383321588529698
 20
0.0000005018424431
 30
0.0
 10
3.378141673693119
 20
1.616995222532384
 30
0.0
 10
3.362652717628435
 20
3.2325603119226
 30
0.0
 10
3.3370008673905
 20
4.845505198445064
 30
0.0
 10
3.301410075566522
 20
6.455092232968189
 30
0.0
 10
3.256156194045831
 20
8.061202253981857
 30
0.0
 10
3.219721770196628
 20
9.130659174881294
 30
0.0
 10
3.200000000000017
 20
9.6648576173
 30
0.0
 11
3.200000000000017
 21
-9.6648576172
 31
0.0
 11
3.254552884300011
 21
-8.062096623000003
 31
0.0
 11
3.299757080600016
 21
-6.4562057806
 31
0.0
 11
3.335312872700001
 21
-4.846595354100002
 31
0.0
 11
3.360942073199993
 21
-3.233417288400004
 31
0.0
 11
3.376418502500001
 21
-1.6174649899
 31
0.0
 11
3.381594436600011
 21
0.0000002703000064
 31
0.0
 11
3.376418494599988
 21
1.617466225099988
 31
0.0
 11
3.360942035600031
 21
3.233420240600011
 31
0.0
 11
3.335312791300026
 21
4.846599638100001
 31
0.0
 11
3.299756953100028
 21
6.456210848599994
 31
0.0
 11
3.254552821200006
 21
8.062098650199999
 31
0.0
 11
3.200000000000017
 21
9.6648576173
 31
0.0
  0
SPLINE
  5
2CD
330
1B
100
AcDbEntity
  8
1
100
AcDbSpline
210
0.0
220
0.0
230
1.0
 70
     8
 71
     3
 72
    15
 73
    11
 74
     9
 42
0.0000000001
 43
0.0000000001
 44
0.0000000001
 12
0.9981519330628206
 22
-0.0607677424539926
 32
0.0
 13
0.8967606906786828
 23
-0.442515834353407
 33
0.0
 40
0.0
 40
0.0
 40
0.0
 40
0.0
 40
0.7989410392131756
 40
1.599039004069086
 40
2.397377489953866
 40
3.193608278832266
 40
3.98778348648748
 40
4.778671048322398
 40
5.564896864281887
 40
6.345222821217021
 40
6.345222821217021
 40
6.345222821217021
 40
6.345222821217021
 10
16.20000000000001
 20
12.31430085749998
 30
0.0
 10
16.46582151423129
 20
12.2981175763977
 30
0.0
 10
16.99715339561166
 20
12.25279160796689
 30
0.0
 10
17.78942821210286
 20
12.14607584666506
 30
0.0
 10
18.57465546154677
 20
12.00083053564334
 30
0.0
 10
19.34985788876803
 20
11.81756386011838
 30
0.0
 10
20.11264833177074
 20
11.59681192452721
 30
0.0
 10
20.8603251765683
 20
11.33934550651113
 30
0.0
 10
21.58980382318414
 20
11.04632218809009
 30
0.0
 10
22.06410405020144
 20
10.82724444180025
 30
0.0
 10
22.29735926489999
 20
10.7121422445
 30
0.0
 11
16.20000000000001
 21
12.31430085749998
 31
0.0
 11
16.99604789649998
 21
12.246370521
 31
0.0
 11
17.7889808207
 21
12.13953358409999
 31
0.0
 11
18.5739941491
 21
11.9942806589
 31
0.0
 11
19.3488519725
 21
11.8110354061
 31
0.0
 11
20.111703118
 21
11.5901906863
 31
0.0
 11
20.8594680539
 21
11.33260431999998
 31
0.0
 11
21.5889975823
 21
11.03945299239998
 31
0.0
 11
22.29735926489999
 21
10.7121422445
 31
0.0
  0
SPLINE
  5
2CE
330
1B
100
AcDbEntity
  8
1
100
AcDbSpline
210
0.0
220
0.0
230
1.0
 70
     8
 71
     3
 72
    15
 73
    11
 74
     9
 42
0.0000000001
 43
0.0000000001
 44
0.0000000001
 12
-0.8967606906696698
 22
-0.4425158343716717
 32
0.0
 13
-0.9981519330429456
 23
-0.0607677427804534
 33
0.0
 40
0.0
 40
0.0
 40
0.0
 40
0.0
 40
0.7803352189271008
 40
1.566576726690068
 40
2.357464266345337
 40
3.151627104694544
 40
3.94783869037583
 40
4.746174623107861
 40
5.546264986320331
 40
6.345222821140474
 40
6.345222821140474
 40
6.345222821140474
 40
6.345222821140474
 10
22.29735926489999
 20
-10.7121422444
 30
0.0
 10
22.06410128160701
 20
-10.82724580789771
 30
0.0
 10
21.58979342746805
 20
-11.0463269016088
 30
0.0
 10
20.8603067295309
 20
-11.33935251917577
 30
0.0
 10
20.11262843787353
 20
-11.59681811288197
 30
0.0
 10
19.34984786630946
 20
-11.81756622233676
 30
0.0
 10
18.574656497495
 20
-12.00083013551727
 30
0.0
 10
17.78943894515187
 20
-12.14607404852463
 30
0.0
 10
16.99716202793587
 20
-12.25279073464055
 30
0.0
 10
16.46582710241518
 20
-12.2981172361004
 30
0.0
 10
16.20000000000001
 20
-12.3143008575
 30
0.0
 11
22.29735926489999
 21
-10.7121422444
 31
0.0
 11
21.58898907569999
 21
-11.03945666349999
 31
0.0
 11
20.85944466489999
 21
-11.33261304019998
 31
0.0
 11
20.11167934249999
 21
-11.59019821639999
 31
0.0
 11
19.34883981880003
 21
-11.81103859969999
 31
0.0
 11
18.57400064930001
 21
-11.99427929
 31
0.0
 11
17.78898990220002
 21
-12.1395321331
 31
0.0
 11
16.99606459649999
 21
-12.24636868529999
 31
0.0
 11
16.20000000000001
 21
-12.3143008575
 31
0.0
  0
SPLINE
  5
2CF
330
1B
100
AcDbEntity
  8
1
100
AcDbSpline
210
0.0
220
0.0
230
1.0
 70
     8
 71
     3
 72
    19
 73
    15
 74
    13
 42
0.0000000001
 43
0.0000000001
 44
0.0000000001
 12
0.4388775128339624
 22
-0.8985468984581023
 32
0.0
 13
0.9981519329561081
 23
-0.0607677442068185
 33
0.0
 40
0.0
 40
0.0
 40
0.0
 40
0.0
 40
0.0882317487641571
 40
0.1775363558153932
 40
0.267786259140707
 40
0.3588613928524682
 40
0.4511913977556533
 40
0.5453491913668751
 40
0.640654330399716
 40
0.7364227171856478
 40
0.8329175381430534
 40
0.9304607614094205
 40
1.027178533649651
 40
1.124370747762171
 40
1.124370747762171
 40
1.124370747762171
 40
1.124370747762171
 10
15.26686075630002
 20
12.84982605489999
 30
0.0
 10
15.27976839978355
 20
12.82339926683413
 30
0.0
 10
15.30911706653011
 20
12.77181118822581
 30
0.0
 10
15.3621487980977
 20
12.69978692818658
 30
0.0
 10
15.42333951395259
 20
12.63327399157528
 30
0.0
 10
15.4916558174818
 20
12.57261391442359
 30
0.0
 10
15.56638193007503
 20
12.51784632376558
 30
0.0
 10
15.64681430039219
 20
12.46911197216452
 30
0.0
 10
15.73201299432892
 20
12.42668170771835
 30
0.0
 10
15.82097782264844
 20
12.39074521364993
 30
0.0
 10
15.91307853988826
 20
12.36131602778082
 30
0.0
 10
16.00737345318323
 20
12.33855477570497
 30
0.0
 10
16.10326126460944
 20
12.32247857845405
 30
0.0
 10
16.16766246787178
 20
12.31626957470201
 30
0.0
 10
16.20000000000001
 20
12.31430085749998
 30
0.0
 11
15.26686075630002
 21
12.84982605489999
 31
0.0
 11
15.31037475799999
 21
12.773070774
 31
0.0
 11
15.3632082727
 21
12.7010712423
 31
0.0
 11
15.4242102814
 21
12.63455958929999
 31
0.0
 11
15.49222799759999
 21
12.57399334239998
 31
0.0
 11
15.56663078119998
 21
12.51932108620001
 31
0.0
 11
15.64710774739998
 21
12.4704421745
 31
0.0
 11
15.73238179419999
 21
12.42788155339999
 31
0.0
 11
15.82115529489999
 21
12.3919531596
 31
0.0
 11
15.91305769430002
 21
12.36253888659999
 31
0.0
 11
16.00787083399998
 21
12.3396227581
 31
0.0
 11
16.1032556879
 21
12.32362097339999
 31
0.0
 11
16.20000000000001
 21
12.31430085749998
 31
0.0
  0
SPLINE
  5
2D0
330
1B
100
AcDbEntity
  8
1
100
AcDbSpline
210
0.0
220
0.0
230
1.0
 70
     8
 71
     3
 72
    19
 73
    15
 74
    13
 42
0.0000000001
 43
0.0000000001
 44
0.0000000001
 12
-0.9981519331449193
 22
-0.0607677411054612
 32
0.0
 13
-0.4388775141667412
 23
-0.8985468978071329
 33
0.0
 40
0.0
 40
0.0
 40
0.0
 40
0.0
 40
0.0971922141029307
 40
0.1939099863431589
 40
0.2914532096095284
 40
0.3879480305669282
 40
0.4837164173528706
 40
0.5790215564303561
 40
0.6731793500415714
 40
0.7655093548855656
 40
0.8565844885973209
 40
0.9468343919226294
 40
1.036138998973864
 40
1.124370747738028
 40
1.124370747738028
 40
1.124370747738028
 40
1.124370747738028
 10
16.20000000000001
 20
-12.3143008575
 30
0.0
 10
16.16766246786885
 20
-12.31626957460135
 30
0.0
 10
16.10326126460463
 20
-12.32247857835505
 30
0.0
 10
16.00737345318392
 20
-12.33855477560533
 30
0.0
 10
15.91307853988717
 20
-12.36131602767887
 30
0.0
 10
15.82097782265205
 20
-12.39074521355731
 30
0.0
 10
15.73201299430184
 20
-12.42668170759657
 30
0.0
 10
15.64681430041478
 20
-12.46911197217953
 30
0.0
 10
15.56638193010553
 20
-12.51784632377148
 30
0.0
 10
15.49165581745089
 20
-12.5726139143151
 30
0.0
 10
15.42333951395558
 20
-12.63327399148038
 30
0.0
 10
15.36214879810156
 20
-12.6997869280875
 30
0.0
 10
15.30911706651202
 20
-12.77181118811725
 30
0.0
 10
15.27976839982275
 20
-12.82339926675329
 30
0.0
 10
15.26686075630002
 20
-12.8498260548
 30
0.0
 11
16.20000000000001
 21
-12.3143008575
 31
0.0
 11
16.1032556879
 21
-12.32362097330001
 31
0.0
 11
16.00787083399998
 21
-12.339622758
 31
0.0
 11
15.91305769430002
 21
-12.3625388865
 31
0.0
 11
15.82115529489999
 21
-12.39195315949999
 31
0.0
 11
15.73238179419999
 21
-12.42788155330001
 31
0.0
 11
15.64710774739998
 21
-12.47044217449999
 31
0.0
 11
15.56663078119998
 21
-12.51932108619999
 31
0.0
 11
15.49222799759999
 21
-12.5739933423
 31
0.0
 11
15.4242102814
 21
-12.6345595892
 31
0.0
 11
15.3632082727
 21
-12.7010712422
 31
0.0
 11
15.31037475799999
 21
-12.7730707739
 31
0.0
 11
15.26686075630002
 21
-12.8498260548
 31
0.0
  0
TEXT
  5
3C2
330
1B
100
AcDbEntity
  8
6
100
AcDbText
 10
-60.43251811234191
 20
-19.75497427156703
 30
0.0
 40
3.0
  1
DIN 2080-A50
 41
0.8
100
AcDbText
  0
TEXT
  5
3EB
330
1B
100
AcDbEntity
  8
6
100
AcDbText
 10
27.85961700860251
 20
-58.81788914890517
 30
0.0
 40
5.0
  1
2080A50Z5SA035
 41
0.8
 72
     1
 11
48.69167231950232
 21
-58.81788914890517
 31
0.0
100
AcDbText
  0
LWPOLYLINE
  5
621
102
{ACAD_REACTORS
330
622
102
}
330
1B
100
AcDbEntity
  8
1
100
AcDbPolyline
 90
        3
 70
     1
 43
0.0
 10
0.0000000000000853
 20
2.950972054112671
 10
0.0000000000000853
 20
-0.0000000000000799
 10
2.950972054112725
 20
-0.0000000000000799
 42
0.4142135623730966
  0
HATCH
  5
622
330
1B
100
AcDbEntity
  8
1
100
AcDbHatch
 10
0.0
 20
0.0
 30
0.0
210
0.0
220
0.0
230
1.0
  2
SOLID
 70
     1
 71
     1
 91
        2
 92
        7
 72
     1
 73
     1
 93
        3
 10
0.0000000000000853
 20
-0.0000000000000799
 42
0.0
 10
2.950972054112725
 20
-0.0000000000000799
 42
0.4142135623730966
 10
0.0000000000000853
 20
2.950972054112671
 42
0.0
 97
        1
330
621
 92
        7
 72
     1
 73
     1
 93
        3
 10
0.0000000000000853
 20
-2.950972054112491
 42
0.0
 10
0.0000000000000853
 20
-0.0000000000000799
 42
0.0
 10
-2.950972054112496
 20
-0.0000000000000799
 42
0.4142135623730966
 97
        1
330
624
 75
     0
 76
     1
 47
0.1190009775223266
 98
        2
 10
0.7445530588120448
 20
0.9212244733765027
 10
-1.279464601852764
 20
-1.696796923046313
  0
CIRCLE
  5
623
330
1B
100
AcDbEntity
  8
1
100
AcDbCircle
 10
0.0000000000000853
 20
-0.0000000000000799
 30
0.0
 40
2.950972054112601
  0
LWPOLYLINE
  5
624
102
{ACAD_REACTORS
330
622
102
}
330
1B
100
AcDbEntity
  8
1
100
AcDbPolyline
 90
        3
 70
     1
 43
0.0
 10
0.0000000000000853
 20
-0.0000000000000799
 10
-2.950972054112496
 20
-0.0000000000000799
 42
0.4142135623730966
 10
0.0000000000000853
 20
-2.950972054112491
  0
LINE
  5
625
330
1B
100
AcDbEntity
  8
1
100
AcDbLine
 10
-2.950972054112667
 20
-0.0000000000000799
 30
0.0
 11
2.950972054112667
 21
-0.0000000000000799
 31
0.0
  0
LINE
  5
626
330
1B
100
AcDbEntity
  8
1
100
AcDbLine
 10
0.0000000000000853
 20
2.950972054112671
 30
0.0
 11
0.0000000000000853
 21
-2.950972054112491
 31
0.0
  0
CIRCLE
  5
627
330
1B
100
AcDbEntity
  8
1
100
AcDbCircle
 10
35.0
 20
0.0
 30
0.0
 40
1.0
  0
HATCH
  5
628
330
1B
100
AcDbEntity
  8
1
100
AcDbHatch
 10
0.0
 20
0.0
 30
0.0
210
0.0
220
0.0
230
1.0
  2
SOLID
 70
     1
 71
     0
 91
        2
 92
        1
 93
        3
 72
     1
 10
35.0
 20
0.0
 11
34.0
 21
0.0
 72
     2
 10
35.0
 20
0.0
 40
1.0
 50
180.0
 51
270.0
 73
     1
 72
     1
 10
35.0
 20
-0.9999999999998864
 11
35.0
 21
0.0
 97
        0
 92
        1
 93
        3
 72
     1
 10
35.0
 20
1.000000000000112
 11
35.0
 21
0.0
 72
     1
 10
35.0
 20
0.0
 11
36.0
 21
0.0
 72
     2
 10
35.0
 20
0.0
 40
1.0
 50
0.0
 51
90.0
 73
     1
 97
        0
 75
     0
 76
     1
 98
        1
 10
-74.92953417619813
 20
-32.53620011044962
  0
LINE
  5
629
330
1B
100
AcDbEntity
  8
1
100
AcDbLine
 10
34.0
 20
0.0
 30
0.0
 11
36.0
 21
0.0
 31
0.0
  0
LWPOLYLINE
  5
62A
330
1B
100
AcDbEntity
  8
1
100
AcDbPolyline
 90
        3
 70
     1
 43
0.0
 10
35.0
 20
0.0
 10
34.0
 20
0.0
 42
0.4142135623730951
 10
35.0
 20
-0.9999999999998864
  0
LWPOLYLINE
  5
62B
330
1B
100
AcDbEntity
  8
1
100
AcDbPolyline
 90
        3
 70
     1
 43
0.0
 10
35.0
 20
1.000000000000112
 10
35.0
 20
0.0
 10
36.0
 20
0.0
 42
0.4142135623730951
  0
ENDSEC
  0
SECTION
  2
OBJECTS
  0
DICTIONARY
  5
2D1
330
0
100
AcDbDictionary
281
     1
  3
ACAD_COLOR
350
633
  3
ACAD_GROUP
350
2D2
  3
ACAD_LAYOUT
350
2DA
  3
ACAD_MATERIAL
350
632
  3
ACAD_MLINESTYLE
350
2D3
  3
ACAD_PLOTSETTINGS
350
2DB
  3
ACAD_PLOTSTYLENAME
350
2D8
  3
ACAD_TABLESTYLE
350
634
  3
ACDBHEADERROUNDTRIPXREC
350
63E
  3
AcDbVariableDictionary
350
639
  0
DICTIONARY
  5
633
102
{ACAD_REACTORS
330
2D1
102
}
330
2D1
100
AcDbDictionary
281
     1
  0
DICTIONARY
  5
2D2
102
{ACAD_REACTORS
330
2D1
102
}
330
2D1
100
AcDbDictionary
281
     1
  0
DICTIONARY
  5
2DA
102
{ACAD_REACTORS
330
2D1
102
}
330
2D1
100
AcDbDictionary
281
     1
  3
Layout1
350
2DD
  3
Model
350
2DC
  0
DICTIONARY
  5
632
102
{ACAD_REACTORS
330
2D1
102
}
330
2D1
100
AcDbDictionary
281
     1
  0
DICTIONARY
  5
2D3
102
{ACAD_REACTORS
330
2D1
102
}
330
2D1
100
AcDbDictionary
281
     1
  3
STANDARD
350
2D4
  0
DICTIONARY
  5
2DB
102
{ACAD_REACTORS
330
2D1
102
}
330
2D1
100
AcDbDictionary
281
     1
  0
ACDBDICTIONARYWDFLT
  5
2D8
102
{ACAD_REACTORS
330
2D1
102
}
330
2D1
100
AcDbDictionary
281
     1
  3
Normal
350
2D9
100
AcDbDictionaryWithDefault
340
2D9
  0
DICTIONARY
  5
634
102
{ACAD_REACTORS
330
2D1
102
}
330
2D1
100
AcDbDictionary
281
     1
  3
Standard
350
635
  0
DICTIONARY
  5
63E
102
{ACAD_REACTORS
330
2D1
102
}
330
2D1
100
AcDbDictionary
281
     1
  0
DICTIONARY
  5
639
102
{ACAD_REACTORS
330
2D1
102
}
330
2D1
100
AcDbDictionary
281
     1
  3
CTABLESTYLE
350
63A
  3
DIMASSOC
350
63B
  3
PROJECTNAME
350
63C
  0
LAYOUT
  5
2DD
102
{ACAD_XDICTIONARY
360
641
102
}
102
{ACAD_REACTORS
330
2DA
102
}
330
2DA
100
AcDbPlotSettings
  1

  2
\\ingdom02\ITB3
  4

  6

 40
0.0
 41
0.0
 42
0.0
 43
0.0
 44
0.0
 45
0.0
 46
0.0
 47
0.0
 48
0.0
 49
0.0
140
0.0
141
0.0
142
1.0
143
1.0
 70
   688
 72
     0
 73
     0
 74
     5
  7

 75
    16
147
1.0
148
0.0
149
0.0
100
AcDbLayout
  1
Layout1
 70
     1
 71
     1
 10
0.0
 20
0.0
 11
12.0
 21
9.0
 12
0.0
 22
0.0
 32
0.0
 14
1.000000000000000E+20
 24
1.000000000000000E+20
 34
1.000000000000000E+20
 15
-1.000000000000000E+20
 25
-1.000000000000000E+20
 35
-1.000000000000000E+20
146
0.0
 13
0.0
 23
0.0
 33
0.0
 16
1.0
 26
0.0
 36
0.0
 17
0.0
 27
1.0
 37
0.0
 76
     0
330
1C
  0
LAYOUT
  5
2DC
102
{ACAD_XDICTIONARY
360
63F
102
}
102
{ACAD_REACTORS
330
2DA
102
}
330
2DA
100
AcDbPlotSettings
  1

  2
\\ingdom02\ITB3
  4

  6

 40
0.0
 41
0.0
 42
0.0
 43
0.0
 44
0.0
 45
0.0
 46
0.0
 47
0.0
 48
0.0
 49
0.0
140
0.0
141
0.0
142
1.0
143
1.0
 70
  1712
 72
     0
 73
     0
 74
     0
  7

 75
     0
147
1.0
148
0.0
149
0.0
100
AcDbLayout
  1
Model
 70
     1
 71
     0
 10
0.0
 20
0.0
 11
12.0
 21
9.0
 12
0.0
 22
0.0
 32
0.0
 14
0.0
 24
0.0
 34
0.0
 15
0.0
 25
0.0
 35
0.0
146
0.0
 13
0.0
 23
0.0
 33
0.0
 16
1.0
 26
0.0
 36
0.0
 17
0.0
 27
1.0
 37
0.0
 76
     0
330
1B
  0
MLINESTYLE
  5
2D4
102
{ACAD_REACTORS
330
2D3
102
}
330
2D3
100
AcDbMlineStyle
  2
STANDARD
 70
     0
  3

 62
   256
 51
90.0
 52
90.0
 71
     2
 49
0.5
 62
   256
  6
BYLAYER
 49
-0.5
 62
   256
  6
BYLAYER
  0
ACDBPLACEHOLDER
  5
2D9
102
{ACAD_REACTORS
330
2D8
102
}
330
2D8
  0
TABLESTYLE
  5
635
102
{ACAD_REACTORS
330
634
102
}
330
634
100
AcDbTableStyle
  3
Standard
 70
     0
 71
     0
 40
1.5
 41
1.5
280
     0
281
     0
  7
STANDARD
140
4.5
170
     2
 62
     0
 63
     7
283
     0
274
    -2
284
     1
 64
     0
275
    -2
285
     1
 65
     0
276
    -2
286
     1
 66
     0
277
    -2
287
     1
 67
     0
278
    -2
288
     1
 68
     0
279
    -2
289
     1
 69
     0
  7
STANDARD
140
6.0
170
     5
 62
     0
 63
     7
283
     0
274
    -2
284
     1
 64
     0
275
    -2
285
     1
 65
     0
276
    -2
286
     1
 66
     0
277
    -2
287
     1
 67
     0
278
    -2
288
     1
 68
     0
279
    -2
289
     1
 69
     0
  7
STANDARD
140
4.5
170
     5
 62
     0
 63
     7
283
     0
274
    -2
284
     1
 64
     0
275
    -2
285
     1
 65
     0
276
    -2
286
     1
 66
     0
277
    -2
287
     1
 67
     0
278
    -2
288
     1
 68
     0
279
    -2
289
     1
 69
     0
  0
DICTIONARYVAR
  5
63A
102
{ACAD_REACTORS
330
639
102
}
330
639
100
DictionaryVariables
280
     0
  1
STANDARD
  0
DICTIONARYVAR
  5
63B
102
{ACAD_REACTORS
330
639
102
}
330
639
100
DictionaryVariables
280
     0
  1
1
  0
DICTIONARYVAR
  5
63C
102
{ACAD_REACTORS
330
639
102
}
330
639
100
DictionaryVariables
280
     0
  1

  0
DICTIONARY
  5
641
330
2DD
100
AcDbDictionary
280
     1
281
     1
  3
ACAD_XREC_ROUNDTRIP
360
642
  0
DICTIONARY
  5
63F
330
2DC
100
AcDbDictionary
280
     1
281
     1
  3
ACAD_XREC_ROUNDTRIP
360
640
  0
XRECORD
  5
642
102
{ACAD_REACTORS
330
641
102
}
330
641
100
AcDbXrecord
280
     1
102
SHADEPLOT
 70
     0
102
SHADEPLOTRESLEVEL
 70
     2
102
SHADEPLOTCUSTOMDPI
 70
   300
  0
XRECORD
  5
640
102
{ACAD_REACTORS
330
63F
102
}
330
63F
100
AcDbXrecord
280
     1
102
SHADEPLOT
 70
     0
102
SHADEPLOTRESLEVEL
 70
     2
102
SHADEPLOTCUSTOMDPI
 70
   300
  0
ENDSEC
  0
EOF
