  0
SECTION
  2
HEADER
  9
$ACADVER
  1
AC1015
  9
$ACADMAINTVER
 70
    20
  9
$DWGCODEPAGE
  3
ANSI_1252
  9
$INSBASE
 10
0.0
 20
0.0
 30
0.0
  9
$EXTMIN
 10
-151.9081998242077
 20
-48.86455757908982
 30
-0.0000000349181948
  9
$EXTMAX
 10
73.52919109921185
 20
82.50709238580554
 30
0.0000000814935747
  9
$LIMMIN
 10
0.0
 20
0.0
  9
$LIMMAX
 10
297.0
 20
210.0
  9
$ORTHOMODE
 70
     0
  9
$REGENMODE
 70
     1
  9
$FILLMODE
 70
     1
  9
$QTEXTMODE
 70
     0
  9
$MIRRTEXT
 70
     1
  9
$LTSCALE
 40
16.335
  9
$ATTMODE
 70
     1
  9
$TEXTSIZE
 40
0.2
  9
$TRACEWID
 40
0.05
  9
$TEXTSTYLE
  7
STANDARD
  9
$CLAYER
  8
0
  9
$CELTYPE
  6
BYLAYER
  9
$CECOLOR
 62
   256
  9
$CELTSCALE
 40
1.0
  9
$DISPSILH
 70
     0
  9
$DIMSCALE
 40
1.0
  9
$DIMASZ
 40
3.5
  9
$DIMEXO
 40
0.625
  9
$DIMDLI
 40
3.75
  9
$DIMRND
 40
0.0
  9
$DIMDLE
 40
0.0
  9
$DIMEXE
 40
2.0
  9
$DIMTP
 40
0.0
  9
$DIMTM
 40
0.0
  9
$DIMTXT
 40
3.5
  9
$DIMCEN
 40
2.5
  9
$DIMTSZ
 40
0.0
  9
$DIMTOL
 70
     0
  9
$DIMLIM
 70
     0
  9
$DIMTIH
 70
     0
  9
$DIMTOH
 70
     0
  9
$DIMSE1
 70
     0
  9
$DIMSE2
 70
     0
  9
$DIMTAD
 70
     1
  9
$DIMZIN
 70
     8
  9
$DIMBLK
  1

  9
$DIMASO
 70
     1
  9
$DIMSHO
 70
     1
  9
$DIMPOST
  1

  9
$DIMAPOST
  1

  9
$DIMALT
 70
     0
  9
$DIMALTD
 70
     3
  9
$DIMALTF
 40
0.03937007874016
  9
$DIMLFAC
 40
1.0
  9
$DIMTOFL
 70
     1
  9
$DIMTVP
 40
0.0
  9
$DIMTIX
 70
     0
  9
$DIMSOXD
 70
     0
  9
$DIMSAH
 70
     0
  9
$DIMBLK1
  1

  9
$DIMBLK2
  1

  9
$DIMSTYLE
  2
ISO-25
  9
$DIMCLRD
 70
   256
  9
$DIMCLRE
 70
   256
  9
$DIMCLRT
 70
   256
  9
$DIMTFAC
 40
1.0
  9
$DIMGAP
 40
0.625
  9
$DIMJUST
 70
     0
  9
$DIMSD1
 70
     0
  9
$DIMSD2
 70
     0
  9
$DIMTOLJ
 70
     0
  9
$DIMTZIN
 70
     8
  9
$DIMALTZ
 70
     0
  9
$DIMALTTZ
 70
     0
  9
$DIMUPT
 70
     0
  9
$DIMDEC
 70
     2
  9
$DIMTDEC
 70
     2
  9
$DIMALTU
 70
     2
  9
$DIMALTTD
 70
     3
  9
$DIMTXSTY
  7
STANDARD
  9
$DIMAUNIT
 70
     0
  9
$DIMADEC
 70
     0
  9
$DIMALTRND
 40
0.0
  9
$DIMAZIN
 70
     0
  9
$DIMDSEP
 70
    46
  9
$DIMATFIT
 70
     3
  9
$DIMFRAC
 70
     0
  9
$DIMLDRBLK
  1

  9
$DIMLUNIT
 70
     2
  9
$DIMLWD
 70
    -2
  9
$DIMLWE
 70
    -2
  9
$DIMTMOVE
 70
     0
  9
$LUNITS
 70
     2
  9
$LUPREC
 70
     4
  9
$SKETCHINC
 40
0.1
  9
$FILLETRAD
 40
0.0
  9
$AUNITS
 70
     0
  9
$AUPREC
 70
     0
  9
$MENU
  1
.
  9
$ELEVATION
 40
0.0
  9
$PELEVATION
 40
0.0
  9
$THICKNESS
 40
0.0
  9
$LIMCHECK
 70
     0
  9
$CHAMFERA
 40
0.0
  9
$CHAMFERB
 40
0.0
  9
$CHAMFERC
 40
0.0
  9
$CHAMFERD
 40
0.0
  9
$SKPOLY
 70
     0
  9
$TDCREATE
 40
2453782.649702477
  9
$TDUCREATE
 40
2453782.566369143
  9
$TDUPDATE
 40
2453899.539623137
  9
$TDUUPDATE
 40
2453899.456289803
  9
$TDINDWG
 40
0.0099874190
  9
$TDUSRTIMER
 40
0.0099872454
  9
$USRTIMER
 70
     1
  9
$ANGBASE
 50
0.0
  9
$ANGDIR
 70
     0
  9
$PDMODE
 70
     3
  9
$PDSIZE
 40
0.3125
  9
$PLINEWID
 40
0.0
  9
$SPLFRAME
 70
     0
  9
$SPLINETYPE
 70
     6
  9
$SPLINESEGS
 70
     8
  9
$HANDSEED
  5
67E
  9
$SURFTAB1
 70
     6
  9
$SURFTAB2
 70
     6
  9
$SURFTYPE
 70
     6
  9
$SURFU
 70
     6
  9
$SURFV
 70
     6
  9
$UCSBASE
  2

  9
$UCSNAME
  2

  9
$UCSORG
 10
0.0
 20
0.0
 30
0.0
  9
$UCSXDIR
 10
1.0
 20
0.0
 30
0.0
  9
$UCSYDIR
 10
0.0
 20
1.0
 30
0.0
  9
$UCSORTHOREF
  2

  9
$UCSORTHOVIEW
 70
     0
  9
$UCSORGTOP
 10
0.0
 20
0.0
 30
0.0
  9
$UCSORGBOTTOM
 10
0.0
 20
0.0
 30
0.0
  9
$UCSORGLEFT
 10
0.0
 20
0.0
 30
0.0
  9
$UCSORGRIGHT
 10
0.0
 20
0.0
 30
0.0
  9
$UCSORGFRONT
 10
0.0
 20
0.0
 30
0.0
  9
$UCSORGBACK
 10
0.0
 20
0.0
 30
0.0
  9
$PUCSBASE
  2

  9
$PUCSNAME
  2

  9
$PUCSORG
 10
0.0
 20
0.0
 30
0.0
  9
$PUCSXDIR
 10
1.0
 20
0.0
 30
0.0
  9
$PUCSYDIR
 10
0.0
 20
1.0
 30
0.0
  9
$PUCSORTHOREF
  2

  9
$PUCSORTHOVIEW
 70
     0
  9
$PUCSORGTOP
 10
0.0
 20
0.0
 30
0.0
  9
$PUCSORGBOTTOM
 10
0.0
 20
0.0
 30
0.0
  9
$PUCSORGLEFT
 10
0.0
 20
0.0
 30
0.0
  9
$PUCSORGRIGHT
 10
0.0
 20
0.0
 30
0.0
  9
$PUCSORGFRONT
 10
0.0
 20
0.0
 30
0.0
  9
$PUCSORGBACK
 10
0.0
 20
0.0
 30
0.0
  9
$USERI1
 70
     0
  9
$USERI2
 70
     0
  9
$USERI3
 70
     0
  9
$USERI4
 70
     0
  9
$USERI5
 70
     0
  9
$USERR1
 40
0.0
  9
$USERR2
 40
0.0
  9
$USERR3
 40
0.0
  9
$USERR4
 40
0.0
  9
$USERR5
 40
0.0
  9
$WORLDVIEW
 70
     1
  9
$SHADEDGE
 70
     3
  9
$SHADEDIF
 70
    70
  9
$TILEMODE
 70
     1
  9
$MAXACTVP
 70
    64
  9
$PINSBASE
 10
0.0
 20
0.0
 30
0.0
  9
$PLIMCHECK
 70
     0
  9
$PEXTMIN
 10
1.000000000000000E+20
 20
1.000000000000000E+20
 30
1.000000000000000E+20
  9
$PEXTMAX
 10
-1.000000000000000E+20
 20
-1.000000000000000E+20
 30
-1.000000000000000E+20
  9
$PLIMMIN
 10
0.0
 20
0.0
  9
$PLIMMAX
 10
12.0
 20
9.0
  9
$UNITMODE
 70
     0
  9
$VISRETAIN
 70
     1
  9
$PLINEGEN
 70
     0
  9
$PSLTSCALE
 70
     1
  9
$TREEDEPTH
 70
  3020
  9
$CMLSTYLE
  2
STANDARD
  9
$CMLJUST
 70
     0
  9
$CMLSCALE
 40
1.0
  9
$PROXYGRAPHICS
 70
     1
  9
$MEASUREMENT
 70
     1
  9
$CELWEIGHT
370
    -1
  9
$ENDCAPS
280
     0
  9
$JOINSTYLE
280
     0
  9
$LWDISPLAY
290
     0
  9
$INSUNITS
 70
     0
  9
$HYPERLINKBASE
  1

  9
$STYLESHEET
  1

  9
$XEDIT
290
     1
  9
$CEPSNTYPE
380
     0
  9
$PSTYLEMODE
290
     1
  9
$FINGERPRINTGUID
  2
{9FA93627-1DFC-468C-912E-54973B366DA4}
  9
$VERSIONGUID
  2
{D0ED266F-D588-4629-A4CC-E2CAE0F3A12F}
  9
$EXTNAMES
290
     1
  9
$PSVPSCALE
 40
0.0
  9
$OLESTARTUP
290
     0
  0
ENDSEC
  0
SECTION
  2
CLASSES
  0
CLASS
  1
ACDBDICTIONARYWDFLT
  2
AcDbDictionaryWithDefault
  3
ObjectDBX Classes
 90
        0
280
     0
281
     0
  0
CLASS
  1
ACDBPLACEHOLDER
  2
AcDbPlaceHolder
  3
ObjectDBX Classes
 90
        0
280
     0
281
     0
  0
CLASS
  1
LAYOUT
  2
AcDbLayout
  3
ObjectDBX Classes
 90
        0
280
     0
281
     0
  0
CLASS
  1
TABLESTYLE
  2
AcDbTableStyle
  3
ObjectDBX Classes
 90
     2047
280
     0
281
     0
  0
CLASS
  1
DICTIONARYVAR
  2
AcDbDictionaryVar
  3
ObjectDBX Classes
 90
        0
280
     0
281
     0
  0
ENDSEC
  0
SECTION
  2
TABLES
  0
TABLE
  2
VPORT
  5
8
330
0
100
AcDbSymbolTable
 70
     2
  0
VPORT
  5
678
330
8
100
AcDbSymbolTableRecord
100
AcDbViewportTableRecord
  2
*Active
 70
     0
 10
0.0
 20
0.0
 11
1.0
 21
1.0
 12
-39.18950436249793
 22
16.82126740335785
 13
0.0
 23
0.0
 14
1.0
 24
1.0
 15
0.0
 25
0.0
 16
0.0
 26
0.0
 36
1.0
 17
0.0
 27
0.0
 37
0.0
 40
148.7840663860864
 41
1.522727272727272
 42
50.0
 43
0.0
 44
0.0
 50
0.0
 51
0.0
 71
     0
 72
   100
 73
     1
 74
     1
 75
     0
 76
     0
 77
     0
 78
     0
281
     0
 65
     1
110
0.0
120
0.0
130
0.0
111
1.0
121
0.0
131
0.0
112
0.0
122
1.0
132
0.0
 79
     0
146
0.0
  0
ENDTAB
  0
TABLE
  2
LTYPE
  5
5
330
0
100
AcDbSymbolTable
 70
     3
  0
LTYPE
  5
14
330
5
100
AcDbSymbolTableRecord
100
AcDbLinetypeTableRecord
  2
BYBLOCK
 70
     0
  3

 72
    65
 73
     0
 40
0.0
  0
LTYPE
  5
15
330
5
100
AcDbSymbolTableRecord
100
AcDbLinetypeTableRecord
  2
BYLAYER
 70
     0
  3

 72
    65
 73
     0
 40
0.0
  0
LTYPE
  5
16
330
5
100
AcDbSymbolTableRecord
100
AcDbLinetypeTableRecord
  2
CONTINUOUS
 70
     0
  3
Solid line
 72
    65
 73
     0
 40
0.0
  0
LTYPE
  5
1F5
330
5
100
AcDbSymbolTableRecord
100
AcDbLinetypeTableRecord
  2
CENTER
 70
     0
  3
____ _ ____ _ ____ _ ____ _ ____ _ ____ _ ____
 72
    65
 73
     4
 40
0.6
 49
0.375
 74
     0
 49
-0.075
 74
     0
 49
0.075
 74
     0
 49
-0.075
 74
     0
  0
LTYPE
  5
1F6
330
5
100
AcDbSymbolTableRecord
100
AcDbLinetypeTableRecord
  2
HIDDEN
 70
     0
  3
- - - - - - - - - - - - - - - - - - - -
 72
    65
 73
     2
 40
0.2
 49
0.1
 74
     0
 49
-0.1
 74
     0
  0
ENDTAB
  0
TABLE
  2
LAYER
  5
2
330
0
100
AcDbSymbolTable
 70
    11
  0
LAYER
  5
10
330
2
100
AcDbSymbolTableRecord
100
AcDbLayerTableRecord
  2
0
 70
     0
 62
     7
  6
CONTINUOUS
370
    -3
390
2D2
  0
LAYER
  5
1FD
330
2
100
AcDbSymbolTableRecord
100
AcDbLayerTableRecord
  2
1
 70
     0
 62
     4
  6
CONTINUOUS
370
    -3
390
2D2
  0
LAYER
  5
1FE
330
2
100
AcDbSymbolTableRecord
100
AcDbLayerTableRecord
  2
2
 70
     0
 62
     7
  6
CONTINUOUS
370
    -3
390
2D2
  0
LAYER
  5
1FF
330
2
100
AcDbSymbolTableRecord
100
AcDbLayerTableRecord
  2
4
 70
     0
 62
     2
  6
CENTER
370
    -3
390
2D2
  0
LAYER
  5
200
330
2
100
AcDbSymbolTableRecord
100
AcDbLayerTableRecord
  2
6
 70
     0
 62
     5
  6
CONTINUOUS
370
    -3
390
2D2
  0
LAYER
  5
201
330
2
100
AcDbSymbolTableRecord
100
AcDbLayerTableRecord
  2
NOCUT
 70
     0
 62
     7
  6
CONTINUOUS
370
    -3
390
2D2
  0
LAYER
  5
202
330
2
100
AcDbSymbolTableRecord
100
AcDbLayerTableRecord
  2
SK1
 70
     0
 62
     4
  6
CONTINUOUS
370
    -3
390
2D2
  0
LAYER
  5
203
330
2
100
AcDbSymbolTableRecord
100
AcDbLayerTableRecord
  2
SK2
 70
     0
 62
     7
  6
CONTINUOUS
370
    -3
390
2D2
  0
LAYER
  5
204
330
2
100
AcDbSymbolTableRecord
100
AcDbLayerTableRecord
  2
SK3
 70
     0
 62
     1
  6
HIDDEN
370
    -3
390
2D2
  0
LAYER
  5
205
330
2
100
AcDbSymbolTableRecord
100
AcDbLayerTableRecord
  2
SK4
 70
     0
 62
     2
  6
CENTER
370
    -3
390
2D2
  0
LAYER
  5
33E
330
2
100
AcDbSymbolTableRecord
100
AcDbLayerTableRecord
  2
Defpoints
 70
     0
 62
     7
  6
CONTINUOUS
290
     0
370
    -3
390
2D2
  0
ENDTAB
  0
TABLE
  2
STYLE
  5
3
330
0
100
AcDbSymbolTable
 70
     1
  0
STYLE
  5
11
330
3
100
AcDbSymbolTableRecord
100
AcDbTextStyleTableRecord
  2
STANDARD
 70
     0
 40
0.0
 41
0.8
 50
0.0
 71
     0
 42
0.2
  3
isocp.shx
  4

  0
ENDTAB
  0
TABLE
  2
VIEW
  5
6
330
0
100
AcDbSymbolTable
 70
     0
  0
ENDTAB
  0
TABLE
  2
UCS
  5
7
330
0
100
AcDbSymbolTable
 70
     0
  0
ENDTAB
  0
TABLE
  2
APPID
  5
9
330
0
100
AcDbSymbolTable
 70
     1
  0
APPID
  5
206
330
9
100
AcDbSymbolTableRecord
100
AcDbRegAppTableRecord
  2
ACAD
 70
     0
  0
ENDTAB
  0
TABLE
  2
DIMSTYLE
  5
A
330
0
100
AcDbSymbolTable
 70
     2
100
AcDbDimStyleTable
 71
     2
340
33F
340
207
  0
DIMSTYLE
105
207
330
A
100
AcDbSymbolTableRecord
100
AcDbDimStyleTableRecord
  2
STANDARD
 70
     0
 41
2.5
 47
0.005
 48
0.005
 71
     1
 73
     0
 74
     0
 77
     1
 78
     8
140
3.5
178
     2
271
     3
272
     3
284
     8
340
11
341
209
342
209
343
209
344
209
  0
DIMSTYLE
105
33F
102
{ACAD_REACTORS
330
267
330
266
330
26B
330
265
330
26A
330
269
330
26C
330
268
102
}
330
A
100
AcDbSymbolTableRecord
100
AcDbDimStyleTableRecord
  2
ISO-25
 70
     0
 41
3.5
 42
0.625
 43
3.75
 44
2.0
 73
     0
 74
     0
 77
     1
 78
     8
140
3.5
141
2.5
143
0.03937007874016
147
0.625
171
     3
172
     1
176
   256
177
   256
178
   256
271
     2
272
     2
274
     3
283
     0
284
     8
340
11
  0
ENDTAB
  0
TABLE
  2
BLOCK_RECORD
  5
1
330
0
100
AcDbSymbolTable
 70
     9
  0
BLOCK_RECORD
  5
1B
330
1
100
AcDbSymbolTableRecord
100
AcDbBlockTableRecord
  2
*MODEL_SPACE
340
2D5
  0
BLOCK_RECORD
  5
1C
330
1
100
AcDbSymbolTableRecord
100
AcDbBlockTableRecord
  2
*PAPER_SPACE
340
2D6
  0
BLOCK_RECORD
  5
209
330
1
100
AcDbSymbolTableRecord
100
AcDbBlockTableRecord
  2
_FILLED
340
0
  0
BLOCK_RECORD
  5
20A
330
1
100
AcDbSymbolTableRecord
100
AcDbBlockTableRecord
  2
*D1
340
0
  0
BLOCK_RECORD
  5
20B
330
1
100
AcDbSymbolTableRecord
100
AcDbBlockTableRecord
  2
*D2
340
0
  0
BLOCK_RECORD
  5
20C
330
1
100
AcDbSymbolTableRecord
100
AcDbBlockTableRecord
  2
*D3
340
0
  0
BLOCK_RECORD
  5
20D
330
1
100
AcDbSymbolTableRecord
100
AcDbBlockTableRecord
  2
*D4
340
0
  0
BLOCK_RECORD
  5
20E
330
1
100
AcDbSymbolTableRecord
100
AcDbBlockTableRecord
  2
*D5
340
0
  0
BLOCK_RECORD
  5
20F
330
1
100
AcDbSymbolTableRecord
100
AcDbBlockTableRecord
  2
*D6
340
0
  0
BLOCK_RECORD
  5
210
330
1
100
AcDbSymbolTableRecord
100
AcDbBlockTableRecord
  2
*D7
340
0
  0
BLOCK_RECORD
  5
211
330
1
100
AcDbSymbolTableRecord
100
AcDbBlockTableRecord
  2
*D8
340
0
  0
ENDTAB
  0
ENDSEC
  0
SECTION
  2
BLOCKS
  0
BLOCK
  5
1E
330
1B
100
AcDbEntity
  8
0
100
AcDbBlockBegin
  2
*MODEL_SPACE
 70
     0
 10
0.0
 20
0.0
 30
0.0
  3
*MODEL_SPACE
  1

  0
ENDBLK
  5
1F
330
1B
100
AcDbEntity
  8
0
100
AcDbBlockEnd
  0
BLOCK
  5
20
330
1C
100
AcDbEntity
 67
     1
  8
0
100
AcDbBlockBegin
  2
*PAPER_SPACE
 70
     0
 10
0.0
 20
0.0
 30
0.0
  3
*PAPER_SPACE
  1

  0
ENDBLK
  5
21
330
1C
100
AcDbEntity
 67
     1
  8
0
100
AcDbBlockEnd
  0
BLOCK
  5
262
330
209
100
AcDbEntity
  8
0
100
AcDbBlockBegin
  2
_FILLED
 70
     0
 10
0.0
 20
0.0
 30
0.0
  3
_FILLED
  1

  0
SOLID
  5
263
330
209
100
AcDbEntity
  8
0
  6
ByBlock
 62
     0
100
AcDbTrace
 10
0.0
 20
0.0
 30
0.0
 11
-1.0
 21
0.132
 31
0.0
 12
-1.0
 22
-0.132
 32
0.0
 13
-1.0
 23
-0.132
 33
0.0
  0
ENDBLK
  5
264
330
209
100
AcDbEntity
  8
0
  6
ByBlock
 62
     0
100
AcDbBlockEnd
  0
BLOCK
  5
212
330
20A
100
AcDbEntity
  8
2
  6
Continuous
 62
     7
100
AcDbBlockBegin
  2
*D1
 70
     1
 10
0.0
 20
0.0
 30
0.0
  3
*D1
  1

  0
LINE
  5
64C
330
20A
100
AcDbEntity
  8
2
370
    -2
100
AcDbLine
 10
0.0000000000000045
 20
39.8161310149344
 30
0.0
 11
0.000000000000006
 21
63.3630926735
 31
0.0
  0
LINE
  5
64D
330
20A
100
AcDbEntity
  8
2
370
    -2
100
AcDbLine
 10
3.199999999999988
 20
50.375
 30
0.0
 11
3.199999999999988
 21
63.3630926735
 31
0.0
  0
LINE
  5
64E
330
20A
100
AcDbEntity
  8
2
370
    -2
100
AcDbLine
 10
6.699999999999987
 20
61.3630926735
 30
0.0
 11
10.19999999999998
 21
61.3630926735
 31
0.0
  0
LINE
  5
64F
330
20A
100
AcDbEntity
  8
2
370
    -2
100
AcDbLine
 10
-3.499999999999993
 20
61.3630926735
 30
0.0
 11
-17.426
 21
61.3630926735
 31
0.0
  0
LINE
  5
650
330
20A
100
AcDbEntity
  8
2
370
    -2
100
AcDbLine
 10
3.199999999999988
 20
61.3630926735
 30
0.0
 11
0.0000000000000059
 21
61.3630926735
 31
0.0
  0
SOLID
  5
651
330
20A
100
AcDbEntity
  8
2
100
AcDbTrace
 10
6.699999999999987
 20
61.94642600683334
 30
0.0
 11
6.699999999999987
 21
60.77975934016667
 31
0.0
 12
3.199999999999988
 22
61.3630926735
 32
0.0
 13
3.199999999999988
 23
61.3630926735
 33
0.0
  0
SOLID
  5
652
330
20A
100
AcDbEntity
  8
2
100
AcDbTrace
 10
-3.499999999999993
 20
61.94642600683334
 30
0.0
 11
-3.499999999999993
 21
60.77975934016667
 31
0.0
 12
0.0000000000000059
 22
61.3630926735
 32
0.0
 13
0.0000000000000059
 23
61.3630926735
 33
0.0
  0
MTEXT
  5
653
330
20A
100
AcDbEntity
  8
2
100
AcDbMText
 10
-14.001
 20
63.73809267350001
 30
0.0
 40
3.5
 41
0.0
 71
     5
 72
     1
  1
3.2
 73
     1
 44
1.0
1001
ACAD
1000
MTEXTBEGIN
1070
    73
1070
     1
1070
    44
1040
1.0
1070
    74
1070
     0
1000
MTEXTEND
  0
POINT
  5
654
330
20A
100
AcDbEntity
  8
Defpoints
 62
     0
100
AcDbPoint
 10
0.0000000000000045
 20
39.1911310149344
 30
0.0
  0
POINT
  5
655
330
20A
100
AcDbEntity
  8
Defpoints
 62
     0
100
AcDbPoint
 10
3.199999999999988
 20
49.75
 30
0.0
  0
POINT
  5
656
330
20A
100
AcDbEntity
  8
Defpoints
 62
     0
100
AcDbPoint
 10
3.199999999999988
 20
61.3630926735
 30
0.0
  0
ENDBLK
  5
21C
330
20A
100
AcDbEntity
  8
0
  6
ByBlock
 62
     0
100
AcDbBlockEnd
  0
BLOCK
  5
21D
330
20B
100
AcDbEntity
  8
SK2
  6
Continuous
 62
     7
100
AcDbBlockBegin
  2
*D2
 70
     1
 10
0.0
 20
0.0
 30
0.0
  3
*D2
  1

  0
LINE
  5
600
330
20B
100
AcDbEntity
  8
SK2
370
    -2
100
AcDbLine
 10
-1.625
 20
-34.92499999999999
 30
0.0
 11
-141.425
 21
-34.92499999999996
 31
0.0
  0
LINE
  5
601
330
20B
100
AcDbEntity
  8
SK2
370
    -2
100
AcDbLine
 10
-1.625
 20
34.92500000000001
 30
0.0
 11
-141.425
 21
34.92500000000005
 31
0.0
  0
LINE
  5
602
330
20B
100
AcDbEntity
  8
SK2
370
    -2
100
AcDbLine
 10
-139.425
 20
-31.42499999999996
 30
0.0
 11
-139.425
 21
31.42500000000005
 31
0.0
  0
SOLID
  5
603
330
20B
100
AcDbEntity
  8
SK2
100
AcDbTrace
 10
-140.0083333333333
 20
-31.42499999999996
 30
0.0
 11
-138.8416666666666
 21
-31.42499999999996
 31
0.0
 12
-139.425
 22
-34.92499999999996
 32
0.0
 13
-139.425
 23
-34.92499999999996
 33
0.0
  0
SOLID
  5
604
330
20B
100
AcDbEntity
  8
SK2
100
AcDbTrace
 10
-140.0083333333333
 20
31.42500000000005
 30
0.0
 11
-138.8416666666666
 21
31.42500000000005
 31
0.0
 12
-139.425
 22
34.92500000000005
 32
0.0
 13
-139.425
 23
34.92500000000005
 33
0.0
  0
MTEXT
  5
605
330
20B
100
AcDbEntity
  8
SK2
100
AcDbMText
 10
-141.8
 20
0.0000000001000021
 30
0.0
 40
3.5
 41
0.0
 71
     5
 72
     1
  1
%%c69.85
 11
0.0000000000000001
 21
1.0
 31
0.0
 73
     1
 44
1.0
1001
ACAD
1000
MTEXTBEGIN
1070
    73
1070
     1
1070
    44
1040
1.0
1070
    74
1070
     0
1000
MTEXTEND
  0
POINT
  5
606
330
20B
100
AcDbEntity
  8
Defpoints
 62
     0
100
AcDbPoint
 10
-1.0
 20
-34.92499999999999
 30
0.0
  0
POINT
  5
607
330
20B
100
AcDbEntity
  8
Defpoints
 62
     0
100
AcDbPoint
 10
-1.0
 20
34.92500000000001
 30
0.0
  0
POINT
  5
608
330
20B
100
AcDbEntity
  8
Defpoints
 62
     0
100
AcDbPoint
 10
-139.425
 20
34.92500000000005
 30
0.0
  0
ENDBLK
  5
226
330
20B
100
AcDbEntity
  8
0
  6
ByBlock
 62
     0
100
AcDbBlockEnd
  0
BLOCK
  5
227
330
20C
100
AcDbEntity
  8
SK2
  6
Continuous
 62
     7
100
AcDbBlockBegin
  2
*D3
 70
     1
 10
0.0
 20
0.0
 30
0.0
  3
*D3
  1

  0
LINE
  5
5F7
330
20C
100
AcDbEntity
  8
SK2
370
    -2
100
AcDbLine
 10
1.574999999999988
 20
-48.75
 30
0.0
 11
-149.925
 21
-48.74999999999996
 31
0.0
  0
LINE
  5
5F8
330
20C
100
AcDbEntity
  8
SK2
370
    -2
100
AcDbLine
 10
1.574999999999988
 20
48.75
 30
0.0
 11
-149.925
 21
48.75000000000003
 31
0.0
  0
LINE
  5
5F9
330
20C
100
AcDbEntity
  8
SK2
370
    -2
100
AcDbLine
 10
-147.925
 20
-45.24999999999995
 30
0.0
 11
-147.925
 21
45.25000000000003
 31
0.0
  0
SOLID
  5
5FA
330
20C
100
AcDbEntity
  8
SK2
100
AcDbTrace
 10
-148.5083333333333
 20
-45.24999999999995
 30
0.0
 11
-147.3416666666666
 21
-45.24999999999995
 31
0.0
 12
-147.925
 22
-48.74999999999996
 32
0.0
 13
-147.925
 23
-48.74999999999996
 33
0.0
  0
SOLID
  5
5FB
330
20C
100
AcDbEntity
  8
SK2
100
AcDbTrace
 10
-148.5083333333333
 20
45.25000000000003
 30
0.0
 11
-147.3416666666666
 21
45.25000000000003
 31
0.0
 12
-147.925
 22
48.75000000000003
 32
0.0
 13
-147.925
 23
48.75000000000003
 33
0.0
  0
MTEXT
  5
5FC
330
20C
100
AcDbEntity
  8
SK2
100
AcDbMText
 10
-150.3
 20
0.0000000001000021
 30
0.0
 40
3.5
 41
0.0
 71
     5
 72
     1
  1
%%c97.5
 11
0.0000000000000001
 21
1.0
 31
0.0
 73
     1
 44
1.0
1001
ACAD
1000
MTEXTBEGIN
1070
    73
1070
     1
1070
    44
1040
1.0
1070
    74
1070
     0
1000
MTEXTEND
  0
POINT
  5
5FD
330
20C
100
AcDbEntity
  8
Defpoints
 62
     0
100
AcDbPoint
 10
2.199999999999988
 20
-48.75
 30
0.0
  0
POINT
  5
5FE
330
20C
100
AcDbEntity
  8
Defpoints
 62
     0
100
AcDbPoint
 10
2.199999999999988
 20
48.75
 30
0.0
  0
POINT
  5
5FF
330
20C
100
AcDbEntity
  8
Defpoints
 62
     0
100
AcDbPoint
 10
-147.925
 20
48.75000000000003
 30
0.0
  0
ENDBLK
  5
230
330
20C
100
AcDbEntity
  8
0
  6
ByBlock
 62
     0
100
AcDbBlockEnd
  0
BLOCK
  5
231
330
20D
100
AcDbEntity
  8
SK2
  6
Continuous
 62
     7
100
AcDbBlockBegin
  2
*D4
 70
     1
 10
0.0
 20
0.0
 30
0.0
  3
*D4
  1

  0
LINE
  5
5E3
330
20D
100
AcDbEntity
  8
SK2
370
    -2
100
AcDbLine
 10
36.125
 20
-24.5
 30
0.0
 11
58.37499999999999
 21
-24.50000000000001
 31
0.0
  0
LINE
  5
5E4
330
20D
100
AcDbEntity
  8
SK2
370
    -2
100
AcDbLine
 10
37.125
 20
24.5
 30
0.0
 11
58.37500000000001
 21
24.49999999999999
 31
0.0
  0
LINE
  5
5E5
330
20D
100
AcDbEntity
  8
SK2
370
    -2
100
AcDbLine
 10
56.37499999999999
 20
-21.0
 30
0.0
 11
56.37500000000001
 21
20.99999999999999
 31
0.0
  0
SOLID
  5
5E6
330
20D
100
AcDbEntity
  8
SK2
100
AcDbTrace
 10
55.79166666666665
 20
-21.0
 30
0.0
 11
56.95833333333332
 21
-21.0
 31
0.0
 12
56.37499999999999
 22
-24.50000000000001
 32
0.0
 13
56.37499999999999
 23
-24.50000000000001
 33
0.0
  0
SOLID
  5
5E7
330
20D
100
AcDbEntity
  8
SK2
100
AcDbTrace
 10
55.79166666666667
 20
20.99999999999999
 30
0.0
 11
56.95833333333334
 21
20.99999999999999
 31
0.0
 12
56.37500000000001
 22
24.49999999999999
 32
0.0
 13
56.37500000000001
 23
24.49999999999999
 33
0.0
  0
MTEXT
  5
5E8
330
20D
100
AcDbEntity
  8
SK2
100
AcDbMText
 10
54.0
 20
0.0000000001000021
 30
0.0
 40
3.5
 41
0.0
 71
     5
 72
     1
  1
%%c49
 11
0.0000000000000001
 21
1.0
 31
0.0
 73
     1
 44
1.0
1001
ACAD
1000
MTEXTBEGIN
1070
    73
1070
     1
1070
    44
1040
1.0
1070
    74
1070
     0
1000
MTEXTEND
  0
POINT
  5
5E9
330
20D
100
AcDbEntity
  8
Defpoints
 62
     0
100
AcDbPoint
 10
35.5
 20
-24.5
 30
0.0
  0
POINT
  5
5EA
330
20D
100
AcDbEntity
  8
Defpoints
 62
     0
100
AcDbPoint
 10
36.5
 20
24.5
 30
0.0
  0
POINT
  5
5EB
330
20D
100
AcDbEntity
  8
Defpoints
 62
     0
100
AcDbPoint
 10
56.37500000000001
 20
24.49999999999999
 30
0.0
  0
ENDBLK
  5
23A
330
20D
100
AcDbEntity
  8
0
  6
ByBlock
 62
     0
100
AcDbBlockEnd
  0
BLOCK
  5
23B
330
20E
100
AcDbEntity
  8
2
  6
Continuous
 62
     7
100
AcDbBlockBegin
  2
*D5
 70
     1
 10
0.0
 20
0.0
 30
0.0
  3
*D5
  1

  0
LINE
  5
657
330
20E
100
AcDbEntity
  8
2
370
    -2
100
AcDbLine
 10
0.0000000000000008
 20
38.77240780907425
 30
0.0
 11
0.0000000000000034
 21
80.36309267349997
 31
0.0
  0
LINE
  5
658
330
20E
100
AcDbEntity
  8
2
370
    -2
100
AcDbLine
 10
35.0
 20
25.625
 30
0.0
 11
35.0
 21
80.36309267349997
 31
0.0
  0
LINE
  5
659
330
20E
100
AcDbEntity
  8
2
370
    -2
100
AcDbLine
 10
3.500000000000003
 20
78.36309267349999
 30
0.0
 11
31.5
 21
78.36309267349999
 31
0.0
  0
SOLID
  5
65A
330
20E
100
AcDbEntity
  8
2
100
AcDbTrace
 10
3.500000000000003
 20
78.94642600683329
 30
0.0
 11
3.500000000000003
 21
77.77975934016665
 31
0.0
 12
0.0000000000000033
 22
78.36309267349999
 32
0.0
 13
0.0000000000000033
 23
78.36309267349999
 33
0.0
  0
SOLID
  5
65B
330
20E
100
AcDbEntity
  8
2
100
AcDbTrace
 10
31.5
 20
78.94642600683329
 30
0.0
 11
31.5
 21
77.77975934016665
 31
0.0
 12
35.0
 22
78.36309267349999
 32
0.0
 13
35.0
 23
78.36309267349999
 33
0.0
  0
MTEXT
  5
65C
330
20E
100
AcDbEntity
  8
2
100
AcDbMText
 10
17.5
 20
80.73809267349998
 30
0.0
 40
3.5
 41
0.0
 71
     5
 72
     1
  1
35
 73
     1
 44
1.0
1001
ACAD
1000
MTEXTBEGIN
1070
    73
1070
     1
1070
    44
1040
1.0
1070
    74
1070
     0
1000
MTEXTEND
  0
POINT
  5
65D
330
20E
100
AcDbEntity
  8
Defpoints
 62
     0
100
AcDbPoint
 10
0.0000000000000008
 20
38.14740780907425
 30
0.0
  0
POINT
  5
65E
330
20E
100
AcDbEntity
  8
Defpoints
 62
     0
100
AcDbPoint
 10
35.0
 20
25.0
 30
0.0
  0
POINT
  5
65F
330
20E
100
AcDbEntity
  8
Defpoints
 62
     0
100
AcDbPoint
 10
35.0
 20
78.36309267349999
 30
0.0
  0
ENDBLK
  5
243
330
20E
100
AcDbEntity
  8
0
  6
ByBlock
 62
     0
100
AcDbBlockEnd
  0
BLOCK
  5
244
330
20F
100
AcDbEntity
  8
2
  6
Continuous
 62
     7
100
AcDbBlockBegin
  2
*D6
 70
     1
 10
0.0
 20
0.0
 30
0.0
  3
*D6
  1

  0
LINE
  5
61D
330
20F
100
AcDbEntity
  8
2
370
    -2
100
AcDbLine
 10
0.0
 20
50.375
 30
0.0
 11
0.0000000000000014
 21
71.86309267349996
 31
0.0
  0
LINE
  5
61E
330
20F
100
AcDbEntity
  8
2
370
    -2
100
AcDbLine
 10
15.19999999999998
 20
50.375
 30
0.0
 11
15.19999999999999
 21
71.86309267349996
 31
0.0
  0
LINE
  5
61F
330
20F
100
AcDbEntity
  8
2
370
    -2
100
AcDbLine
 10
-3.499999999999998
 20
69.86309267349998
 30
0.0
 11
-6.999999999999999
 21
69.86309267349998
 31
0.0
  0
LINE
  5
620
330
20F
100
AcDbEntity
  8
2
370
    -2
100
AcDbLine
 10
18.69999999999999
 20
69.86309267349998
 30
0.0
 11
22.19999999999998
 21
69.86309267349998
 31
0.0
  0
LINE
  5
621
330
20F
100
AcDbEntity
  8
2
370
    -2
100
AcDbLine
 10
0.0000000000000012
 20
69.86309267349998
 30
0.0
 11
15.19999999999999
 21
69.86309267349998
 31
0.0
  0
SOLID
  5
622
330
20F
100
AcDbEntity
  8
2
100
AcDbTrace
 10
-3.499999999999998
 20
70.44642600683332
 30
0.0
 11
-3.499999999999998
 21
69.27975934016664
 31
0.0
 12
0.0000000000000012
 22
69.86309267349998
 32
0.0
 13
0.0000000000000012
 23
69.86309267349998
 33
0.0
  0
SOLID
  5
623
330
20F
100
AcDbEntity
  8
2
100
AcDbTrace
 10
18.69999999999999
 20
70.44642600683332
 30
0.0
 11
18.69999999999999
 21
69.27975934016664
 31
0.0
 12
15.19999999999999
 22
69.86309267349998
 32
0.0
 13
15.19999999999999
 23
69.86309267349998
 33
0.0
  0
MTEXT
  5
624
330
20F
100
AcDbEntity
  8
2
100
AcDbMText
 10
7.599999999999994
 20
72.23809267349999
 30
0.0
 40
3.5
 41
0.0
 71
     5
 72
     1
  1
15.2
 73
     1
 44
1.0
1001
ACAD
1000
MTEXTBEGIN
1070
    73
1070
     1
1070
    44
1040
1.0
1070
    74
1070
     0
1000
MTEXTEND
  0
POINT
  5
625
330
20F
100
AcDbEntity
  8
Defpoints
 62
     0
100
AcDbPoint
 10
0.0
 20
49.75
 30
0.0
  0
POINT
  5
626
330
20F
100
AcDbEntity
  8
Defpoints
 62
     0
100
AcDbPoint
 10
15.19999999999998
 20
49.75
 30
0.0
  0
POINT
  5
627
330
20F
100
AcDbEntity
  8
Defpoints
 62
     0
100
AcDbPoint
 10
15.19999999999999
 20
69.86309267349998
 30
0.0
  0
ENDBLK
  5
24E
330
20F
100
AcDbEntity
  8
0
  6
ByBlock
 62
     0
100
AcDbBlockEnd
  0
BLOCK
  5
24F
330
210
100
AcDbEntity
  8
SK2
  6
Continuous
 62
     7
100
AcDbBlockBegin
  2
*D7
 70
     1
 10
0.0
 20
0.0
 30
0.0
  3
*D7
  1

  0
LINE
  5
660
330
210
100
AcDbEntity
  8
SK2
370
    -2
100
AcDbLine
 10
0.0000000000000009
 20
39.39740780907425
 30
0.0
 11
0.0000000000000034
 21
80.36309267349997
 31
0.0
  0
LINE
  5
661
330
210
100
AcDbEntity
  8
SK2
370
    -2
100
AcDbLine
 10
-126.8
 20
22.29408981600002
 30
0.0
 11
-126.8
 21
80.36309267349997
 31
0.0
  0
LINE
  5
662
330
210
100
AcDbEntity
  8
SK2
370
    -2
100
AcDbLine
 10
-3.499999999999996
 20
78.36309267349999
 30
0.0
 11
-123.3
 21
78.36309267349999
 31
0.0
  0
SOLID
  5
663
330
210
100
AcDbEntity
  8
SK2
100
AcDbTrace
 10
-3.499999999999996
 20
78.94642600683329
 30
0.0
 11
-3.499999999999996
 21
77.77975934016665
 31
0.0
 12
0.0000000000000033
 22
78.36309267349999
 32
0.0
 13
0.0000000000000033
 23
78.36309267349999
 33
0.0
  0
SOLID
  5
664
330
210
100
AcDbEntity
  8
SK2
100
AcDbTrace
 10
-123.3
 20
78.94642600683329
 30
0.0
 11
-123.3
 21
77.77975934016665
 31
0.0
 12
-126.8
 22
78.36309267349999
 32
0.0
 13
-126.8
 23
78.36309267349999
 33
0.0
  0
MTEXT
  5
665
330
210
100
AcDbEntity
  8
SK2
100
AcDbMText
 10
-63.39999999999999
 20
80.73809267349998
 30
0.0
 40
3.5
 41
0.0
 71
     5
 72
     1
  1
126.8
 73
     1
 44
1.0
1001
ACAD
1000
MTEXTBEGIN
1070
    73
1070
     1
1070
    44
1040
1.0
1070
    74
1070
     0
1000
MTEXTEND
  0
POINT
  5
666
330
210
100
AcDbEntity
  8
Defpoints
 62
     0
100
AcDbPoint
 10
0.0000000000000008
 20
38.77240780907425
 30
0.0
  0
POINT
  5
667
330
210
100
AcDbEntity
  8
Defpoints
 62
     0
100
AcDbPoint
 10
-126.8
 20
21.66908981600002
 30
0.0
  0
POINT
  5
668
330
210
100
AcDbEntity
  8
Defpoints
 62
     0
100
AcDbPoint
 10
-126.8
 20
78.36309267349999
 30
0.0
  0
ENDBLK
  5
257
330
210
100
AcDbEntity
  8
0
  6
ByBlock
 62
     0
100
AcDbBlockEnd
  0
BLOCK
  5
258
330
211
100
AcDbEntity
  8
SK2
  6
Continuous
 62
     7
100
AcDbBlockBegin
  2
*D8
 70
     1
 10
0.0
 20
0.0
 30
0.0
  3
*D8
  1

  0
LINE
  5
5EC
330
211
100
AcDbEntity
  8
SK2
370
    -2
100
AcDbLine
 10
35.125
 20
-12.0
 30
0.0
 11
49.875
 21
-12.0
 31
0.0
  0
LINE
  5
5ED
330
211
100
AcDbEntity
  8
SK2
370
    -2
100
AcDbLine
 10
35.125
 20
12.0
 30
0.0
 11
49.875
 21
11.99999999999999
 31
0.0
  0
LINE
  5
5EE
330
211
100
AcDbEntity
  8
SK2
370
    -2
100
AcDbLine
 10
47.875
 20
-15.5
 30
0.0
 11
47.87499999999999
 21
-19.0
 31
0.0
  0
LINE
  5
5EF
330
211
100
AcDbEntity
  8
SK2
370
    -2
100
AcDbLine
 10
47.875
 20
15.49999999999999
 30
0.0
 11
47.875
 21
18.99999999999999
 31
0.0
  0
LINE
  5
5F0
330
211
100
AcDbEntity
  8
SK2
370
    -2
100
AcDbLine
 10
47.875
 20
-12.0
 30
0.0
 11
47.875
 21
11.99999999999999
 31
0.0
  0
SOLID
  5
5F1
330
211
100
AcDbEntity
  8
SK2
100
AcDbTrace
 10
47.29166666666666
 20
-15.5
 30
0.0
 11
48.45833333333334
 21
-15.5
 31
0.0
 12
47.875
 22
-12.0
 32
0.0
 13
47.875
 23
-12.0
 33
0.0
  0
SOLID
  5
5F2
330
211
100
AcDbEntity
  8
SK2
100
AcDbTrace
 10
47.29166666666666
 20
15.49999999999999
 30
0.0
 11
48.45833333333334
 21
15.49999999999999
 31
0.0
 12
47.875
 22
11.99999999999999
 32
0.0
 13
47.875
 23
11.99999999999999
 33
0.0
  0
MTEXT
  5
5F3
330
211
100
AcDbEntity
  8
SK2
100
AcDbMText
 10
45.49999999999999
 20
0.0000000001000021
 30
0.0
 40
3.5
 41
0.0
 71
     5
 72
     1
  1
%%c24 H6
 11
0.0000000000000001
 21
1.0
 31
0.0
 73
     1
 44
1.0
1001
ACAD
1000
MTEXTBEGIN
1070
    73
1070
     1
1070
    44
1040
1.0
1070
    74
1070
     0
1000
MTEXTEND
  0
POINT
  5
5F4
330
211
100
AcDbEntity
  8
Defpoints
 62
     0
100
AcDbPoint
 10
34.5
 20
-12.0
 30
0.0
  0
POINT
  5
5F5
330
211
100
AcDbEntity
  8
Defpoints
 62
     0
100
AcDbPoint
 10
34.5
 20
12.0
 30
0.0
  0
POINT
  5
5F6
330
211
100
AcDbEntity
  8
Defpoints
 62
     0
100
AcDbPoint
 10
47.875
 20
11.99999999999999
 30
0.0
  0
ENDBLK
  5
261
330
211
100
AcDbEntity
  8
0
  6
ByBlock
 62
     0
100
AcDbBlockEnd
  0
ENDSEC
  0
SECTION
  2
ENTITIES
  0
DIMENSION
  5
265
330
1B
100
AcDbEntity
  8
2
100
AcDbDimension
  2
*D1
 10
3.199999999999988
 20
61.3630926735
 30
0.0
 11
-14.001
 21
61.3630926735
 31
0.0
 70
   160
  1
3.2
 71
     5
 42
3.199999999999983
  3
ISO-25
100
AcDbAlignedDimension
 13
0.0000000000000045
 23
39.1911310149344
 33
0.0
 14
3.199999999999988
 24
49.75
 34
0.0
100
AcDbRotatedDimension
  0
DIMENSION
  5
266
330
1B
100
AcDbEntity
  8
SK2
100
AcDbDimension
  2
*D2
 10
-139.425
 20
34.92500000000005
 30
0.0
 11
-139.425
 21
0.0000000001000018
 31
0.0
 70
   160
  1
%%c69.85
 71
     5
 42
69.85000000000001
  3
ISO-25
100
AcDbAlignedDimension
 13
-1.0
 23
-34.92499999999999
 33
0.0
 14
-1.0
 24
34.92500000000001
 34
0.0
 50
90.0
100
AcDbRotatedDimension
  0
DIMENSION
  5
267
330
1B
100
AcDbEntity
  8
SK2
100
AcDbDimension
  2
*D3
 10
-147.925
 20
48.75000000000003
 30
0.0
 11
-147.925
 21
0.0000000001000018
 31
0.0
 70
   160
  1
%%c97.5
 71
     5
 42
97.5
  3
ISO-25
100
AcDbAlignedDimension
 13
2.199999999999988
 23
-48.75
 33
0.0
 14
2.199999999999988
 24
48.75
 34
0.0
 50
90.0
100
AcDbRotatedDimension
  0
DIMENSION
  5
268
330
1B
100
AcDbEntity
  8
SK2
100
AcDbDimension
  2
*D4
 10
56.37500000000001
 20
24.49999999999999
 30
0.0
 11
56.375
 21
0.0000000001000018
 31
0.0
 70
   160
  1
%%c49
 71
     5
 42
49.0
  3
ISO-25
100
AcDbAlignedDimension
 13
35.5
 23
-24.5
 33
0.0
 14
36.5
 24
24.5
 34
0.0
 50
90.0
100
AcDbRotatedDimension
  0
DIMENSION
  5
269
330
1B
100
AcDbEntity
  8
2
100
AcDbDimension
  2
*D5
 10
35.0
 20
78.36309267349999
 30
0.0
 11
17.5
 21
78.36309267349999
 31
0.0
 70
   160
  1
35
 71
     5
 42
35.0
  3
ISO-25
100
AcDbAlignedDimension
 13
0.0000000000000008
 23
38.14740780907425
 33
0.0
 14
35.0
 24
25.0
 34
0.0
100
AcDbRotatedDimension
  0
DIMENSION
  5
26A
330
1B
100
AcDbEntity
  8
2
100
AcDbDimension
  2
*D6
 10
15.19999999999999
 20
69.86309267349998
 30
0.0
 11
7.599999999999994
 21
69.86309267349998
 31
0.0
 70
   160
  1
15.2
 71
     5
 42
15.19999999999998
  3
ISO-25
100
AcDbAlignedDimension
 13
0.0
 23
49.75
 33
0.0
 14
15.19999999999998
 24
49.75
 34
0.0
100
AcDbRotatedDimension
  0
DIMENSION
  5
26B
330
1B
100
AcDbEntity
  8
SK2
100
AcDbDimension
  2
*D7
 10
-126.8
 20
78.36309267349999
 30
0.0
 11
-63.39999999999999
 21
78.36309267349999
 31
0.0
 70
   160
  1
126.8
 71
     5
 42
126.8
  3
ISO-25
100
AcDbAlignedDimension
 13
0.0000000000000008
 23
38.77240780907425
 33
0.0
 14
-126.8
 24
21.66908981600002
 34
0.0
 50
180.0
100
AcDbRotatedDimension
  0
DIMENSION
  5
26C
330
1B
100
AcDbEntity
  8
SK2
100
AcDbDimension
  2
*D8
 10
47.875
 20
11.99999999999999
 30
0.0
 11
47.875
 21
0.0000000001000018
 31
0.0
 70
   160
  1
%%c24 H6
 71
     5
 42
24.0
  3
ISO-25
100
AcDbAlignedDimension
 13
34.5
 23
-12.0
 33
0.0
 14
34.5
 24
12.0
 34
0.0
 50
90.0
100
AcDbRotatedDimension
  0
LINE
  5
26E
330
1B
100
AcDbEntity
  8
1
100
AcDbLine
 10
-126.8
 20
17.29999999999999
 30
0.0
 11
-126.8
 21
-17.29999999999999
 31
0.0
  0
LINE
  5
26F
330
1B
100
AcDbEntity
  8
SK3
100
AcDbLine
 10
-115.3
 20
13.0
 30
0.0
 11
-115.3
 21
-13.0
 31
0.0
  0
LINE
  5
270
330
1B
100
AcDbEntity
  8
SK3
100
AcDbLine
 10
-112.675
 20
10.375
 30
0.0
 11
-112.675
 21
-10.375
 31
0.0
  0
LINE
  5
271
330
1B
100
AcDbEntity
  8
1
100
AcDbLine
 10
-109.8
 20
19.79999999999998
 30
0.0
 11
-109.8
 21
-19.79999999999998
 31
0.0
  0
LINE
  5
272
330
1B
100
AcDbEntity
  8
1
100
AcDbLine
 10
-101.8
 20
20.079429719
 30
0.0
 11
-101.8
 21
-20.07942971889999
 31
0.0
  0
LINE
  5
273
330
1B
100
AcDbEntity
  8
SK3
100
AcDbLine
 10
-115.3
 20
-13.0
 30
0.0
 11
-112.675
 21
-10.375
 31
0.0
  0
LINE
  5
274
330
1B
100
AcDbEntity
  8
1
100
AcDbLine
 10
1.743315313799968
 20
-34.74752602869999
 30
0.0
 11
0.6999999999999888
 21
-35.02708152449999
 31
0.0
  0
LINE
  5
275
330
1B
100
AcDbEntity
  8
1
100
AcDbLine
 10
14.69999999999998
 20
-48.75
 30
0.0
 11
3.699999999999988
 21
-48.75
 31
0.0
  0
LINE
  5
276
330
1B
100
AcDbEntity
  8
SK3
100
AcDbLine
 10
-115.3
 20
13.0
 30
0.0
 11
-112.675
 21
10.375
 31
0.0
  0
LINE
  5
277
330
1B
100
AcDbEntity
  8
1
100
AcDbLine
 10
2.800000000000011
 20
-34.72708152449999
 30
0.0
 11
1.898606740899992
 21
-34.72708152449999
 31
0.0
  0
LINE
  5
278
330
1B
100
AcDbEntity
  8
SK3
100
AcDbLine
 10
-65.3
 20
10.375
 30
0.0
 11
-65.3
 21
-10.375
 31
0.0
  0
LINE
  5
279
330
1B
100
AcDbEntity
  8
SK3
100
AcDbLine
 10
-62.07037417270001
 20
5.0
 30
0.0
 11
-62.07037417270001
 21
-5.0
 31
0.0
  0
LINE
  5
27A
330
1B
100
AcDbEntity
  8
1
100
AcDbLine
 10
34.5
 20
-24.5
 30
0.0
 11
16.19999999999999
 21
-24.5
 31
0.0
  0
LINE
  5
27B
330
1B
100
AcDbEntity
  8
SK1
100
AcDbLine
 10
35.0
 20
-20.02146997
 30
0.0
 11
39.4282032303
 21
-20.02146997
 31
0.0
  0
LINE
  5
27C
330
1B
100
AcDbEntity
  8
1
100
AcDbLine
 10
-109.8
 20
-19.79999999999998
 30
0.0
 11
-124.3
 21
-19.79999999999998
 31
0.0
  0
LINE
  5
27D
330
1B
100
AcDbEntity
  8
1
100
AcDbLine
 10
0.6999999999999888
 20
-35.02708152449999
 30
0.0
 11
-101.8
 21
-20.07942971889999
 31
0.0
  0
LINE
  5
27E
330
1B
100
AcDbEntity
  8
SK3
100
AcDbLine
 10
-65.3
 20
-10.375
 30
0.0
 11
-62.07037417270001
 21
-5.0
 31
0.0
  0
LINE
  5
27F
330
1B
100
AcDbEntity
  8
1
100
AcDbLine
 10
-102.2
 20
-19.0
 30
0.0
 11
-109.4
 21
-19.0
 31
0.0
  0
LINE
  5
280
330
1B
100
AcDbEntity
  8
SK4
100
AcDbLine
 10
43.5
 20
-16.02146997
 30
0.0
 11
21.49999999999999
 21
-16.02146997
 31
0.0
  0
LINE
  5
281
330
1B
100
AcDbEntity
  8
SK3
100
AcDbLine
 10
-123.8
 20
-13.0
 30
0.0
 11
-115.3
 21
-13.0
 31
0.0
  0
LINE
  5
282
330
1B
100
AcDbEntity
  8
1
100
AcDbLine
 10
15.19999999999998
 20
-12.84999999999999
 30
0.0
 11
3.199999999999988
 21
-12.84999999999999
 31
0.0
  0
LINE
  5
283
330
1B
100
AcDbEntity
  8
SK1
100
AcDbLine
 10
35.0
 20
-12.02146996999999
 30
0.0
 11
39.4282032303
 21
-12.02146996999999
 31
0.0
  0
LINE
  5
284
330
1B
100
AcDbEntity
  8
SK3
100
AcDbLine
 10
35.0
 20
-12.0
 30
0.0
 11
-3.0
 21
-12.0
 31
0.0
  0
LINE
  5
285
330
1B
100
AcDbEntity
  8
1
100
AcDbLine
 10
15.19999999999998
 20
-10.8499999519
 30
0.0
 11
3.199999999999988
 21
-10.84999999999999
 31
0.0
  0
LINE
  5
286
330
1B
100
AcDbEntity
  8
SK3
100
AcDbLine
 10
-112.675
 20
-10.375
 30
0.0
 11
-65.3
 21
-10.375
 31
0.0
  0
LINE
  5
287
330
1B
100
AcDbEntity
  8
SK3
100
AcDbLine
 10
-65.3
 20
10.375
 30
0.0
 11
-62.07037417270001
 21
5.0
 31
0.0
  0
LINE
  5
288
330
1B
100
AcDbEntity
  8
SK3
100
AcDbLine
 10
-62.07037417270001
 20
-5.0
 30
0.0
 11
-3.0
 21
-5.0
 31
0.0
  0
LINE
  5
289
330
1B
100
AcDbEntity
  8
NOCUT
100
AcDbLine
 10
35.0
 20
0.0
 30
0.0
 11
0.0
 21
0.0
 31
0.0
  0
LINE
  5
28A
330
1B
100
AcDbEntity
  8
4
100
AcDbLine
 10
38.0
 20
0.0
 30
0.0
 11
-129.8
 21
0.0
 31
0.0
  0
LINE
  5
28B
330
1B
100
AcDbEntity
  8
SK3
100
AcDbLine
 10
-62.07037417270001
 20
5.0
 30
0.0
 11
-3.0
 21
5.0
 31
0.0
  0
LINE
  5
28C
330
1B
100
AcDbEntity
  8
SK3
100
AcDbLine
 10
-112.675
 20
10.375
 30
0.0
 11
-65.3
 21
10.375
 31
0.0
  0
LINE
  5
28D
330
1B
100
AcDbEntity
  8
1
100
AcDbLine
 10
3.199999999999988
 20
10.85
 30
0.0
 11
15.19999999999998
 21
10.849999976
 31
0.0
  0
LINE
  5
28E
330
1B
100
AcDbEntity
  8
SK1
100
AcDbLine
 10
35.0
 20
11.5884572681
 30
0.0
 11
39.4282032303
 21
11.5884572681
 31
0.0
  0
LINE
  5
28F
330
1B
100
AcDbEntity
  8
SK3
100
AcDbLine
 10
35.0
 20
12.0
 30
0.0
 11
-3.0
 21
12.0
 31
0.0
  0
LINE
  5
290
330
1B
100
AcDbEntity
  8
1
100
AcDbLine
 10
3.199999999999988
 20
12.85000000000001
 30
0.0
 11
15.19999999999998
 21
12.85000000000001
 31
0.0
  0
LINE
  5
291
330
1B
100
AcDbEntity
  8
SK3
100
AcDbLine
 10
-123.8
 20
13.0
 30
0.0
 11
-115.3
 21
13.0
 31
0.0
  0
LINE
  5
292
330
1B
100
AcDbEntity
  8
SK4
100
AcDbLine
 10
43.5
 20
15.5884572681
 30
0.0
 11
21.49999999999999
 21
15.5884572681
 31
0.0
  0
LINE
  5
293
330
1B
100
AcDbEntity
  8
1
100
AcDbLine
 10
-102.2
 20
19.0
 30
0.0
 11
-109.4
 21
19.0
 31
0.0
  0
LINE
  5
294
330
1B
100
AcDbEntity
  8
SK1
100
AcDbLine
 10
35.0
 20
19.5884572681
 30
0.0
 11
39.4282032303
 21
19.5884572681
 31
0.0
  0
LINE
  5
295
330
1B
100
AcDbEntity
  8
1
100
AcDbLine
 10
-109.8
 20
19.79999999999998
 30
0.0
 11
-124.3
 21
19.79999999999998
 31
0.0
  0
LINE
  5
296
330
1B
100
AcDbEntity
  8
NOCUT
100
AcDbLine
 10
0.6999999999999888
 20
35.02708152460002
 30
0.0
 11
0.0
 21
34.9250000001
 31
0.0
  0
LINE
  5
297
330
1B
100
AcDbEntity
  8
1
100
AcDbLine
 10
0.6999999999999888
 20
35.02708152460002
 30
0.0
 11
-101.8
 21
20.079429719
 31
0.0
  0
LINE
  5
298
330
1B
100
AcDbEntity
  8
NOCUT
100
AcDbLine
 10
34.5
 20
24.5
 30
0.0
 11
16.19999999999999
 21
24.5
 31
0.0
  0
LINE
  5
299
330
1B
100
AcDbEntity
  8
1
100
AcDbLine
 10
34.5
 20
24.5
 30
0.0
 11
16.19999999999999
 21
24.5
 31
0.0
  0
LINE
  5
29A
330
1B
100
AcDbEntity
  8
SK3
100
AcDbLine
 10
-3.0
 20
12.0
 30
0.0
 11
-3.0
 21
-12.0
 31
0.0
  0
LINE
  5
29B
330
1B
100
AcDbEntity
  8
NOCUT
100
AcDbLine
 10
0.0
 20
0.0
 30
0.0
 11
0.0
 21
34.9250000001
 31
0.0
  0
LINE
  5
29C
330
1B
100
AcDbEntity
  8
NOCUT
100
AcDbLine
 10
2.800000000000011
 20
34.7270815246
 30
0.0
 11
1.898606740899992
 21
34.7270815246
 31
0.0
  0
LINE
  5
29D
330
1B
100
AcDbEntity
  8
1
100
AcDbLine
 10
2.800000000000011
 20
34.7270815246
 30
0.0
 11
1.898606740899992
 21
34.7270815246
 31
0.0
  0
LINE
  5
29E
330
1B
100
AcDbEntity
  8
1
100
AcDbLine
 10
0.6999999999999888
 20
35.02708152460002
 30
0.0
 11
0.6999999999999888
 21
-35.02708152449999
 31
0.0
  0
LINE
  5
29F
330
1B
100
AcDbEntity
  8
1
100
AcDbLine
 10
3.199999999999988
 20
-48.2499957197
 30
0.0
 11
3.199999999999988
 21
-9.664857617199984
 31
0.0
  0
LINE
  5
2A0
330
1B
100
AcDbEntity
  8
NOCUT
100
AcDbLine
 10
3.199999999999988
 20
34.87986792909998
 30
0.0
 11
3.199999999999988
 21
48.24999571910002
 31
0.0
  0
LINE
  5
2A1
330
1B
100
AcDbEntity
  8
1
100
AcDbLine
 10
3.199999999999988
 20
9.6648576173
 30
0.0
 11
3.199999999999988
 21
48.24999571910002
 31
0.0
  0
LINE
  5
2A2
330
1B
100
AcDbEntity
  8
NOCUT
100
AcDbLine
 10
14.69999999999998
 20
48.75
 30
0.0
 11
3.699999999999988
 21
48.75
 31
0.0
  0
LINE
  5
2A3
330
1B
100
AcDbEntity
  8
1
100
AcDbLine
 10
14.69999999999998
 20
48.75
 30
0.0
 11
3.699999999999988
 21
48.75
 31
0.0
  0
LINE
  5
2A4
330
1B
100
AcDbEntity
  8
NOCUT
100
AcDbLine
 10
1.743315313799968
 20
34.74752602880002
 30
0.0
 11
0.6999999999999888
 21
35.02708152460002
 31
0.0
  0
LINE
  5
2A5
330
1B
100
AcDbEntity
  8
1
100
AcDbLine
 10
1.743315313799968
 20
34.74752602880002
 30
0.0
 11
0.6999999999999888
 21
35.02708152460002
 31
0.0
  0
LINE
  5
2A6
330
1B
100
AcDbEntity
  8
NOCUT
100
AcDbLine
 10
15.19999999999998
 20
25.5
 30
0.0
 11
15.19999999999998
 21
48.24999571910002
 31
0.0
  0
LINE
  5
2A7
330
1B
100
AcDbEntity
  8
1
100
AcDbLine
 10
15.19999999999998
 20
-48.2499957197
 30
0.0
 11
15.19999999999998
 21
48.24999571910002
 31
0.0
  0
LINE
  5
2A8
330
1B
100
AcDbEntity
  8
1
100
AcDbLine
 10
35.0
 20
-24.0
 30
0.0
 11
34.5
 21
-24.5
 31
0.0
  0
LINE
  5
2A9
330
1B
100
AcDbEntity
  8
NOCUT
100
AcDbLine
 10
35.0
 20
24.0
 30
0.0
 11
34.5
 21
24.5
 31
0.0
  0
LINE
  5
2AA
330
1B
100
AcDbEntity
  8
1
100
AcDbLine
 10
35.0
 20
24.0
 30
0.0
 11
34.5
 21
24.5
 31
0.0
  0
LINE
  5
2AB
330
1B
100
AcDbEntity
  8
1
100
AcDbLine
 10
34.5
 20
24.5
 30
0.0
 11
34.5
 21
-24.5
 31
0.0
  0
LINE
  5
2AC
330
1B
100
AcDbEntity
  8
NOCUT
100
AcDbLine
 10
35.0
 20
24.0
 30
0.0
 11
35.0
 21
0.0
 31
0.0
  0
LINE
  5
2AD
330
1B
100
AcDbEntity
  8
1
100
AcDbLine
 10
35.0
 20
24.0
 30
0.0
 11
35.0
 21
-24.0
 31
0.0
  0
LINE
  5
2AE
330
1B
100
AcDbEntity
  8
SK1
100
AcDbLine
 10
39.4282032303
 20
-20.02146997
 30
0.0
 11
39.4282032303
 21
-12.02146996999999
 31
0.0
  0
LINE
  5
2AF
330
1B
100
AcDbEntity
  8
SK1
100
AcDbLine
 10
39.4282032303
 20
11.5884572681
 30
0.0
 11
39.4282032303
 21
19.5884572681
 31
0.0
  0
ARC
  5
2B0
330
1B
100
AcDbEntity
  8
SK3
100
AcDbCircle
 10
-123.8
 20
16.0
 30
0.0
 40
3.0
100
AcDbArc
 50
180.0
 51
270.0
  0
ARC
  5
2B1
330
1B
100
AcDbEntity
  8
SK3
100
AcDbCircle
 10
-123.8
 20
-16.0
 30
0.0
 40
3.0
100
AcDbArc
 50
90.0
 51
180.0
  0
ARC
  5
2B2
330
1B
100
AcDbEntity
  8
NOCUT
100
AcDbCircle
 10
3.699999999999988
 20
48.25
 30
0.0
 40
0.5
100
AcDbArc
 50
90.0
 51
180.0
  0
ARC
  5
2B3
330
1B
100
AcDbEntity
  8
NOCUT
100
AcDbCircle
 10
14.69999999999998
 20
48.25
 30
0.0
 40
0.5
100
AcDbArc
 50
0.0
 51
90.0
  0
ARC
  5
2B4
330
1B
100
AcDbEntity
  8
NOCUT
100
AcDbCircle
 10
2.800000000000011
 20
35.3270815246
 30
0.0
 40
0.6
100
AcDbArc
 50
270.0
 51
311.8103148957999
  0
ARC
  5
2B5
330
1B
100
AcDbEntity
  8
NOCUT
100
AcDbCircle
 10
1.898606740899992
 20
35.3270815246
 30
0.0
 40
0.6
100
AcDbArc
 50
255.0
 51
270.0
  0
ARC
  5
2B6
330
1B
100
AcDbEntity
  8
NOCUT
100
AcDbCircle
 10
16.19999999999999
 20
25.5
 30
0.0
 40
1.0
100
AcDbArc
 50
180.0
 51
270.0
  0
ARC
  5
2B7
330
1B
100
AcDbEntity
  8
SK1
100
AcDbCircle
 10
32.5
 20
15.5884572681
 30
0.0
 40
8.0
100
AcDbArc
 50
330.0
 51
30.0
  0
ARC
  5
2B8
330
1B
100
AcDbEntity
  8
SK1
100
AcDbCircle
 10
32.5
 20
-16.02146997
 30
0.0
 40
8.0
100
AcDbArc
 50
330.0
 51
30.0
  0
ARC
  5
2B9
330
1B
100
AcDbEntity
  8
1
100
AcDbCircle
 10
-124.3
 20
17.29999999999999
 30
0.0
 40
2.5
100
AcDbArc
 50
90.0
 51
180.0
  0
ARC
  5
2BA
330
1B
100
AcDbEntity
  8
1
100
AcDbCircle
 10
-124.3
 20
-17.29999999999999
 30
0.0
 40
2.5
100
AcDbArc
 50
180.0
 51
270.0
  0
ARC
  5
2BB
330
1B
100
AcDbEntity
  8
1
100
AcDbCircle
 10
3.699999999999988
 20
-48.25
 30
0.0
 40
0.5
100
AcDbArc
 50
180.0
 51
270.0
  0
ARC
  5
2BC
330
1B
100
AcDbEntity
  8
1
100
AcDbCircle
 10
3.699999999999988
 20
48.25
 30
0.0
 40
0.5
100
AcDbArc
 50
90.0
 51
180.0
  0
ARC
  5
2BD
330
1B
100
AcDbEntity
  8
1
100
AcDbCircle
 10
14.69999999999998
 20
-48.25
 30
0.0
 40
0.5
100
AcDbArc
 50
270.0
 51
0.0
  0
ARC
  5
2BE
330
1B
100
AcDbEntity
  8
1
100
AcDbCircle
 10
14.69999999999998
 20
48.25
 30
0.0
 40
0.5
100
AcDbArc
 50
0.0
 51
90.0
  0
ARC
  5
2BF
330
1B
100
AcDbEntity
  8
1
100
AcDbCircle
 10
2.800000000000011
 20
-35.3270815245
 30
0.0
 40
0.6
100
AcDbArc
 50
48.1799514799
 51
90.0
  0
ARC
  5
2C0
330
1B
100
AcDbEntity
  8
1
100
AcDbCircle
 10
2.800000000000011
 20
35.3270815246
 30
0.0
 40
0.6
100
AcDbArc
 50
270.0
 51
311.8200485201
  0
ARC
  5
2C1
330
1B
100
AcDbEntity
  8
1
100
AcDbCircle
 10
1.898606740899992
 20
-35.3270815245
 30
0.0
 40
0.6
100
AcDbArc
 50
90.0
 51
105.0
  0
ARC
  5
2C2
330
1B
100
AcDbEntity
  8
1
100
AcDbCircle
 10
1.898606740899992
 20
35.3270815246
 30
0.0
 40
0.6
100
AcDbArc
 50
255.0
 51
270.0
  0
ARC
  5
2C3
330
1B
100
AcDbEntity
  8
1
100
AcDbCircle
 10
-102.2
 20
-19.39999999999999
 30
0.0
 40
0.4
100
AcDbArc
 50
0.0
 51
90.0
  0
ARC
  5
2C4
330
1B
100
AcDbEntity
  8
1
100
AcDbCircle
 10
-102.2
 20
19.4
 30
0.0
 40
0.4
100
AcDbArc
 50
270.0
 51
0.0
  0
ARC
  5
2C5
330
1B
100
AcDbEntity
  8
1
100
AcDbCircle
 10
16.19999999999999
 20
25.5
 30
0.0
 40
1.0
100
AcDbArc
 50
180.0
 51
270.0
  0
ARC
  5
2C6
330
1B
100
AcDbEntity
  8
1
100
AcDbCircle
 10
-109.4
 20
-19.39999999999999
 30
0.0
 40
0.4
100
AcDbArc
 50
90.0
 51
180.0
  0
ARC
  5
2C7
330
1B
100
AcDbEntity
  8
1
100
AcDbCircle
 10
16.19999999999999
 20
-25.5
 30
0.0
 40
1.0
100
AcDbArc
 50
90.0
 51
180.0
  0
ARC
  5
2C8
330
1B
100
AcDbEntity
  8
1
100
AcDbCircle
 10
-109.4
 20
19.4
 30
0.0
 40
0.4
100
AcDbArc
 50
180.0
 51
270.0
  0
SPLINE
  5
2C9
330
1B
100
AcDbEntity
  8
1
100
AcDbSpline
210
0.0
220
0.0
230
1.0
 70
     8
 71
     3
 72
    19
 73
    15
 74
    13
 42
0.0000000001
 43
0.0000000001
 44
0.0000000001
 12
0.0368933007188246
 22
0.9993192104438254
 32
0.0
 13
-0.0368933007968738
 23
0.9993192104409438
 33
0.0
 40
0.0
 40
0.0
 40
0.0
 40
0.0
 40
1.603689128763556
 40
3.210216071291227
 40
4.820219158073787
 40
6.433600801572601
 40
8.049627209428683
 40
9.667100751174476
 40
11.28457498754198
 40
12.9006031126047
 40
14.51398608842968
 40
16.12398996003913
 40
17.73051386115873
 40
19.33420096184897
 40
19.33420096184897
 40
19.33420096184897
 40
19.33420096184897
 10
3.199999999999988
 20
-9.664857617199984
 30
0.0
 10
3.219721795095649
 20
-9.130658499215536
 30
0.0
 10
3.256156272668903
 20
-8.06119988931224
 30
0.0
 10
3.30141017345213
 20
-6.455088440005852
 30
0.0
 10
3.337000943110893
 20
-4.845501096842998
 30
0.0
 10
3.362652750585907
 20
-3.232557487945922
 30
0.0
 10
3.378141681172699
 20
-1.616993646452648
 30
0.0
 10
3.383321588542151
 20
0.0000005018423115
 30
0.0
 10
3.378141673689805
 20
1.616995222532421
 30
0.0
 10
3.362652717629249
 20
3.23256031192259
 30
0.0
 10
3.337000867390213
 20
4.845505198445066
 30
0.0
 10
3.301410075566517
 20
6.455092232968196
 30
0.0
 10
3.256156194045797
 20
8.061202253981869
 30
0.0
 10
3.219721770196598
 20
9.130659174881298
 30
0.0
 10
3.199999999999988
 20
9.6648576173
 30
0.0
 11
3.199999999999988
 21
-9.664857617199984
 31
0.0
 11
3.254552884300011
 21
-8.062096622999987
 31
0.0
 11
3.29975708059996
 21
-6.456205780599987
 31
0.0
 11
3.335312872700001
 21
-4.846595354099988
 31
0.0
 11
3.360942073299979
 21
-3.233417288400004
 31
0.0
 11
3.376418502500001
 21
-1.6174649899
 31
0.0
 11
3.381594436600011
 21
0.0000002703000064
 31
0.0
 11
3.376418494599988
 21
1.617466225100002
 31
0.0
 11
3.360942035599975
 21
3.233420240599996
 31
0.0
 11
3.335312791299969
 21
4.846599638100001
 31
0.0
 11
3.299756953099971
 21
6.456210848600007
 31
0.0
 11
3.254552821199978
 21
8.062098650200013
 31
0.0
 11
3.199999999999988
 21
9.6648576173
 31
0.0
  0
TEXT
  5
3F4
330
1B
100
AcDbEntity
  8
6
100
AcDbText
 10
31.95118072431304
 20
-41.33997684520642
 30
0.0
 40
5.0
  1
2080A50Z4SA035
 41
0.8
 72
     1
 11
52.98323603521286
 21
-41.33997684520642
 31
0.0
100
AcDbText
  0
TEXT
  5
40E
330
1B
100
AcDbEntity
  8
6
100
AcDbText
 10
-61.37721737956198
 20
-19.31667252454886
 30
0.0
 40
3.0
  1
DIN 2080-A50
 41
0.8
100
AcDbText
  0
LWPOLYLINE
  5
640
102
{ACAD_REACTORS
330
641
102
}
330
1B
100
AcDbEntity
  8
1
100
AcDbPolyline
 90
        3
 70
     1
 43
0.0
 10
0.0
 20
2.950972054112752
 10
0.0
 20
0.0
 10
2.950972054112638
 20
0.0
 42
0.4142135623730966
  0
HATCH
  5
641
330
1B
100
AcDbEntity
  8
1
100
AcDbHatch
 10
0.0
 20
0.0
 30
0.0
210
0.0
220
0.0
230
1.0
  2
SOLID
 70
     1
 71
     1
 91
        2
 92
        7
 72
     1
 73
     1
 93
        3
 10
0.0
 20
0.0
 42
0.0
 10
2.950972054112639
 20
0.0
 42
0.4142135623730966
 10
0.0
 20
2.950972054112753
 42
0.0
 97
        1
330
640
 92
        7
 72
     1
 73
     1
 93
        3
 10
0.0
 20
-2.950972054112412
 42
0.0
 10
0.0
 20
0.0
 42
0.0
 10
-2.950972054112583
 20
0.0
 42
0.4142135623730966
 97
        1
330
643
 75
     0
 76
     1
 47
0.1190009775223266
 98
        2
 10
0.7445530588119596
 20
0.9212244733765826
 10
-1.27946460185285
 20
-1.696796923046235
  0
CIRCLE
  5
642
330
1B
100
AcDbEntity
  8
1
100
AcDbCircle
 10
0.0
 20
0.0
 30
0.0
 40
2.950972054112601
  0
LWPOLYLINE
  5
643
102
{ACAD_REACTORS
330
641
102
}
330
1B
100
AcDbEntity
  8
1
100
AcDbPolyline
 90
        3
 70
     1
 43
0.0
 10
0.0
 20
0.0
 10
-2.950972054112583
 20
0.0
 42
0.4142135623730966
 10
0.0
 20
-2.950972054112412
  0
LINE
  5
644
330
1B
100
AcDbEntity
  8
1
100
AcDbLine
 10
-2.950972054112752
 20
0.0
 30
0.0
 11
2.950972054112583
 21
0.0
 31
0.0
  0
LINE
  5
645
330
1B
100
AcDbEntity
  8
1
100
AcDbLine
 10
0.0
 20
2.950972054112752
 30
0.0
 11
0.0
 21
-2.950972054112412
 31
0.0
  0
CIRCLE
  5
646
330
1B
100
AcDbEntity
  8
1
100
AcDbCircle
 10
35.00000000000005
 20
-0.0000000000000568
 30
0.0
 40
1.0
  0
HATCH
  5
647
330
1B
100
AcDbEntity
  8
1
100
AcDbHatch
 10
0.0
 20
0.0
 30
0.0
210
0.0
220
0.0
230
1.0
  2
SOLID
 70
     1
 71
     0
 91
        2
 92
        1
 93
        3
 72
     1
 10
35.00000000000005
 20
-0.0000000000000568
 11
34.00000000000005
 21
-0.0000000000000568
 72
     2
 10
35.00000000000005
 20
-0.0000000000000568
 40
1.0
 50
180.0
 51
270.0
 73
     1
 72
     1
 10
35.00000000000005
 20
-0.9999999999999431
 11
35.00000000000005
 21
-0.0000000000000568
 97
        0
 92
        1
 93
        3
 72
     1
 10
35.00000000000005
 20
1.000000000000055
 11
35.00000000000005
 21
-0.000000000000056
 72
     1
 10
35.00000000000005
 20
-0.0000000000000568
 11
36.00000000000005
 21
-0.0000000000000568
 72
     2
 10
35.00000000000005
 20
-0.0000000000000568
 40
1.0
 50
0.0
 51
90.0
 73
     1
 97
        0
 75
     0
 76
     1
 98
        1
 10
-74.92953417619808
 20
-32.53620011044967
  0
LINE
  5
648
330
1B
100
AcDbEntity
  8
1
100
AcDbLine
 10
34.00000000000005
 20
-0.0000000000000568
 30
0.0
 11
36.00000000000005
 21
-0.0000000000000568
 31
0.0
  0
LWPOLYLINE
  5
649
330
1B
100
AcDbEntity
  8
1
100
AcDbPolyline
 90
        3
 70
     1
 43
0.0
 10
35.00000000000005
 20
-0.0000000000000568
 10
34.00000000000005
 20
-0.0000000000000568
 42
0.4142135623730951
 10
35.00000000000005
 20
-0.9999999999999431
  0
LWPOLYLINE
  5
64A
330
1B
100
AcDbEntity
  8
1
100
AcDbPolyline
 90
        3
 70
     1
 43
0.0
 10
35.00000000000005
 20
1.000000000000055
 10
35.00000000000005
 20
-0.0000000000000568
 10
36.00000000000005
 20
-0.0000000000000568
 42
0.4142135623730951
  0
ENDSEC
  0
SECTION
  2
OBJECTS
  0
DICTIONARY
  5
2CA
330
0
100
AcDbDictionary
281
     1
  3
ACAD_COLOR
350
66E
  3
ACAD_GROUP
350
2CB
  3
ACAD_LAYOUT
350
2D3
  3
ACAD_MATERIAL
350
66D
  3
ACAD_MLINESTYLE
350
2CC
  3
ACAD_PLOTSETTINGS
350
2D4
  3
ACAD_PLOTSTYLENAME
350
2D1
  3
ACAD_TABLESTYLE
350
66F
  3
ACDBHEADERROUNDTRIPXREC
350
679
  3
AcDbVariableDictionary
350
674
  0
DICTIONARY
  5
66E
102
{ACAD_REACTORS
330
2CA
102
}
330
2CA
100
AcDbDictionary
281
     1
  0
DICTIONARY
  5
2CB
102
{ACAD_REACTORS
330
2CA
102
}
330
2CA
100
AcDbDictionary
281
     1
  0
DICTIONARY
  5
2D3
102
{ACAD_REACTORS
330
2CA
102
}
330
2CA
100
AcDbDictionary
281
     1
  3
Layout1
350
2D6
  3
Model
350
2D5
  0
DICTIONARY
  5
66D
102
{ACAD_REACTORS
330
2CA
102
}
330
2CA
100
AcDbDictionary
281
     1
  0
DICTIONARY
  5
2CC
102
{ACAD_REACTORS
330
2CA
102
}
330
2CA
100
AcDbDictionary
281
     1
  3
STANDARD
350
2CD
  0
DICTIONARY
  5
2D4
102
{ACAD_REACTORS
330
2CA
102
}
330
2CA
100
AcDbDictionary
281
     1
  0
ACDBDICTIONARYWDFLT
  5
2D1
102
{ACAD_REACTORS
330
2CA
102
}
330
2CA
100
AcDbDictionary
281
     1
  3
Normal
350
2D2
100
AcDbDictionaryWithDefault
340
2D2
  0
DICTIONARY
  5
66F
102
{ACAD_REACTORS
330
2CA
102
}
330
2CA
100
AcDbDictionary
281
     1
  3
Standard
350
670
  0
DICTIONARY
  5
679
102
{ACAD_REACTORS
330
2CA
102
}
330
2CA
100
AcDbDictionary
281
     1
  0
DICTIONARY
  5
674
102
{ACAD_REACTORS
330
2CA
102
}
330
2CA
100
AcDbDictionary
281
     1
  3
CTABLESTYLE
350
675
  3
DIMASSOC
350
676
  3
PROJECTNAME
350
677
  0
LAYOUT
  5
2D6
102
{ACAD_XDICTIONARY
360
67C
102
}
102
{ACAD_REACTORS
330
2D3
102
}
330
2D3
100
AcDbPlotSettings
  1

  2
\\ingdom02\ITB3
  4

  6

 40
0.0
 41
0.0
 42
0.0
 43
0.0
 44
0.0
 45
0.0
 46
0.0
 47
0.0
 48
0.0
 49
0.0
140
0.0
141
0.0
142
1.0
143
1.0
 70
   688
 72
     0
 73
     0
 74
     5
  7

 75
    16
147
1.0
148
0.0
149
0.0
100
AcDbLayout
  1
Layout1
 70
     1
 71
     1
 10
0.0
 20
0.0
 11
12.0
 21
9.0
 12
0.0
 22
0.0
 32
0.0
 14
1.000000000000000E+20
 24
1.000000000000000E+20
 34
1.000000000000000E+20
 15
-1.000000000000000E+20
 25
-1.000000000000000E+20
 35
-1.000000000000000E+20
146
0.0
 13
0.0
 23
0.0
 33
0.0
 16
1.0
 26
0.0
 36
0.0
 17
0.0
 27
1.0
 37
0.0
 76
     0
330
1C
  0
LAYOUT
  5
2D5
102
{ACAD_XDICTIONARY
360
67A
102
}
102
{ACAD_REACTORS
330
2D3
102
}
330
2D3
100
AcDbPlotSettings
  1

  2
\\ingdom02\ITB3
  4

  6

 40
0.0
 41
0.0
 42
0.0
 43
0.0
 44
0.0
 45
0.0
 46
0.0
 47
0.0
 48
0.0
 49
0.0
140
0.0
141
0.0
142
1.0
143
1.0
 70
  1712
 72
     0
 73
     0
 74
     0
  7

 75
     0
147
1.0
148
0.0
149
0.0
100
AcDbLayout
  1
Model
 70
     1
 71
     0
 10
0.0
 20
0.0
 11
12.0
 21
9.0
 12
0.0
 22
0.0
 32
0.0
 14
0.0
 24
0.0
 34
0.0
 15
0.0
 25
0.0
 35
0.0
146
0.0
 13
0.0
 23
0.0
 33
0.0
 16
1.0
 26
0.0
 36
0.0
 17
0.0
 27
1.0
 37
0.0
 76
     0
330
1B
  0
MLINESTYLE
  5
2CD
102
{ACAD_REACTORS
330
2CC
102
}
330
2CC
100
AcDbMlineStyle
  2
STANDARD
 70
     0
  3

 62
   256
 51
90.0
 52
90.0
 71
     2
 49
0.5
 62
   256
  6
BYLAYER
 49
-0.5
 62
   256
  6
BYLAYER
  0
ACDBPLACEHOLDER
  5
2D2
102
{ACAD_REACTORS
330
2D1
102
}
330
2D1
  0
TABLESTYLE
  5
670
102
{ACAD_REACTORS
330
66F
102
}
330
66F
100
AcDbTableStyle
  3
Standard
 70
     0
 71
     0
 40
1.5
 41
1.5
280
     0
281
     0
  7
STANDARD
140
4.5
170
     2
 62
     0
 63
     7
283
     0
274
    -2
284
     1
 64
     0
275
    -2
285
     1
 65
     0
276
    -2
286
     1
 66
     0
277
    -2
287
     1
 67
     0
278
    -2
288
     1
 68
     0
279
    -2
289
     1
 69
     0
  7
STANDARD
140
6.0
170
     5
 62
     0
 63
     7
283
     0
274
    -2
284
     1
 64
     0
275
    -2
285
     1
 65
     0
276
    -2
286
     1
 66
     0
277
    -2
287
     1
 67
     0
278
    -2
288
     1
 68
     0
279
    -2
289
     1
 69
     0
  7
STANDARD
140
4.5
170
     5
 62
     0
 63
     7
283
     0
274
    -2
284
     1
 64
     0
275
    -2
285
     1
 65
     0
276
    -2
286
     1
 66
     0
277
    -2
287
     1
 67
     0
278
    -2
288
     1
 68
     0
279
    -2
289
     1
 69
     0
  0
DICTIONARYVAR
  5
675
102
{ACAD_REACTORS
330
674
102
}
330
674
100
DictionaryVariables
280
     0
  1
STANDARD
  0
DICTIONARYVAR
  5
676
102
{ACAD_REACTORS
330
674
102
}
330
674
100
DictionaryVariables
280
     0
  1
1
  0
DICTIONARYVAR
  5
677
102
{ACAD_REACTORS
330
674
102
}
330
674
100
DictionaryVariables
280
     0
  1

  0
DICTIONARY
  5
67C
330
2D6
100
AcDbDictionary
280
     1
281
     1
  3
ACAD_XREC_ROUNDTRIP
360
67D
  0
DICTIONARY
  5
67A
330
2D5
100
AcDbDictionary
280
     1
281
     1
  3
ACAD_XREC_ROUNDTRIP
360
67B
  0
XRECORD
  5
67D
102
{ACAD_REACTORS
330
67C
102
}
330
67C
100
AcDbXrecord
280
     1
102
SHADEPLOT
 70
     0
102
SHADEPLOTRESLEVEL
 70
     2
102
SHADEPLOTCUSTOMDPI
 70
   300
  0
XRECORD
  5
67B
102
{ACAD_REACTORS
330
67A
102
}
330
67A
100
AcDbXrecord
280
     1
102
SHADEPLOT
 70
     0
102
SHADEPLOTRESLEVEL
 70
     2
102
SHADEPLOTCUSTOMDPI
 70
   300
  0
ENDSEC
  0
EOF
