  0
SECTION
  2
HEADER
  9
$ACADVER
  1
AC1015
  9
$ACADMAINTVER
 70
    20
  9
$DWGCODEPAGE
  3
ANSI_1252
  9
$INSBASE
 10
0.0
 20
0.0
 30
0.0
  9
$EXTMIN
 10
-118.6580555072632
 20
-37.1735260333781
 30
-0.0000000349181948
  9
$EXTMAX
 10
61.41201919332695
 20
65.26374185766122
 30
0.0000000814935747
  9
$LIMMIN
 10
0.0
 20
0.0
  9
$LIMMAX
 10
297.0
 20
210.0
  9
$ORTHOMODE
 70
     0
  9
$REGENMODE
 70
     1
  9
$FILLMODE
 70
     1
  9
$QTEXTMODE
 70
     0
  9
$MIRRTEXT
 70
     1
  9
$LTSCALE
 40
16.335
  9
$ATTMODE
 70
     1
  9
$TEXTSIZE
 40
0.2
  9
$TRACEWID
 40
0.05
  9
$TEXTSTYLE
  7
STANDARD
  9
$CLAYER
  8
0
  9
$CELTYPE
  6
BYLAYER
  9
$CECOLOR
 62
   256
  9
$CELTSCALE
 40
1.0
  9
$DISPSILH
 70
     0
  9
$DIMSCALE
 40
1.0
  9
$DIMASZ
 40
3.5
  9
$DIMEXO
 40
0.625
  9
$DIMDLI
 40
3.75
  9
$DIMRND
 40
0.0
  9
$DIMDLE
 40
0.0
  9
$DIMEXE
 40
2.0
  9
$DIMTP
 40
0.0
  9
$DIMTM
 40
0.0
  9
$DIMTXT
 40
3.5
  9
$DIMCEN
 40
2.5
  9
$DIMTSZ
 40
0.0
  9
$DIMTOL
 70
     0
  9
$DIMLIM
 70
     0
  9
$DIMTIH
 70
     0
  9
$DIMTOH
 70
     0
  9
$DIMSE1
 70
     0
  9
$DIMSE2
 70
     0
  9
$DIMTAD
 70
     1
  9
$DIMZIN
 70
     8
  9
$DIMBLK
  1

  9
$DIMASO
 70
     1
  9
$DIMSHO
 70
     1
  9
$DIMPOST
  1

  9
$DIMAPOST
  1

  9
$DIMALT
 70
     0
  9
$DIMALTD
 70
     3
  9
$DIMALTF
 40
0.03937007874016
  9
$DIMLFAC
 40
1.0
  9
$DIMTOFL
 70
     1
  9
$DIMTVP
 40
0.0
  9
$DIMTIX
 70
     0
  9
$DIMSOXD
 70
     0
  9
$DIMSAH
 70
     0
  9
$DIMBLK1
  1

  9
$DIMBLK2
  1

  9
$DIMSTYLE
  2
ISO-25
  9
$DIMCLRD
 70
   256
  9
$DIMCLRE
 70
   256
  9
$DIMCLRT
 70
   256
  9
$DIMTFAC
 40
1.0
  9
$DIMGAP
 40
0.625
  9
$DIMJUST
 70
     0
  9
$DIMSD1
 70
     0
  9
$DIMSD2
 70
     0
  9
$DIMTOLJ
 70
     0
  9
$DIMTZIN
 70
     8
  9
$DIMALTZ
 70
     0
  9
$DIMALTTZ
 70
     0
  9
$DIMUPT
 70
     0
  9
$DIMDEC
 70
     2
  9
$DIMTDEC
 70
     2
  9
$DIMALTU
 70
     2
  9
$DIMALTTD
 70
     3
  9
$DIMTXSTY
  7
STANDARD
  9
$DIMAUNIT
 70
     0
  9
$DIMADEC
 70
     0
  9
$DIMALTRND
 40
0.0
  9
$DIMAZIN
 70
     0
  9
$DIMDSEP
 70
    46
  9
$DIMATFIT
 70
     3
  9
$DIMFRAC
 70
     0
  9
$DIMLDRBLK
  1

  9
$DIMLUNIT
 70
     2
  9
$DIMLWD
 70
    -2
  9
$DIMLWE
 70
    -2
  9
$DIMTMOVE
 70
     0
  9
$LUNITS
 70
     2
  9
$LUPREC
 70
     4
  9
$SKETCHINC
 40
0.1
  9
$FILLETRAD
 40
0.0
  9
$AUNITS
 70
     0
  9
$AUPREC
 70
     0
  9
$MENU
  1
.
  9
$ELEVATION
 40
0.0
  9
$PELEVATION
 40
0.0
  9
$THICKNESS
 40
0.0
  9
$LIMCHECK
 70
     0
  9
$CHAMFERA
 40
0.0
  9
$CHAMFERB
 40
0.0
  9
$CHAMFERC
 40
0.0
  9
$CHAMFERD
 40
0.0
  9
$SKPOLY
 70
     0
  9
$TDCREATE
 40
2453782.649732315
  9
$TDUCREATE
 40
2453782.566398981
  9
$TDUPDATE
 40
2453899.539341319
  9
$TDUUPDATE
 40
2453899.456007987
  9
$TDINDWG
 40
0.0054302662
  9
$TDUSRTIMER
 40
0.0054300810
  9
$USRTIMER
 70
     1
  9
$ANGBASE
 50
0.0
  9
$ANGDIR
 70
     0
  9
$PDMODE
 70
     3
  9
$PDSIZE
 40
0.3125
  9
$PLINEWID
 40
0.0
  9
$SPLFRAME
 70
     0
  9
$SPLINETYPE
 70
     6
  9
$SPLINESEGS
 70
     8
  9
$HANDSEED
  5
660
  9
$SURFTAB1
 70
     6
  9
$SURFTAB2
 70
     6
  9
$SURFTYPE
 70
     6
  9
$SURFU
 70
     6
  9
$SURFV
 70
     6
  9
$UCSBASE
  2

  9
$UCSNAME
  2

  9
$UCSORG
 10
0.0
 20
0.0
 30
0.0
  9
$UCSXDIR
 10
1.0
 20
0.0
 30
0.0
  9
$UCSYDIR
 10
0.0
 20
1.0
 30
0.0
  9
$UCSORTHOREF
  2

  9
$UCSORTHOVIEW
 70
     0
  9
$UCSORGTOP
 10
0.0
 20
0.0
 30
0.0
  9
$UCSORGBOTTOM
 10
0.0
 20
0.0
 30
0.0
  9
$UCSORGLEFT
 10
0.0
 20
0.0
 30
0.0
  9
$UCSORGRIGHT
 10
0.0
 20
0.0
 30
0.0
  9
$UCSORGFRONT
 10
0.0
 20
0.0
 30
0.0
  9
$UCSORGBACK
 10
0.0
 20
0.0
 30
0.0
  9
$PUCSBASE
  2

  9
$PUCSNAME
  2

  9
$PUCSORG
 10
0.0
 20
0.0
 30
0.0
  9
$PUCSXDIR
 10
1.0
 20
0.0
 30
0.0
  9
$PUCSYDIR
 10
0.0
 20
1.0
 30
0.0
  9
$PUCSORTHOREF
  2

  9
$PUCSORTHOVIEW
 70
     0
  9
$PUCSORGTOP
 10
0.0
 20
0.0
 30
0.0
  9
$PUCSORGBOTTOM
 10
0.0
 20
0.0
 30
0.0
  9
$PUCSORGLEFT
 10
0.0
 20
0.0
 30
0.0
  9
$PUCSORGRIGHT
 10
0.0
 20
0.0
 30
0.0
  9
$PUCSORGFRONT
 10
0.0
 20
0.0
 30
0.0
  9
$PUCSORGBACK
 10
0.0
 20
0.0
 30
0.0
  9
$USERI1
 70
     0
  9
$USERI2
 70
     0
  9
$USERI3
 70
     0
  9
$USERI4
 70
     0
  9
$USERI5
 70
     0
  9
$USERR1
 40
0.0
  9
$USERR2
 40
0.0
  9
$USERR3
 40
0.0
  9
$USERR4
 40
0.0
  9
$USERR5
 40
0.0
  9
$WORLDVIEW
 70
     1
  9
$SHADEDGE
 70
     3
  9
$SHADEDIF
 70
    70
  9
$TILEMODE
 70
     1
  9
$MAXACTVP
 70
    64
  9
$PINSBASE
 10
0.0
 20
0.0
 30
0.0
  9
$PLIMCHECK
 70
     0
  9
$PEXTMIN
 10
1.000000000000000E+20
 20
1.000000000000000E+20
 30
1.000000000000000E+20
  9
$PEXTMAX
 10
-1.000000000000000E+20
 20
-1.000000000000000E+20
 30
-1.000000000000000E+20
  9
$PLIMMIN
 10
0.0
 20
0.0
  9
$PLIMMAX
 10
12.0
 20
9.0
  9
$UNITMODE
 70
     0
  9
$VISRETAIN
 70
     1
  9
$PLINEGEN
 70
     0
  9
$PSLTSCALE
 70
     1
  9
$TREEDEPTH
 70
  3020
  9
$CMLSTYLE
  2
STANDARD
  9
$CMLJUST
 70
     0
  9
$CMLSCALE
 40
1.0
  9
$PROXYGRAPHICS
 70
     1
  9
$MEASUREMENT
 70
     1
  9
$CELWEIGHT
370
    -1
  9
$ENDCAPS
280
     0
  9
$JOINSTYLE
280
     0
  9
$LWDISPLAY
290
     0
  9
$INSUNITS
 70
     0
  9
$HYPERLINKBASE
  1

  9
$STYLESHEET
  1

  9
$XEDIT
290
     1
  9
$CEPSNTYPE
380
     0
  9
$PSTYLEMODE
290
     1
  9
$FINGERPRINTGUID
  2
{F59B8F5D-AAD9-496B-9731-029EE47F5431}
  9
$VERSIONGUID
  2
{F15C27EA-F934-49E4-9B6A-4300DC347AA7}
  9
$EXTNAMES
290
     1
  9
$PSVPSCALE
 40
0.0
  9
$OLESTARTUP
290
     0
  0
ENDSEC
  0
SECTION
  2
CLASSES
  0
CLASS
  1
ACDBDICTIONARYWDFLT
  2
AcDbDictionaryWithDefault
  3
ObjectDBX Classes
 90
        0
280
     0
281
     0
  0
CLASS
  1
ACDBPLACEHOLDER
  2
AcDbPlaceHolder
  3
ObjectDBX Classes
 90
        0
280
     0
281
     0
  0
CLASS
  1
LAYOUT
  2
AcDbLayout
  3
ObjectDBX Classes
 90
        0
280
     0
281
     0
  0
CLASS
  1
TABLESTYLE
  2
AcDbTableStyle
  3
ObjectDBX Classes
 90
     2047
280
     0
281
     0
  0
CLASS
  1
DICTIONARYVAR
  2
AcDbDictionaryVar
  3
ObjectDBX Classes
 90
        0
280
     0
281
     0
  0
ENDSEC
  0
SECTION
  2
TABLES
  0
TABLE
  2
VPORT
  5
8
330
0
100
AcDbSymbolTable
 70
     2
  0
VPORT
  5
65A
330
8
100
AcDbSymbolTableRecord
100
AcDbViewportTableRecord
  2
*Active
 70
     0
 10
0.0
 20
0.0
 11
1.0
 21
1.0
 12
-28.62301815696816
 22
14.04510791214156
 13
0.0
 23
0.0
 14
1.0
 24
1.0
 15
0.0
 25
0.0
 16
0.0
 26
0.0
 36
1.0
 17
0.0
 27
0.0
 37
0.0
 40
118.8425657281545
 41
1.522727272727272
 42
50.0
 43
0.0
 44
0.0
 50
0.0
 51
0.0
 71
     0
 72
   100
 73
     1
 74
     1
 75
     0
 76
     0
 77
     0
 78
     0
281
     0
 65
     1
110
0.0
120
0.0
130
0.0
111
1.0
121
0.0
131
0.0
112
0.0
122
1.0
132
0.0
 79
     0
146
0.0
  0
ENDTAB
  0
TABLE
  2
LTYPE
  5
5
330
0
100
AcDbSymbolTable
 70
     3
  0
LTYPE
  5
14
330
5
100
AcDbSymbolTableRecord
100
AcDbLinetypeTableRecord
  2
BYBLOCK
 70
     0
  3

 72
    65
 73
     0
 40
0.0
  0
LTYPE
  5
15
330
5
100
AcDbSymbolTableRecord
100
AcDbLinetypeTableRecord
  2
BYLAYER
 70
     0
  3

 72
    65
 73
     0
 40
0.0
  0
LTYPE
  5
16
330
5
100
AcDbSymbolTableRecord
100
AcDbLinetypeTableRecord
  2
CONTINUOUS
 70
     0
  3
Solid line
 72
    65
 73
     0
 40
0.0
  0
LTYPE
  5
1F5
330
5
100
AcDbSymbolTableRecord
100
AcDbLinetypeTableRecord
  2
CENTER
 70
     0
  3
____ _ ____ _ ____ _ ____ _ ____ _ ____ _ ____
 72
    65
 73
     4
 40
0.6
 49
0.375
 74
     0
 49
-0.075
 74
     0
 49
0.075
 74
     0
 49
-0.075
 74
     0
  0
LTYPE
  5
1F6
330
5
100
AcDbSymbolTableRecord
100
AcDbLinetypeTableRecord
  2
HIDDEN
 70
     0
  3
- - - - - - - - - - - - - - - - - - - -
 72
    65
 73
     2
 40
0.2
 49
0.1
 74
     0
 49
-0.1
 74
     0
  0
ENDTAB
  0
TABLE
  2
LAYER
  5
2
330
0
100
AcDbSymbolTable
 70
    11
  0
LAYER
  5
10
330
2
100
AcDbSymbolTableRecord
100
AcDbLayerTableRecord
  2
0
 70
     0
 62
     7
  6
CONTINUOUS
370
    -3
390
2E6
  0
LAYER
  5
1FD
330
2
100
AcDbSymbolTableRecord
100
AcDbLayerTableRecord
  2
1
 70
     0
 62
     4
  6
CONTINUOUS
370
    -3
390
2E6
  0
LAYER
  5
1FE
330
2
100
AcDbSymbolTableRecord
100
AcDbLayerTableRecord
  2
2
 70
     0
 62
     7
  6
CONTINUOUS
370
    -3
390
2E6
  0
LAYER
  5
1FF
330
2
100
AcDbSymbolTableRecord
100
AcDbLayerTableRecord
  2
4
 70
     0
 62
     2
  6
CENTER
370
    -3
390
2E6
  0
LAYER
  5
200
330
2
100
AcDbSymbolTableRecord
100
AcDbLayerTableRecord
  2
6
 70
     0
 62
     5
  6
CONTINUOUS
370
    -3
390
2E6
  0
LAYER
  5
201
330
2
100
AcDbSymbolTableRecord
100
AcDbLayerTableRecord
  2
NOCUT
 70
     0
 62
     7
  6
CONTINUOUS
370
    -3
390
2E6
  0
LAYER
  5
202
330
2
100
AcDbSymbolTableRecord
100
AcDbLayerTableRecord
  2
SK1
 70
     0
 62
     4
  6
CONTINUOUS
370
    -3
390
2E6
  0
LAYER
  5
203
330
2
100
AcDbSymbolTableRecord
100
AcDbLayerTableRecord
  2
SK2
 70
     0
 62
     7
  6
CONTINUOUS
370
    -3
390
2E6
  0
LAYER
  5
204
330
2
100
AcDbSymbolTableRecord
100
AcDbLayerTableRecord
  2
SK3
 70
     0
 62
     1
  6
HIDDEN
370
    -3
390
2E6
  0
LAYER
  5
205
330
2
100
AcDbSymbolTableRecord
100
AcDbLayerTableRecord
  2
SK4
 70
     0
 62
     2
  6
CENTER
370
    -3
390
2E6
  0
LAYER
  5
34F
330
2
100
AcDbSymbolTableRecord
100
AcDbLayerTableRecord
  2
Defpoints
 70
     0
 62
     7
  6
CONTINUOUS
290
     0
370
    -3
390
2E6
  0
ENDTAB
  0
TABLE
  2
STYLE
  5
3
330
0
100
AcDbSymbolTable
 70
     1
  0
STYLE
  5
11
330
3
100
AcDbSymbolTableRecord
100
AcDbTextStyleTableRecord
  2
STANDARD
 70
     0
 40
0.0
 41
0.8
 50
0.0
 71
     0
 42
0.2
  3
isocp.shx
  4

  0
ENDTAB
  0
TABLE
  2
VIEW
  5
6
330
0
100
AcDbSymbolTable
 70
     0
  0
ENDTAB
  0
TABLE
  2
UCS
  5
7
330
0
100
AcDbSymbolTable
 70
     0
  0
ENDTAB
  0
TABLE
  2
APPID
  5
9
330
0
100
AcDbSymbolTable
 70
     1
  0
APPID
  5
206
330
9
100
AcDbSymbolTableRecord
100
AcDbRegAppTableRecord
  2
ACAD
 70
     0
  0
ENDTAB
  0
TABLE
  2
DIMSTYLE
  5
A
330
0
100
AcDbSymbolTable
 70
     2
100
AcDbDimStyleTable
 71
     2
340
350
340
207
  0
DIMSTYLE
105
207
330
A
100
AcDbSymbolTableRecord
100
AcDbDimStyleTableRecord
  2
STANDARD
 70
     0
 41
2.5
 47
0.005
 48
0.005
 71
     1
 73
     0
 74
     0
 77
     1
 78
     8
140
3.5
178
     2
271
     3
272
     3
284
     8
340
11
341
209
342
209
343
209
344
209
  0
DIMSTYLE
105
350
102
{ACAD_REACTORS
330
267
330
266
330
265
330
26B
330
26A
330
269
330
26C
330
268
102
}
330
A
100
AcDbSymbolTableRecord
100
AcDbDimStyleTableRecord
  2
ISO-25
 70
     0
 41
3.5
 42
0.625
 43
3.75
 44
2.0
 73
     0
 74
     0
 77
     1
 78
     8
140
3.5
141
2.5
143
0.03937007874016
147
0.625
171
     3
172
     1
176
   256
177
   256
178
   256
271
     2
272
     2
274
     3
283
     0
284
     8
340
11
  0
ENDTAB
  0
TABLE
  2
BLOCK_RECORD
  5
1
330
0
100
AcDbSymbolTable
 70
     9
  0
BLOCK_RECORD
  5
1B
330
1
100
AcDbSymbolTableRecord
100
AcDbBlockTableRecord
  2
*MODEL_SPACE
340
2E9
  0
BLOCK_RECORD
  5
1C
330
1
100
AcDbSymbolTableRecord
100
AcDbBlockTableRecord
  2
*PAPER_SPACE
340
2EA
  0
BLOCK_RECORD
  5
209
330
1
100
AcDbSymbolTableRecord
100
AcDbBlockTableRecord
  2
_FILLED
340
0
  0
BLOCK_RECORD
  5
20A
330
1
100
AcDbSymbolTableRecord
100
AcDbBlockTableRecord
  2
*D1
340
0
  0
BLOCK_RECORD
  5
20B
330
1
100
AcDbSymbolTableRecord
100
AcDbBlockTableRecord
  2
*D2
340
0
  0
BLOCK_RECORD
  5
20C
330
1
100
AcDbSymbolTableRecord
100
AcDbBlockTableRecord
  2
*D3
340
0
  0
BLOCK_RECORD
  5
20D
330
1
100
AcDbSymbolTableRecord
100
AcDbBlockTableRecord
  2
*D4
340
0
  0
BLOCK_RECORD
  5
20E
330
1
100
AcDbSymbolTableRecord
100
AcDbBlockTableRecord
  2
*D5
340
0
  0
BLOCK_RECORD
  5
20F
330
1
100
AcDbSymbolTableRecord
100
AcDbBlockTableRecord
  2
*D6
340
0
  0
BLOCK_RECORD
  5
210
330
1
100
AcDbSymbolTableRecord
100
AcDbBlockTableRecord
  2
*D7
340
0
  0
BLOCK_RECORD
  5
211
330
1
100
AcDbSymbolTableRecord
100
AcDbBlockTableRecord
  2
*D8
340
0
  0
ENDTAB
  0
ENDSEC
  0
SECTION
  2
BLOCKS
  0
BLOCK
  5
1E
330
1B
100
AcDbEntity
  8
0
100
AcDbBlockBegin
  2
*MODEL_SPACE
 70
     0
 10
0.0
 20
0.0
 30
0.0
  3
*MODEL_SPACE
  1

  0
ENDBLK
  5
1F
330
1B
100
AcDbEntity
  8
0
100
AcDbBlockEnd
  0
BLOCK
  5
20
330
1C
100
AcDbEntity
 67
     1
  8
0
100
AcDbBlockBegin
  2
*PAPER_SPACE
 70
     0
 10
0.0
 20
0.0
 30
0.0
  3
*PAPER_SPACE
  1

  0
ENDBLK
  5
21
330
1C
100
AcDbEntity
 67
     1
  8
0
100
AcDbBlockEnd
  0
BLOCK
  5
262
330
209
100
AcDbEntity
  8
0
100
AcDbBlockBegin
  2
_FILLED
 70
     0
 10
0.0
 20
0.0
 30
0.0
  3
_FILLED
  1

  0
SOLID
  5
263
330
209
100
AcDbEntity
  8
0
  6
ByBlock
 62
     0
100
AcDbTrace
 10
0.0
 20
0.0
 30
0.0
 11
-1.0
 21
0.132
 31
0.0
 12
-1.0
 22
-0.132
 32
0.0
 13
-1.0
 23
-0.132
 33
0.0
  0
ENDBLK
  5
264
330
209
100
AcDbEntity
  8
0
  6
ByBlock
 62
     0
100
AcDbBlockEnd
  0
BLOCK
  5
212
330
20A
100
AcDbEntity
  8
2
  6
Continuous
 62
     7
100
AcDbBlockBegin
  2
*D1
 70
     1
 10
0.0
 20
0.0
 30
0.0
  3
*D1
  1

  0
LINE
  5
640
330
20A
100
AcDbEntity
  8
2
370
    -2
100
AcDbLine
 10
0.0000000000000028
 20
24.02179113214242
 30
0.0
 11
0.0000000000000041
 21
46.12499999999998
 31
0.0
  0
LINE
  5
641
330
20A
100
AcDbEntity
  8
2
370
    -2
100
AcDbLine
 10
1.600000000000022
 20
33.12499999999998
 30
0.0
 11
1.600000000000023
 21
46.12499999999998
 31
0.0
  0
LINE
  5
642
330
20A
100
AcDbEntity
  8
2
370
    -2
100
AcDbLine
 10
5.100000000000023
 20
44.12499999999997
 30
0.0
 11
8.600000000000022
 21
44.12499999999997
 31
0.0
  0
LINE
  5
643
330
20A
100
AcDbEntity
  8
2
370
    -2
100
AcDbLine
 10
-3.499999999999996
 20
44.12499999999997
 30
0.0
 11
-12.91666666666667
 21
44.12499999999997
 31
0.0
  0
LINE
  5
644
330
20A
100
AcDbEntity
  8
2
370
    -2
100
AcDbLine
 10
1.600000000000023
 20
44.12499999999997
 30
0.0
 11
0.000000000000004
 21
44.12499999999997
 31
0.0
  0
SOLID
  5
645
330
20A
100
AcDbEntity
  8
2
100
AcDbTrace
 10
5.100000000000023
 20
44.70833333333332
 30
0.0
 11
5.100000000000023
 21
43.54166666666665
 31
0.0
 12
1.600000000000023
 22
44.12499999999997
 32
0.0
 13
1.600000000000023
 23
44.12499999999997
 33
0.0
  0
SOLID
  5
646
330
20A
100
AcDbEntity
  8
2
100
AcDbTrace
 10
-3.499999999999996
 20
44.70833333333332
 30
0.0
 11
-3.499999999999996
 21
43.54166666666665
 31
0.0
 12
0.000000000000004
 22
44.12499999999997
 32
0.0
 13
0.000000000000004
 23
44.12499999999997
 33
0.0
  0
MTEXT
  5
647
330
20A
100
AcDbEntity
  8
2
100
AcDbMText
 10
-9.958333333333342
 20
46.49999999999997
 30
0.0
 40
3.5
 41
0.0
 71
     5
 72
     1
  1
1.6
 73
     1
 44
1.0
1001
ACAD
1000
MTEXTBEGIN
1070
    73
1070
     1
1070
    44
1040
1.0
1070
    74
1070
     0
1000
MTEXTEND
  0
POINT
  5
648
330
20A
100
AcDbEntity
  8
Defpoints
 62
     0
100
AcDbPoint
 10
0.0000000000000027
 20
23.39679113214242
 30
0.0
  0
POINT
  5
649
330
20A
100
AcDbEntity
  8
Defpoints
 62
     0
100
AcDbPoint
 10
1.600000000000022
 20
32.49999999999998
 30
0.0
  0
POINT
  5
64A
330
20A
100
AcDbEntity
  8
Defpoints
 62
     0
100
AcDbPoint
 10
1.600000000000023
 20
44.12499999999997
 30
0.0
  0
ENDBLK
  5
21C
330
20A
100
AcDbEntity
  8
0
  6
ByBlock
 62
     0
100
AcDbBlockEnd
  0
BLOCK
  5
21D
330
20B
100
AcDbEntity
  8
SK2
  6
Continuous
 62
     7
100
AcDbBlockBegin
  2
*D2
 70
     1
 10
0.0
 20
0.0
 30
0.0
  3
*D2
  1

  0
LINE
  5
5FF
330
20B
100
AcDbEntity
  8
SK2
370
    -2
100
AcDbLine
 10
-1.625
 20
-22.22500000000001
 30
0.0
 11
-108.025
 21
-22.22499999999997
 31
0.0
  0
LINE
  5
600
330
20B
100
AcDbEntity
  8
SK2
370
    -2
100
AcDbLine
 10
-1.625
 20
22.22500000000001
 30
0.0
 11
-108.025
 21
22.22500000000004
 31
0.0
  0
LINE
  5
601
330
20B
100
AcDbEntity
  8
SK2
370
    -2
100
AcDbLine
 10
-106.025
 20
-18.72499999999997
 30
0.0
 11
-106.025
 21
18.72500000000004
 31
0.0
  0
SOLID
  5
602
330
20B
100
AcDbEntity
  8
SK2
100
AcDbTrace
 10
-106.6083333333333
 20
-18.72499999999997
 30
0.0
 11
-105.4416666666666
 21
-18.72499999999997
 31
0.0
 12
-106.025
 22
-22.22499999999997
 32
0.0
 13
-106.025
 23
-22.22499999999997
 33
0.0
  0
SOLID
  5
603
330
20B
100
AcDbEntity
  8
SK2
100
AcDbTrace
 10
-106.6083333333333
 20
18.72500000000004
 30
0.0
 11
-105.4416666666666
 21
18.72500000000004
 31
0.0
 12
-106.025
 22
22.22500000000004
 32
0.0
 13
-106.025
 23
22.22500000000004
 33
0.0
  0
MTEXT
  5
604
330
20B
100
AcDbEntity
  8
SK2
100
AcDbMText
 10
-108.4
 20
0.0000000001000021
 30
0.0
 40
3.5
 41
0.0
 71
     5
 72
     1
  1
%%c44.45
 11
0.0000000000000001
 21
1.0
 31
0.0
 73
     1
 44
1.0
1001
ACAD
1000
MTEXTBEGIN
1070
    73
1070
     1
1070
    44
1040
1.0
1070
    74
1070
     0
1000
MTEXTEND
  0
POINT
  5
605
330
20B
100
AcDbEntity
  8
Defpoints
 62
     0
100
AcDbPoint
 10
-1.0
 20
-22.22500000000001
 30
0.0
  0
POINT
  5
606
330
20B
100
AcDbEntity
  8
Defpoints
 62
     0
100
AcDbPoint
 10
-1.0
 20
22.22500000000001
 30
0.0
  0
POINT
  5
607
330
20B
100
AcDbEntity
  8
Defpoints
 62
     0
100
AcDbPoint
 10
-106.025
 20
22.22500000000004
 30
0.0
  0
ENDBLK
  5
226
330
20B
100
AcDbEntity
  8
0
  6
ByBlock
 62
     0
100
AcDbBlockEnd
  0
BLOCK
  5
227
330
20C
100
AcDbEntity
  8
SK2
  6
Continuous
 62
     7
100
AcDbBlockBegin
  2
*D3
 70
     1
 10
0.0
 20
0.0
 30
0.0
  3
*D3
  1

  0
LINE
  5
5F6
330
20C
100
AcDbEntity
  8
SK2
370
    -2
100
AcDbLine
 10
-0.0249999999999773
 20
-31.5
 30
0.0
 11
-116.525
 21
-31.49999999999996
 31
0.0
  0
LINE
  5
5F7
330
20C
100
AcDbEntity
  8
SK2
370
    -2
100
AcDbLine
 10
-0.0249999999999773
 20
31.49999999999999
 30
0.0
 11
-116.525
 21
31.50000000000002
 31
0.0
  0
LINE
  5
5F8
330
20C
100
AcDbEntity
  8
SK2
370
    -2
100
AcDbLine
 10
-114.525
 20
-27.99999999999997
 30
0.0
 11
-114.525
 21
28.00000000000002
 31
0.0
  0
SOLID
  5
5F9
330
20C
100
AcDbEntity
  8
SK2
100
AcDbTrace
 10
-115.1083333333333
 20
-27.99999999999997
 30
0.0
 11
-113.9416666666666
 21
-27.99999999999997
 31
0.0
 12
-114.525
 22
-31.49999999999996
 32
0.0
 13
-114.525
 23
-31.49999999999996
 33
0.0
  0
SOLID
  5
5FA
330
20C
100
AcDbEntity
  8
SK2
100
AcDbTrace
 10
-115.1083333333333
 20
28.00000000000002
 30
0.0
 11
-113.9416666666666
 21
28.00000000000002
 31
0.0
 12
-114.525
 22
31.50000000000002
 32
0.0
 13
-114.525
 23
31.50000000000002
 33
0.0
  0
MTEXT
  5
5FB
330
20C
100
AcDbEntity
  8
SK2
100
AcDbMText
 10
-116.9
 20
0.0000000001000021
 30
0.0
 40
3.5
 41
0.0
 71
     5
 72
     1
  1
%%c63
 11
0.0000000000000001
 21
1.0
 31
0.0
 73
     1
 44
1.0
1001
ACAD
1000
MTEXTBEGIN
1070
    73
1070
     1
1070
    44
1040
1.0
1070
    74
1070
     0
1000
MTEXTEND
  0
POINT
  5
5FC
330
20C
100
AcDbEntity
  8
Defpoints
 62
     0
100
AcDbPoint
 10
0.6000000000000229
 20
-31.5
 30
0.0
  0
POINT
  5
5FD
330
20C
100
AcDbEntity
  8
Defpoints
 62
     0
100
AcDbPoint
 10
0.6000000000000229
 20
31.49999999999999
 30
0.0
  0
POINT
  5
5FE
330
20C
100
AcDbEntity
  8
Defpoints
 62
     0
100
AcDbPoint
 10
-114.525
 20
31.50000000000002
 30
0.0
  0
ENDBLK
  5
230
330
20C
100
AcDbEntity
  8
0
  6
ByBlock
 62
     0
100
AcDbBlockEnd
  0
BLOCK
  5
231
330
20D
100
AcDbEntity
  8
SK2
  6
Continuous
 62
     7
100
AcDbBlockBegin
  2
*D4
 70
     1
 10
0.0
 20
0.0
 30
0.0
  3
*D4
  1

  0
LINE
  5
5E2
330
20D
100
AcDbEntity
  8
SK2
370
    -2
100
AcDbLine
 10
26.125
 20
-24.5
 30
0.0
 11
48.37499999999999
 21
-24.5
 31
0.0
  0
LINE
  5
5E3
330
20D
100
AcDbEntity
  8
SK2
370
    -2
100
AcDbLine
 10
27.125
 20
24.49999999999998
 30
0.0
 11
48.37500000000001
 21
24.49999999999998
 31
0.0
  0
LINE
  5
5E4
330
20D
100
AcDbEntity
  8
SK2
370
    -2
100
AcDbLine
 10
46.37499999999999
 20
-21.0
 30
0.0
 11
46.37500000000001
 21
20.99999999999998
 31
0.0
  0
SOLID
  5
5E5
330
20D
100
AcDbEntity
  8
SK2
100
AcDbTrace
 10
45.79166666666664
 20
-21.0
 30
0.0
 11
46.95833333333331
 21
-21.0
 31
0.0
 12
46.37499999999999
 22
-24.5
 32
0.0
 13
46.37499999999999
 23
-24.5
 33
0.0
  0
SOLID
  5
5E6
330
20D
100
AcDbEntity
  8
SK2
100
AcDbTrace
 10
45.79166666666667
 20
20.99999999999998
 30
0.0
 11
46.95833333333334
 21
20.99999999999998
 31
0.0
 12
46.37500000000001
 22
24.49999999999998
 32
0.0
 13
46.37500000000001
 23
24.49999999999998
 33
0.0
  0
MTEXT
  5
5E7
330
20D
100
AcDbEntity
  8
SK2
100
AcDbMText
 10
44.0
 20
0.0000000001000021
 30
0.0
 40
3.5
 41
0.0
 71
     5
 72
     1
  1
%%c49
 11
0.0000000000000001
 21
1.0
 31
0.0
 73
     1
 44
1.0
1001
ACAD
1000
MTEXTBEGIN
1070
    73
1070
     1
1070
    44
1040
1.0
1070
    74
1070
     0
1000
MTEXTEND
  0
POINT
  5
5E8
330
20D
100
AcDbEntity
  8
Defpoints
 62
     0
100
AcDbPoint
 10
25.5
 20
-24.5
 30
0.0
  0
POINT
  5
5E9
330
20D
100
AcDbEntity
  8
Defpoints
 62
     0
100
AcDbPoint
 10
26.5
 20
24.49999999999998
 30
0.0
  0
POINT
  5
5EA
330
20D
100
AcDbEntity
  8
Defpoints
 62
     0
100
AcDbPoint
 10
46.37500000000001
 20
24.49999999999998
 30
0.0
  0
ENDBLK
  5
23A
330
20D
100
AcDbEntity
  8
0
  6
ByBlock
 62
     0
100
AcDbBlockEnd
  0
BLOCK
  5
23B
330
20E
100
AcDbEntity
  8
2
  6
Continuous
 62
     7
100
AcDbBlockBegin
  2
*D5
 70
     1
 10
0.0
 20
0.0
 30
0.0
  3
*D5
  1

  0
LINE
  5
61C
330
20E
100
AcDbEntity
  8
2
370
    -2
100
AcDbLine
 10
0.0
 20
25.62499999999998
 30
0.0
 11
0.0000000000000023
 21
63.125
 31
0.0
  0
LINE
  5
61D
330
20E
100
AcDbEntity
  8
2
370
    -2
100
AcDbLine
 10
25.0
 20
25.62499999999998
 30
0.0
 11
25.0
 21
63.125
 31
0.0
  0
LINE
  5
61E
330
20E
100
AcDbEntity
  8
2
370
    -2
100
AcDbLine
 10
3.500000000000001
 20
61.12499999999998
 30
0.0
 11
21.5
 21
61.12499999999998
 31
0.0
  0
SOLID
  5
61F
330
20E
100
AcDbEntity
  8
2
100
AcDbTrace
 10
3.500000000000001
 20
61.70833333333332
 30
0.0
 11
3.500000000000001
 21
60.54166666666665
 31
0.0
 12
0.0000000000000022
 22
61.12499999999998
 32
0.0
 13
0.0000000000000022
 23
61.12499999999998
 33
0.0
  0
SOLID
  5
620
330
20E
100
AcDbEntity
  8
2
100
AcDbTrace
 10
21.5
 20
61.70833333333332
 30
0.0
 11
21.5
 21
60.54166666666665
 31
0.0
 12
25.0
 22
61.12499999999998
 32
0.0
 13
25.0
 23
61.12499999999998
 33
0.0
  0
MTEXT
  5
621
330
20E
100
AcDbEntity
  8
2
100
AcDbMText
 10
12.5
 20
63.49999999999997
 30
0.0
 40
3.5
 41
0.0
 71
     5
 72
     1
  1
25
 73
     1
 44
1.0
1001
ACAD
1000
MTEXTBEGIN
1070
    73
1070
     1
1070
    44
1040
1.0
1070
    74
1070
     0
1000
MTEXTEND
  0
POINT
  5
622
330
20E
100
AcDbEntity
  8
Defpoints
 62
     0
100
AcDbPoint
 10
0.0
 20
24.99999999999998
 30
0.0
  0
POINT
  5
623
330
20E
100
AcDbEntity
  8
Defpoints
 62
     0
100
AcDbPoint
 10
25.0
 20
24.99999999999998
 30
0.0
  0
POINT
  5
624
330
20E
100
AcDbEntity
  8
Defpoints
 62
     0
100
AcDbPoint
 10
25.0
 20
61.12499999999998
 30
0.0
  0
ENDBLK
  5
243
330
20E
100
AcDbEntity
  8
0
  6
ByBlock
 62
     0
100
AcDbBlockEnd
  0
BLOCK
  5
244
330
20F
100
AcDbEntity
  8
2
  6
Continuous
 62
     7
100
AcDbBlockBegin
  2
*D6
 70
     1
 10
0.0
 20
0.0
 30
0.0
  3
*D6
  1

  0
LINE
  5
611
330
20F
100
AcDbEntity
  8
2
370
    -2
100
AcDbLine
 10
0.0
 20
33.12499999999998
 30
0.0
 11
0.0000000000000014
 21
54.62499999999998
 31
0.0
  0
LINE
  5
612
330
20F
100
AcDbEntity
  8
2
370
    -2
100
AcDbLine
 10
11.60000000000002
 20
33.12499999999998
 30
0.0
 11
11.60000000000002
 21
54.62499999999998
 31
0.0
  0
LINE
  5
613
330
20F
100
AcDbEntity
  8
2
370
    -2
100
AcDbLine
 10
-3.499999999999998
 20
52.62499999999999
 30
0.0
 11
-6.999999999999999
 21
52.62499999999999
 31
0.0
  0
LINE
  5
614
330
20F
100
AcDbEntity
  8
2
370
    -2
100
AcDbLine
 10
15.10000000000002
 20
52.62499999999999
 30
0.0
 11
18.60000000000002
 21
52.62499999999999
 31
0.0
  0
LINE
  5
615
330
20F
100
AcDbEntity
  8
2
370
    -2
100
AcDbLine
 10
0.0000000000000012
 20
52.62499999999999
 30
0.0
 11
11.60000000000002
 21
52.62499999999999
 31
0.0
  0
SOLID
  5
616
330
20F
100
AcDbEntity
  8
2
100
AcDbTrace
 10
-3.499999999999998
 20
53.20833333333332
 30
0.0
 11
-3.499999999999998
 21
52.04166666666665
 31
0.0
 12
0.0000000000000012
 22
52.62499999999999
 32
0.0
 13
0.0000000000000012
 23
52.62499999999999
 33
0.0
  0
SOLID
  5
617
330
20F
100
AcDbEntity
  8
2
100
AcDbTrace
 10
15.10000000000002
 20
53.20833333333332
 30
0.0
 11
15.10000000000002
 21
52.04166666666665
 31
0.0
 12
11.60000000000002
 22
52.62499999999999
 32
0.0
 13
11.60000000000002
 23
52.62499999999999
 33
0.0
  0
MTEXT
  5
618
330
20F
100
AcDbEntity
  8
2
100
AcDbMText
 10
5.800000000000012
 20
55.0
 30
0.0
 40
3.5
 41
0.0
 71
     5
 72
     1
  1
11.6
 73
     1
 44
1.0
1001
ACAD
1000
MTEXTBEGIN
1070
    73
1070
     1
1070
    44
1040
1.0
1070
    74
1070
     0
1000
MTEXTEND
  0
POINT
  5
619
330
20F
100
AcDbEntity
  8
Defpoints
 62
     0
100
AcDbPoint
 10
0.0
 20
32.49999999999998
 30
0.0
  0
POINT
  5
61A
330
20F
100
AcDbEntity
  8
Defpoints
 62
     0
100
AcDbPoint
 10
11.60000000000002
 20
32.49999999999998
 30
0.0
  0
POINT
  5
61B
330
20F
100
AcDbEntity
  8
Defpoints
 62
     0
100
AcDbPoint
 10
11.60000000000002
 20
52.62499999999999
 30
0.0
  0
ENDBLK
  5
24E
330
20F
100
AcDbEntity
  8
0
  6
ByBlock
 62
     0
100
AcDbBlockEnd
  0
BLOCK
  5
24F
330
210
100
AcDbEntity
  8
SK2
  6
Continuous
 62
     7
100
AcDbBlockBegin
  2
*D7
 70
     1
 10
0.0
 20
0.0
 30
0.0
  3
*D7
  1

  0
LINE
  5
608
330
210
100
AcDbEntity
  8
SK2
370
    -2
100
AcDbLine
 10
0.0
 20
29.27923188129998
 30
0.0
 11
0.0000000000000021
 21
63.125
 31
0.0
  0
LINE
  5
609
330
210
100
AcDbEntity
  8
SK2
370
    -2
100
AcDbLine
 10
-93.40000000000001
 20
12.5882457678
 30
0.0
 11
-93.40000000000001
 21
63.125
 31
0.0
  0
LINE
  5
60A
330
210
100
AcDbEntity
  8
SK2
370
    -2
100
AcDbLine
 10
-3.499999999999998
 20
61.12499999999998
 30
0.0
 11
-89.9
 21
61.12499999999998
 31
0.0
  0
SOLID
  5
60B
330
210
100
AcDbEntity
  8
SK2
100
AcDbTrace
 10
-3.499999999999998
 20
61.70833333333332
 30
0.0
 11
-3.499999999999998
 21
60.54166666666665
 31
0.0
 12
0.000000000000002
 22
61.12499999999998
 32
0.0
 13
0.000000000000002
 23
61.12499999999998
 33
0.0
  0
SOLID
  5
60C
330
210
100
AcDbEntity
  8
SK2
100
AcDbTrace
 10
-89.9
 20
61.70833333333332
 30
0.0
 11
-89.9
 21
60.54166666666665
 31
0.0
 12
-93.40000000000001
 22
61.12499999999998
 32
0.0
 13
-93.40000000000001
 23
61.12499999999998
 33
0.0
  0
MTEXT
  5
60D
330
210
100
AcDbEntity
  8
SK2
100
AcDbMText
 10
-46.7
 20
63.49999999999997
 30
0.0
 40
3.5
 41
0.0
 71
     5
 72
     1
  1
93.4
 73
     1
 44
1.0
1001
ACAD
1000
MTEXTBEGIN
1070
    73
1070
     1
1070
    44
1040
1.0
1070
    74
1070
     0
1000
MTEXTEND
  0
POINT
  5
60E
330
210
100
AcDbEntity
  8
Defpoints
 62
     0
100
AcDbPoint
 10
0.0
 20
28.65423188129998
 30
0.0
  0
POINT
  5
60F
330
210
100
AcDbEntity
  8
Defpoints
 62
     0
100
AcDbPoint
 10
-93.40000000000001
 20
11.9632457678
 30
0.0
  0
POINT
  5
610
330
210
100
AcDbEntity
  8
Defpoints
 62
     0
100
AcDbPoint
 10
-93.40000000000001
 20
61.12499999999998
 30
0.0
  0
ENDBLK
  5
257
330
210
100
AcDbEntity
  8
0
  6
ByBlock
 62
     0
100
AcDbBlockEnd
  0
BLOCK
  5
258
330
211
100
AcDbEntity
  8
SK2
  6
Continuous
 62
     7
100
AcDbBlockBegin
  2
*D8
 70
     1
 10
0.0
 20
0.0
 30
0.0
  3
*D8
  1

  0
LINE
  5
5D7
330
211
100
AcDbEntity
  8
SK2
370
    -2
100
AcDbLine
 10
25.125
 20
-12.0
 30
0.0
 11
39.875
 21
-12.0
 31
0.0
  0
LINE
  5
5D8
330
211
100
AcDbEntity
  8
SK2
370
    -2
100
AcDbLine
 10
25.125
 20
12.0
 30
0.0
 11
39.875
 21
11.99999999999999
 31
0.0
  0
LINE
  5
5D9
330
211
100
AcDbEntity
  8
SK2
370
    -2
100
AcDbLine
 10
37.875
 20
-15.5
 30
0.0
 11
37.875
 21
-19.0
 31
0.0
  0
LINE
  5
5DA
330
211
100
AcDbEntity
  8
SK2
370
    -2
100
AcDbLine
 10
37.875
 20
15.49999999999999
 30
0.0
 11
37.875
 21
19.0
 31
0.0
  0
LINE
  5
5DB
330
211
100
AcDbEntity
  8
SK2
370
    -2
100
AcDbLine
 10
37.875
 20
-12.0
 30
0.0
 11
37.875
 21
11.99999999999999
 31
0.0
  0
SOLID
  5
5DC
330
211
100
AcDbEntity
  8
SK2
100
AcDbTrace
 10
37.29166666666666
 20
-15.5
 30
0.0
 11
38.45833333333333
 21
-15.5
 31
0.0
 12
37.875
 22
-12.0
 32
0.0
 13
37.875
 23
-12.0
 33
0.0
  0
SOLID
  5
5DD
330
211
100
AcDbEntity
  8
SK2
100
AcDbTrace
 10
37.29166666666666
 20
15.49999999999999
 30
0.0
 11
38.45833333333333
 21
15.49999999999999
 31
0.0
 12
37.875
 22
11.99999999999999
 32
0.0
 13
37.875
 23
11.99999999999999
 33
0.0
  0
MTEXT
  5
5DE
330
211
100
AcDbEntity
  8
SK2
100
AcDbMText
 10
35.5
 20
0.0000000001000021
 30
0.0
 40
3.5
 41
0.0
 71
     5
 72
     1
  1
%%c24 H6
 11
0.0000000000000001
 21
1.0
 31
0.0
 73
     1
 44
1.0
1001
ACAD
1000
MTEXTBEGIN
1070
    73
1070
     1
1070
    44
1040
1.0
1070
    74
1070
     0
1000
MTEXTEND
  0
POINT
  5
5DF
330
211
100
AcDbEntity
  8
Defpoints
 62
     0
100
AcDbPoint
 10
24.5
 20
-12.0
 30
0.0
  0
POINT
  5
5E0
330
211
100
AcDbEntity
  8
Defpoints
 62
     0
100
AcDbPoint
 10
24.5
 20
12.0
 30
0.0
  0
POINT
  5
5E1
330
211
100
AcDbEntity
  8
Defpoints
 62
     0
100
AcDbPoint
 10
37.875
 20
11.99999999999999
 30
0.0
  0
ENDBLK
  5
261
330
211
100
AcDbEntity
  8
0
  6
ByBlock
 62
     0
100
AcDbBlockEnd
  0
ENDSEC
  0
SECTION
  2
ENTITIES
  0
DIMENSION
  5
265
330
1B
100
AcDbEntity
  8
2
100
AcDbDimension
  2
*D1
 10
1.600000000000023
 20
44.12499999999997
 30
0.0
 11
-9.958333333333342
 21
44.12499999999997
 31
0.0
 70
   160
  1
1.6
 71
     5
 42
1.60000000000002
  3
ISO-25
100
AcDbAlignedDimension
 13
0.0000000000000027
 23
23.39679113214242
 33
0.0
 14
1.600000000000022
 24
32.49999999999998
 34
0.0
100
AcDbRotatedDimension
  0
DIMENSION
  5
266
330
1B
100
AcDbEntity
  8
SK2
100
AcDbDimension
  2
*D2
 10
-106.025
 20
22.22500000000004
 30
0.0
 11
-106.025
 21
0.0000000001000018
 31
0.0
 70
   160
  1
%%c44.45
 71
     5
 42
44.45000000000002
  3
ISO-25
100
AcDbAlignedDimension
 13
-1.0
 23
-22.22500000000001
 33
0.0
 14
-1.0
 24
22.22500000000001
 34
0.0
 50
90.0
100
AcDbRotatedDimension
  0
DIMENSION
  5
267
330
1B
100
AcDbEntity
  8
SK2
100
AcDbDimension
  2
*D3
 10
-114.525
 20
31.50000000000002
 30
0.0
 11
-114.525
 21
0.0000000001000018
 31
0.0
 70
   160
  1
%%c63
 71
     5
 42
62.99999999999998
  3
ISO-25
100
AcDbAlignedDimension
 13
0.6000000000000229
 23
-31.5
 33
0.0
 14
0.6000000000000229
 24
31.49999999999999
 34
0.0
 50
90.0
100
AcDbRotatedDimension
  0
DIMENSION
  5
268
330
1B
100
AcDbEntity
  8
SK2
100
AcDbDimension
  2
*D4
 10
46.37500000000001
 20
24.49999999999998
 30
0.0
 11
46.375
 21
0.0000000001000018
 31
0.0
 70
   160
  1
%%c49
 71
     5
 42
48.99999999999998
  3
ISO-25
100
AcDbAlignedDimension
 13
25.5
 23
-24.5
 33
0.0
 14
26.5
 24
24.49999999999998
 34
0.0
 50
90.0
100
AcDbRotatedDimension
  0
DIMENSION
  5
269
330
1B
100
AcDbEntity
  8
2
100
AcDbDimension
  2
*D5
 10
25.0
 20
61.12499999999998
 30
0.0
 11
12.5
 21
61.12499999999998
 31
0.0
 70
   160
  1
25
 71
     5
 42
25.0
  3
ISO-25
100
AcDbAlignedDimension
 13
0.0
 23
24.99999999999998
 33
0.0
 14
25.0
 24
24.99999999999998
 34
0.0
100
AcDbRotatedDimension
  0
DIMENSION
  5
26A
330
1B
100
AcDbEntity
  8
2
100
AcDbDimension
  2
*D6
 10
11.60000000000002
 20
52.62499999999999
 30
0.0
 11
5.800000000000012
 21
52.62499999999999
 31
0.0
 70
   160
  1
11.6
 71
     5
 42
11.60000000000002
  3
ISO-25
100
AcDbAlignedDimension
 13
0.0
 23
32.49999999999998
 33
0.0
 14
11.60000000000002
 24
32.49999999999998
 34
0.0
100
AcDbRotatedDimension
  0
DIMENSION
  5
26B
330
1B
100
AcDbEntity
  8
SK2
100
AcDbDimension
  2
*D7
 10
-93.40000000000001
 20
61.12499999999998
 30
0.0
 11
-46.7
 21
61.12499999999998
 31
0.0
 70
   160
  1
93.4
 71
     5
 42
93.40000000000001
  3
ISO-25
100
AcDbAlignedDimension
 13
0.0
 23
28.65423188129998
 33
0.0
 14
-93.40000000000001
 24
11.9632457678
 34
0.0
 50
180.0
100
AcDbRotatedDimension
  0
DIMENSION
  5
26C
330
1B
100
AcDbEntity
  8
SK2
100
AcDbDimension
  2
*D8
 10
37.875
 20
11.99999999999999
 30
0.0
 11
37.875
 21
0.0000000001000018
 31
0.0
 70
   160
  1
%%c24 H6
 71
     5
 42
24.0
  3
ISO-25
100
AcDbAlignedDimension
 13
24.5
 23
-12.0
 33
0.0
 14
24.5
 24
12.0
 34
0.0
 50
90.0
100
AcDbRotatedDimension
  0
LINE
  5
26E
330
1B
100
AcDbEntity
  8
1
100
AcDbLine
 10
-93.40000000000001
 20
11.45
 30
0.0
 11
-93.40000000000001
 21
-11.45
 31
0.0
  0
LINE
  5
26F
330
1B
100
AcDbEntity
  8
SK3
100
AcDbLine
 10
-85.20000000000001
 20
8.5
 30
0.0
 11
-85.20000000000001
 21
-8.5
 31
0.0
  0
LINE
  5
270
330
1B
100
AcDbEntity
  8
SK3
100
AcDbLine
 10
-83.62
 20
6.92
 30
0.0
 11
-83.62
 21
-6.92
 31
0.0
  0
LINE
  5
271
330
1B
100
AcDbEntity
  8
1
100
AcDbLine
 10
-75.00000000000001
 20
12.45
 30
0.0
 11
-75.00000000000001
 21
-12.45
 31
0.0
  0
LINE
  5
272
330
1B
100
AcDbEntity
  8
1
100
AcDbLine
 10
-70.4
 20
12.64999999999999
 30
0.0
 11
-70.4
 21
-12.65
 31
0.0
  0
LINE
  5
273
330
1B
100
AcDbEntity
  8
1
100
AcDbLine
 10
-82.03971976770002
 20
-10.6982361909
 30
0.0
 11
-82.52297353649998
 21
-12.50176380899999
 31
0.0
  0
LINE
  5
274
330
1B
100
AcDbEntity
  8
1
100
AcDbLine
 10
-82.03971976770002
 20
10.698236191
 30
0.0
 11
-82.52297353649998
 21
12.50176380909999
 31
0.0
  0
LINE
  5
275
330
1B
100
AcDbEntity
  8
1
100
AcDbLine
 10
-65.4
 20
12.68766899429999
 30
0.0
 11
-65.4
 21
-12.68766899430001
 31
0.0
  0
LINE
  5
276
330
1B
100
AcDbEntity
  8
SK3
100
AcDbLine
 10
-85.20000000000001
 20
-8.5
 30
0.0
 11
-83.62
 21
-6.92
 31
0.0
  0
LINE
  5
277
330
1B
100
AcDbEntity
  8
SK3
100
AcDbLine
 10
-85.20000000000001
 20
8.5
 30
0.0
 11
-83.62
 21
6.92
 31
0.0
  0
LINE
  5
278
330
1B
100
AcDbEntity
  8
SK3
100
AcDbLine
 10
-50.89999999999999
 20
6.92
 30
0.0
 11
-50.89999999999999
 21
-6.92
 31
0.0
  0
LINE
  5
279
330
1B
100
AcDbEntity
  8
1
100
AcDbLine
 10
0.1433153136999863
 20
-21.81419682979999
 30
0.0
 11
-0.899999999999977
 21
-22.09375232559999
 31
0.0
  0
LINE
  5
27A
330
1B
100
AcDbEntity
  8
1
100
AcDbLine
 10
11.10000000000002
 20
-31.5
 30
0.0
 11
2.100000000000021
 21
-31.5
 31
0.0
  0
LINE
  5
27B
330
1B
100
AcDbEntity
  8
1
100
AcDbLine
 10
24.5
 20
-24.5
 30
0.0
 11
12.60000000000002
 21
-24.5
 31
0.0
  0
LINE
  5
27C
330
1B
100
AcDbEntity
  8
SK3
100
AcDbLine
 10
-49.1454869925
 20
4.0
 30
0.0
 11
-49.1454869925
 21
-4.0
 31
0.0
  0
LINE
  5
27D
330
1B
100
AcDbEntity
  8
SK3
100
AcDbLine
 10
-50.89999999999999
 20
-6.92
 30
0.0
 11
-49.1454869925
 21
-4.0
 31
0.0
  0
LINE
  5
27E
330
1B
100
AcDbEntity
  8
1
100
AcDbLine
 10
1.200000000000017
 20
-21.79375232559999
 30
0.0
 11
0.2986067407999826
 21
-21.79375232559999
 31
0.0
  0
LINE
  5
27F
330
1B
100
AcDbEntity
  8
SK1
100
AcDbLine
 10
25.0
 20
-20.02146997
 30
0.0
 11
29.4282032303
 21
-20.02146997
 31
0.0
  0
LINE
  5
280
330
1B
100
AcDbEntity
  8
SK4
100
AcDbLine
 10
33.5
 20
-16.02146997
 30
0.0
 11
11.5
 21
-16.02146997
 31
0.0
  0
LINE
  5
281
330
1B
100
AcDbEntity
  8
1
100
AcDbLine
 10
-0.899999999999977
 20
-22.09375232559999
 30
0.0
 11
-65.4
 21
-12.68766899430001
 31
0.0
  0
LINE
  5
282
330
1B
100
AcDbEntity
  8
SK3
100
AcDbLine
 10
-50.89999999999999
 20
6.92
 30
0.0
 11
-49.1454869925
 21
4.0
 31
0.0
  0
LINE
  5
283
330
1B
100
AcDbEntity
  8
1
100
AcDbLine
 10
-70.4
 20
-12.65
 30
0.0
 11
-74.80000000000003
 21
-12.65
 31
0.0
  0
LINE
  5
284
330
1B
100
AcDbEntity
  8
1
100
AcDbLine
 10
-82.7161587017
 20
-12.65
 30
0.0
 11
-92.2
 21
-12.65
 31
0.0
  0
LINE
  5
285
330
1B
100
AcDbEntity
  8
SK1
100
AcDbLine
 10
25.0
 20
-12.02146996999999
 30
0.0
 11
29.4282032303
 21
-12.02146996999999
 31
0.0
  0
LINE
  5
286
330
1B
100
AcDbEntity
  8
SK3
100
AcDbLine
 10
25.0
 20
-12.0
 30
0.0
 11
-13.0
 21
-12.0
 31
0.0
  0
LINE
  5
287
330
1B
100
AcDbEntity
  8
1
100
AcDbLine
 10
-65.80000000000001
 20
-12.0
 30
0.0
 11
-70.00000000000001
 21
-12.0
 31
0.0
  0
LINE
  5
288
330
1B
100
AcDbEntity
  8
1
100
AcDbLine
 10
-75.2
 20
-10.54999999999999
 30
0.0
 11
-81.84653460240001
 21
-10.54999999999999
 31
0.0
  0
LINE
  5
289
330
1B
100
AcDbEntity
  8
SK3
100
AcDbLine
 10
-91.15
 20
-8.5
 30
0.0
 11
-85.20000000000001
 21
-8.5
 31
0.0
  0
LINE
  5
28A
330
1B
100
AcDbEntity
  8
1
100
AcDbLine
 10
11.60000000000002
 20
-8.049999999999997
 30
0.0
 11
1.600000000000022
 21
-8.049999999999997
 31
0.0
  0
LINE
  5
28B
330
1B
100
AcDbEntity
  8
SK3
100
AcDbLine
 10
-83.62
 20
-6.92
 30
0.0
 11
-50.89999999999999
 21
-6.92
 31
0.0
  0
LINE
  5
28C
330
1B
100
AcDbEntity
  8
SK3
100
AcDbLine
 10
-49.1454869925
 20
-4.0
 30
0.0
 11
-13.0
 21
-4.0
 31
0.0
  0
LINE
  5
28D
330
1B
100
AcDbEntity
  8
NOCUT
100
AcDbLine
 10
25.0
 20
0.0
 30
0.0
 11
0.0
 21
0.0
 31
0.0
  0
LINE
  5
28E
330
1B
100
AcDbEntity
  8
4
100
AcDbLine
 10
28.0
 20
0.0
 30
0.0
 11
-96.4
 21
0.0
 31
0.0
  0
LINE
  5
28F
330
1B
100
AcDbEntity
  8
SK3
100
AcDbLine
 10
-49.1454869925
 20
4.0
 30
0.0
 11
-13.0
 21
4.0
 31
0.0
  0
LINE
  5
290
330
1B
100
AcDbEntity
  8
SK3
100
AcDbLine
 10
-83.62
 20
6.92
 30
0.0
 11
-50.89999999999999
 21
6.92
 31
0.0
  0
LINE
  5
291
330
1B
100
AcDbEntity
  8
SK3
100
AcDbLine
 10
-13.0
 20
12.0
 30
0.0
 11
-13.0
 21
-12.0
 31
0.0
  0
LINE
  5
292
330
1B
100
AcDbEntity
  8
1
100
AcDbLine
 10
-0.899999999999977
 20
22.09375232569998
 30
0.0
 11
-65.4
 21
12.68766899429999
 31
0.0
  0
LINE
  5
293
330
1B
100
AcDbEntity
  8
1
100
AcDbLine
 10
1.600000000000022
 20
8.049999999999997
 30
0.0
 11
11.60000000000002
 21
8.049999999999997
 31
0.0
  0
LINE
  5
294
330
1B
100
AcDbEntity
  8
SK3
100
AcDbLine
 10
-91.15
 20
8.5
 30
0.0
 11
-85.20000000000001
 21
8.5
 31
0.0
  0
LINE
  5
295
330
1B
100
AcDbEntity
  8
1
100
AcDbLine
 10
-75.2
 20
10.54999999999999
 30
0.0
 11
-81.84653460240001
 21
10.54999999999999
 31
0.0
  0
LINE
  5
296
330
1B
100
AcDbEntity
  8
SK1
100
AcDbLine
 10
25.0
 20
11.58845726819998
 30
0.0
 11
29.4282032303
 21
11.58845726819998
 31
0.0
  0
LINE
  5
297
330
1B
100
AcDbEntity
  8
SK3
100
AcDbLine
 10
25.0
 20
12.0
 30
0.0
 11
-13.0
 21
12.0
 31
0.0
  0
LINE
  5
298
330
1B
100
AcDbEntity
  8
1
100
AcDbLine
 10
-65.80000000000001
 20
12.0
 30
0.0
 11
-70.00000000000001
 21
12.0
 31
0.0
  0
LINE
  5
299
330
1B
100
AcDbEntity
  8
1
100
AcDbLine
 10
-70.4
 20
12.64999999999999
 30
0.0
 11
-74.80000000000003
 21
12.64999999999999
 31
0.0
  0
LINE
  5
29A
330
1B
100
AcDbEntity
  8
1
100
AcDbLine
 10
-82.7161587017
 20
12.64999999999999
 30
0.0
 11
-92.2
 21
12.64999999999999
 31
0.0
  0
LINE
  5
29B
330
1B
100
AcDbEntity
  8
SK4
100
AcDbLine
 10
33.5
 20
15.58845726819998
 30
0.0
 11
11.5
 21
15.58845726819998
 31
0.0
  0
LINE
  5
29C
330
1B
100
AcDbEntity
  8
1
100
AcDbLine
 10
-0.899999999999977
 20
22.09375232569998
 30
0.0
 11
-0.899999999999977
 21
-22.09375232559999
 31
0.0
  0
LINE
  5
29D
330
1B
100
AcDbEntity
  8
NOCUT
100
AcDbLine
 10
0.0
 20
0.0
 30
0.0
 11
0.0
 21
21.85259805249999
 31
0.0
  0
LINE
  5
29E
330
1B
100
AcDbEntity
  8
1
100
AcDbLine
 10
1.600000000000022
 20
-31.0
 30
0.0
 11
1.600000000000022
 21
-6.582714009400008
 31
0.0
  0
LINE
  5
29F
330
1B
100
AcDbEntity
  8
NOCUT
100
AcDbLine
 10
1.600000000000022
 20
21.9465387302
 30
0.0
 11
1.600000000000022
 21
30.99999999999998
 31
0.0
  0
LINE
  5
2A0
330
1B
100
AcDbEntity
  8
1
100
AcDbLine
 10
1.600000000000022
 20
6.582714009500008
 30
0.0
 11
1.600000000000022
 21
30.99999999999998
 31
0.0
  0
LINE
  5
2A1
330
1B
100
AcDbEntity
  8
SK1
100
AcDbLine
 10
25.0
 20
19.5884572682
 30
0.0
 11
29.4282032303
 21
19.5884572682
 31
0.0
  0
LINE
  5
2A2
330
1B
100
AcDbEntity
  8
NOCUT
100
AcDbLine
 10
1.200000000000017
 20
21.79375232569999
 30
0.0
 11
0.2986067407999826
 21
21.79375232569999
 31
0.0
  0
LINE
  5
2A3
330
1B
100
AcDbEntity
  8
1
100
AcDbLine
 10
1.200000000000017
 20
21.79375232569999
 30
0.0
 11
0.2986067407999826
 21
21.79375232569999
 31
0.0
  0
LINE
  5
2A4
330
1B
100
AcDbEntity
  8
NOCUT
100
AcDbLine
 10
24.5
 20
24.49999999999998
 30
0.0
 11
12.60000000000002
 21
24.49999999999998
 31
0.0
  0
LINE
  5
2A5
330
1B
100
AcDbEntity
  8
1
100
AcDbLine
 10
24.5
 20
24.49999999999998
 30
0.0
 11
12.60000000000002
 21
24.49999999999998
 31
0.0
  0
LINE
  5
2A6
330
1B
100
AcDbEntity
  8
1
100
AcDbLine
 10
11.60000000000002
 20
-31.0
 30
0.0
 11
11.60000000000002
 21
-7.896539285200005
 31
0.0
  0
LINE
  5
2A7
330
1B
100
AcDbEntity
  8
NOCUT
100
AcDbLine
 10
11.60000000000002
 20
25.49999999999998
 30
0.0
 11
11.60000000000002
 21
30.99999999999998
 31
0.0
  0
LINE
  5
2A8
330
1B
100
AcDbEntity
  8
1
100
AcDbLine
 10
11.60000000000002
 20
7.896539285200005
 30
0.0
 11
11.60000000000002
 21
30.99999999999998
 31
0.0
  0
LINE
  5
2A9
330
1B
100
AcDbEntity
  8
NOCUT
100
AcDbLine
 10
11.10000000000002
 20
31.49999999999999
 30
0.0
 11
2.100000000000021
 21
31.49999999999999
 31
0.0
  0
LINE
  5
2AA
330
1B
100
AcDbEntity
  8
1
100
AcDbLine
 10
11.10000000000002
 20
31.49999999999999
 30
0.0
 11
2.100000000000021
 21
31.49999999999999
 31
0.0
  0
LINE
  5
2AB
330
1B
100
AcDbEntity
  8
NOCUT
100
AcDbLine
 10
0.1433153136999863
 20
21.81419682989998
 30
0.0
 11
0.0
 21
21.85259805249999
 31
0.0
  0
LINE
  5
2AC
330
1B
100
AcDbEntity
  8
1
100
AcDbLine
 10
0.1433153136999863
 20
21.81419682989998
 30
0.0
 11
-0.899999999999977
 21
22.09375232569998
 31
0.0
  0
LINE
  5
2AD
330
1B
100
AcDbEntity
  8
1
100
AcDbLine
 10
25.0
 20
-24.0
 30
0.0
 11
24.5
 21
-24.5
 31
0.0
  0
LINE
  5
2AE
330
1B
100
AcDbEntity
  8
1
100
AcDbLine
 10
24.5
 20
24.49999999999998
 30
0.0
 11
24.5
 21
-24.5
 31
0.0
  0
LINE
  5
2AF
330
1B
100
AcDbEntity
  8
NOCUT
100
AcDbLine
 10
25.0
 20
23.99999999999998
 30
0.0
 11
25.0
 21
0.0
 31
0.0
  0
LINE
  5
2B0
330
1B
100
AcDbEntity
  8
1
100
AcDbLine
 10
25.0
 20
23.99999999999998
 30
0.0
 11
25.0
 21
-24.0
 31
0.0
  0
LINE
  5
2B1
330
1B
100
AcDbEntity
  8
SK1
100
AcDbLine
 10
29.4282032303
 20
-20.02146997
 30
0.0
 11
29.4282032303
 21
-12.02146996999999
 31
0.0
  0
LINE
  5
2B2
330
1B
100
AcDbEntity
  8
SK1
100
AcDbLine
 10
29.4282032303
 20
11.58845726819998
 30
0.0
 11
29.4282032303
 21
19.5884572682
 31
0.0
  0
LINE
  5
2B3
330
1B
100
AcDbEntity
  8
NOCUT
100
AcDbLine
 10
25.0
 20
23.99999999999998
 30
0.0
 11
24.5
 21
24.49999999999998
 31
0.0
  0
LINE
  5
2B4
330
1B
100
AcDbEntity
  8
1
100
AcDbLine
 10
25.0
 20
23.99999999999998
 30
0.0
 11
24.5
 21
24.49999999999998
 31
0.0
  0
ARC
  5
2B5
330
1B
100
AcDbEntity
  8
SK3
100
AcDbCircle
 10
-91.15
 20
10.74999999999999
 30
0.0
 40
2.25
100
AcDbArc
 50
180.0
 51
270.0
  0
ARC
  5
2B6
330
1B
100
AcDbEntity
  8
SK3
100
AcDbCircle
 10
-91.15
 20
-10.74999999999999
 30
0.0
 40
2.25
100
AcDbArc
 50
90.0
 51
180.0
  0
ARC
  5
2B7
330
1B
100
AcDbEntity
  8
NOCUT
100
AcDbCircle
 10
2.100000000000021
 20
30.99999999999998
 30
0.0
 40
0.5
100
AcDbArc
 50
90.0
 51
180.0
  0
ARC
  5
2B8
330
1B
100
AcDbEntity
  8
NOCUT
100
AcDbCircle
 10
11.10000000000002
 20
30.99999999999998
 30
0.0
 40
0.5
100
AcDbArc
 50
0.0
 51
90.0
  0
ARC
  5
2B9
330
1B
100
AcDbEntity
  8
NOCUT
100
AcDbCircle
 10
1.200000000000017
 20
22.39375232569999
 30
0.0
 40
0.6
100
AcDbArc
 50
270.0
 51
311.8103148957999
  0
ARC
  5
2BA
330
1B
100
AcDbEntity
  8
NOCUT
100
AcDbCircle
 10
0.2986067407999826
 20
22.39375232569999
 30
0.0
 40
0.6
100
AcDbArc
 50
255.0
 51
270.0
  0
ARC
  5
2BB
330
1B
100
AcDbEntity
  8
NOCUT
100
AcDbCircle
 10
12.60000000000002
 20
25.49999999999998
 30
0.0
 40
1.0
100
AcDbArc
 50
180.0
 51
270.0
  0
ARC
  5
2BC
330
1B
100
AcDbEntity
  8
SK1
100
AcDbCircle
 10
22.5
 20
15.58845726819998
 30
0.0
 40
8.0
100
AcDbArc
 50
330.0
 51
30.0
  0
ARC
  5
2BD
330
1B
100
AcDbEntity
  8
SK1
100
AcDbCircle
 10
22.5
 20
-16.02146997
 30
0.0
 40
8.0
100
AcDbArc
 50
330.0
 51
30.0
  0
ARC
  5
2BE
330
1B
100
AcDbEntity
  8
1
100
AcDbCircle
 10
-92.2
 20
11.45
 30
0.0
 40
1.199999999999999
100
AcDbArc
 50
90.0
 51
180.0
  0
ARC
  5
2BF
330
1B
100
AcDbEntity
  8
1
100
AcDbCircle
 10
-92.2
 20
-11.45
 30
0.0
 40
1.199999999999999
100
AcDbArc
 50
180.0
 51
270.0
  0
ARC
  5
2C0
330
1B
100
AcDbEntity
  8
1
100
AcDbCircle
 10
-82.7161587017
 20
-12.45
 30
0.0
 40
0.2
100
AcDbArc
 50
270.0
 51
345.0
  0
ARC
  5
2C1
330
1B
100
AcDbEntity
  8
1
100
AcDbCircle
 10
-82.7161587017
 20
12.45
 30
0.0
 40
0.2
100
AcDbArc
 50
15.0
 51
90.0
  0
ARC
  5
2C2
330
1B
100
AcDbEntity
  8
1
100
AcDbCircle
 10
-74.80000000000003
 20
-12.45
 30
0.0
 40
0.2
100
AcDbArc
 50
180.0
 51
270.0
  0
ARC
  5
2C3
330
1B
100
AcDbEntity
  8
1
100
AcDbCircle
 10
-74.80000000000003
 20
12.45
 30
0.0
 40
0.2
100
AcDbArc
 50
90.0
 51
180.0
  0
ARC
  5
2C4
330
1B
100
AcDbEntity
  8
1
100
AcDbCircle
 10
-81.84653460240001
 20
-10.74999999999999
 30
0.0
 40
0.2
100
AcDbArc
 50
90.0
 51
165.0
  0
ARC
  5
2C5
330
1B
100
AcDbEntity
  8
1
100
AcDbCircle
 10
-81.84653460240001
 20
10.74999999999999
 30
0.0
 40
0.2
100
AcDbArc
 50
195.0
 51
270.0
  0
ARC
  5
2C6
330
1B
100
AcDbEntity
  8
1
100
AcDbCircle
 10
-75.2
 20
-10.74999999999999
 30
0.0
 40
0.2
100
AcDbArc
 50
0.0
 51
90.0
  0
ARC
  5
2C7
330
1B
100
AcDbEntity
  8
1
100
AcDbCircle
 10
-75.2
 20
10.74999999999999
 30
0.0
 40
0.2
100
AcDbArc
 50
270.0
 51
0.0
  0
ARC
  5
2C8
330
1B
100
AcDbEntity
  8
1
100
AcDbCircle
 10
11.60000000000002
 20
0.0
 30
0.0
 40
8.05
100
AcDbArc
 50
344.0558679386
 51
15.9441320614
  0
ARC
  5
2C9
330
1B
100
AcDbEntity
  8
1
100
AcDbCircle
 10
2.100000000000021
 20
-31.0
 30
0.0
 40
0.5
100
AcDbArc
 50
180.0
 51
270.0
  0
ARC
  5
2CA
330
1B
100
AcDbEntity
  8
1
100
AcDbCircle
 10
2.100000000000021
 20
30.99999999999998
 30
0.0
 40
0.5
100
AcDbArc
 50
90.0
 51
180.0
  0
ARC
  5
2CB
330
1B
100
AcDbEntity
  8
1
100
AcDbCircle
 10
11.10000000000002
 20
-31.0
 30
0.0
 40
0.5
100
AcDbArc
 50
270.0
 51
0.0
  0
ARC
  5
2CC
330
1B
100
AcDbEntity
  8
1
100
AcDbCircle
 10
11.10000000000002
 20
30.99999999999998
 30
0.0
 40
0.5
100
AcDbArc
 50
0.0
 51
90.0
  0
ARC
  5
2CD
330
1B
100
AcDbEntity
  8
1
100
AcDbCircle
 10
1.200000000000017
 20
-22.39375232559999
 30
0.0
 40
0.6
100
AcDbArc
 50
48.1766788122
 51
90.0
  0
ARC
  5
2CE
330
1B
100
AcDbEntity
  8
1
100
AcDbCircle
 10
1.200000000000017
 20
22.39375232569999
 30
0.0
 40
0.6
100
AcDbArc
 50
270.0
 51
311.8233211878
  0
ARC
  5
2CF
330
1B
100
AcDbEntity
  8
1
100
AcDbCircle
 10
0.2986067407999826
 20
-22.39375232559999
 30
0.0
 40
0.6
100
AcDbArc
 50
90.0
 51
105.0
  0
ARC
  5
2D0
330
1B
100
AcDbEntity
  8
1
100
AcDbCircle
 10
0.2986067407999826
 20
22.39375232569999
 30
0.0
 40
0.6
100
AcDbArc
 50
255.0
 51
270.0
  0
ARC
  5
2D1
330
1B
100
AcDbEntity
  8
1
100
AcDbCircle
 10
-65.80000000000001
 20
-12.4
 30
0.0
 40
0.4
100
AcDbArc
 50
0.0
 51
90.0
  0
ARC
  5
2D2
330
1B
100
AcDbEntity
  8
1
100
AcDbCircle
 10
-65.80000000000001
 20
12.39999999999999
 30
0.0
 40
0.4
100
AcDbArc
 50
270.0
 51
0.0
  0
ARC
  5
2D3
330
1B
100
AcDbEntity
  8
1
100
AcDbCircle
 10
-70.00000000000001
 20
-12.4
 30
0.0
 40
0.4
100
AcDbArc
 50
90.0
 51
180.0
  0
ARC
  5
2D4
330
1B
100
AcDbEntity
  8
1
100
AcDbCircle
 10
-70.00000000000001
 20
12.39999999999999
 30
0.0
 40
0.4
100
AcDbArc
 50
180.0
 51
270.0
  0
ARC
  5
2D5
330
1B
100
AcDbEntity
  8
1
100
AcDbCircle
 10
12.60000000000002
 20
25.49999999999998
 30
0.0
 40
1.0
100
AcDbArc
 50
180.0
 51
270.0
  0
ARC
  5
2D6
330
1B
100
AcDbEntity
  8
1
100
AcDbCircle
 10
12.60000000000002
 20
-25.5
 30
0.0
 40
1.0
100
AcDbArc
 50
90.0
 51
180.0
  0
SPLINE
  5
2D7
330
1B
100
AcDbEntity
  8
1
100
AcDbSpline
210
0.0
220
0.0
230
1.0
 70
     8
 71
     3
 72
    19
 73
    15
 74
    13
 42
0.0000000001
 43
0.0000000001
 44
0.0000000001
 12
0.0382289189826534
 22
0.9992690077018389
 32
0.0
 13
-0.0382289190351379
 23
0.9992690076998309
 33
0.0
 40
0.0
 40
0.0
 40
0.0
 40
0.0
 40
1.070247602520994
 40
2.142238150202323
 40
3.216598813216072
 40
4.293332067762287
 40
5.371951548667945
 40
6.451611800960519
 40
7.531272633708093
 40
8.609893541804305
 40
9.686627774573153
 40
10.7609888287518
 40
11.83297621638281
 40
12.90322154233067
 40
12.90322154233067
 40
12.90322154233067
 40
12.90322154233067
 10
1.623049322500007
 20
-6.450000000000001
 30
0.0
 10
1.636687458796059
 20
-6.093511580077859
 30
0.0
 10
1.661892889948834
 20
-5.379872185721382
 30
0.0
 10
1.693223717388313
 20
-4.308123913424074
 30
0.0
 10
1.717881233031685
 20
-3.234038095072068
 30
0.0
 10
1.735664164850988
 20
-2.157606276503174
 30
0.0
 10
1.746406845763663
 20
-1.079314283111554
 30
0.0
 10
1.75000039316364
 20
0.0000012232926185
 30
0.0
 10
1.746406828595097
 20
1.079317205384227
 30
0.0
 10
1.735664115650085
 20
2.157610193824908
 30
0.0
 10
1.717881138632435
 20
3.23404294398494
 30
0.0
 10
1.69322360346676
 20
4.308128164846664
 30
0.0
 10
1.661892801481506
 20
5.379874755294569
 30
0.0
 10
1.636687429804473
 20
6.093512338381569
 30
0.0
 10
1.623049322500007
 20
6.450000000000001
 30
0.0
 11
1.623049322500007
 21
-6.450000000000001
 31
0.0
 11
1.660789331499984
 21
-5.380418015100004
 31
0.0
 11
1.692081598999975
 21
-4.308884288000001
 31
0.0
 11
1.716712506199995
 21
-3.234806007499996
 31
0.0
 11
1.734478323399996
 21
-2.158219328600011
 31
0.0
 11
1.74521158929997
 21
-1.079653252000013
 31
0.0
 11
1.748802156299973
 21
0.0000010297999893
 31
0.0
 11
1.745211571799984
 21
1.079655892000005
 31
0.0
 11
1.734478269600002
 21
2.158223395499986
 31
0.0
 11
1.716712406600009
 21
3.234811051999996
 31
0.0
 11
1.692081457199974
 21
4.308889722800002
 31
0.0
 11
1.66078925809998
 21
5.380420290499983
 31
0.0
 11
1.623049322500007
 21
6.450000000000001
 31
0.0
  0
SPLINE
  5
2D8
330
1B
100
AcDbEntity
  8
1
100
AcDbSpline
210
0.0
220
0.0
230
1.0
 70
     8
 71
     3
 72
     9
 73
     5
 74
     3
 42
0.0000000001
 43
0.0000000001
 44
0.0000000001
 12
0.1712918532247681
 22
0.985220331204561
 32
0.0
 13
0.1709370805723054
 23
0.9852819466961816
 33
0.0
 40
0.0
 40
0.0
 40
0.0
 40
0.0
 40
0.0675565721550084
 40
0.1347007041769459
 40
0.1347007041769459
 40
0.1347007041769459
 40
0.1347007041769459
 10
1.600000000000022
 20
-6.582714009400008
 30
0.0
 10
1.603857296814003
 20
-6.560527973268807
 30
0.0
 10
1.611544388201764
 20
-6.516290661768451
 30
0.0
 10
1.61922351519821
 20
-6.472051967035935
 30
0.0
 10
1.623049322500007
 20
-6.450000000000001
 30
0.0
 11
1.600000000000022
 21
-6.582714009400008
 31
0.0
 11
1.611565921999982
 21
-6.516154863600007
 31
0.0
 11
1.623049322500007
 21
-6.450000000000001
 31
0.0
  0
SPLINE
  5
2D9
330
1B
100
AcDbEntity
  8
1
100
AcDbSpline
210
0.0
220
0.0
230
1.0
 70
     8
 71
     3
 72
     9
 73
     5
 74
     3
 42
0.0000000001
 43
0.0000000001
 44
0.0000000001
 12
-0.1709370816385934
 22
0.9852819465111908
 32
0.0
 13
-0.1712918492458905
 23
0.9852203318963344
 33
0.0
 40
0.0
 40
0.0
 40
0.0
 40
0.0
 40
0.0671446282388273
 40
0.1347007042754713
 40
0.1347007042754713
 40
0.1347007042754713
 40
0.1347007042754713
 10
1.623049322500007
 20
6.450000000000001
 30
0.0
 10
1.61922348690039
 20
6.472052130002976
 30
0.0
 10
1.611544359960864
 20
6.516290824778719
 30
0.0
 10
1.603857268397393
 20
6.560528136281862
 30
0.0
 10
1.600000000000022
 20
6.582714009500008
 30
0.0
 11
1.623049322500007
 21
6.450000000000001
 31
0.0
 11
1.611565837099988
 21
6.516155352499991
 31
0.0
 11
1.600000000000022
 21
6.582714009500008
 31
0.0
  0
SPLINE
  5
2DA
330
1B
100
AcDbEntity
  8
1
100
AcDbSpline
210
0.0
220
0.0
230
1.0
 70
     8
 71
     3
 72
    25
 73
    21
 74
    19
 42
0.0000000001
 43
0.0000000001
 44
0.0000000001
 12
-0.3551727111530721
 22
-0.9348006981448916
 32
0.0
 13
-0.9941202457833894
 23
-0.1082817478782723
 33
0.0
 40
0.0
 40
0.0
 40
0.0
 40
0.0
 40
0.4166503089927496
 40
0.8415076100740906
 40
1.274169056449535
 40
1.71552560245623
 40
2.166323291464296
 40
2.626742256649187
 40
3.097234490167214
 40
3.577307476903004
 40
4.066346040368716
 40
4.563605259843801
 40
5.068218947231215
 40
5.578458863342105
 40
6.093480541511175
 40
6.613631585900413
 40
7.137257506941523
 40
7.662747432531174
 40
8.189592103744438
 40
8.717622307707772
 40
8.717622307707772
 40
8.717622307707772
 40
8.717622307707772
 10
19.3403165583
 20
-2.211334342900015
 30
0.0
 10
19.29098895168409
 20
-2.341162676142918
 30
0.0
 10
19.18285921250712
 20
-2.600231589578688
 30
0.0
 10
18.99441323228768
 20
-2.981166919840669
 30
0.0
 10
18.77793863124027
 20
-3.356464601450659
 30
0.0
 10
18.53329311927054
 20
-3.724464520783161
 30
0.0
 10
18.26028259534366
 20
-4.083641375906096
 30
0.0
 10
17.95887531728392
 20
-4.432290926285416
 30
0.0
 10
17.62941606038246
 20
-4.768375392347465
 30
0.0
 10
17.27260054925829
 20
-5.089703273866073
 30
0.0
 10
16.88962849646966
 20
-5.393924808337789
 30
0.0
 10
16.4820190416846
 20
-5.678779042995559
 30
0.0
 10
16.05181199218737
 20
-5.942003720586945
 30
0.0
 10
15.60129829771623
 20
-6.181602259970182
 30
0.0
 10
15.13258136697196
 20
-6.396040417537557
 30
0.0
 10
14.6478325083403
 20
-6.583967475502701
 30
0.0
 10
14.14955729121563
 20
-6.744143436487747
 30
0.0
 10
13.64062724129741
 20
-6.875545124875486
 30
0.0
 10
13.12352471322796
 20
-6.977547566176746
 30
0.0
 10
12.77497517204838
 20
-7.025656100794119
 30
0.0
 10
12.60000000000002
 20
-7.044714778600009
 30
0.0
 11
19.3403165583
 21
-2.211334342900015
 31
0.0
 11
19.17991128859998
 21
-2.595869945200007
 31
0.0
 11
18.99161729599998
 21
-2.976723064699996
 31
0.0
 11
18.7755324201
 21
-3.351560701000011
 31
0.0
 11
18.53128510250002
 21
-3.719173062800009
 31
0.0
 11
18.25859036489998
 21
-4.078138432299994
 31
0.0
 11
17.95757606489999
 21
-4.426529038799998
 31
0.0
 11
17.62830888399997
 21
-4.762603532600009
 31
0.0
 11
17.27165662579997
 21
-5.083958848899996
 31
0.0
 11
16.88881087309999
 21
-5.38824135940001
 31
0.0
 11
16.48128745719998
 21
-5.673182400400007
 31
0.0
 11
16.05091110199998
 21
-5.936642390499996
 31
0.0
 11
15.60046719939998
 21
-6.176319386900003
 31
0.0
 11
15.13216912590002
 21
-6.39066547
 31
0.0
 11
14.64721656179998
 21
-6.578756191600008
 31
0.0
 11
14.1487346767
 21
-6.739068123199999
 31
0.0
 11
13.6399439198
 21
-6.870489687599998
 31
0.0
 11
13.12306710379999
 21
-6.972488043799997
 31
0.0
 11
12.60000000000002
 21
-7.044714778600009
 31
0.0
  0
SPLINE
  5
2DB
330
1B
100
AcDbEntity
  8
1
100
AcDbSpline
210
0.0
220
0.0
230
1.0
 70
     8
 71
     3
 72
    23
 73
    19
 74
    17
 42
0.0000000001
 43
0.0000000001
 44
0.0000000001
 12
-0.9941202458816011
 22
-0.1082817469766025
 32
0.0
 13
0.0
 23
-1.0
 33
0.0
 40
0.0
 40
0.0
 40
0.0
 40
0.0
 40
0.0925303099627833
 40
0.185646167726805
 40
0.279053525850349
 40
0.3723075020060451
 40
0.4648324461175836
 40
0.5564960560594608
 40
0.6468425280593567
 40
0.736269577941228
 40
0.8250092985826697
 40
0.9135530806585721
 40
1.001473416711788
 40
1.088329087696766
 40
1.174130927079589
 40
1.259901204944273
 40
1.345876447846749
 40
1.43215762716378
 40
1.43215762716378
 40
1.43215762716378
 40
1.43215762716378
 10
12.60000000000002
 20
-7.044714778600009
 30
0.0
 10
12.56933791516945
 20
-7.048054559803694
 30
0.0
 10
12.50801535580616
 20
-7.056708987733778
 30
0.0
 10
12.41684690771103
 20
-7.075454283741088
 30
0.0
 10
12.32680030908037
 20
-7.099963764621598
 30
0.0
 10
12.238697441316
 20
-7.130141319564661
 30
0.0
 10
12.15331976068257
 20
-7.165868114257337
 30
0.0
 10
12.07147804662183
 20
-7.206982793270399
 30
0.0
 10
11.99373184515142
 20
-7.253430313806727
 30
0.0
 10
11.92061266365864
 20
-7.305217778795841
 30
0.0
 10
11.85252893651006
 20
-7.362562552905979
 30
0.0
 10
11.79028138947068
 20
-7.42552018865419
 30
0.0
 10
11.73496583554987
 20
-7.493871584482596
 30
0.0
 10
11.6877947407468
 20
-7.567021074970393
 30
0.0
 10
11.64967007028152
 20
-7.644493709455673
 30
0.0
 10
11.62143439811774
 20
-7.725814139381098
 30
0.0
 10
11.60395669622229
 20
-7.810275074382534
 30
0.0
 10
11.60000000000002
 20
-7.867770351394335
 30
0.0
 10
11.60000000000002
 20
-7.896530744500012
 30
0.0
 11
12.60000000000002
 21
-7.044714778600009
 31
0.0
 11
12.50837543019997
 21
-7.057629749400007
 31
0.0
 11
12.41716782099999
 21
-7.076384348600014
 31
0.0
 11
12.32704452570001
 21
-7.100934831200008
 31
0.0
 11
12.23883433059998
 21
-7.131188187199995
 31
0.0
 11
12.1535018632
 21
-7.166954586100003
 31
0.0
 11
12.07162485789999
 21
-7.208165912100013
 31
0.0
 11
11.99410929399999
 21
-7.254575203799986
 31
0.0
 11
11.92119032259998
 21
-7.306344121700007
 31
0.0
 11
11.8533919985
 21
-7.363599036500004
 31
0.0
 11
11.79123003629999
 21
-7.426653709600016
 31
0.0
 11
11.7360267784
 21
-7.495083131699999
 31
0.0
 11
11.68906766269998
 21
-7.56814987540001
 31
0.0
 11
11.65129133619998
 21
-7.645188208700004
 31
0.0
 11
11.62325147960001
 21
-7.726245638999997
 31
0.0
 11
11.60589839449997
 21
-7.8104514157
 31
0.0
 11
11.60000000000002
 21
-7.896530744500012
 31
0.0
  0
SPLINE
  5
2DC
330
1B
100
AcDbEntity
  8
1
100
AcDbSpline
210
0.0
220
0.0
230
1.0
 70
     8
 71
     3
 72
    23
 73
    19
 74
    17
 42
0.0000000001
 43
0.0000000001
 44
0.0000000001
 12
0.0
 22
-1.0
 32
0.0
 13
0.9941202459581409
 23
-0.1082817462739018
 33
0.0
 40
0.0
 40
0.0
 40
0.0
 40
0.0
 40
0.0862838957528486
 40
0.1722593037121566
 40
0.2580297421521761
 40
0.3438317235912368
 40
0.430687530553253
 40
0.5186080105748509
 40
0.6071519467144406
 40
0.6958918222652846
 40
0.7853190239968228
 40
0.8756656478507537
 40
0.9673294129715767
 40
1.059854519653725
 40
1.153108662456517
 40
1.246516191229996
 40
1.339632220017732
 40
1.432162699577569
 40
1.432162699577569
 40
1.432162699577569
 40
1.432162699577569
 10
11.60000000000002
 20
7.896535826900005
 30
0.0
 10
11.60000000000002
 20
7.867774528315722
 30
0.0
 10
11.60395608544521
 20
7.810278251360298
 30
0.0
 10
11.62143383267303
 20
7.725816259876715
 30
0.0
 10
11.64966926621525
 20
7.644495592064541
 30
0.0
 10
11.68779380140628
 20
7.56702272153598
 30
0.0
 10
11.73496479967254
 20
7.49387300133973
 30
0.0
 10
11.79028031089038
 20
7.425521382568767
 30
0.0
 10
11.85252786132529
 20
7.362563536471434
 30
0.0
 10
11.92061162931338
 20
7.305218570958581
 30
0.0
 10
11.99373087923662
 20
7.253430936877121
 30
0.0
 10
12.07147717124921
 20
7.20698326851085
 30
0.0
 10
12.15331899648639
 20
7.165868461010667
 30
0.0
 10
12.23869680667343
 20
7.130141556522354
 30
0.0
 10
12.32679981991865
 20
7.099963910934389
 30
0.0
 10
12.41684657527558
 20
7.075454359327869
 30
0.0
 10
12.50801518741879
 20
7.056709013387409
 30
0.0
 10
12.56933785896714
 20
7.048054566003445
 30
0.0
 10
12.60000000000002
 20
7.044714778700011
 30
0.0
 11
11.60000000000002
 21
7.896535826900005
 31
0.0
 11
11.60589807349998
 21
7.810453753299995
 31
0.0
 11
11.6232508962
 21
7.726247753999998
 31
0.0
 11
11.6512905525
 21
7.6451900845
 31
0.0
 11
11.68906673219999
 21
7.568151521000003
 31
0.0
 11
11.73602575039998
 21
7.495084552999982
 31
0.0
 11
11.79122896289999
 21
7.426654909299997
 31
0.0
 11
11.8533909292
 21
7.363600023899991
 31
0.0
 11
11.92118929399998
 21
7.306344917199991
 31
0.0
 11
11.99410833199996
 21
7.254575830799992
 31
0.0
 11
12.07162398469998
 21
7.208166391800005
 31
0.0
 11
12.15350109919998
 21
7.166954937599996
 31
0.0
 11
12.23883369660001
 21
7.131188428299991
 31
0.0
 11
12.32704403669998
 21
7.100934981399986
 31
0.0
 11
12.41716748949997
 21
7.076384427700006
 31
0.0
 11
12.508375263
 21
7.057629778399999
 31
0.0
 11
12.60000000000002
 21
7.044714778700011
 31
0.0
  0
SPLINE
  5
2DD
330
1B
100
AcDbEntity
  8
1
100
AcDbSpline
210
0.0
220
0.0
230
1.0
 70
     8
 71
     3
 72
    25
 73
    21
 74
    19
 42
0.0000000001
 43
0.0000000001
 44
0.0000000001
 12
0.9941202457811771
 22
-0.1082817478985809
 32
0.0
 13
0.3551727113348777
 23
-0.9348006980758153
 33
0.0
 40
0.0
 40
0.0
 40
0.0
 40
0.0
 40
0.5280199913671014
 40
1.054854654740837
 40
1.58036478079257
 40
2.103995698802782
 40
2.624131595660089
 40
3.13912705494283
 40
3.64936243268096
 40
4.153971625907168
 40
4.651229180441139
 40
5.140264140179207
 40
5.620341409963315
 40
6.090823579066058
 40
6.551237169107139
 40
7.002036597520664
 40
7.443396152603846
 40
7.876079716430041
 40
8.300965097751912
 40
8.717622308618741
 40
8.717622308618741
 40
8.717622308618741
 40
8.717622308618741
 10
12.60000000000002
 20
7.044714778700011
 30
0.0
 10
12.7749717878651
 20
7.025656469503137
 30
0.0
 10
13.12351466643341
 20
6.977549051199328
 30
0.0
 10
13.64061734409739
 20
6.875547475749099
 30
0.0
 10
14.14955247316077
 20
6.744145087209439
 30
0.0
 10
14.64783084194676
 20
6.583967961119815
 30
0.0
 10
15.13256842864752
 20
6.396045433544533
 30
0.0
 10
15.60127197865369
 20
6.181614913562437
 30
0.0
 10
16.05177637804731
 20
5.942023944496045
 30
0.0
 10
16.48198174200343
 20
5.678803363508746
 30
0.0
 10
16.88959014506989
 20
5.393953312619442
 30
0.0
 10
17.27256380713655
 20
5.089734345346911
 30
0.0
 10
17.62937901478933
 20
4.768410794675826
 30
0.0
 10
17.95883794595534
 20
4.432331244132158
 30
0.0
 10
18.26024503940485
 20
4.083687586929299
 30
0.0
 10
18.53325850329177
 20
3.724513227610271
 30
0.0
 10
18.7779120743814
 20
3.356507905186572
 30
0.0
 10
18.99439810754057
 20
2.981196295494861
 30
0.0
 10
19.18285375990219
 20
2.600244456851052
 30
0.0
 10
19.29098813453973
 20
2.341164826858868
 30
0.0
 10
19.3403165583
 20
2.21133434299999
 30
0.0
 11
12.60000000000002
 21
7.044714778700011
 31
0.0
 11
13.12305702739999
 21
6.972489731999999
 31
0.0
 11
13.63992419519996
 21
6.870494176299986
 31
0.0
 11
14.14873465759998
 21
6.739068128899987
 31
0.0
 11
14.64722125509999
 21
6.578754528700001
 31
0.0
 11
15.13215975259998
 21
6.390669428700008
 31
0.0
 11
15.60043456309998
 21
6.176335518799986
 31
0.0
 11
16.05087554989998
 21
5.9366627041
 31
0.0
 11
16.48124943959999
 21
5.673207294299999
 31
0.0
 11
16.88877311199996
 21
5.388269525699995
 31
0.0
 11
17.27161791859998
 21
5.083991616700004
 31
0.0
 11
17.62827537570001
 21
4.7626356719
 31
0.0
 11
17.95753780899996
 21
4.426570616499986
 31
0.0
 11
18.25855140519996
 21
4.078186505499984
 31
0.0
 11
18.53125025849999
 21
3.71922207819999
 31
0.0
 11
18.77550233439998
 21
3.351609265199996
 31
0.0
 11
18.99160079309998
 21
2.976753929699994
 31
0.0
 11
19.1799084282
 21
2.59587623039998
 31
0.0
 11
19.3403165583
 21
2.21133434299999
 31
0.0
  0
TEXT
  5
3CB
330
1B
100
AcDbEntity
  8
6
100
AcDbText
 10
19.44370341296312
 20
-37.2081726519212
 30
0.0
 40
5.0
  1
2080A40Z4SA025
 41
0.8
 72
     1
 11
40.67575872386294
 21
-37.2081726519212
 31
0.0
100
AcDbText
  0
TEXT
  5
3CE
330
1B
100
AcDbEntity
  8
6
100
AcDbText
 10
-48.65975760819566
 20
-11.93779749210814
 30
0.0
 40
3.0
  1
DIN 2080-A40
 41
0.8
100
AcDbText
  0
LWPOLYLINE
  5
634
102
{ACAD_REACTORS
330
635
102
}
330
1B
100
AcDbEntity
  8
1
100
AcDbPolyline
 90
        3
 70
     1
 43
0.0
 10
0.0
 20
2.950972054112752
 10
0.0
 20
0.0
 10
2.950972054112638
 20
0.0
 42
0.4142135623730966
  0
HATCH
  5
635
330
1B
100
AcDbEntity
  8
1
100
AcDbHatch
 10
0.0
 20
0.0
 30
0.0
210
0.0
220
0.0
230
1.0
  2
SOLID
 70
     1
 71
     1
 91
        2
 92
        7
 72
     1
 73
     1
 93
        3
 10
0.0
 20
0.0
 42
0.0
 10
2.950972054112638
 20
0.0
 42
0.4142135623730966
 10
0.0
 20
2.950972054112752
 42
0.0
 97
        1
330
634
 92
        7
 72
     1
 73
     1
 93
        3
 10
0.0
 20
-2.950972054112412
 42
0.0
 10
0.0
 20
0.0
 42
0.0
 10
-2.950972054112583
 20
0.0
 42
0.4142135623730966
 97
        1
330
637
 75
     0
 76
     1
 47
0.1190009775223266
 98
        2
 10
0.7445530588119596
 20
0.9212244733765826
 10
-1.27946460185285
 20
-1.696796923046235
  0
CIRCLE
  5
636
330
1B
100
AcDbEntity
  8
1
100
AcDbCircle
 10
0.0
 20
0.0
 30
0.0
 40
2.950972054112601
  0
LWPOLYLINE
  5
637
102
{ACAD_REACTORS
330
635
102
}
330
1B
100
AcDbEntity
  8
1
100
AcDbPolyline
 90
        3
 70
     1
 43
0.0
 10
0.0
 20
0.0
 10
-2.950972054112583
 20
0.0
 42
0.4142135623730966
 10
0.0
 20
-2.950972054112412
  0
LINE
  5
638
330
1B
100
AcDbEntity
  8
1
100
AcDbLine
 10
-2.950972054112752
 20
0.0
 30
0.0
 11
2.950972054112583
 21
0.0
 31
0.0
  0
LINE
  5
639
330
1B
100
AcDbEntity
  8
1
100
AcDbLine
 10
0.0
 20
2.950972054112752
 30
0.0
 11
0.0
 21
-2.950972054112412
 31
0.0
  0
CIRCLE
  5
63A
330
1B
100
AcDbEntity
  8
1
100
AcDbCircle
 10
25.0
 20
0.0
 30
0.0
 40
1.0
  0
HATCH
  5
63B
330
1B
100
AcDbEntity
  8
1
100
AcDbHatch
 10
0.0
 20
0.0
 30
0.0
210
0.0
220
0.0
230
1.0
  2
SOLID
 70
     1
 71
     0
 91
        2
 92
        1
 93
        3
 72
     1
 10
25.0
 20
0.0
 11
24.0
 21
0.0
 72
     2
 10
25.0
 20
0.0
 40
1.0
 50
180.0
 51
270.0
 73
     1
 72
     1
 10
25.0
 20
-0.9999999999998864
 11
25.0
 21
0.0
 97
        0
 92
        1
 93
        3
 72
     1
 10
25.0
 20
1.000000000000113
 11
25.0
 21
0.0000000000000009
 72
     1
 10
25.0
 20
0.0
 11
26.0
 21
0.0
 72
     2
 10
25.0
 20
0.0
 40
1.0
 50
0.0
 51
90.0
 73
     1
 97
        0
 75
     0
 76
     1
 98
        1
 10
-84.92953417619814
 20
-32.53620011044962
  0
LINE
  5
63C
330
1B
100
AcDbEntity
  8
1
100
AcDbLine
 10
24.0
 20
0.0
 30
0.0
 11
26.0
 21
0.0
 31
0.0
  0
LWPOLYLINE
  5
63D
330
1B
100
AcDbEntity
  8
1
100
AcDbPolyline
 90
        3
 70
     1
 43
0.0
 10
25.0
 20
0.0
 10
24.0
 20
0.0
 42
0.4142135623730951
 10
25.0
 20
-0.9999999999998864
  0
LWPOLYLINE
  5
63E
330
1B
100
AcDbEntity
  8
1
100
AcDbPolyline
 90
        3
 70
     1
 43
0.0
 10
25.0
 20
1.000000000000113
 10
25.0
 20
0.0
 10
26.0
 20
0.0
 42
0.4142135623730951
  0
ENDSEC
  0
SECTION
  2
OBJECTS
  0
DICTIONARY
  5
2DE
330
0
100
AcDbDictionary
281
     1
  3
ACAD_COLOR
350
650
  3
ACAD_GROUP
350
2DF
  3
ACAD_LAYOUT
350
2E7
  3
ACAD_MATERIAL
350
64F
  3
ACAD_MLINESTYLE
350
2E0
  3
ACAD_PLOTSETTINGS
350
2E8
  3
ACAD_PLOTSTYLENAME
350
2E5
  3
ACAD_TABLESTYLE
350
651
  3
ACDBHEADERROUNDTRIPXREC
350
65B
  3
AcDbVariableDictionary
350
656
  0
DICTIONARY
  5
650
102
{ACAD_REACTORS
330
2DE
102
}
330
2DE
100
AcDbDictionary
281
     1
  0
DICTIONARY
  5
2DF
102
{ACAD_REACTORS
330
2DE
102
}
330
2DE
100
AcDbDictionary
281
     1
  0
DICTIONARY
  5
2E7
102
{ACAD_REACTORS
330
2DE
102
}
330
2DE
100
AcDbDictionary
281
     1
  3
Layout1
350
2EA
  3
Model
350
2E9
  0
DICTIONARY
  5
64F
102
{ACAD_REACTORS
330
2DE
102
}
330
2DE
100
AcDbDictionary
281
     1
  0
DICTIONARY
  5
2E0
102
{ACAD_REACTORS
330
2DE
102
}
330
2DE
100
AcDbDictionary
281
     1
  3
STANDARD
350
2E1
  0
DICTIONARY
  5
2E8
102
{ACAD_REACTORS
330
2DE
102
}
330
2DE
100
AcDbDictionary
281
     1
  0
ACDBDICTIONARYWDFLT
  5
2E5
102
{ACAD_REACTORS
330
2DE
102
}
330
2DE
100
AcDbDictionary
281
     1
  3
Normal
350
2E6
100
AcDbDictionaryWithDefault
340
2E6
  0
DICTIONARY
  5
651
102
{ACAD_REACTORS
330
2DE
102
}
330
2DE
100
AcDbDictionary
281
     1
  3
Standard
350
652
  0
DICTIONARY
  5
65B
102
{ACAD_REACTORS
330
2DE
102
}
330
2DE
100
AcDbDictionary
281
     1
  0
DICTIONARY
  5
656
102
{ACAD_REACTORS
330
2DE
102
}
330
2DE
100
AcDbDictionary
281
     1
  3
CTABLESTYLE
350
657
  3
DIMASSOC
350
658
  3
PROJECTNAME
350
659
  0
LAYOUT
  5
2EA
102
{ACAD_XDICTIONARY
360
65E
102
}
102
{ACAD_REACTORS
330
2E7
102
}
330
2E7
100
AcDbPlotSettings
  1

  2
\\ingdom02\ITB3
  4

  6

 40
0.0
 41
0.0
 42
0.0
 43
0.0
 44
0.0
 45
0.0
 46
0.0
 47
0.0
 48
0.0
 49
0.0
140
0.0
141
0.0
142
1.0
143
1.0
 70
   688
 72
     0
 73
     0
 74
     5
  7

 75
    16
147
1.0
148
0.0
149
0.0
100
AcDbLayout
  1
Layout1
 70
     1
 71
     1
 10
0.0
 20
0.0
 11
12.0
 21
9.0
 12
0.0
 22
0.0
 32
0.0
 14
1.000000000000000E+20
 24
1.000000000000000E+20
 34
1.000000000000000E+20
 15
-1.000000000000000E+20
 25
-1.000000000000000E+20
 35
-1.000000000000000E+20
146
0.0
 13
0.0
 23
0.0
 33
0.0
 16
1.0
 26
0.0
 36
0.0
 17
0.0
 27
1.0
 37
0.0
 76
     0
330
1C
  0
LAYOUT
  5
2E9
102
{ACAD_XDICTIONARY
360
65C
102
}
102
{ACAD_REACTORS
330
2E7
102
}
330
2E7
100
AcDbPlotSettings
  1

  2
\\ingdom02\ITB3
  4

  6

 40
0.0
 41
0.0
 42
0.0
 43
0.0
 44
0.0
 45
0.0
 46
0.0
 47
0.0
 48
0.0
 49
0.0
140
0.0
141
0.0
142
1.0
143
1.0
 70
  1712
 72
     0
 73
     0
 74
     0
  7

 75
     0
147
1.0
148
0.0
149
0.0
100
AcDbLayout
  1
Model
 70
     1
 71
     0
 10
0.0
 20
0.0
 11
12.0
 21
9.0
 12
0.0
 22
0.0
 32
0.0
 14
0.0
 24
0.0
 34
0.0
 15
0.0
 25
0.0
 35
0.0
146
0.0
 13
0.0
 23
0.0
 33
0.0
 16
1.0
 26
0.0
 36
0.0
 17
0.0
 27
1.0
 37
0.0
 76
     0
330
1B
  0
MLINESTYLE
  5
2E1
102
{ACAD_REACTORS
330
2E0
102
}
330
2E0
100
AcDbMlineStyle
  2
STANDARD
 70
     0
  3

 62
   256
 51
90.0
 52
90.0
 71
     2
 49
0.5
 62
   256
  6
BYLAYER
 49
-0.5
 62
   256
  6
BYLAYER
  0
ACDBPLACEHOLDER
  5
2E6
102
{ACAD_REACTORS
330
2E5
102
}
330
2E5
  0
TABLESTYLE
  5
652
102
{ACAD_REACTORS
330
651
102
}
330
651
100
AcDbTableStyle
  3
Standard
 70
     0
 71
     0
 40
1.5
 41
1.5
280
     0
281
     0
  7
STANDARD
140
4.5
170
     2
 62
     0
 63
     7
283
     0
274
    -2
284
     1
 64
     0
275
    -2
285
     1
 65
     0
276
    -2
286
     1
 66
     0
277
    -2
287
     1
 67
     0
278
    -2
288
     1
 68
     0
279
    -2
289
     1
 69
     0
  7
STANDARD
140
6.0
170
     5
 62
     0
 63
     7
283
     0
274
    -2
284
     1
 64
     0
275
    -2
285
     1
 65
     0
276
    -2
286
     1
 66
     0
277
    -2
287
     1
 67
     0
278
    -2
288
     1
 68
     0
279
    -2
289
     1
 69
     0
  7
STANDARD
140
4.5
170
     5
 62
     0
 63
     7
283
     0
274
    -2
284
     1
 64
     0
275
    -2
285
     1
 65
     0
276
    -2
286
     1
 66
     0
277
    -2
287
     1
 67
     0
278
    -2
288
     1
 68
     0
279
    -2
289
     1
 69
     0
  0
DICTIONARYVAR
  5
657
102
{ACAD_REACTORS
330
656
102
}
330
656
100
DictionaryVariables
280
     0
  1
STANDARD
  0
DICTIONARYVAR
  5
658
102
{ACAD_REACTORS
330
656
102
}
330
656
100
DictionaryVariables
280
     0
  1
1
  0
DICTIONARYVAR
  5
659
102
{ACAD_REACTORS
330
656
102
}
330
656
100
DictionaryVariables
280
     0
  1

  0
DICTIONARY
  5
65E
330
2EA
100
AcDbDictionary
280
     1
281
     1
  3
ACAD_XREC_ROUNDTRIP
360
65F
  0
DICTIONARY
  5
65C
330
2E9
100
AcDbDictionary
280
     1
281
     1
  3
ACAD_XREC_ROUNDTRIP
360
65D
  0
XRECORD
  5
65F
102
{ACAD_REACTORS
330
65E
102
}
330
65E
100
AcDbXrecord
280
     1
102
SHADEPLOT
 70
     0
102
SHADEPLOTRESLEVEL
 70
     2
102
SHADEPLOTCUSTOMDPI
 70
   300
  0
XRECORD
  5
65D
102
{ACAD_REACTORS
330
65C
102
}
330
65C
100
AcDbXrecord
280
     1
102
SHADEPLOT
 70
     0
102
SHADEPLOTRESLEVEL
 70
     2
102
SHADEPLOTCUSTOMDPI
 70
   300
  0
ENDSEC
  0
EOF
