  0
SECTION
  2
HEADER
  9
$ACADVER
  1
AC1014
  9
$ACADMAINTVER
 70
     9
  9
$DWGCODEPAGE
  3
ANSI_1252
  9
$INSBASE
 10
0.0
 20
0.0
 30
0.0
  9
$EXTMIN
 10
-53.02164715557762
 20
-17.014370416176
 30
-0.0000000000000058
  9
$EXTMAX
 10
45.06441240079766
 20
38.66091679157568
 30
0.0000000000000104
  9
$LIMMIN
 10
0.0
 20
0.0
  9
$LIMMAX
 10
420.0
 20
297.0
  9
$ORTHOMODE
 70
     0
  9
$REGENMODE
 70
     1
  9
$FILLMODE
 70
     1
  9
$QTEXTMODE
 70
     0
  9
$MIRRTEXT
 70
     1
  9
$DRAGMODE
 70
     2
  9
$LTSCALE
 40
1.0
  9
$OSMODE
 70
  2599
  9
$ATTMODE
 70
     1
  9
$TEXTSIZE
 40
3.5
  9
$TRACEWID
 40
1.0
  9
$TEXTSTYLE
  7
STANDARD
  9
$CLAYER
  8
0
  9
$CELTYPE
  6
BYLAYER
  9
$CECOLOR
 62
   256
  9
$CELTSCALE
 40
1.0
  9
$DELOBJ
 70
     1
  9
$DISPSILH
 70
     0
  9
$DIMSCALE
 40
1.0
  9
$DIMASZ
 40
2.5
  9
$DIMEXO
 40
0.0
  9
$DIMDLI
 40
10.0
  9
$DIMRND
 40
0.0
  9
$DIMDLE
 40
0.0
  9
$DIMEXE
 40
1.0
  9
$DIMTP
 40
0.1
  9
$DIMTM
 40
0.1
  9
$DIMTXT
 40
3.5
  9
$DIMCEN
 40
0.0
  9
$DIMTSZ
 40
0.0
  9
$DIMTOL
 70
     0
  9
$DIMLIM
 70
     0
  9
$DIMTIH
 70
     0
  9
$DIMTOH
 70
     0
  9
$DIMSE1
 70
     0
  9
$DIMSE2
 70
     0
  9
$DIMTAD
 70
     1
  9
$DIMZIN
 70
     8
  9
$DIMBLK
  1

  9
$DIMASO
 70
     1
  9
$DIMSHO
 70
     1
  9
$DIMPOST
  1

  9
$DIMAPOST
  1
"
  9
$DIMALT
 70
     0
  9
$DIMALTD
 70
     2
  9
$DIMALTF
 40
0.0393701
  9
$DIMLFAC
 40
1.0
  9
$DIMTOFL
 70
     1
  9
$DIMTVP
 40
0.0
  9
$DIMTIX
 70
     0
  9
$DIMSOXD
 70
     0
  9
$DIMSAH
 70
     0
  9
$DIMBLK1
  1

  9
$DIMBLK2
  1

  9
$DIMSTYLE
  2
AM_DIN
  9
$DIMCLRD
 70
   256
  9
$DIMCLRE
 70
   256
  9
$DIMCLRT
 70
     2
  9
$DIMTFAC
 40
0.71
  9
$DIMGAP
 40
1.5
  9
$DIMJUST
 70
     0
  9
$DIMSD1
 70
     0
  9
$DIMSD2
 70
     0
  9
$DIMTOLJ
 70
     0
  9
$DIMTZIN
 70
     8
  9
$DIMALTZ
 70
     0
  9
$DIMALTTZ
 70
     0
  9
$DIMFIT
 70
     3
  9
$DIMUPT
 70
     0
  9
$DIMUNIT
 70
     2
  9
$DIMDEC
 70
     2
  9
$DIMTDEC
 70
     2
  9
$DIMALTU
 70
     2
  9
$DIMALTTD
 70
     2
  9
$DIMTXSTY
  7
STANDARD
  9
$DIMAUNIT
 70
     0
  9
$LUNITS
 70
     2
  9
$LUPREC
 70
     2
  9
$SKETCHINC
 40
1.0
  9
$FILLETRAD
 40
3.0
  9
$AUNITS
 70
     0
  9
$AUPREC
 70
     0
  9
$MENU
  1
.
  9
$ELEVATION
 40
0.0
  9
$PELEVATION
 40
0.0
  9
$THICKNESS
 40
0.0
  9
$LIMCHECK
 70
     0
  9
$BLIPMODE
 70
     0
  9
$CHAMFERA
 40
2.5
  9
$CHAMFERB
 40
2.5
  9
$CHAMFERC
 40
20.0
  9
$CHAMFERD
 40
0.0
  9
$SKPOLY
 70
     0
  9
$TDCREATE
 40
2453599.366006042
  9
$TDUPDATE
 40
2453874.504796956
  9
$TDINDWG
 40
0.0535281250
  9
$TDUSRTIMER
 40
0.0535037847
  9
$USRTIMER
 70
     1
  9
$ANGBASE
 50
0.0
  9
$ANGDIR
 70
     0
  9
$PDMODE
 70
     0
  9
$PDSIZE
 40
0.0
  9
$PLINEWID
 40
0.0
  9
$COORDS
 70
     0
  9
$SPLFRAME
 70
     0
  9
$SPLINETYPE
 70
     6
  9
$SPLINESEGS
 70
     8
  9
$ATTDIA
 70
     1
  9
$ATTREQ
 70
     1
  9
$HANDLING
 70
 22529
  9
$HANDSEED
  5
2D5E
  9
$SURFTAB1
 70
     6
  9
$SURFTAB2
 70
     6
  9
$SURFTYPE
 70
     6
  9
$SURFU
 70
     6
  9
$SURFV
 70
     6
  9
$UCSNAME
  2

  9
$UCSORG
 10
0.0
 20
0.0
 30
0.0
  9
$UCSXDIR
 10
1.0
 20
0.0
 30
0.0
  9
$UCSYDIR
 10
0.0
 20
1.0
 30
0.0
  9
$PUCSNAME
  2

  9
$PUCSORG
 10
0.0
 20
0.0
 30
0.0
  9
$PUCSXDIR
 10
1.0
 20
0.0
 30
0.0
  9
$PUCSYDIR
 10
0.0
 20
1.0
 30
0.0
  9
$USERI1
 70
     0
  9
$USERI2
 70
     0
  9
$USERI3
 70
     0
  9
$USERI4
 70
     0
  9
$USERI5
 70
     0
  9
$USERR1
 40
0.0
  9
$USERR2
 40
0.0
  9
$USERR3
 40
0.0
  9
$USERR4
 40
0.0
  9
$USERR5
 40
0.0
  9
$WORLDVIEW
 70
     1
  9
$SHADEDGE
 70
     3
  9
$SHADEDIF
 70
    70
  9
$TILEMODE
 70
     1
  9
$MAXACTVP
 70
    64
  9
$PINSBASE
 10
0.0
 20
0.0
 30
0.0
  9
$PLIMCHECK
 70
     0
  9
$PEXTMIN
 10
1.000000000000000E+20
 20
1.000000000000000E+20
 30
1.000000000000000E+20
  9
$PEXTMAX
 10
-1.000000000000000E+20
 20
-1.000000000000000E+20
 30
-1.000000000000000E+20
  9
$PLIMMIN
 10
0.0
 20
0.0
  9
$PLIMMAX
 10
420.0
 20
297.0
  9
$UNITMODE
 70
     0
  9
$VISRETAIN
 70
     1
  9
$PLINEGEN
 70
     0
  9
$PSLTSCALE
 70
     1
  9
$TREEDEPTH
 70
  3020
  9
$PICKSTYLE
 70
     0
  9
$CMLSTYLE
  2
STANDARD
  9
$CMLJUST
 70
     0
  9
$CMLSCALE
 40
20.0
  9
$PROXYGRAPHICS
 70
     1
  9
$MEASUREMENT
 70
     1
  0
ENDSEC
  0
SECTION
  2
CLASSES
  0
CLASS
  1
ACDBDICTIONARYWDFLT
  2
AcDbDictionaryWithDefault
  3
AutoCAD 2000
 90
        0
280
     0
281
     0
  0
CLASS
  1
ACDBPLACEHOLDER
  2
AcDbPlaceHolder
  3
AutoCAD 2000
 90
        0
280
     0
281
     0
  0
CLASS
  1
LAYOUT
  2
AcDbLayout
  3
AutoCAD 2000
 90
        0
280
     0
281
     0
  0
CLASS
  1
ACME_DOCUMENT
  2
AcMeDbDoc
  3
AcMeServices
 90
        0
280
     0
281
     0
  0
CLASS
  1
ACMESCOPE
  2
AcMeScope
  3
AcMeServices
 90
        0
280
     0
281
     0
  0
CLASS
  1
ACMECOMMANDHISTORY
  2
AcMeCommandHistory
  3
AcMeServices
 90
        0
280
     0
281
     0
  0
CLASS
  1
ACIMSYSVARMAN
  2
AcImSysVarManager
  3
AcMeServices
 90
        0
280
     0
281
     0
  0
CLASS
  1
ACIMREALSYSVAR
  2
AcImRealSysVar
  3
AcMeServices
 90
        0
280
     0
281
     0
  0
CLASS
  1
ACIMINTSYSVAR
  2
AcImIntSysVar
  3
AcMeServices
 90
        0
280
     0
281
     0
  0
CLASS
  1
ACMEDRAWINGMAN
  2
AcMeDrawingMan
  3
AcMeServices
 90
        0
280
     0
281
     0
  0
CLASS
  1
ACMEVIEW
  2
AcMeView
  3
AcMeServices
 90
        0
280
     0
281
     0
  0
CLASS
  1
ACDBENTITYCACHE
  2
AcMeEntityCache
  3
AcMeServices
 90
        0
280
     0
281
     0
  0
CLASS
  1
GSMANAGER
  2
AcMeGSManager
  3
AcMeServices
 90
        0
280
     0
281
     0
  0
CLASS
  1
AMDTINTERNALREACTOR
  2
AmdtInternalReactor
  3
AcMeServices
 90
        0
280
     0
281
     0
  0
CLASS
  1
ACMESTATEMGR
  2
AcMeStateMgr
  3
AcMeServices
 90
        0
280
     0
281
     0
  0
CLASS
  1
ACGREFMASTER
  2
AcGrefMaster
  3
AcAttribServices
 90
        0
280
     0
281
     0
  0
CLASS
  1
ACME_DATABASE
  2
AcMeDbDatabase
  3
AcMeServices
 90
        0
280
     0
281
     0
  0
CLASS
  1
ACRFINSADJUSTERMGR
  2
AcRfInsAdjusterMgr
  3
AcMeServices
 90
        0
280
     0
281
     0
  0
CLASS
  1
ACGREFACADMASTER
  2
AcGrefacadMaster
  3
AcGrefServices
 90
        0
280
     0
281
     0
  0
CLASS
  1
AMIMASTER
  2
AmiMaster
  3
AmiServices
 90
        0
280
     0
281
     0
  0
CLASS
  1
AMGSETTINGSOBJ
  2
AmgSettingsObj
  3
"AcadM|Product Description: AutoCAD Mechanical 2000|Company: Autodesk"
 90
        0
280
     0
281
     0
  0
CLASS
  1
ACMDATADICTIONARY
  2
AcmDataDictionary
  3
"AcmSymBB|Product Description: AutoCAD Mechanical 2000|Company: Autodesk"
 90
        0
280
     0
281
     0
  0
CLASS
  1
ACMDATAENTRYBLOCK
  2
AcmDataEntryBlock
  3
"AcmSymBB|Product Description: AutoCAD Mechanical 2000|Company: Autodesk"
 90
        0
280
     0
281
     0
  0
CLASS
  1
ACIMSTRSYSVAR
  2
AcImStrSysVar
  3
AcMeServices
 90
        0
280
     0
281
     0
  0
CLASS
  1
ACMSTANDARDDIN
  2
AcmStandardDIN
  3
"Amdt_StdImp|Product Description: AutoCAD Mechanical 2000|Company: Autodesk"
 90
        0
280
     0
281
     0
  0
CLASS
  1
AMGOBJPROPCFG
  2
AmgObjPropCfg
  3
"AmgLay|Product Description: AutoCAD Mechanical 2000|Company: Autodesk"
 90
        1
280
     0
281
     0
  0
CLASS
  1
AMDTEDGESTANDARDDIN
  2
AmdtEdgeStdDIN
  3
"Amdt_StdImp|Product Description: AutoCAD Mechanical 2000|Company: Autodesk"
 90
        0
280
     0
281
     0
  0
CLASS
  1
ACMSURFSTANDARDDIN
  2
AcmSurfTextStdDIN
  3
"Amdt_StdImp|Product Description: AutoCAD Mechanical 2000|Company: Autodesk"
 90
        0
280
     0
281
     0
  0
CLASS
  1
ACMFCFSTANDARDDIN
  2
AcmFCFStdDIN
  3
"Amdt_StdImp|Product Description: AutoCAD Mechanical 2000|Company: Autodesk"
 90
        0
280
     0
281
     0
  0
CLASS
  1
ACMWELDSTANDARDDIN
  2
AcmWeldingStdDIN
  3
"Amdt_StdImp|Product Description: AutoCAD Mechanical 2000|Company: Autodesk"
 90
        0
280
     0
281
     0
  0
CLASS
  1
ACMIDSTANDARDDIN
  2
AcmIdStdDIN
  3
"Amdt_StdImp|Product Description: AutoCAD Mechanical 2000|Company: Autodesk"
 90
        0
280
     0
281
     0
  0
CLASS
  1
ACMDATUMSTANDARDDIN
  2
AcmDatumStdDIN
  3
"Amdt_StdImp|Product Description: AutoCAD Mechanical 2000|Company: Autodesk"
 90
        0
280
     0
281
     0
  0
CLASS
  1
ACMBOMSTANDARDDIN
  2
AcmBOMStdDIN
  3
"Amdt_StdImp|Product Description: AutoCAD Mechanical 2000|Company: Autodesk"
 90
        0
280
     0
281
     0
  0
CLASS
  1
ACMDETAILSTANDARDDIN
  2
AmdtDetailSymStdDIN
  3
"Amdt_StdImp|Product Description: AutoCAD Mechanical 2000|Company: Autodesk"
 90
        0
280
     0
281
     0
  0
CLASS
  1
ACMSECTIONSTANDARDDIN
  2
AmdtSectionSymStdDIN
  3
"Amdt_StdImp|Product Description: AutoCAD Mechanical 2000|Company: Autodesk"
 90
        0
280
     0
281
     0
  0
CLASS
  1
ACMCENTERLINESTANDARDDIN
  2
AmdtCenterLineStdDIN
  3
"Amdt_StdImp|Product Description: AutoCAD Mechanical 2000|Company: Autodesk"
 90
        0
280
     0
281
     0
  0
CLASS
  1
ACMNOTESTANDARDDIN
  2
AmdtNoteStdDIN
  3
"Amdt_StdImp|Product Description: AutoCAD Mechanical 2000|Company: Autodesk"
 90
        0
280
     0
281
     0
  0
CLASS
  1
ACAMGLAYSTD
  2
AcAmgLayStd
  3
"AcAmgLayStd|Product Description: AutoCAD Mechanical 2000|Company: Autodesk"
 90
        0
280
     0
281
     0
  0
CLASS
  1
ACAMGDIMSTD
  2
AcAmgDimStd
  3
"AcAmgDimStd|Product Description: AutoCAD Mechanical 2000|Company: Autodesk"
 90
        0
280
     0
281
     0
  0
CLASS
  1
ACAMGHOLECHARTSTDDIN
  2
AcAmgHoleChartStdDIN
  3
ACMSYMBB_MODULE_NAME
 90
        0
280
     0
281
     0
  0
CLASS
  1
ACAMGTITLESTD
  2
AcAmgTitleStd
  3
"TITLEAPP"
 90
        0
280
     0
281
     0
  0
CLASS
  1
ACMSTANDARDANSI
  2
AcmStandardANSI
  3
"Amdt_StdImp|Product Description: AutoCAD Mechanical 2000|Company: Autodesk"
 90
        0
280
     0
281
     0
  0
CLASS
  1
ACMSURFSTANDARDANSI
  2
AcmSurfTextStdANSI
  3
"Amdt_StdImp|Product Description: AutoCAD Mechanical 2000|Company: Autodesk"
 90
        0
280
     0
281
     0
  0
CLASS
  1
ACMFCFSTANDARDANSI
  2
AcmFCFStdANSI
  3
"Amdt_StdImp|Product Description: AutoCAD Mechanical 2000|Company: Autodesk"
 90
        0
280
     0
281
     0
  0
CLASS
  1
ACMWELDSTANDARDANSI
  2
AcmWeldingStdANSI
  3
"Amdt_StdImp|Product Description: AutoCAD Mechanical 2000|Company: Autodesk"
 90
        0
280
     0
281
     0
  0
CLASS
  1
ACMIDSTANDARDANSI
  2
AcmIdStdANSI
  3
"Amdt_StdImp|Product Description: AutoCAD Mechanical 2000|Company: Autodesk"
 90
        0
280
     0
281
     0
  0
CLASS
  1
ACMDATUMSTANDARDANSI
  2
AcmDatumStdANSI
  3
"Amdt_StdImp|Product Description: AutoCAD Mechanical 2000|Company: Autodesk"
 90
        0
280
     0
281
     0
  0
CLASS
  1
ACMBOMSTANDARDANSI
  2
AcmBOMStdANSI
  3
"Amdt_StdImp|Product Description: AutoCAD Mechanical 2000|Company: Autodesk"
 90
        0
280
     0
281
     0
  0
CLASS
  1
ACMDETAILSTANDARDANSI
  2
AmdtDetailSymStdANSI
  3
"Amdt_StdImp|Product Description: AutoCAD Mechanical 2000|Company: Autodesk"
 90
        0
280
     0
281
     0
  0
CLASS
  1
ACMSECTIONSTANDARDANSI
  2
AmdtSectionSymStdANSI
  3
"Amdt_StdImp|Product Description: AutoCAD Mechanical 2000|Company: Autodesk"
 90
        0
280
     0
281
     0
  0
CLASS
  1
ACMCENTERLINESTANDARDANSI
  2
AmdtCenterLineStdANSI
  3
"Amdt_StdImp|Product Description: AutoCAD Mechanical 2000|Company: Autodesk"
 90
        0
280
     0
281
     0
  0
CLASS
  1
ACMNOTESTANDARDANSI
  2
AmdtNoteStdANSI
  3
"Amdt_StdImp|Product Description: AutoCAD Mechanical 2000|Company: Autodesk"
 90
        0
280
     0
281
     0
  0
CLASS
  1
ACAMGHOLECHARTSTDANSI
  2
AcAmgHoleChartStdANSI
  3
ACMSYMBB_MODULE_NAME
 90
        0
280
     0
281
     0
  0
CLASS
  1
ACAMGFILTERDAT
  2
AcAmgFilterDat
  3
"AcadM|Product Description: AutoCAD Mechanical 2000|Company: Autodesk"
 90
        0
280
     0
281
     0
  0
CLASS
  1
AMDTFORMULAUPDATEDISPATCHER
  2
AmdtFormulaUpdateDispatcher
  3
AcMeServices
 90
        0
280
     0
281
     0
  0
CLASS
  1
LAYER_INDEX
  2
AcDbLayerIndex
  3
AutoCAD 2000
 90
        0
280
     0
281
     0
  0
CLASS
  1
IDBUFFER
  2
AcDbIdBuffer
  3
AutoCAD 2000
 90
        0
280
     0
281
     0
  0
CLASS
  1
DICTIONARYVAR
  2
AcDbDictionaryVar
  3
AutoCAD 2000
 90
        0
280
     0
281
     0
  0
CLASS
  1
DIMASSOC
  2
AcDbDimAssoc
  3
"AcDbDimAssoc|Product Desc:     AcDim ARX App For Dimension|Company:          Autodesk, Inc.|WEB Address:      www.autodesk.com"
 90
        0
280
     0
281
     0
  0
CLASS
  1
ACMDIMBREAKPERSREACTOR
  2
AcmDimBreakPersReactor
  3
amgDimApp().moduleName()
 90
     1023
280
     0
281
     0
  0
CLASS
  1
ACMSURFSYM
  2
AcmSurfaceTexture
  3
"AcmSymBB|Product Description: AutoCAD Mechanical 2000|Company: Autodesk"
 90
     1023
280
     0
281
     1
  0
CLASS
  1
ACMFCFRAME
  2
AcmFCF
  3
"AcmSymBB|Product Description: AutoCAD Mechanical 2000|Company: Autodesk"
 90
     1023
280
     0
281
     1
  0
CLASS
  1
LONG_TRANSACTION
  2
AcDbLongTransaction
  3
AutoCAD 2000
 90
        0
280
     0
281
     0
  0
CLASS
  1
LWPOLYLINE
  2
AcDbPolyline
  3
AutoCAD 2000
 90
        0
280
     0
281
     1
  0
CLASS
  1
HATCH
  2
AcDbHatch
  3
AutoCAD 2000
 90
        0
280
     0
281
     1
  0
CLASS
  1
XRECORD
  2
AcDbXrecord
  3
AutoCAD 2000
 90
        0
280
     0
281
     0
  0
ENDSEC
  0
SECTION
  2
TABLES
  0
TABLE
  2
VPORT
  5
8
330
0
100
AcDbSymbolTable
 70
     4
  0
VPORT
  5
2D2C
330
8
100
AcDbSymbolTableRecord
100
AcDbViewportTableRecord
  2
*ACTIVE
 70
     0
 10
0.0
 20
0.0
 11
1.0
 21
1.0
 12
183.4891764222111
 22
139.9928147919119
 13
0.0
 23
0.0
 14
2.5
 24
2.5
 15
10.0
 25
10.0
 16
0.0
 26
0.0
 36
1.0
 17
0.0
 27
0.0
 37
0.0
 40
317.5426217691667
 41
1.72607879924953
 42
50.0
 43
0.0
 44
0.0
 50
0.0
 51
0.0
 71
     0
 72
 10000
 73
     1
 74
     3
 75
     0
 76
     0
 77
     0
 78
     0
  0
ENDTAB
  0
TABLE
  2
LTYPE
  5
5
330
0
100
AcDbSymbolTable
 70
    16
  0
LTYPE
  5
14
330
5
100
AcDbSymbolTableRecord
100
AcDbLinetypeTableRecord
  2
BYBLOCK
 70
     0
  3

 72
    65
 73
     0
 40
0.0
  0
LTYPE
  5
15
330
5
100
AcDbSymbolTableRecord
100
AcDbLinetypeTableRecord
  2
BYLAYER
 70
     0
  3

 72
    65
 73
     0
 40
0.0
  0
LTYPE
  5
16
330
5
100
AcDbSymbolTableRecord
100
AcDbLinetypeTableRecord
  2
CONTINUOUS
 70
     0
  3
Solid line
 72
    65
 73
     0
 40
0.0
  0
LTYPE
  5
50
330
5
100
AcDbSymbolTableRecord
100
AcDbLinetypeTableRecord
  2
AMCONSTR
 70
     0
  3
_______________________
 72
    65
 73
     2
 40
9999.0
 49
9999.0
 74
     0
 49
0.0
 74
     0
  0
LTYPE
  5
55
330
5
100
AcDbSymbolTableRecord
100
AcDbLinetypeTableRecord
  2
AMZIGZAG
 70
     0
  3
/\/-/\/-/\/-/\/-/\/-/\/
 72
    65
 73
     2
 40
11.00009999999999
 49
0.0001
 74
     4
 75
   135
340
54
 46
0.04
 50
0.0
 44
0.0
 45
0.0
 49
-11.0
 74
     0
  0
LTYPE
  5
56
330
5
100
AcDbSymbolTableRecord
100
AcDbLinetypeTableRecord
  2
AM_DIN_F_W050
 70
     0
  3
__ __ __ __ __ __ __ __ __ __ __ __ __ __ __
 72
    65
 73
     2
 40
6.25
 49
4.75
 74
     0
 49
-1.5
 74
     0
  0
LTYPE
  5
57
330
5
100
AcDbSymbolTableRecord
100
AcDbLinetypeTableRecord
  2
AM_DIN_G_W050
 70
     0
  3
____ . ____ . ____ . ____ . ____ . ____ . ____
 72
    65
 73
     4
 40
13.75
 49
9.75
 74
     0
 49
-1.5
 74
     0
 49
1.0
 74
     0
 49
-1.5
 74
     0
  0
LTYPE
  5
58
330
5
100
AcDbSymbolTableRecord
100
AcDbLinetypeTableRecord
  2
AM_DIN_K_W050
 70
     0
  3
_____ . . _____ . . _____ . . ____ .. ____
 72
    65
 73
     6
 40
16.25
 49
9.75
 74
     0
 49
-1.5
 74
     0
 49
1.0
 74
     0
 49
-1.5
 74
     0
 49
1.0
 74
     0
 49
-1.5
 74
     0
  0
LTYPE
  5
59
330
5
100
AcDbSymbolTableRecord
100
AcDbLinetypeTableRecord
  2
AM_DIN_G_W050X2
 70
     0
  3
__ . __ . __ . __ . __ . __
 72
    65
 73
     4
 40
6.875
 49
4.75
 74
     0
 49
-0.875
 74
     0
 49
0.375
 74
     0
 49
-0.875
 74
     0
  0
LTYPE
  5
5A
330
5
100
AcDbSymbolTableRecord
100
AcDbLinetypeTableRecord
  2
AM_DIN_F_W050X2
 70
     0
  3
 _ _ _ _ _ _ _ _ _ _ _ _
 72
    65
 73
     2
 40
3.125
 49
2.25
 74
     0
 49
-0.875
 74
     0
  0
LTYPE
  5
68
330
5
100
AcDbSymbolTableRecord
100
AcDbLinetypeTableRecord
  2
ACDINWELD
 70
     0
  3
_ _ _ _ _
 72
    65
 73
     2
 40
2.0
 49
2.0
 74
     0
 49
-1.0
 74
     0
  0
LTYPE
  5
69
330
5
100
AcDbSymbolTableRecord
100
AcDbLinetypeTableRecord
  2
ACDINTGB
 70
     0
  3
__ . . __ . .
 72
    65
 73
     6
 40
9.0
 49
4.0
 74
     0
 49
-1.0
 74
     0
 49
1.0
 74
     0
 49
-1.0
 74
     0
 49
1.0
 74
     0
 49
-1.0
 74
     0
  0
LTYPE
  5
6A
330
5
100
AcDbSymbolTableRecord
100
AcDbLinetypeTableRecord
  2
ACDINTGL
 70
     0
  3
_ _ _ _ _
 72
    65
 73
     2
 40
3.0
 49
2.0
 74
     0
 49
-1.0
 74
     0
  0
LTYPE
  5
6C
330
5
100
AcDbSymbolTableRecord
100
AcDbLinetypeTableRecord
  2
CENTER
 70
     0
  3
__ . __
 72
    65
 73
     4
 40
7.0
 49
4.0
 74
     0
 49
-1.0
 74
     0
 49
1.0
 74
     0
 49
-1.0
 74
     0
  0
LTYPE
  5
1E2C
330
5
100
AcDbSymbolTableRecord
100
AcDbLinetypeTableRecord
  2
PHANTOM2
 70
     0
  3
Phantom (.5x) ___ _ _ ___ _ _ ___ _ _ ___ _ _
 72
    65
 73
     6
 40
1.25
 49
0.625
 74
     0
 49
-0.125
 74
     0
 49
0.125
 74
     0
 49
-0.125
 74
     0
 49
0.125
 74
     0
 49
-0.125
 74
     0
  0
LTYPE
  5
1E2D
330
5
100
AcDbSymbolTableRecord
100
AcDbLinetypeTableRecord
  2
ACANSTGB
 70
     0
  3
__ . . __ . .
 72
    65
 73
     6
 40
0.35433070866
 49
0.15748031496
 74
     0
 49
-0.03937007874
 74
     0
 49
0.03937007874
 74
     0
 49
-0.03937007874
 74
     0
 49
0.03937007874
 74
     0
 49
-0.03937007874
 74
     0
  0
LTYPE
  5
1E2E
330
5
100
AcDbSymbolTableRecord
100
AcDbLinetypeTableRecord
  2
ACANSTGL
 70
     0
  3
_ _ _ _ _
 72
    65
 73
     2
 40
0.11811023622
 49
0.07874015748
 74
     0
 49
-0.03937007874
 74
     0
  0
LTYPE
  5
2896
330
5
100
AcDbSymbolTableRecord
100
AcDbLinetypeTableRecord
  2
HIDDEN
 70
     0
  3
Hidden __ __ __ __ __ __ __ __ __ __ __ __ __ _
 72
    65
 73
     2
 40
0.375
 49
0.25
 74
     0
 49
-0.125
 74
     0
  0
ENDTAB
  0
TABLE
  2
LAYER
  5
2
330
0
100
AcDbSymbolTable
 70
     9
  0
LAYER
  5
10
330
2
100
AcDbSymbolTableRecord
100
AcDbLayerTableRecord
  2
0
 70
     0
 62
     7
  6
CONTINUOUS
  0
LAYER
  5
263
330
2
100
AcDbSymbolTableRecord
100
AcDbLayerTableRecord
  2
DEFPOINTS
 70
     0
 62
     7
  6
CONTINUOUS
  0
LAYER
  5
1E30
330
2
100
AcDbSymbolTableRecord
100
AcDbLayerTableRecord
  2
1
 70
     0
 62
     4
  6
CONTINUOUS
  0
LAYER
  5
1E31
330
2
100
AcDbSymbolTableRecord
100
AcDbLayerTableRecord
  2
2
 70
     0
 62
     7
  6
CONTINUOUS
  0
LAYER
  5
1E33
330
2
100
AcDbSymbolTableRecord
100
AcDbLayerTableRecord
  2
6
 70
     0
 62
     5
  6
CONTINUOUS
  0
LAYER
  5
1E34
330
2
100
AcDbSymbolTableRecord
100
AcDbLayerTableRecord
  2
SK1
 70
     0
 62
     4
  6
CONTINUOUS
  0
LAYER
  5
1E37
330
2
100
AcDbSymbolTableRecord
100
AcDbLayerTableRecord
  2
CUT
 70
     0
 62
     1
  6
CONTINUOUS
  0
LAYER
  5
266A
330
2
100
AcDbSymbolTableRecord
100
AcDbLayerTableRecord
  2
SK4
 70
     0
 62
     2
  6
CENTER
  0
LAYER
  5
289A
330
2
100
AcDbSymbolTableRecord
100
AcDbLayerTableRecord
  2
3
 70
     0
 62
     1
  6
HIDDEN
  0
ENDTAB
  0
TABLE
  2
STYLE
  5
3
330
0
100
AcDbSymbolTable
 70
     6
  0
STYLE
  5
11
330
3
100
AcDbSymbolTableRecord
100
AcDbTextStyleTableRecord
  2
STANDARD
 70
     0
 40
0.0
 41
1.0
 50
0.0
 71
     0
 42
3.5
  3
ISOCP.SHX
  4

  0
STYLE
  5
54
330
3
100
AcDbSymbolTableRecord
100
AcDbTextStyleTableRecord
  2

 70
     1
 40
0.0
 41
1.0
 50
0.0
 71
     0
 42
2.5
  3
ltypeshp.shx
  4

  0
STYLE
  5
5B
330
3
100
AcDbSymbolTableRecord
100
AcDbTextStyleTableRecord
  2
ACDINTS
 70
     0
 40
1.0
 41
1.0
 50
0.0
 71
     0
 42
2.5
  3
isocp.shx
  4

  0
STYLE
  5
67
330
3
100
AcDbSymbolTableRecord
100
AcDbTextStyleTableRecord
  2
ACDINGDT
 70
     0
 40
0.0
 41
1.0
 50
0.0
 71
     0
 42
2.5
  3
amgdt.shx
  4

  0
STYLE
  5
1E39
330
3
100
AcDbSymbolTableRecord
100
AcDbTextStyleTableRecord
  2
ACANSTS
 70
     0
 40
1.0
 41
1.0
 50
0.0
 71
     0
 42
0.2
  3
romans.shx
  4

  0
STYLE
  5
1E3A
330
3
100
AcDbSymbolTableRecord
100
AcDbTextStyleTableRecord
  2
ACANSGDT
 70
     0
 40
0.0
 41
1.0
 50
0.0
 71
     0
 42
0.2
  3
amgdtans.shx
  4

  0
ENDTAB
  0
TABLE
  2
VIEW
  5
6
330
0
100
AcDbSymbolTable
 70
     0
  0
ENDTAB
  0
TABLE
  2
UCS
  5
7
330
0
100
AcDbSymbolTable
 70
     0
  0
ENDTAB
  0
TABLE
  2
APPID
  5
9
330
0
100
AcDbSymbolTable
 70
    67
  0
APPID
  5
12
330
9
100
AcDbSymbolTableRecord
100
AcDbRegAppTableRecord
  2
ACAD
 70
     0
  0
APPID
  5
2C
330
9
100
AcDbSymbolTableRecord
100
AcDbRegAppTableRecord
  2
MCAD_NO_VIS
 70
     0
  0
APPID
  5
2D
330
9
100
AcDbSymbolTableRecord
100
AcDbRegAppTableRecord
  2
ACAD_TEMP_GRAPHIC
 70
     0
  0
APPID
  5
3E
330
9
100
AcDbSymbolTableRecord
100
AcDbRegAppTableRecord
  2
ACATTRIBSERVICES
 70
     0
  0
APPID
  5
29A
330
9
100
AcDbSymbolTableRecord
100
AcDbRegAppTableRecord
  2
GENIUS_GENDIMSH_14
 70
     0
  0
APPID
  5
588
330
9
100
AcDbSymbolTableRecord
100
AcDbRegAppTableRecord
  2
GENIUS12
 70
     0
  0
APPID
  5
589
330
9
100
AcDbSymbolTableRecord
100
AcDbRegAppTableRecord
  2
GENIUS_GENOENT_13
 70
     0
  0
APPID
  5
58A
330
9
100
AcDbSymbolTableRecord
100
AcDbRegAppTableRecord
  2
GENIUS_GENODEF_13
 70
     0
  0
APPID
  5
58B
330
9
100
AcDbSymbolTableRecord
100
AcDbRegAppTableRecord
  2
GENIUS_GENOBJ-N-RSBK_13
 70
     0
  0
APPID
  5
58C
330
9
100
AcDbSymbolTableRecord
100
AcDbRegAppTableRecord
  2
GENIUS_GENOBJ-N-DIM12_13
 70
     0
  0
APPID
  5
58D
330
9
100
AcDbSymbolTableRecord
100
AcDbRegAppTableRecord
  2
GENIUS_GENSCALE_13
 70
     0
  0
APPID
  5
58E
330
9
100
AcDbSymbolTableRecord
100
AcDbRegAppTableRecord
  2
GENIUS_GENCFG_13
 70
     0
  0
APPID
  5
58F
330
9
100
AcDbSymbolTableRecord
100
AcDbRegAppTableRecord
  2
GENIUS_GENCFG0_13
 70
     0
  0
APPID
  5
590
330
9
100
AcDbSymbolTableRecord
100
AcDbRegAppTableRecord
  2
GENIUS_GENCFG1_13
 70
     0
  0
APPID
  5
591
330
9
100
AcDbSymbolTableRecord
100
AcDbRegAppTableRecord
  2
GENIUS_GENCFG2_13
 70
     0
  0
APPID
  5
592
330
9
100
AcDbSymbolTableRecord
100
AcDbRegAppTableRecord
  2
GENIUS_GENCFG3_13
 70
     0
  0
APPID
  5
593
330
9
100
AcDbSymbolTableRecord
100
AcDbRegAppTableRecord
  2
GENIUS_GENCFG4_13
 70
     0
  0
APPID
  5
594
330
9
100
AcDbSymbolTableRecord
100
AcDbRegAppTableRecord
  2
GENIUS_GEVCFG0_13
 70
     0
  0
APPID
  5
595
330
9
100
AcDbSymbolTableRecord
100
AcDbRegAppTableRecord
  2
GENIUS_GENOBJ-F-SUF_13
 70
     0
  0
APPID
  5
596
330
9
100
AcDbSymbolTableRecord
100
AcDbRegAppTableRecord
  2
GENIUS_GEFCFG0_13
 70
     0
  0
APPID
  5
597
330
9
100
AcDbSymbolTableRecord
100
AcDbRegAppTableRecord
  2
GEV_VCCNULL_SWITCH_OFF
 70
     0
  0
APPID
  5
598
330
9
100
AcDbSymbolTableRecord
100
AcDbRegAppTableRecord
  2
GENIUS_GENDTOL_13
 70
     0
  0
APPID
  5
599
330
9
100
AcDbSymbolTableRecord
100
AcDbRegAppTableRecord
  2
GENIUS_GENDIM_13
 70
     0
  0
APPID
  5
59A
330
9
100
AcDbSymbolTableRecord
100
AcDbRegAppTableRecord
  2
GENIUS_GE3DTOL_13
 70
     0
  0
APPID
  5
59B
330
9
100
AcDbSymbolTableRecord
100
AcDbRegAppTableRecord
  2
AD_DRAW
 70
     0
  0
APPID
  5
59C
330
9
100
AcDbSymbolTableRecord
100
AcDbRegAppTableRecord
  2
ASURF_PCURVE_APPNAME
 70
     0
  0
APPID
  5
59D
330
9
100
AcDbSymbolTableRecord
100
AcDbRegAppTableRecord
  2
AMG_3D2D_5_0
 70
     0
  0
APPID
  5
59E
330
9
100
AcDbSymbolTableRecord
100
AcDbRegAppTableRecord
  2
DESIGNERASSEMBLIES
 70
     0
  0
APPID
  5
59F
330
9
100
AcDbSymbolTableRecord
100
AcDbRegAppTableRecord
  2
ACADM_DIM_EDIT
 70
     0
  0
APPID
  5
5A0
330
9
100
AcDbSymbolTableRecord
100
AcDbRegAppTableRecord
  2
AMDT_DM_ADJ
 70
     0
  0
APPID
  5
5A1
330
9
100
AcDbSymbolTableRecord
100
AcDbRegAppTableRecord
  2
GENIUS_GENSCREG_15
 70
     0
  0
APPID
  5
5A2
330
9
100
AcDbSymbolTableRecord
100
AcDbRegAppTableRecord
  2
GENIUS_GENOBJ-N-SDF_13
 70
     0
  0
APPID
  5
6E4
330
9
100
AcDbSymbolTableRecord
100
AcDbRegAppTableRecord
  2
GENIUS_GENOBJ-N-FIL_13
 70
     0
  0
APPID
  5
C65
330
9
100
AcDbSymbolTableRecord
100
AcDbRegAppTableRecord
  2
GENIUS_GENHINW_13
 70
     0
  0
APPID
  5
C66
330
9
100
AcDbSymbolTableRecord
100
AcDbRegAppTableRecord
  2
GENIUS_GENOBJ-F-TOLL_13
 70
     0
  0
APPID
  5
C67
330
9
100
AcDbSymbolTableRecord
100
AcDbRegAppTableRecord
  2
GENIUS_GENOREF_13
 70
     0
  0
APPID
  5
C68
330
9
100
AcDbSymbolTableRecord
100
AcDbRegAppTableRecord
  2
GENIUS_GENOLIS_13
 70
     0
  0
APPID
  5
C69
330
9
100
AcDbSymbolTableRecord
100
AcDbRegAppTableRecord
  2
GENIUS_GEFTOLC_13
 70
     0
  0
APPID
  5
C6A
330
9
100
AcDbSymbolTableRecord
100
AcDbRegAppTableRecord
  2
GENIUS_GENOBJ-F-TOL_13
 70
     0
  0
APPID
  5
C6B
330
9
100
AcDbSymbolTableRecord
100
AcDbRegAppTableRecord
  2
GENIUS_GENOBJ-N-RSSYM_13
 70
     0
  0
APPID
  5
C6C
330
9
100
AcDbSymbolTableRecord
100
AcDbRegAppTableRecord
  2
GENIUS_GENSYMENT_13
 70
     0
  0
APPID
  5
C6D
330
9
100
AcDbSymbolTableRecord
100
AcDbRegAppTableRecord
  2
GENIUS_GENSCSYM_13
 70
     0
  0
APPID
  5
1E42
330
9
100
AcDbSymbolTableRecord
100
AcDbRegAppTableRecord
  2
GENIUS_GENBLLY_14
 70
     0
  0
APPID
  5
1E43
330
9
100
AcDbSymbolTableRecord
100
AcDbRegAppTableRecord
  2
GENIUS_GENTRA_14
 70
     0
  0
APPID
  5
1E44
330
9
100
AcDbSymbolTableRecord
100
AcDbRegAppTableRecord
  2
GENIUS_GENOBJ-N-TIT_13
 70
     0
  0
APPID
  5
1E45
330
9
100
AcDbSymbolTableRecord
100
AcDbRegAppTableRecord
  2
GENIUS_GENTITLE_13
 70
     0
  0
APPID
  5
1E46
330
9
100
AcDbSymbolTableRecord
100
AcDbRegAppTableRecord
  2
ACADIGES
 70
     0
  0
APPID
  5
1E47
330
9
100
AcDbSymbolTableRecord
100
AcDbRegAppTableRecord
  2
GENIUS_GENOBJ-N-HTC_13
 70
     0
  0
APPID
  5
1E48
330
9
100
AcDbSymbolTableRecord
100
AcDbRegAppTableRecord
  2
GENIUS_GENHATCH_13
 70
     0
  0
APPID
  5
1E49
330
9
100
AcDbSymbolTableRecord
100
AcDbRegAppTableRecord
  2
GENIUS_GENOBJ-N-CRS_13
 70
     0
  0
APPID
  5
1E4A
330
9
100
AcDbSymbolTableRecord
100
AcDbRegAppTableRecord
  2
GENIUS_GENFIL_13
 70
     0
  0
APPID
  5
1E4B
330
9
100
AcDbSymbolTableRecord
100
AcDbRegAppTableRecord
  2
GENIUS_GENOBJ-N-CHA_13
 70
     0
  0
APPID
  5
1E4C
330
9
100
AcDbSymbolTableRecord
100
AcDbRegAppTableRecord
  2
GENIUS_GENOBJ-N-CEN_13
 70
     0
  0
APPID
  5
2298
330
9
100
AcDbSymbolTableRecord
100
AcDbRegAppTableRecord
  2
AD_SKETCHDIM
 70
     0
  0
APPID
  5
24C2
330
9
100
AcDbSymbolTableRecord
100
AcDbRegAppTableRecord
  2
GENIUS_FIRSTVISTXT_14
 70
     0
  0
APPID
  5
24C3
330
9
100
AcDbSymbolTableRecord
100
AcDbRegAppTableRecord
  2
GENIUS_SECONDVISTXT_14
 70
     0
  0
APPID
  5
24C4
330
9
100
AcDbSymbolTableRecord
100
AcDbRegAppTableRecord
  2
GENIUS_GENOBJ-N-HINW_13
 70
     0
  0
APPID
  5
24C5
330
9
100
AcDbSymbolTableRecord
100
AcDbRegAppTableRecord
  2
GENIUS_GENOBJ-N-PAL_13
 70
     0
  0
APPID
  5
24C6
330
9
100
AcDbSymbolTableRecord
100
AcDbRegAppTableRecord
  2
GENIUS_GENPAL_13
 70
     0
  0
APPID
  5
24C7
330
9
100
AcDbSymbolTableRecord
100
AcDbRegAppTableRecord
  2
GENIUS_GENSCREG_13
 70
     0
  0
APPID
  5
24C8
330
9
100
AcDbSymbolTableRecord
100
AcDbRegAppTableRecord
  2
GENIUS_GE3CFG0_13
 70
     0
  0
APPID
  5
24C9
330
9
100
AcDbSymbolTableRecord
100
AcDbRegAppTableRecord
  2
GENIUS_GENOBJ-F-EDG_13
 70
     0
  0
APPID
  5
24CA
330
9
100
AcDbSymbolTableRecord
100
AcDbRegAppTableRecord
  2
GENIUS_GENOBJ-F-TOLT_13
 70
     0
  0
APPID
  5
24CB
330
9
100
AcDbSymbolTableRecord
100
AcDbRegAppTableRecord
  2
GENIUS_GENZVEED_13
 70
     0
  0
APPID
  5
24CC
330
9
100
AcDbSymbolTableRecord
100
AcDbRegAppTableRecord
  2
GENIUS_GENREC_14
 70
     0
  0
APPID
  5
24CD
330
9
100
AcDbSymbolTableRecord
100
AcDbRegAppTableRecord
  2
GENIUS_GENOBJ-N-REC_13
 70
     0
  0
APPID
  5
24CE
330
9
100
AcDbSymbolTableRecord
100
AcDbRegAppTableRecord
  2
GENIUS_DUMCFG0_13
 70
     0
  0
ENDTAB
  0
TABLE
  2
DIMSTYLE
  5
A
330
0
100
AcDbSymbolTable
 70
    14
  0
DIMSTYLE
105
6F
102
{ACAD_REACTORS
330
2BE3
330
2BE5
330
2BE6
330
2C93
102
}
330
A
100
AcDbSymbolTableRecord
100
AcDbDimStyleTableRecord
  2
AM_DIN
 70
     0
  3

  4
"
  5

  6

  7

 40
1.0
 41
2.5
 42
0.0
 43
10.0
 44
1.0
 45
0.0
 46
0.0
 47
0.1
 48
0.1
140
3.5
141
0.0
142
0.0
143
0.0393701
144
1.0
145
0.0
146
0.71
147
1.5
 71
     0
 72
     0
 73
     0
 74
     0
 75
     0
 76
     0
 77
     1
 78
     8
170
     0
171
     2
172
     1
173
     0
174
     0
175
     0
176
   256
177
   256
178
     2
270
     2
271
     2
272
     2
273
     2
274
     2
340
11
275
     0
280
     0
281
     0
282
     0
283
     0
284
     8
285
     0
286
     0
287
     3
288
     0
  0
DIMSTYLE
105
70
330
A
100
AcDbSymbolTableRecord
100
AcDbDimStyleTableRecord
  2
AM_DIN$3
 70
     0
  3

  4
"
  5

  6

  7

 40
1.0
 41
3.5
 42
0.0
 43
10.0
 44
1.0
 45
0.0
 46
0.0
 47
0.1
 48
0.1
140
3.5
141
0.0
142
0.0
143
0.0393701
144
1.0
145
0.0
146
0.71
147
1.5
 71
     0
 72
     0
 73
     0
 74
     1
 75
     0
 76
     0
 77
     1
 78
     8
170
     0
171
     2
172
     0
173
     0
174
     0
175
     0
176
   256
177
   256
178
     2
270
     2
271
     2
272
     2
273
     2
274
     2
340
11
275
     0
280
     0
281
     0
282
     0
283
     0
284
     8
285
     0
286
     0
287
     0
288
     1
  0
DIMSTYLE
105
71
330
A
100
AcDbSymbolTableRecord
100
AcDbDimStyleTableRecord
  2
AM_DIN$4
 70
     0
  3

  4
"
  5

  6

  7

 40
1.0
 41
3.5
 42
0.0
 43
10.0
 44
1.0
 45
0.0
 46
0.0
 47
0.1
 48
0.1
140
3.5
141
0.0
142
0.0
143
0.0393701
144
1.0
145
0.0
146
0.71
147
1.5
 71
     0
 72
     0
 73
     0
 74
     1
 75
     0
 76
     0
 77
     1
 78
     8
170
     0
171
     2
172
     0
173
     0
174
     0
175
     0
176
   256
177
   256
178
     2
270
     2
271
     2
272
     2
273
     2
274
     2
340
11
275
     0
280
     0
281
     0
282
     0
283
     0
284
     8
285
     0
286
     0
287
     0
288
     1
  0
DIMSTYLE
105
72
330
A
100
AcDbSymbolTableRecord
100
AcDbDimStyleTableRecord
  2
AM_DIN$6
 70
     0
  3

  4
"
  5

  6

  7

 40
1.0
 41
3.5
 42
0.0
 43
0.0
 44
1.0
 45
0.0
 46
0.0
 47
0.1
 48
0.1
140
3.5
141
0.0
142
0.0
143
0.0393701
144
1.0
145
0.0
146
0.71
147
1.5
 71
     0
 72
     0
 73
     0
 74
     0
 75
     0
 76
     0
 77
     0
 78
     8
170
     0
171
     2
172
     1
173
     0
174
     0
175
     0
176
   256
177
   256
178
     2
270
     2
271
     2
272
     2
273
     2
274
     2
340
11
275
     0
280
     0
281
     0
282
     0
283
     0
284
     8
285
     0
286
     0
287
     3
288
     0
  0
DIMSTYLE
105
73
330
A
100
AcDbSymbolTableRecord
100
AcDbDimStyleTableRecord
  2
AM_DIN$7
 70
     0
  3

  4
"
  5

  6

  7

 40
1.0
 41
3.5
 42
0.0
 43
10.0
 44
1.0
 45
0.0
 46
0.0
 47
0.1
 48
0.1
140
3.5
141
0.0
142
0.0
143
0.0393701
144
1.0
145
0.0
146
0.71
147
1.5
 71
     0
 72
     0
 73
     0
 74
     0
 75
     0
 76
     0
 77
     1
 78
     8
170
     0
171
     2
172
     1
173
     0
174
     0
175
     0
176
   256
177
   256
178
     2
270
     2
271
     2
272
     2
273
     2
274
     2
340
11
275
     0
280
     0
281
     0
282
     0
283
     0
284
     8
285
     0
286
     0
287
     3
288
     0
  0
DIMSTYLE
105
74
330
A
100
AcDbSymbolTableRecord
100
AcDbDimStyleTableRecord
  2
AM_DIN$SF
 70
     0
  3

  4
"
  5

  6

  7

 40
1.0
 41
2.5
 42
1.0
 43
10.0
 44
1.0
 45
0.0
 46
0.0
 47
0.1
 48
0.1
140
3.5
141
0.0
142
0.0
143
0.0393701
144
1.0
145
0.0
146
0.71
147
1.5
 71
     0
 72
     0
 73
     0
 74
     0
 75
     1
 76
     1
 77
     1
 78
     8
170
     0
171
     2
172
     1
173
     0
174
     0
175
     0
176
   256
177
   256
178
     2
270
     2
271
     2
272
     3
273
     2
274
     4
340
11
275
     0
280
     0
281
     0
282
     0
283
     0
284
     8
285
     0
286
     0
287
     3
288
     0
  0
DIMSTYLE
105
79
330
A
100
AcDbSymbolTableRecord
100
AcDbDimStyleTableRecord
  2
AM_DIN$SH
 70
     0
  3

  4
"
  5

  6
GENAXEH
  7

 40
1.0
 41
2.5
 42
1.0
 43
10.0
 44
1.0
 45
0.0
 46
0.0
 47
0.1
 48
0.1
140
3.5
141
0.0
142
0.0
143
0.0393701
144
2.0
145
0.0
146
0.71
147
1.5
 71
     0
 72
     0
 73
     0
 74
     0
 75
     1
 76
     1
 77
     1
 78
     8
170
     0
171
     2
172
     1
173
     1
174
     0
175
     0
176
   256
177
   256
178
     2
270
     2
271
     2
272
     3
273
     2
274
     4
340
11
275
     0
280
     0
281
     0
282
     0
283
     0
284
     8
285
     0
286
     0
287
     3
288
     0
  0
DIMSTYLE
105
1E3B
330
A
100
AcDbSymbolTableRecord
100
AcDbDimStyleTableRecord
  2
STANDARD
 70
     0
  3

  4

  5

  6

  7

 40
1.0
 41
0.18
 42
0.0625
 43
0.38
 44
0.18
 45
0.0
 46
0.0
 47
0.0
 48
0.0
140
0.18
141
0.09
142
0.0
143
25.4
144
1.0
145
0.0
146
1.0
147
0.09
 71
     0
 72
     0
 73
     1
 74
     1
 75
     0
 76
     0
 77
     0
 78
     0
170
     0
171
     2
172
     0
173
     0
174
     0
175
     0
176
     0
177
     0
178
     0
270
     2
271
     2
272
     2
273
     2
274
     2
340
11
275
     0
280
     0
281
     0
282
     0
283
     1
284
     8
285
     8
286
     8
287
     5
288
     0
  0
DIMSTYLE
105
1E3C
330
A
100
AcDbSymbolTableRecord
100
AcDbDimStyleTableRecord
  2
AM_ANSI
 70
     0
  3

  4
mm
  5

  6

  7

 40
1.0
 41
0.1
 42
0.0
 43
0.5
 44
0.1
 45
0.0
 46
0.0
 47
0.1
 48
0.1
140
0.12
141
0.0
142
0.0
143
25.4
144
1.0
145
0.0
146
0.71
147
0.06
 71
     0
 72
     0
 73
     1
 74
     1
 75
     0
 76
     0
 77
     0
 78
     7
170
     0
171
     2
172
     0
173
     0
174
     0
175
     0
176
   256
177
   256
178
     2
270
     2
271
     2
272
     2
273
     2
274
     2
340
11
275
     0
280
     0
281
     0
282
     0
283
     1
284
     8
285
     8
286
     8
287
     5
288
     0
  0
DIMSTYLE
105
1E3D
330
A
100
AcDbSymbolTableRecord
100
AcDbDimStyleTableRecord
  2
AM_ANSI$3
 70
     0
  3

  4
mm
  5

  6

  7

 40
1.0
 41
0.1
 42
0.0
 43
0.5
 44
0.1
 45
0.0
 46
0.0
 47
0.1
 48
0.1
140
0.12
141
0.0
142
0.0
143
25.4
144
1.0
145
0.0
146
0.71
147
0.06
 71
     0
 72
     0
 73
     1
 74
     1
 75
     0
 76
     0
 77
     0
 78
     7
170
     0
171
     2
172
     0
173
     0
174
     0
175
     0
176
   256
177
   256
178
     2
270
     2
271
     2
272
     2
273
     2
274
     2
340
11
275
     0
280
     0
281
     0
282
     0
283
     1
284
     8
285
     8
286
     8
287
     5
288
     0
  0
DIMSTYLE
105
1E3E
330
A
100
AcDbSymbolTableRecord
100
AcDbDimStyleTableRecord
  2
AM_ANSI$4
 70
     0
  3

  4
mm
  5

  6

  7

 40
1.0
 41
0.1
 42
0.0
 43
0.5
 44
0.1
 45
0.0
 46
0.0
 47
0.1
 48
0.1
140
0.12
141
0.0
142
0.0
143
25.4
144
1.0
145
0.0
146
0.71
147
0.06
 71
     0
 72
     0
 73
     1
 74
     1
 75
     0
 76
     0
 77
     0
 78
     7
170
     0
171
     2
172
     0
173
     0
174
     0
175
     0
176
   256
177
   256
178
     2
270
     2
271
     2
272
     2
273
     2
274
     2
340
11
275
     0
280
     0
281
     0
282
     0
283
     1
284
     8
285
     8
286
     8
287
     5
288
     0
  0
DIMSTYLE
105
1E3F
330
A
100
AcDbSymbolTableRecord
100
AcDbDimStyleTableRecord
  2
AM_ANSI$7
 70
     0
  3

  4
mm
  5

  6

  7

 40
1.0
 41
0.1
 42
0.0
 43
0.5
 44
0.1
 45
0.0
 46
0.0
 47
0.1
 48
0.1
140
0.24
141
0.0
142
0.0
143
25.4
144
1.0
145
0.0
146
0.71
147
0.06
 71
     0
 72
     0
 73
     1
 74
     1
 75
     0
 76
     0
 77
     0
 78
     7
170
     0
171
     2
172
     0
173
     0
174
     0
175
     0
176
   256
177
   256
178
     2
270
     2
271
     2
272
     2
273
     2
274
     2
340
11
275
     0
280
     0
281
     0
282
     0
283
     1
284
     8
285
     8
286
     8
287
     5
288
     0
  0
DIMSTYLE
105
1E40
330
A
100
AcDbSymbolTableRecord
100
AcDbDimStyleTableRecord
  2
AM_ANSI$SF
 70
     0
  3

  4
mm
  5

  6

  7

 40
1.0
 41
0.1
 42
0.05
 43
0.5
 44
0.1
 45
0.0
 46
0.0
 47
0.1
 48
0.1
140
0.12
141
0.0
142
0.0
143
25.4
144
1.0
145
0.0
146
0.71
147
0.06
 71
     0
 72
     0
 73
     1
 74
     1
 75
     1
 76
     1
 77
     0
 78
     7
170
     0
171
     2
172
     0
173
     0
174
     0
175
     0
176
   256
177
   256
178
     2
270
     2
271
     2
272
     2
273
     2
274
     2
340
11
275
     0
280
     0
281
     0
282
     0
283
     1
284
     8
285
     8
286
     8
287
     5
288
     0
  0
DIMSTYLE
105
1E41
330
A
100
AcDbSymbolTableRecord
100
AcDbDimStyleTableRecord
  2
AM_ANSI$SH
 70
     0
  3

  4
mm
  5

  6

  7

 40
1.0
 41
0.1
 42
0.05
 43
0.5
 44
0.1
 45
0.0
 46
0.0
 47
0.1
 48
0.1
140
0.12
141
0.0
142
0.0
143
25.4
144
1.0
145
0.0
146
0.71
147
0.06
 71
     0
 72
     0
 73
     1
 74
     1
 75
     1
 76
     1
 77
     0
 78
     7
170
     0
171
     2
172
     0
173
     1
174
     0
175
     0
176
   256
177
   256
178
     2
270
     2
271
     2
272
     2
273
     2
274
     2
340
11
275
     0
280
     0
281
     0
282
     0
283
     1
284
     8
285
     8
286
     8
287
     5
288
     0
  0
ENDTAB
  0
TABLE
  2
BLOCK_RECORD
  5
1
330
0
100
AcDbSymbolTable
 70
     6
  0
BLOCK_RECORD
  5
1F
102
{ACAD_XDICTIONARY
360
1F1
102
}
330
1
100
AcDbSymbolTableRecord
100
AcDbBlockTableRecord
  2
*MODEL_SPACE
  0
BLOCK_RECORD
  5
1B
102
{ACAD_XDICTIONARY
360
2D4E
102
}
330
1
100
AcDbSymbolTableRecord
100
AcDbBlockTableRecord
  2
*PAPER_SPACE
  0
BLOCK_RECORD
  5
75
330
1
100
AcDbSymbolTableRecord
100
AcDbBlockTableRecord
  2
GENAXEH
  0
BLOCK_RECORD
  5
2C08
330
1
100
AcDbSymbolTableRecord
100
AcDbBlockTableRecord
  2
*D2
  0
BLOCK_RECORD
  5
2C16
330
1
100
AcDbSymbolTableRecord
100
AcDbBlockTableRecord
  2
*D3
  0
BLOCK_RECORD
  5
2C22
330
1
100
AcDbSymbolTableRecord
100
AcDbBlockTableRecord
  2
*D4
  0
BLOCK_RECORD
  5
2C94
330
1
100
AcDbSymbolTableRecord
100
AcDbBlockTableRecord
  2
*D5
  0
ENDTAB
  0
ENDSEC
  0
SECTION
  2
BLOCKS
  0
BLOCK
  5
20
330
1F
100
AcDbEntity
  8
0
100
AcDbBlockBegin
  2
*MODEL_SPACE
 70
     0
 10
0.0
 20
0.0
 30
0.0
  3
*MODEL_SPACE
  1

  0
ENDBLK
  5
21
330
1F
100
AcDbEntity
  8
0
100
AcDbBlockEnd
  0
BLOCK
  5
1C
330
1B
100
AcDbEntity
 67
     1
  8
0
100
AcDbBlockBegin
  2
*PAPER_SPACE
 70
     0
 10
0.0
 20
0.0
 30
0.0
  3
*PAPER_SPACE
  1

  0
ENDBLK
  5
1D
330
1B
100
AcDbEntity
 67
     1
  8
0
100
AcDbBlockEnd
  0
BLOCK
  5
77
330
75
100
AcDbEntity
  8
0
100
AcDbBlockBegin
  2
GENAXEH
 70
     0
 10
0.0
 20
0.0
 30
0.0
  3
GENAXEH
  1

  0
LINE
  5
76
330
75
100
AcDbEntity
  8
0
100
AcDbLine
 10
-1.0
 20
0.0
 30
0.0
 11
1.0
 21
0.0
 31
0.0
  0
ENDBLK
  5
78
330
75
100
AcDbEntity
  8
0
100
AcDbBlockEnd
  0
BLOCK
  5
2C14
330
2C08
100
AcDbEntity
  8
0
100
AcDbBlockBegin
  2
*D2
 70
     1
 10
0.0
 20
0.0
 30
0.0
  3
*D2
  1

  0
LINE
  5
2D20
330
2C08
100
AcDbEntity
  8
2
100
AcDbLine
 10
0.0
 20
0.0
 30
0.0
 11
0.000000000000001
 21
16.70424048007396
 31
0.0
  0
LINE
  5
2D21
330
2C08
100
AcDbEntity
  8
2
100
AcDbLine
 10
-4.800000000000011
 20
5.491891033369427
 30
0.0
 11
-4.80000000000001
 21
16.70424048007396
 31
0.0
  0
LINE
  5
2D22
330
2C08
100
AcDbEntity
  8
2
100
AcDbLine
 10
-7.30000000000001
 20
15.70424048007396
 30
0.0
 11
-9.800000000000011
 21
15.70424048007396
 31
0.0
  0
LINE
  5
2D23
330
2C08
100
AcDbEntity
  8
2
100
AcDbLine
 10
2.5
 20
15.70424048007396
 30
0.0
 11
13.25
 21
15.70424048007396
 31
0.0
  0
LINE
  5
2D24
330
2C08
100
AcDbEntity
  8
2
100
AcDbLine
 10
-4.80000000000001
 20
15.70424048007396
 30
0.0
 11
0.000000000000001
 21
15.70424048007396
 31
0.0
  0
SOLID
  5
2D25
330
2C08
100
AcDbEntity
  8
2
100
AcDbTrace
 10
-7.30000000000001
 20
16.12090714674063
 30
0.0
 11
-7.30000000000001
 21
15.28757381340729
 31
0.0
 12
-4.80000000000001
 22
15.70424048007396
 32
0.0
 13
-4.80000000000001
 23
15.70424048007396
 33
0.0
  0
SOLID
  5
2D26
330
2C08
100
AcDbEntity
  8
2
100
AcDbTrace
 10
2.5
 20
16.12090714674063
 30
0.0
 11
2.5
 21
15.28757381340729
 31
0.0
 12
0.000000000000001
 22
15.70424048007396
 32
0.0
 13
0.000000000000001
 23
15.70424048007396
 33
0.0
  0
MTEXT
  5
2D27
330
2C08
100
AcDbEntity
  8
2
 62
     2
100
AcDbMText
 10
9.125000000000001
 20
18.95424048007396
 30
0.0
 40
3.5
 41
0.0
 71
     5
 72
     1
  1
4.8
1001
ACAD
1000
MTEXTBEGIN
1070
    73
1070
     1
1070
    44
1040
1.0
1070
    74
1070
     0
1000
MTEXTEND
  0
POINT
  5
2D28
330
2C08
100
AcDbEntity
  8
DEFPOINTS
 62
     0
100
AcDbPoint
 10
0.0
 20
0.0
 30
0.0
  0
POINT
  5
2D29
330
2C08
100
AcDbEntity
  8
DEFPOINTS
 62
     0
100
AcDbPoint
 10
-4.800000000000011
 20
5.491891033369427
 30
0.0
  0
POINT
  5
2D2A
330
2C08
100
AcDbEntity
  8
DEFPOINTS
 62
     0
100
AcDbPoint
 10
-4.80000000000001
 20
15.70424048007396
 30
0.0
  0
ENDBLK
  5
2C15
330
2C08
100
AcDbEntity
  8
0
100
AcDbBlockEnd
  0
BLOCK
  5
2C20
330
2C16
100
AcDbEntity
  8
0
100
AcDbBlockBegin
  2
*D3
 70
     1
 10
0.0
 20
0.0
 30
0.0
  3
*D3
  1

  0
LINE
  5
2D0C
330
2C16
100
AcDbEntity
  8
2
100
AcDbLine
 10
0.0
 20
0.0
 30
0.0
 11
0.0000000000000015
 21
24.69979908399443
 31
0.0
  0
LINE
  5
2D0D
330
2C16
100
AcDbEntity
  8
2
100
AcDbLine
 10
-11.80000000000001
 20
6.000000000000014
 30
0.0
 11
-11.80000000000001
 21
24.69979908399443
 31
0.0
  0
LINE
  5
2D0E
330
2C16
100
AcDbEntity
  8
2
100
AcDbLine
 10
-2.499999999999998
 20
23.69979908399443
 30
0.0
 11
-9.300000000000009
 21
23.69979908399443
 31
0.0
  0
SOLID
  5
2D0F
330
2C16
100
AcDbEntity
  8
2
100
AcDbTrace
 10
-2.499999999999998
 20
24.1164657506611
 30
0.0
 11
-2.499999999999998
 21
23.28313241732776
 31
0.0
 12
0.0000000000000015
 22
23.69979908399443
 32
0.0
 13
0.0000000000000015
 23
23.69979908399443
 33
0.0
  0
SOLID
  5
2D10
330
2C16
100
AcDbEntity
  8
2
100
AcDbTrace
 10
-9.300000000000009
 20
24.1164657506611
 30
0.0
 11
-9.300000000000009
 21
23.28313241732776
 31
0.0
 12
-11.80000000000001
 22
23.69979908399443
 32
0.0
 13
-11.80000000000001
 23
23.69979908399443
 33
0.0
  0
MTEXT
  5
2D11
330
2C16
100
AcDbEntity
  8
2
 62
     2
100
AcDbMText
 10
-6.3035937210077
 20
26.94979908399443
 30
0.0
 40
3.5
 41
0.0
 71
     5
 72
     1
  1
11.8
1001
ACAD
1000
MTEXTBEGIN
1070
    73
1070
     1
1070
    44
1040
1.0
1070
    74
1070
     0
1000
MTEXTEND
  0
POINT
  5
2D12
330
2C16
100
AcDbEntity
  8
DEFPOINTS
 62
     0
100
AcDbPoint
 10
0.0
 20
0.0
 30
0.0
  0
POINT
  5
2D13
330
2C16
100
AcDbEntity
  8
DEFPOINTS
 62
     0
100
AcDbPoint
 10
-11.80000000000001
 20
6.000000000000014
 30
0.0
  0
POINT
  5
2D14
330
2C16
100
AcDbEntity
  8
DEFPOINTS
 62
     0
100
AcDbPoint
 10
-11.80000000000001
 20
23.69979908399443
 30
0.0
  0
ENDBLK
  5
2C21
330
2C16
100
AcDbEntity
  8
0
100
AcDbBlockEnd
  0
BLOCK
  5
2C2E
330
2C22
100
AcDbEntity
  8
0
100
AcDbBlockBegin
  2
*D4
 70
     1
 10
0.0
 20
0.0
 30
0.0
  3
*D4
  1

  0
LINE
  5
2D53
330
2C22
100
AcDbEntity
  8
2
100
AcDbLine
 10
-0.0000000000000016
 20
-0.035508393236909
 30
0.0
 11
-0.0000000000001545
 21
36.12855112854122
 31
0.0
  0
LINE
  5
2D54
330
2C22
100
AcDbEntity
  8
2
100
AcDbLine
 10
-5.03776336359138
 20
5.765685424949224
 30
0.0
 11
-23.71198137525873
 21
27.26982332703512
 31
0.0
  0
ARC
  5
2D55
330
2C22
100
AcDbEntity
  8
2
100
AcDbCircle
 10
-0.0000000000000016
 20
-0.035508393236909
 30
0.0
 40
35.16405952177812
100
AcDbArc
 50
94.07432005823833
 51
126.8967660816015
  0
SOLID
  5
2D56
330
2C22
100
AcDbEntity
  8
2
100
AcDbTrace
 10
-2.513231480228514
 20
35.45608530675814
 30
0.0
 11
-2.483608430989228
 21
34.62327865488857
 31
0.0
 12
-0.0000000000001474
 22
35.12855112854122
 32
0.0
 13
-0.0000000000001474
 23
35.12855112854122
 33
0.0
  0
SOLID
  5
2D57
330
2C22
100
AcDbEntity
  8
2
100
AcDbTrace
 10
-20.84978210061622
 20
27.76172918251178
 30
0.0
 11
-21.37346856952255
 21
28.40995516681731
 31
0.0
 12
-23.05630328798595
 22
26.51478276794554
 32
0.0
 13
-23.05630328798595
 23
26.51478276794554
 33
0.0
  0
MTEXT
  5
2D58
330
2C22
100
AcDbEntity
  8
2
 62
     2
100
AcDbMText
 10
-13.07804013187945
 20
36.08380548800484
 30
0.0
 40
3.5
 41
0.0
 71
     5
 72
     1
  1
45°
 11
0.9402628707014052
 21
0.3404493119105284
 31
0.0
  0
POINT
  5
2D59
330
2C22
100
AcDbEntity
  8
DEFPOINTS
 62
     0
100
AcDbPoint
 10
-16.13564624429454
 20
31.20792295369005
 30
0.0
  0
POINT
  5
2D5A
330
2C22
100
AcDbEntity
  8
DEFPOINTS
 62
     0
100
AcDbPoint
 10
0.0000000000000284
 20
-7.124473272817168
 30
0.0
  0
POINT
  5
2D5B
330
2C22
100
AcDbEntity
  8
DEFPOINTS
 62
     0
100
AcDbPoint
 10
-0.2343145750507745
 20
0.2343145750508313
 30
0.0
  0
POINT
  5
2D5C
330
2C22
100
AcDbEntity
  8
DEFPOINTS
 62
     0
100
AcDbPoint
 10
-5.03776336359138
 20
5.765685424949224
 30
0.0
  0
POINT
  5
2D5D
330
2C22
100
AcDbEntity
  8
DEFPOINTS
 62
     0
100
AcDbPoint
 10
0.0
 20
-0.3313708498984056
 30
0.0
  0
ENDBLK
  5
2C2F
330
2C22
100
AcDbEntity
  8
0
100
AcDbBlockEnd
  0
BLOCK
  5
2CA0
330
2C94
100
AcDbEntity
  8
0
100
AcDbBlockBegin
  2
*D5
 70
     1
 10
0.0
 20
0.0
 30
0.0
  3
*D5
  1

  0
LINE
  5
2CB7
330
2C94
100
AcDbEntity
  8
2
100
AcDbLine
 10
-5.603448788540618
 20
6.0
 30
0.0
 11
19.58659116720514
 21
5.999999999999992
 31
0.0
  0
LINE
  5
2CB8
330
2C94
100
AcDbEntity
  8
2
100
AcDbLine
 10
0.0
 20
0.0
 30
0.0
 11
19.58659116720514
 21
-0.0000000000000055
 31
0.0
  0
LINE
  5
2CB9
330
2C94
100
AcDbEntity
  8
2
100
AcDbLine
 10
18.58659116720514
 20
8.499999999999992
 30
0.0
 11
18.58659116720514
 21
10.99999999999999
 31
0.0
  0
LINE
  5
2CBA
330
2C94
100
AcDbEntity
  8
2
100
AcDbLine
 10
18.58659116720514
 20
-2.500000000000005
 30
0.0
 11
18.58659116720514
 21
-5.000000000000005
 31
0.0
  0
LINE
  5
2CBB
330
2C94
100
AcDbEntity
  8
2
100
AcDbLine
 10
18.58659116720514
 20
5.999999999999992
 30
0.0
 11
18.58659116720514
 21
-0.0000000000000053
 31
0.0
  0
SOLID
  5
2CBC
330
2C94
100
AcDbEntity
  8
2
100
AcDbTrace
 10
18.16992450053847
 20
8.499999999999992
 30
0.0
 11
19.00325783387181
 21
8.499999999999992
 31
0.0
 12
18.58659116720514
 22
5.999999999999992
 32
0.0
 13
18.58659116720514
 23
5.999999999999992
 33
0.0
  0
SOLID
  5
2CBD
330
2C94
100
AcDbEntity
  8
2
100
AcDbTrace
 10
18.16992450053847
 20
-2.500000000000005
 30
0.0
 11
19.00325783387181
 21
-2.500000000000005
 31
0.0
 12
18.58659116720514
 22
-0.0000000000000053
 32
0.0
 13
18.58659116720514
 23
-0.0000000000000053
 33
0.0
  0
MTEXT
  5
2CBE
330
2C94
100
AcDbEntity
  8
2
 62
     2
100
AcDbMText
 10
15.33659116720514
 20
2.999999999999997
 30
0.0
 40
3.5
 41
0.0
 71
     5
 72
     1
  1
6
 11
0.0000000000000001
 21
1.0
 31
0.0
1001
ACAD
1000
MTEXTBEGIN
1070
    73
1070
     1
1070
    44
1040
1.0
1070
    74
1070
     0
1000
MTEXTEND
  0
POINT
  5
2CBF
330
2C94
100
AcDbEntity
  8
DEFPOINTS
 62
     0
100
AcDbPoint
 10
-5.603448788540618
 20
6.0
 30
0.0
  0
POINT
  5
2CC0
330
2C94
100
AcDbEntity
  8
DEFPOINTS
 62
     0
100
AcDbPoint
 10
0.0
 20
0.0
 30
0.0
  0
POINT
  5
2CC1
330
2C94
100
AcDbEntity
  8
DEFPOINTS
 62
     0
100
AcDbPoint
 10
18.58659116720514
 20
-0.0000000000000053
 30
0.0
  0
ENDBLK
  5
2CA1
330
2C94
100
AcDbEntity
  8
0
100
AcDbBlockEnd
  0
ENDSEC
  0
SECTION
  2
ENTITIES
  0
LINE
  5
252D
330
1F
100
AcDbEntity
  8
1
100
AcDbLine
 10
-18.0
 20
-0.5999999999999801
 30
0.0
 11
-18.50000000000005
 21
-0.5999999999999801
 31
0.0
  0
LINE
  5
252E
330
1F
100
AcDbEntity
  8
1
100
AcDbLine
 10
-18.50000000000005
 20
-0.5999999999999801
 30
0.0
 11
-18.50000000000005
 21
-1.699999999991376
 31
0.0
  0
LINE
  5
252F
330
1F
100
AcDbEntity
  8
SK1
100
AcDbLine
 10
-18.50000000000005
 20
-1.699999999991376
 30
0.0
 11
-18.50000000000005
 21
-1.899999999999977
 31
0.0
  0
LINE
  5
2530
330
1F
100
AcDbEntity
  8
SK1
100
AcDbLine
 10
-18.50000000000005
 20
-1.899999999999977
 30
0.0
 11
-50.50000000000006
 21
-1.899999999999963
 31
0.0
  0
LINE
  5
2531
330
1F
100
AcDbEntity
  8
SK1
100
AcDbLine
 10
-50.50000000000006
 20
-1.899999999999963
 30
0.0
 11
-53.0
 21
-4.399999999999963
 31
0.0
  0
LINE
  5
2532
330
1F
100
AcDbEntity
  8
SK1
100
AcDbLine
 10
-53.0
 20
-4.399999999999963
 30
0.0
 11
-53.00000000000006
 21
-16.99999999999995
 31
0.0
  0
LINE
  5
2533
330
1F
100
AcDbEntity
  8
SK1
100
AcDbLine
 10
-53.00000000000006
 20
-16.99999999999995
 30
0.0
 11
-13.0
 21
-16.99999999999997
 31
0.0
  0
LINE
  5
2534
330
1F
100
AcDbEntity
  8
SK1
100
AcDbLine
 10
-13.0
 20
-16.99999999999997
 30
0.0
 11
-13.0
 21
-14.39999999999997
 31
0.0
  0
LINE
  5
2535
330
1F
100
AcDbEntity
  8
SK1
100
AcDbLine
 10
-13.0
 20
-14.39999999999997
 30
0.0
 11
-8.0
 21
-14.39999999999997
 31
0.0
  0
LINE
  5
2536
330
1F
100
AcDbEntity
  8
SK1
100
AcDbLine
 10
-8.0
 20
-14.39999999999997
 30
0.0
 11
-8.0
 21
-16.99999999999997
 31
0.0
  0
LINE
  5
2537
330
1F
100
AcDbEntity
  8
SK1
100
AcDbLine
 10
-8.0
 20
-16.99999999999997
 30
0.0
 11
-4.999999999993633
 21
-16.99999999999998
 31
0.0
  0
LINE
  5
2538
330
1F
100
AcDbEntity
  8
1
100
AcDbLine
 10
-4.999999999993633
 20
-16.99999999999998
 30
0.0
 11
-4.100000000000022
 21
-16.99999999999998
 31
0.0
  0
LINE
  5
2539
330
1F
100
AcDbEntity
  8
1
100
AcDbLine
 10
-4.100000000000022
 20
-16.99999999999998
 30
0.0
 11
-1.328172851887558
 21
-14.2281728518875
 31
0.0
  0
LINE
  5
253A
330
1F
100
AcDbEntity
  8
1
100
AcDbLine
 10
-1.328172851887558
 20
-14.2281728518875
 30
0.0
 11
-1.328172851887558
 21
-8.784016974603224
 31
0.0
  0
LINE
  5
253B
330
1F
100
AcDbEntity
  8
SK1
100
AcDbLine
 10
-19.02382748498615
 20
-1.899999999999977
 30
0.0
 11
-19.02382748498615
 21
-16.99999999999995
 31
0.0
  0
LINE
  5
253C
330
1F
100
AcDbEntity
  8
SK1
100
AcDbLine
 10
-19.02382748498615
 20
-3.512650189005086
 30
0.0
 11
-22.99153866313309
 21
-12.79999999999998
 31
0.0
  0
LINE
  5
253D
330
1F
100
AcDbEntity
  8
SK1
100
AcDbLine
 10
-22.99153866313309
 20
-12.79999999999998
 30
0.0
 11
-22.99153866313309
 21
-15.59958492358055
 31
0.0
  0
LINE
  5
253E
330
1F
100
AcDbEntity
  8
SK1
100
AcDbLine
 10
-22.99153866313309
 20
-15.59958492358055
 30
0.0
 11
-21.51161651307609
 21
-16.99999999999998
 31
0.0
  0
LINE
  5
253F
330
1F
100
AcDbEntity
  8
SK1
100
AcDbLine
 10
-22.99153866313309
 20
-12.79999999999998
 30
0.0
 11
-53.00000000000003
 21
-12.79999999999996
 31
0.0
  0
LINE
  5
2540
330
1F
100
AcDbEntity
  8
SK1
100
AcDbLine
 10
-53.00000000000006
 20
-15.59958492358053
 30
0.0
 11
-22.99153866313309
 21
-15.59958492358055
 31
0.0
  0
LINE
  5
2541
330
1F
100
AcDbEntity
  8
SK1
100
AcDbLine
 10
-44.94337567297418
 20
-4.428553426369319
 30
0.0
 11
-46.38675134594826
 21
-6.630062578242132
 31
0.0
  0
LINE
  5
2542
330
1F
100
AcDbEntity
  8
SK1
100
AcDbLine
 10
-46.38675134594826
 20
-6.630062578242132
 30
0.0
 11
-44.94337567297418
 21
-8.831571730115001
 31
0.0
  0
LINE
  5
2543
330
1F
100
AcDbEntity
  8
SK1
100
AcDbLine
 10
-44.94337567297418
 20
-8.831571730115001
 30
0.0
 11
-42.05662432702604
 21
-8.831571730115001
 31
0.0
  0
LINE
  5
2544
330
1F
100
AcDbEntity
  8
SK1
100
AcDbLine
 10
-42.05662432702604
 20
-8.831571730115001
 30
0.0
 11
-40.65609105947589
 21
-6.630062578242132
 31
0.0
  0
LINE
  5
2545
330
1F
100
AcDbEntity
  8
SK1
100
AcDbLine
 10
-40.65609105947589
 20
-6.630062578242132
 30
0.0
 11
-42.05662432702604
 21
-4.428553426369319
 31
0.0
  0
LINE
  5
2546
330
1F
100
AcDbEntity
  8
SK1
100
AcDbLine
 10
-42.05662432702604
 20
-4.428553426369319
 30
0.0
 11
-44.94337567297418
 21
-4.428553426369319
 31
0.0
  0
LINE
  5
2547
330
1F
100
AcDbEntity
  8
SK1
100
AcDbLine
 10
-28.94337567295702
 20
-4.428553426369319
 30
0.0
 11
-30.38675134593109
 21
-6.630062578242132
 31
0.0
  0
LINE
  5
2548
330
1F
100
AcDbEntity
  8
SK1
100
AcDbLine
 10
-30.38675134593109
 20
-6.630062578242132
 30
0.0
 11
-28.94337567295702
 21
-8.831571730115001
 31
0.0
  0
LINE
  5
2549
330
1F
100
AcDbEntity
  8
SK1
100
AcDbLine
 10
-28.94337567295702
 20
-8.831571730115001
 30
0.0
 11
-26.05662432700887
 21
-8.831571730115001
 31
0.0
  0
LINE
  5
254A
330
1F
100
AcDbEntity
  8
SK1
100
AcDbLine
 10
-26.05662432700887
 20
-8.831571730115001
 30
0.0
 11
-24.65609105945873
 21
-6.630062578242132
 31
0.0
  0
LINE
  5
254B
330
1F
100
AcDbEntity
  8
SK1
100
AcDbLine
 10
-24.65609105945873
 20
-6.630062578242132
 30
0.0
 11
-26.05662432700887
 21
-4.428553426369319
 31
0.0
  0
LINE
  5
254C
330
1F
100
AcDbEntity
  8
SK1
100
AcDbLine
 10
-26.05662432700887
 20
-4.428553426369319
 30
0.0
 11
-28.94337567295702
 21
-4.428553426369319
 31
0.0
  0
LINE
  5
254D
330
1F
100
AcDbEntity
  8
SK4
100
AcDbLine
 10
-27.49999999998294
 20
-2.726268914870274
 30
0.0
 11
-27.49999999998294
 21
-10.53385624161399
 31
0.0
  0
LINE
  5
254E
330
1F
100
AcDbEntity
  8
SK4
100
AcDbLine
 10
-32.49999999998294
 20
-6.630062578242132
 30
0.0
 11
-22.49999999998294
 21
-6.630062578242132
 31
0.0
  0
LINE
  5
254F
330
1F
100
AcDbEntity
  8
SK4
100
AcDbLine
 10
-38.50000000000011
 20
-6.630062578242132
 30
0.0
 11
-48.50000000000012
 21
-6.630062578242132
 31
0.0
  0
LINE
  5
2550
330
1F
100
AcDbEntity
  8
SK4
100
AcDbLine
 10
-43.50000000000011
 20
-2.726268914870274
 30
0.0
 11
-43.50000000000011
 21
-10.53385624161399
 31
0.0
  0
ELLIPSE
  5
2551
330
1F
100
AcDbEntity
  8
SK1
100
AcDbEllipse
 10
-43.50000000000011
 20
-6.630062578242132
 30
0.0
 11
-5.0
 21
0.0
 31
0.0
210
0.0
220
0.0
230
1.0
 40
0.7807587326743715
 41
0.0
 42
6.283185307179586
  0
ELLIPSE
  5
2552
330
1F
100
AcDbEntity
  8
SK1
100
AcDbEllipse
 10
-27.49999999998294
 20
-6.630062578242132
 30
0.0
 11
-5.0
 21
0.0
 31
0.0
210
0.0
220
0.0
230
1.0
 40
0.7807587326743715
 41
0.0
 42
6.283185307179586
  0
TEXT
  5
2553
330
1F
100
AcDbEntity
  8
6
100
AcDbText
 10
-47.40943321189639
 20
3.314693942047938
 30
0.0
 40
3.5
  1
55L234R00
100
AcDbText
  0
LINE
  5
259C
330
1F
100
AcDbEntity
  8
SK1
100
AcDbLine
 10
0.0
 20
0.4637693698488193
 30
0.0
 11
0.0
 21
-0.6637693698488221
 31
0.0
  0
LINE
  5
259D
330
1F
100
AcDbEntity
  8
SK1
100
AcDbLine
 10
-0.6637693698488079
 20
0.0
 30
0.0
 11
0.6637693698488079
 21
0.0
 31
0.0
  0
CIRCLE
  5
25EC
330
1F
100
AcDbEntity
  8
SK1
100
AcDbCircle
 10
0.0
 20
0.0
 30
0.0
 40
0.6637693698488208
  0
LINE
  5
29BE
330
1F
100
AcDbEntity
  8
3
 48
7.0
100
AcDbLine
 10
-53.00000000000006
 20
-16.99999999999995
 30
0.0
 11
-13.0
 21
-16.99999999999997
 31
0.0
  0
LINE
  5
29BF
330
1F
100
AcDbEntity
  8
3
 48
7.0
100
AcDbLine
 10
-13.0
 20
-14.39999999999997
 30
0.0
 11
-8.0
 21
-14.39999999999997
 31
0.0
  0
LINE
  5
29C0
330
1F
100
AcDbEntity
  8
3
 48
7.0
100
AcDbLine
 10
-13.0
 20
-16.99999999999997
 30
0.0
 11
-13.0
 21
-14.39999999999997
 31
0.0
  0
LINE
  5
29C1
330
1F
100
AcDbEntity
  8
3
 48
7.0
100
AcDbLine
 10
-8.0
 20
-16.99999999999997
 30
0.0
 11
-4.999999999993633
 21
-16.99999999999998
 31
0.0
  0
LINE
  5
29C2
330
1F
100
AcDbEntity
  8
3
 48
7.0
100
AcDbLine
 10
-8.0
 20
-14.39999999999997
 30
0.0
 11
-8.0
 21
-16.99999999999997
 31
0.0
  0
DIMENSION
  5
2BE3
330
1F
100
AcDbEntity
  8
2
100
AcDbDimension
  2
*D2
 10
-4.80000000000001
 20
15.70424048007396
 30
0.0
 11
9.125000000000001
 21
15.70424048007396
 31
0.0
 70
   160
  3
AM_DIN
100
AcDbAlignedDimension
 13
0.0
 23
0.0
 33
0.0
 14
-4.800000000000011
 24
5.491891033369427
 34
0.0
100
AcDbRotatedDimension
  0
TEXT
  5
2BE4
330
1F
100
AcDbEntity
  8
6
100
AcDbText
 10
16.69692489804515
 20
19.25672249759873
 30
0.0
 40
2.5
  1
OFMT0705
100
AcDbText
  0
DIMENSION
  5
2BE5
330
1F
100
AcDbEntity
  8
2
100
AcDbDimension
  2
*D3
 10
-11.80000000000001
 20
23.69979908399443
 30
0.0
 11
-6.3035937210077
 21
23.69979908399443
 31
0.0
 70
   160
  3
AM_DIN
100
AcDbAlignedDimension
 13
0.0
 23
0.0
 33
0.0
 14
-11.80000000000001
 24
6.000000000000014
 34
0.0
100
AcDbRotatedDimension
  0
DIMENSION
  5
2BE6
330
1F
100
AcDbEntity
  8
2
100
AcDbDimension
  2
*D4
 10
0.0
 20
-0.3313708498984056
 30
0.0
 11
-11.97157986817023
 21
33.02795115822528
 31
0.0
 70
   162
  1
45°
  3
AM_DIN
100
AcDb2LineAngularDimension
 13
-0.2343145750507745
 23
0.2343145750508313
 33
0.0
 14
-5.03776336359138
 24
5.765685424949225
 34
0.0
 15
0.0000000000000284
 25
-7.124473272817169
 35
0.0
 16
-16.13564624429454
 26
31.20792295369005
 36
0.0
1001
ACAD
1000
DSTYLE
1002
{
1070
   271
1070
     0
1002
}
  0
LINE
  5
2BE7
330
1F
100
AcDbEntity
  8
CUT
100
AcDbLine
 10
-18.0
 20
-0.331370849898434
 30
0.0
 11
-17.99999999999997
 21
-7.124473272817141
 31
0.0
  0
LINE
  5
2BE8
330
1F
100
AcDbEntity
  8
1
100
AcDbLine
 10
-18.0
 20
-0.331370849898434
 30
0.0
 11
-17.99999999999997
 21
-7.124473272817141
 31
0.0
  0
CIRCLE
  5
2BE9
330
1F
100
AcDbEntity
  8
1
100
AcDbCircle
 10
-8.999999999999943
 20
-3.727922061357816
 30
0.0
 40
4.0
  0
LINE
  5
2BEA
330
1F
100
AcDbEntity
  8
CUT
100
AcDbLine
 10
-12.39655121145929
 20
-12.72792206135781
 30
0.0
 11
-5.603448788540589
 21
-12.72792206135781
 31
0.0
  0
LINE
  5
2BEB
330
1F
100
AcDbEntity
  8
1
100
AcDbLine
 10
-12.39655121145929
 20
-12.72792206135781
 30
0.0
 11
-5.603448788540589
 21
-12.72792206135781
 31
0.0
  0
ARC
  5
2BEC
330
1F
100
AcDbEntity
  8
CUT
100
AcDbCircle
 10
-12.39655121145929
 20
-11.9279220613578
 30
0.0
 40
0.8
100
AcDbArc
 50
224.9999999999993
 51
270.0
1001
GENIUS_GENOBJ-N-FIL_13
1002
{
1000
OWNER
1000
GEN
1002
}
1001
GENIUS_GENODEF_13
1002
{
1000
HIER
1070
     0
1002
}
1002
{
1000
MANEDIT
1070
     0
1002
}
1002
{
1000
NOSEL
1070
     0
1002
}
1002
{
1000
BEHIND
1070
     0
1002
}
1002
{
1000
OTHER
1070
     0
1002
}
1002
{
1000
REACTOR
1002
}
  0
ARC
  5
2BED
330
1F
100
AcDbEntity
  8
1
100
AcDbCircle
 10
-12.39655121145929
 20
-11.9279220613578
 30
0.0
 40
0.8
100
AcDbArc
 50
224.9999999999993
 51
270.0
1001
GENIUS_GENOBJ-N-FIL_13
1002
{
1000
OWNER
1000
GEN
1002
}
1001
GENIUS_GENODEF_13
1002
{
1000
HIER
1070
     0
1002
}
1002
{
1000
MANEDIT
1070
     0
1002
}
1002
{
1000
NOSEL
1070
     0
1002
}
1002
{
1000
BEHIND
1070
     0
1002
}
1002
{
1000
OTHER
1070
     0
1002
}
1002
{
1000
REACTOR
1002
}
  0
LINE
  5
2BEE
330
1F
100
AcDbEntity
  8
CUT
100
AcDbLine
 10
-17.76568542494919
 20
-7.690158697766378
 30
0.0
 11
-12.96223663640853
 21
-12.49360748630704
 31
0.0
  0
LINE
  5
2BEF
330
1F
100
AcDbEntity
  8
1
100
AcDbLine
 10
-17.76568542494919
 20
-7.690158697766378
 30
0.0
 11
-12.96223663640853
 21
-12.49360748630704
 31
0.0
  0
ARC
  5
2BF0
330
1F
100
AcDbEntity
  8
CUT
100
AcDbCircle
 10
-17.19999999999996
 20
-7.124473272817141
 30
0.0
 40
0.8
100
AcDbArc
 50
180.0
 51
224.9999999999998
1001
GENIUS_GENOBJ-N-FIL_13
1002
{
1000
OWNER
1000
GEN
1002
}
1001
GENIUS_GENODEF_13
1002
{
1000
HIER
1070
     0
1002
}
1002
{
1000
MANEDIT
1070
     0
1002
}
1002
{
1000
NOSEL
1070
     0
1002
}
1002
{
1000
BEHIND
1070
     0
1002
}
1002
{
1000
OTHER
1070
     0
1002
}
1002
{
1000
REACTOR
1002
}
  0
ARC
  5
2BF1
330
1F
100
AcDbEntity
  8
1
100
AcDbCircle
 10
-17.19999999999996
 20
-7.124473272817141
 30
0.0
 40
0.8
100
AcDbArc
 50
180.0
 51
224.9999999999998
1001
GENIUS_GENOBJ-N-FIL_13
1002
{
1000
OWNER
1000
GEN
1002
}
1001
GENIUS_GENODEF_13
1002
{
1000
HIER
1070
     0
1002
}
1002
{
1000
MANEDIT
1070
     0
1002
}
1002
{
1000
NOSEL
1070
     0
1002
}
1002
{
1000
BEHIND
1070
     0
1002
}
1002
{
1000
OTHER
1070
     0
1002
}
1002
{
1000
REACTOR
1002
}
  0
ARC
  5
2BF2
330
1F
100
AcDbEntity
  8
CUT
100
AcDbCircle
 10
-17.19999999999998
 20
-0.331370849898434
 30
0.0
 40
0.8
100
AcDbArc
 50
135.0000000000002
 51
180.0
1001
GENIUS_GENODEF_13
1002
{
1000
HIER
1070
     0
1002
}
1002
{
1000
MANEDIT
1070
     0
1002
}
1002
{
1000
NOSEL
1070
     0
1002
}
1002
{
1000
BEHIND
1070
     0
1002
}
1002
{
1000
OTHER
1070
     0
1002
}
1002
{
1000
REACTOR
1002
}
1001
GENIUS_GENOBJ-N-FIL_13
1002
{
1000
OWNER
1000
GEN
1002
}
  0
ARC
  5
2BF3
330
1F
100
AcDbEntity
  8
1
100
AcDbCircle
 10
-17.19999999999998
 20
-0.331370849898434
 30
0.0
 40
0.8
100
AcDbArc
 50
135.0000000000002
 51
180.0
1001
GENIUS_GENODEF_13
1002
{
1000
HIER
1070
     0
1002
}
1002
{
1000
MANEDIT
1070
     0
1002
}
1002
{
1000
NOSEL
1070
     0
1002
}
1002
{
1000
BEHIND
1070
     0
1002
}
1002
{
1000
OTHER
1070
     0
1002
}
1002
{
1000
REACTOR
1002
}
1001
GENIUS_GENOBJ-N-FIL_13
1002
{
1000
OWNER
1000
GEN
1002
}
  0
LINE
  5
2BF4
330
1F
100
AcDbEntity
  8
CUT
100
AcDbLine
 10
-12.96223663640861
 20
5.765685424949253
 30
0.0
 11
-17.76568542494922
 21
0.2343145750508029
 31
0.0
  0
LINE
  5
2BF5
330
1F
100
AcDbEntity
  8
1
100
AcDbLine
 10
-12.96223663640861
 20
5.765685424949253
 30
0.0
 11
-17.76568542494922
 21
0.2343145750508029
 31
0.0
  0
LINE
  5
2BF6
330
1F
100
AcDbEntity
  8
CUT
100
AcDbLine
 10
-5.037763363591352
 20
-12.49360748630704
 30
0.0
 11
-0.234314575050746
 21
-7.690158697766406
 31
0.0
  0
LINE
  5
2BF7
330
1F
100
AcDbEntity
  8
1
100
AcDbLine
 10
-5.037763363591352
 20
-12.49360748630704
 30
0.0
 11
-0.234314575050746
 21
-7.690158697766406
 31
0.0
  0
ARC
  5
2BF8
330
1F
100
AcDbEntity
  8
CUT
100
AcDbCircle
 10
-5.603448788540589
 20
-11.9279220613578
 30
0.0
 40
0.8
100
AcDbArc
 50
270.0
 51
315.0000000000005
1001
GENIUS_GENOBJ-N-FIL_13
1002
{
1000
OWNER
1000
GEN
1002
}
1001
GENIUS_GENODEF_13
1002
{
1000
HIER
1070
     0
1002
}
1002
{
1000
MANEDIT
1070
     0
1002
}
1002
{
1000
NOSEL
1070
     0
1002
}
1002
{
1000
BEHIND
1070
     0
1002
}
1002
{
1000
OTHER
1070
     0
1002
}
1002
{
1000
REACTOR
1002
}
  0
ARC
  5
2BF9
330
1F
100
AcDbEntity
  8
1
100
AcDbCircle
 10
-5.603448788540589
 20
-11.9279220613578
 30
0.0
 40
0.8
100
AcDbArc
 50
270.0
 51
315.0000000000005
1001
GENIUS_GENOBJ-N-FIL_13
1002
{
1000
OWNER
1000
GEN
1002
}
1001
GENIUS_GENODEF_13
1002
{
1000
HIER
1070
     0
1002
}
1002
{
1000
MANEDIT
1070
     0
1002
}
1002
{
1000
NOSEL
1070
     0
1002
}
1002
{
1000
BEHIND
1070
     0
1002
}
1002
{
1000
OTHER
1070
     0
1002
}
1002
{
1000
REACTOR
1002
}
  0
ARC
  5
2BFA
330
1F
100
AcDbEntity
  8
CUT
100
AcDbCircle
 10
-0.799999999999983
 20
-7.124473272817169
 30
0.0
 40
0.8
100
AcDbArc
 50
315.0000000000002
 51
0.0
1001
GENIUS_GENODEF_13
1002
{
1000
HIER
1070
     0
1002
}
1002
{
1000
MANEDIT
1070
     0
1002
}
1002
{
1000
NOSEL
1070
     0
1002
}
1002
{
1000
BEHIND
1070
     0
1002
}
1002
{
1000
OTHER
1070
     0
1002
}
1002
{
1000
REACTOR
1002
}
1001
GENIUS_GENOBJ-N-FIL_13
1002
{
1000
OWNER
1000
GEN
1002
}
  0
ARC
  5
2BFB
330
1F
100
AcDbEntity
  8
1
100
AcDbCircle
 10
-0.799999999999983
 20
-7.124473272817169
 30
0.0
 40
0.8
100
AcDbArc
 50
315.0000000000002
 51
0.0
1001
GENIUS_GENODEF_13
1002
{
1000
HIER
1070
     0
1002
}
1002
{
1000
MANEDIT
1070
     0
1002
}
1002
{
1000
NOSEL
1070
     0
1002
}
1002
{
1000
BEHIND
1070
     0
1002
}
1002
{
1000
OTHER
1070
     0
1002
}
1002
{
1000
REACTOR
1002
}
1001
GENIUS_GENOBJ-N-FIL_13
1002
{
1000
OWNER
1000
GEN
1002
}
  0
LINE
  5
2BFC
330
1F
100
AcDbEntity
  8
CUT
100
AcDbLine
 10
0.0000000000000284
 20
-7.124473272817169
 30
0.0
 11
0.0
 21
-0.3313708498984056
 31
0.0
  0
LINE
  5
2BFD
330
1F
100
AcDbEntity
  8
1
100
AcDbLine
 10
0.0000000000000284
 20
-7.124473272817169
 30
0.0
 11
0.0
 21
-0.3313708498984056
 31
0.0
  0
ARC
  5
2BFE
330
1F
100
AcDbEntity
  8
CUT
100
AcDbCircle
 10
-5.603448788540617
 20
5.199999999999988
 30
0.0
 40
0.8
100
AcDbArc
 50
44.99999999999978
 51
90.0
1001
GENIUS_GENOBJ-N-FIL_13
1002
{
1000
OWNER
1000
GEN
1002
}
1001
GENIUS_GENODEF_13
1002
{
1000
HIER
1070
     0
1002
}
1002
{
1000
MANEDIT
1070
     0
1002
}
1002
{
1000
NOSEL
1070
     0
1002
}
1002
{
1000
BEHIND
1070
     0
1002
}
1002
{
1000
OTHER
1070
     0
1002
}
1002
{
1000
REACTOR
1002
}
  0
ARC
  5
2BFF
330
1F
100
AcDbEntity
  8
CUT
100
AcDbCircle
 10
-12.39655121145938
 20
5.200000000000017
 30
0.0
 40
0.8
100
AcDbArc
 50
90.0
 51
135.0000000000002
1001
GENIUS_GENODEF_13
1002
{
1000
HIER
1070
     0
1002
}
1002
{
1000
MANEDIT
1070
     0
1002
}
1002
{
1000
NOSEL
1070
     0
1002
}
1002
{
1000
BEHIND
1070
     0
1002
}
1002
{
1000
OTHER
1070
     0
1002
}
1002
{
1000
REACTOR
1002
}
1001
GENIUS_GENOBJ-N-FIL_13
1002
{
1000
OWNER
1000
GEN
1002
}
  0
ARC
  5
2C00
330
1F
100
AcDbEntity
  8
1
100
AcDbCircle
 10
-5.603448788540617
 20
5.199999999999988
 30
0.0
 40
0.8
100
AcDbArc
 50
44.99999999999978
 51
90.0
1001
GENIUS_GENOBJ-N-FIL_13
1002
{
1000
OWNER
1000
GEN
1002
}
1001
GENIUS_GENODEF_13
1002
{
1000
HIER
1070
     0
1002
}
1002
{
1000
MANEDIT
1070
     0
1002
}
1002
{
1000
NOSEL
1070
     0
1002
}
1002
{
1000
BEHIND
1070
     0
1002
}
1002
{
1000
OTHER
1070
     0
1002
}
1002
{
1000
REACTOR
1002
}
  0
ARC
  5
2C01
330
1F
100
AcDbEntity
  8
1
100
AcDbCircle
 10
-12.39655121145938
 20
5.200000000000017
 30
0.0
 40
0.8
100
AcDbArc
 50
90.0
 51
135.0000000000002
1001
GENIUS_GENODEF_13
1002
{
1000
HIER
1070
     0
1002
}
1002
{
1000
MANEDIT
1070
     0
1002
}
1002
{
1000
NOSEL
1070
     0
1002
}
1002
{
1000
BEHIND
1070
     0
1002
}
1002
{
1000
OTHER
1070
     0
1002
}
1002
{
1000
REACTOR
1002
}
1001
GENIUS_GENOBJ-N-FIL_13
1002
{
1000
OWNER
1000
GEN
1002
}
  0
LINE
  5
2C02
330
1F
100
AcDbEntity
  8
CUT
100
AcDbLine
 10
-5.603448788540617
 20
6.0
 30
0.0
 11
-12.39655121145938
 21
6.000000000000028
 31
0.0
  0
LINE
  5
2C03
330
1F
100
AcDbEntity
  8
1
100
AcDbLine
 10
-5.603448788540617
 20
6.0
 30
0.0
 11
-12.39655121145938
 21
6.000000000000028
 31
0.0
  0
LINE
  5
2C04
330
1F
100
AcDbEntity
  8
CUT
100
AcDbLine
 10
-0.2343145750507745
 20
0.2343145750508313
 30
0.0
 11
-5.03776336359138
 21
5.765685424949225
 31
0.0
  0
LINE
  5
2C05
330
1F
100
AcDbEntity
  8
1
100
AcDbLine
 10
-0.2343145750507745
 20
0.2343145750508313
 30
0.0
 11
-5.03776336359138
 21
5.765685424949225
 31
0.0
  0
ARC
  5
2C06
330
1F
100
AcDbEntity
  8
CUT
100
AcDbCircle
 10
-0.8000000000000113
 20
-0.3313708498984056
 30
0.0
 40
0.8
100
AcDbArc
 50
0.0
 51
45.00000000000007
1001
GENIUS_GENOBJ-N-FIL_13
1002
{
1000
OWNER
1000
GEN
1002
}
1001
GENIUS_GENODEF_13
1002
{
1000
HIER
1070
     0
1002
}
1002
{
1000
MANEDIT
1070
     0
1002
}
1002
{
1000
NOSEL
1070
     0
1002
}
1002
{
1000
BEHIND
1070
     0
1002
}
1002
{
1000
OTHER
1070
     0
1002
}
1002
{
1000
REACTOR
1002
}
  0
ARC
  5
2C07
330
1F
100
AcDbEntity
  8
1
100
AcDbCircle
 10
-0.8000000000000113
 20
-0.3313708498984056
 30
0.0
 40
0.8
100
AcDbArc
 50
0.0
 51
45.00000000000007
1001
GENIUS_GENOBJ-N-FIL_13
1002
{
1000
OWNER
1000
GEN
1002
}
1001
GENIUS_GENODEF_13
1002
{
1000
HIER
1070
     0
1002
}
1002
{
1000
MANEDIT
1070
     0
1002
}
1002
{
1000
NOSEL
1070
     0
1002
}
1002
{
1000
BEHIND
1070
     0
1002
}
1002
{
1000
OTHER
1070
     0
1002
}
1002
{
1000
REACTOR
1002
}
  0
DIMENSION
  5
2C93
330
1F
100
AcDbEntity
  8
2
100
AcDbDimension
  2
*D5
 10
18.58659116720514
 20
-0.0000000000000053
 30
0.0
 11
15.33659116720514
 21
2.999999999999997
 31
0.0
 70
    32
  3
AM_DIN
100
AcDbAlignedDimension
 13
-5.603448788540617
 23
6.0
 33
0.0
 14
0.0
 24
0.0
 34
0.0
 50
89.99999999999975
100
AcDbRotatedDimension
  0
TEXT
  5
2CC2
330
1F
100
AcDbEntity
  8
6
100
AcDbText
 10
21.5640390212759
 20
8.822119179177434
 30
0.0
 40
3.5
  1
Dmax.=D+12
100
AcDbText
  0
ENDSEC
  0
SECTION
  2
OBJECTS
  0
DICTIONARY
  5
C
330
0
100
AcDbDictionary
  3
ACAD_GROUP
350
D
  3
ACAD_LAYOUT
350
1A
  3
ACAD_MLINESTYLE
350
17
  3
ACAD_PLOTSETTINGS
350
19
  3
ACAD_PLOTSTYLENAME
350
E
  3
ACDBHEADERROUNDTRIPXREC
350
2D2D
  3
ACDBVARIABLEDICTIONARY
350
216
  3
ACMDICTIONARY
350
45
  3
AMG
350
41
  3
AMGSNAPSETTINGS
350
23D
  3
DWGPROPS
350
2CEB
  0
DICTIONARY
  5
1F1
330
1F
100
AcDbDictionary
280
     1
  3
ACAD_INDEX
360
1F2
  3
ACAD_LAYOUTSELFREF
360
2D50
  0
DICTIONARY
  5
2D4E
330
1B
100
AcDbDictionary
280
     1
  3
ACAD_LAYOUTSELFREF
360
2D4F
  0
DICTIONARY
  5
D
102
{ACAD_REACTORS
330
C
102
}
330
C
100
AcDbDictionary
  0
DICTIONARY
  5
1A
102
{ACAD_REACTORS
330
C
102
}
330
C
100
AcDbDictionary
  0
DICTIONARY
  5
17
102
{ACAD_REACTORS
330
C
102
}
330
C
100
AcDbDictionary
  3
STANDARD
350
18
  0
DICTIONARY
  5
19
102
{ACAD_REACTORS
330
C
102
}
330
C
100
AcDbDictionary
  0
ACDBDICTIONARYWDFLT
  5
E
102
{ACAD_REACTORS
330
C
102
}
330
C
100
AcDbDictionary
281
     1
  3
Normal
350
F
100
AcDbDictionaryWithDefault
340
F
  0
DICTIONARY
  5
2D2D
102
{ACAD_REACTORS
330
C
102
}
330
C
100
AcDbDictionary
  3
CEPSNTYPE
350
2D37
  3
DIMSTYLEDATA
350
2D3B
  3
FINGERPRINTGUID
350
2D38
  3
HYPERLINKBASE
350
2D30
  3
INSUNITS
350
2D36
  3
LAYOUTDICT
350
2D32
  3
LWETCUNION
350
2D35
  3
PLOTSETDICT
350
2D33
  3
PLOTSTYLNAMDICT
350
2D34
  3
PSVPSCALE
350
2D3A
  3
PUCSBASE
350
2D3E
  3
PUCSORGBACK
350
2D44
  3
PUCSORGBOTTOM
350
2D40
  3
PUCSORGFRONT
350
2D43
  3
PUCSORGLEFT
350
2D41
  3
PUCSORGRIGHT
350
2D42
  3
PUCSORGTOP
350
2D3F
  3
PUCSORTHOREF
350
2D3C
  3
PUCSORTHOVIEW
350
2D3D
  3
STYLESHEET
350
2D31
  3
TSTACKALIGN
350
2D2E
  3
TSTACKSIZE
350
2D2F
  3
UCSBASE
350
2D47
  3
UCSORGBACK
350
2D4D
  3
UCSORGBOTTOM
350
2D49
  3
UCSORGFRONT
350
2D4C
  3
UCSORGLEFT
350
2D4A
  3
UCSORGRIGHT
350
2D4B
  3
UCSORGTOP
350
2D48
  3
UCSORTHOREF
350
2D45
  3
UCSORTHOVIEW
350
2D46
  3
VERSIONGUID
350
2D39
  0
DICTIONARY
  5
216
102
{ACAD_REACTORS
330
C
102
}
330
C
100
AcDbDictionary
  3
DIMASSOC
350
219
  3
HIDETEXT
350
218
  3
INDEXCTL
350
217
  0
DICTIONARY
  5
45
102
{ACAD_REACTORS
330
C
102
}
330
C
100
AcDbDictionary
  3
ACMSTDDICTIONARY
350
4A
  0
DICTIONARY
  5
41
102
{ACAD_REACTORS
330
C
102
}
330
C
100
AcDbDictionary
  3
ACMGSETTINGS
350
42
  0
DICTIONARY
  5
23D
102
{ACAD_REACTORS
330
C
102
}
330
C
100
AcDbDictionary
  0
XRECORD
  5
2CEB
102
{ACAD_REACTORS
330
C
102
}
330
C
100
AcDbXrecord
  1
DWGPROPS COOKIE
  2

  3

  4

  6

  7

  8

  9

300
AmdtFileType=84
301
=
302
=
303
=
304
=
305
=
306
=
307
=
308
=
309
=
 40
0.0521372453703704
 41
2453599.366006042
 42
2453874.500704733
  1

 90
        1
  0
DICTIONARY
  5
1F2
102
{ACAD_REACTORS
330
1F1
102
}
330
1F1
100
AcDbDictionary
  3
*A1
350
1F3
  0
XRECORD
  5
2D50
102
{ACAD_REACTORS
330
1F1
102
}
330
1F1
100
AcDbXrecord
340
1F
  0
XRECORD
  5
2D4F
102
{ACAD_REACTORS
330
2D4E
102
}
330
2D4E
100
AcDbXrecord
340
1B
  0
MLINESTYLE
  5
18
102
{ACAD_REACTORS
330
17
102
}
330
17
100
AcDbMlineStyle
  2
STANDARD
 70
     0
  3

 62
   256
 51
90.0
 52
90.0
 71
     2
 49
0.5
 62
   256
  6
BYLAYER
 49
-0.5
 62
   256
  6
BYLAYER
  0
ACDBPLACEHOLDER
  5
F
102
{ACAD_REACTORS
330
E
102
}
330
E
100
AcDbPlaceHolder
280
     0
  0
XRECORD
  5
2D37
102
{ACAD_REACTORS
330
2D2D
102
}
330
2D2D
100
AcDbXrecord
 90
        0
  0
XRECORD
  5
2D3B
102
{ACAD_REACTORS
330
2D2D
102
}
330
2D2D
100
AcDbXrecord
1000
DSTYLE
1002
{
1070
    79
 70
     2
1070
   371
 70
    -1
1070
   372
 70
    -1
1002
}
  0
XRECORD
  5
2D38
102
{ACAD_REACTORS
330
2D2D
102
}
330
2D2D
100
AcDbXrecord
  1
{03052709-208C-44F1-88CB-F8F0E550BC5D}
  0
XRECORD
  5
2D30
102
{ACAD_REACTORS
330
2D2D
102
}
330
2D2D
100
AcDbXrecord
  1

  0
XRECORD
  5
2D36
102
{ACAD_REACTORS
330
2D2D
102
}
330
2D2D
100
AcDbXrecord
 90
        4
  0
XRECORD
  5
2D32
102
{ACAD_REACTORS
330
2D2D
102
}
330
2D2D
100
AcDbXrecord
340
1A
  0
XRECORD
  5
2D35
102
{ACAD_REACTORS
330
2D2D
102
}
330
2D2D
100
AcDbXrecord
 90
    10781
  0
XRECORD
  5
2D33
102
{ACAD_REACTORS
330
2D2D
102
}
330
2D2D
100
AcDbXrecord
340
19
  0
XRECORD
  5
2D34
102
{ACAD_REACTORS
330
2D2D
102
}
330
2D2D
100
AcDbXrecord
340
E
  0
XRECORD
  5
2D3A
102
{ACAD_REACTORS
330
2D2D
102
}
330
2D2D
100
AcDbXrecord
 40
0.0
  0
XRECORD
  5
2D3E
102
{ACAD_REACTORS
330
2D2D
102
}
330
2D2D
100
AcDbXrecord
340
0
  0
XRECORD
  5
2D44
102
{ACAD_REACTORS
330
2D2D
102
}
330
2D2D
100
AcDbXrecord
 10
0.0
 20
0.0
 30
0.0
  0
XRECORD
  5
2D40
102
{ACAD_REACTORS
330
2D2D
102
}
330
2D2D
100
AcDbXrecord
 10
0.0
 20
0.0
 30
0.0
  0
XRECORD
  5
2D43
102
{ACAD_REACTORS
330
2D2D
102
}
330
2D2D
100
AcDbXrecord
 10
0.0
 20
0.0
 30
0.0
  0
XRECORD
  5
2D41
102
{ACAD_REACTORS
330
2D2D
102
}
330
2D2D
100
AcDbXrecord
 10
0.0
 20
0.0
 30
0.0
  0
XRECORD
  5
2D42
102
{ACAD_REACTORS
330
2D2D
102
}
330
2D2D
100
AcDbXrecord
 10
0.0
 20
0.0
 30
0.0
  0
XRECORD
  5
2D3F
102
{ACAD_REACTORS
330
2D2D
102
}
330
2D2D
100
AcDbXrecord
 10
0.0
 20
0.0
 30
0.0
  0
XRECORD
  5
2D3C
102
{ACAD_REACTORS
330
2D2D
102
}
330
2D2D
100
AcDbXrecord
340
0
  0
XRECORD
  5
2D3D
102
{ACAD_REACTORS
330
2D2D
102
}
330
2D2D
100
AcDbXrecord
 70
     0
  0
XRECORD
  5
2D31
102
{ACAD_REACTORS
330
2D2D
102
}
330
2D2D
100
AcDbXrecord
  1

  0
XRECORD
  5
2D2E
102
{ACAD_REACTORS
330
2D2D
102
}
330
2D2D
100
AcDbXrecord
 90
        1
  0
XRECORD
  5
2D2F
102
{ACAD_REACTORS
330
2D2D
102
}
330
2D2D
100
AcDbXrecord
 90
       70
  0
XRECORD
  5
2D47
102
{ACAD_REACTORS
330
2D2D
102
}
330
2D2D
100
AcDbXrecord
340
0
  0
XRECORD
  5
2D4D
102
{ACAD_REACTORS
330
2D2D
102
}
330
2D2D
100
AcDbXrecord
 10
0.0
 20
0.0
 30
0.0
  0
XRECORD
  5
2D49
102
{ACAD_REACTORS
330
2D2D
102
}
330
2D2D
100
AcDbXrecord
 10
0.0
 20
0.0
 30
0.0
  0
XRECORD
  5
2D4C
102
{ACAD_REACTORS
330
2D2D
102
}
330
2D2D
100
AcDbXrecord
 10
0.0
 20
0.0
 30
0.0
  0
XRECORD
  5
2D4A
102
{ACAD_REACTORS
330
2D2D
102
}
330
2D2D
100
AcDbXrecord
 10
0.0
 20
0.0
 30
0.0
  0
XRECORD
  5
2D4B
102
{ACAD_REACTORS
330
2D2D
102
}
330
2D2D
100
AcDbXrecord
 10
0.0
 20
0.0
 30
0.0
  0
XRECORD
  5
2D48
102
{ACAD_REACTORS
330
2D2D
102
}
330
2D2D
100
AcDbXrecord
 10
0.0
 20
0.0
 30
0.0
  0
XRECORD
  5
2D45
102
{ACAD_REACTORS
330
2D2D
102
}
330
2D2D
100
AcDbXrecord
340
0
  0
XRECORD
  5
2D46
102
{ACAD_REACTORS
330
2D2D
102
}
330
2D2D
100
AcDbXrecord
 70
     0
  0
XRECORD
  5
2D39
102
{ACAD_REACTORS
330
2D2D
102
}
330
2D2D
100
AcDbXrecord
  1
{B844B07E-ED2D-4C06-BAC2-5CA07EF1B1BC}
  0
DICTIONARYVAR
  5
219
102
{ACAD_REACTORS
330
216
102
}
330
216
100
DictionaryVariables
280
     0
  1
1
  0
DICTIONARYVAR
  5
218
102
{ACAD_REACTORS
330
216
102
}
330
216
100
DictionaryVariables
280
     0
  1
1
  0
DICTIONARYVAR
  5
217
102
{ACAD_REACTORS
330
216
102
}
330
216
100
DictionaryVariables
280
     0
  1
1
  0
DICTIONARY
  5
4A
102
{ACAD_REACTORS
330
45
102
}
330
45
100
AcDbDictionary
  0
DICTIONARY
  5
42
102
{ACAD_REACTORS
330
41
102
}
330
41
100
AcDbDictionary
  3
DWGSETTINGS
350
43
  0
LAYER_INDEX
  5
1F3
102
{ACAD_REACTORS
330
1F2
102
}
330
1F2
100
AcDbIndex
 40
2453874.504796956
100
AcDbLayerIndex
  8
0
360
1F4
 90
        0
  8
Defpoints
360
210
 90
        0
  8
1
360
29B
 90
       22
  8
2
360
1EC1
 90
        4
  8
6
360
1EC2
 90
        3
  8
SK1
360
1EC3
 90
       32
  8
CUT
360
1EC4
 90
       16
  8
SK4
360
281D
 90
        4
  8
3
360
29CB
 90
        5
  0
XRECORD
  5
43
102
{ACAD_REACTORS
330
42
102
}
330
42
100
AcDbXrecord
  1
VERSION
140
15.0
  1
PRODUCT
  2
AutoCAD Mechanical 2000
  0
IDBUFFER
  5
1F4
330
0
100
AcDbIdBuffer
  0
IDBUFFER
  5
210
330
0
100
AcDbIdBuffer
  0
IDBUFFER
  5
29B
330
0
100
AcDbIdBuffer
330
252D
330
252E
330
2538
330
2539
330
253A
330
2BE8
330
2BE9
330
2BEB
330
2BED
330
2BEF
330
2BF1
330
2BF3
330
2BF5
330
2BF7
330
2BF9
330
2BFB
330
2BFD
330
2C00
330
2C01
330
2C03
330
2C05
330
2C07
  0
IDBUFFER
  5
1EC1
330
0
100
AcDbIdBuffer
330
2BE3
330
2BE5
330
2BE6
330
2C93
  0
IDBUFFER
  5
1EC2
330
0
100
AcDbIdBuffer
330
2553
330
2BE4
330
2CC2
  0
IDBUFFER
  5
1EC3
330
0
100
AcDbIdBuffer
330
252F
330
2530
330
2531
330
2532
330
2533
330
2534
330
2535
330
2536
330
2537
330
253B
330
253C
330
253D
330
253E
330
253F
330
2540
330
2541
330
2542
330
2543
330
2544
330
2545
330
2546
330
2547
330
2548
330
2549
330
254A
330
254B
330
254C
330
2551
330
2552
330
259C
330
259D
330
25EC
  0
IDBUFFER
  5
1EC4
330
0
100
AcDbIdBuffer
330
2BE7
330
2BEA
330
2BEC
330
2BEE
330
2BF0
330
2BF2
330
2BF4
330
2BF6
330
2BF8
330
2BFA
330
2BFC
330
2BFE
330
2BFF
330
2C02
330
2C04
330
2C06
  0
IDBUFFER
  5
281D
330
0
100
AcDbIdBuffer
330
254D
330
254E
330
254F
330
2550
  0
IDBUFFER
  5
29CB
330
0
100
AcDbIdBuffer
330
29BE
330
29BF
330
29C0
330
29C1
330
29C2
  0
ENDSEC
  0
EOF
