  0
SECTION
  2
HEADER
  9
$ACADVER
  1
AC1015
  9
$ACADMAINTVER
 70
    20
  9
$DWGCODEPAGE
  3
ANSI_1252
  9
$INSBASE
 10
0.0
 20
0.0
 30
0.0
  9
$EXTMIN
 10
-42.75745979551857
 20
-43.7741077386006
 30
-0.0000000349181948
  9
$EXTMAX
 10
61.74479782481762
 20
54.67788772503604
 30
0.0000000814935747
  9
$LIMMIN
 10
-170.0
 20
-170.0
  9
$LIMMAX
 10
519.0
 20
260.0
  9
$ORTHOMODE
 70
     0
  9
$REGENMODE
 70
     1
  9
$FILLMODE
 70
     1
  9
$QTEXTMODE
 70
     0
  9
$MIRRTEXT
 70
     0
  9
$LTSCALE
 40
1.0
  9
$ATTMODE
 70
     1
  9
$TEXTSIZE
 40
5.0
  9
$TRACEWID
 40
1.0
  9
$TEXTSTYLE
  7
STANDARD
  9
$CLAYER
  8
0
  9
$CELTYPE
  6
BYLAYER
  9
$CECOLOR
 62
   256
  9
$CELTSCALE
 40
1.0
  9
$DISPSILH
 70
     0
  9
$DIMSCALE
 40
1.0
  9
$DIMASZ
 40
2.5
  9
$DIMEXO
 40
0.0
  9
$DIMDLI
 40
3.75
  9
$DIMRND
 40
0.0
  9
$DIMDLE
 40
0.0
  9
$DIMEXE
 40
1.25
  9
$DIMTP
 40
0.0
  9
$DIMTM
 40
0.0
  9
$DIMTXT
 40
3.5
  9
$DIMCEN
 40
0.0
  9
$DIMTSZ
 40
0.0
  9
$DIMTOL
 70
     0
  9
$DIMLIM
 70
     0
  9
$DIMTIH
 70
     0
  9
$DIMTOH
 70
     0
  9
$DIMSE1
 70
     0
  9
$DIMSE2
 70
     0
  9
$DIMTAD
 70
     1
  9
$DIMZIN
 70
     1
  9
$DIMBLK
  1

  9
$DIMASO
 70
     1
  9
$DIMSHO
 70
     1
  9
$DIMPOST
  1

  9
$DIMAPOST
  1

  9
$DIMALT
 70
     0
  9
$DIMALTD
 70
     3
  9
$DIMALTF
 40
0.039370078
  9
$DIMLFAC
 40
1.0
  9
$DIMTOFL
 70
     0
  9
$DIMTVP
 40
0.0
  9
$DIMTIX
 70
     0
  9
$DIMSOXD
 70
     0
  9
$DIMSAH
 70
     0
  9
$DIMBLK1
  1

  9
$DIMBLK2
  1

  9
$DIMSTYLE
  2
STANDARD
  9
$DIMCLRD
 70
     0
  9
$DIMCLRE
 70
     0
  9
$DIMCLRT
 70
     0
  9
$DIMTFAC
 40
1.0
  9
$DIMGAP
 40
0.625
  9
$DIMJUST
 70
     0
  9
$DIMSD1
 70
     0
  9
$DIMSD2
 70
     0
  9
$DIMTOLJ
 70
     0
  9
$DIMTZIN
 70
     8
  9
$DIMALTZ
 70
     0
  9
$DIMALTTZ
 70
     0
  9
$DIMUPT
 70
     0
  9
$DIMDEC
 70
     2
  9
$DIMTDEC
 70
     2
  9
$DIMALTU
 70
     2
  9
$DIMALTTD
 70
     3
  9
$DIMTXSTY
  7
STANDARD
  9
$DIMAUNIT
 70
     0
  9
$DIMADEC
 70
     2
  9
$DIMALTRND
 40
0.0
  9
$DIMAZIN
 70
     0
  9
$DIMDSEP
 70
    46
  9
$DIMATFIT
 70
     3
  9
$DIMFRAC
 70
     0
  9
$DIMLDRBLK
  1

  9
$DIMLUNIT
 70
     2
  9
$DIMLWD
 70
    -2
  9
$DIMLWE
 70
    -2
  9
$DIMTMOVE
 70
     0
  9
$LUNITS
 70
     2
  9
$LUPREC
 70
     4
  9
$SKETCHINC
 40
1.0
  9
$FILLETRAD
 40
0.0
  9
$AUNITS
 70
     0
  9
$AUPREC
 70
     0
  9
$MENU
  1
c:\tdm21\cad\caduti13\tdm13
  9
$ELEVATION
 40
0.0
  9
$PELEVATION
 40
0.0
  9
$THICKNESS
 40
0.0
  9
$LIMCHECK
 70
     0
  9
$CHAMFERA
 40
0.0
  9
$CHAMFERB
 40
0.0
  9
$CHAMFERC
 40
0.0
  9
$CHAMFERD
 40
0.0
  9
$SKPOLY
 70
     0
  9
$TDCREATE
 40
2455617.385269387
  9
$TDUCREATE
 40
2455617.343602720
  9
$TDUPDATE
 40
2457369.321291921
  9
$TDUUPDATE
 40
2457369.279625255
  9
$TDINDWG
 40
0.0300395255
  9
$TDUSRTIMER
 40
0.0300393519
  9
$USRTIMER
 70
     1
  9
$ANGBASE
 50
0.0
  9
$ANGDIR
 70
     0
  9
$PDMODE
 70
     3
  9
$PDSIZE
 40
0.0
  9
$PLINEWID
 40
0.0
  9
$SPLFRAME
 70
     0
  9
$SPLINETYPE
 70
     6
  9
$SPLINESEGS
 70
     8
  9
$HANDSEED
  5
14F1
  9
$SURFTAB1
 70
     6
  9
$SURFTAB2
 70
     6
  9
$SURFTYPE
 70
     6
  9
$SURFU
 70
     6
  9
$SURFV
 70
     6
  9
$UCSBASE
  2

  9
$UCSNAME
  2

  9
$UCSORG
 10
0.0
 20
0.0
 30
0.0
  9
$UCSXDIR
 10
1.0
 20
0.0
 30
0.0
  9
$UCSYDIR
 10
0.0
 20
1.0
 30
0.0
  9
$UCSORTHOREF
  2

  9
$UCSORTHOVIEW
 70
     0
  9
$UCSORGTOP
 10
0.0
 20
0.0
 30
0.0
  9
$UCSORGBOTTOM
 10
0.0
 20
0.0
 30
0.0
  9
$UCSORGLEFT
 10
0.0
 20
0.0
 30
0.0
  9
$UCSORGRIGHT
 10
0.0
 20
0.0
 30
0.0
  9
$UCSORGFRONT
 10
0.0
 20
0.0
 30
0.0
  9
$UCSORGBACK
 10
0.0
 20
0.0
 30
0.0
  9
$PUCSBASE
  2

  9
$PUCSNAME
  2

  9
$PUCSORG
 10
0.0
 20
0.0
 30
0.0
  9
$PUCSXDIR
 10
1.0
 20
0.0
 30
0.0
  9
$PUCSYDIR
 10
0.0
 20
1.0
 30
0.0
  9
$PUCSORTHOREF
  2

  9
$PUCSORTHOVIEW
 70
     0
  9
$PUCSORGTOP
 10
0.0
 20
0.0
 30
0.0
  9
$PUCSORGBOTTOM
 10
0.0
 20
0.0
 30
0.0
  9
$PUCSORGLEFT
 10
0.0
 20
0.0
 30
0.0
  9
$PUCSORGRIGHT
 10
0.0
 20
0.0
 30
0.0
  9
$PUCSORGFRONT
 10
0.0
 20
0.0
 30
0.0
  9
$PUCSORGBACK
 10
0.0
 20
0.0
 30
0.0
  9
$USERI1
 70
     0
  9
$USERI2
 70
     0
  9
$USERI3
 70
     0
  9
$USERI4
 70
     0
  9
$USERI5
 70
     0
  9
$USERR1
 40
0.0
  9
$USERR2
 40
0.0
  9
$USERR3
 40
0.0
  9
$USERR4
 40
0.0
  9
$USERR5
 40
0.0
  9
$WORLDVIEW
 70
     1
  9
$SHADEDGE
 70
     3
  9
$SHADEDIF
 70
    70
  9
$TILEMODE
 70
     1
  9
$MAXACTVP
 70
    64
  9
$PINSBASE
 10
0.0
 20
0.0
 30
0.0
  9
$PLIMCHECK
 70
     0
  9
$PEXTMIN
 10
0.0
 20
0.0
 30
0.0
  9
$PEXTMAX
 10
0.0
 20
0.0
 30
0.0
  9
$PLIMMIN
 10
0.0
 20
0.0
  9
$PLIMMAX
 10
12.0
 20
9.0
  9
$UNITMODE
 70
     0
  9
$VISRETAIN
 70
     0
  9
$PLINEGEN
 70
     0
  9
$PSLTSCALE
 70
     1
  9
$TREEDEPTH
 70
  3020
  9
$CMLSTYLE
  2
STANDARD
  9
$CMLJUST
 70
     0
  9
$CMLSCALE
 40
20.0
  9
$PROXYGRAPHICS
 70
     1
  9
$MEASUREMENT
 70
     1
  9
$CELWEIGHT
370
    -1
  9
$ENDCAPS
280
     0
  9
$JOINSTYLE
280
     0
  9
$LWDISPLAY
290
     0
  9
$INSUNITS
 70
     4
  9
$HYPERLINKBASE
  1

  9
$STYLESHEET
  1
MONOCHROME.CTB
  9
$XEDIT
290
     1
  9
$CEPSNTYPE
380
     0
  9
$PSTYLEMODE
290
     1
  9
$FINGERPRINTGUID
  2
{6180E068-499A-46BB-80DB-95654A298532}
  9
$VERSIONGUID
  2
{86A77374-A8BE-4A18-BFC2-C87C70E232D1}
  9
$EXTNAMES
290
     1
  9
$PSVPSCALE
 40
0.0
  9
$OLESTARTUP
290
     0
  0
ENDSEC
  0
SECTION
  2
CLASSES
  0
CLASS
  1
ACDBDICTIONARYWDFLT
  2
AcDbDictionaryWithDefault
  3
ObjectDBX Classes
 90
        0
280
     0
281
     0
  0
CLASS
  1
ACDBPLACEHOLDER
  2
AcDbPlaceHolder
  3
ObjectDBX Classes
 90
        0
280
     0
281
     0
  0
CLASS
  1
LAYOUT
  2
AcDbLayout
  3
ObjectDBX Classes
 90
        0
280
     0
281
     0
  0
CLASS
  1
DICTIONARYVAR
  2
AcDbDictionaryVar
  3
ObjectDBX Classes
 90
        0
280
     0
281
     0
  0
CLASS
  1
TABLESTYLE
  2
AcDbTableStyle
  3
ObjectDBX Classes
 90
     4095
280
     0
281
     0
  0
CLASS
  1
MATERIAL
  2
AcDbMaterial
  3
ObjectDBX Classes
 90
     1153
280
     0
281
     0
  0
CLASS
  1
VISUALSTYLE
  2
AcDbVisualStyle
  3
ObjectDBX Classes
 90
     4095
280
     0
281
     0
  0
CLASS
  1
SCALE
  2
AcDbScale
  3
ObjectDBX Classes
 90
     1153
280
     0
281
     0
  0
CLASS
  1
MLEADERSTYLE
  2
AcDbMLeaderStyle
  3
ACDB_MLEADERSTYLE_CLASS
 90
     4095
280
     0
281
     0
  0
CLASS
  1
CELLSTYLEMAP
  2
AcDbCellStyleMap
  3
ObjectDBX Classes
 90
     1152
280
     0
281
     0
  0
CLASS
  1
DIMASSOC
  2
AcDbDimAssoc
  3
"AcDbDimAssoc|Product Desc:     AcDim ARX App For Dimension|Company:          Autodesk, Inc.|WEB Address:      www.autodesk.com"
 90
        0
280
     0
281
     0
  0
CLASS
  1
SORTENTSTABLE
  2
AcDbSortentsTable
  3
ObjectDBX Classes
 90
        0
280
     0
281
     0
  0
CLASS
  1
MULTILEADER
  2
AcDbMLeader
  3
ACDB_MLEADER_CLASS
 90
     1025
280
     0
281
     1
  0
CLASS
  1
ACDBSECTIONVIEWSTYLE
  2
AcDbSectionViewStyle
  3
ObjectDBX Classes
 90
     1025
280
     0
281
     0
  0
CLASS
  1
ACDBDETAILVIEWSTYLE
  2
AcDbDetailViewStyle
  3
ObjectDBX Classes
 90
     1025
280
     0
281
     0
  0
CLASS
  1
FIELD
  2
AcDbField
  3
ObjectDBX Classes
 90
     1152
280
     0
281
     0
  0
CLASS
  1
FIELDLIST
  2
AcDbFieldList
  3
ObjectDBX Classes
 90
     1152
280
     0
281
     0
  0
ENDSEC
  0
SECTION
  2
TABLES
  0
TABLE
  2
VPORT
  5
8
330
0
100
AcDbSymbolTable
 70
     1
  0
VPORT
  5
3ED
330
8
100
AcDbSymbolTableRecord
100
AcDbViewportTableRecord
  2
*Active
 70
     0
 10
0.0
 20
0.0
 11
1.0
 21
1.0
 12
9.493669014649526
 22
5.451889993217719
 13
0.0
 23
0.0
 14
5.0
 24
5.0
 15
5.0
 25
5.0
 16
0.0
 26
0.0
 36
1.0
 17
0.0
 27
0.0
 37
0.0
 40
99.06675236395685
 41
1.56578947368421
 42
50.0
 43
0.0
 44
0.0
 50
0.0
 51
0.0
 71
     0
 72
  2000
 73
     1
 74
     3
 75
     0
 76
     0
 77
     0
 78
     0
281
     0
 65
     1
110
0.0
120
0.0
130
0.0
111
1.0
121
0.0
131
0.0
112
0.0
122
1.0
132
0.0
 79
     0
146
0.0
1001
ACAD_NAV_VCDISPLAY
1070
     3
  0
ENDTAB
  0
TABLE
  2
LTYPE
  5
5
330
0
100
AcDbSymbolTable
 70
     2
  0
LTYPE
  5
12
330
5
100
AcDbSymbolTableRecord
100
AcDbLinetypeTableRecord
  2
BYBLOCK
 70
     0
  3

 72
    65
 73
     0
 40
0.0
  0
LTYPE
  5
13
330
5
100
AcDbSymbolTableRecord
100
AcDbLinetypeTableRecord
  2
BYLAYER
 70
     0
  3

 72
    65
 73
     0
 40
0.0
  0
LTYPE
  5
14
330
5
100
AcDbSymbolTableRecord
100
AcDbLinetypeTableRecord
  2
CONTINUOUS
 70
     0
  3
Solid line
 72
    65
 73
     0
 40
0.0
  0
LTYPE
  5
6A7
330
5
100
AcDbSymbolTableRecord
100
AcDbLinetypeTableRecord
  2
CENTER2
 70
     0
  3
Center (.5x) ___ _ ___ _ ___ _ ___ _ ___ _ ___
 72
    65
 73
     4
 40
28.575
 49
19.05
 74
     0
 49
-3.174999999999998
 74
     0
 49
3.174999999999998
 74
     0
 49
-3.174999999999998
 74
     0
  0
ENDTAB
  0
TABLE
  2
LAYER
  5
2
102
{ACAD_XDICTIONARY
360
451
102
}
330
0
100
AcDbSymbolTable
 70
    13
  0
LAYER
  5
F
102
{ACAD_XDICTIONARY
360
1257
102
}
330
2
100
AcDbSymbolTableRecord
100
AcDbLayerTableRecord
  2
0
 70
     0
 62
     7
  6
CONTINUOUS
370
    -3
390
300
  0
LAYER
  5
23
102
{ACAD_XDICTIONARY
360
1259
102
}
330
2
100
AcDbSymbolTableRecord
100
AcDbLayerTableRecord
  2
1
 70
     0
 62
     4
  6
CONTINUOUS
370
    50
390
300
  0
LAYER
  5
24
102
{ACAD_XDICTIONARY
360
125B
102
}
330
2
100
AcDbSymbolTableRecord
100
AcDbLayerTableRecord
  2
SK1
 70
     0
 62
     4
  6
CONTINUOUS
370
    50
390
300
  0
LAYER
  5
25
102
{ACAD_XDICTIONARY
360
125D
102
}
330
2
100
AcDbSymbolTableRecord
100
AcDbLayerTableRecord
  2
2
 70
     0
 62
     7
  6
CONTINUOUS
370
    25
390
300
  0
LAYER
  5
27
102
{ACAD_XDICTIONARY
360
125F
102
}
330
2
100
AcDbSymbolTableRecord
100
AcDbLayerTableRecord
  2
SK2
 70
     0
 62
     7
  6
CONTINUOUS
370
    25
390
300
  0
LAYER
  5
2A
102
{ACAD_XDICTIONARY
360
1261
102
}
330
2
100
AcDbSymbolTableRecord
100
AcDbLayerTableRecord
  2
4
 70
     0
 62
     2
  6
CENTER2
370
    25
390
300
  0
LAYER
  5
2B
102
{ACAD_XDICTIONARY
360
1263
102
}
330
2
100
AcDbSymbolTableRecord
100
AcDbLayerTableRecord
  2
SK4
 70
     0
 62
     2
  6
CENTER2
370
    25
390
300
  0
LAYER
  5
2F
330
2
100
AcDbSymbolTableRecord
100
AcDbLayerTableRecord
  2
DEFPOINTS
 70
     0
 62
     7
  6
CONTINUOUS
290
     0
370
    25
390
300
  0
LAYER
  5
375
102
{ACAD_XDICTIONARY
360
1267
102
}
330
2
100
AcDbSymbolTableRecord
100
AcDbLayerTableRecord
  2
CUT
 70
     0
 62
     1
  6
CONTINUOUS
370
    25
390
300
  0
LAYER
  5
376
102
{ACAD_XDICTIONARY
360
1269
102
}
330
2
100
AcDbSymbolTableRecord
100
AcDbLayerTableRecord
  2
NOCUT
 70
     0
 62
     7
  6
CONTINUOUS
370
    -3
390
300
  0
LAYER
  5
49B
102
{ACAD_XDICTIONARY
360
126B
102
}
330
2
100
AcDbSymbolTableRecord
100
AcDbLayerTableRecord
  2
INFTOTAL
 70
     0
 62
     9
  6
CONTINUOUS
370
    18
390
300
1001
AcAecLayerStandard
1000

1000

  0
LAYER
  5
12A3
102
{ACAD_XDICTIONARY
360
12A4
102
}
330
2
100
AcDbSymbolTableRecord
100
AcDbLayerTableRecord
  2
SKVIEW63
 70
     0
 62
     5
  6
CONTINUOUS
370
    35
390
300
  0
ENDTAB
  0
TABLE
  2
STYLE
  5
3
330
0
100
AcDbSymbolTable
 70
     3
  0
STYLE
  5
10
330
3
100
AcDbSymbolTableRecord
100
AcDbTextStyleTableRecord
  2
STANDARD
 70
     0
 40
0.0
 41
1.0
 50
0.0
 71
     0
 42
5.0
  3
monos.ttf
  4

1001
ACAD
1000
Monospac821 BT
1071
       49
  0
STYLE
  5
12A6
330
3
100
AcDbSymbolTableRecord
100
AcDbTextStyleTableRecord
  2
BMG_Text
 70
     0
 40
3.5
 41
1.0
 50
0.0
 71
     0
 42
0.2
  3
monos.ttf
  4

1001
ACAD
1000
Monospac821 BT
1071
       49
  0
ENDTAB
  0
TABLE
  2
VIEW
  5
6
330
0
100
AcDbSymbolTable
 70
     0
  0
ENDTAB
  0
TABLE
  2
UCS
  5
7
330
0
100
AcDbSymbolTable
 70
     0
  0
ENDTAB
  0
TABLE
  2
APPID
  5
9
330
0
100
AcDbSymbolTable
 70
    15
  0
APPID
  5
11
330
9
100
AcDbSymbolTableRecord
100
AcDbRegAppTableRecord
  2
ACAD
 70
     0
  0
APPID
  5
3A6
330
9
100
AcDbSymbolTableRecord
100
AcDbRegAppTableRecord
  2
ACAD_PSEXT
 70
     0
  0
APPID
  5
3A8
330
9
100
AcDbSymbolTableRecord
100
AcDbRegAppTableRecord
  2
ACAD_EXEMPT_FROM_CAD_STANDARDS
 70
     0
  0
APPID
  5
43E
330
9
100
AcDbSymbolTableRecord
100
AcDbRegAppTableRecord
  2
ACAD_MLEADERVER
 70
     0
  0
APPID
  5
460
330
9
100
AcDbSymbolTableRecord
100
AcDbRegAppTableRecord
  2
ACAD_DSTYLE_DIMJAG
 70
     0
  0
APPID
  5
461
330
9
100
AcDbSymbolTableRecord
100
AcDbRegAppTableRecord
  2
ACAD_DSTYLE_DIMBREAK
 70
     0
  0
APPID
  5
462
330
9
100
AcDbSymbolTableRecord
100
AcDbRegAppTableRecord
  2
ACAD_DSTYLE_DIMTALN
 70
     0
  0
APPID
  5
47A
330
9
100
AcDbSymbolTableRecord
100
AcDbRegAppTableRecord
  2
AcAecLayerStandard
 70
     0
  0
APPID
  5
4AB
330
9
100
AcDbSymbolTableRecord
100
AcDbRegAppTableRecord
  2
DCO15
 70
     0
  0
APPID
  5
4B9
330
9
100
AcDbSymbolTableRecord
100
AcDbRegAppTableRecord
  2
AcadAnnoPO
 70
     0
  0
APPID
  5
55F
330
9
100
AcDbSymbolTableRecord
100
AcDbRegAppTableRecord
  2
ACAD_DSTYLE_DIMRADIAL_EXTENSION
 70
     0
  0
APPID
  5
701
330
9
100
AcDbSymbolTableRecord
100
AcDbRegAppTableRecord
  2
AcadAnnotative
 70
     0
  0
APPID
  5
702
330
9
100
AcDbSymbolTableRecord
100
AcDbRegAppTableRecord
  2
AcDbDynamicBlockGUID
 70
     0
  0
APPID
  5
703
330
9
100
AcDbSymbolTableRecord
100
AcDbRegAppTableRecord
  2
AcDbBlockRepETag
 70
     0
  0
APPID
  5
13BA
330
9
100
AcDbSymbolTableRecord
100
AcDbRegAppTableRecord
  2
ACAD_NAV_VCDISPLAY
 70
     0
  0
ENDTAB
  0
TABLE
  2
DIMSTYLE
  5
A
330
0
100
AcDbSymbolTable
 70
     3
100
AcDbDimStyleTable
 71
     2
340
3F
340
467
  0
DIMSTYLE
105
3F
102
{ACAD_REACTORS
330
F54
330
1002
330
11BB
102
}
330
A
100
AcDbSymbolTableRecord
100
AcDbDimStyleTableRecord
  2
STANDARD
 70
     0
 41
2.5
 42
0.0
 43
3.75
 44
1.25
 73
     0
 74
     0
 77
     1
 78
     1
140
3.5
141
0.0
143
0.039370078
147
0.625
171
     3
179
     2
271
     2
272
     2
274
     3
283
     0
284
     8
340
10
1001
ACAD_DSTYLE_DIMJAG
1070
   388
1040
1.5
1001
ACAD_DSTYLE_DIMTALN
1070
   392
1070
     0
  0
DIMSTYLE
105
467
102
{ACAD_REACTORS
330
FD2
102
}
330
A
100
AcDbSymbolTableRecord
100
AcDbDimStyleTableRecord
  2
DIAMETER
 70
     0
 41
2.5
 42
0.0
 43
3.75
 44
1.25
 73
     0
 74
     0
 76
     1
 77
     1
 78
     1
140
3.5
141
0.0
143
0.039370078
147
0.625
171
     3
173
     1
179
     2
271
     2
272
     2
274
     3
283
     0
284
     8
340
10
344
464
1001
ACAD_DSTYLE_DIMBREAK
1070
   391
1040
3.75
1001
ACAD_DSTYLE_DIMJAG
1070
   388
1040
1.5
1001
ACAD_DSTYLE_DIMTALN
1070
   392
1070
     0
  0
ENDTAB
  0
TABLE
  2
BLOCK_RECORD
  5
1
330
0
100
AcDbSymbolTable
 70
    15
  0
BLOCK_RECORD
  5
18
102
{ACAD_XDICTIONARY
360
E47
102
}
330
1
100
AcDbSymbolTableRecord
100
AcDbBlockTableRecord
  2
*MODEL_SPACE
340
303
  0
BLOCK_RECORD
  5
338
330
1
100
AcDbSymbolTableRecord
100
AcDbBlockTableRecord
  2
*Paper_Space
340
33B
  0
BLOCK_RECORD
  5
464
330
1
100
AcDbSymbolTableRecord
100
AcDbBlockTableRecord
  2
_None
340
0
  0
BLOCK_RECORD
  5
F55
330
1
100
AcDbSymbolTableRecord
100
AcDbBlockTableRecord
  2
*D3
340
0
  0
BLOCK_RECORD
  5
FD3
330
1
100
AcDbSymbolTableRecord
100
AcDbBlockTableRecord
  2
*D4
340
0
  0
BLOCK_RECORD
  5
1003
330
1
100
AcDbSymbolTableRecord
100
AcDbBlockTableRecord
  2
*D5
340
0
  0
BLOCK_RECORD
  5
11BC
330
1
100
AcDbSymbolTableRecord
100
AcDbBlockTableRecord
  2
*D9
340
0
  0
BLOCK_RECORD
  5
129A
102
{ACAD_XDICTIONARY
360
129B
102
}
330
1
100
AcDbSymbolTableRecord
100
AcDbBlockTableRecord
  2
Name
340
0
310
28000000200000002000000001002000000000000010000001000000010000000000000000000000302821FF302821FF302821FF302821FF302821FF302821FF302821FF302821FF302821FF302821FF302821FF302821FF302821FF302821FF302821FF302821FF302821FF302821FF302821FF302821FF302821FF302821
310
FF302821FF302821FF302821FF302821FF302821FF302821FF302821FF302821FF302821FF302821FF302821FF302821FF302821FF302821FF302821FF302821FF302821FF302821FF302821FF302821FF302821FF302821FF302821FF302821FF302821FF302821FF302821FF302821FF302821FF302821FF302821FF3028
310
21FF302821FF302821FF302821FF302821FF302821FF302821FF302821FF302821FF302821FF302821FF302821FF302821FF302821FF302821FF302821FF302821FF302821FF302821FF302821FF302821FF302821FF302821FF302821FF302821FF302821FF302821FF302821FF302821FF302821FF302821FF302821FF30
310
2821FF302821FF302821FF302821FF302821FF302821FF302821FF302821FF302821FF302821FF302821FF302821FF302821FF302821FF302821FF302821FF302821FF302821FF302821FF302821FF302821FF302821FF302821FF302821FF302821FF302821FF302821FF302821FF302821FF302821FF302821FF302821FF
310
302821FF302821FF302821FF302821FF302821FF302821FF302821FF302821FF302821FF302821FF302821FF302821FF302821FF302821FF302821FF302821FF302821FF302821FF302821FF302821FF302821FF302821FF302821FF302821FF302821FF302821FF302821FF302821FF302821FF302821FF302821FF302821
310
FF302821FF302821FF302821FF302821FF302821FF302821FF302821FF302821FF302821FF302821FF302821FF302821FF302821FF302821FF302821FF302821FF302821FF302821FF302821FF302821FF302821FF302821FF302821FF302821FF302821FF302821FF302821FF302821FF302821FF302821FF302821FF3028
310
21FF302821FF302821FF302821FF302821FF302821FF302821FF302821FF302821FF302821FF302821FF302821FF302821FF302821FF302821FF302821FF302821FF302821FF302821FF302821FF302821FF302821FF302821FF302821FF302821FF302821FF302821FF302821FF302821FF302821FF302821FF302821FF30
310
2821FF302821FF302821FF302821FF302821FF302821FF302821FF302821FF302821FF302821FF302821FF302821FF302821FF302821FF302821FF302821FF302821FF302821FF302821FF302821FF302821FF302821FF302821FF302821FF302821FF302821FF302821FF302821FF302821FF302821FF302821FF302821FF
310
302821FF302821FF302821FF302821FF302821FF302821FF302821FF302821FF302821FF302821FF302821FF302821FF302821FF302821FF302821FF302821FF302821FF302821FF302821FF302821FF302821FF302821FF302821FF302821FF302821FF302821FF302821FF302821FF302821FF302821FF302821FF302821
310
FF302821FF302821FF302821FF302821FF302821FF302821FF302821FF302821FF302821FF302821FF302821FF302821FF302821FF302821FF302821FF302821FF302821FF302821FF302821FF302821FF302821FF302821FF302821FF302821FF302821FF302821FF302821FF302821FF302821FF302821FF302821FF3028
310
21FF302821FF302821FF302821FF302821FF302821FF302821FF302821FF302821FF302821FF302821FF302821FF302821FF302821FF302821FFFF0000FFFF0000FF302821FF302821FFFF0000FFFF0000FFFF0000FFFF0000FFFF0000FF302821FF302821FF302821FF302821FFFF0000FFFF0000FFFF0000FFFF0000FFFF
310
0000FFFF0000FFFF0000FFFF0000FF302821FFFF0000FFFF0000FFFF0000FFFF0000FFFF0000FFFF0000FF302821FF302821FF302821FF302821FFFF0000FFFF0000FF302821FF302821FFFF0000FFFF0000FFFF0000FFFF0000FFFF0000FF302821FF302821FF302821FF302821FFFF0000FFFF0000FFFF0000FFFF0000FF
310
FF0000FFFF0000FFFF0000FFFF0000FF302821FFFF0000FFFF0000FFFF0000FFFF0000FFFF0000FFFF0000FF302821FF302821FF302821FF302821FFFF0000FFFF0000FF302821FFFF0000FFFF0000FFFF0000FFFF0000FFFF0000FFFF0000FF302821FF302821FF302821FFFF0000FFFF0000FFFF0000FFFF0000FFFF0000
310
FFFF0000FFFF0000FFFF0000FFFF0000FF302821FFFF0000FFFF0000FFFF0000FFFF0000FFFF0000FFFF0000FF302821FF302821FF302821FF302821FFFF0000FFFF0000FF302821FFFF0000FFFF0000FFFF0000FFFF0000FFFF0000FFFF0000FFFF0000FFFF0000FFFF0000FFFF0000FFFF0000FFFF0000FFFF0000FFFF00
310
00FFFF0000FFFF0000FFFF0000FFFF0000FF302821FFFF0000FFFF0000FF302821FF302821FF302821FF302821FF302821FF302821FF302821FF302821FFFF0000FFFF0000FF302821FFFF0000FFFF0000FFFF0000FFFF0000FFFF0000FFFF0000FFFF0000FFFF0000FFFF0000FFFF0000FFFF0000FFFF0000FFFF0000FFFF
310
0000FFFF0000FFFF0000FFFF0000FFFF0000FF302821FFFF0000FFFF0000FF302821FF302821FF302821FF302821FF302821FF302821FF302821FF302821FFFF0000FFFF0000FFFF0000FFFF0000FFFF0000FFFF0000FFFF0000FFFF0000FFFF0000FFFF0000FFFF0000FFFF0000FFFF0000FF302821FFFF0000FFFF0000FF
310
FF0000FF302821FFFF0000FFFF0000FFFF0000FF302821FFFF0000FFFF0000FFFF0000FFFF0000FFFF0000FF302821FF302821FF302821FF302821FF302821FFFF0000FFFF0000FFFF0000FFFF0000FFFF0000FFFF0000FFFF0000FF302821FFFF0000FFFF0000FF302821FFFF0000FFFF0000FF302821FFFF0000FFFF0000
310
FFFF0000FF302821FFFF0000FFFF0000FFFF0000FF302821FFFF0000FFFF0000FFFF0000FFFF0000FFFF0000FF302821FF302821FF302821FF302821FF302821FFFF0000FFFF0000FFFF0000FFFF0000FF302821FFFF0000FFFF0000FF302821FFFF0000FFFF0000FFFF0000FFFF0000FFFF0000FF302821FFFF0000FFFF00
310
00FFFF0000FF302821FFFF0000FFFF0000FFFF0000FF302821FFFF0000FFFF0000FFFF0000FFFF0000FFFF0000FF302821FF302821FF302821FF302821FF302821FFFF0000FFFF0000FFFF0000FFFF0000FF302821FFFF0000FFFF0000FF302821FFFF0000FFFF0000FFFF0000FFFF0000FFFF0000FF302821FFFF0000FFFF
310
0000FFFF0000FF302821FF302821FFFF0000FFFF0000FF302821FFFF0000FFFF0000FF302821FF302821FF302821FF302821FF302821FF302821FF302821FF302821FFFF0000FFFF0000FFFF0000FF302821FF302821FFFF0000FFFF0000FF302821FF302821FFFF0000FFFF0000FFFF0000FF302821FF302821FFFF0000FF
310
FF0000FF302821FF302821FF302821FFFF0000FFFF0000FF302821FFFF0000FFFF0000FFFF0000FFFF0000FFFF0000FF302821FF302821FF302821FF302821FF302821FFFF0000FFFF0000FFFF0000FF302821FF302821FFFF0000FFFF0000FF302821FF302821FFFF0000FFFF0000FFFF0000FF302821FF302821FFFF0000
310
FFFF0000FF302821FF302821FF302821FFFF0000FFFF0000FF302821FFFF0000FFFF0000FFFF0000FFFF0000FFFF0000FF302821FF302821FF302821FF302821FF302821FF302821FF302821FF302821FF302821FF302821FF302821FF302821FF302821FF302821FF302821FF302821FF302821FF302821FF302821FF3028
310
21FF302821FF302821FF302821FF302821FF302821FF302821FF302821FF302821FF302821FF302821FF302821FF302821FF302821FF302821FF302821FF302821FF302821FF302821FF302821FF302821FF302821FF302821FF302821FF302821FF302821FF302821FF302821FF302821FF302821FF302821FF302821FF30
310
2821FF302821FF302821FF302821FF302821FF302821FF302821FF302821FF302821FF302821FF302821FF302821FF302821FF302821FF302821FF302821FF302821FF302821FF302821FF302821FF302821FF302821FF302821FF302821FF302821FF302821FF302821FF302821FF302821FF302821FF302821FF302821FF
310
302821FF302821FF302821FF302821FF302821FF302821FF302821FF302821FF302821FF302821FF302821FF302821FF302821FF302821FF302821FF302821FF302821FF302821FF302821FF302821FF302821FF302821FF302821FF302821FF302821FF302821FF302821FF302821FF302821FF302821FF302821FF302821
310
FF302821FF302821FF302821FF302821FF302821FF302821FF302821FF302821FF302821FF302821FF302821FF302821FF302821FF302821FF302821FF302821FF302821FF302821FF302821FF302821FF302821FF302821FF302821FF302821FF302821FF302821FF302821FF302821FF302821FF302821FF302821FF3028
310
21FF302821FF302821FF302821FF302821FF302821FF302821FF302821FF302821FF302821FF302821FF302821FF302821FF302821FF302821FF302821FF302821FF302821FF302821FF302821FF302821FF302821FF302821FF302821FF302821FF302821FF302821FF302821FF302821FF302821FF302821FF302821FF30
310
2821FF302821FF302821FF302821FF302821FF302821FF302821FF302821FF302821FF302821FF302821FF302821FF302821FF302821FF302821FF302821FF302821FF302821FF302821FF302821FF302821FF302821FF302821FF302821FF302821FF302821FF302821FF302821FF302821FF302821FF302821FF302821FF
310
302821FF302821FF302821FF302821FF302821FF302821FF302821FF302821FF302821FF302821FF302821FF302821FF302821FF302821FF302821FF302821FF302821FF302821FF302821FF302821FF302821FF302821FF302821FF302821FF302821FF302821FF302821FF302821FF302821FF302821FF302821FF302821
310
FF302821FF302821FF302821FF302821FF302821FF302821FF302821FF302821FF302821FF302821FF302821FF302821FF302821FF302821FF302821FF302821FF302821FF302821FF302821FF302821FF302821FF302821FF302821FF302821FF302821FF302821FF302821FF302821FF302821FF302821FF302821FF3028
310
21FF302821FF302821FF302821FF302821FF302821FF302821FF302821FF302821FF302821FF302821FF302821FF302821FF302821FF302821FF302821FF302821FF302821FF302821FF302821FF302821FF302821FF302821FF302821FF302821FF302821FF302821FF302821FF302821FF302821FF302821FF302821FF30
310
2821FF302821FF302821FF302821FF302821FF302821FF302821FF302821FF302821FF302821FF302821FF302821FF302821FF302821FF302821FF302821FF302821FF302821FF302821FF302821FF302821FF302821FF302821FF302821FF302821FF302821FF302821FF302821FF302821FF302821FF302821FF302821FF
310
302821FF302821FF302821FF302821FF302821FF302821FF302821FF302821FF302821FF302821FF302821FF302821FF302821FF302821FF302821FF302821FF302821FF302821FF
102
{BLKREFS
331
12C0
102
}
1001
AcDbDynamicBlockGUID
1000
{15A9DAFA-FD13-4556-B9B1-5A71F15CF06E}
  0
BLOCK_RECORD
  5
13C4
102
{ACAD_XDICTIONARY
360
13C5
102
}
330
1
100
AcDbSymbolTableRecord
100
AcDbBlockTableRecord
  2
cero_point
340
0
310
28000000200000002000000001002000000000000010000001000000010000000000000000000000302821FF302821FF302821FF302821FF302821FF302821FF302821FF302821FF302821FF302821FF302821FF302821FF302821FF302821FF302821FF302821FF302821FF302821FF302821FF302821FF302821FF302821
310
FF302821FF302821FF302821FF302821FF302821FF302821FF302821FF302821FF302821FF302821FF302821FF302821FF302821FF302821FF302821FF302821FF302821FF302821FF302821FF302821FF302821FF302821FF302821FF302821FF302821FFFFFF00FFFFFF00FFFFFF00FF302821FF302821FF302821FF3028
310
21FF302821FF302821FF302821FF302821FF302821FF302821FF302821FF302821FF302821FF302821FF302821FF302821FF302821FF302821FF302821FF302821FF302821FF302821FF302821FF302821FFFFFF00FFFFFF00FFFFFF00FFFFFF00FFFFFF00FFFFFF00FFFFFF00FF302821FFFFFF00FFFFFF00FFFFFF00FF30
310
2821FF302821FF302821FF302821FF302821FF302821FF302821FF302821FF302821FF302821FF302821FF302821FF302821FF302821FF302821FF302821FF302821FF302821FF302821FFFFFF00FFFFFF00FFFFFF00FFFFFF00FFFFFF00FFFFFF00FFFFFF00FFFFFF00FFFFFF00FF302821FF302821FF302821FF302821FF
310
FFFF00FFFFFF00FF302821FF302821FF302821FF302821FF302821FF302821FF302821FF302821FF302821FF302821FF302821FF302821FF302821FF302821FF302821FF302821FFFFFF00FFFFFF00FFFFFF00FFFFFF00FFFFFF00FFFFFF00FFFFFF00FFFFFF00FFFFFF00FFFFFF00FF302821FF302821FF302821FF302821
310
FF302821FF302821FFFFFF00FFFFFF00FF302821FF302821FF302821FF302821FF302821FF302821FF302821FF302821FF302821FF302821FF302821FF302821FF302821FFFFFF00FFFFFF00FFFFFF00FFFFFF00FFFFFF00FFFFFF00FFFFFF00FFFFFF00FFFFFF00FFFFFF00FFFFFF00FF302821FF302821FF302821FF3028
310
21FF302821FF302821FF302821FF302821FFFFFF00FF302821FF302821FF302821FF302821FF302821FF302821FF302821FF302821FF302821FF302821FF302821FFFFFF00FFFFFF00FFFFFF00FFFFFF00FFFFFF00FFFFFF00FFFFFF00FFFFFF00FFFFFF00FFFFFF00FFFFFF00FFFFFF00FF302821FF302821FF302821FF30
310
2821FF302821FF302821FF302821FF302821FF302821FFFFFF00FF302821FF302821FF302821FF302821FF302821FF302821FF302821FF302821FF302821FFFFFF00FFFFFF00FFFFFF00FFFFFF00FFFFFF00FFFFFF00FFFFFF00FFFFFF00FFFFFF00FFFFFF00FFFFFF00FFFFFF00FFFFFF00FF302821FF302821FF302821FF
310
302821FF302821FF302821FF302821FF302821FF302821FF302821FFFFFF00FF302821FF302821FF302821FF302821FF302821FF302821FF302821FFFFFF00FFFFFF00FFFFFF00FFFFFF00FFFFFF00FFFFFF00FFFFFF00FFFFFF00FFFFFF00FFFFFF00FFFFFF00FFFFFF00FFFFFF00FFFFFF00FF302821FF302821FF302821
310
FF302821FF302821FF302821FF302821FF302821FF302821FF302821FFFFFF00FF302821FF302821FF302821FF302821FF302821FF302821FF302821FFFFFF00FFFFFF00FFFFFF00FFFFFF00FFFFFF00FFFFFF00FFFFFF00FFFFFF00FFFFFF00FFFFFF00FFFFFF00FFFFFF00FFFFFF00FFFFFF00FF302821FF302821FF3028
310
21FF302821FF302821FF302821FF302821FF302821FF302821FF302821FF302821FFFFFF00FF302821FF302821FF302821FF302821FF302821FFFFFF00FFFFFF00FFFFFF00FFFFFF00FFFFFF00FFFFFF00FFFFFF00FFFFFF00FFFFFF00FFFFFF00FFFFFF00FFFFFF00FFFFFF00FFFFFF00FFFFFF00FF302821FF302821FF30
310
2821FF302821FF302821FF302821FF302821FF302821FF302821FF302821FF302821FF302821FFFFFF00FF302821FF302821FF302821FF302821FFFFFF00FFFFFF00FFFFFF00FFFFFF00FFFFFF00FFFFFF00FFFFFF00FFFFFF00FFFFFF00FFFFFF00FFFFFF00FFFFFF00FFFFFF00FFFFFF00FFFFFF00FF302821FF302821FF
310
302821FF302821FF302821FF302821FF302821FF302821FF302821FF302821FF302821FF302821FFFFFF00FF302821FF302821FF302821FF302821FFFFFF00FFFFFF00FFFFFF00FFFFFF00FFFFFF00FFFFFF00FFFFFF00FFFFFF00FFFFFF00FFFFFF00FFFFFF00FFFFFF00FFFFFF00FFFFFF00FFFFFF00FF302821FF302821
310
FF302821FF302821FF302821FF302821FF302821FF302821FF302821FF302821FF302821FF302821FFFFFF00FF302821FF302821FF302821FF302821FFFFFF00FFFFFF00FFFFFF00FFFFFF00FFFFFF00FFFFFF00FFFFFF00FFFFFF00FFFFFF00FFFFFF00FFFFFF00FFFFFF00FFFFFF00FFFFFF00FFFFFF00FF302821FF3028
310
21FF302821FF302821FF302821FF302821FF302821FF302821FF302821FF302821FF302821FF302821FFFFFF00FF302821FF302821FF302821FFFFFF00FFFFFF00FFFFFF00FFFFFF00FFFFFF00FFFFFF00FFFFFF00FFFFFF00FFFFFF00FFFFFF00FFFFFF00FFFFFF00FFFFFF00FFFFFF00FFFFFF00FFFFFF00FF302821FF30
310
2821FF302821FF302821FF302821FF302821FF302821FF302821FF302821FF302821FF302821FF302821FF302821FFFFFF00FF302821FF302821FFFFFF00FFFFFF00FFFFFF00FFFFFF00FFFFFF00FFFFFF00FFFFFF00FFFFFF00FFFFFF00FFFFFF00FFFFFF00FFFFFF00FFFFFF00FFFFFF00FFFFFF00FFFFFF00FFFFFF00FF
310
FFFF00FFFFFF00FFFFFF00FFFFFF00FFFFFF00FFFFFF00FFFFFF00FFFFFF00FFFFFF00FFFFFF00FFFFFF00FFFFFF00FFFFFF00FF302821FF302821FFFFFF00FF302821FF302821FF302821FF302821FF302821FF302821FF302821FF302821FF302821FF302821FF302821FF302821FF302821FF302821FFFFFF00FFFFFF00
310
FFFFFF00FFFFFF00FFFFFF00FFFFFF00FFFFFF00FFFFFF00FFFFFF00FFFFFF00FFFFFF00FFFFFF00FFFFFF00FFFFFF00FFFFFF00FF302821FF302821FFFFFF00FF302821FF302821FF302821FF302821FF302821FF302821FF302821FF302821FF302821FF302821FF302821FF302821FF302821FF302821FFFFFF00FFFFFF
310
00FFFFFF00FFFFFF00FFFFFF00FFFFFF00FFFFFF00FFFFFF00FFFFFF00FFFFFF00FFFFFF00FFFFFF00FFFFFF00FFFFFF00FF302821FF302821FF302821FF302821FFFFFF00FF302821FF302821FF302821FF302821FF302821FF302821FF302821FF302821FF302821FF302821FF302821FF302821FF302821FFFFFF00FFFF
310
FF00FFFFFF00FFFFFF00FFFFFF00FFFFFF00FFFFFF00FFFFFF00FFFFFF00FFFFFF00FFFFFF00FFFFFF00FFFFFF00FFFFFF00FF302821FF302821FF302821FF302821FFFFFF00FF302821FF302821FF302821FF302821FF302821FF302821FF302821FF302821FF302821FF302821FF302821FF302821FF302821FFFFFF00FF
310
FFFF00FFFFFF00FFFFFF00FFFFFF00FFFFFF00FFFFFF00FFFFFF00FFFFFF00FFFFFF00FFFFFF00FFFFFF00FFFFFF00FFFFFF00FF302821FF302821FF302821FF302821FFFFFF00FF302821FF302821FF302821FF302821FF302821FF302821FF302821FF302821FF302821FF302821FF302821FF302821FF302821FFFFFF00
310
FFFFFF00FFFFFF00FFFFFF00FFFFFF00FFFFFF00FFFFFF00FFFFFF00FFFFFF00FFFFFF00FFFFFF00FFFFFF00FFFFFF00FFFFFF00FF302821FF302821FF302821FF302821FF302821FFFFFF00FF302821FF302821FF302821FF302821FF302821FF302821FF302821FF302821FF302821FF302821FF302821FF302821FFFFFF
310
00FFFFFF00FFFFFF00FFFFFF00FFFFFF00FFFFFF00FFFFFF00FFFFFF00FFFFFF00FFFFFF00FFFFFF00FFFFFF00FFFFFF00FFFFFF00FF302821FF302821FF302821FF302821FF302821FFFFFF00FF302821FF302821FF302821FF302821FF302821FF302821FF302821FF302821FF302821FF302821FF302821FF302821FFFF
310
FF00FFFFFF00FFFFFF00FFFFFF00FFFFFF00FFFFFF00FFFFFF00FFFFFF00FFFFFF00FFFFFF00FFFFFF00FFFFFF00FFFFFF00FF302821FF302821FF302821FF302821FF302821FF302821FF302821FFFFFF00FF302821FF302821FF302821FF302821FF302821FF302821FF302821FF302821FF302821FF302821FF302821FF
310
FFFF00FFFFFF00FFFFFF00FFFFFF00FFFFFF00FFFFFF00FFFFFF00FFFFFF00FFFFFF00FFFFFF00FFFFFF00FFFFFF00FFFFFF00FF302821FF302821FF302821FF302821FF302821FF302821FF302821FFFFFF00FF302821FF302821FF302821FF302821FF302821FF302821FF302821FF302821FF302821FF302821FF302821
310
FFFFFF00FFFFFF00FFFFFF00FFFFFF00FFFFFF00FFFFFF00FFFFFF00FFFFFF00FFFFFF00FFFFFF00FFFFFF00FFFFFF00FF302821FF302821FF302821FF302821FF302821FF302821FF302821FF302821FF302821FFFFFF00FF302821FF302821FF302821FF302821FF302821FF302821FF302821FF302821FF302821FF3028
310
21FFFFFF00FFFFFF00FFFFFF00FFFFFF00FFFFFF00FFFFFF00FFFFFF00FFFFFF00FFFFFF00FFFFFF00FFFFFF00FF302821FF302821FF302821FF302821FF302821FF302821FF302821FF302821FF302821FF302821FF302821FFFFFF00FF302821FF302821FF302821FF302821FF302821FF302821FF302821FF302821FF30
310
2821FFFFFF00FFFFFF00FFFFFF00FFFFFF00FFFFFF00FFFFFF00FFFFFF00FFFFFF00FFFFFF00FFFFFF00FF302821FF302821FF302821FF302821FF302821FF302821FF302821FF302821FF302821FF302821FF302821FF302821FF302821FFFFFF00FF302821FF302821FF302821FF302821FF302821FF302821FF302821FF
310
302821FFFFFF00FFFFFF00FFFFFF00FFFFFF00FFFFFF00FFFFFF00FFFFFF00FFFFFF00FFFFFF00FF302821FF302821FF302821FF302821FF302821FF302821FF302821FF302821FF302821FF302821FF302821FF302821FF302821FF302821FF302821FFFFFF00FFFFFF00FF302821FF302821FF302821FF302821FF302821
310
FF302821FFFFFF00FFFFFF00FFFFFF00FFFFFF00FFFFFF00FFFFFF00FFFFFF00FFFFFF00FF302821FF302821FF302821FF302821FF302821FF302821FF302821FF302821FF302821FF302821FF302821FF302821FF302821FF302821FF302821FF302821FF302821FF302821FFFFFF00FFFFFF00FFFFFF00FFFFFF00FFFFFF
310
00FF302821FFFFFF00FFFFFF00FFFFFF00FFFFFF00FFFFFF00FFFFFF00FF302821FF302821FF302821FF302821FF302821FF302821FF302821FF302821FF302821FF302821FF302821FF302821FF302821FF302821FF302821FF302821FF302821FF302821FF302821FF302821FF302821FF302821FF302821FF302821FF30
310
2821FFFFFF00FFFFFF00FFFFFF00FF302821FF302821FF302821FF302821FF302821FF302821FF302821FF302821FF302821FF302821FF302821FF302821FF302821FF302821FF302821FF302821FF302821FF302821FF302821FF302821FF302821FF302821FF302821FF302821FF302821FF302821FF302821FF302821FF
310
302821FF302821FF302821FF302821FF302821FF302821FF302821FF302821FF302821FF302821FF302821FF302821FF302821FF302821FF302821FF302821FF302821FF302821FF
102
{BLKREFS
331
13D5
102
}
  0
ENDTAB
  0
ENDSEC
  0
SECTION
  2
BLOCKS
  0
BLOCK
  5
32
330
18
100
AcDbEntity
  8
0
100
AcDbBlockBegin
  2
*MODEL_SPACE
 70
     0
 10
0.0
 20
0.0
 30
0.0
  3
*MODEL_SPACE
  1

  0
ENDBLK
  5
33
330
18
100
AcDbEntity
  8
0
100
AcDbBlockEnd
  0
BLOCK
  5
339
330
338
100
AcDbEntity
 67
     1
  8
0
100
AcDbBlockBegin
  2
*Paper_Space
 70
     0
 10
0.0
 20
0.0
 30
0.0
  3
*Paper_Space
  1

  0
ENDBLK
  5
33A
330
338
100
AcDbEntity
 67
     1
  8
0
100
AcDbBlockEnd
  0
BLOCK
  5
465
330
464
100
AcDbEntity
  8
0
100
AcDbBlockBegin
  2
_None
 70
     0
 10
0.0
 20
0.0
 30
0.0
  3
_None
  1

  0
ENDBLK
  5
466
330
464
100
AcDbEntity
  8
0
100
AcDbBlockEnd
  0
BLOCK
  5
F56
330
F55
100
AcDbEntity
  8
0
100
AcDbBlockBegin
  2
*D3
 70
     1
 10
0.0
 20
0.0
 30
0.0
  3
*D3
  1

  0
LINE
  5
138A
330
F55
100
AcDbEntity
  8
2
 62
     0
370
    -2
100
AcDbLine
 10
-0.000000000003638
 20
4.774999999999976
 30
0.0
 11
-0.0000000000036367
 21
25.73217050052182
 31
0.0
  0
LINE
  5
138B
330
F55
100
AcDbEntity
  8
2
 62
     0
370
    -2
100
AcDbLine
 10
16.49999999999636
 20
0.0
 30
0.0
 11
16.49999999999636
 21
25.73217050052182
 31
0.0
  0
LINE
  5
138C
330
F55
100
AcDbEntity
  8
2
 62
     0
370
    -2
100
AcDbLine
 10
2.499999999996363
 20
24.48217050052182
 30
0.0
 11
13.99999999999636
 21
24.48217050052182
 31
0.0
  0
LINE
  5
138D
330
F55
100
AcDbEntity
  8
2
 62
     0
370
    -2
100
AcDbLine
 10
16.49999999999636
 20
24.48217050052182
 30
0.0
 11
32.96978215038286
 21
24.48217050052182
 31
0.0
  0
SOLID
  5
138E
330
F55
100
AcDbEntity
  8
2
 62
     0
100
AcDbTrace
 10
2.499999999996363
 20
24.89883716718849
 30
0.0
 11
2.499999999996363
 21
24.06550383385515
 31
0.0
 12
-0.0000000000036368
 22
24.48217050052182
 32
0.0
 13
-0.0000000000036368
 23
24.48217050052182
 33
0.0
  0
SOLID
  5
138F
330
F55
100
AcDbEntity
  8
2
 62
     0
100
AcDbTrace
 10
13.99999999999636
 20
24.89883716718849
 30
0.0
 11
13.99999999999636
 21
24.06550383385515
 31
0.0
 12
16.49999999999636
 22
24.48217050052182
 32
0.0
 13
16.49999999999636
 23
24.48217050052182
 33
0.0
  0
MTEXT
  5
1390
330
F55
100
AcDbEntity
  8
2
 62
     0
100
AcDbMText
 10
26.74797962051639
 20
26.91866031078183
 30
0.0
 40
3.5
 41
0.0
 71
     5
 72
     1
  1
16.5
 73
     1
 44
1.0
1001
ACAD
1000
MTEXTBEGIN
1070
    73
1070
     1
1070
    44
1040
1.0
1070
    74
1070
     0
1000
MTEXTEND
  0
POINT
  5
1391
330
F55
100
AcDbEntity
  8
DEFPOINTS
 62
     0
100
AcDbPoint
 10
-0.000000000003638
 20
4.774999999999976
 30
0.0
  0
POINT
  5
1392
330
F55
100
AcDbEntity
  8
DEFPOINTS
 62
     0
100
AcDbPoint
 10
16.49999999999636
 20
0.0
 30
0.0
  0
POINT
  5
1393
330
F55
100
AcDbEntity
  8
DEFPOINTS
 62
     0
100
AcDbPoint
 10
16.49999999999636
 20
24.48217050052182
 30
0.0
  0
ENDBLK
  5
F57
330
F55
100
AcDbEntity
  8
0
100
AcDbBlockEnd
  0
BLOCK
  5
FD4
330
FD3
100
AcDbEntity
  8
0
100
AcDbBlockBegin
  2
*D4
 70
     1
 10
0.0
 20
0.0
 30
0.0
  3
*D4
  1

  0
LINE
  5
13B0
330
FD3
100
AcDbEntity
  8
2
 62
     0
370
    -2
100
AcDbLine
 10
10.70446799999636
 20
5.797800999999991
 30
0.0
 11
51.74999999999652
 21
5.79780099999998
 31
0.0
  0
LINE
  5
13B1
330
FD3
100
AcDbEntity
  8
2
 62
     0
370
    -2
100
AcDbLine
 10
10.70457245703382
 20
-5.797800999053436
 30
0.0
 11
51.74999999999652
 21
-5.797800999053448
 31
0.0
  0
LINE
  5
13B2
330
FD3
100
AcDbEntity
  8
2
 62
     0
370
    -2
100
AcDbLine
 10
50.49999999999652
 20
-3.297800999053448
 30
0.0
 11
50.49999999999652
 21
3.29780099999998
 31
0.0
  0
LINE
  5
13B3
330
FD3
100
AcDbEntity
  8
2
 62
     0
370
    -2
100
AcDbLine
 10
50.49999999999652
 20
5.79780099999998
 30
0.0
 11
50.49999999999652
 21
25.79955785172171
 31
0.0
  0
SOLID
  5
13B4
330
FD3
100
AcDbEntity
  8
2
 62
     0
100
AcDbTrace
 10
50.08333333332985
 20
-3.297800999053448
 30
0.0
 11
50.91666666666318
 21
-3.297800999053448
 31
0.0
 12
50.49999999999652
 22
-5.797800999053448
 32
0.0
 13
50.49999999999652
 23
-5.797800999053448
 33
0.0
  0
SOLID
  5
13B5
330
FD3
100
AcDbEntity
  8
2
 62
     0
100
AcDbTrace
 10
50.08333333332985
 20
3.29780099999998
 30
0.0
 11
50.91666666666318
 21
3.29780099999998
 31
0.0
 12
50.49999999999652
 22
5.79780099999998
 32
0.0
 13
50.49999999999652
 23
5.79780099999998
 33
0.0
  0
MTEXT
  5
13B6
330
FD3
100
AcDbEntity
  8
2
 62
     0
100
AcDbMText
 10
48.01185874911809
 20
17.79947000913563
 30
0.0
 40
3.5
 41
0.0
 71
     5
 72
     1
  1
%%c11.6
 11
0.0000000000000001
 21
1.0
 31
0.0
 73
     1
 44
1.0
1001
ACAD
1000
MTEXTBEGIN
1070
    73
1070
     1
1070
    44
1040
1.0
1070
    74
1070
     0
1000
MTEXTEND
  0
POINT
  5
13B7
330
FD3
100
AcDbEntity
  8
DEFPOINTS
 62
     0
100
AcDbPoint
 10
10.70446799999636
 20
5.797800999999991
 30
0.0
  0
POINT
  5
13B8
330
FD3
100
AcDbEntity
  8
DEFPOINTS
 62
     0
100
AcDbPoint
 10
10.70457245703382
 20
-5.797800999053436
 30
0.0
  0
POINT
  5
13B9
330
FD3
100
AcDbEntity
  8
DEFPOINTS
 62
     0
100
AcDbPoint
 10
50.49999999999652
 20
-5.797800999053448
 30
0.0
  0
ENDBLK
  5
FD5
330
FD3
100
AcDbEntity
  8
0
100
AcDbBlockEnd
  0
BLOCK
  5
1004
330
1003
100
AcDbEntity
  8
0
100
AcDbBlockBegin
  2
*D5
 70
     1
 10
0.0
 20
0.0
 30
0.0
  3
*D5
  1

  0
LINE
  5
1341
330
1003
100
AcDbEntity
  8
2
 62
     0
370
    -2
100
AcDbLine
 10
16.49999999999727
 20
-0.0000000000030695
 30
0.0
 11
29.39868117443843
 21
-12.89868117444048
 31
0.0
  0
LINE
  5
1342
330
1003
100
AcDbEntity
  8
2
 62
     0
370
    -2
100
AcDbLine
 10
16.49999999999727
 20
0.0000000000034106
 30
0.0
 11
29.39868117473897
 21
12.89868117414029
 31
0.0
  0
ARC
  5
1343
330
1003
100
AcDbEntity
  8
2
 62
     0
370
    -2
100
AcDbCircle
 10
16.49999999999403
 20
0.0000000000001706
 30
0.0
 40
16.99148985362314
100
AcDbArc
 50
323.4376924844427
 51
36.56230751422236
  0
SOLID
  5
1344
330
1003
100
AcDbEntity
  8
2
 62
     0
100
AcDbTrace
 10
30.46323076874042
 20
-10.39392766005146
 30
0.0
 11
29.83222248235009
 21
-9.849618017521418
 31
0.0
 12
28.51479769795512
 22
-12.01479769795742
 32
0.0
 13
28.51479769795512
 23
-12.01479769795742
 33
0.0
  0
SOLID
  5
1345
330
1003
100
AcDbEntity
  8
2
 62
     0
100
AcDbTrace
 10
29.83222248257959
 20
9.849618017211126
 30
0.0
 11
30.4632307689826
 21
10.39392765972647
 31
0.0
 12
28.51479769823506
 22
12.01479769767783
 32
0.0
 13
28.51479769823506
 23
12.01479769767783
 33
0.0
  0
MTEXT
  5
1346
330
1003
100
AcDbEntity
  8
2
 62
     0
100
AcDbMText
 10
31.05500004335716
 20
-0.0000000001977704
 30
0.0
 40
3.5
 41
0.0
 71
     5
 72
     1
  1
90\U+00B0
 11
0.0000000000000001
 21
1.0
 31
0.0
 73
     1
 44
1.0
1001
ACAD
1000
MTEXTBEGIN
1070
    73
1070
     1
1070
    44
1040
1.0
1070
    74
1070
     0
1000
MTEXTEND
  0
POINT
  5
1347
330
1003
100
AcDbEntity
  8
DEFPOINTS
 62
     0
100
AcDbPoint
 10
32.91251887670334
 20
-4.397721178910419
 30
0.0
  0
POINT
  5
1348
330
1003
100
AcDbEntity
  8
DEFPOINTS
 62
     0
100
AcDbPoint
 10
16.49999999999727
 20
-0.0000000000030695
 30
0.0
  0
POINT
  5
1349
330
1003
100
AcDbEntity
  8
DEFPOINTS
 62
     0
100
AcDbPoint
 10
16.49999999999727
 20
0.0000000000034106
 30
0.0
  0
POINT
  5
134A
330
1003
100
AcDbEntity
  8
DEFPOINTS
 62
     0
100
AcDbPoint
 10
16.48795399064733
 20
-0.0120460093459656
 30
0.0
  0
POINT
  5
134B
330
1003
100
AcDbEntity
  8
DEFPOINTS
 62
     0
100
AcDbPoint
 10
16.48795399064761
 20
0.0120460093465909
 30
0.0
  0
ENDBLK
  5
1005
330
1003
100
AcDbEntity
  8
0
100
AcDbBlockEnd
  0
BLOCK
  5
11BD
330
11BC
100
AcDbEntity
  8
0
100
AcDbBlockBegin
  2
*D9
 70
     1
 10
0.0
 20
0.0
 30
0.0
  3
*D9
  1

  0
LINE
  5
1241
330
11BC
100
AcDbEntity
  8
SK2
 62
     0
370
    -2
100
AcDbLine
 10
-0.000000000003638
 20
4.774999999999976
 30
0.0
 11
-24.90000000000364
 21
4.774999999999983
 31
0.0
  0
LINE
  5
1242
330
11BC
100
AcDbEntity
  8
SK2
 62
     0
370
    -2
100
AcDbLine
 10
-0.000000000003638
 20
-4.774999999999976
 30
0.0
 11
-24.90000000000364
 21
-4.774999999999969
 31
0.0
  0
LINE
  5
1243
330
11BC
100
AcDbEntity
  8
SK2
 62
     0
370
    -2
100
AcDbLine
 10
-23.65000000000364
 20
-2.27499999999997
 30
0.0
 11
-23.65000000000364
 21
2.274999999999983
 31
0.0
  0
LINE
  5
1244
330
11BC
100
AcDbEntity
  8
SK2
 62
     0
370
    -2
100
AcDbLine
 10
-23.65000000000364
 20
4.774999999999983
 30
0.0
 11
-23.65000000000364
 21
23.22598383696414
 31
0.0
  0
SOLID
  5
1245
330
11BC
100
AcDbEntity
  8
SK2
 62
     0
100
AcDbTrace
 10
-24.06666666667031
 20
-2.27499999999997
 30
0.0
 11
-23.23333333333697
 21
-2.27499999999997
 31
0.0
 12
-23.65000000000364
 22
-4.774999999999969
 32
0.0
 13
-23.65000000000364
 23
-4.774999999999969
 33
0.0
  0
SOLID
  5
1246
330
11BC
100
AcDbEntity
  8
SK2
 62
     0
100
AcDbTrace
 10
-24.06666666667031
 20
2.274999999999983
 30
0.0
 11
-23.23333333333697
 21
2.274999999999983
 31
0.0
 12
-23.65000000000364
 22
4.774999999999983
 32
0.0
 13
-23.65000000000364
 23
4.774999999999983
 33
0.0
  0
MTEXT
  5
1247
330
11BC
100
AcDbEntity
  8
SK2
 62
     0
100
AcDbMText
 10
-26.13814125088206
 20
15.25049191848206
 30
0.0
 40
3.5
 41
0.0
 71
     5
 72
     1
  1
%%c9.55
 11
0.0000000000000001
 21
1.0
 31
0.0
 73
     1
 44
1.0
1001
ACAD
1000
MTEXTBEGIN
1070
    73
1070
     1
1070
    44
1040
1.0
1070
    74
1070
     0
1000
MTEXTEND
  0
POINT
  5
1248
330
11BC
100
AcDbEntity
  8
DEFPOINTS
 62
     0
100
AcDbPoint
 10
-0.000000000003638
 20
4.774999999999976
 30
0.0
  0
POINT
  5
1249
330
11BC
100
AcDbEntity
  8
DEFPOINTS
 62
     0
100
AcDbPoint
 10
-0.000000000003638
 20
-4.774999999999976
 30
0.0
  0
POINT
  5
124A
330
11BC
100
AcDbEntity
  8
DEFPOINTS
 62
     0
100
AcDbPoint
 10
-23.65000000000364
 20
-4.774999999999969
 30
0.0
  0
ENDBLK
  5
11BE
330
11BC
100
AcDbEntity
  8
0
100
AcDbBlockEnd
  0
BLOCK
  5
129C
330
129A
100
AcDbEntity
  8
0
100
AcDbBlockBegin
  2
Name
 70
     2
 10
0.0
 20
0.0
 30
0.0
  3
Name
  1

  0
ATTDEF
  5
129D
102
{ACAD_XDICTIONARY
360
129E
102
}
330
129A
100
AcDbEntity
  8
SKVIEW63
100
AcDbText
 10
0.0905073844082551
 20
0.0474757964751689
 30
0.0
 40
3.5
  1
46N11610T6RA45
 41
0.8
  7
BMG_Text
100
AcDbAttributeDefinition
  3
identisch mit Dateiname
  2
NAME
 70
     4
  0
ENDBLK
  5
12A2
330
129A
100
AcDbEntity
  8
0
100
AcDbBlockEnd
  0
BLOCK
  5
13C6
330
13C4
100
AcDbEntity
  8
0
100
AcDbBlockBegin
  2
cero_point
 70
     0
 10
0.0
 20
0.0
 30
0.0
  3
cero_point
  1

  0
HATCH
  5
13C7
330
13C4
100
AcDbEntity
  8
1
  6
ByBlock
370
    50
100
AcDbHatch
 10
0.0
 20
0.0
 30
0.0
210
0.0
220
0.0
230
1.0
  2
SOLID
 70
     1
 71
     0
 91
        2
 92
        7
 72
     1
 73
     1
 93
        3
 10
-0.0000000000001137
 20
0.0
 42
0.0
 10
-2.950972054112752
 20
0.0
 42
0.4142135623730968
 10
-0.0000000000001137
 20
-2.950972054112583
 42
0.0
 97
        0
 92
        7
 72
     1
 73
     1
 93
        3
 10
-0.0000000000001137
 20
2.950972054112638
 42
0.0
 10
-0.0000000000001137
 20
0.0
 42
0.0
 10
2.950972054112526
 20
0.0
 42
0.4142135623730966
 97
        0
 75
     0
 76
     1
 47
0.1190009775223266
 98
        2
 10
-0.7445530588121301
 20
-0.9212244733764125
 10
1.279464601852737
 20
1.696796923046345
  0
LWPOLYLINE
  5
13C8
330
13C4
100
AcDbEntity
  8
1
  6
ByBlock
370
    50
100
AcDbPolyline
 90
        3
 70
     1
 43
0.0
 10
-0.0000000000001137
 20
0.0
 10
2.950972054112526
 20
0.0
 42
0.4142135623730966
 10
-0.0000000000001137
 20
2.950972054112638
  0
LINE
  5
13C9
330
13C4
100
AcDbEntity
  8
1
  6
ByBlock
370
    50
100
AcDbLine
 10
-0.0000000000001137
 20
-2.950972054112583
 30
0.0
 11
-0.0000000000001137
 21
2.950972054112638
 31
0.0
  0
LWPOLYLINE
  5
13CA
330
13C4
100
AcDbEntity
  8
1
  6
ByBlock
370
    50
100
AcDbPolyline
 90
        3
 70
     1
 43
0.0
 10
-0.0000000000001137
 20
-2.950972054112583
 10
-0.0000000000001137
 20
0.0
 10
-2.950972054112752
 20
0.0
 42
0.4142135623730966
  0
LINE
  5
13CB
330
13C4
100
AcDbEntity
  8
1
  6
ByBlock
370
    50
100
AcDbLine
 10
2.950972054112638
 20
0.0
 30
0.0
 11
-2.950972054112638
 21
0.0
 31
0.0
  0
CIRCLE
  5
13CC
330
13C4
100
AcDbEntity
  8
1
  6
ByBlock
370
    50
100
AcDbCircle
 10
-0.0000000000001137
 20
0.0
 30
0.0
 40
2.950972054112601
  0
ENDBLK
  5
13CD
330
13C4
100
AcDbEntity
  8
0
100
AcDbBlockEnd
  0
ENDSEC
  0
SECTION
  2
ENTITIES
  0
LINE
  5
B46
330
18
100
AcDbEntity
  8
SK4
100
AcDbLine
 10
0.538191633047518
 20
0.0
 30
0.0
 11
-6.85277200000366
 21
0.0
 31
0.0
  0
LINE
  5
B4B
330
18
100
AcDbEntity
  8
SK1
100
AcDbLine
 10
-0.000000000003638
 20
3.391204000000016
 30
0.0
 11
-0.000000000003638
 21
-3.391204000000016
 31
0.0
  0
LINE
  5
B4C
330
18
100
AcDbEntity
  8
SK1
100
AcDbLine
 10
-0.000000000003638
 20
-3.391204000000016
 30
0.0
 11
-1.370000000003634
 21
-3.319929000000001
 31
0.0
  0
LINE
  5
B4D
330
18
100
AcDbEntity
  8
SK1
100
AcDbLine
 10
-1.370000000003634
 20
3.319929000000001
 30
0.0
 11
-1.370000000003634
 21
-3.319929000000001
 31
0.0
  0
LINE
  5
B4E
330
18
100
AcDbEntity
  8
SK1
100
AcDbLine
 10
-0.000000000003638
 20
3.391204000000016
 30
0.0
 11
-1.370000000003634
 21
3.319929000000001
 31
0.0
  0
ARC
  5
B4F
330
18
100
AcDbEntity
  8
SK1
100
AcDbCircle
 10
-1.469997000003637
 20
3.279809999999997
 30
0.0
 40
0.099997
100
AcDbArc
 50
269.9980470000003
 51
359.9980470000011
  0
LINE
  5
B50
330
18
100
AcDbEntity
  8
SK1
100
AcDbLine
 10
-1.470000000003635
 20
-3.179999000000008
 30
0.0
 11
-1.470000000003635
 21
3.180000000000006
 31
0.0
  0
LINE
  5
B51
330
18
100
AcDbEntity
  8
SK1
100
AcDbLine
 10
-1.470000000003635
 20
-3.180000000000006
 30
0.0
 11
-1.493519000003637
 21
-3.180000000000006
 31
0.0
  0
LINE
  5
B52
330
18
100
AcDbEntity
  8
SK1
100
AcDbLine
 10
-1.494254000003635
 20
-3.179990999999971
 30
0.0
 11
-1.503556000003634
 21
-3.177182000000016
 31
0.0
  0
POLYLINE
  5
B53
330
18
100
AcDbEntity
  8
SK1
100
AcDb2dPolyline
 66
     1
 10
0.0
 20
0.0
 30
0.0
  0
VERTEX
  5
B54
330
B53
100
AcDbEntity
  8
SK1
100
AcDbVertex
100
AcDb2dVertex
 10
-1.503556000003634
 20
-3.177182000000016
 30
0.0
  0
VERTEX
  5
B55
330
B53
100
AcDbEntity
  8
SK1
100
AcDbVertex
100
AcDb2dVertex
 10
-1.517656000003633
 20
-3.16341299999999
 30
0.0
  0
VERTEX
  5
B56
330
B53
100
AcDbEntity
  8
SK1
100
AcDbVertex
100
AcDb2dVertex
 10
-1.545611000003638
 20
-3.102576999999995
 30
0.0
  0
VERTEX
  5
B57
330
B53
100
AcDbEntity
  8
SK1
100
AcDbVertex
100
AcDb2dVertex
 10
-1.572975000003637
 20
-3.000771999999982
 30
0.0
  0
VERTEX
  5
B58
330
B53
100
AcDbEntity
  8
SK1
100
AcDbVertex
100
AcDb2dVertex
 10
-1.625134000003633
 20
-2.696710999999993
 30
0.0
  0
VERTEX
  5
B59
330
B53
100
AcDbEntity
  8
SK1
100
AcDbVertex
100
AcDb2dVertex
 10
-1.666107000003633
 20
-2.365041000000019
 30
0.0
  0
VERTEX
  5
B5A
330
B53
100
AcDbEntity
  8
SK1
100
AcDbVertex
100
AcDb2dVertex
 10
-1.741829000003633
 20
-1.574075999999989
 30
0.0
  0
VERTEX
  5
B5B
330
B53
100
AcDbEntity
  8
SK1
100
AcDbVertex
100
AcDb2dVertex
 10
-1.845891000003631
 20
-0.2432709999999929
 30
0.0
  0
VERTEX
  5
B5C
330
B53
100
AcDbEntity
  8
SK1
100
AcDbVertex
100
AcDb2dVertex
 10
-1.970453000003637
 20
1.388563999999972
 30
0.0
  0
SEQEND
  5
B5D
330
B53
100
AcDbEntity
  8
SK1
  0
POLYLINE
  5
B5E
330
18
100
AcDbEntity
  8
SK1
100
AcDb2dPolyline
 66
     1
 10
0.0
 20
0.0
 30
0.0
  0
VERTEX
  5
B5F
330
B5E
100
AcDbEntity
  8
SK1
100
AcDbVertex
100
AcDb2dVertex
 10
-1.970453000003637
 20
1.388563999999972
 30
0.0
  0
VERTEX
  5
B60
330
B5E
100
AcDbEntity
  8
SK1
100
AcDbVertex
100
AcDb2dVertex
 10
-2.073845000003635
 20
2.472457000000019
 30
0.0
  0
VERTEX
  5
B61
330
B5E
100
AcDbEntity
  8
SK1
100
AcDbVertex
100
AcDb2dVertex
 10
-2.131559000003633
 20
2.883940999999991
 30
0.0
  0
VERTEX
  5
B62
330
B5E
100
AcDbEntity
  8
SK1
100
AcDbVertex
100
AcDb2dVertex
 10
-2.171494000003633
 20
3.068967999999982
 30
0.0
  0
VERTEX
  5
B63
330
B5E
100
AcDbEntity
  8
SK1
100
AcDbVertex
100
AcDb2dVertex
 10
-2.192082000003637
 20
3.130145000000026
 30
0.0
  0
VERTEX
  5
B64
330
B5E
100
AcDbEntity
  8
SK1
100
AcDbVertex
100
AcDb2dVertex
 10
-2.212946000003633
 20
3.167614000000013
 30
0.0
  0
VERTEX
  5
B65
330
B5E
100
AcDbEntity
  8
SK1
100
AcDbVertex
100
AcDb2dVertex
 10
-2.223436000003636
 20
3.176994999999976
 30
0.0
  0
VERTEX
  5
B66
330
B5E
100
AcDbEntity
  8
SK1
100
AcDbVertex
100
AcDb2dVertex
 10
-2.233604000003636
 20
3.180000000000006
 30
0.0
  0
SEQEND
  5
B67
330
B5E
100
AcDbEntity
  8
SK1
  0
LINE
  5
B68
330
18
100
AcDbEntity
  8
SK1
100
AcDbLine
 10
-1.470000000003635
 20
3.180000000000006
 30
0.0
 11
-2.233604000003636
 21
3.180000000000006
 31
0.0
  0
LINE
  5
B69
330
18
100
AcDbEntity
  8
SK1
100
AcDbLine
 10
-2.973663000003631
 20
-3.180000000000006
 30
0.0
 11
-2.983660000003638
 21
-3.177140000000008
 31
0.0
  0
POLYLINE
  5
B6A
330
18
100
AcDbEntity
  8
SK1
100
AcDb2dPolyline
 66
     1
 10
0.0
 20
0.0
 30
0.0
  0
VERTEX
  5
B6B
330
B6A
100
AcDbEntity
  8
SK1
100
AcDbVertex
100
AcDb2dVertex
 10
-2.983660000003638
 20
-3.177140000000008
 30
0.0
  0
VERTEX
  5
B6C
330
B6A
100
AcDbEntity
  8
SK1
100
AcDbVertex
100
AcDb2dVertex
 10
-2.999628000003631
 20
-3.160710999999991
 30
0.0
  0
VERTEX
  5
B6D
330
B6A
100
AcDbEntity
  8
SK1
100
AcDbVertex
100
AcDb2dVertex
 10
-3.031189000003634
 20
-3.085764999999979
 30
0.0
  0
SEQEND
  5
B6E
330
B6A
100
AcDbEntity
  8
SK1
  0
POLYLINE
  5
B6F
330
18
100
AcDbEntity
  8
SK1
100
AcDb2dPolyline
 66
     1
 10
0.0
 20
0.0
 30
0.0
  0
VERTEX
  5
B70
330
B6F
100
AcDbEntity
  8
SK1
100
AcDbVertex
100
AcDb2dVertex
 10
-3.031189000003634
 20
-3.085764999999979
 30
0.0
  0
VERTEX
  5
B71
330
B6F
100
AcDbEntity
  8
SK1
100
AcDbVertex
100
AcDb2dVertex
 10
-3.069245000003633
 20
-2.922089000000028
 30
0.0
  0
VERTEX
  5
B72
330
B6F
100
AcDbEntity
  8
SK1
100
AcDbVertex
100
AcDb2dVertex
 10
-3.139973000003634
 20
-2.420515000000023
 30
0.0
  0
VERTEX
  5
B73
330
B6F
100
AcDbEntity
  8
SK1
100
AcDbVertex
100
AcDb2dVertex
 10
-3.217665000003633
 20
-1.622017000000028
 30
0.0
  0
VERTEX
  5
B74
330
B6F
100
AcDbEntity
  8
SK1
100
AcDbVertex
100
AcDb2dVertex
 10
-3.358619000003634
 20
0.2018800000000169
 30
0.0
  0
VERTEX
  5
B75
330
B6F
100
AcDbEntity
  8
SK1
100
AcDbVertex
100
AcDb2dVertex
 10
-3.454388000003631
 20
1.441412000000013
 30
0.0
  0
VERTEX
  5
B76
330
B6F
100
AcDbEntity
  8
SK1
100
AcDbVertex
100
AcDb2dVertex
 10
-3.505443000003636
 20
2.017584999999995
 30
0.0
  0
VERTEX
  5
B77
330
B6F
100
AcDbEntity
  8
SK1
100
AcDbVertex
100
AcDb2dVertex
 10
-3.588872000003631
 20
2.74491899999998
 30
0.0
  0
SEQEND
  5
B78
330
B6F
100
AcDbEntity
  8
SK1
  0
POLYLINE
  5
B79
330
18
100
AcDbEntity
  8
SK1
100
AcDb2dPolyline
 66
     1
 10
0.0
 20
0.0
 30
0.0
  0
VERTEX
  5
B7A
330
B79
100
AcDbEntity
  8
SK1
100
AcDbVertex
100
AcDb2dVertex
 10
-3.588872000003631
 20
2.74491899999998
 30
0.0
  0
VERTEX
  5
B7B
330
B79
100
AcDbEntity
  8
SK1
100
AcDbVertex
100
AcDb2dVertex
 10
-3.654737000003634
 20
3.081270000000017
 30
0.0
  0
VERTEX
  5
B7C
330
B79
100
AcDbEntity
  8
SK1
100
AcDbVertex
100
AcDb2dVertex
 10
-3.689465000003636
 20
3.163274000000001
 30
0.0
  0
VERTEX
  5
B7D
330
B79
100
AcDbEntity
  8
SK1
100
AcDbVertex
100
AcDb2dVertex
 10
-3.705596000003636
 20
3.178134
 30
0.0
  0
VERTEX
  5
B7E
330
B79
100
AcDbEntity
  8
SK1
100
AcDbVertex
100
AcDb2dVertex
 10
-3.713680000003633
 20
3.180000000000006
 30
0.0
  0
SEQEND
  5
B7F
330
B79
100
AcDbEntity
  8
SK1
  0
LINE
  5
B80
330
18
100
AcDbEntity
  8
SK1
100
AcDbLine
 10
-3.190197000003634
 20
3.180000000000006
 30
0.0
 11
-3.713680000003633
 21
3.180000000000006
 31
0.0
  0
LINE
  5
B81
330
18
100
AcDbEntity
  8
SK1
100
AcDbLine
 10
-3.190197000003634
 20
3.180000000000006
 30
0.0
 11
-3.179882000003636
 21
3.176985999999998
 31
0.0
  0
POLYLINE
  5
B82
330
18
100
AcDbEntity
  8
SK1
100
AcDb2dPolyline
 66
     1
 10
0.0
 20
0.0
 30
0.0
  0
VERTEX
  5
B83
330
B82
100
AcDbEntity
  8
SK1
100
AcDbVertex
100
AcDb2dVertex
 10
-3.179882000003636
 20
3.176985999999998
 30
0.0
  0
VERTEX
  5
B84
330
B82
100
AcDbEntity
  8
SK1
100
AcDbVertex
100
AcDb2dVertex
 10
-3.169715000003633
 20
3.168113000000004
 30
0.0
  0
VERTEX
  5
B85
330
B82
100
AcDbEntity
  8
SK1
100
AcDbVertex
100
AcDb2dVertex
 10
-3.149526000003638
 20
3.133160999999971
 30
0.0
  0
VERTEX
  5
B86
330
B82
100
AcDbEntity
  8
SK1
100
AcDbVertex
100
AcDb2dVertex
 10
-3.129628000003633
 20
3.076331999999978
 30
0.0
  0
VERTEX
  5
B87
330
B82
100
AcDbEntity
  8
SK1
100
AcDbVertex
100
AcDb2dVertex
 10
-3.091052000003634
 20
2.904343999999979
 30
0.0
  0
VERTEX
  5
B88
330
B82
100
AcDbEntity
  8
SK1
100
AcDbVertex
100
AcDb2dVertex
 10
-3.036328000003634
 20
2.528637000000002
 30
0.0
  0
VERTEX
  5
B89
330
B82
100
AcDbEntity
  8
SK1
100
AcDbVertex
100
AcDb2dVertex
 10
-2.938090000003633
 20
1.531003999999995
 30
0.0
  0
VERTEX
  5
B8A
330
B82
100
AcDbEntity
  8
SK1
100
AcDbVertex
100
AcDb2dVertex
 10
-2.920688000003636
 20
1.32105899999999
 30
0.0
  0
SEQEND
  5
B8B
330
B82
100
AcDbEntity
  8
SK1
  0
POLYLINE
  5
B8C
330
18
100
AcDbEntity
  8
SK1
100
AcDb2dPolyline
 66
     1
 10
0.0
 20
0.0
 30
0.0
  0
VERTEX
  5
B8D
330
B8C
100
AcDbEntity
  8
SK1
100
AcDbVertex
100
AcDb2dVertex
 10
-2.920688000003636
 20
1.32105899999999
 30
0.0
  0
VERTEX
  5
B8E
330
B8C
100
AcDbEntity
  8
SK1
100
AcDbVertex
100
AcDb2dVertex
 10
-2.803784000003638
 20
-0.2166290000000117
 30
0.0
  0
VERTEX
  5
B8F
330
B8C
100
AcDbEntity
  8
SK1
100
AcDbVertex
100
AcDb2dVertex
 10
-2.684955000003633
 20
-1.725055999999995
 30
0.0
  0
VERTEX
  5
B90
330
B8C
100
AcDbEntity
  8
SK1
100
AcDbVertex
100
AcDb2dVertex
 10
-2.590820000003638
 20
-2.629923000000018
 30
0.0
  0
VERTEX
  5
B91
330
B8C
100
AcDbEntity
  8
SK1
100
AcDbVertex
100
AcDb2dVertex
 10
-2.538550000003638
 20
-2.959253999999986
 30
0.0
  0
VERTEX
  5
B92
330
B8C
100
AcDbEntity
  8
SK1
100
AcDbVertex
100
AcDb2dVertex
 10
-2.501213000003636
 20
-3.105936999999982
 30
0.0
  0
VERTEX
  5
B93
330
B8C
100
AcDbEntity
  8
SK1
100
AcDbVertex
100
AcDb2dVertex
 10
-2.482036000003638
 20
-3.151107000000023
 30
0.0
  0
VERTEX
  5
B94
330
B8C
100
AcDbEntity
  8
SK1
100
AcDbVertex
100
AcDb2dVertex
 10
-2.462635000003635
 20
-3.175586000000008
 30
0.0
  0
VERTEX
  5
B95
330
B8C
100
AcDbEntity
  8
SK1
100
AcDbVertex
100
AcDb2dVertex
 10
-2.450186000003633
 20
-3.180000000000006
 30
0.0
  0
SEQEND
  5
B96
330
B8C
100
AcDbEntity
  8
SK1
  0
LINE
  5
B97
330
18
100
AcDbEntity
  8
SK1
100
AcDbLine
 10
-2.450186000003633
 20
-3.180000000000006
 30
0.0
 11
-2.973663000003631
 21
-3.180000000000006
 31
0.0
  0
LINE
  5
B98
330
18
100
AcDbEntity
  8
SK1
100
AcDbLine
 10
-4.453387000003636
 20
-3.180000000000006
 30
0.0
 11
-4.463379000003633
 21
-3.177149999999982
 31
0.0
  0
POLYLINE
  5
B99
330
18
100
AcDbEntity
  8
SK1
100
AcDb2dPolyline
 66
     1
 10
0.0
 20
0.0
 30
0.0
  0
VERTEX
  5
B9A
330
B99
100
AcDbEntity
  8
SK1
100
AcDbVertex
100
AcDb2dVertex
 10
-4.463379000003633
 20
-3.177149999999982
 30
0.0
  0
VERTEX
  5
B9B
330
B99
100
AcDbEntity
  8
SK1
100
AcDbVertex
100
AcDb2dVertex
 10
-4.473803000003633
 20
-3.168110000000011
 30
0.0
  0
VERTEX
  5
B9C
330
B99
100
AcDbEntity
  8
SK1
100
AcDbVertex
100
AcDb2dVertex
 10
-4.494528000003632
 20
-3.131848999999987
 30
0.0
  0
VERTEX
  5
B9D
330
B99
100
AcDbEntity
  8
SK1
100
AcDbVertex
100
AcDb2dVertex
 10
-4.514968000003633
 20
-3.072510000000022
 30
0.0
  0
VERTEX
  5
B9E
330
B99
100
AcDbEntity
  8
SK1
100
AcDbVertex
100
AcDb2dVertex
 10
-4.554590000003634
 20
-2.892608999999993
 30
0.0
  0
VERTEX
  5
B9F
330
B99
100
AcDbEntity
  8
SK1
100
AcDbVertex
100
AcDb2dVertex
 10
-4.608996000003634
 20
-2.514462999999977
 30
0.0
  0
VERTEX
  5
BA0
330
B99
100
AcDbEntity
  8
SK1
100
AcDbVertex
100
AcDb2dVertex
 10
-4.706638000003636
 20
-1.517878999999993
 30
0.0
  0
VERTEX
  5
BA1
330
B99
100
AcDbEntity
  8
SK1
100
AcDbVertex
100
AcDb2dVertex
 10
-4.773088000003631
 20
-0.67877900000002
 30
0.0
  0
SEQEND
  5
BA2
330
B99
100
AcDbEntity
  8
SK1
  0
POLYLINE
  5
BA3
330
18
100
AcDbEntity
  8
SK1
100
AcDb2dPolyline
 66
     1
 10
0.0
 20
0.0
 30
0.0
  0
VERTEX
  5
BA4
330
BA3
100
AcDbEntity
  8
SK1
100
AcDbVertex
100
AcDb2dVertex
 10
-4.773088000003631
 20
-0.67877900000002
 30
0.0
  0
VERTEX
  5
BA5
330
BA3
100
AcDbEntity
  8
SK1
100
AcDbVertex
100
AcDb2dVertex
 10
-4.897710000003633
 20
0.9840459999999779
 30
0.0
  0
VERTEX
  5
BA6
330
BA3
100
AcDbEntity
  8
SK1
100
AcDbVertex
100
AcDb2dVertex
 10
-4.963391000003638
 20
1.777528000000017
 30
0.0
  0
VERTEX
  5
BA7
330
BA3
100
AcDbEntity
  8
SK1
100
AcDbVertex
100
AcDb2dVertex
 10
-5.034410000003639
 20
2.478458999999985
 30
0.0
  0
VERTEX
  5
BA8
330
BA3
100
AcDbEntity
  8
SK1
100
AcDbVertex
100
AcDb2dVertex
 10
-5.072645000003638
 20
2.766925000000014
 30
0.0
  0
VERTEX
  5
BA9
330
BA3
100
AcDbEntity
  8
SK1
100
AcDbVertex
100
AcDb2dVertex
 10
-5.118383000003638
 20
3.016781999999976
 30
0.0
  0
VERTEX
  5
BAA
330
BA3
100
AcDbEntity
  8
SK1
100
AcDbVertex
100
AcDb2dVertex
 10
-5.142190000003636
 20
3.102772000000014
 30
0.0
  0
VERTEX
  5
BAB
330
BA3
100
AcDbEntity
  8
SK1
100
AcDbVertex
100
AcDb2dVertex
 10
-5.166430000003636
 20
3.157948999999973
 30
0.0
  0
VERTEX
  5
BAC
330
BA3
100
AcDbEntity
  8
SK1
100
AcDbVertex
100
AcDb2dVertex
 10
-5.178645000003633
 20
3.173113999999998
 30
0.0
  0
VERTEX
  5
BAD
330
BA3
100
AcDbEntity
  8
SK1
100
AcDbVertex
100
AcDb2dVertex
 10
-5.188930000003636
 20
3.179234000000008
 30
0.0
  0
VERTEX
  5
BAE
330
BA3
100
AcDbEntity
  8
SK1
100
AcDbVertex
100
AcDb2dVertex
 10
-5.194071000003638
 20
3.180000000000006
 30
0.0
  0
SEQEND
  5
BAF
330
BA3
100
AcDbEntity
  8
SK1
  0
LINE
  5
BB0
330
18
100
AcDbEntity
  8
SK1
100
AcDbLine
 10
-4.670091000003636
 20
3.180000000000006
 30
0.0
 11
-5.194071000003638
 21
3.180000000000006
 31
0.0
  0
LINE
  5
BB1
330
18
100
AcDbEntity
  8
SK1
100
AcDbLine
 10
-4.670091000003636
 20
3.180000000000006
 30
0.0
 11
-4.659958000003633
 21
3.177038999999978
 31
0.0
  0
POLYLINE
  5
BB2
330
18
100
AcDbEntity
  8
SK1
100
AcDb2dPolyline
 66
     1
 10
0.0
 20
0.0
 30
0.0
  0
VERTEX
  5
BB3
330
BB2
100
AcDbEntity
  8
SK1
100
AcDbVertex
100
AcDb2dVertex
 10
-4.659958000003633
 20
3.177038999999978
 30
0.0
  0
VERTEX
  5
BB4
330
BB2
100
AcDbEntity
  8
SK1
100
AcDbVertex
100
AcDb2dVertex
 10
-4.650444000003637
 20
3.168880000000001
 30
0.0
  0
VERTEX
  5
BB5
330
BB2
100
AcDbEntity
  8
SK1
100
AcDbVertex
100
AcDb2dVertex
 10
-4.631518000003636
 20
3.137235999999973
 30
0.0
  0
VERTEX
  5
BB6
330
BB2
100
AcDbEntity
  8
SK1
100
AcDbVertex
100
AcDb2dVertex
 10
-4.576392000003636
 20
2.930843999999978
 30
0.0
  0
VERTEX
  5
BB7
330
BB2
100
AcDbEntity
  8
SK1
100
AcDbVertex
100
AcDb2dVertex
 10
-4.540066000003633
 20
2.706456000000001
 30
0.0
  0
SEQEND
  5
BB8
330
BB2
100
AcDbEntity
  8
SK1
  0
POLYLINE
  5
BB9
330
18
100
AcDbEntity
  8
SK1
100
AcDb2dPolyline
 66
     1
 10
0.0
 20
0.0
 30
0.0
  0
VERTEX
  5
BBA
330
BB9
100
AcDbEntity
  8
SK1
100
AcDbVertex
100
AcDb2dVertex
 10
-4.540066000003633
 20
2.706456000000001
 30
0.0
  0
VERTEX
  5
BBB
330
BB9
100
AcDbEntity
  8
SK1
100
AcDbVertex
100
AcDb2dVertex
 10
-4.498209000003632
 20
2.368838999999979
 30
0.0
  0
VERTEX
  5
BBC
330
BB9
100
AcDbEntity
  8
SK1
100
AcDbVertex
100
AcDb2dVertex
 10
-4.420951000003633
 20
1.559772000000009
 30
0.0
  0
VERTEX
  5
BBD
330
BB9
100
AcDbEntity
  8
SK1
100
AcDbVertex
100
AcDb2dVertex
 10
-4.314780000003636
 20
0.1975780000000213
 30
0.0
  0
VERTEX
  5
BBE
330
BB9
100
AcDbEntity
  8
SK1
100
AcDbVertex
100
AcDb2dVertex
 10
-4.210240000003636
 20
-1.183787999999991
 30
0.0
  0
VERTEX
  5
BBF
330
BB9
100
AcDbEntity
  8
SK1
100
AcDbVertex
100
AcDb2dVertex
 10
-4.098769000003634
 20
-2.39873
 30
0.0
  0
VERTEX
  5
BC0
330
BB9
100
AcDbEntity
  8
SK1
100
AcDbVertex
100
AcDb2dVertex
 10
-4.036144000003638
 20
-2.863007999999978
 30
0.0
  0
VERTEX
  5
BC1
330
BB9
100
AcDbEntity
  8
SK1
100
AcDbVertex
100
AcDb2dVertex
 10
-3.982045000003636
 20
-3.102954000000011
 30
0.0
  0
SEQEND
  5
BC2
330
BB9
100
AcDbEntity
  8
SK1
  0
POLYLINE
  5
BC3
330
18
100
AcDbEntity
  8
SK1
100
AcDb2dPolyline
 66
     1
 10
0.0
 20
0.0
 30
0.0
  0
VERTEX
  5
BC4
330
BC3
100
AcDbEntity
  8
SK1
100
AcDbVertex
100
AcDb2dVertex
 10
-3.982045000003636
 20
-3.102954000000011
 30
0.0
  0
VERTEX
  5
BC5
330
BC3
100
AcDbEntity
  8
SK1
100
AcDbVertex
100
AcDb2dVertex
 10
-3.959122000003638
 20
-3.155861000000014
 30
0.0
  0
VERTEX
  5
BC6
330
BC3
100
AcDbEntity
  8
SK1
100
AcDbVertex
100
AcDb2dVertex
 10
-3.947530000003638
 20
-3.171280000000023
 30
0.0
  0
VERTEX
  5
BC7
330
BC3
100
AcDbEntity
  8
SK1
100
AcDbVertex
100
AcDb2dVertex
 10
-3.935918000003638
 20
-3.179032000000006
 30
0.0
  0
VERTEX
  5
BC8
330
BC3
100
AcDbEntity
  8
SK1
100
AcDbVertex
100
AcDb2dVertex
 10
-3.930113000003636
 20
-3.180000000000006
 30
0.0
  0
SEQEND
  5
BC9
330
BC3
100
AcDbEntity
  8
SK1
  0
LINE
  5
BCA
330
18
100
AcDbEntity
  8
SK1
100
AcDbLine
 10
-3.930113000003636
 20
-3.180000000000006
 30
0.0
 11
-4.453387000003636
 21
-3.180000000000006
 31
0.0
  0
LINE
  5
BCB
330
18
100
AcDbEntity
  8
SK1
100
AcDbLine
 10
-5.933900000003638
 20
-3.180000000000006
 30
0.0
 11
-5.943737000003636
 21
-3.177164000000004
 31
0.0
  0
POLYLINE
  5
BCC
330
18
100
AcDbEntity
  8
SK1
100
AcDb2dPolyline
 66
     1
 10
0.0
 20
0.0
 30
0.0
  0
VERTEX
  5
BCD
330
BCC
100
AcDbEntity
  8
SK1
100
AcDbVertex
100
AcDb2dVertex
 10
-5.943737000003636
 20
-3.177164000000004
 30
0.0
  0
VERTEX
  5
BCE
330
BCC
100
AcDbEntity
  8
SK1
100
AcDbVertex
100
AcDb2dVertex
 10
-5.953671000003637
 20
-3.168593999999983
 30
0.0
  0
VERTEX
  5
BCF
330
BCC
100
AcDbEntity
  8
SK1
100
AcDbVertex
100
AcDb2dVertex
 10
-5.973511000003631
 20
-3.134604000000023
 30
0.0
  0
VERTEX
  5
BD0
330
BCC
100
AcDbEntity
  8
SK1
100
AcDbVertex
100
AcDb2dVertex
 10
-6.031437000003633
 20
-2.91097000000002
 30
0.0
  0
VERTEX
  5
BD1
330
BCC
100
AcDbEntity
  8
SK1
100
AcDbVertex
100
AcDb2dVertex
 10
-6.083829000003638
 20
-2.558329000000014
 30
0.0
  0
VERTEX
  5
BD2
330
BCC
100
AcDbEntity
  8
SK1
100
AcDbVertex
100
AcDb2dVertex
 10
-6.177893000003634
 20
-1.621579999999994
 30
0.0
  0
VERTEX
  5
BD3
330
BCC
100
AcDbEntity
  8
SK1
100
AcDbVertex
100
AcDb2dVertex
 10
-6.241776000003632
 20
-0.8280690000000275
 30
0.0
  0
SEQEND
  5
BD4
330
BCC
100
AcDbEntity
  8
SK1
  0
LINE
  5
BD5
330
18
100
AcDbEntity
  8
SK1
100
AcDbLine
 10
-6.241776000003632
 20
-0.8280690000000275
 30
0.0
 11
-6.363418000003632
 21
0.7914640000000192
 31
0.0
  0
ARC
  5
BD6
330
18
100
AcDbEntity
  8
SK1
100
AcDbCircle
 10
-12.72614200000363
 20
15.676603
 30
0.0
 40
16.187978
100
AcDbArc
 50
293.1445190000003
 51
295.1096529999997
  0
LINE
  5
BD7
330
18
100
AcDbEntity
  8
SK1
100
AcDbLine
 10
-5.856754000003632
 20
1.018459000000007
 30
0.0
 11
-5.724008000003634
 21
-0.7515339999999924
 31
0.0
  0
POLYLINE
  5
BD8
330
18
100
AcDbEntity
  8
SK1
100
AcDb2dPolyline
 66
     1
 10
0.0
 20
0.0
 30
0.0
  0
VERTEX
  5
BD9
330
BD8
100
AcDbEntity
  8
SK1
100
AcDbVertex
100
AcDb2dVertex
 10
-5.724008000003634
 20
-0.7515339999999924
 30
0.0
  0
VERTEX
  5
BDA
330
BD8
100
AcDbEntity
  8
SK1
100
AcDbVertex
100
AcDb2dVertex
 10
-5.631807000003631
 20
-1.871461000000009
 30
0.0
  0
VERTEX
  5
BDB
330
BD8
100
AcDbEntity
  8
SK1
100
AcDbVertex
100
AcDb2dVertex
 10
-5.581570000003637
 20
-2.372509999999977
 30
0.0
  0
VERTEX
  5
BDC
330
BD8
100
AcDbEntity
  8
SK1
100
AcDbVertex
100
AcDb2dVertex
 10
-5.499809000003637
 20
-2.952177000000006
 30
0.0
  0
VERTEX
  5
BDD
330
BD8
100
AcDbEntity
  8
SK1
100
AcDbVertex
100
AcDb2dVertex
 10
-5.463196000003633
 20
-3.100061999999978
 30
0.0
  0
VERTEX
  5
BDE
330
BD8
100
AcDbEntity
  8
SK1
100
AcDbVertex
100
AcDb2dVertex
 10
-5.444400000003632
 20
-3.146828000000026
 30
0.0
  0
VERTEX
  5
BDF
330
BD8
100
AcDbEntity
  8
SK1
100
AcDbVertex
100
AcDb2dVertex
 10
-5.425369000003633
 20
-3.173583000000006
 30
0.0
  0
VERTEX
  5
BE0
330
BD8
100
AcDbEntity
  8
SK1
100
AcDbVertex
100
AcDb2dVertex
 10
-5.415792000003633
 20
-3.179170999999995
 30
0.0
  0
VERTEX
  5
BE1
330
BD8
100
AcDbEntity
  8
SK1
100
AcDbVertex
100
AcDb2dVertex
 10
-5.410412000003637
 20
-3.180000000000006
 30
0.0
  0
SEQEND
  5
BE2
330
BD8
100
AcDbEntity
  8
SK1
  0
LINE
  5
BE3
330
18
100
AcDbEntity
  8
SK1
100
AcDbLine
 10
-5.410412000003637
 20
-3.180000000000006
 30
0.0
 11
-5.933900000003638
 21
-3.180000000000006
 31
0.0
  0
LINE
  5
BE4
330
18
100
AcDbEntity
  8
SK1
100
AcDbLine
 10
-2.233604000003636
 20
3.180000000000006
 30
0.0
 11
-2.243665000003636
 21
3.177118000000006
 31
0.0
  0
LINE
  5
BE5
330
18
100
AcDbEntity
  8
SK1
100
AcDbLine
 10
-2.450186000003633
 20
-3.180000000000006
 30
0.0
 11
-2.445158000003636
 21
-3.179295000000023
 31
0.0
  0
ARC
  5
BE6
330
18
100
AcDbEntity
  8
SK1
100
AcDbCircle
 10
-2.491004000003634
 20
-2.981720999999993
 30
0.0
 40
0.202833
100
AcDbArc
 50
283.0722599999992
 51
323.5178360000003
  0
ARC
  5
BE7
330
18
100
AcDbEntity
  8
SK1
100
AcDbCircle
 10
-3.764663000003636
 20
-2.147778000000015
 30
0.0
 40
1.724913999999999
100
AcDbArc
 50
326.4010989999996
 51
332.7116840000009
  0
ARC
  5
BE8
330
18
100
AcDbEntity
  8
SK1
100
AcDbCircle
 10
-2.017356000003637
 20
-3.056565999999974
 30
0.0
 40
0.244692
100
AcDbArc
 50
90.27618899999986
 51
151.1732450000019
  0
LINE
  5
BE9
330
18
100
AcDbEntity
  8
SK1
100
AcDbLine
 10
-1.693722000003639
 20
-2.813253999999971
 30
0.0
 11
-2.018536000003634
 21
-2.811914999999998
 31
0.0
  0
LINE
  5
BEA
330
18
100
AcDbEntity
  8
SK1
100
AcDbLine
 10
-3.713680000003633
 20
3.180000000000006
 30
0.0
 11
-3.723666000003639
 21
3.177143999999998
 31
0.0
  0
LINE
  5
BEB
330
18
100
AcDbEntity
  8
SK1
100
AcDbLine
 10
-3.930113000003636
 20
-3.180000000000006
 30
0.0
 11
-3.919749000003633
 21
-3.176944999999988
 31
0.0
  0
LINE
  5
BEC
330
18
100
AcDbEntity
  8
SK1
100
AcDbLine
 10
-5.194071000003638
 20
3.180000000000006
 30
0.0
 11
-5.203939000003636
 21
3.177174999999976
 31
0.0
  0
LINE
  5
BED
330
18
100
AcDbEntity
  8
SK1
100
AcDbLine
 10
-5.410412000003637
 20
-3.180000000000006
 30
0.0
 11
-5.400168000003637
 21
-3.177004000000009
 31
0.0
  0
LINE
  5
BEE
330
18
100
AcDbEntity
  8
SK1
100
AcDbLine
 10
-6.650000000003637
 20
0.3489460000000122
 30
0.0
 11
-6.650000000003637
 21
-2.589799000000026
 31
0.0
  0
LINE
  5
BEF
330
18
100
AcDbEntity
  8
SK1
100
AcDbLine
 10
-6.650000000003637
 20
1.124195999999982
 30
0.0
 11
-6.650000000003637
 21
0.3489230000000134
 31
0.0
  0
LINE
  5
BF0
330
18
100
AcDbEntity
  8
SK1
100
AcDbLine
 10
-6.650000000003637
 20
1.863959000000022
 30
0.0
 11
-6.650000000003637
 21
1.124195999999982
 31
0.0
  0
LINE
  5
BF1
330
18
100
AcDbEntity
  8
SK1
100
AcDbLine
 10
-6.650000000003637
 20
-2.589211999999974
 30
0.0
 11
-6.650000000003637
 21
-2.748094999999976
 31
0.0
  0
LINE
  5
BF2
330
18
100
AcDbEntity
  8
SK1
100
AcDbLine
 10
-6.650000000003637
 20
2.549148000000001
 30
0.0
 11
-6.650000000003637
 21
1.863959000000022
 31
0.0
  0
POLYLINE
  5
BF3
330
18
100
AcDbEntity
  8
SK1
100
AcDb2dPolyline
 66
     1
 10
0.0
 20
0.0
 30
0.0
  0
VERTEX
  5
BF4
330
BF3
100
AcDbEntity
  8
SK1
100
AcDbVertex
100
AcDb2dVertex
 10
-1.619714000003631
 20
-3.002584000000013
 30
0.0
  0
VERTEX
  5
BF5
330
BF3
100
AcDbEntity
  8
SK1
100
AcDbVertex
100
AcDb2dVertex
 10
-1.662756000003631
 20
-2.817139999999993
 30
0.0
  0
VERTEX
  5
BF6
330
BF3
100
AcDbEntity
  8
SK1
100
AcDbVertex
100
AcDb2dVertex
 10
-1.743193000003635
 20
-2.226089999999999
 30
0.0
  0
VERTEX
  5
BF7
330
BF3
100
AcDbEntity
  8
SK1
100
AcDbVertex
100
AcDb2dVertex
 10
-1.845581000003633
 20
-1.114048000000024
 30
0.0
  0
VERTEX
  5
BF8
330
BF3
100
AcDbEntity
  8
SK1
100
AcDbVertex
100
AcDb2dVertex
 10
-1.941746000003631
 20
0.123361999999986
 30
0.0
  0
VERTEX
  5
BF9
330
BF3
100
AcDbEntity
  8
SK1
100
AcDbVertex
100
AcDb2dVertex
 10
-2.038415000003638
 20
1.346366999999985
 30
0.0
  0
SEQEND
  5
BFA
330
BF3
100
AcDbEntity
  8
SK1
  0
POLYLINE
  5
BFB
330
18
100
AcDbEntity
  8
SK1
100
AcDb2dPolyline
 66
     1
 10
0.0
 20
0.0
 30
0.0
  0
VERTEX
  5
BFC
330
BFB
100
AcDbEntity
  8
SK1
100
AcDbVertex
100
AcDb2dVertex
 10
-2.038415000003638
 20
1.346366999999985
 30
0.0
  0
VERTEX
  5
BFD
330
BFB
100
AcDbEntity
  8
SK1
100
AcDbVertex
100
AcDb2dVertex
 10
-2.144128000003631
 20
2.421817999999973
 30
0.0
  0
VERTEX
  5
BFE
330
BFB
100
AcDbEntity
  8
SK1
100
AcDbVertex
100
AcDb2dVertex
 10
-2.202191000003636
 20
2.818481000000018
 30
0.0
  0
VERTEX
  5
BFF
330
BFB
100
AcDbEntity
  8
SK1
100
AcDbVertex
100
AcDb2dVertex
 10
-2.243962000003634
 20
2.999344000000006
 30
0.0
  0
VERTEX
  5
C00
330
BFB
100
AcDbEntity
  8
SK1
100
AcDbVertex
100
AcDb2dVertex
 10
-2.265373000003634
 20
3.055831000000011
 30
0.0
  0
VERTEX
  5
C01
330
BFB
100
AcDbEntity
  8
SK1
100
AcDbVertex
100
AcDb2dVertex
 10
-2.287010000003633
 20
3.087302000000021
 30
0.0
  0
VERTEX
  5
C02
330
BFB
100
AcDbEntity
  8
SK1
100
AcDbVertex
100
AcDb2dVertex
 10
-2.297874000003638
 20
3.093303999999988
 30
0.0
  0
VERTEX
  5
C03
330
BFB
100
AcDbEntity
  8
SK1
100
AcDbVertex
100
AcDb2dVertex
 10
-2.304795000003635
 20
3.093700000000012
 30
0.0
  0
VERTEX
  5
C04
330
BFB
100
AcDbEntity
  8
SK1
100
AcDbVertex
100
AcDb2dVertex
 10
-2.318625000003634
 20
3.086501999999995
 30
0.0
  0
VERTEX
  5
C05
330
BFB
100
AcDbEntity
  8
SK1
100
AcDbVertex
100
AcDb2dVertex
 10
-2.332413000003633
 20
3.068748000000026
 30
0.0
  0
VERTEX
  5
C06
330
BFB
100
AcDbEntity
  8
SK1
100
AcDbVertex
100
AcDb2dVertex
 10
-2.359734000003633
 20
3.002632000000004
 30
0.0
  0
SEQEND
  5
C07
330
BFB
100
AcDbEntity
  8
SK1
  0
POLYLINE
  5
C08
330
18
100
AcDbEntity
  8
SK1
100
AcDb2dPolyline
 66
     1
 10
0.0
 20
0.0
 30
0.0
  0
VERTEX
  5
C09
330
C08
100
AcDbEntity
  8
SK1
100
AcDbVertex
100
AcDb2dVertex
 10
-3.110859000003634
 20
-2.964090999999995
 30
0.0
  0
VERTEX
  5
C0A
330
C08
100
AcDbEntity
  8
SK1
100
AcDbVertex
100
AcDb2dVertex
 10
-3.167555000003638
 20
-2.667234000000006
 30
0.0
  0
VERTEX
  5
C0B
330
C08
100
AcDbEntity
  8
SK1
100
AcDbVertex
100
AcDb2dVertex
 10
-3.203558000003638
 20
-2.397402999999997
 30
0.0
  0
VERTEX
  5
C0C
330
C08
100
AcDbEntity
  8
SK1
100
AcDbVertex
100
AcDb2dVertex
 10
-3.271075000003633
 20
-1.746654999999974
 30
0.0
  0
VERTEX
  5
C0D
330
C08
100
AcDbEntity
  8
SK1
100
AcDbVertex
100
AcDb2dVertex
 10
-3.407734000003634
 20
-0.0607850000000099
 30
0.0
  0
VERTEX
  5
C0E
330
C08
100
AcDbEntity
  8
SK1
100
AcDbVertex
100
AcDb2dVertex
 10
-3.543771000003636
 20
1.637881999999989
 30
0.0
  0
VERTEX
  5
C0F
330
C08
100
AcDbEntity
  8
SK1
100
AcDbVertex
100
AcDb2dVertex
 10
-3.617792000003638
 20
2.369106999999984
 30
0.0
  0
VERTEX
  5
C10
330
C08
100
AcDbEntity
  8
SK1
100
AcDbVertex
100
AcDb2dVertex
 10
-3.657308000003638
 20
2.667982999999991
 30
0.0
  0
SEQEND
  5
C11
330
C08
100
AcDbEntity
  8
SK1
  0
LINE
  5
C12
330
18
100
AcDbEntity
  8
SK1
100
AcDbLine
 10
-3.099462000003633
 20
-3.00347099999999
 30
0.0
 11
-3.099765000003634
 21
-3.002515000000016
 31
0.0
  0
LINE
  5
C13
330
18
100
AcDbEntity
  8
SK1
100
AcDbLine
 10
-3.099765000003634
 20
-3.002515000000016
 30
0.0
 11
-3.110859000003634
 21
-2.964090999999995
 31
0.0
  0
POLYLINE
  5
C14
330
18
100
AcDbEntity
  8
SK1
100
AcDb2dPolyline
 66
     1
 10
0.0
 20
0.0
 30
0.0
  0
VERTEX
  5
C15
330
C14
100
AcDbEntity
  8
SK1
100
AcDbVertex
100
AcDb2dVertex
 10
-3.657308000003638
 20
2.667982999999991
 30
0.0
  0
VERTEX
  5
C16
330
C14
100
AcDbEntity
  8
SK1
100
AcDbVertex
100
AcDb2dVertex
 10
-3.705025000003636
 20
2.928456999999979
 30
0.0
  0
VERTEX
  5
C17
330
C14
100
AcDbEntity
  8
SK1
100
AcDbVertex
100
AcDb2dVertex
 10
-3.729776000003639
 20
3.016997000000003
 30
0.0
  0
VERTEX
  5
C18
330
C14
100
AcDbEntity
  8
SK1
100
AcDbVertex
100
AcDb2dVertex
 10
-3.754957000003634
 20
3.072930999999982
 30
0.0
  0
VERTEX
  5
C19
330
C14
100
AcDbEntity
  8
SK1
100
AcDbVertex
100
AcDb2dVertex
 10
-3.767650000003633
 20
3.087848000000008
 30
0.0
  0
VERTEX
  5
C1A
330
C14
100
AcDbEntity
  8
SK1
100
AcDbVertex
100
AcDb2dVertex
 10
-3.779721000003631
 20
3.093711999999982
 30
0.0
  0
VERTEX
  5
C1B
330
C14
100
AcDbEntity
  8
SK1
100
AcDbVertex
100
AcDb2dVertex
 10
-3.791795000003638
 20
3.091448000000013
 30
0.0
  0
VERTEX
  5
C1C
330
C14
100
AcDbEntity
  8
SK1
100
AcDbVertex
100
AcDb2dVertex
 10
-3.807856000003638
 20
3.075844000000017
 30
0.0
  0
VERTEX
  5
C1D
330
C14
100
AcDbEntity
  8
SK1
100
AcDbVertex
100
AcDb2dVertex
 10
-3.839656000003634
 20
3.002886999999986
 30
0.0
  0
SEQEND
  5
C1E
330
C14
100
AcDbEntity
  8
SK1
  0
ARC
  5
C1F
330
18
100
AcDbEntity
  8
SK1
100
AcDbCircle
 10
-4.777732000003637
 20
-0.509490000000028
 30
0.0
 40
0.168869
100
AcDbArc
 50
247.8180460000002
 51
271.597281
  0
ARC
  5
C20
330
18
100
AcDbEntity
  8
SK1
100
AcDbCircle
 10
73.22190399999636
 20
5.286516000000005
 30
0.0
 40
78.28964599999998
100
AcDbArc
 50
184.3600949999991
 51
185.1607860000014
  0
POLYLINE
  5
C21
330
18
100
AcDbEntity
  8
SK1
100
AcDb2dPolyline
 66
     1
 10
0.0
 20
0.0
 30
0.0
  0
VERTEX
  5
C22
330
C21
100
AcDbEntity
  8
SK1
100
AcDbVertex
100
AcDb2dVertex
 10
-4.579792000003634
 20
-3.002331000000026
 30
0.0
  0
VERTEX
  5
C23
330
C21
100
AcDbEntity
  8
SK1
100
AcDbVertex
100
AcDb2dVertex
 10
-4.620926000003634
 20
-2.827045999999995
 30
0.0
  0
VERTEX
  5
C24
330
C21
100
AcDbEntity
  8
SK1
100
AcDbVertex
100
AcDb2dVertex
 10
-4.698083000003633
 20
-2.272520999999982
 30
0.0
  0
VERTEX
  5
C25
330
C21
100
AcDbEntity
  8
SK1
100
AcDbVertex
100
AcDb2dVertex
 10
-4.750247000003631
 20
-1.755701999999985
 30
0.0
  0
SEQEND
  5
C26
330
C21
100
AcDbEntity
  8
SK1
  0
ARC
  5
C27
330
18
100
AcDbEntity
  8
SK1
100
AcDbCircle
 10
-4.965184000003637
 20
2.897801000000015
 30
0.0
 40
0.369642
100
AcDbArc
 50
153.7616020000009
 51
163.3865879999985
  0
POLYLINE
  5
C28
330
18
100
AcDbEntity
  8
SK1
100
AcDb2dPolyline
 66
     1
 10
0.0
 20
0.0
 30
0.0
  0
VERTEX
  5
C29
330
C28
100
AcDbEntity
  8
SK1
100
AcDbVertex
100
AcDb2dVertex
 10
-4.841314000003633
 20
-0.6654340000000049
 30
0.0
  0
VERTEX
  5
C2A
330
C28
100
AcDbEntity
  8
SK1
100
AcDbVertex
100
AcDb2dVertex
 10
-4.958923000003636
 20
0.8623039999999946
 30
0.0
  0
VERTEX
  5
C2B
330
C28
100
AcDbEntity
  8
SK1
100
AcDbVertex
100
AcDb2dVertex
 10
-5.019910000003632
 20
1.594314999999993
 30
0.0
  0
VERTEX
  5
C2C
330
C28
100
AcDbEntity
  8
SK1
100
AcDbVertex
100
AcDb2dVertex
 10
-5.118145000003636
 20
2.53197
 30
0.0
  0
VERTEX
  5
C2D
330
C28
100
AcDbEntity
  8
SK1
100
AcDbVertex
100
AcDb2dVertex
 10
-5.167408000003638
 20
2.84619600000002
 30
0.0
  0
VERTEX
  5
C2E
330
C28
100
AcDbEntity
  8
SK1
100
AcDbVertex
100
AcDb2dVertex
 10
-5.193068000003633
 20
2.961356000000023
 30
0.0
  0
VERTEX
  5
C2F
330
C28
100
AcDbEntity
  8
SK1
100
AcDbVertex
100
AcDb2dVertex
 10
-5.232548000003639
 20
3.069506999999986
 30
0.0
  0
VERTEX
  5
C30
330
C28
100
AcDbEntity
  8
SK1
100
AcDbVertex
100
AcDb2dVertex
 10
-5.246784000003636
 20
3.087444000000004
 30
0.0
  0
VERTEX
  5
C31
330
C28
100
AcDbEntity
  8
SK1
100
AcDbVertex
100
AcDb2dVertex
 10
-5.253920000003637
 20
3.092189000000018
 30
0.0
  0
VERTEX
  5
C32
330
C28
100
AcDbEntity
  8
SK1
100
AcDbVertex
100
AcDb2dVertex
 10
-5.264632000003636
 20
3.09397899999999
 30
0.0
  0
VERTEX
  5
C33
330
C28
100
AcDbEntity
  8
SK1
100
AcDbVertex
100
AcDb2dVertex
 10
-5.275339000003633
 20
3.089369999999973
 30
0.0
  0
VERTEX
  5
C34
330
C28
100
AcDbEntity
  8
SK1
100
AcDbVertex
100
AcDb2dVertex
 10
-5.282468000003638
 20
3.082763999999996
 30
0.0
  0
VERTEX
  5
C35
330
C28
100
AcDbEntity
  8
SK1
100
AcDbVertex
100
AcDb2dVertex
 10
-5.296678000003636
 20
3.061193000000001
 30
0.0
  0
SEQEND
  5
C36
330
C28
100
AcDbEntity
  8
SK1
  0
POLYLINE
  5
C37
330
18
100
AcDbEntity
  8
SK1
100
AcDb2dPolyline
 66
     1
 10
0.0
 20
0.0
 30
0.0
  0
VERTEX
  5
C38
330
C37
100
AcDbEntity
  8
SK1
100
AcDbVertex
100
AcDb2dVertex
 10
-6.059692000003637
 20
-3.002726999999993
 30
0.0
  0
VERTEX
  5
C39
330
C37
100
AcDbEntity
  8
SK1
100
AcDbVertex
100
AcDb2dVertex
 10
-6.102796000003634
 20
-2.816927000000021
 30
0.0
  0
VERTEX
  5
C3A
330
C37
100
AcDbEntity
  8
SK1
100
AcDbVertex
100
AcDb2dVertex
 10
-6.183364000003634
 20
-2.224666000000012
 30
0.0
  0
VERTEX
  5
C3B
330
C37
100
AcDbEntity
  8
SK1
100
AcDbVertex
100
AcDb2dVertex
 10
-6.309924000003632
 20
-0.8106250000000159
 30
0.0
  0
SEQEND
  5
C3C
330
C37
100
AcDbEntity
  8
SK1
  0
ARC
  5
C3D
330
18
100
AcDbEntity
  8
SK1
100
AcDbCircle
 10
-6.349663000003638
 20
0.8857639999999944
 30
0.0
 40
0.095295
100
AcDbArc
 50
202.4257929999993
 51
261.7025660000001
  0
LINE
  5
C3E
330
18
100
AcDbEntity
  8
SK1
100
AcDbLine
 10
-6.389625000003632
 20
0.2263609999999971
 30
0.0
 11
-6.437874000003637
 21
0.8493599999999901
 31
0.0
  0
LINE
  5
C3F
330
18
100
AcDbEntity
  8
SK1
100
AcDbLine
 10
-6.309924000003632
 20
-0.8106260000000132
 30
0.0
 11
-6.389625000003632
 21
0.2263609999999971
 31
0.0
  0
LINE
  5
C40
330
18
100
AcDbEntity
  8
SK1
100
AcDbLine
 10
-6.437916000003638
 20
0.8496200000000158
 30
0.0
 11
-6.475961000003636
 21
0.936710000000005
 31
0.0
  0
POLYLINE
  5
C41
330
18
100
AcDbEntity
  8
SK1
100
AcDb2dPolyline
 66
     1
 10
0.0
 20
0.0
 30
0.0
  0
VERTEX
  5
C42
330
C41
100
AcDbEntity
  8
SK1
100
AcDbVertex
100
AcDb2dVertex
 10
-1.679051000003639
 20
-2.815148000000021
 30
0.0
  0
VERTEX
  5
C43
330
C41
100
AcDbEntity
  8
SK1
100
AcDbVertex
100
AcDb2dVertex
 10
-1.721694000003637
 20
-2.635459000000024
 30
0.0
  0
VERTEX
  5
C44
330
C41
100
AcDbEntity
  8
SK1
100
AcDbVertex
100
AcDb2dVertex
 10
-1.801394000003631
 20
-2.075175999999999
 30
0.0
  0
VERTEX
  5
C45
330
C41
100
AcDbEntity
  8
SK1
100
AcDbVertex
100
AcDb2dVertex
 10
-1.902775000003635
 20
-1.033677000000011
 30
0.0
  0
VERTEX
  5
C46
330
C41
100
AcDbEntity
  8
SK1
100
AcDbVertex
100
AcDb2dVertex
 10
-1.998087000003635
 20
0.1213420000000269
 30
0.0
  0
VERTEX
  5
C47
330
C41
100
AcDbEntity
  8
SK1
100
AcDbVertex
100
AcDb2dVertex
 10
-2.093988000003633
 20
1.263205000000027
 30
0.0
  0
SEQEND
  5
C48
330
C41
100
AcDbEntity
  8
SK1
  0
POLYLINE
  5
C49
330
18
100
AcDbEntity
  8
SK1
100
AcDb2dPolyline
 66
     1
 10
0.0
 20
0.0
 30
0.0
  0
VERTEX
  5
C4A
330
C49
100
AcDbEntity
  8
SK1
100
AcDbVertex
100
AcDb2dVertex
 10
-2.093988000003633
 20
1.263205000000027
 30
0.0
  0
VERTEX
  5
C4B
330
C49
100
AcDbEntity
  8
SK1
100
AcDbVertex
100
AcDb2dVertex
 10
-2.174726000003637
 20
2.071462999999993
 30
0.0
  0
VERTEX
  5
C4C
330
C49
100
AcDbEntity
  8
SK1
100
AcDbVertex
100
AcDb2dVertex
 10
-2.218232000003638
 20
2.412086999999984
 30
0.0
  0
VERTEX
  5
C4D
330
C49
100
AcDbEntity
  8
SK1
100
AcDbVertex
100
AcDb2dVertex
 10
-2.287480000003633
 20
2.781114999999998
 30
0.0
  0
VERTEX
  5
C4E
330
C49
100
AcDbEntity
  8
SK1
100
AcDbVertex
100
AcDb2dVertex
 10
-2.327526000003635
 20
2.886768000000017
 30
0.0
  0
VERTEX
  5
C4F
330
C49
100
AcDbEntity
  8
SK1
100
AcDbVertex
100
AcDb2dVertex
 10
-2.341054000003636
 20
2.903743000000018
 30
0.0
  0
VERTEX
  5
C50
330
C49
100
AcDbEntity
  8
SK1
100
AcDbVertex
100
AcDb2dVertex
 10
-2.347836000003638
 20
2.908655000000009
 30
0.0
  0
VERTEX
  5
C51
330
C49
100
AcDbEntity
  8
SK1
100
AcDbVertex
100
AcDb2dVertex
 10
-2.358021000003638
 20
2.911503999999978
 30
0.0
  0
VERTEX
  5
C52
330
C49
100
AcDbEntity
  8
SK1
100
AcDbVertex
100
AcDb2dVertex
 10
-2.364814000003633
 20
2.910380999999971
 30
0.0
  0
VERTEX
  5
C53
330
C49
100
AcDbEntity
  8
SK1
100
AcDbVertex
100
AcDb2dVertex
 10
-2.378384000003634
 20
2.900899999999977
 30
0.0
  0
VERTEX
  5
C54
330
C49
100
AcDbEntity
  8
SK1
100
AcDbVertex
100
AcDb2dVertex
 10
-2.389099000003631
 20
2.886612000000013
 30
0.0
  0
VERTEX
  5
C55
330
C49
100
AcDbEntity
  8
SK1
100
AcDbVertex
100
AcDb2dVertex
 10
-2.410383000003633
 20
2.840576999999995
 30
0.0
  0
SEQEND
  5
C56
330
C49
100
AcDbEntity
  8
SK1
  0
ARC
  5
C57
330
18
100
AcDbEntity
  8
SK1
100
AcDbCircle
 10
-1.292039000003633
 20
-2.276096999999991
 30
0.0
 40
1.943415
100
AcDbArc
 50
188.9657860000004
 51
196.0968930000014
  0
POLYLINE
  5
C58
330
18
100
AcDbEntity
  8
SK1
100
AcDb2dPolyline
 66
     1
 10
0.0
 20
0.0
 30
0.0
  0
VERTEX
  5
C59
330
C58
100
AcDbEntity
  8
SK1
100
AcDbVertex
100
AcDb2dVertex
 10
-3.633204000003636
 20
1.875897000000009
 30
0.0
  0
VERTEX
  5
C5A
330
C58
100
AcDbEntity
  8
SK1
100
AcDbVertex
100
AcDb2dVertex
 10
-3.694781000003636
 20
2.38749100000001
 30
0.0
  0
VERTEX
  5
C5B
330
C58
100
AcDbEntity
  8
SK1
100
AcDbVertex
100
AcDb2dVertex
 10
-3.727452000003636
 20
2.594913000000019
 30
0.0
  0
VERTEX
  5
C5C
330
C58
100
AcDbEntity
  8
SK1
100
AcDbVertex
100
AcDb2dVertex
 10
-3.778606000003633
 20
2.818556999999998
 30
0.0
  0
VERTEX
  5
C5D
330
C58
100
AcDbEntity
  8
SK1
100
AcDbVertex
100
AcDb2dVertex
 10
-3.804914000003633
 20
2.882438999999976
 30
0.0
  0
VERTEX
  5
C5E
330
C58
100
AcDbEntity
  8
SK1
100
AcDbVertex
100
AcDb2dVertex
 10
-3.818178000003633
 20
2.901024000000006
 30
0.0
  0
VERTEX
  5
C5F
330
C58
100
AcDbEntity
  8
SK1
100
AcDbVertex
100
AcDb2dVertex
 10
-3.831472000003634
 20
2.91037399999999
 30
0.0
  0
VERTEX
  5
C60
330
C58
100
AcDbEntity
  8
SK1
100
AcDbVertex
100
AcDb2dVertex
 10
-3.838119000003636
 20
2.911547999999982
 30
0.0
  0
SEQEND
  5
C61
330
C58
100
AcDbEntity
  8
SK1
  0
POLYLINE
  5
C62
330
18
100
AcDbEntity
  8
SK1
100
AcDb2dPolyline
 66
     1
 10
0.0
 20
0.0
 30
0.0
  0
VERTEX
  5
C63
330
C62
100
AcDbEntity
  8
SK1
100
AcDbVertex
100
AcDb2dVertex
 10
-3.211955000003633
 20
-2.57900699999999
 30
0.0
  0
VERTEX
  5
C64
330
C62
100
AcDbEntity
  8
SK1
100
AcDbVertex
100
AcDb2dVertex
 10
-3.285804000003636
 20
-2.036419000000023
 30
0.0
  0
VERTEX
  5
C65
330
C62
100
AcDbEntity
  8
SK1
100
AcDbVertex
100
AcDb2dVertex
 10
-3.332021000003634
 20
-1.591498
 30
0.0
  0
VERTEX
  5
C66
330
C62
100
AcDbEntity
  8
SK1
100
AcDbVertex
100
AcDb2dVertex
 10
-3.418837000003633
 20
-0.6065110000000118
 30
0.0
  0
VERTEX
  5
C67
330
C62
100
AcDbEntity
  8
SK1
100
AcDbVertex
100
AcDb2dVertex
 10
-3.559079000003633
 20
1.094700999999985
 30
0.0
  0
VERTEX
  5
C68
330
C62
100
AcDbEntity
  8
SK1
100
AcDbVertex
100
AcDb2dVertex
 10
-3.633204000003636
 20
1.875897000000009
 30
0.0
  0
SEQEND
  5
C69
330
C62
100
AcDbEntity
  8
SK1
  0
POLYLINE
  5
C6A
330
18
100
AcDbEntity
  8
SK1
100
AcDb2dPolyline
 66
     1
 10
0.0
 20
0.0
 30
0.0
  0
VERTEX
  5
C6B
330
C6A
100
AcDbEntity
  8
SK1
100
AcDbVertex
100
AcDb2dVertex
 10
-3.838119000003636
 20
2.911547999999982
 30
0.0
  0
VERTEX
  5
C6C
330
C6A
100
AcDbEntity
  8
SK1
100
AcDbVertex
100
AcDb2dVertex
 10
-3.844945000003633
 20
2.910340000000018
 30
0.0
  0
VERTEX
  5
C6D
330
C6A
100
AcDbEntity
  8
SK1
100
AcDbVertex
100
AcDb2dVertex
 10
-3.858583000003633
 20
2.900654999999971
 30
0.0
  0
VERTEX
  5
C6E
330
C6A
100
AcDbEntity
  8
SK1
100
AcDbVertex
100
AcDb2dVertex
 10
-3.872173000003633
 20
2.881376999999986
 30
0.0
  0
VERTEX
  5
C6F
330
C6A
100
AcDbEntity
  8
SK1
100
AcDbVertex
100
AcDb2dVertex
 10
-3.899086000003633
 20
2.815063000000008
 30
0.0
  0
SEQEND
  5
C70
330
C6A
100
AcDbEntity
  8
SK1
  0
ARC
  5
C71
330
18
100
AcDbEntity
  8
SK1
100
AcDbCircle
 10
48.77380399999637
 20
3.577442000000018
 30
0.0
 40
53.834487
100
AcDbArc
 50
184.772679999999
 51
185.7001930000007
  0
POLYLINE
  5
C72
330
18
100
AcDbEntity
  8
SK1
100
AcDb2dPolyline
 66
     1
 10
0.0
 20
0.0
 30
0.0
  0
VERTEX
  5
C73
330
C72
100
AcDbEntity
  8
SK1
100
AcDbVertex
100
AcDb2dVertex
 10
-4.639025000003633
 20
-2.815255999999976
 30
0.0
  0
VERTEX
  5
C74
330
C72
100
AcDbEntity
  8
SK1
100
AcDbVertex
100
AcDb2dVertex
 10
-4.682021000003636
 20
-2.633756000000004
 30
0.0
  0
VERTEX
  5
C75
330
C72
100
AcDbEntity
  8
SK1
100
AcDbVertex
100
AcDb2dVertex
 10
-4.762358000003636
 20
-2.066894999999988
 30
0.0
  0
VERTEX
  5
C76
330
C72
100
AcDbEntity
  8
SK1
100
AcDbVertex
100
AcDb2dVertex
 10
-4.794403000003632
 20
-1.769558000000017
 30
0.0
  0
SEQEND
  5
C77
330
C72
100
AcDbEntity
  8
SK1
  0
POLYLINE
  5
C78
330
18
100
AcDbEntity
  8
SK1
100
AcDb2dPolyline
 66
     1
 10
0.0
 20
0.0
 30
0.0
  0
VERTEX
  5
C79
330
C78
100
AcDbEntity
  8
SK1
100
AcDbVertex
100
AcDb2dVertex
 10
-4.874112000003633
 20
-0.9017400000000179
 30
0.0
  0
VERTEX
  5
C7A
330
C78
100
AcDbEntity
  8
SK1
100
AcDbVertex
100
AcDb2dVertex
 10
-5.037323000003637
 20
1.074517000000013
 30
0.0
  0
VERTEX
  5
C7B
330
C78
100
AcDbEntity
  8
SK1
100
AcDbVertex
100
AcDb2dVertex
 10
-5.123747000003638
 20
1.973693000000024
 30
0.0
  0
VERTEX
  5
C7C
330
C78
100
AcDbEntity
  8
SK1
100
AcDbVertex
100
AcDb2dVertex
 10
-5.188794000003631
 20
2.482598999999993
 30
0.0
  0
VERTEX
  5
C7D
330
C78
100
AcDbEntity
  8
SK1
100
AcDbVertex
100
AcDb2dVertex
 10
-5.223375000003634
 20
2.678486000000019
 30
0.0
  0
VERTEX
  5
C7E
330
C78
100
AcDbEntity
  8
SK1
100
AcDbVertex
100
AcDb2dVertex
 10
-5.277435000003633
 20
2.868043
 30
0.0
  0
VERTEX
  5
C7F
330
C78
100
AcDbEntity
  8
SK1
100
AcDbVertex
100
AcDb2dVertex
 10
-5.297863000003636
 20
2.900764999999978
 30
0.0
  0
VERTEX
  5
C80
330
C78
100
AcDbEntity
  8
SK1
100
AcDbVertex
100
AcDb2dVertex
 10
-5.308125000003633
 20
2.908975999999995
 30
0.0
  0
VERTEX
  5
C81
330
C78
100
AcDbEntity
  8
SK1
100
AcDbVertex
100
AcDb2dVertex
 10
-5.323538000003636
 20
2.910922000000026
 30
0.0
  0
VERTEX
  5
C82
330
C78
100
AcDbEntity
  8
SK1
100
AcDbVertex
100
AcDb2dVertex
 10
-5.338934000003631
 20
2.900418999999999
 30
0.0
  0
VERTEX
  5
C83
330
C78
100
AcDbEntity
  8
SK1
100
AcDbVertex
100
AcDb2dVertex
 10
-5.369489000003632
 20
2.842975000000024
 30
0.0
  0
SEQEND
  5
C84
330
C78
100
AcDbEntity
  8
SK1
  0
LINE
  5
C85
330
18
100
AcDbEntity
  8
SK1
100
AcDbLine
 10
-6.475951000003638
 20
0.9367550000000052
 30
0.0
 11
-6.512995000003633
 21
1.02468299999998
 31
0.0
  0
POLYLINE
  5
C86
330
18
100
AcDbEntity
  8
SK1
100
AcDb2dPolyline
 66
     1
 10
0.0
 20
0.0
 30
0.0
  0
VERTEX
  5
C87
330
C86
100
AcDbEntity
  8
SK1
100
AcDbVertex
100
AcDb2dVertex
 10
-6.119034000003638
 20
-2.815159999999991
 30
0.0
  0
VERTEX
  5
C88
330
C86
100
AcDbEntity
  8
SK1
100
AcDbVertex
100
AcDb2dVertex
 10
-6.159485000003633
 20
-2.646883000000002
 30
0.0
  0
VERTEX
  5
C89
330
C86
100
AcDbEntity
  8
SK1
100
AcDbVertex
100
AcDb2dVertex
 10
-6.235275000003632
 20
-2.127509999999972
 30
0.0
  0
VERTEX
  5
C8A
330
C86
100
AcDbEntity
  8
SK1
100
AcDbVertex
100
AcDb2dVertex
 10
-6.332058000003633
 20
-1.156482999999979
 30
0.0
  0
VERTEX
  5
C8B
330
C86
100
AcDbEntity
  8
SK1
100
AcDbVertex
100
AcDb2dVertex
 10
-6.512995000003633
 20
1.02468299999998
 30
0.0
  0
SEQEND
  5
C8C
330
C86
100
AcDbEntity
  8
SK1
  0
POLYLINE
  5
C8D
330
18
100
AcDbEntity
  8
SK1
100
AcDb2dPolyline
 66
     1
 10
0.0
 20
0.0
 30
0.0
  0
VERTEX
  5
C8E
330
C8D
100
AcDbEntity
  8
SK1
100
AcDbVertex
100
AcDb2dVertex
 10
-1.810047000003635
 20
-2.770099000000016
 30
0.0
  0
VERTEX
  5
C8F
330
C8D
100
AcDbEntity
  8
SK1
100
AcDbVertex
100
AcDb2dVertex
 10
-1.824197000003635
 20
-2.765147000000013
 30
0.0
  0
VERTEX
  5
C90
330
C8D
100
AcDbEntity
  8
SK1
100
AcDbVertex
100
AcDb2dVertex
 10
-1.833613000003636
 20
-2.756357999999976
 30
0.0
  0
VERTEX
  5
C91
330
C8D
100
AcDbEntity
  8
SK1
100
AcDbVertex
100
AcDb2dVertex
 10
-1.852350000003639
 20
-2.725836000000014
 30
0.0
  0
VERTEX
  5
C92
330
C8D
100
AcDbEntity
  8
SK1
100
AcDbVertex
100
AcDb2dVertex
 10
-1.880088000003638
 20
-2.649143999999977
 30
0.0
  0
VERTEX
  5
C93
330
C8D
100
AcDbEntity
  8
SK1
100
AcDbVertex
100
AcDb2dVertex
 10
-1.933601000003633
 20
-2.398813000000018
 30
0.0
  0
VERTEX
  5
C94
330
C8D
100
AcDbEntity
  8
SK1
100
AcDbVertex
100
AcDb2dVertex
 10
-1.968267000003635
 20
-2.169689000000004
 30
0.0
  0
VERTEX
  5
C95
330
C8D
100
AcDbEntity
  8
SK1
100
AcDbVertex
100
AcDb2dVertex
 10
-2.034079000003635
 20
-1.610460999999985
 30
0.0
  0
VERTEX
  5
C96
330
C8D
100
AcDbEntity
  8
SK1
100
AcDbVertex
100
AcDb2dVertex
 10
-2.096248000003633
 20
-0.9668270000000234
 30
0.0
  0
VERTEX
  5
C97
330
C8D
100
AcDbEntity
  8
SK1
100
AcDbVertex
100
AcDb2dVertex
 10
-2.284663000003638
 20
1.188230999999972
 30
0.0
  0
SEQEND
  5
C98
330
C8D
100
AcDbEntity
  8
SK1
  0
POLYLINE
  5
C99
330
18
100
AcDbEntity
  8
SK1
100
AcDb2dPolyline
 66
     1
 10
0.0
 20
0.0
 30
0.0
  0
VERTEX
  5
C9A
330
C99
100
AcDbEntity
  8
SK1
100
AcDbVertex
100
AcDb2dVertex
 10
-2.284663000003638
 20
1.188230999999972
 30
0.0
  0
VERTEX
  5
C9B
330
C99
100
AcDbEntity
  8
SK1
100
AcDbVertex
100
AcDb2dVertex
 10
-2.363664000003636
 20
1.945718999999995
 30
0.0
  0
VERTEX
  5
C9C
330
C99
100
AcDbEntity
  8
SK1
100
AcDbVertex
100
AcDb2dVertex
 10
-2.406063000003634
 20
2.267391999999971
 30
0.0
  0
VERTEX
  5
C9D
330
C99
100
AcDbEntity
  8
SK1
100
AcDbVertex
100
AcDb2dVertex
 10
-2.473471000003634
 20
2.624386000000014
 30
0.0
  0
VERTEX
  5
C9E
330
C99
100
AcDbEntity
  8
SK1
100
AcDbVertex
100
AcDb2dVertex
 10
-2.507227000003638
 20
2.724073999999973
 30
0.0
  0
VERTEX
  5
C9F
330
C99
100
AcDbEntity
  8
SK1
100
AcDbVertex
100
AcDb2dVertex
 10
-2.524367000003636
 20
2.753415000000017
 30
0.0
  0
VERTEX
  5
CA0
330
C99
100
AcDbEntity
  8
SK1
100
AcDbVertex
100
AcDb2dVertex
 10
-2.541609000003639
 20
2.768245999999976
 30
0.0
  0
VERTEX
  5
CA1
330
C99
100
AcDbEntity
  8
SK1
100
AcDbVertex
100
AcDb2dVertex
 10
-2.550247000003635
 20
2.770109999999987
 30
0.0
  0
SEQEND
  5
CA2
330
C99
100
AcDbEntity
  8
SK1
  0
LINE
  5
CA3
330
18
100
AcDbEntity
  8
SK1
100
AcDbLine
 10
-3.290200000003636
 20
-2.770125000000006
 30
0.0
 11
-3.300171000003636
 21
-2.767665000000022
 31
0.0
  0
POLYLINE
  5
CA4
330
18
100
AcDbEntity
  8
SK1
100
AcDb2dPolyline
 66
     1
 10
0.0
 20
0.0
 30
0.0
  0
VERTEX
  5
CA5
330
CA4
100
AcDbEntity
  8
SK1
100
AcDbVertex
100
AcDb2dVertex
 10
-3.345729000003636
 20
-2.693733000000008
 30
0.0
  0
VERTEX
  5
CA6
330
CA4
100
AcDbEntity
  8
SK1
100
AcDbVertex
100
AcDb2dVertex
 10
-3.395095000003634
 20
-2.500390999999979
 30
0.0
  0
VERTEX
  5
CA7
330
CA4
100
AcDbEntity
  8
SK1
100
AcDbVertex
100
AcDb2dVertex
 10
-3.426719000003636
 20
-2.318257000000015
 30
0.0
  0
VERTEX
  5
CA8
330
CA4
100
AcDbEntity
  8
SK1
100
AcDbVertex
100
AcDb2dVertex
 10
-3.486526000003634
 20
-1.862878000000023
 30
0.0
  0
VERTEX
  5
CA9
330
CA4
100
AcDbEntity
  8
SK1
100
AcDbVertex
100
AcDb2dVertex
 10
-3.536627000003633
 20
-1.387922000000002
 30
0.0
  0
VERTEX
  5
CAA
330
CA4
100
AcDbEntity
  8
SK1
100
AcDbVertex
100
AcDb2dVertex
 10
-3.631411000003636
 20
-0.3380260000000135
 30
0.0
  0
VERTEX
  5
CAB
330
CA4
100
AcDbEntity
  8
SK1
100
AcDbVertex
100
AcDb2dVertex
 10
-3.771865000003636
 20
1.264390999999988
 30
0.0
  0
VERTEX
  5
CAC
330
CA4
100
AcDbEntity
  8
SK1
100
AcDbVertex
100
AcDb2dVertex
 10
-3.823862000003636
 20
1.773189999999999
 30
0.0
  0
SEQEND
  5
CAD
330
CA4
100
AcDbEntity
  8
SK1
  0
ARC
  5
CAE
330
18
100
AcDbEntity
  8
SK1
100
AcDbCircle
 10
-3.208416000003636
 20
-2.663283999999976
 30
0.0
 40
0.139766
100
AcDbArc
 50
192.5032179999991
 51
228.6836409999994
  0
POLYLINE
  5
CAF
330
18
100
AcDbEntity
  8
SK1
100
AcDb2dPolyline
 66
     1
 10
0.0
 20
0.0
 30
0.0
  0
VERTEX
  5
CB0
330
CAF
100
AcDbEntity
  8
SK1
100
AcDbVertex
100
AcDb2dVertex
 10
-3.926326000003633
 20
2.504984999999976
 30
0.0
  0
VERTEX
  5
CB1
330
CAF
100
AcDbEntity
  8
SK1
100
AcDbVertex
100
AcDb2dVertex
 10
-3.967300000003638
 20
2.671946999999988
 30
0.0
  0
VERTEX
  5
CB2
330
CAF
100
AcDbEntity
  8
SK1
100
AcDbVertex
100
AcDb2dVertex
 10
-3.988312000003638
 20
2.72646400000002
 30
0.0
  0
VERTEX
  5
CB3
330
CAF
100
AcDbEntity
  8
SK1
100
AcDbVertex
100
AcDb2dVertex
 10
-4.009561000003635
 20
2.759525999999993
 30
0.0
  0
VERTEX
  5
CB4
330
CAF
100
AcDbEntity
  8
SK1
100
AcDbVertex
100
AcDb2dVertex
 10
-4.020239000003633
 20
2.767672000000004
 30
0.0
  0
VERTEX
  5
CB5
330
CAF
100
AcDbEntity
  8
SK1
100
AcDbVertex
100
AcDb2dVertex
 10
-4.030239000003638
 20
2.770143000000017
 30
0.0
  0
SEQEND
  5
CB6
330
CAF
100
AcDbEntity
  8
SK1
  0
ARC
  5
CB7
330
18
100
AcDbEntity
  8
SK1
100
AcDbCircle
 10
-13.24203800000364
 20
0.846112000000005
 30
0.0
 40
9.462944999999999
100
AcDbArc
 50
5.621795999998965
 51
10.09697200000066
  0
POLYLINE
  5
CB8
330
18
100
AcDbEntity
  8
SK1
100
AcDb2dPolyline
 66
     1
 10
0.0
 20
0.0
 30
0.0
  0
VERTEX
  5
CB9
330
CB8
100
AcDbEntity
  8
SK1
100
AcDbVertex
100
AcDb2dVertex
 10
-4.770256000003633
 20
-2.770016999999995
 30
0.0
  0
VERTEX
  5
CBA
330
CB8
100
AcDbEntity
  8
SK1
100
AcDbVertex
100
AcDb2dVertex
 10
-4.780931000003632
 20
-2.767175000000008
 30
0.0
  0
VERTEX
  5
CBB
330
CB8
100
AcDbEntity
  8
SK1
100
AcDbVertex
100
AcDb2dVertex
 10
-4.788040000003633
 20
-2.762128000000017
 30
0.0
  0
VERTEX
  5
CBC
330
CB8
100
AcDbEntity
  8
SK1
100
AcDbVertex
100
AcDb2dVertex
 10
-4.802218000003633
 20
-2.744551999999998
 30
0.0
  0
VERTEX
  5
CBD
330
CB8
100
AcDbEntity
  8
SK1
100
AcDbVertex
100
AcDb2dVertex
 10
-4.823322000003634
 20
-2.699995999999998
 30
0.0
  0
VERTEX
  5
CBE
330
CB8
100
AcDbEntity
  8
SK1
100
AcDbVertex
100
AcDb2dVertex
 10
-4.864597000003633
 20
-2.550674000000014
 30
0.0
  0
VERTEX
  5
CBF
330
CB8
100
AcDbEntity
  8
SK1
100
AcDbVertex
100
AcDb2dVertex
 10
-4.906713000003633
 20
-2.317741000000011
 30
0.0
  0
VERTEX
  5
CC0
330
CB8
100
AcDbEntity
  8
SK1
100
AcDbVertex
100
AcDb2dVertex
 10
-4.985094000003633
 20
-1.695425999999996
 30
0.0
  0
SEQEND
  5
CC1
330
CB8
100
AcDbEntity
  8
SK1
  0
POLYLINE
  5
CC2
330
18
100
AcDbEntity
  8
SK1
100
AcDb2dPolyline
 66
     1
 10
0.0
 20
0.0
 30
0.0
  0
VERTEX
  5
CC3
330
CC2
100
AcDbEntity
  8
SK1
100
AcDbVertex
100
AcDb2dVertex
 10
-5.155855000003632
 20
0.1835940000000278
 30
0.0
  0
VERTEX
  5
CC4
330
CC2
100
AcDbEntity
  8
SK1
100
AcDbVertex
100
AcDb2dVertex
 10
-5.260865000003632
 20
1.35731800000002
 30
0.0
  0
VERTEX
  5
CC5
330
CC2
100
AcDbEntity
  8
SK1
100
AcDbVertex
100
AcDb2dVertex
 10
-5.317065000003636
 20
1.889490000000023
 30
0.0
  0
VERTEX
  5
CC6
330
CC2
100
AcDbEntity
  8
SK1
100
AcDbVertex
100
AcDb2dVertex
 10
-5.376621000003638
 20
2.336155000000018
 30
0.0
  0
VERTEX
  5
CC7
330
CC2
100
AcDbEntity
  8
SK1
100
AcDbVertex
100
AcDb2dVertex
 10
-5.407845000003632
 20
2.512379000000009
 30
0.0
  0
VERTEX
  5
CC8
330
CC2
100
AcDbEntity
  8
SK1
100
AcDbVertex
100
AcDb2dVertex
 10
-5.449401000003637
 20
2.67805800000002
 30
0.0
  0
VERTEX
  5
CC9
330
CC2
100
AcDbEntity
  8
SK1
100
AcDbVertex
100
AcDb2dVertex
 10
-5.470722000003639
 20
2.731010000000025
 30
0.0
  0
VERTEX
  5
CCA
330
CC2
100
AcDbEntity
  8
SK1
100
AcDbVertex
100
AcDb2dVertex
 10
-5.492281000003637
 20
2.761821999999995
 30
0.0
  0
VERTEX
  5
CCB
330
CC2
100
AcDbEntity
  8
SK1
100
AcDbVertex
100
AcDb2dVertex
 10
-5.503112000003632
 20
2.768588000000022
 30
0.0
  0
VERTEX
  5
CCC
330
CC2
100
AcDbEntity
  8
SK1
100
AcDbVertex
100
AcDb2dVertex
 10
-5.510216000003636
 20
2.769850000000019
 30
0.0
  0
SEQEND
  5
CCD
330
CC2
100
AcDbEntity
  8
SK1
  0
ARC
  5
CCE
330
18
100
AcDbEntity
  8
SK1
100
AcDbCircle
 10
83.20544699999635
 20
7.196977000000002
 30
0.0
 40
88.638311
100
AcDbArc
 50
184.5381469999983
 51
185.7577710000006
  0
POLYLINE
  5
CCF
330
18
100
AcDbEntity
  8
SK1
100
AcDb2dPolyline
 66
     1
 10
0.0
 20
0.0
 30
0.0
  0
VERTEX
  5
CD0
330
CCF
100
AcDbEntity
  8
SK1
100
AcDbVertex
100
AcDb2dVertex
 10
-6.513026000003633
 20
1.024974999999982
 30
0.0
  0
VERTEX
  5
CD1
330
CCF
100
AcDbEntity
  8
SK1
100
AcDbVertex
100
AcDb2dVertex
 10
-6.542345000003634
 20
1.074058999999977
 30
0.0
  0
VERTEX
  5
CD2
330
CCF
100
AcDbEntity
  8
SK1
100
AcDbVertex
100
AcDb2dVertex
 10
-6.589195000003633
 20
1.111539999999989
 30
0.0
  0
VERTEX
  5
CD3
330
CCF
100
AcDbEntity
  8
SK1
100
AcDbVertex
100
AcDb2dVertex
 10
-6.649981000003633
 20
1.124225000000024
 30
0.0
  0
SEQEND
  5
CD4
330
CCF
100
AcDbEntity
  8
SK1
  0
POLYLINE
  5
CD5
330
18
100
AcDbEntity
  8
SK1
100
AcDb2dPolyline
 66
     1
 10
0.0
 20
0.0
 30
0.0
  0
VERTEX
  5
CD6
330
CD5
100
AcDbEntity
  8
SK1
100
AcDbVertex
100
AcDb2dVertex
 10
-6.250301000003638
 20
-2.769870000000024
 30
0.0
  0
VERTEX
  5
CD7
330
CD5
100
AcDbEntity
  8
SK1
100
AcDbVertex
100
AcDb2dVertex
 10
-6.263162000003638
 20
-2.765693999999995
 30
0.0
  0
VERTEX
  5
CD8
330
CD5
100
AcDbEntity
  8
SK1
100
AcDbVertex
100
AcDb2dVertex
 10
-6.271724000003636
 20
-2.758346000000017
 30
0.0
  0
VERTEX
  5
CD9
330
CD5
100
AcDbEntity
  8
SK1
100
AcDbVertex
100
AcDb2dVertex
 10
-6.288778000003638
 20
-2.732876999999973
 30
0.0
  0
VERTEX
  5
CDA
330
CD5
100
AcDbEntity
  8
SK1
100
AcDbVertex
100
AcDb2dVertex
 10
-6.314072000003632
 20
-2.668811000000004
 30
0.0
  0
VERTEX
  5
CDB
330
CD5
100
AcDbEntity
  8
SK1
100
AcDbVertex
100
AcDb2dVertex
 10
-6.363091000003634
 20
-2.458113000000024
 30
0.0
  0
VERTEX
  5
CDC
330
CD5
100
AcDbEntity
  8
SK1
100
AcDbVertex
100
AcDb2dVertex
 10
-6.447757000003631
 20
-1.85186900000002
 30
0.0
  0
VERTEX
  5
CDD
330
CD5
100
AcDbEntity
  8
SK1
100
AcDbVertex
100
AcDb2dVertex
 10
-6.500335000003638
 20
-1.349922999999988
 30
0.0
  0
VERTEX
  5
CDE
330
CD5
100
AcDbEntity
  8
SK1
100
AcDbVertex
100
AcDb2dVertex
 10
-6.650000000003637
 20
0.3489230000000134
 30
0.0
  0
SEQEND
  5
CDF
330
CD5
100
AcDbEntity
  8
SK1
  0
POLYLINE
  5
CE0
330
18
100
AcDbEntity
  8
SK1
100
AcDb2dPolyline
 66
     1
 10
0.0
 20
0.0
 30
0.0
  0
VERTEX
  5
CE1
330
CE0
100
AcDbEntity
  8
SK1
100
AcDbVertex
100
AcDb2dVertex
 10
-2.135226000003633
 20
-2.770353
 30
0.0
  0
VERTEX
  5
CE2
330
CE0
100
AcDbEntity
  8
SK1
100
AcDbVertex
100
AcDb2dVertex
 10
-2.149323000003633
 20
-2.765447999999991
 30
0.0
  0
VERTEX
  5
CE3
330
CE0
100
AcDbEntity
  8
SK1
100
AcDbVertex
100
AcDb2dVertex
 10
-2.158701000003638
 20
-2.756730000000004
 30
0.0
  0
VERTEX
  5
CE4
330
CE0
100
AcDbEntity
  8
SK1
100
AcDbVertex
100
AcDb2dVertex
 10
-2.177362000003633
 20
-2.726452999999991
 30
0.0
  0
VERTEX
  5
CE5
330
CE0
100
AcDbEntity
  8
SK1
100
AcDbVertex
100
AcDb2dVertex
 10
-2.204974000003636
 20
-2.650406999999971
 30
0.0
  0
VERTEX
  5
CE6
330
CE0
100
AcDbEntity
  8
SK1
100
AcDbVertex
100
AcDb2dVertex
 10
-2.258186000003631
 20
-2.402529000000015
 30
0.0
  0
VERTEX
  5
CE7
330
CE0
100
AcDbEntity
  8
SK1
100
AcDbVertex
100
AcDb2dVertex
 10
-2.292807000003634
 20
-2.174559999999984
 30
0.0
  0
VERTEX
  5
CE8
330
CE0
100
AcDbEntity
  8
SK1
100
AcDbVertex
100
AcDb2dVertex
 10
-2.358400000003634
 20
-1.61881599999998
 30
0.0
  0
VERTEX
  5
CE9
330
CE0
100
AcDbEntity
  8
SK1
100
AcDbVertex
100
AcDb2dVertex
 10
-2.420227000003634
 20
-0.9801140000000144
 30
0.0
  0
VERTEX
  5
CEA
330
CE0
100
AcDbEntity
  8
SK1
100
AcDbVertex
100
AcDb2dVertex
 10
-2.607684000003636
 20
1.165384000000017
 30
0.0
  0
SEQEND
  5
CEB
330
CE0
100
AcDbEntity
  8
SK1
  0
POLYLINE
  5
CEC
330
18
100
AcDbEntity
  8
SK1
100
AcDb2dPolyline
 66
     1
 10
0.0
 20
0.0
 30
0.0
  0
VERTEX
  5
CED
330
CEC
100
AcDbEntity
  8
SK1
100
AcDbVertex
100
AcDb2dVertex
 10
-2.607684000003636
 20
1.165384000000017
 30
0.0
  0
VERTEX
  5
CEE
330
CEC
100
AcDbEntity
  8
SK1
100
AcDbVertex
100
AcDb2dVertex
 10
-2.687176000003638
 20
1.931904999999972
 30
0.0
  0
VERTEX
  5
CEF
330
CEC
100
AcDbEntity
  8
SK1
100
AcDbVertex
100
AcDb2dVertex
 10
-2.729949000003634
 20
2.25883699999997
 30
0.0
  0
VERTEX
  5
CF0
330
CEC
100
AcDbEntity
  8
SK1
100
AcDbVertex
100
AcDb2dVertex
 10
-2.798124000003638
 20
2.622653000000013
 30
0.0
  0
VERTEX
  5
CF1
330
CEC
100
AcDbEntity
  8
SK1
100
AcDbVertex
100
AcDb2dVertex
 10
-2.832083000003634
 20
2.723637999999994
 30
0.0
  0
VERTEX
  5
CF2
330
CEC
100
AcDbEntity
  8
SK1
100
AcDbVertex
100
AcDb2dVertex
 10
-2.849339000003638
 20
2.753400999999995
 30
0.0
  0
VERTEX
  5
CF3
330
CEC
100
AcDbEntity
  8
SK1
100
AcDbVertex
100
AcDb2dVertex
 10
-2.866704000003636
 20
2.768456000000014
 30
0.0
  0
VERTEX
  5
CF4
330
CEC
100
AcDbEntity
  8
SK1
100
AcDbVertex
100
AcDb2dVertex
 10
-2.875405000003638
 20
2.770351000000004
 30
0.0
  0
SEQEND
  5
CF5
330
CEC
100
AcDbEntity
  8
SK1
  0
ARC
  5
CF6
330
18
100
AcDbEntity
  8
SK1
100
AcDbCircle
 10
-3.549005000003639
 20
-2.673505999999973
 30
0.0
 40
0.121608
100
AcDbArc
 50
192.3471610000015
 51
232.1145619999999
  0
LINE
  5
CF7
330
18
100
AcDbEntity
  8
SK1
100
AcDbLine
 10
-3.615360000003633
 20
-2.770331999999995
 30
0.0
 11
-3.623163000003636
 21
-2.768817000000011
 31
0.0
  0
ARC
  5
CF8
330
18
100
AcDbEntity
  8
SK1
100
AcDbCircle
 10
-13.92074600000364
 20
0.7970859999999789
 30
0.0
 40
9.819841
100
AcDbArc
 50
5.590219999999217
 51
9.952658000000717
  0
POLYLINE
  5
CF9
330
18
100
AcDbEntity
  8
SK1
100
AcDb2dPolyline
 66
     1
 10
0.0
 20
0.0
 30
0.0
  0
VERTEX
  5
CFA
330
CF9
100
AcDbEntity
  8
SK1
100
AcDbVertex
100
AcDb2dVertex
 10
-3.668730000003633
 20
-2.69971399999997
 30
0.0
  0
VERTEX
  5
CFB
330
CF9
100
AcDbEntity
  8
SK1
100
AcDbVertex
100
AcDb2dVertex
 10
-3.718076000003633
 20
-2.511461999999994
 30
0.0
  0
VERTEX
  5
CFC
330
CF9
100
AcDbEntity
  8
SK1
100
AcDbVertex
100
AcDb2dVertex
 10
-3.749704000003638
 20
-2.33224899999999
 30
0.0
  0
VERTEX
  5
CFD
330
CF9
100
AcDbEntity
  8
SK1
100
AcDbVertex
100
AcDb2dVertex
 10
-3.809438000003638
 20
-1.882515000000011
 30
0.0
  0
VERTEX
  5
CFE
330
CF9
100
AcDbEntity
  8
SK1
100
AcDbVertex
100
AcDb2dVertex
 10
-3.886524000003639
 20
-1.129236999999988
 30
0.0
  0
VERTEX
  5
CFF
330
CF9
100
AcDbEntity
  8
SK1
100
AcDbVertex
100
AcDb2dVertex
 10
-4.031271000003633
 20
0.5358870000000025
 30
0.0
  0
VERTEX
  5
D00
330
CF9
100
AcDbEntity
  8
SK1
100
AcDbVertex
100
AcDb2dVertex
 10
-4.146882000003635
 20
1.753737999999998
 30
0.0
  0
SEQEND
  5
D01
330
CF9
100
AcDbEntity
  8
SK1
  0
POLYLINE
  5
D02
330
18
100
AcDbEntity
  8
SK1
100
AcDb2dPolyline
 66
     1
 10
0.0
 20
0.0
 30
0.0
  0
VERTEX
  5
D03
330
D02
100
AcDbEntity
  8
SK1
100
AcDbVertex
100
AcDb2dVertex
 10
-4.249346000003633
 20
2.494176999999979
 30
0.0
  0
VERTEX
  5
D04
330
D02
100
AcDbEntity
  8
SK1
100
AcDbVertex
100
AcDb2dVertex
 10
-4.291061000003636
 20
2.667429000000026
 30
0.0
  0
VERTEX
  5
D05
330
D02
100
AcDbEntity
  8
SK1
100
AcDbVertex
100
AcDb2dVertex
 10
-4.312536000003638
 20
2.72441900000001
 30
0.0
  0
VERTEX
  5
D06
330
D02
100
AcDbEntity
  8
SK1
100
AcDbVertex
100
AcDb2dVertex
 10
-4.334293000003633
 20
2.759104999999975
 30
0.0
  0
VERTEX
  5
D07
330
D02
100
AcDbEntity
  8
SK1
100
AcDbVertex
100
AcDb2dVertex
 10
-4.345237000003634
 20
2.767673000000001
 30
0.0
  0
VERTEX
  5
D08
330
D02
100
AcDbEntity
  8
SK1
100
AcDbVertex
100
AcDb2dVertex
 10
-4.355441000003636
 20
2.770282000000008
 30
0.0
  0
SEQEND
  5
D09
330
D02
100
AcDbEntity
  8
SK1
  0
LINE
  5
D0A
330
18
100
AcDbEntity
  8
SK1
100
AcDbLine
 10
-5.155871000003634
 20
0.1835950000000253
 30
0.0
 11
-5.478892000003632
 21
0.1582989999999995
 31
0.0
  0
ARC
  5
D0B
330
18
100
AcDbEntity
  8
SK1
100
AcDbCircle
 10
79.98289999999639
 20
6.931985999999993
 30
0.0
 40
85.72890799999997
100
AcDbArc
 50
184.5317799999993
 51
185.7893820000016
  0
POLYLINE
  5
D0C
330
18
100
AcDbEntity
  8
SK1
100
AcDb2dPolyline
 66
     1
 10
0.0
 20
0.0
 30
0.0
  0
VERTEX
  5
D0D
330
D0C
100
AcDbEntity
  8
SK1
100
AcDbVertex
100
AcDb2dVertex
 10
-5.095696000003633
 20
-2.770216000000004
 30
0.0
  0
VERTEX
  5
D0E
330
D0C
100
AcDbEntity
  8
SK1
100
AcDbVertex
100
AcDb2dVertex
 10
-5.106257000003636
 20
-2.767270999999993
 30
0.0
  0
VERTEX
  5
D0F
330
D0C
100
AcDbEntity
  8
SK1
100
AcDbVertex
100
AcDb2dVertex
 10
-5.113288000003634
 20
-2.762227999999993
 30
0.0
  0
VERTEX
  5
D10
330
D0C
100
AcDbEntity
  8
SK1
100
AcDbVertex
100
AcDb2dVertex
 10
-5.127304000003633
 20
-2.744839000000013
 30
0.0
  0
VERTEX
  5
D11
330
D0C
100
AcDbEntity
  8
SK1
100
AcDbVertex
100
AcDb2dVertex
 10
-5.148154000003636
 20
-2.701037999999982
 30
0.0
  0
VERTEX
  5
D12
330
D0C
100
AcDbEntity
  8
SK1
100
AcDbVertex
100
AcDb2dVertex
 10
-5.188892000003632
 20
-2.554936999999995
 30
0.0
  0
VERTEX
  5
D13
330
D0C
100
AcDbEntity
  8
SK1
100
AcDbVertex
100
AcDb2dVertex
 10
-5.230562000003636
 20
-2.326755999999988
 30
0.0
  0
VERTEX
  5
D14
330
D0C
100
AcDbEntity
  8
SK1
100
AcDbVertex
100
AcDb2dVertex
 10
-5.308153000003634
 20
-1.71559400000001
 30
0.0
  0
SEQEND
  5
D15
330
D0C
100
AcDbEntity
  8
SK1
  0
POLYLINE
  5
D16
330
18
100
AcDbEntity
  8
SK1
100
AcDb2dPolyline
 66
     1
 10
0.0
 20
0.0
 30
0.0
  0
VERTEX
  5
D17
330
D16
100
AcDbEntity
  8
SK1
100
AcDbVertex
100
AcDb2dVertex
 10
-5.659997000003635
 20
2.122199000000023
 30
0.0
  0
VERTEX
  5
D18
330
D16
100
AcDbEntity
  8
SK1
100
AcDbVertex
100
AcDb2dVertex
 10
-5.735903000003638
 20
2.576872999999976
 30
0.0
  0
VERTEX
  5
D19
330
D16
100
AcDbEntity
  8
SK1
100
AcDbVertex
100
AcDb2dVertex
 10
-5.776247000003635
 20
2.712664000000017
 30
0.0
  0
VERTEX
  5
D1A
330
D16
100
AcDbEntity
  8
SK1
100
AcDbVertex
100
AcDb2dVertex
 10
-5.797568000003637
 20
2.752490000000022
 30
0.0
  0
VERTEX
  5
D1B
330
D16
100
AcDbEntity
  8
SK1
100
AcDbVertex
100
AcDb2dVertex
 10
-5.808314000003631
 20
2.764040000000022
 30
0.0
  0
VERTEX
  5
D1C
330
D16
100
AcDbEntity
  8
SK1
100
AcDbVertex
100
AcDb2dVertex
 10
-5.819076000003632
 20
2.769843999999976
 30
0.0
  0
VERTEX
  5
D1D
330
D16
100
AcDbEntity
  8
SK1
100
AcDbVertex
100
AcDb2dVertex
 10
-5.824457000003632
 20
2.770573000000013
 30
0.0
  0
SEQEND
  5
D1E
330
D16
100
AcDbEntity
  8
SK1
  0
LINE
  5
D1F
330
18
100
AcDbEntity
  8
SK1
100
AcDbLine
 10
-5.824457000003632
 20
2.770573000000013
 30
0.0
 11
-5.829769000003636
 21
2.76987200000002
 31
0.0
  0
LINE
  5
D20
330
18
100
AcDbEntity
  8
SK1
100
AcDbLine
 10
-5.656947000003632
 20
2.098995999999999
 30
0.0
 11
-5.659997000003635
 21
2.122199000000023
 31
0.0
  0
ARC
  5
D21
330
18
100
AcDbEntity
  8
SK1
100
AcDbCircle
 10
-5.977696000003637
 20
2.08386200000001
 30
0.0
 40
0.321115
100
AcDbArc
 50
351.5969660000003
 51
2.702321000001596
  0
POLYLINE
  5
D22
330
18
100
AcDbEntity
  8
SK1
100
AcDb2dPolyline
 66
     1
 10
0.0
 20
0.0
 30
0.0
  0
VERTEX
  5
D23
330
D22
100
AcDbEntity
  8
SK1
100
AcDbVertex
100
AcDb2dVertex
 10
-5.478893000003637
 20
0.1582989999999995
 30
0.0
  0
VERTEX
  5
D24
330
D22
100
AcDbEntity
  8
SK1
100
AcDbVertex
100
AcDb2dVertex
 10
-5.596647000003634
 20
1.464465000000018
 30
0.0
  0
VERTEX
  5
D25
330
D22
100
AcDbEntity
  8
SK1
100
AcDbVertex
100
AcDb2dVertex
 10
-5.660019000003637
 20
2.036933999999973
 30
0.0
  0
SEQEND
  5
D26
330
D22
100
AcDbEntity
  8
SK1
  0
LINE
  5
D27
330
18
100
AcDbEntity
  8
SK1
100
AcDbLine
 10
-6.564411000003638
 20
-2.770410000000025
 30
0.0
 11
-6.569628000003638
 21
-2.76973700000002
 31
0.0
  0
POLYLINE
  5
D28
330
18
100
AcDbEntity
  8
SK1
100
AcDb2dPolyline
 66
     1
 10
0.0
 20
0.0
 30
0.0
  0
VERTEX
  5
D29
330
D28
100
AcDbEntity
  8
SK1
100
AcDbVertex
100
AcDb2dVertex
 10
-6.569628000003638
 20
-2.76973700000002
 30
0.0
  0
VERTEX
  5
D2A
330
D28
100
AcDbEntity
  8
SK1
100
AcDbVertex
100
AcDb2dVertex
 10
-6.578703000003634
 20
-2.765332999999998
 30
0.0
  0
VERTEX
  5
D2B
330
D28
100
AcDbEntity
  8
SK1
100
AcDbVertex
100
AcDb2dVertex
 10
-6.596798000003638
 20
-2.744320000000016
 30
0.0
  0
VERTEX
  5
D2C
330
D28
100
AcDbEntity
  8
SK1
100
AcDbVertex
100
AcDb2dVertex
 10
-6.649987000003632
 20
-2.58980200000002
 30
0.0
  0
SEQEND
  5
D2D
330
D28
100
AcDbEntity
  8
SK1
  0
POLYLINE
  5
D2E
330
18
100
AcDbEntity
  8
SK1
100
AcDb2dPolyline
 66
     1
 10
0.0
 20
0.0
 30
0.0
  0
VERTEX
  5
D2F
330
D2E
100
AcDbEntity
  8
SK1
100
AcDbVertex
100
AcDb2dVertex
 10
-2.322484000003633
 20
-2.911588999999991
 30
0.0
  0
VERTEX
  5
D30
330
D2E
100
AcDbEntity
  8
SK1
100
AcDbVertex
100
AcDb2dVertex
 10
-2.332656000003638
 20
-2.911269000000004
 30
0.0
  0
VERTEX
  5
D31
330
D2E
100
AcDbEntity
  8
SK1
100
AcDbVertex
100
AcDb2dVertex
 10
-2.339434000003634
 20
-2.908065000000021
 30
0.0
  0
VERTEX
  5
D32
330
D2E
100
AcDbEntity
  8
SK1
100
AcDbVertex
100
AcDb2dVertex
 10
-2.352960000003633
 20
-2.894518000000004
 30
0.0
  0
VERTEX
  5
D33
330
D2E
100
AcDbEntity
  8
SK1
100
AcDbVertex
100
AcDb2dVertex
 10
-2.373110000003634
 20
-2.856720999999993
 30
0.0
  0
VERTEX
  5
D34
330
D2E
100
AcDbEntity
  8
SK1
100
AcDbVertex
100
AcDb2dVertex
 10
-2.412572000003634
 20
-2.72261800000001
 30
0.0
  0
VERTEX
  5
D35
330
D2E
100
AcDbEntity
  8
SK1
100
AcDbVertex
100
AcDb2dVertex
 10
-2.461896000003633
 20
-2.44834400000002
 30
0.0
  0
VERTEX
  5
D36
330
D2E
100
AcDbEntity
  8
SK1
100
AcDbVertex
100
AcDb2dVertex
 10
-2.552322000003634
 20
-1.679442999999992
 30
0.0
  0
VERTEX
  5
D37
330
D2E
100
AcDbEntity
  8
SK1
100
AcDbVertex
100
AcDb2dVertex
 10
-2.676599000003633
 20
-0.2532519999999749
 30
0.0
  0
VERTEX
  5
D38
330
D2E
100
AcDbEntity
  8
SK1
100
AcDbVertex
100
AcDb2dVertex
 10
-2.798358000003638
 20
1.213397999999982
 30
0.0
  0
SEQEND
  5
D39
330
D2E
100
AcDbEntity
  8
SK1
  0
ARC
  5
D3A
330
18
100
AcDbEntity
  8
SK1
100
AcDbCircle
 10
-2.131484000003638
 20
-2.969597000000021
 30
0.0
 40
0.199599
100
AcDbArc
 50
100.3699829999994
 51
163.106007
  0
POLYLINE
  5
D3B
330
18
100
AcDbEntity
  8
SK1
100
AcDb2dPolyline
 66
     1
 10
0.0
 20
0.0
 30
0.0
  0
VERTEX
  5
D3C
330
D3B
100
AcDbEntity
  8
SK1
100
AcDbVertex
100
AcDb2dVertex
 10
-2.798358000003638
 20
1.213397999999982
 30
0.0
  0
VERTEX
  5
D3D
330
D3B
100
AcDbEntity
  8
SK1
100
AcDbVertex
100
AcDb2dVertex
 10
-2.906676000003634
 20
2.262444000000015
 30
0.0
  0
VERTEX
  5
D3E
330
D3B
100
AcDbEntity
  8
SK1
100
AcDbVertex
100
AcDb2dVertex
 10
-2.966609000003636
 20
2.651147999999976
 30
0.0
  0
VERTEX
  5
D3F
330
D3B
100
AcDbEntity
  8
SK1
100
AcDbVertex
100
AcDb2dVertex
 10
-3.006030000003633
 20
2.814789000000017
 30
0.0
  0
SEQEND
  5
D40
330
D3B
100
AcDbEntity
  8
SK1
  0
POLYLINE
  5
D41
330
18
100
AcDbEntity
  8
SK1
100
AcDb2dPolyline
 66
     1
 10
0.0
 20
0.0
 30
0.0
  0
VERTEX
  5
D42
330
D41
100
AcDbEntity
  8
SK1
100
AcDbVertex
100
AcDb2dVertex
 10
-3.746127000003631
 20
-2.815244000000006
 30
0.0
  0
VERTEX
  5
D43
330
D41
100
AcDbEntity
  8
SK1
100
AcDbVertex
100
AcDb2dVertex
 10
-3.776014000003633
 20
-2.886873999999976
 30
0.0
  0
VERTEX
  5
D44
330
D41
100
AcDbEntity
  8
SK1
100
AcDbVertex
100
AcDb2dVertex
 10
-3.791125000003638
 20
-2.905475000000024
 30
0.0
  0
VERTEX
  5
D45
330
D41
100
AcDbEntity
  8
SK1
100
AcDbVertex
100
AcDb2dVertex
 10
-3.801229000003636
 20
-2.911258999999971
 30
0.0
  0
VERTEX
  5
D46
330
D41
100
AcDbEntity
  8
SK1
100
AcDbVertex
100
AcDb2dVertex
 10
-3.813866000003634
 20
-2.910978
 30
0.0
  0
SEQEND
  5
D47
330
D41
100
AcDbEntity
  8
SK1
  0
POLYLINE
  5
D48
330
18
100
AcDbEntity
  8
SK1
100
AcDb2dPolyline
 66
     1
 10
0.0
 20
0.0
 30
0.0
  0
VERTEX
  5
D49
330
D48
100
AcDbEntity
  8
SK1
100
AcDbVertex
100
AcDb2dVertex
 10
-3.870807000003636
 20
-2.806551000000013
 30
0.0
  0
VERTEX
  5
D4A
330
D48
100
AcDbEntity
  8
SK1
100
AcDbVertex
100
AcDb2dVertex
 10
-3.919084000003634
 20
-2.589624000000014
 30
0.0
  0
VERTEX
  5
D4B
330
D48
100
AcDbEntity
  8
SK1
100
AcDbVertex
100
AcDb2dVertex
 10
-4.007931000003636
 20
-1.916680999999981
 30
0.0
  0
VERTEX
  5
D4C
330
D48
100
AcDbEntity
  8
SK1
100
AcDbVertex
100
AcDb2dVertex
 10
-4.056954000003634
 20
-1.42214100000001
 30
0.0
  0
VERTEX
  5
D4D
330
D48
100
AcDbEntity
  8
SK1
100
AcDbVertex
100
AcDb2dVertex
 10
-4.149351000003633
 20
-0.3424430000000029
 30
0.0
  0
VERTEX
  5
D4E
330
D48
100
AcDbEntity
  8
SK1
100
AcDbVertex
100
AcDb2dVertex
 10
-4.286435000003634
 20
1.303666000000021
 30
0.0
  0
VERTEX
  5
D4F
330
D48
100
AcDbEntity
  8
SK1
100
AcDbVertex
100
AcDb2dVertex
 10
-4.337558000003631
 20
1.833624999999982
 30
0.0
  0
SEQEND
  5
D50
330
D48
100
AcDbEntity
  8
SK1
  0
POLYLINE
  5
D51
330
18
100
AcDbEntity
  8
SK1
100
AcDb2dPolyline
 66
     1
 10
0.0
 20
0.0
 30
0.0
  0
VERTEX
  5
D52
330
D51
100
AcDbEntity
  8
SK1
100
AcDbVertex
100
AcDb2dVertex
 10
-3.813866000003634
 20
-2.910978
 30
0.0
  0
VERTEX
  5
D53
330
D51
100
AcDbEntity
  8
SK1
100
AcDbVertex
100
AcDb2dVertex
 10
-3.820241000003633
 20
-2.907665000000008
 30
0.0
  0
VERTEX
  5
D54
330
D51
100
AcDbEntity
  8
SK1
100
AcDbVertex
100
AcDb2dVertex
 10
-3.832987000003633
 20
-2.894654999999999
 30
0.0
  0
VERTEX
  5
D55
330
D51
100
AcDbEntity
  8
SK1
100
AcDbVertex
100
AcDb2dVertex
 10
-3.870807000003636
 20
-2.806551000000013
 30
0.0
  0
SEQEND
  5
D56
330
D51
100
AcDbEntity
  8
SK1
  0
ARC
  5
D57
330
18
100
AcDbEntity
  8
SK1
100
AcDbCircle
 10
-6.893462000003638
 20
2.152050999999971
 30
0.0
 40
2.497443999999998
100
AcDbArc
 50
7.558978000000677
 51
15.3967230000004
  0
ARC
  5
D58
330
18
100
AcDbEntity
  8
SK1
100
AcDbCircle
 10
-18.15202400000362
 20
0.4700879999999758
 30
0.0
 40
13.881361
100
AcDbArc
 50
5.637038000001089
 51
8.328052999998627
  0
POLYLINE
  5
D59
330
18
100
AcDbEntity
  8
SK1
100
AcDb2dPolyline
 66
     1
 10
0.0
 20
0.0
 30
0.0
  0
VERTEX
  5
D5A
330
D59
100
AcDbEntity
  8
SK1
100
AcDbVertex
100
AcDb2dVertex
 10
-5.226068000003635
 20
-2.81469499999997
 30
0.0
  0
VERTEX
  5
D5B
330
D59
100
AcDbEntity
  8
SK1
100
AcDbVertex
100
AcDb2dVertex
 10
-5.250953000003632
 20
-2.877739000000018
 30
0.0
  0
VERTEX
  5
D5C
330
D59
100
AcDbEntity
  8
SK1
100
AcDbVertex
100
AcDb2dVertex
 10
-5.263529000003636
 20
-2.897426999999993
 30
0.0
  0
VERTEX
  5
D5D
330
D59
100
AcDbEntity
  8
SK1
100
AcDbVertex
100
AcDb2dVertex
 10
-5.276162000003636
 20
-2.908889999999985
 30
0.0
  0
VERTEX
  5
D5E
330
D59
100
AcDbEntity
  8
SK1
100
AcDbVertex
100
AcDb2dVertex
 10
-5.282491000003637
 20
-2.911488000000018
 30
0.0
  0
VERTEX
  5
D5F
330
D59
100
AcDbEntity
  8
SK1
100
AcDbVertex
100
AcDb2dVertex
 10
-5.291991000003632
 20
-2.911442000000021
 30
0.0
  0
VERTEX
  5
D60
330
D59
100
AcDbEntity
  8
SK1
100
AcDbVertex
100
AcDb2dVertex
 10
-5.298324000003638
 20
-2.908778999999981
 30
0.0
  0
VERTEX
  5
D61
330
D59
100
AcDbEntity
  8
SK1
100
AcDbVertex
100
AcDb2dVertex
 10
-5.310970000003634
 20
-2.897172000000011
 30
0.0
  0
VERTEX
  5
D62
330
D59
100
AcDbEntity
  8
SK1
100
AcDbVertex
100
AcDb2dVertex
 10
-5.323477000003633
 20
-2.877474000000006
 30
0.0
  0
VERTEX
  5
D63
330
D59
100
AcDbEntity
  8
SK1
100
AcDbVertex
100
AcDb2dVertex
 10
-5.372509000003637
 20
-2.722789999999974
 30
0.0
  0
VERTEX
  5
D64
330
D59
100
AcDbEntity
  8
SK1
100
AcDbVertex
100
AcDb2dVertex
 10
-5.419186000003633
 20
-2.466041000000018
 30
0.0
  0
VERTEX
  5
D65
330
D59
100
AcDbEntity
  8
SK1
100
AcDbVertex
100
AcDb2dVertex
 10
-5.498790000003636
 20
-1.813402999999993
 30
0.0
  0
SEQEND
  5
D66
330
D59
100
AcDbEntity
  8
SK1
  0
POLYLINE
  5
D67
330
18
100
AcDbEntity
  8
SK1
100
AcDb2dPolyline
 66
     1
 10
0.0
 20
0.0
 30
0.0
  0
VERTEX
  5
D68
330
D67
100
AcDbEntity
  8
SK1
100
AcDbVertex
100
AcDb2dVertex
 10
-5.660290000003633
 20
2.036901999999996
 30
0.0
  0
VERTEX
  5
D69
330
D67
100
AcDbEntity
  8
SK1
100
AcDbVertex
100
AcDb2dVertex
 10
-5.684434000003632
 20
1.918601000000023
 30
0.0
  0
VERTEX
  5
D6A
330
D67
100
AcDbEntity
  8
SK1
100
AcDbVertex
100
AcDb2dVertex
 10
-5.743051000003638
 20
1.675091000000008
 30
0.0
  0
VERTEX
  5
D6B
330
D67
100
AcDbEntity
  8
SK1
100
AcDbVertex
100
AcDb2dVertex
 10
-5.778687000003634
 20
1.436923999999975
 30
0.0
  0
SEQEND
  5
D6C
330
D67
100
AcDbEntity
  8
SK1
  0
POLYLINE
  5
D6D
330
18
100
AcDbEntity
  8
SK1
100
AcDb2dPolyline
 66
     1
 10
0.0
 20
0.0
 30
0.0
  0
VERTEX
  5
D6E
330
D6D
100
AcDbEntity
  8
SK1
100
AcDbVertex
100
AcDb2dVertex
 10
-5.510194000003637
 20
-1.701188999999999
 30
0.0
  0
VERTEX
  5
D6F
330
D6D
100
AcDbEntity
  8
SK1
100
AcDbVertex
100
AcDb2dVertex
 10
-5.583681000003637
 20
-0.8934750000000233
 30
0.0
  0
VERTEX
  5
D70
330
D6D
100
AcDbEntity
  8
SK1
100
AcDbVertex
100
AcDb2dVertex
 10
-5.724077000003638
 20
0.8165589999999838
 30
0.0
  0
VERTEX
  5
D71
330
D6D
100
AcDbEntity
  8
SK1
100
AcDbVertex
100
AcDb2dVertex
 10
-5.778687000003634
 20
1.436923999999975
 30
0.0
  0
SEQEND
  5
D72
330
D6D
100
AcDbEntity
  8
SK1
  0
LINE
  5
D73
330
18
100
AcDbEntity
  8
SK1
100
AcDbLine
 10
-5.498790000003636
 20
-1.813402999999993
 30
0.0
 11
-5.510194000003637
 21
-1.701188999999999
 31
0.0
  0
POLYLINE
  5
D74
330
18
100
AcDbEntity
  8
SK1
100
AcDb2dPolyline
 66
     1
 10
0.0
 20
0.0
 30
0.0
  0
VERTEX
  5
D75
330
D74
100
AcDbEntity
  8
SK1
100
AcDbVertex
100
AcDb2dVertex
 10
-2.378057000003635
 20
-3.093911999999988
 30
0.0
  0
VERTEX
  5
D76
330
D74
100
AcDbEntity
  8
SK1
100
AcDbVertex
100
AcDb2dVertex
 10
-2.388229000003633
 20
-3.093620999999983
 30
0.0
  0
VERTEX
  5
D77
330
D74
100
AcDbEntity
  8
SK1
100
AcDbVertex
100
AcDb2dVertex
 10
-2.395007000003636
 20
-3.090243999999983
 30
0.0
  0
VERTEX
  5
D78
330
D74
100
AcDbEntity
  8
SK1
100
AcDbVertex
100
AcDb2dVertex
 10
-2.408533000003636
 20
-3.075895999999999
 30
0.0
  0
VERTEX
  5
D79
330
D74
100
AcDbEntity
  8
SK1
100
AcDbVertex
100
AcDb2dVertex
 10
-2.428683000003636
 20
-3.035792000000013
 30
0.0
  0
VERTEX
  5
D7A
330
D74
100
AcDbEntity
  8
SK1
100
AcDbVertex
100
AcDb2dVertex
 10
-2.468137000003635
 20
-2.893432000000018
 30
0.0
  0
VERTEX
  5
D7B
330
D74
100
AcDbEntity
  8
SK1
100
AcDbVertex
100
AcDb2dVertex
 10
-2.517482000003639
 20
-2.601999999999974
 30
0.0
  0
VERTEX
  5
D7C
330
D74
100
AcDbEntity
  8
SK1
100
AcDbVertex
100
AcDb2dVertex
 10
-2.607857000003633
 20
-1.785665999999991
 30
0.0
  0
VERTEX
  5
D7D
330
D74
100
AcDbEntity
  8
SK1
100
AcDbVertex
100
AcDb2dVertex
 10
-2.732163000003636
 20
-0.2699700000000007
 30
0.0
  0
VERTEX
  5
D7E
330
D74
100
AcDbEntity
  8
SK1
100
AcDbVertex
100
AcDb2dVertex
 10
-2.853931000003633
 20
1.288694000000019
 30
0.0
  0
SEQEND
  5
D7F
330
D74
100
AcDbEntity
  8
SK1
  0
LINE
  5
D80
330
18
100
AcDbEntity
  8
SK1
100
AcDbLine
 10
-2.322482000003638
 20
-2.911523999999984
 30
0.0
 11
-2.378083000003634
 21
-3.093944000000021
 31
0.0
  0
POLYLINE
  5
D81
330
18
100
AcDbEntity
  8
SK1
100
AcDb2dPolyline
 66
     1
 10
0.0
 20
0.0
 30
0.0
  0
VERTEX
  5
D82
330
D81
100
AcDbEntity
  8
SK1
100
AcDbVertex
100
AcDb2dVertex
 10
-2.853931000003633
 20
1.288694000000019
 30
0.0
  0
VERTEX
  5
D83
330
D81
100
AcDbEntity
  8
SK1
100
AcDbVertex
100
AcDb2dVertex
 10
-2.963997000003636
 20
2.418037000000025
 30
0.0
  0
VERTEX
  5
D84
330
D81
100
AcDbEntity
  8
SK1
100
AcDbVertex
100
AcDb2dVertex
 10
-3.025080000003633
 20
2.832406999999988
 30
0.0
  0
VERTEX
  5
D85
330
D81
100
AcDbEntity
  8
SK1
100
AcDbVertex
100
AcDb2dVertex
 10
-3.065104000003636
 20
3.002335000000015
 30
0.0
  0
SEQEND
  5
D86
330
D81
100
AcDbEntity
  8
SK1
  0
LINE
  5
D87
330
18
100
AcDbEntity
  8
SK1
100
AcDbLine
 10
-3.914965000003633
 20
-3.018799999999998
 30
0.0
 11
-3.926363000003631
 21
-2.982406000000024
 31
0.0
  0
POLYLINE
  5
D88
330
18
100
AcDbEntity
  8
SK1
100
AcDb2dPolyline
 66
     1
 10
0.0
 20
0.0
 30
0.0
  0
VERTEX
  5
D89
330
D88
100
AcDbEntity
  8
SK1
100
AcDbVertex
100
AcDb2dVertex
 10
-3.805126000003638
 20
-3.002544999999996
 30
0.0
  0
VERTEX
  5
D8A
330
D88
100
AcDbEntity
  8
SK1
100
AcDbVertex
100
AcDb2dVertex
 10
-3.835065000003638
 20
-3.073288999999987
 30
0.0
  0
VERTEX
  5
D8B
330
D88
100
AcDbEntity
  8
SK1
100
AcDbVertex
100
AcDb2dVertex
 10
-3.850189000003638
 20
-3.090201999999976
 30
0.0
  0
VERTEX
  5
D8C
330
D88
100
AcDbEntity
  8
SK1
100
AcDbVertex
100
AcDb2dVertex
 10
-3.857769000003634
 20
-3.093889999999986
 30
0.0
  0
VERTEX
  5
D8D
330
D88
100
AcDbEntity
  8
SK1
100
AcDbVertex
100
AcDb2dVertex
 10
-3.865353000003636
 20
-3.094373000000017
 30
0.0
  0
VERTEX
  5
D8E
330
D88
100
AcDbEntity
  8
SK1
100
AcDbVertex
100
AcDb2dVertex
 10
-3.875461000003639
 20
-3.090032000000006
 30
0.0
  0
VERTEX
  5
D8F
330
D88
100
AcDbEntity
  8
SK1
100
AcDbVertex
100
AcDb2dVertex
 10
-3.895603000003638
 20
-3.064453000000013
 30
0.0
  0
VERTEX
  5
D90
330
D88
100
AcDbEntity
  8
SK1
100
AcDbVertex
100
AcDb2dVertex
 10
-3.914965000003633
 20
-3.018799999999998
 30
0.0
  0
SEQEND
  5
D91
330
D88
100
AcDbEntity
  8
SK1
  0
POLYLINE
  5
D92
330
18
100
AcDbEntity
  8
SK1
100
AcDb2dPolyline
 66
     1
 10
0.0
 20
0.0
 30
0.0
  0
VERTEX
  5
D93
330
D92
100
AcDbEntity
  8
SK1
100
AcDbVertex
100
AcDb2dVertex
 10
-3.926363000003631
 20
-2.982406000000024
 30
0.0
  0
VERTEX
  5
D94
330
D92
100
AcDbEntity
  8
SK1
100
AcDbVertex
100
AcDb2dVertex
 10
-3.983200000003633
 20
-2.698871999999993
 30
0.0
  0
VERTEX
  5
D95
330
D92
100
AcDbEntity
  8
SK1
100
AcDbVertex
100
AcDb2dVertex
 10
-4.019193000003631
 20
-2.43697099999997
 30
0.0
  0
VERTEX
  5
D96
330
D92
100
AcDbEntity
  8
SK1
100
AcDbVertex
100
AcDb2dVertex
 10
-4.086369000003634
 20
-1.801933000000019
 30
0.0
  0
VERTEX
  5
D97
330
D92
100
AcDbEntity
  8
SK1
100
AcDbVertex
100
AcDb2dVertex
 10
-4.223284000003636
 20
-0.1243579999999724
 30
0.0
  0
VERTEX
  5
D98
330
D92
100
AcDbEntity
  8
SK1
100
AcDbVertex
100
AcDb2dVertex
 10
-4.358781000003638
 20
1.577916000000015
 30
0.0
  0
VERTEX
  5
D99
330
D92
100
AcDbEntity
  8
SK1
100
AcDbVertex
100
AcDb2dVertex
 10
-4.433018000003633
 20
2.325424999999995
 30
0.0
  0
VERTEX
  5
D9A
330
D92
100
AcDbEntity
  8
SK1
100
AcDbVertex
100
AcDb2dVertex
 10
-4.472824000003632
 20
2.63554399999998
 30
0.0
  0
SEQEND
  5
D9B
330
D92
100
AcDbEntity
  8
SK1
  0
ARC
  5
D9C
330
18
100
AcDbEntity
  8
SK1
100
AcDbCircle
 10
-7.111948000003637
 20
2.313766999999983
 30
0.0
 40
2.658098999999999
100
AcDbArc
 50
6.951521999999202
 51
15.02443799999924
  0
POLYLINE
  5
D9D
330
18
100
AcDbEntity
  8
SK1
100
AcDb2dPolyline
 66
     1
 10
0.0
 20
0.0
 30
0.0
  0
VERTEX
  5
D9E
330
D9D
100
AcDbEntity
  8
SK1
100
AcDbVertex
100
AcDb2dVertex
 10
-5.285155000003633
 20
-3.002359000000011
 30
0.0
  0
VERTEX
  5
D9F
330
D9D
100
AcDbEntity
  8
SK1
100
AcDbVertex
100
AcDb2dVertex
 10
-5.315858000003636
 20
-3.07430099999999
 30
0.0
  0
VERTEX
  5
DA0
330
D9D
100
AcDbEntity
  8
SK1
100
AcDbVertex
100
AcDb2dVertex
 10
-5.331370000003636
 20
-3.090870999999991
 30
0.0
  0
VERTEX
  5
DA1
330
D9D
100
AcDbEntity
  8
SK1
100
AcDbVertex
100
AcDb2dVertex
 10
-5.339145000003632
 20
-3.094140999999978
 30
0.0
  0
VERTEX
  5
DA2
330
D9D
100
AcDbEntity
  8
SK1
100
AcDbVertex
100
AcDb2dVertex
 10
-5.346925000003636
 20
-3.094040000000006
 30
0.0
  0
VERTEX
  5
DA3
330
D9D
100
AcDbEntity
  8
SK1
100
AcDbVertex
100
AcDb2dVertex
 10
-5.357293000003636
 20
-3.088661
 30
0.0
  0
VERTEX
  5
DA4
330
D9D
100
AcDbEntity
  8
SK1
100
AcDbVertex
100
AcDb2dVertex
 10
-5.377954000003632
 20
-3.060121999999978
 30
0.0
  0
VERTEX
  5
DA5
330
D9D
100
AcDbEntity
  8
SK1
100
AcDbVertex
100
AcDb2dVertex
 10
-5.416406000003632
 20
-2.944634000000006
 30
0.0
  0
VERTEX
  5
DA6
330
D9D
100
AcDbEntity
  8
SK1
100
AcDbVertex
100
AcDb2dVertex
 10
-5.48905200000363
 20
-2.516594999999995
 30
0.0
  0
VERTEX
  5
DA7
330
D9D
100
AcDbEntity
  8
SK1
100
AcDbVertex
100
AcDb2dVertex
 10
-5.565748000003637
 20
-1.808398000000011
 30
0.0
  0
SEQEND
  5
DA8
330
D9D
100
AcDbEntity
  8
SK1
  0
ARC
  5
DA9
330
18
100
AcDbEntity
  8
SK1
100
AcDbCircle
 10
-9.845013000003641
 20
1.629080999999985
 30
0.0
 40
4.070908
100
AcDbArc
 50
353.2362509999988
 51
357.292059999999
  0
ARC
  5
DAA
330
18
100
AcDbEntity
  8
SK1
100
AcDbCircle
 10
-346.9196310000037
 20
-26.11656099999999
 30
0.0
 40
342.205256
100
AcDbArc
 50
4.254736999999574
 51
4.570051000001151
  0
ARC
  5
DAB
330
18
100
AcDbEntity
  8
SK1
100
AcDbCircle
 10
65.62066999999638
 20
4.71832599999999
 30
0.0
 40
71.48512499999998
100
AcDbArc
 50
184.3694779999994
 51
185.2385149999991
  0
ARC
  5
DAC
330
18
100
AcDbEntity
  8
SK1
100
AcDbCircle
 10
-2.521492000003631
 20
-3.050260999999976
 30
0.0
 40
0.149927
100
AcDbArc
 50
300.5734820000014
 51
343.0736869999992
  0
ARC
  5
DAD
330
18
100
AcDbEntity
  8
SK1
100
AcDbCircle
 10
-5.749190000003636
 20
-0.5657180000000041
 30
0.0
 40
0.187097
100
AcDbArc
 50
277.7391319999995
 51
299.6522569999994
  0
ARC
  5
DAE
330
18
100
AcDbEntity
  8
SK1
100
AcDbCircle
 10
-6.057878000003632
 20
1.17841199999998
 30
0.0
 40
0.257045
100
AcDbArc
 50
321.5038029999983
 51
353.5306459999997
  0
POLYLINE
  5
DAF
330
18
100
AcDbEntity
  8
SK1
100
AcDb2dPolyline
 66
     1
 10
0.0
 20
0.0
 30
0.0
  0
VERTEX
  5
DB0
330
DAF
100
AcDbEntity
  8
SK1
100
AcDbVertex
100
AcDb2dVertex
 10
-1.693721000003634
 20
-2.813252999999974
 30
0.0
  0
VERTEX
  5
DB1
330
DAF
100
AcDbEntity
  8
SK1
100
AcDbVertex
100
AcDb2dVertex
 10
-1.706328000003637
 20
-2.804288999999982
 30
0.0
  0
VERTEX
  5
DB2
330
DAF
100
AcDbEntity
  8
SK1
100
AcDbVertex
100
AcDb2dVertex
 10
-1.718938000003639
 20
-2.796363999999982
 30
0.0
  0
VERTEX
  5
DB3
330
DAF
100
AcDbEntity
  8
SK1
100
AcDbVertex
100
AcDb2dVertex
 10
-1.731552000003638
 20
-2.789477999999974
 30
0.0
  0
VERTEX
  5
DB4
330
DAF
100
AcDbEntity
  8
SK1
100
AcDbVertex
100
AcDb2dVertex
 10
-1.744170000003634
 20
-2.78363200000001
 30
0.0
  0
VERTEX
  5
DB5
330
DAF
100
AcDbEntity
  8
SK1
100
AcDbVertex
100
AcDb2dVertex
 10
-1.756790000003633
 20
-2.778825999999979
 30
0.0
  0
VERTEX
  5
DB6
330
DAF
100
AcDbEntity
  8
SK1
100
AcDbVertex
100
AcDb2dVertex
 10
-1.769412000003633
 20
-2.775060999999993
 30
0.0
  0
VERTEX
  5
DB7
330
DAF
100
AcDbEntity
  8
SK1
100
AcDbVertex
100
AcDb2dVertex
 10
-1.782036000003635
 20
-2.772334999999998
 30
0.0
  0
VERTEX
  5
DB8
330
DAF
100
AcDbEntity
  8
SK1
100
AcDbVertex
100
AcDb2dVertex
 10
-1.794661000003634
 20
-2.770650999999985
 30
0.0
  0
VERTEX
  5
DB9
330
DAF
100
AcDbEntity
  8
SK1
100
AcDbVertex
100
AcDb2dVertex
 10
-1.807286000003634
 20
-2.770006000000023
 30
0.0
  0
SEQEND
  5
DBA
330
DAF
100
AcDbEntity
  8
SK1
  0
POLYLINE
  5
DBB
330
18
100
AcDbEntity
  8
SK1
100
AcDb2dPolyline
 66
     1
 10
0.0
 20
0.0
 30
0.0
  0
VERTEX
  5
DBC
330
DBB
100
AcDbEntity
  8
SK1
100
AcDbVertex
100
AcDb2dVertex
 10
-2.018536000003634
 20
-2.811914000000001
 30
0.0
  0
VERTEX
  5
DBD
330
DBB
100
AcDbEntity
  8
SK1
100
AcDbVertex
100
AcDb2dVertex
 10
-2.030468000003637
 20
-2.80354299999999
 30
0.0
  0
VERTEX
  5
DBE
330
DBB
100
AcDbEntity
  8
SK1
100
AcDbVertex
100
AcDb2dVertex
 10
-2.042405000003633
 20
-2.796103000000015
 30
0.0
  0
VERTEX
  5
DBF
330
DBB
100
AcDbEntity
  8
SK1
100
AcDbVertex
100
AcDb2dVertex
 10
-2.054345000003634
 20
-2.789593000000023
 30
0.0
  0
VERTEX
  5
DC0
330
DBB
100
AcDbEntity
  8
SK1
100
AcDbVertex
100
AcDb2dVertex
 10
-2.066287000003633
 20
-2.784016000000008
 30
0.0
  0
VERTEX
  5
DC1
330
DBB
100
AcDbEntity
  8
SK1
100
AcDbVertex
100
AcDb2dVertex
 10
-2.078232000003636
 20
-2.779368999999974
 30
0.0
  0
VERTEX
  5
DC2
330
DBB
100
AcDbEntity
  8
SK1
100
AcDbVertex
100
AcDb2dVertex
 10
-2.090179000003637
 20
-2.775656000000025
 30
0.0
  0
VERTEX
  5
DC3
330
DBB
100
AcDbEntity
  8
SK1
100
AcDbVertex
100
AcDb2dVertex
 10
-2.102128000003638
 20
-2.772873000000004
 30
0.0
  0
VERTEX
  5
DC4
330
DBB
100
AcDbEntity
  8
SK1
100
AcDbVertex
100
AcDb2dVertex
 10
-2.114078000003637
 20
-2.771025000000008
 30
0.0
  0
VERTEX
  5
DC5
330
DBB
100
AcDbEntity
  8
SK1
100
AcDbVertex
100
AcDb2dVertex
 10
-2.126028000003636
 20
-2.770106999999995
 30
0.0
  0
SEQEND
  5
DC6
330
DBB
100
AcDbEntity
  8
SK1
  0
POLYLINE
  5
DC7
330
18
100
AcDbEntity
  8
SK1
100
AcDb2dPolyline
 66
     1
 10
0.0
 20
0.0
 30
0.0
  0
VERTEX
  5
DC8
330
DC7
100
AcDbEntity
  8
SK1
100
AcDbVertex
100
AcDb2dVertex
 10
-2.231579000003634
 20
-2.938665000000013
 30
0.0
  0
VERTEX
  5
DC9
330
DC7
100
AcDbEntity
  8
SK1
100
AcDbVertex
100
AcDb2dVertex
 10
-2.241674000003634
 20
-2.932970000000011
 30
0.0
  0
VERTEX
  5
DCA
330
DC7
100
AcDbEntity
  8
SK1
100
AcDbVertex
100
AcDb2dVertex
 10
-2.251770000003638
 20
-2.927944000000023
 30
0.0
  0
VERTEX
  5
DCB
330
DC7
100
AcDbEntity
  8
SK1
100
AcDbVertex
100
AcDb2dVertex
 10
-2.261868000003636
 20
-2.923587999999995
 30
0.0
  0
VERTEX
  5
DCC
330
DC7
100
AcDbEntity
  8
SK1
100
AcDbVertex
100
AcDb2dVertex
 10
-2.271968000003639
 20
-2.919900999999981
 30
0.0
  0
VERTEX
  5
DCD
330
DC7
100
AcDbEntity
  8
SK1
100
AcDbVertex
100
AcDb2dVertex
 10
-2.282069000003636
 20
-2.916884999999978
 30
0.0
  0
VERTEX
  5
DCE
330
DC7
100
AcDbEntity
  8
SK1
100
AcDbVertex
100
AcDb2dVertex
 10
-2.292171000003634
 20
-2.91453899999999
 30
0.0
  0
VERTEX
  5
DCF
330
DC7
100
AcDbEntity
  8
SK1
100
AcDbVertex
100
AcDb2dVertex
 10
-2.302274000003634
 20
-2.912865000000009
 30
0.0
  0
VERTEX
  5
DD0
330
DC7
100
AcDbEntity
  8
SK1
100
AcDbVertex
100
AcDb2dVertex
 10
-2.312378000003633
 20
-2.911857999999995
 30
0.0
  0
VERTEX
  5
DD1
330
DC7
100
AcDbEntity
  8
SK1
100
AcDbVertex
100
AcDb2dVertex
 10
-2.322482000003638
 20
-2.911523999999984
 30
0.0
  0
SEQEND
  5
DD2
330
DC7
100
AcDbEntity
  8
SK1
  0
POLYLINE
  5
DD3
330
18
100
AcDbEntity
  8
SK1
100
AcDb2dPolyline
 66
     1
 10
0.0
 20
0.0
 30
0.0
  0
VERTEX
  5
DD4
330
DD3
100
AcDbEntity
  8
SK1
100
AcDbVertex
100
AcDb2dVertex
 10
-2.328050000003634
 20
-3.102221999999982
 30
0.0
  0
VERTEX
  5
DD5
330
DD3
100
AcDbEntity
  8
SK1
100
AcDbVertex
100
AcDb2dVertex
 10
-2.333608000003635
 20
-3.100484999999991
 30
0.0
  0
VERTEX
  5
DD6
330
DD3
100
AcDbEntity
  8
SK1
100
AcDbVertex
100
AcDb2dVertex
 10
-2.339167000003634
 20
-3.098950999999998
 30
0.0
  0
VERTEX
  5
DD7
330
DD3
100
AcDbEntity
  8
SK1
100
AcDbVertex
100
AcDb2dVertex
 10
-2.344725000003634
 20
-3.097623999999995
 30
0.0
  0
VERTEX
  5
DD8
330
DD3
100
AcDbEntity
  8
SK1
100
AcDbVertex
100
AcDb2dVertex
 10
-2.350284000003631
 20
-3.096497999999995
 30
0.0
  0
VERTEX
  5
DD9
330
DD3
100
AcDbEntity
  8
SK1
100
AcDbVertex
100
AcDb2dVertex
 10
-2.355844000003634
 20
-3.095578999999986
 30
0.0
  0
VERTEX
  5
DDA
330
DD3
100
AcDbEntity
  8
SK1
100
AcDbVertex
100
AcDb2dVertex
 10
-2.361403000003633
 20
-3.094863999999971
 30
0.0
  0
VERTEX
  5
DDB
330
DD3
100
AcDbEntity
  8
SK1
100
AcDbVertex
100
AcDb2dVertex
 10
-2.366963000003635
 20
-3.094353000000011
 30
0.0
  0
VERTEX
  5
DDC
330
DD3
100
AcDbEntity
  8
SK1
100
AcDbVertex
100
AcDb2dVertex
 10
-2.372523000003639
 20
-3.094045999999991
 30
0.0
  0
VERTEX
  5
DDD
330
DD3
100
AcDbEntity
  8
SK1
100
AcDbVertex
100
AcDb2dVertex
 10
-2.378083000003634
 20
-3.093943000000023
 30
0.0
  0
SEQEND
  5
DDE
330
DD3
100
AcDbEntity
  8
SK1
  0
LINE
  5
DDF
330
18
100
AcDbEntity
  8
SK1
100
AcDbLine
 10
-5.659997000003635
 20
2.122005999999998
 30
0.0
 11
-6.650000000003637
 21
1.863951999999983
 31
0.0
  0
POLYLINE
  5
DE0
330
18
100
AcDbEntity
  8
SK1
100
AcDb2dPolyline
 66
     1
 10
0.0
 20
0.0
 30
0.0
  0
VERTEX
  5
DE1
330
DE0
100
AcDbEntity
  8
SK1
100
AcDbVertex
100
AcDb2dVertex
 10
-1.370000000003634
 20
-3.19779299999999
 30
0.0
  0
VERTEX
  5
DE2
330
DE0
100
AcDbEntity
  8
SK1
100
AcDbVertex
100
AcDb2dVertex
 10
-1.370001000003632
 20
-3.279076999999971
 30
0.0
  0
VERTEX
  5
DE3
330
DE0
100
AcDbEntity
  8
SK1
100
AcDbVertex
100
AcDb2dVertex
 10
-1.370018000003631
 20
-3.281001000000002
 30
0.0
  0
VERTEX
  5
DE4
330
DE0
100
AcDbEntity
  8
SK1
100
AcDbVertex
100
AcDb2dVertex
 10
-1.371018000003637
 20
-3.265768999999976
 30
0.0
  0
VERTEX
  5
DE5
330
DE0
100
AcDbEntity
  8
SK1
100
AcDbVertex
100
AcDb2dVertex
 10
-1.385875000003635
 20
-3.225936999999986
 30
0.0
  0
VERTEX
  5
DE6
330
DE0
100
AcDbEntity
  8
SK1
100
AcDbVertex
100
AcDb2dVertex
 10
-1.441827000003634
 20
-3.184052000000008
 30
0.0
  0
VERTEX
  5
DE7
330
DE0
100
AcDbEntity
  8
SK1
100
AcDbVertex
100
AcDb2dVertex
 10
-1.470000000003635
 20
-3.180001000000004
 30
0.0
  0
SEQEND
  5
DE8
330
DE0
100
AcDbEntity
  8
SK1
  0
POLYLINE
  5
DE9
330
18
100
AcDbEntity
  8
SK1
100
AcDb2dPolyline
 66
     1
 10
0.0
 20
0.0
 30
0.0
  0
VERTEX
  5
DEA
330
DE9
100
AcDbEntity
  8
SK1
100
AcDbVertex
100
AcDb2dVertex
 10
-1.503547000003635
 20
-3.17714699999999
 30
0.0
  0
VERTEX
  5
DEB
330
DE9
100
AcDbEntity
  8
SK1
100
AcDbVertex
100
AcDb2dVertex
 10
-1.580825000003635
 20
-3.096113000000001
 30
0.0
  0
VERTEX
  5
DEC
330
DE9
100
AcDbEntity
  8
SK1
100
AcDbVertex
100
AcDb2dVertex
 10
-1.619714000003631
 20
-3.002584000000013
 30
0.0
  0
SEQEND
  5
DED
330
DE9
100
AcDbEntity
  8
SK1
  0
POLYLINE
  5
DEE
330
18
100
AcDbEntity
  8
SK1
100
AcDb2dPolyline
 66
     1
 10
0.0
 20
0.0
 30
0.0
  0
VERTEX
  5
DEF
330
DEE
100
AcDbEntity
  8
SK1
100
AcDbVertex
100
AcDb2dVertex
 10
-2.243629000003636
 20
3.177120000000001
 30
0.0
  0
VERTEX
  5
DF0
330
DEE
100
AcDbEntity
  8
SK1
100
AcDbVertex
100
AcDb2dVertex
 10
-2.323380000003638
 20
3.091634999999995
 30
0.0
  0
VERTEX
  5
DF1
330
DEE
100
AcDbEntity
  8
SK1
100
AcDbVertex
100
AcDb2dVertex
 10
-2.359734000003633
 20
3.002632000000004
 30
0.0
  0
SEQEND
  5
DF2
330
DEE
100
AcDbEntity
  8
SK1
  0
POLYLINE
  5
DF3
330
18
100
AcDbEntity
  8
SK1
100
AcDb2dPolyline
 66
     1
 10
0.0
 20
0.0
 30
0.0
  0
VERTEX
  5
DF4
330
DF3
100
AcDbEntity
  8
SK1
100
AcDbVertex
100
AcDb2dVertex
 10
-2.983631000003633
 20
-3.177137000000016
 30
0.0
  0
VERTEX
  5
DF5
330
DF3
100
AcDbEntity
  8
SK1
100
AcDbVertex
100
AcDb2dVertex
 10
-3.060893000003638
 20
-3.096050999999988
 30
0.0
  0
VERTEX
  5
DF6
330
DF3
100
AcDbEntity
  8
SK1
100
AcDbVertex
100
AcDb2dVertex
 10
-3.099462000003633
 20
-3.00347099999999
 30
0.0
  0
SEQEND
  5
DF7
330
DF3
100
AcDbEntity
  8
SK1
  0
POLYLINE
  5
DF8
330
18
100
AcDbEntity
  8
SK1
100
AcDb2dPolyline
 66
     1
 10
0.0
 20
0.0
 30
0.0
  0
VERTEX
  5
DF9
330
DF8
100
AcDbEntity
  8
SK1
100
AcDbVertex
100
AcDb2dVertex
 10
-3.723711000003639
 20
3.177135000000021
 30
0.0
  0
VERTEX
  5
DFA
330
DF8
100
AcDbEntity
  8
SK1
100
AcDbVertex
100
AcDb2dVertex
 10
-3.800772000003631
 20
3.096359000000006
 30
0.0
  0
VERTEX
  5
DFB
330
DF8
100
AcDbEntity
  8
SK1
100
AcDbVertex
100
AcDb2dVertex
 10
-3.839755000003633
 20
3.002572999999982
 30
0.0
  0
SEQEND
  5
DFC
330
DF8
100
AcDbEntity
  8
SK1
  0
POLYLINE
  5
DFD
330
18
100
AcDbEntity
  8
SK1
100
AcDb2dPolyline
 66
     1
 10
0.0
 20
0.0
 30
0.0
  0
VERTEX
  5
DFE
330
DFD
100
AcDbEntity
  8
SK1
100
AcDbVertex
100
AcDb2dVertex
 10
-4.463322000003635
 20
-3.177171999999984
 30
0.0
  0
VERTEX
  5
DFF
330
DFD
100
AcDbEntity
  8
SK1
100
AcDbVertex
100
AcDb2dVertex
 10
-4.540727000003633
 20
-3.096255999999982
 30
0.0
  0
VERTEX
  5
E00
330
DFD
100
AcDbEntity
  8
SK1
100
AcDbVertex
100
AcDb2dVertex
 10
-4.579792000003634
 20
-3.002331000000026
 30
0.0
  0
SEQEND
  5
E01
330
DFD
100
AcDbEntity
  8
SK1
  0
POLYLINE
  5
E02
330
18
100
AcDbEntity
  8
SK1
100
AcDb2dPolyline
 66
     1
 10
0.0
 20
0.0
 30
0.0
  0
VERTEX
  5
E03
330
E02
100
AcDbEntity
  8
SK1
100
AcDbVertex
100
AcDb2dVertex
 10
-5.203917000003633
 20
3.177174999999976
 30
0.0
  0
VERTEX
  5
E04
330
E02
100
AcDbEntity
  8
SK1
100
AcDbVertex
100
AcDb2dVertex
 10
-5.280827000003633
 20
3.096288000000015
 30
0.0
  0
VERTEX
  5
E05
330
E02
100
AcDbEntity
  8
SK1
100
AcDbVertex
100
AcDb2dVertex
 10
-5.319463000003636
 20
3.003506000000014
 30
0.0
  0
SEQEND
  5
E06
330
E02
100
AcDbEntity
  8
SK1
  0
POLYLINE
  5
E07
330
18
100
AcDbEntity
  8
SK1
100
AcDb2dPolyline
 66
     1
 10
0.0
 20
0.0
 30
0.0
  0
VERTEX
  5
E08
330
E07
100
AcDbEntity
  8
SK1
100
AcDbVertex
100
AcDb2dVertex
 10
-5.943775000003632
 20
-3.177168999999991
 30
0.0
  0
VERTEX
  5
E09
330
E07
100
AcDbEntity
  8
SK1
100
AcDbVertex
100
AcDb2dVertex
 10
-6.016932000003635
 20
-3.102891999999997
 30
0.0
  0
VERTEX
  5
E0A
330
E07
100
AcDbEntity
  8
SK1
100
AcDbVertex
100
AcDb2dVertex
 10
-6.059692000003637
 20
-3.002726999999993
 30
0.0
  0
SEQEND
  5
E0B
330
E07
100
AcDbEntity
  8
SK1
  0
LINE
  5
E0C
330
18
100
AcDbEntity
  8
SK1
100
AcDbLine
 10
-1.619714000003631
 20
-3.002584000000013
 30
0.0
 11
-1.650218000003633
 21
-2.906119999999986
 31
0.0
  0
LINE
  5
E0D
330
18
100
AcDbEntity
  8
SK1
100
AcDbLine
 10
-2.359734000003633
 20
3.002632000000004
 30
0.0
 11
-2.390219000003631
 21
2.906217000000026
 31
0.0
  0
LINE
  5
E0E
330
18
100
AcDbEntity
  8
SK1
100
AcDbLine
 10
-3.099752000003633
 20
-3.002518000000009
 30
0.0
 11
-3.130237000003639
 21
-2.906115999999996
 31
0.0
  0
LINE
  5
E0F
330
18
100
AcDbEntity
  8
SK1
100
AcDbLine
 10
-3.839671000003633
 20
3.002947000000006
 30
0.0
 11
-3.870147000003633
 21
2.906560000000013
 31
0.0
  0
LINE
  5
E10
330
18
100
AcDbEntity
  8
SK1
100
AcDbLine
 10
-4.579792000003634
 20
-3.002331000000026
 30
0.0
 11
-4.610218000003633
 21
-2.906315000000006
 31
0.0
  0
LINE
  5
E11
330
18
100
AcDbEntity
  8
SK1
100
AcDbLine
 10
-5.319743000003632
 20
3.002650000000016
 30
0.0
 11
-5.350219000003632
 21
2.906272999999998
 31
0.0
  0
LINE
  5
E12
330
18
100
AcDbEntity
  8
SK1
100
AcDbLine
 10
-6.059692000003637
 20
-3.002726999999993
 30
0.0
 11
-6.090142000003638
 21
-2.906474000000002
 31
0.0
  0
LINE
  5
E13
330
18
100
AcDbEntity
  8
SK1
100
AcDbLine
 10
-1.650218000003633
 20
-2.906119999999986
 30
0.0
 11
-1.679051000003639
 21
-2.815148000000021
 31
0.0
  0
LINE
  5
E14
330
18
100
AcDbEntity
  8
SK1
100
AcDbLine
 10
-3.130237000003639
 20
-2.906115999999996
 30
0.0
 11
-3.159034000003636
 21
-2.814867999999988
 31
0.0
  0
LINE
  5
E15
330
18
100
AcDbEntity
  8
SK1
100
AcDbLine
 10
-3.870298000003636
 20
2.905895999999983
 30
0.0
 11
-3.890651000003636
 21
2.841656
 31
0.0
  0
LINE
  5
E16
330
18
100
AcDbEntity
  8
SK1
100
AcDbLine
 10
-4.610218000003633
 20
-2.906315000000006
 30
0.0
 11
-4.639025000003633
 21
-2.815255999999976
 31
0.0
  0
LINE
  5
E17
330
18
100
AcDbEntity
  8
SK1
100
AcDbLine
 10
-5.350148000003634
 20
2.906329000000027
 30
0.0
 11
-5.371900000003633
 21
2.837670000000001
 31
0.0
  0
LINE
  5
E18
330
18
100
AcDbEntity
  8
SK1
100
AcDbLine
 10
-6.090142000003638
 20
-2.906474000000002
 30
0.0
 11
-6.119034000003638
 21
-2.815159999999991
 31
0.0
  0
ARC
  5
E19
330
18
100
AcDbEntity
  8
SK1
100
AcDbCircle
 10
-1.806789000003631
 20
-2.939101999999991
 30
0.0
 40
0.168817
100
AcDbArc
 50
35.81978999999887
 51
91.10440499999986
  0
ARC
  5
E1A
330
18
100
AcDbEntity
  8
SK1
100
AcDbCircle
 10
-2.546714000003639
 20
2.938377999999999
 30
0.0
 40
0.168043
100
AcDbArc
 50
268.7971950000002
 51
325.3186599999992
  0
ARC
  5
E1B
330
18
100
AcDbEntity
  8
SK1
100
AcDbCircle
 10
-3.290081000003638
 20
-2.949866999999983
 30
0.0
 40
0.179745
100
AcDbArc
 50
62.24422100000072
 51
90.03798499999964
  0
ARC
  5
E1C
330
18
100
AcDbEntity
  8
SK1
100
AcDbCircle
 10
-3.278059000003636
 20
-2.928916000000014
 30
0.0
 40
0.155572
100
AcDbArc
 50
35.52671299999932
 51
62.56873099999967
  0
ARC
  5
E1D
330
18
100
AcDbEntity
  8
SK1
100
AcDbCircle
 10
-4.026365000003636
 20
2.937861999999995
 30
0.0
 40
0.167486
100
AcDbArc
 50
268.7032799999999
 51
325.4868100000004
  0
ARC
  5
E1E
330
18
100
AcDbEntity
  8
SK1
100
AcDbCircle
 10
-4.766985000003636
 20
-2.939194999999982
 30
0.0
 40
0.168992
100
AcDbArc
 50
35.78278299999916
 51
91.10750100000007
  0
ARC
  5
E1F
330
18
100
AcDbEntity
  8
SK1
100
AcDbCircle
 10
-5.506370000003633
 20
2.937549999999987
 30
0.0
 40
0.167467
100
AcDbArc
 50
268.6859280000005
 51
325.4222119999999
  0
ARC
  5
E20
330
18
100
AcDbEntity
  8
SK1
100
AcDbCircle
 10
-6.247143000003638
 20
-2.939729999999996
 30
0.0
 40
0.169686
100
AcDbArc
 50
36.86612500000029
 51
91.03810099999995
  0
LINE
  5
E21
330
18
100
AcDbEntity
  8
SK1
100
AcDbLine
 10
-1.810047000003635
 20
-2.770099000000016
 30
0.0
 11
-2.135226000003633
 21
-2.770353
 31
0.0
  0
LINE
  5
E22
330
18
100
AcDbEntity
  8
SK1
100
AcDbLine
 10
-2.550247000003635
 20
2.770109999999987
 30
0.0
 11
-2.875405000003638
 21
2.770351000000004
 31
0.0
  0
LINE
  5
E23
330
18
100
AcDbEntity
  8
SK1
100
AcDbLine
 10
-3.290200000003636
 20
-2.770125000000006
 30
0.0
 11
-3.615360000003633
 21
-2.770331999999995
 31
0.0
  0
LINE
  5
E24
330
18
100
AcDbEntity
  8
SK1
100
AcDbLine
 10
-4.030278000003633
 20
2.77000399999997
 30
0.0
 11
-4.355441000003636
 21
2.77028100000001
 31
0.0
  0
LINE
  5
E25
330
18
100
AcDbEntity
  8
SK1
100
AcDbLine
 10
-4.770198000003637
 20
-2.769947999999998
 30
0.0
 11
-5.095364000003633
 21
-2.770217999999998
 31
0.0
  0
LINE
  5
E26
330
18
100
AcDbEntity
  8
SK1
100
AcDbLine
 10
-5.510274000003632
 20
2.770307999999998
 30
0.0
 11
-5.824457000003632
 21
2.770573000000013
 31
0.0
  0
LINE
  5
E27
330
18
100
AcDbEntity
  8
SK1
100
AcDbLine
 10
-6.250280000003633
 20
-2.770147000000008
 30
0.0
 11
-6.564411000003638
 21
-2.770410000000025
 31
0.0
  0
LINE
  5
E28
330
18
100
AcDbEntity
  8
SK1
100
AcDbLine
 10
-2.135226000003633
 20
-2.770353
 30
0.0
 11
-2.167409000003637
 21
-2.773274000000014
 31
0.0
  0
ARC
  5
E29
330
18
100
AcDbEntity
  8
SK1
100
AcDbCircle
 10
-2.878131000003633
 20
2.940290000000004
 30
0.0
 40
0.169747
100
AcDbArc
 50
216.8020370000001
 51
270.9189640000003
  0
ARC
  5
E2A
330
18
100
AcDbEntity
  8
SK1
100
AcDbCircle
 10
-3.618859000003638
 20
-2.938191000000017
 30
0.0
 40
0.167595
100
AcDbArc
 50
88.80558400000023
 51
145.4081770000007
  0
ARC
  5
E2B
330
18
100
AcDbEntity
  8
SK1
100
AcDbCircle
 10
-4.358088000003633
 20
2.940287000000012
 30
0.0
 40
0.169715
100
AcDbArc
 50
216.83675
 51
270.9316799999999
  0
ARC
  5
E2C
330
18
100
AcDbEntity
  8
SK1
100
AcDbCircle
 10
-5.099052000003637
 20
-2.937962000000026
 30
0.0
 40
0.16742
100
AcDbArc
 50
88.76128899999962
 51
145.5050369999986
  0
LINE
  5
E2D
330
18
100
AcDbEntity
  8
SK1
100
AcDbLine
 10
-3.006030000003633
 20
2.814789000000017
 30
0.0
 11
-3.065104000003636
 21
3.002335000000015
 31
0.0
  0
LINE
  5
E2E
330
18
100
AcDbEntity
  8
SK1
100
AcDbLine
 10
-3.753357000003638
 20
-2.838126999999984
 30
0.0
 11
-3.805126000003638
 21
-3.002544999999996
 31
0.0
  0
LINE
  5
E2F
330
18
100
AcDbEntity
  8
SK1
100
AcDbLine
 10
-4.486148000003638
 20
2.815102000000024
 30
0.0
 11
-4.545225000003632
 21
3.002692000000023
 31
0.0
  0
LINE
  5
E30
330
18
100
AcDbEntity
  8
SK1
100
AcDbLine
 10
-5.233418000003637
 20
-2.838023000000021
 30
0.0
 11
-5.285155000003633
 21
-3.002359000000011
 31
0.0
  0
POLYLINE
  5
E31
330
18
100
AcDbEntity
  8
SK1
100
AcDb2dPolyline
 66
     1
 10
0.0
 20
0.0
 30
0.0
  0
VERTEX
  5
E32
330
E31
100
AcDbEntity
  8
SK1
100
AcDbVertex
100
AcDb2dVertex
 10
-3.065104000003636
 20
3.002335000000015
 30
0.0
  0
VERTEX
  5
E33
330
E31
100
AcDbEntity
  8
SK1
100
AcDbVertex
100
AcDb2dVertex
 10
-3.115704000003638
 20
3.115266000000018
 30
0.0
  0
VERTEX
  5
E34
330
E31
100
AcDbEntity
  8
SK1
100
AcDbVertex
100
AcDb2dVertex
 10
-3.179941000003636
 20
3.176987999999993
 30
0.0
  0
SEQEND
  5
E35
330
E31
100
AcDbEntity
  8
SK1
  0
POLYLINE
  5
E36
330
18
100
AcDbEntity
  8
SK1
100
AcDb2dPolyline
 66
     1
 10
0.0
 20
0.0
 30
0.0
  0
VERTEX
  5
E37
330
E36
100
AcDbEntity
  8
SK1
100
AcDbVertex
100
AcDb2dVertex
 10
-3.805126000003638
 20
-3.002544999999996
 30
0.0
  0
VERTEX
  5
E38
330
E36
100
AcDbEntity
  8
SK1
100
AcDbVertex
100
AcDb2dVertex
 10
-3.855619000003634
 20
-3.115236999999978
 30
0.0
  0
VERTEX
  5
E39
330
E36
100
AcDbEntity
  8
SK1
100
AcDbVertex
100
AcDb2dVertex
 10
-3.919696000003631
 20
-3.176908000000024
 30
0.0
  0
SEQEND
  5
E3A
330
E36
100
AcDbEntity
  8
SK1
  0
POLYLINE
  5
E3B
330
18
100
AcDbEntity
  8
SK1
100
AcDb2dPolyline
 66
     1
 10
0.0
 20
0.0
 30
0.0
  0
VERTEX
  5
E3C
330
E3B
100
AcDbEntity
  8
SK1
100
AcDbVertex
100
AcDb2dVertex
 10
-4.545225000003632
 20
3.002692000000023
 30
0.0
  0
VERTEX
  5
E3D
330
E3B
100
AcDbEntity
  8
SK1
100
AcDbVertex
100
AcDb2dVertex
 10
-4.595893000003633
 20
3.115535000000022
 30
0.0
  0
VERTEX
  5
E3E
330
E3B
100
AcDbEntity
  8
SK1
100
AcDbVertex
100
AcDb2dVertex
 10
-4.659952000003633
 20
3.177033999999991
 30
0.0
  0
SEQEND
  5
E3F
330
E3B
100
AcDbEntity
  8
SK1
  0
POLYLINE
  5
E40
330
18
100
AcDbEntity
  8
SK1
100
AcDb2dPolyline
 66
     1
 10
0.0
 20
0.0
 30
0.0
  0
VERTEX
  5
E41
330
E40
100
AcDbEntity
  8
SK1
100
AcDbVertex
100
AcDb2dVertex
 10
-5.285155000003633
 20
-3.002359000000011
 30
0.0
  0
VERTEX
  5
E42
330
E40
100
AcDbEntity
  8
SK1
100
AcDbVertex
100
AcDb2dVertex
 10
-5.335807000003632
 20
-3.115289000000017
 30
0.0
  0
VERTEX
  5
E43
330
E40
100
AcDbEntity
  8
SK1
100
AcDbVertex
100
AcDb2dVertex
 10
-5.400217000003634
 20
-3.177023000000018
 30
0.0
  0
SEQEND
  5
E44
330
E40
100
AcDbEntity
  8
SK1
  0
LINE
  5
E45
330
18
100
AcDbEntity
  8
SK1
100
AcDbLine
 10
-5.829822000003638
 20
2.769434999999986
 30
0.0
 11
-6.650135000003636
 21
2.549089999999977
 31
0.0
  0
LINE
  5
E46
330
18
100
AcDbEntity
  8
SK1
100
AcDbLine
 10
-6.569727000003638
 20
-2.769453999999995
 30
0.0
 11
-6.650007000003632
 21
-2.748032000000023
 31
0.0
  0
LINE
  5
E52
330
18
100
AcDbEntity
  8
1
100
AcDbLine
 10
9.705401999996368
 20
5.741395000000012
 30
0.0
 11
8.655172999996366
 21
4.693037000000003
 31
0.0
  0
LINE
  5
E53
330
18
100
AcDbEntity
  8
1
100
AcDbLine
 10
8.655172999996366
 20
4.693037000000003
 30
0.0
 11
8.640247999996361
 21
4.678111999999997
 31
0.0
  0
LINE
  5
E54
330
18
100
AcDbEntity
  8
1
100
AcDbLine
 10
9.700519999996371
 20
5.738398000000017
 30
0.0
 11
9.705401999996368
 21
5.741395000000012
 31
0.0
  0
LINE
  5
E55
330
18
100
AcDbEntity
  8
1
100
AcDbLine
 10
8.164857999996371
 20
4.728529999999977
 30
0.0
 11
6.481474999996365
 21
4.728529999999977
 31
0.0
  0
ARC
  5
E56
330
18
100
AcDbEntity
  8
1
100
AcDbCircle
 10
8.062384999996368
 20
4.642585999999994
 30
0.0
 40
0.13325
100
AcDbArc
 50
39.98646200000155
 51
85.46264099999962
  0
LINE
  5
E58
330
18
100
AcDbEntity
  8
1
100
AcDbLine
 10
10.70446799999636
 20
5.741377999999997
 30
0.0
 11
9.705401999996368
 21
5.741395000000012
 31
0.0
  0
LINE
  5
E59
330
18
100
AcDbEntity
  8
1
100
AcDbLine
 10
16.49999999999636
 20
0.0
 30
0.0
 11
16.49590699999636
 21
0.0063880000000154
 31
0.0
  0
ARC
  5
E5A
330
18
100
AcDbEntity
  8
1
100
AcDbCircle
 10
8.42775099999636
 20
4.890684000000021
 30
0.0
 40
0.300601
100
AcDbArc
 50
225.0200619999997
 51
314.9898529999995
  0
LINE
  5
E5B
330
18
100
AcDbEntity
  8
1
100
AcDbLine
 10
8.164857999996371
 20
4.728529999999977
 30
0.0
 11
8.215299999996375
 21
4.678094999999983
 31
0.0
  0
ARC
  5
E5C
330
18
100
AcDbEntity
  8
1
100
AcDbCircle
 10
31.90885599999636
 20
47.81935500000003
 30
0.0
 40
50.033766
100
AcDbArc
 50
239.4556540000017
 51
251.6720839999999
  0
LINE
  5
E5D
330
18
100
AcDbEntity
  8
1
100
AcDbLine
 10
10.70446799999636
 20
5.741377999999997
 30
0.0
 11
16.17546699999637
 21
0.3236210000000028
 31
0.0
  0
LINE
  5
E5E
330
18
100
AcDbEntity
  8
1
100
AcDbLine
 10
7.476859999996363
 20
-4.728529999999977
 30
0.0
 11
7.465092999996372
 21
-4.739572000000008
 31
0.0
  0
LINE
  5
E5F
330
18
100
AcDbEntity
  8
1
100
AcDbLine
 10
7.456290999996368
 20
-4.747338000000012
 30
0.0
 11
7.465092999996372
 21
-4.739572000000008
 31
0.0
  0
ARC
  5
E60
330
18
100
AcDbEntity
  8
1
100
AcDbCircle
 10
6.791179999996372
 20
3.084668000000021
 30
0.0
 40
7.86001
100
AcDbArc
 50
270.3743240000002
 51
274.8540400000002
  0
POLYLINE
  5
E61
330
18
100
AcDbEntity
  8
1
100
AcDb2dPolyline
 66
     1
 10
0.0
 20
0.0
 30
0.0
  0
VERTEX
  5
E62
330
E61
100
AcDbEntity
  8
1
100
AcDbVertex
100
AcDb2dVertex
 10
6.842528999996375
 20
-4.774999999999976
 30
0.0
  0
VERTEX
  5
E63
330
E61
100
AcDbEntity
  8
1
100
AcDbVertex
100
AcDb2dVertex
 10
6.422167999996362
 20
-4.752370999999981
 30
0.0
  0
VERTEX
  5
E64
330
E61
100
AcDbEntity
  8
1
100
AcDbVertex
100
AcDb2dVertex
 10
6.246694999996362
 20
-4.721466000000019
 30
0.0
  0
VERTEX
  5
E65
330
E61
100
AcDbEntity
  8
1
100
AcDbVertex
100
AcDb2dVertex
 10
6.095704999996371
 20
-4.673567999999987
 30
0.0
  0
VERTEX
  5
E66
330
E61
100
AcDbEntity
  8
1
100
AcDbVertex
100
AcDb2dVertex
 10
5.97762299999637
 20
-4.606163999999978
 30
0.0
  0
VERTEX
  5
E67
330
E61
100
AcDbEntity
  8
1
100
AcDbVertex
100
AcDb2dVertex
 10
5.921710999996361
 20
-4.550635999999997
 30
0.0
  0
VERTEX
  5
E68
330
E61
100
AcDbEntity
  8
1
100
AcDbVertex
100
AcDb2dVertex
 10
5.884562999996362
 20
-4.486010000000021
 30
0.0
  0
VERTEX
  5
E69
330
E61
100
AcDbEntity
  8
1
100
AcDbVertex
100
AcDb2dVertex
 10
5.867120999996372
 20
-4.412705000000016
 30
0.0
  0
VERTEX
  5
E6A
330
E61
100
AcDbEntity
  8
1
100
AcDbVertex
100
AcDb2dVertex
 10
5.869500999996361
 20
-4.331416999999986
 30
0.0
  0
VERTEX
  5
E6B
330
E61
100
AcDbEntity
  8
1
100
AcDbVertex
100
AcDb2dVertex
 10
5.919024999996366
 20
-4.173045999999998
 30
0.0
  0
VERTEX
  5
E6C
330
E61
100
AcDbEntity
  8
1
100
AcDbVertex
100
AcDb2dVertex
 10
6.018057999996372
 20
-4.000294999999993
 30
0.0
  0
SEQEND
  5
E6D
330
E61
100
AcDbEntity
  8
1
  0
POLYLINE
  5
E6E
330
18
100
AcDbEntity
  8
1
100
AcDb2dPolyline
 66
     1
 10
0.0
 20
0.0
 30
0.0
  0
VERTEX
  5
E6F
330
E6E
100
AcDbEntity
  8
1
100
AcDbVertex
100
AcDb2dVertex
 10
6.018057999996372
 20
-4.000294999999993
 30
0.0
  0
VERTEX
  5
E70
330
E6E
100
AcDbEntity
  8
1
100
AcDbVertex
100
AcDb2dVertex
 10
5.959298999996361
 20
-3.777814999999975
 30
0.0
  0
VERTEX
  5
E71
330
E6E
100
AcDbEntity
  8
1
100
AcDbVertex
100
AcDb2dVertex
 10
5.963798999996369
 20
-3.531091000000003
 30
0.0
  0
VERTEX
  5
E72
330
E6E
100
AcDbEntity
  8
1
100
AcDbVertex
100
AcDb2dVertex
 10
6.025006999996363
 20
-3.27046899999999
 30
0.0
  0
VERTEX
  5
E73
330
E6E
100
AcDbEntity
  8
1
100
AcDbVertex
100
AcDb2dVertex
 10
6.10538099999637
 20
-3.063937000000009
 30
0.0
  0
SEQEND
  5
E74
330
E6E
100
AcDbEntity
  8
1
  0
ARC
  5
E75
330
18
100
AcDbEntity
  8
1
100
AcDbCircle
 10
6.468218999996366
 20
-3.731399000000009
 30
0.0
 40
0.791296
100
AcDbArc
 50
89.04064900000017
 51
108.3211510000001
  0
POLYLINE
  5
E76
330
18
100
AcDbEntity
  8
1
100
AcDb2dPolyline
 66
     1
 10
0.0
 20
0.0
 30
0.0
  0
VERTEX
  5
E77
330
E76
100
AcDbEntity
  8
1
100
AcDbVertex
100
AcDb2dVertex
 10
6.219643999996362
 20
-2.980705999999996
 30
0.0
  0
VERTEX
  5
E78
330
E76
100
AcDbEntity
  8
1
100
AcDbVertex
100
AcDb2dVertex
 10
6.146638999996368
 20
-3.018030000000009
 30
0.0
  0
VERTEX
  5
E79
330
E76
100
AcDbEntity
  8
1
100
AcDbVertex
100
AcDb2dVertex
 10
6.118670999996367
 20
-3.043258999999976
 30
0.0
  0
VERTEX
  5
E7A
330
E76
100
AcDbEntity
  8
1
100
AcDbVertex
100
AcDb2dVertex
 10
6.10538099999637
 20
-3.063937000000009
 30
0.0
  0
SEQEND
  5
E7B
330
E76
100
AcDbEntity
  8
1
  0
LINE
  5
E7C
330
18
100
AcDbEntity
  8
1
100
AcDbLine
 10
8.164857999996371
 20
-2.939783999999973
 30
0.0
 11
6.481474999996365
 21
-2.939783999999973
 31
0.0
  0
POLYLINE
  5
E7D
330
18
100
AcDbEntity
  8
1
100
AcDb2dPolyline
 66
     1
 10
0.0
 20
0.0
 30
0.0
  0
VERTEX
  5
E7E
330
E7D
100
AcDbEntity
  8
1
100
AcDbVertex
100
AcDb2dVertex
 10
8.164857999996371
 20
-2.939783999999973
 30
0.0
  0
VERTEX
  5
E7F
330
E7D
100
AcDbEntity
  8
1
100
AcDbVertex
100
AcDb2dVertex
 10
7.922396999996365
 20
-1.385226999999985
 30
0.0
  0
VERTEX
  5
E80
330
E7D
100
AcDbEntity
  8
1
100
AcDbVertex
100
AcDb2dVertex
 10
7.820739999996361
 20
-0.6645520000000147
 30
0.0
  0
SEQEND
  5
E81
330
E7D
100
AcDbEntity
  8
1
  0
ARC
  5
E82
330
18
100
AcDbEntity
  8
1
100
AcDbCircle
 10
-10.45043800000364
 20
-0.1262229999999818
 30
0.0
 40
15.384995
100
AcDbArc
 50
352.140950000001
 51
357.9948199999997
  0
POLYLINE
  5
E83
330
18
100
AcDbEntity
  8
1
100
AcDb2dPolyline
 66
     1
 10
0.0
 20
0.0
 30
0.0
  0
VERTEX
  5
E84
330
E83
100
AcDbEntity
  8
1
100
AcDbVertex
100
AcDb2dVertex
 10
4.78977799999636
 20
-2.229876999999986
 30
0.0
  0
VERTEX
  5
E85
330
E83
100
AcDbEntity
  8
1
100
AcDbVertex
100
AcDb2dVertex
 10
4.740613999996354
 20
-2.412327000000003
 30
0.0
  0
VERTEX
  5
E86
330
E83
100
AcDbEntity
  8
1
100
AcDbVertex
100
AcDb2dVertex
 10
4.692744999996363
 20
-2.496968999999977
 30
0.0
  0
VERTEX
  5
E87
330
E83
100
AcDbEntity
  8
1
100
AcDbVertex
100
AcDb2dVertex
 10
4.616220999996356
 20
-2.571896999999978
 30
0.0
  0
VERTEX
  5
E88
330
E83
100
AcDbEntity
  8
1
100
AcDbVertex
100
AcDb2dVertex
 10
4.564369999996357
 20
-2.597248999999976
 30
0.0
  0
VERTEX
  5
E89
330
E83
100
AcDbEntity
  8
1
100
AcDbVertex
100
AcDb2dVertex
 10
4.49999499999636
 20
-2.607800999999994
 30
0.0
  0
SEQEND
  5
E8A
330
E83
100
AcDbEntity
  8
1
  0
LINE
  5
E8B
330
18
100
AcDbEntity
  8
1
100
AcDbLine
 10
4.49999499999636
 20
-2.607800999999994
 30
0.0
 11
2.849994999996368
 21
-2.607800999999994
 31
0.0
  0
LINE
  5
E8C
330
18
100
AcDbEntity
  8
1
100
AcDbLine
 10
1.199994999996363
 20
-2.607712999999989
 30
0.0
 11
2.849994999996368
 21
-2.607712999999989
 31
0.0
  0
POLYLINE
  5
E8D
330
18
100
AcDbEntity
  8
1
100
AcDb2dPolyline
 66
     1
 10
0.0
 20
0.0
 30
0.0
  0
VERTEX
  5
E8E
330
E8D
100
AcDbEntity
  8
1
100
AcDbVertex
100
AcDb2dVertex
 10
1.199994999996363
 20
-2.607712999999989
 30
0.0
  0
VERTEX
  5
E8F
330
E8D
100
AcDbEntity
  8
1
100
AcDbVertex
100
AcDb2dVertex
 10
1.137124999996359
 20
-2.597493999999982
 30
0.0
  0
VERTEX
  5
E90
330
E8D
100
AcDbEntity
  8
1
100
AcDbVertex
100
AcDb2dVertex
 10
1.08225099999636
 20
-2.570628999999996
 30
0.0
  0
VERTEX
  5
E91
330
E8D
100
AcDbEntity
  8
1
100
AcDbVertex
100
AcDb2dVertex
 10
1.017285999996359
 20
-2.509929999999997
 30
0.0
  0
VERTEX
  5
E92
330
E8D
100
AcDbEntity
  8
1
100
AcDbVertex
100
AcDb2dVertex
 10
0.9720069999963667
 20
-2.439074000000004
 30
0.0
  0
VERTEX
  5
E93
330
E8D
100
AcDbEntity
  8
1
100
AcDbVertex
100
AcDb2dVertex
 10
0.9409689999963577
 20
-2.364217999999993
 30
0.0
  0
VERTEX
  5
E94
330
E8D
100
AcDbEntity
  8
1
100
AcDbVertex
100
AcDb2dVertex
 10
0.9102219999963663
 20
-2.229767999999977
 30
0.0
  0
SEQEND
  5
E95
330
E8D
100
AcDbEntity
  8
1
  0
ARC
  5
E96
330
18
100
AcDbEntity
  8
1
100
AcDbCircle
 10
16.15056799999637
 20
-0.1262169999999969
 30
0.0
 40
15.385109
100
AcDbArc
 50
182.0051890000002
 51
187.8586049999989
  0
LINE
  5
E98
330
18
100
AcDbEntity
  8
1
100
AcDbLine
 10
8.215383999996362
 20
-3.98942199999999
 30
0.0
 11
7.465092999996372
 21
-4.739572000000008
 31
0.0
  0
POLYLINE
  5
E99
330
18
100
AcDbEntity
  8
1
100
AcDb2dPolyline
 66
     1
 10
0.0
 20
0.0
 30
0.0
  0
VERTEX
  5
E9A
330
E99
100
AcDbEntity
  8
1
100
AcDbVertex
100
AcDb2dVertex
 10
0.9102219999963663
 20
2.229767999999977
 30
0.0
  0
VERTEX
  5
E9B
330
E99
100
AcDbEntity
  8
1
100
AcDbVertex
100
AcDb2dVertex
 10
0.8159549999963644
 20
1.369988999999975
 30
0.0
  0
VERTEX
  5
E9C
330
E99
100
AcDbEntity
  8
1
100
AcDbVertex
100
AcDb2dVertex
 10
0.7687589999963649
 20
0.4833310000000212
 30
0.0
  0
VERTEX
  5
E9D
330
E99
100
AcDbEntity
  8
1
100
AcDbVertex
100
AcDb2dVertex
 10
0.7630999999963564
 20
0.1833320000000071
 30
0.0
  0
VERTEX
  5
E9E
330
E99
100
AcDbEntity
  8
1
100
AcDbVertex
100
AcDb2dVertex
 10
0.7746089999963603
 20
-0.6645520000000147
 30
0.0
  0
SEQEND
  5
E9F
330
E99
100
AcDbEntity
  8
1
  0
POLYLINE
  5
EA0
330
18
100
AcDbEntity
  8
1
100
AcDb2dPolyline
 66
     1
 10
0.0
 20
0.0
 30
0.0
  0
VERTEX
  5
EA1
330
EA0
100
AcDbEntity
  8
1
100
AcDbVertex
100
AcDb2dVertex
 10
1.199994999996363
 20
2.607712999999989
 30
0.0
  0
VERTEX
  5
EA2
330
EA0
100
AcDbEntity
  8
1
100
AcDbVertex
100
AcDb2dVertex
 10
1.08597699999636
 20
2.572915000000023
 30
0.0
  0
VERTEX
  5
EA3
330
EA0
100
AcDbEntity
  8
1
100
AcDbVertex
100
AcDb2dVertex
 10
1.007122999996369
 20
2.496684000000016
 30
0.0
  0
VERTEX
  5
EA4
330
EA0
100
AcDbEntity
  8
1
100
AcDbVertex
100
AcDb2dVertex
 10
0.9590069999963615
 20
2.411352000000022
 30
0.0
  0
VERTEX
  5
EA5
330
EA0
100
AcDbEntity
  8
1
100
AcDbVertex
100
AcDb2dVertex
 10
0.9102219999963663
 20
2.229767999999977
 30
0.0
  0
SEQEND
  5
EA6
330
EA0
100
AcDbEntity
  8
1
  0
LINE
  5
EA7
330
18
100
AcDbEntity
  8
1
100
AcDbLine
 10
1.199994999996363
 20
2.607712999999989
 30
0.0
 11
2.849994999996368
 21
2.607712999999989
 31
0.0
  0
LINE
  5
EA8
330
18
100
AcDbEntity
  8
1
100
AcDbLine
 10
4.49999499999636
 20
2.607800999999994
 30
0.0
 11
2.849994999996368
 21
2.607800999999994
 31
0.0
  0
POLYLINE
  5
EA9
330
18
100
AcDbEntity
  8
1
100
AcDb2dPolyline
 66
     1
 10
0.0
 20
0.0
 30
0.0
  0
VERTEX
  5
EAA
330
EA9
100
AcDbEntity
  8
1
100
AcDbVertex
100
AcDb2dVertex
 10
4.78977799999636
 20
2.229876999999986
 30
0.0
  0
VERTEX
  5
EAB
330
EA9
100
AcDbEntity
  8
1
100
AcDbVertex
100
AcDb2dVertex
 10
4.739657999996366
 20
2.414508000000011
 30
0.0
  0
VERTEX
  5
EAC
330
EA9
100
AcDbEntity
  8
1
100
AcDbVertex
100
AcDb2dVertex
 10
4.690855999996357
 20
2.499528999999995
 30
0.0
  0
VERTEX
  5
EAD
330
EA9
100
AcDbEntity
  8
1
100
AcDbVertex
100
AcDb2dVertex
 10
4.61411999999636
 20
2.573225999999976
 30
0.0
  0
VERTEX
  5
EAE
330
EA9
100
AcDbEntity
  8
1
100
AcDbVertex
100
AcDb2dVertex
 10
4.49999499999636
 20
2.607800999999994
 30
0.0
  0
SEQEND
  5
EAF
330
EA9
100
AcDbEntity
  8
1
  0
POLYLINE
  5
EB0
330
18
100
AcDbEntity
  8
1
100
AcDb2dPolyline
 66
     1
 10
0.0
 20
0.0
 30
0.0
  0
VERTEX
  5
EB1
330
EB0
100
AcDbEntity
  8
1
100
AcDbVertex
100
AcDb2dVertex
 10
4.78977799999636
 20
2.229876999999986
 30
0.0
  0
VERTEX
  5
EB2
330
EB0
100
AcDbEntity
  8
1
100
AcDbVertex
100
AcDb2dVertex
 10
4.884053999996353
 20
1.370071999999992
 30
0.0
  0
VERTEX
  5
EB3
330
EB0
100
AcDbEntity
  8
1
100
AcDbVertex
100
AcDb2dVertex
 10
4.931254999996355
 20
0.4833780000000161
 30
0.0
  0
VERTEX
  5
EB4
330
EB0
100
AcDbEntity
  8
1
100
AcDbVertex
100
AcDb2dVertex
 10
4.936915999996358
 20
0.1833639999999832
 30
0.0
  0
VERTEX
  5
EB5
330
EB0
100
AcDbEntity
  8
1
100
AcDbVertex
100
AcDb2dVertex
 10
4.925406999996368
 20
-0.6645520000000147
 30
0.0
  0
SEQEND
  5
EB6
330
EB0
100
AcDbEntity
  8
1
  0
POLYLINE
  5
EB7
330
18
100
AcDbEntity
  8
1
100
AcDb2dPolyline
 66
     1
 10
0.0
 20
0.0
 30
0.0
  0
VERTEX
  5
EB8
330
EB7
100
AcDbEntity
  8
1
100
AcDbVertex
100
AcDb2dVertex
 10
7.820739999996361
 20
-0.6645520000000147
 30
0.0
  0
VERTEX
  5
EB9
330
EB7
100
AcDbEntity
  8
1
100
AcDbVertex
100
AcDb2dVertex
 10
7.699758999996361
 20
0.2123109999999997
 30
0.0
  0
VERTEX
  5
EBA
330
EB7
100
AcDbEntity
  8
1
100
AcDbVertex
100
AcDb2dVertex
 10
7.465093999996368
 20
1.866979000000014
 30
0.0
  0
SEQEND
  5
EBB
330
EB7
100
AcDbEntity
  8
1
  0
LINE
  5
EBC
330
18
100
AcDbEntity
  8
1
100
AcDbLine
 10
7.456290999996368
 20
1.929198999999981
 30
0.0
 11
7.465092999996372
 21
1.866979000000014
 31
0.0
  0
POLYLINE
  5
EBD
330
18
100
AcDbEntity
  8
1
100
AcDb2dPolyline
 66
     1
 10
0.0
 20
0.0
 30
0.0
  0
VERTEX
  5
EBE
330
EBD
100
AcDbEntity
  8
1
100
AcDbVertex
100
AcDb2dVertex
 10
7.456290999996368
 20
1.929198999999981
 30
0.0
  0
VERTEX
  5
EBF
330
EBD
100
AcDbEntity
  8
1
100
AcDbVertex
100
AcDb2dVertex
 10
7.133511999996372
 20
2.158257999999988
 30
0.0
  0
VERTEX
  5
EC0
330
EBD
100
AcDbEntity
  8
1
100
AcDbVertex
100
AcDb2dVertex
 10
6.83120999999636
 20
2.396837000000003
 30
0.0
  0
VERTEX
  5
EC1
330
EBD
100
AcDbEntity
  8
1
100
AcDbVertex
100
AcDb2dVertex
 10
6.551979999996375
 20
2.647342999999978
 30
0.0
  0
VERTEX
  5
EC2
330
EBD
100
AcDbEntity
  8
1
100
AcDbVertex
100
AcDb2dVertex
 10
6.309420999996361
 20
2.902820000000018
 30
0.0
  0
VERTEX
  5
EC3
330
EBD
100
AcDbEntity
  8
1
100
AcDbVertex
100
AcDb2dVertex
 10
6.107191999996372
 20
3.166939000000013
 30
0.0
  0
VERTEX
  5
EC4
330
EBD
100
AcDbEntity
  8
1
100
AcDbVertex
100
AcDb2dVertex
 10
5.962796999996371
 20
3.424597000000004
 30
0.0
  0
VERTEX
  5
EC5
330
EBD
100
AcDbEntity
  8
1
100
AcDbVertex
100
AcDb2dVertex
 10
5.881083999996361
 20
3.67687699999999
 30
0.0
  0
VERTEX
  5
EC6
330
EBD
100
AcDbEntity
  8
1
100
AcDbVertex
100
AcDb2dVertex
 10
5.869324999996365
 20
3.904727999999976
 30
0.0
  0
VERTEX
  5
EC7
330
EBD
100
AcDbEntity
  8
1
100
AcDbVertex
100
AcDb2dVertex
 10
5.921823999996361
 20
4.103361000000006
 30
0.0
  0
VERTEX
  5
EC8
330
EBD
100
AcDbEntity
  8
1
100
AcDbVertex
100
AcDb2dVertex
 10
6.01805699999636
 20
4.258176999999988
 30
0.0
  0
SEQEND
  5
EC9
330
EBD
100
AcDbEntity
  8
1
  0
POLYLINE
  5
ECA
330
18
100
AcDbEntity
  8
1
100
AcDb2dPolyline
 66
     1
 10
0.0
 20
0.0
 30
0.0
  0
VERTEX
  5
ECB
330
ECA
100
AcDbEntity
  8
1
100
AcDbVertex
100
AcDb2dVertex
 10
6.01805699999636
 20
4.25817599999999
 30
0.0
  0
VERTEX
  5
ECC
330
ECA
100
AcDbEntity
  8
1
100
AcDbVertex
100
AcDb2dVertex
 10
5.967305999996368
 20
4.383172999999998
 30
0.0
  0
VERTEX
  5
ECD
330
ECA
100
AcDbEntity
  8
1
100
AcDbVertex
100
AcDb2dVertex
 10
5.953985999996361
 20
4.464903999999988
 30
0.0
  0
VERTEX
  5
ECE
330
ECA
100
AcDbEntity
  8
1
100
AcDbVertex
100
AcDb2dVertex
 10
5.985433999996373
 20
4.598687999999981
 30
0.0
  0
VERTEX
  5
ECF
330
ECA
100
AcDbEntity
  8
1
100
AcDbVertex
100
AcDb2dVertex
 10
6.027307999996367
 20
4.650378999999986
 30
0.0
  0
VERTEX
  5
ED0
330
ECA
100
AcDbEntity
  8
1
100
AcDbVertex
100
AcDb2dVertex
 10
6.10538099999637
 20
4.703669999999988
 30
0.0
  0
SEQEND
  5
ED1
330
ECA
100
AcDbEntity
  8
1
  0
POLYLINE
  5
ED2
330
18
100
AcDbEntity
  8
1
100
AcDb2dPolyline
 66
     1
 10
0.0
 20
0.0
 30
0.0
  0
VERTEX
  5
ED3
330
ED2
100
AcDbEntity
  8
1
100
AcDbVertex
100
AcDb2dVertex
 10
6.481474999996365
 20
4.728529999999977
 30
0.0
  0
VERTEX
  5
ED4
330
ED2
100
AcDbEntity
  8
1
100
AcDbVertex
100
AcDb2dVertex
 10
6.180531999996361
 20
4.717667000000004
 30
0.0
  0
VERTEX
  5
ED5
330
ED2
100
AcDbEntity
  8
1
100
AcDbVertex
100
AcDb2dVertex
 10
6.123208999996363
 20
4.709292000000004
 30
0.0
  0
VERTEX
  5
ED6
330
ED2
100
AcDbEntity
  8
1
100
AcDbVertex
100
AcDb2dVertex
 10
6.10538099999637
 20
4.703669999999988
 30
0.0
  0
SEQEND
  5
ED7
330
ED2
100
AcDbEntity
  8
1
  0
LINE
  5
ED9
330
18
100
AcDbEntity
  8
1
100
AcDbLine
 10
16.49844299999636
 20
-0.0023550000000228
 30
0.0
 11
16.49590699999636
 21
-0.0050390000000107
 31
0.0
  0
LINE
  5
EDA
330
18
100
AcDbEntity
  8
1
100
AcDbLine
 10
16.49590699999636
 20
-0.0050390000000107
 30
0.0
 11
16.39716399999636
 21
-0.1094909999999913
 31
0.0
  0
POLYLINE
  5
EDB
330
18
100
AcDbEntity
  8
1
100
AcDb2dPolyline
 66
     1
 10
0.0
 20
0.0
 30
0.0
  0
VERTEX
  5
EDC
330
EDB
100
AcDbEntity
  8
1
100
AcDbVertex
100
AcDb2dVertex
 10
16.39716699999637
 20
-0.1094909999999913
 30
0.0
  0
VERTEX
  5
EDD
330
EDB
100
AcDbEntity
  8
1
100
AcDbVertex
100
AcDb2dVertex
 10
16.37069799999636
 20
-0.120441000000028
 30
0.0
  0
VERTEX
  5
EDE
330
EDB
100
AcDbEntity
  8
1
100
AcDbVertex
100
AcDb2dVertex
 10
16.23117599999637
 20
-0.2175889999999754
 30
0.0
  0
SEQEND
  5
EDF
330
EDB
100
AcDbEntity
  8
1
  0
LINE
  5
EE0
330
18
100
AcDbEntity
  8
1
100
AcDbLine
 10
14.38113499999636
 20
-1.711782000000026
 30
0.0
 11
16.23117599999637
 21
-0.2175889999999754
 31
0.0
  0
LINE
  5
EE1
330
18
100
AcDbEntity
  8
1
100
AcDbLine
 10
10.26675899999637
 20
-4.611370000000021
 30
0.0
 11
14.38094399999636
 21
-1.712008000000025
 31
0.0
  0
LINE
  5
EE2
330
18
100
AcDbEntity
  8
1
100
AcDbLine
 10
16.49844299999636
 20
-0.0023550000000228
 30
0.0
 11
16.49999999999636
 21
0.0
 31
0.0
  0
LINE
  5
EE3
330
18
100
AcDbEntity
  8
1
100
AcDbLine
 10
16.39716399999636
 20
0.1075599999999781
 30
0.0
 11
16.17546699999637
 21
0.3236210000000028
 31
0.0
  0
LINE
  5
EE4
330
18
100
AcDbEntity
  8
1
100
AcDbLine
 10
16.49590699999636
 20
0.0063880000000154
 30
0.0
 11
16.39716399999636
 21
0.1075599999999781
 31
0.0
  0
LINE
  5
EE5
330
18
100
AcDbEntity
  8
1
100
AcDbLine
 10
16.49590699999636
 20
-0.0050390000000107
 30
0.0
 11
16.49152699999637
 21
-0.0066140000000132
 31
0.0
  0
POLYLINE
  5
EE6
330
18
100
AcDbEntity
  8
1
100
AcDb2dPolyline
 66
     1
 10
0.0
 20
0.0
 30
0.0
  0
VERTEX
  5
EE7
330
EE6
100
AcDbEntity
  8
1
100
AcDbVertex
100
AcDb2dVertex
 10
16.39716799999637
 20
0.1075660000000198
 30
0.0
  0
VERTEX
  5
EE8
330
EE6
100
AcDbEntity
  8
1
100
AcDbVertex
100
AcDb2dVertex
 10
16.37584899999636
 20
0.0855440000000272
 30
0.0
  0
VERTEX
  5
EE9
330
EE6
100
AcDbEntity
  8
1
100
AcDbVertex
100
AcDb2dVertex
 10
16.32030199999636
 20
0.0636440000000107
 30
0.0
  0
VERTEX
  5
EEA
330
EE6
100
AcDbEntity
  8
1
100
AcDbVertex
100
AcDb2dVertex
 10
16.23117599999637
 20
0.0686479999999961
 30
0.0
  0
SEQEND
  5
EEB
330
EE6
100
AcDbEntity
  8
1
  0
LINE
  5
EEC
330
18
100
AcDbEntity
  8
1
100
AcDbLine
 10
14.38113499999636
 20
0.5310180000000173
 30
0.0
 11
16.23117599999637
 21
0.0686479999999961
 31
0.0
  0
ARC
  5
EED
330
18
100
AcDbEntity
  8
1
100
AcDbCircle
 10
-104.5118100000036
 20
1698.320885
 30
0.0
 40
1701.947415
100
AcDbArc
 50
273.8669369999998
 51
274.0057679999996
  0
POLYLINE
  5
EEE
330
18
100
AcDbEntity
  8
1
100
AcDb2dPolyline
 66
     1
 10
0.0
 20
0.0
 30
0.0
  0
VERTEX
  5
EEF
330
EEE
100
AcDbEntity
  8
1
100
AcDbVertex
100
AcDb2dVertex
 10
10.26692999999636
 20
0.2478810000000067
 30
0.0
  0
VERTEX
  5
EF0
330
EEE
100
AcDbEntity
  8
1
100
AcDbVertex
100
AcDb2dVertex
 10
10.29404999999637
 20
-0.280918999999983
 30
0.0
  0
VERTEX
  5
EF1
330
EEE
100
AcDbEntity
  8
1
100
AcDbVertex
100
AcDb2dVertex
 10
10.38682499999636
 20
-0.8111700000000039
 30
0.0
  0
VERTEX
  5
EF2
330
EEE
100
AcDbEntity
  8
1
100
AcDbVertex
100
AcDb2dVertex
 10
10.53987799999636
 20
-1.332216000000015
 30
0.0
  0
SEQEND
  5
EF3
330
EEE
100
AcDbEntity
  8
1
  0
ARC
  5
EF4
330
18
100
AcDbEntity
  8
1
100
AcDbCircle
 10
333.3937179999963
 20
-1470.64911
 30
0.0
 40
1504.369232
100
AcDbArc
 50
102.1689499999998
 51
102.3926929999999
  0
LINE
  5
EF5
330
18
100
AcDbEntity
  8
1
100
AcDbLine
 10
16.49152699999637
 20
-0.0066140000000132
 30
0.0
 11
16.28008199999637
 21
-0.0826480000000061
 31
0.0
  0
ARC
  5
EF6
330
18
100
AcDbEntity
  8
1
100
AcDbCircle
 10
31.86909299999638
 20
47.60387800000001
 30
0.0
 40
50.04198399999999
100
AcDbArc
 50
239.0130860000015
 51
250.1513110000001
  0
ARC
  5
EF7
330
18
100
AcDbEntity
  8
1
100
AcDbCircle
 10
31.94387099999636
 20
47.88635299999998
 30
0.0
 40
50.333108
100
AcDbArc
 50
250.1804250000004
 51
251.8096959999994
  0
LINE
  5
EF8
330
18
100
AcDbEntity
  8
1
100
AcDbLine
 10
7.456290999996368
 20
-4.747338000000012
 30
0.0
 11
7.953200999996369
 21
-4.246708000000012
 31
0.0
  0
LINE
  5
EF9
330
18
100
AcDbEntity
  8
1
100
AcDbLine
 10
7.953200999996369
 20
-4.246708000000012
 30
0.0
 11
8.213430999996361
 21
-3.987468999999975
 31
0.0
  0
LINE
  5
EFA
330
18
100
AcDbEntity
  8
1
100
AcDbLine
 10
8.213032999996372
 20
-3.987071000000013
 30
0.0
 11
8.215383999996362
 21
-3.98942199999999
 31
0.0
  0
ARC
  5
EFB
330
18
100
AcDbEntity
  8
1
100
AcDbCircle
 10
27.65108199999636
 20
-65.63552099999999
 30
0.0
 40
65.286383
100
AcDbArc
 50
101.7276839999999
 51
102.5170199999996
  0
ARC
  5
EFC
330
18
100
AcDbEntity
  8
1
100
AcDbCircle
 10
27.10614699999637
 20
-65.13335000000001
 30
0.0
 40
64.668132
100
AcDbArc
 50
106.3405160000002
 51
109.0320799999998
  0
LINE
  5
EFD
330
18
100
AcDbEntity
  8
1
100
AcDbLine
 10
13.36531499999637
 20
-1.930858
 30
0.0
 11
13.50163399999637
 21
-1.900605999999981
 31
0.0
  0
ARC
  5
EFE
330
18
100
AcDbEntity
  8
1
100
AcDbCircle
 10
8.425830999996362
 20
-4.199352999999972
 30
0.0
 40
0.299869
100
AcDbArc
 50
56.2109129999996
 51
135.0679460000005
  0
ARC
  5
EFF
330
18
100
AcDbEntity
  8
1
100
AcDbCircle
 10
8.425497999996366
 20
-4.198550000000011
 30
0.0
 40
0.299292
100
AcDbArc
 50
44.9549619999995
 51
56.07252300000058
  0
LINE
  5
F00
330
18
100
AcDbEntity
  8
1
100
AcDbLine
 10
8.842685999996362
 20
-4.192510000000027
 30
0.0
 11
8.637295999996368
 21
-3.987083999999981
 31
0.0
  0
POLYLINE
  5
F01
330
18
100
AcDbEntity
  8
1
100
AcDb2dPolyline
 66
     1
 10
0.0
 20
0.0
 30
0.0
  0
VERTEX
  5
F02
330
F01
100
AcDbEntity
  8
1
100
AcDbVertex
100
AcDb2dVertex
 10
9.554425999996368
 20
-4.702240000000016
 30
0.0
  0
VERTEX
  5
F03
330
F01
100
AcDbEntity
  8
1
100
AcDbVertex
100
AcDb2dVertex
 10
9.204521999996371
 20
-4.485771999999997
 30
0.0
  0
VERTEX
  5
F04
330
F01
100
AcDbEntity
  8
1
100
AcDbVertex
100
AcDb2dVertex
 10
9.048055999996362
 20
-4.372297000000003
 30
0.0
  0
VERTEX
  5
F05
330
F01
100
AcDbEntity
  8
1
100
AcDbVertex
100
AcDb2dVertex
 10
8.842685999996362
 20
-4.192510000000027
 30
0.0
  0
SEQEND
  5
F06
330
F01
100
AcDbEntity
  8
1
  0
ARC
  5
F07
330
18
100
AcDbEntity
  8
1
100
AcDbCircle
 10
2.826638999996361
 20
50.84567800000002
 30
0.0
 40
55.95388199999999
100
AcDbArc
 50
276.905846
 51
277.6411779999996
  0
LINE
  5
F08
330
18
100
AcDbEntity
  8
1
100
AcDbLine
 10
6.105377999996361
 20
-3.063934000000017
 30
0.0
 11
6.441710999996373
 21
-2.940792999999985
 31
0.0
  0
ARC
  5
F09
330
18
100
AcDbEntity
  8
1
100
AcDbCircle
 10
16.54387799999637
 20
-0.7727469999999812
 30
0.0
 40
0.679657
100
AcDbArc
 50
102.4728069999998
 51
122.805178999999
  0
LINE
  5
F0A
330
18
100
AcDbEntity
  8
1
100
AcDbLine
 10
16.10774099999636
 20
-0.2429159999999797
 30
0.0
 11
16.23117599999637
 21
-0.2175889999999754
 31
0.0
  0
POLYLINE
  5
F0B
330
18
100
AcDbEntity
  8
1
100
AcDb2dPolyline
 66
     1
 10
0.0
 20
0.0
 30
0.0
  0
VERTEX
  5
F0C
330
F0B
100
AcDbEntity
  8
1
100
AcDbVertex
100
AcDb2dVertex
 10
8.640246999996362
 20
-2.908437999999988
 30
0.0
  0
VERTEX
  5
F0D
330
F0B
100
AcDbEntity
  8
1
100
AcDbVertex
100
AcDb2dVertex
 10
8.564161999996372
 20
-2.874163000000009
 30
0.0
  0
VERTEX
  5
F0E
330
F0B
100
AcDbEntity
  8
1
100
AcDbVertex
100
AcDb2dVertex
 10
8.474645999996369
 20
-2.855977999999993
 30
0.0
  0
VERTEX
  5
F0F
330
F0B
100
AcDbEntity
  8
1
100
AcDbVertex
100
AcDb2dVertex
 10
8.290810999996367
 20
-2.874234000000001
 30
0.0
  0
VERTEX
  5
F10
330
F0B
100
AcDbEntity
  8
1
100
AcDbVertex
100
AcDb2dVertex
 10
8.215299999996375
 20
-2.908428000000013
 30
0.0
  0
SEQEND
  5
F11
330
F0B
100
AcDbEntity
  8
1
  0
LINE
  5
F12
330
18
100
AcDbEntity
  8
1
100
AcDbLine
 10
8.164857999996371
 20
-2.939783999999973
 30
0.0
 11
8.215299999996375
 21
-2.908428000000013
 31
0.0
  0
LINE
  5
F13
330
18
100
AcDbEntity
  8
1
100
AcDbLine
 10
10.70446799999636
 20
-3.569482999999991
 30
0.0
 11
16.17546699999637
 21
-0.2011999999999716
 31
0.0
  0
LINE
  5
F14
330
18
100
AcDbEntity
  8
1
100
AcDbLine
 10
10.70446799999636
 20
-3.569482999999991
 30
0.0
 11
9.705401999996368
 21
-3.569482999999991
 31
0.0
  0
LINE
  5
F15
330
18
100
AcDbEntity
  8
1
100
AcDbLine
 10
9.705401999996368
 20
-3.56949400000002
 30
0.0
 11
8.640247999996361
 21
-2.908437999999988
 31
0.0
  0
LINE
  5
F16
330
18
100
AcDbEntity
  8
1
100
AcDbLine
 10
8.215299999996375
 20
-2.908428000000013
 30
0.0
 11
8.215383999996362
 21
1.483097999999984
 31
0.0
  0
LINE
  5
F17
330
18
100
AcDbEntity
  8
1
100
AcDbLine
 10
8.215383999996362
 20
1.483097999999984
 30
0.0
 11
7.465092999996372
 21
1.866979000000014
 31
0.0
  0
LINE
  5
F18
330
18
100
AcDbEntity
  8
1
100
AcDbLine
 10
4.78977799999636
 20
2.229876999999986
 30
0.0
 11
4.78977799999636
 21
-2.229876999999986
 31
0.0
  0
LINE
  5
F19
330
18
100
AcDbEntity
  8
1
100
AcDbLine
 10
4.49999499999636
 20
2.607800999999994
 30
0.0
 11
4.49999499999636
 21
-2.607800999999994
 31
0.0
  0
LINE
  5
F1A
330
18
100
AcDbEntity
  8
1
100
AcDbLine
 10
1.199994999996363
 20
2.607712999999989
 30
0.0
 11
1.199994999996363
 21
-2.607712999999989
 31
0.0
  0
LINE
  5
F1B
330
18
100
AcDbEntity
  8
1
100
AcDbLine
 10
0.9102219999963663
 20
2.229767999999977
 30
0.0
 11
0.9102219999963663
 21
-2.229767999999977
 31
0.0
  0
ARC
  5
F1C
330
18
100
AcDbEntity
  8
1
100
AcDbCircle
 10
8.427491999996361
 20
-4.20283599999999
 30
0.0
 40
0.300956
100
AcDbArc
 50
45.00887899999852
 51
134.8242400000001
  0
ARC
  5
F1D
330
18
100
AcDbEntity
  8
1
100
AcDbCircle
 10
24.67601399999637
 20
-41.05687599999997
 30
0.0
 40
46.30682199999998
100
AcDbArc
 50
110.8247619999996
 51
111.8304659999989
  0
LINE
  5
F1E
330
18
100
AcDbEntity
  8
1
100
AcDbLine
 10
8.212930999996371
 20
1.993473999999991
 30
0.0
 11
8.215383999996362
 21
1.483097999999984
 31
0.0
  0
LINE
  5
F1F
330
18
100
AcDbEntity
  8
1
100
AcDbLine
 10
8.213430999996361
 20
2.224821000000019
 30
0.0
 11
8.212930999996371
 21
1.993473999999991
 31
0.0
  0
ARC
  5
F20
330
18
100
AcDbEntity
  8
1
100
AcDbCircle
 10
31.63592899999637
 20
51.20976699999999
 30
0.0
 40
53.535438
100
AcDbArc
 50
250.200147
 51
251.1973430000002
  0
ARC
  5
F21
330
18
100
AcDbEntity
  8
1
100
AcDbCircle
 10
30.50690999999637
 20
47.96734900000001
 30
0.0
 40
50.101974
100
AcDbArc
 50
240.7394839999997
 51
250.1589020000009
  0
POLYLINE
  5
F22
330
18
100
AcDbEntity
  8
1
100
AcDb2dPolyline
 66
     1
 10
0.0
 20
0.0
 30
0.0
  0
VERTEX
  5
F23
330
F22
100
AcDbEntity
  8
1
100
AcDbVertex
100
AcDb2dVertex
 10
8.213419999996375
 20
2.224799000000018
 30
0.0
  0
VERTEX
  5
F24
330
F22
100
AcDbEntity
  8
1
100
AcDbVertex
100
AcDb2dVertex
 10
8.333018999996369
 20
2.216560000000015
 30
0.0
  0
VERTEX
  5
F25
330
F22
100
AcDbEntity
  8
1
100
AcDbVertex
100
AcDb2dVertex
 10
8.437768999996363
 20
2.151672000000019
 30
0.0
  0
VERTEX
  5
F26
330
F22
100
AcDbEntity
  8
1
100
AcDbVertex
100
AcDb2dVertex
 10
8.528697999996367
 20
2.060807000000011
 30
0.0
  0
VERTEX
  5
F27
330
F22
100
AcDbEntity
  8
1
100
AcDbVertex
100
AcDb2dVertex
 10
8.59254599999636
 20
1.975109999999972
 30
0.0
  0
SEQEND
  5
F28
330
F22
100
AcDbEntity
  8
1
  0
LINE
  5
F29
330
18
100
AcDbEntity
  8
1
100
AcDbLine
 10
8.592544999996361
 20
1.975109999999972
 30
0.0
 11
8.637295999996368
 21
1.899969999999995
 31
0.0
  0
ARC
  5
F2A
330
18
100
AcDbEntity
  8
1
100
AcDbCircle
 10
24.12424399999637
 20
10.19218899999998
 30
0.0
 40
17.567195
100
AcDbArc
 50
208.1660520000002
 51
209.5539230000011
  0
POLYLINE
  5
F2B
330
18
100
AcDbEntity
  8
1
100
AcDb2dPolyline
 66
     1
 10
0.0
 20
0.0
 30
0.0
  0
VERTEX
  5
F2C
330
F2B
100
AcDbEntity
  8
1
100
AcDbVertex
100
AcDb2dVertex
 10
9.554425999996368
 20
0.56806899999998
 30
0.0
  0
VERTEX
  5
F2D
330
F2B
100
AcDbEntity
  8
1
100
AcDbVertex
100
AcDb2dVertex
 10
9.163972999996358
 20
1.040173999999979
 30
0.0
  0
VERTEX
  5
F2E
330
F2B
100
AcDbEntity
  8
1
100
AcDbVertex
100
AcDb2dVertex
 10
8.993165999996362
 20
1.28224399999999
 30
0.0
  0
VERTEX
  5
F2F
330
F2B
100
AcDbEntity
  8
1
100
AcDbVertex
100
AcDb2dVertex
 10
8.842685999996362
 20
1.527303000000016
 30
0.0
  0
SEQEND
  5
F30
330
F2B
100
AcDbEntity
  8
1
  0
ARC
  5
F31
330
18
100
AcDbEntity
  8
1
100
AcDbCircle
 10
17.94157599999637
 20
18.29550699999998
 30
0.0
 40
19.61141
100
AcDbArc
 50
244.680378999999
 51
246.961851
  0
POLYLINE
  5
F32
330
18
100
AcDbEntity
  8
1
100
AcDb2dPolyline
 66
     1
 10
0.0
 20
0.0
 30
0.0
  0
VERTEX
  5
F33
330
F32
100
AcDbEntity
  8
1
100
AcDbVertex
100
AcDb2dVertex
 10
9.705401999996368
 20
-3.569493000000022
 30
0.0
  0
VERTEX
  5
F34
330
F32
100
AcDbEntity
  8
1
100
AcDbVertex
100
AcDb2dVertex
 10
9.697831999996367
 20
-3.369563000000026
 30
0.0
  0
VERTEX
  5
F35
330
F32
100
AcDbEntity
  8
1
100
AcDbVertex
100
AcDb2dVertex
 10
9.554342999996363
 20
0.5678609999999935
 30
0.0
  0
SEQEND
  5
F36
330
F32
100
AcDbEntity
  8
1
  0
ARC
  5
F37
330
18
100
AcDbEntity
  8
1
100
AcDbCircle
 10
15.13051199999637
 20
-3.256029000000011
 30
0.0
 40
4.437196
100
AcDbArc
 50
176.3675030000013
 51
184.0509459999988
  0
ARC
  5
F38
330
18
100
AcDbEntity
  8
1
100
AcDbCircle
 10
15.15538799999636
 20
-1.707253999999976
 30
0.0
 40
4.630395
100
AcDbArc
 50
175.3543570000012
 51
195.8894309999993
  0
LINE
  5
F39
330
18
100
AcDbEntity
  8
1
100
AcDbLine
 10
16.28008199999637
 20
-0.0826480000000061
 30
0.0
 11
10.70216899999637
 21
-2.974898999999993
 31
0.0
  0
LINE
  5
F3A
330
18
100
AcDbEntity
  8
1
100
AcDbLine
 10
8.640247999996361
 20
-2.908438999999986
 30
0.0
 11
8.640247999996361
 21
1.426004999999974
 31
0.0
  0
POLYLINE
  5
F3B
330
18
100
AcDbEntity
  8
1
100
AcDb2dPolyline
 66
     1
 10
0.0
 20
0.0
 30
0.0
  0
VERTEX
  5
F3C
330
F3B
100
AcDbEntity
  8
1
100
AcDbVertex
100
AcDb2dVertex
 10
8.640247999996361
 20
1.426004999999974
 30
0.0
  0
VERTEX
  5
F3D
330
F3B
100
AcDbEntity
  8
1
100
AcDbVertex
100
AcDb2dVertex
 10
8.543642999996365
 20
1.407898999999985
 30
0.0
  0
VERTEX
  5
F3E
330
F3B
100
AcDbEntity
  8
1
100
AcDbVertex
100
AcDb2dVertex
 10
8.432317999996371
 20
1.409476999999981
 30
0.0
  0
VERTEX
  5
F3F
330
F3B
100
AcDbEntity
  8
1
100
AcDbVertex
100
AcDb2dVertex
 10
8.314507999996365
 20
1.434415999999997
 30
0.0
  0
VERTEX
  5
F40
330
F3B
100
AcDbEntity
  8
1
100
AcDbVertex
100
AcDb2dVertex
 10
8.215384999996357
 20
1.483097999999984
 30
0.0
  0
SEQEND
  5
F41
330
F3B
100
AcDbEntity
  8
1
  0
LINE
  5
F42
330
18
100
AcDbEntity
  8
1
100
AcDbLine
 10
8.842638999996367
 20
1.527200999999989
 30
0.0
 11
8.640247999996361
 21
1.426004999999974
 31
0.0
  0
LINE
  5
F43
330
18
100
AcDbEntity
  8
1
100
AcDbLine
 10
8.637277999996371
 20
1.899931999999978
 30
0.0
 11
8.640247999996361
 21
1.426004999999974
 31
0.0
  0
LINE
  5
F44
330
18
100
AcDbEntity
  8
1
100
AcDbLine
 10
9.700519999996371
 20
5.738398000000017
 30
0.0
 11
8.655172999996366
 21
4.693037000000003
 31
0.0
  0
LINE
  5
F45
330
18
100
AcDbEntity
  8
1
100
AcDbLine
 10
8.072892999996369
 20
4.774999999999976
 30
0.0
 11
-0.000000000003638
 21
4.774999999999976
 31
0.0
  0
LINE
  5
F46
330
18
100
AcDbEntity
  8
1
100
AcDbLine
 10
6.842528999996375
 20
-4.774999999999976
 30
0.0
 11
-0.000000000003638
 21
-4.774999999999976
 31
0.0
  0
LINE
  5
F47
330
18
100
AcDbEntity
  8
1
100
AcDbLine
 10
8.215382999996363
 20
-3.990069000000005
 30
0.0
 11
7.476542999996367
 21
-4.728848000000027
 31
0.0
  0
ARC
  5
F48
330
18
100
AcDbEntity
  8
1
100
AcDbCircle
 10
8.427812999996362
 20
-4.202609999999991
 30
0.0
 40
0.300564
100
AcDbArc
 50
45.02131899999989
 51
134.9803650000007
  0
LINE
  5
F50
102
{ACAD_REACTORS
330
F6B
330
11D4
102
}
330
18
100
AcDbEntity
  8
1
100
AcDbLine
 10
-0.000000000003638
 20
4.774999999999976
 30
0.0
 11
-0.000000000003638
 21
-4.774999999999976
 31
0.0
  0
LINE
  5
F52
330
18
100
AcDbEntity
  8
4
100
AcDbLine
 10
-0.573413294313923
 20
-0.0000000000000568
 30
0.0
 11
16.9407293093418
 21
0.0
 31
0.0
  0
DIMENSION
  5
F54
102
{ACAD_XDICTIONARY
360
F61
102
}
102
{ACAD_REACTORS
330
F6B
102
}
330
18
100
AcDbEntity
  8
2
100
AcDbDimension
  2
*D3
 10
16.49999999999636
 20
24.48217050052182
 30
0.0
 11
26.74797962051639
 21
24.48217050052182
 31
0.0
 70
   160
 71
     5
 42
16.49999999999999
  3
STANDARD
100
AcDbAlignedDimension
 13
-0.000000000003638
 23
4.774999999999976
 33
0.0
 14
16.49999999999636
 24
0.0
 34
0.0
100
AcDbRotatedDimension
1001
ACAD
1000
DSTYLE
1002
{
1070
   271
1070
     1
1002
}
  0
LWPOLYLINE
  5
FC0
102
{ACAD_REACTORS
330
FEB
102
}
330
18
100
AcDbEntity
  8
CUT
100
AcDbPolyline
 90
       13
 70
     1
 43
0.0
 10
16.49999999999636
 20
0.0
 10
8.164857999996371
 20
0.0
 10
8.164857999996371
 20
4.774999999999976
 10
8.214944307619532
 20
4.724429133514775
 10
8.252334578525946
 20
4.692267208478084
 42
0.2947704592628046
 10
8.57547835129533
 20
4.674423600348916
 10
8.640764540237825
 20
4.724606700577679
 10
9.705393071905303
 20
5.797809999999969
 10
10.70446799999636
 20
5.797800999999991
 10
16.18626183900946
 20
0.3166944906961362
 42
0.014290587482438
 10
16.26291886244414
 20
0.2399823475889207
 10
16.39696262850072
 20
0.1250609957681377
 10
16.49590699999636
 20
0.006732999999997
  0
LWPOLYLINE
  5
FCD
102
{ACAD_REACTORS
330
11D4
102
}
330
18
100
AcDbEntity
  8
NOCUT
100
AcDbPolyline
 90
        4
 70
     1
 43
0.0
 10
8.164857999996371
 20
4.774999999999976
 10
-0.000000000003638
 20
4.774999999999976
 10
-0.000000000003638
 20
0.0
 10
8.164857999996371
 20
0.0
  0
DIMENSION
  5
FD2
102
{ACAD_XDICTIONARY
360
FE0
102
}
102
{ACAD_REACTORS
330
FEB
102
}
330
18
100
AcDbEntity
  8
2
100
AcDbDimension
  2
*D4
 10
50.49999999999652
 20
-5.797800999053448
 30
0.0
 11
50.49999999999652
 21
17.79947000913563
 31
0.0
 70
   160
  1
%%c<>
 71
     5
 42
11.59560199905343
  3
DIAMETER
100
AcDbAlignedDimension
 13
10.70446799999636
 23
5.797800999999991
 33
0.0
 14
10.70457245703382
 24
-5.797800999053436
 34
0.0
 50
90.0
100
AcDbRotatedDimension
1001
ACAD
1000
DSTYLE
1002
{
1070
    76
1070
     0
1070
   344
1005
0
1070
   343
1005
0
1070
   271
1070
     1
1002
}
  0
DIMENSION
  5
1002
330
18
100
AcDbEntity
  8
2
100
AcDbDimension
  2
*D5
 10
16.48795399064761
 20
0.0120460093465909
 30
0.0
 11
31.05500004335716
 21
-0.0000000001977754
 31
0.0
 70
    34
 71
     5
 42
1.570796326771306
  3
STANDARD
100
AcDb2LineAngularDimension
 13
16.49999999999727
 23
0.0000000000034106
 33
0.0
 14
16.48795399064733
 24
-0.0120460093459656
 34
0.0
 15
16.49999999999727
 25
-0.0000000000030695
 35
0.0
 16
32.91251887670334
 26
-4.397721178910419
 36
0.0
1001
ACAD
1000
DSTYLE
1002
{
1070
   179
1070
     0
1070
   172
1070
     1
1002
}
  0
DIMENSION
  5
11BB
102
{ACAD_XDICTIONARY
360
11C9
102
}
102
{ACAD_REACTORS
330
11D4
102
}
330
18
100
AcDbEntity
  8
SK2
100
AcDbDimension
  2
*D9
 10
-23.65000000000364
 20
-4.774999999999969
 30
0.0
 11
-23.65000000000364
 21
15.25049191848206
 31
0.0
 70
   160
  1
%%c<>
 71
     5
 42
9.549999999999952
  3
STANDARD
100
AcDbAlignedDimension
 13
-0.000000000003638
 23
4.774999999999976
 33
0.0
 14
-0.000000000003638
 24
-4.774999999999976
 34
0.0
 50
90.0
100
AcDbRotatedDimension
  0
LINE
  5
1202
330
18
100
AcDbEntity
  8
INFTOTAL
100
AcDbLine
 10
-42.73099887618015
 20
-7.075136349618164
 30
0.0
 11
-42.73099887618015
 21
54.64554558082858
 31
0.0
  0
LINE
  5
1203
330
18
100
AcDbEntity
  8
INFTOTAL
100
AcDbLine
 10
-42.73099887618015
 20
54.64554558082858
 30
0.0
 11
45.02343442651794
 21
54.64554558082858
 31
0.0
  0
LINE
  5
1204
330
18
100
AcDbEntity
  8
INFTOTAL
100
AcDbLine
 10
61.72446318324317
 20
17.96922252274515
 30
0.0
 11
61.72446318324317
 21
-43.75145940770159
 31
0.0
  0
LINE
  5
1205
330
18
100
AcDbEntity
  8
INFTOTAL
100
AcDbLine
 10
61.72446318324317
 20
-43.75145940770159
 30
0.0
 11
-26.0299701194549
 21
-43.75145940770159
 31
0.0
  0
INSERT
  5
12C0
330
18
100
AcDbEntity
  8
0
100
AcDbBlockReference
 66
     1
  2
Name
 10
1.135182265025548
 20
-30.78505728855885
 30
0.0
  0
ATTRIB
  5
12C1
102
{ACAD_XDICTIONARY
360
12C2
102
}
330
12C0
100
AcDbEntity
  8
SKVIEW63
100
AcDbText
 10
1.225689649433803
 20
-30.73758149208368
 30
0.0
 40
3.5
  1
46N11610T6RA45
 41
0.8
  7
BMG_Text
100
AcDbAttribute
  2
NAME
 70
     0
  0
SEQEND
  5
12C6
330
12C0
100
AcDbEntity
  8
0
  0
INSERT
  5
13D5
330
18
100
AcDbEntity
  8
0
100
AcDbBlockReference
  2
cero_point
 10
-0.000000000003638
 20
-0.0000000000000551
 30
0.0
 41
0.5
 42
0.5
 43
0.5
  0
ENDSEC
  0
SECTION
  2
OBJECTS
  0
DICTIONARY
  5
C
330
0
100
AcDbDictionary
281
     1
  3
ACAD_CIP_PREVIOUS_PRODUCT_INFO
350
128E
  3
ACAD_COLOR
350
387
  3
ACAD_DETAILVIEWSTYLE
350
128B
  3
ACAD_FIELDLIST
350
12B6
  3
ACAD_GROUP
350
D
  3
ACAD_LAYOUT
350
301
  3
ACAD_MATERIAL
350
386
  3
ACAD_MLEADERSTYLE
350
43C
  3
ACAD_MLINESTYLE
350
E
  3
ACAD_PLOTSETTINGS
350
302
  3
ACAD_PLOTSTYLENAME
350
2FF
  3
ACAD_SCALELIST
350
41A
  3
ACAD_SECTIONVIEWSTYLE
350
1289
  3
ACAD_TABLESTYLE
350
388
  3
ACAD_VISUALSTYLE
350
3F2
  3
ACDB_RECOMPOSE_DATA
350
14AC
  3
AcDbVariableDictionary
350
357
  3
AEC_PROPERTY_SET_DEFS
350
5CF
  3
ASE_INDEX_DICTIONARY
350
F80
  3
DWGPROPS
350
14AD
  0
DICTIONARY
  5
451
330
2
100
AcDbDictionary
280
     1
281
     1
  3
ACAD_LAYERFILTERS
360
6C6
  3
ACAD_LAYERSTATES
360
13BB
  3
ACLYDICTIONARY
360
6C5
  0
DICTIONARY
  5
1257
330
F
100
AcDbDictionary
280
     1
281
     1
  3
ADSK_XREC_LAYER_RECONCILED
360
1258
  0
DICTIONARY
  5
1259
330
23
100
AcDbDictionary
280
     1
281
     1
  3
ADSK_XREC_LAYER_RECONCILED
360
125A
  0
DICTIONARY
  5
125B
330
24
100
AcDbDictionary
280
     1
281
     1
  3
ADSK_XREC_LAYER_RECONCILED
360
125C
  0
DICTIONARY
  5
125D
330
25
100
AcDbDictionary
280
     1
281
     1
  3
ADSK_XREC_LAYER_RECONCILED
360
125E
  0
DICTIONARY
  5
125F
330
27
100
AcDbDictionary
280
     1
281
     1
  3
ADSK_XREC_LAYER_RECONCILED
360
1260
  0
DICTIONARY
  5
1261
330
2A
100
AcDbDictionary
280
     1
281
     1
  3
ADSK_XREC_LAYER_RECONCILED
360
1262
  0
DICTIONARY
  5
1263
330
2B
100
AcDbDictionary
280
     1
281
     1
  3
ADSK_XREC_LAYER_RECONCILED
360
1264
  0
DICTIONARY
  5
1267
330
375
100
AcDbDictionary
280
     1
281
     1
  3
ADSK_XREC_LAYER_RECONCILED
360
1268
  0
DICTIONARY
  5
1269
330
376
100
AcDbDictionary
280
     1
281
     1
  3
ADSK_XREC_LAYER_RECONCILED
360
126A
  0
DICTIONARY
  5
126B
330
49B
100
AcDbDictionary
280
     1
281
     1
  3
ADSK_XREC_LAYER_RECONCILED
360
126C
  0
DICTIONARY
  5
12A4
330
12A3
100
AcDbDictionary
280
     1
281
     1
  0
DICTIONARY
  5
E47
330
18
100
AcDbDictionary
280
     1
281
     1
  3
ACAD_SORTENTS
360
E48
  0
DICTIONARY
  5
129B
330
129A
100
AcDbDictionary
280
     1
281
     1
  3
AcDbBlockTableRecordData
360
14EB
  0
DICTIONARY
  5
13C5
330
13C4
100
AcDbDictionary
280
     1
281
     1
  3
AcDbBlockTableRecordData
360
14EF
  0
DICTIONARY
  5
129E
330
129D
100
AcDbDictionary
280
     1
281
     1
  3
ACAD_FIELD
360
129F
  0
DICTIONARY
  5
F61
330
F54
100
AcDbDictionary
280
     1
281
     1
  3
ACAD_DIMASSOC
360
F6B
  0
DICTIONARY
  5
FE0
330
FD2
100
AcDbDictionary
280
     1
281
     1
  3
ACAD_DIMASSOC
360
FEB
  0
DICTIONARY
  5
11C9
330
11BB
100
AcDbDictionary
280
     1
281
     1
  3
ACAD_DIMASSOC
360
11D4
  0
DICTIONARY
  5
12C2
330
12C1
100
AcDbDictionary
280
     1
281
     1
  3
ACAD_FIELD
360
12C3
  0
XRECORD
  5
128E
102
{ACAD_REACTORS
330
C
102
}
330
C
100
AcDbXrecord
280
     1
300
ACDLT
300
2015
300
ACDLT_F_S
  0
DICTIONARY
  5
387
102
{ACAD_REACTORS
330
C
102
}
330
C
100
AcDbDictionary
281
     1
  0
DICTIONARY
  5
128B
102
{ACAD_REACTORS
330
C
102
}
330
C
100
AcDbDictionary
281
     1
  3
Imperial24
350
12AA
  3
Metric50
350
128C
  0
FIELDLIST
  5
12B6
102
{ACAD_REACTORS
330
C
102
}
330
C
100
AcDbIdSet
 90
        8
330
12A0
330
12A1
330
12B1
330
12B2
330
12BC
330
12BD
330
12C4
330
12C5
100
AcDbFieldList
  0
DICTIONARY
  5
D
102
{ACAD_REACTORS
330
C
102
}
330
C
100
AcDbDictionary
281
     1
  0
DICTIONARY
  5
301
102
{ACAD_REACTORS
330
C
102
}
330
C
100
AcDbDictionary
281
     1
  3
Layout1
350
33B
  3
Model
350
303
  0
DICTIONARY
  5
386
102
{ACAD_REACTORS
330
C
102
}
330
C
100
AcDbDictionary
281
     1
  3
ByBlock
350
3F0
  3
ByLayer
350
3EF
  3
Global
350
3F1
  0
DICTIONARY
  5
43C
102
{ACAD_REACTORS
330
C
102
}
330
C
100
AcDbDictionary
281
     1
  3
Standard
350
43D
  0
DICTIONARY
  5
E
102
{ACAD_REACTORS
330
C
102
}
330
C
100
AcDbDictionary
281
     1
  3
STANDARD
350
1B
  0
DICTIONARY
  5
302
102
{ACAD_REACTORS
330
C
102
}
330
C
100
AcDbDictionary
281
     1
  0
ACDBDICTIONARYWDFLT
  5
2FF
102
{ACAD_REACTORS
330
C
102
}
330
C
100
AcDbDictionary
281
     1
  3
Normal
350
300
100
AcDbDictionaryWithDefault
340
300
  0
DICTIONARY
  5
41A
102
{ACAD_REACTORS
330
C
102
}
330
C
100
AcDbDictionary
281
     1
  3
A0
350
41B
  3
A1
350
41C
  3
A2
350
41D
  3
A3
350
41E
  3
A4
350
41F
  3
A5
350
420
  3
A6
350
421
  3
A7
350
422
  3
A8
350
423
  3
A9
350
424
  3
B0
350
425
  3
B1
350
426
  3
B2
350
427
  3
B3
350
428
  3
B4
350
429
  3
B5
350
42A
  3
B6
350
42B
  3
B7
350
42C
  3
B8
350
42D
  3
B9
350
42E
  3
C0
350
42F
  3
C1
350
430
  3
C2
350
431
  3
C3
350
432
  3
C4
350
433
  3
C5
350
434
  3
C6
350
435
  3
C7
350
436
  3
C8
350
437
  3
C9
350
438
  3
D0
350
439
  3
D1
350
43A
  3
D2
350
43B
  0
DICTIONARY
  5
1289
102
{ACAD_REACTORS
330
C
102
}
330
C
100
AcDbDictionary
281
     1
  3
Imperial24
350
12A8
  3
Metric50
350
128A
  0
DICTIONARY
  5
388
102
{ACAD_REACTORS
330
C
102
}
330
C
100
AcDbDictionary
281
     1
  3
Standard
350
389
  0
DICTIONARY
  5
3F2
102
{ACAD_REACTORS
330
C
102
}
330
C
100
AcDbDictionary
281
     1
  3
2dWireframe
350
3F8
  3
3D Hidden
350
3FA
  3
3dWireframe
350
3F9
  3
Basic
350
3F7
  3
Brighten
350
3FE
  3
ColorChange
350
402
  3
Conceptual
350
3FB
  3
Dim
350
3FD
  3
EdgeColorOff
350
1288
  3
Facepattern
350
401
  3
Flat
350
3F3
  3
FlatWithEdges
350
3F4
  3
Gouraud
350
3F5
  3
GouraudWithEdges
350
3F6
  3
Hidden
350
1280
  3
JitterOff
350
1286
  3
Linepattern
350
400
  3
OverhangOff
350
1287
  3
Realistic
350
3FC
  3
Shaded
350
1285
  3
Shaded with edges
350
1284
  3
Shades of Gray
350
1281
  3
Sketchy
350
1282
  3
Thicken
350
3FF
  3
Wireframe
350
127F
  3
X-Ray
350
1283
  0
XRECORD
  5
14AC
102
{ACAD_REACTORS
330
C
102
}
330
C
100
AcDbXrecord
280
     1
 90
        1
330
389
  0
DICTIONARY
  5
357
102
{ACAD_REACTORS
330
C
102
}
330
C
100
AcDbDictionary
281
     1
  3
CANNOSCALE
350
449
  3
CMLEADERSTYLE
350
447
  3
CTABLESTYLE
350
38E
  3
CVIEWDETAILSTYLE
350
13D6
  3
CVIEWSECTIONSTYLE
350
13D7
  3
DIMASSOC
350
359
  3
HIDETEXT
350
358
  3
INDEXCTL
350
126E
  3
LIGHTINGUNITS
350
44A
  3
MSLTSCALE
350
448
  3
SORTENTS
350
126D
  3
XCLIPFRAME
350
13D8
  0
DICTIONARY
  5
5CF
102
{ACAD_REACTORS
330
C
102
}
330
C
100
AcDbDictionary
281
     1
  0
DICTIONARY
  5
F80
102
{ACAD_REACTORS
330
C
102
}
330
C
100
AcDbDictionary
281
     1
  3
ASEBlockHierarchyIndexRecord
350
F81
1001
DCO15
1040
1711950467.426
  0
XRECORD
  5
14AD
102
{ACAD_REACTORS
330
C
102
}
330
C
100
AcDbXrecord
280
     1
  1
DWGPROPS COOKIE
  2

  3

  4

  6

  7

  8
marini
  9

300
=
301
=
302
=
303
=
304
=
305
=
306
=
307
=
308
=
309
=
 40
0.0300382638888889
 41
2455617.385269387
 42
2457369.321291921
  1

 90
        0
  0
DICTIONARY
  5
6C6
102
{ACAD_REACTORS
330
451
102
}
330
451
100
AcDbDictionary
281
     1
  0
DICTIONARY
  5
13BB
102
{ACAD_REACTORS
330
451
102
}
330
451
100
AcDbDictionary
281
     1
  0
DICTIONARY
  5
6C5
102
{ACAD_REACTORS
330
451
102
}
330
451
100
AcDbDictionary
281
     1
1001
ACAD
1000
<All
  0
XRECORD
  5
1258
102
{ACAD_REACTORS
330
1257
102
}
330
1257
100
AcDbXrecord
280
     1
290
     1
  0
XRECORD
  5
125A
102
{ACAD_REACTORS
330
1259
102
}
330
1259
100
AcDbXrecord
280
     1
290
     1
  0
XRECORD
  5
125C
102
{ACAD_REACTORS
330
125B
102
}
330
125B
100
AcDbXrecord
280
     1
290
     1
  0
XRECORD
  5
125E
102
{ACAD_REACTORS
330
125D
102
}
330
125D
100
AcDbXrecord
280
     1
290
     1
  0
XRECORD
  5
1260
102
{ACAD_REACTORS
330
125F
102
}
330
125F
100
AcDbXrecord
280
     1
290
     1
  0
XRECORD
  5
1262
102
{ACAD_REACTORS
330
1261
102
}
330
1261
100
AcDbXrecord
280
     1
290
     1
  0
XRECORD
  5
1264
102
{ACAD_REACTORS
330
1263
102
}
330
1263
100
AcDbXrecord
280
     1
290
     1
  0
XRECORD
  5
1268
102
{ACAD_REACTORS
330
1267
102
}
330
1267
100
AcDbXrecord
280
     1
290
     1
  0
XRECORD
  5
126A
102
{ACAD_REACTORS
330
1269
102
}
330
1269
100
AcDbXrecord
280
     1
290
     1
  0
XRECORD
  5
126C
102
{ACAD_REACTORS
330
126B
102
}
330
126B
100
AcDbXrecord
280
     1
290
     1
  0
SORTENTSTABLE
  5
E48
102
{ACAD_REACTORS
330
E47
102
}
330
E47
100
AcDbSortentsTable
330
18
331
E5E
  5
B6A
331
E5A
  5
B53
331
EEC
  5
BF3
331
E56
  5
B4F
331
EE4
  5
BF0
331
E52
  5
B4B
331
EE0
  5
BEC
331
C6A
  5
E49
331
CE0
  5
E5B
331
D1F
  5
E7D
331
C62
  5
E46
331
BF2
  5
E21
331
BEE
  5
E1D
331
BEA
  5
E19
331
D58
  5
EA9
331
E0D
  5
F00
331
E8D
  5
BB2
331
F1F
  5
CC2
331
F1B
  5
CAE
331
F17
  5
C8D
331
E36
  5
F45
331
F13
  5
C72
331
C99
  5
E50
331
D0B
  5
E75
331
BE6
  5
E15
331
C21
  5
E2A
331
B68
  5
DA9
331
BA3
  5
DE9
331
D87
  5
ED9
331
D48
  5
EA0
331
DFD
  5
EFC
331
E2E
  5
F3B
331
E7D
  5
B98
331
F0B
  5
C6A
331
E2A
  5
F37
331
F07
  5
C49
331
F46
  5
D22
331
FCD
  5
FCF
331
E26
  5
F2A
331
E75
  5
B82
331
F42
  5
D16
331
E22
  5
F20
331
F3A
  5
D0B
331
C8D
  5
E4F
331
C85
  5
E4D
331
CB8
  5
E56
331
BD6
  5
E0F
331
B97
  5
DD3
331
B50
  5
D87
331
BCA
  5
E07
331
D73
  5
EBD
331
DAE
  5
EEC
331
DAA
  5
EE3
331
DE9
  5
EF8
331
E1E
  5
F1C
331
EFF
  5
C3F
331
EFB
  5
C28
331
E1A
  5
F18
331
EBC
  5
BE4
331
EF7
  5
C1F
331
E16
  5
F14
331
E61
  5
B80
331
F32
  5
CF8
331
E12
  5
F0A
331
1203
  5
1205
331
EB0
  5
BD8
331
F2A
  5
CEC
331
C3E
  5
E2F
331
CF7
  5
E5E
331
C71
  5
E4A
331
B4C
  5
D73
331
11BB
  5
11BB
331
D28
  5
E8D
331
D67
  5
EB7
331
D20
  5
E82
331
E5D
  5
B69
331
E59
  5
B52
331
E55
  5
B4E
331
EE3
  5
BEF
331
F22
  5
CD5
331
EA9
  5
BD7
331
CA4
  5
E52
331
BF1
  5
E20
331
BB2
  5
DF8
331
BED
  5
E1C
331
BE9
  5
E18
331
D57
  5
EA8
331
C28
  5
E2C
331
D92
  5
EDB
331
E0C
  5
EFF
331
E8C
  5
BB1
331
F1E
  5
CB8
331
F1A
  5
CA4
331
EDB
  5
BEB
331
F16
  5
C86
331
F12
  5
C71
331
E31
  5
F44
331
E99
  5
BCB
331
D16
  5
E7C
331
CCF
  5
E59
331
D0A
  5
E6E
331
B6F
  5
DAC
331
BE5
  5
E14
331
C20
  5
E29
331
DF8
  5
EFB
331
E2D
  5
F3A
331
E7C
  5
B97
331
E29
  5
F32
331
F0A
  5
C62
331
1002
  5
1002
331
F45
  5
D21
331
E25
  5
F29
331
E21
  5
F1F
331
F52
  5
F54
331
F39
  5
D0A
331
FC0
  5
FD0
331
D02
  5
E61
331
C49
  5
E3B
331
C41
  5
E36
331
C14
  5
E27
331
BD5
  5
E0E
331
D3B
  5
E98
331
B53
  5
D9C
331
C08
  5
E24
331
DAD
  5
EE6
331
DA9
  5
EE2
331
E1D
  5
F1B
331
EFE
  5
C3E
331
EFA
  5
C27
331
E19
  5
F17
331
EB7
  5
BE3
331
EF6
  5
C14
331
E15
  5
F13
331
E60
  5
B79
331
F31
  5
CF7
331
E11
  5
F09
331
1202
  5
1204
331
E46
  5
F50
331
F29
  5
CE0
331
C3D
  5
E2E
331
CB7
  5
E55
331
CF6
  5
E5D
331
C78
  5
E4C
331
CAF
  5
E54
331
B4F
  5
D81
331
B4B
  5
D6D
331
B82
  5
DBB
331
BB9
  5
DFD
331
DE0
  5
EF7
331
D27
  5
E8C
331
D9D
  5
EE1
331
E5C
  5
B68
331
EEE
  5
C08
331
E58
  5
B51
331
EE6
  5
BF2
331
E54
  5
B4D
331
EE2
  5
BEE
331
F21
  5
CCF
331
EA8
  5
BD6
331
CA3
  5
E51
331
BF0
  5
E1F
331
BB1
  5
DF3
331
BEC
  5
E1B
331
E0F
  5
F07
331
BE8
  5
E17
331
F1D
  5
CB7
331
E8B
  5
BB0
331
F19
  5
CA3
331
EDA
  5
BEA
331
E83
  5
BA3
331
F15
  5
C85
331
E30
  5
F43
331
ED2
  5
BE7
331
EA0
  5
BCC
331
F48
  5
D28
331
E98
  5
BCA
331
C58
  5
E45
331
CCE
  5
E58
331
C27
  5
E2B
331
B6A
  5
DAB
331
BE4
  5
E13
331
E07
  5
EFE
331
C1F
  5
E28
331
BD8
  5
E11
331
D81
  5
ED8
331
E2C
  5
F39
331
F09
  5
C58
331
E28
  5
F31
331
ECA
  5
BE6
331
F44
  5
D20
331
E24
  5
F22
331
F01
  5
C41
331
E20
  5
F1E
331
F38
  5
D02
331
CC2
  5
E57
331
C40
  5
E31
331
CF9
  5
E60
331
B5E
  5
D9D
331
C13
  5
E26
331
B99
  5
DE0
331
BCC
  5
E0D
331
DF3
  5
EFA
331
D3A
  5
E97
331
B52
  5
D92
331
DAC
  5
EE5
331
E1C
  5
F1A
331
EFD
  5
C3D
331
EF9
  5
C21
331
E18
  5
F16
331
EF5
  5
C13
331
E14
  5
F12
331
1205
  5
1203
331
E10
  5
F08
331
E45
  5
F48
331
CAE
  5
E53
331
B4E
  5
D80
331
D2E
  5
E96
331
D6D
  5
EBC
331
B46
  5
B46
331
B81
  5
DAF
331
BFB
  5
E23
331
DDF
  5
EF6
331
D22
  5
E8B
331
D9C
  5
EE0
331
E5F
  5
B6F
331
E5B
  5
B5E
331
EED
  5
BFB
331
E96
  5
BB9
331
EE5
  5
BF1
331
E53
  5
B4C
331
EE1
  5
BED
331
F20
  5
CCE
331
BF3
  5
E22
331
B79
  5
DAD
331
BEF
  5
E1E
331
BB0
  5
DEE
331
BEB
  5
E1A
331
DD3
  5
EF5
331
D59
  5
EB0
331
E0E
  5
F01
331
D51
  5
EA7
331
F1C
  5
CAF
331
E3B
  5
F46
331
ED9
  5
BE9
331
F18
  5
C99
331
E82
  5
B99
331
EA7
  5
BD5
331
F14
  5
C78
331
CD5
  5
E5A
331
C57
  5
E40
331
D0C
  5
E76
331
BE7
  5
E16
331
BE3
  5
E12
331
B69
  5
DAA
331
DC7
  5
EF4
331
D88
  5
EDA
331
E02
  5
EFD
331
D41
  5
E99
331
D80
  5
ED2
331
DBB
  5
EEE
331
E2F
  5
F42
331
E2B
  5
F38
331
F47
  5
D27
331
F08
  5
C57
331
E27
  5
F2B
331
E76
  5
B8C
331
E23
  5
F21
331
F43
  5
D1F
331
F54
  5
FCC
331
F50
  5
F52
331
F00
  5
C40
331
F3B
  5
D0C
331
C86
  5
E4E
331
CF8
  5
E5F
331
BD7
  5
E10
331
C12
  5
E25
331
B98
  5
DDF
331
B51
  5
D88
331
BCB
  5
E0C
331
D74
  5
ECA
331
DAF
  5
EED
331
DEE
  5
EF9
331
DAB
  5
EE4
331
E1F
  5
F1D
331
E6E
  5
B81
331
E1B
  5
F19
331
EBD
  5
BE5
331
EFC
  5
C37
331
F37
  5
CF9
331
EF8
  5
C20
331
E17
  5
F15
331
EF4
  5
C12
331
E13
  5
F0B
331
1204
  5
1202
331
F2B
  5
CF6
331
E40
  5
F47
331
C3F
  5
E30
331
C37
  5
E2D
331
C72
  5
E4B
331
CEC
  5
E5C
331
B4D
  5
D74
331
B8C
  5
DC7
331
BC3
  5
E02
331
FD2
  5
FD2
331
B80
  5
DAE
331
D21
  5
E83
  0
DICTIONARY
  5
14EB
102
{ACAD_REACTORS
330
129B
102
}
330
129B
100
AcDbDictionary
280
     1
281
     1
  3
Edit
360
14EC
  0
DICTIONARY
  5
14EF
102
{ACAD_REACTORS
330
13C5
102
}
330
13C5
100
AcDbDictionary
280
     1
281
     1
  3
Edit
360
14F0
  0
DICTIONARY
  5
129F
102
{ACAD_REACTORS
330
129E
102
}
330
129E
100
AcDbDictionary
280
     1
281
     1
  3
TEXT
360
12A0
  0
DIMASSOC
  5
F6B
102
{ACAD_REACTORS
330
F61
102
}
330
F61
100
AcDbDimAssoc
330
F54
 90
        1
 70
     0
 71
     0
  1
AcDbOsnapPointRef
 72
    13
331
F50
 73
     2
 91
        0
 40
0.0
 10
0.0
 20
0.0
 30
2.000000000000000E+50
 75
     0
  0
DIMASSOC
  5
FEB
102
{ACAD_REACTORS
330
FE0
102
}
330
FE0
100
AcDbDimAssoc
330
FD2
 90
        1
 70
     0
 71
     0
  1
AcDbOsnapPointRef
 72
     1
331
FC0
 73
     2
 91
        8
 40
1.0
 10
0.0
 20
0.0
 30
2.000000000000000E+50
 75
     0
  0
DIMASSOC
  5
11D4
102
{ACAD_REACTORS
330
11C9
102
}
330
11C9
100
AcDbDimAssoc
330
11BB
 90
        3
 70
     0
 71
     0
  1
AcDbOsnapPointRef
 72
     1
331
FCD
 73
     2
 91
        1
 40
1.0
 10
0.0
 20
0.0
 30
2.000000000000000E+50
 75
     0
  1
AcDbOsnapPointRef
 72
     1
331
F50
 73
     2
 91
        0
 40
1.0
 10
0.0
 20
0.0
 30
2.000000000000000E+50
 75
     0
  0
DICTIONARY
  5
12C3
102
{ACAD_REACTORS
330
12C2
102
}
330
12C2
100
AcDbDictionary
280
     1
281
     1
  3
TEXT
360
12C4
  0
ACDBDETAILVIEWSTYLE
  5
12AA
102
{ACAD_XDICTIONARY
360
12AB
102
}
102
{ACAD_REACTORS
330
128B
102
}
330
128B
100
AcDbModelDocViewStyle
 70
     0
  3
Imperial24
290
     0
100
AcDbDetailViewStyle
 70
     0
 71
     0
 90
        3
 71
     1
340
10
 40
0.24
340
0
 40
0.24
300

 40
0.36
280
     3
 71
     2
340
14
 90
       25
 71
     3
340
10
 40
0.24
 90
        1
 40
0.75
 90
        1
300
%<\AcVar ViewType \f "%tc1">% %<\AcVar ViewDetailId>%\PVARIA %<\AcVar ViewScale \f "%sn">%
 71
     4
340
14
 90
       25
340
14
 90
       25
280
     0
  0
ACDBDETAILVIEWSTYLE
  5
128C
102
{ACAD_XDICTIONARY
360
14E9
102
}
102
{ACAD_REACTORS
330
128B
102
}
330
128B
100
AcDbModelDocViewStyle
 70
     0
  3
Metric50
290
     0
100
AcDbDetailViewStyle
 70
     0
 71
     0
 90
        3
 71
     1
340
10
 40
5.0
340
0
 40
5.0
300

 40
0.0
280
     1
 71
     2
340
14
 90
       25
 71
     3
340
10
 40
5.0
 90
        0
 40
15.0
 90
        1
300
%<\AcVar ViewDetailId>% (%<\AcVar ViewScale \f "%sn">%)
 71
     4
340
14
 90
       25
340
14
 90
       25
280
     0
  0
LAYOUT
  5
33B
102
{ACAD_XDICTIONARY
360
14B0
102
}
102
{ACAD_REACTORS
330
301
102
}
330
301
100
AcDbPlotSettings
  1

  2
Lexmark Optra PS2
  4

  6

 40
0.0
 41
0.0
 42
0.0
 43
0.0
 44
0.0
 45
0.0
 46
0.0
 47
0.0
 48
0.0
 49
0.0
140
0.0
141
0.0
142
1.0
143
1.0
 70
   688
 72
     0
 73
     0
 74
     5
  7
monochrome.ctb
 75
    16
147
1.0
148
0.0
149
0.0
100
AcDbLayout
  1
Layout1
 70
     1
 71
     1
 10
0.0
 20
0.0
 11
12.0
 21
9.0
 12
0.0
 22
0.0
 32
0.0
 14
0.0
 24
0.0
 34
0.0
 15
0.0
 25
0.0
 35
0.0
146
0.0
 13
0.0
 23
0.0
 33
0.0
 16
1.0
 26
0.0
 36
0.0
 17
0.0
 27
1.0
 37
0.0
 76
     0
330
338
  0
LAYOUT
  5
303
102
{ACAD_XDICTIONARY
360
14AE
102
}
102
{ACAD_REACTORS
330
301
102
}
330
301
100
AcDbPlotSettings
  1

  2
Default Windows System Printer.pc3
  4
A4
  6

 40
6.805083274841307
 41
5.535083293914794
 42
6.974411010742187
 43
7.14373779296875
 44
209.9733276367186
 45
296.9259948730469
 46
67.83299579489725
 47
0.0
 48
0.0
 49
0.0
140
0.0
141
0.0
142
1.0
143
0.3604333568168785
 70
  3764
 72
     1
 73
     1
 74
     1
  7
monochrome.ctb
 75
     0
147
2.774437995504559
148
-82.35087775247029
149
-53.69369632994493
100
AcDbLayout
  1
Model
 70
     1
 71
     0
 10
0.0
 20
0.0
 11
12.0
 21
9.0
 12
0.0
 22
0.0
 32
0.0
 14
0.0
 24
0.0
 34
0.0
 15
0.0
 25
0.0
 35
0.0
146
0.0
 13
0.0
 23
0.0
 33
0.0
 16
1.0
 26
0.0
 36
0.0
 17
0.0
 27
1.0
 37
0.0
 76
     0
330
18
331
3ED
1001
ACAD_PSEXT
1000
Default Windows System Printer.pc3
1000
Lexmark Optra Rx
1000
Lexmark Rx
1000
Erstellt von Lexmark Benutzerdefinierte Installation,Nov 13,2005,10:03
1070
     0
  0
MATERIAL
  5
3F0
102
{ACAD_XDICTIONARY
360
1278
102
}
102
{ACAD_REACTORS
330
386
102
}
330
386
100
AcDbMaterial
  1
ByBlock
 73
     1
 78
     1
172
     1
176
     1
270
     1
274
     1
  0
MATERIAL
  5
3EF
102
{ACAD_XDICTIONARY
360
1276
102
}
102
{ACAD_REACTORS
330
386
102
}
330
386
100
AcDbMaterial
  1
ByLayer
 73
     1
 78
     1
172
     1
176
     1
270
     1
274
     1
  0
MATERIAL
  5
3F1
102
{ACAD_XDICTIONARY
360
127A
102
}
102
{ACAD_REACTORS
330
386
102
}
330
386
100
AcDbMaterial
  1
Global
 73
     1
 78
     1
172
     1
176
     1
270
     1
274
     1
  0
MLEADERSTYLE
  5
43D
102
{ACAD_REACTORS
330
43C
102
}
330
43C
100
AcDbMLeaderStyle
170
     2
171
     1
172
     0
 90
        2
 40
0.0
 41
0.0
173
     1
 91
-1056964608
340
12
 92
       -2
290
     1
 42
2.0
291
     1
 43
0.36
  3
Standard
 44
4.0
300

342
10
174
     1
178
     6
175
     1
176
     0
 93
-1056964608
 45
4.0
292
     0
297
     0
 46
4.0
 94
-1056964608
 47
1.0
 49
1.0
140
1.0
293
     1
141
0.0
294
     1
177
     0
142
1.0
295
     0
296
     0
143
0.125
1001
ACAD_MLEADERVER
1070
     2
  0
MLINESTYLE
  5
1B
102
{ACAD_REACTORS
330
E
102
}
330
E
100
AcDbMlineStyle
  2
STANDARD
 70
     0
  3

 62
     0
 51
90.0
 52
90.0
 71
     2
 49
0.5
 62
   256
  6
BYLAYER
 49
-0.5
 62
   256
  6
BYLAYER
  0
ACDBPLACEHOLDER
  5
300
102
{ACAD_REACTORS
330
2FF
102
}
330
2FF
  0
SCALE
  5
41B
102
{ACAD_REACTORS
330
41A
102
}
330
41A
100
AcDbScale
 70
     0
300
1:1
140
1.0
141
1.0
290
     1
  0
SCALE
  5
41C
102
{ACAD_REACTORS
330
41A
102
}
330
41A
100
AcDbScale
 70
     0
300
1:2
140
1.0
141
2.0
290
     0
  0
SCALE
  5
41D
102
{ACAD_REACTORS
330
41A
102
}
330
41A
100
AcDbScale
 70
     0
300
1:4
140
1.0
141
4.0
290
     0
  0
SCALE
  5
41E
102
{ACAD_REACTORS
330
41A
102
}
330
41A
100
AcDbScale
 70
     0
300
1:5
140
1.0
141
5.0
290
     0
  0
SCALE
  5
41F
102
{ACAD_REACTORS
330
41A
102
}
330
41A
100
AcDbScale
 70
     0
300
1:8
140
1.0
141
8.0
290
     0
  0
SCALE
  5
420
102
{ACAD_REACTORS
330
41A
102
}
330
41A
100
AcDbScale
 70
     0
300
1:10
140
1.0
141
10.0
290
     0
  0
SCALE
  5
421
102
{ACAD_REACTORS
330
41A
102
}
330
41A
100
AcDbScale
 70
     0
300
1:16
140
1.0
141
16.0
290
     0
  0
SCALE
  5
422
102
{ACAD_REACTORS
330
41A
102
}
330
41A
100
AcDbScale
 70
     0
300
1:20
140
1.0
141
20.0
290
     0
  0
SCALE
  5
423
102
{ACAD_REACTORS
330
41A
102
}
330
41A
100
AcDbScale
 70
     0
300
1:30
140
1.0
141
30.0
290
     0
  0
SCALE
  5
424
102
{ACAD_REACTORS
330
41A
102
}
330
41A
100
AcDbScale
 70
     0
300
1:40
140
1.0
141
40.0
290
     0
  0
SCALE
  5
425
102
{ACAD_REACTORS
330
41A
102
}
330
41A
100
AcDbScale
 70
     0
300
1:50
140
1.0
141
50.0
290
     0
  0
SCALE
  5
426
102
{ACAD_REACTORS
330
41A
102
}
330
41A
100
AcDbScale
 70
     0
300
1:100
140
1.0
141
100.0
290
     0
  0
SCALE
  5
427
102
{ACAD_REACTORS
330
41A
102
}
330
41A
100
AcDbScale
 70
     0
300
2:1
140
2.0
141
1.0
290
     0
  0
SCALE
  5
428
102
{ACAD_REACTORS
330
41A
102
}
330
41A
100
AcDbScale
 70
     0
300
4:1
140
4.0
141
1.0
290
     0
  0
SCALE
  5
429
102
{ACAD_REACTORS
330
41A
102
}
330
41A
100
AcDbScale
 70
     0
300
8:1
140
8.0
141
1.0
290
     0
  0
SCALE
  5
42A
102
{ACAD_REACTORS
330
41A
102
}
330
41A
100
AcDbScale
 70
     0
300
10:1
140
10.0
141
1.0
290
     0
  0
SCALE
  5
42B
102
{ACAD_REACTORS
330
41A
102
}
330
41A
100
AcDbScale
 70
     0
300
100:1
140
100.0
141
1.0
290
     0
  0
SCALE
  5
42C
102
{ACAD_REACTORS
330
41A
102
}
330
41A
100
AcDbScale
 70
     0
300
1/128" = 1'-0"
140
0.0078125
141
12.0
290
     0
  0
SCALE
  5
42D
102
{ACAD_REACTORS
330
41A
102
}
330
41A
100
AcDbScale
 70
     0
300
1/64" = 1'-0"
140
0.015625
141
12.0
290
     0
  0
SCALE
  5
42E
102
{ACAD_REACTORS
330
41A
102
}
330
41A
100
AcDbScale
 70
     0
300
1/32" = 1'-0"
140
0.03125
141
12.0
290
     0
  0
SCALE
  5
42F
102
{ACAD_REACTORS
330
41A
102
}
330
41A
100
AcDbScale
 70
     0
300
1/16" = 1'-0"
140
0.0625
141
12.0
290
     0
  0
SCALE
  5
430
102
{ACAD_REACTORS
330
41A
102
}
330
41A
100
AcDbScale
 70
     0
300
3/32" = 1'-0"
140
0.09375
141
12.0
290
     0
  0
SCALE
  5
431
102
{ACAD_REACTORS
330
41A
102
}
330
41A
100
AcDbScale
 70
     0
300
1/8" = 1'-0"
140
0.125
141
12.0
290
     0
  0
SCALE
  5
432
102
{ACAD_REACTORS
330
41A
102
}
330
41A
100
AcDbScale
 70
     0
300
3/16" = 1'-0"
140
0.1875
141
12.0
290
     0
  0
SCALE
  5
433
102
{ACAD_REACTORS
330
41A
102
}
330
41A
100
AcDbScale
 70
     0
300
1/4" = 1'-0"
140
0.25
141
12.0
290
     0
  0
SCALE
  5
434
102
{ACAD_REACTORS
330
41A
102
}
330
41A
100
AcDbScale
 70
     0
300
3/8" = 1'-0"
140
0.375
141
12.0
290
     0
  0
SCALE
  5
435
102
{ACAD_REACTORS
330
41A
102
}
330
41A
100
AcDbScale
 70
     0
300
1/2" = 1'-0"
140
0.5
141
12.0
290
     0
  0
SCALE
  5
436
102
{ACAD_REACTORS
330
41A
102
}
330
41A
100
AcDbScale
 70
     0
300
3/4" = 1'-0"
140
0.75
141
12.0
290
     0
  0
SCALE
  5
437
102
{ACAD_REACTORS
330
41A
102
}
330
41A
100
AcDbScale
 70
     0
300
1" = 1'-0"
140
1.0
141
12.0
290
     0
  0
SCALE
  5
438
102
{ACAD_REACTORS
330
41A
102
}
330
41A
100
AcDbScale
 70
     0
300
1-1/2" = 1'-0"
140
1.5
141
12.0
290
     0
  0
SCALE
  5
439
102
{ACAD_REACTORS
330
41A
102
}
330
41A
100
AcDbScale
 70
     0
300
3" = 1'-0"
140
3.0
141
12.0
290
     0
  0
SCALE
  5
43A
102
{ACAD_REACTORS
330
41A
102
}
330
41A
100
AcDbScale
 70
     0
300
6" = 1'-0"
140
6.0
141
12.0
290
     0
  0
SCALE
  5
43B
102
{ACAD_REACTORS
330
41A
102
}
330
41A
100
AcDbScale
 70
     0
300
1'-0" = 1'-0"
140
12.0
141
12.0
290
     0
  0
ACDBSECTIONVIEWSTYLE
  5
12A8
102
{ACAD_XDICTIONARY
360
12A9
102
}
102
{ACAD_REACTORS
330
1289
102
}
330
1289
100
AcDbModelDocViewStyle
 70
     0
  3
Imperial24
290
     0
100
AcDbSectionViewStyle
 70
     0
 71
     0
 90
       78
 71
     1
340
10
 40
0.24
340
0
340
0
 40
0.24
300
I, O, Q, S, X, Z
 40
0.48
 90
        3
 40
0.18
 90
        1
 71
     2
340
14
 90
       25
340
14
 90
       50
 40
0.24
 40
0.0
 40
0.24
 71
     3
340
10
 40
0.24
 90
        1
 40
0.75
 90
        1
300
%<\AcVar ViewType \f "%tc1">% %<\AcVar ViewSectionStartId>%-%<\AcVar ViewSectionEndId>%\PVARIA %<\AcVar ViewScale \f "%sn">%
 71
     4
300
ANSI31
 40
1.0
 90
        0
290
     0
290
     0
 90
        6
 40
0.0
 40
1.570796326794896
 40
0.2617993877991494
 40
1.308996938995747
 40
-0.2617993877991494
 40
1.832595714594046
  0
ACDBSECTIONVIEWSTYLE
  5
128A
102
{ACAD_XDICTIONARY
360
14E7
102
}
102
{ACAD_REACTORS
330
1289
102
}
330
1289
100
AcDbModelDocViewStyle
 70
     0
  3
Metric50
290
     0
100
AcDbSectionViewStyle
 70
     0
 71
     0
 90
      102
 71
     1
340
10
 40
5.0
340
0
340
0
 40
5.0
300
I, O, Q, S, X, Z
 40
10.0
 90
        0
 40
2.5
 90
        0
 71
     2
340
14
 90
       25
340
14
 90
       50
 40
5.0
 40
2.5
 40
5.0
 71
     3
340
10
 40
5.0
 90
        0
 40
15.0
 90
        1
300
%<\AcVar ViewSectionStartId>%-%<\AcVar ViewSectionEndId>% (%<\AcVar ViewScale \f "%sn">%)
 71
     4
300
ANSI31
 40
1.0
 90
        0
290
     0
290
     0
 90
        6
 40
0.0
 40
1.570796326794896
 40
0.2617993877991494
 40
1.308996938995747
 40
-0.2617993877991494
 40
1.832595714594046
  0
TABLESTYLE
  5
389
102
{ACAD_XDICTIONARY
360
444
102
}
102
{ACAD_REACTORS
330
388
102
}
330
388
100
AcDbTableStyle
  3
Standard
 70
     0
 71
     0
 40
1.5
 41
1.5
280
     0
281
     0
  7
STANDARD
140
4.5
170
     2
 62
     0
 63
     7
283
     0
274
    -2
284
     1
 64
     0
275
    -2
285
     1
 65
     0
276
    -2
286
     1
 66
     0
277
    -2
287
     1
 67
     0
278
    -2
288
     1
 68
     0
279
    -2
289
     1
 69
     0
  7
STANDARD
140
6.0
170
     5
 62
     0
 63
     7
283
     0
274
    -2
284
     1
 64
     0
275
    -2
285
     1
 65
     0
276
    -2
286
     1
 66
     0
277
    -2
287
     1
 67
     0
278
    -2
288
     1
 68
     0
279
    -2
289
     1
 69
     0
  7
STANDARD
140
4.5
170
     5
 62
     0
 63
     7
283
     0
274
    -2
284
     1
 64
     0
275
    -2
285
     1
 65
     0
276
    -2
286
     1
 66
     0
277
    -2
287
     1
 67
     0
278
    -2
288
     1
 68
     0
279
    -2
289
     1
 69
     0
  0
VISUALSTYLE
  5
3F8
102
{ACAD_XDICTIONARY
360
14BD
102
}
102
{ACAD_REACTORS
330
3F2
102
}
330
3F2
100
AcDbVisualStyle
  2

 70
     4
 71
     0
 72
     2
 73
     0
 90
        0
 40
-0.6
 41
-30.0
 62
     5
 63
     7
 74
     1
 91
        4
 64
     7
 65
   257
 75
     1
175
     1
 42
1.0
 92
        0
 66
   257
 43
1.0
 76
     1
 77
     6
 78
     2
 67
     7
 79
     5
170
     0
171
     0
290
     0
174
     0
 93
        1
 44
0.0
173
     0
291
     0
 45
0.0
1001
ACAD
1000
AcDbSavedByObjectVersion
1070
     0
  0
VISUALSTYLE
  5
3FA
102
{ACAD_XDICTIONARY
360
14C1
102
}
102
{ACAD_REACTORS
330
3F2
102
}
330
3F2
100
AcDbVisualStyle
  2

 70
     6
 71
     1
 72
     2
 73
     2
 90
        0
 40
-0.6
 41
-30.0
 62
     5
 63
     7
 74
     2
 91
        2
 64
     7
 65
   257
 75
     2
175
     1
 42
40.0
 92
        0
 66
   257
 43
1.0
 76
     1
 77
     6
 78
     2
 67
     7
 79
     3
170
     0
171
     0
290
     0
174
     0
 93
        1
 44
0.0
173
     0
291
     0
 45
0.0
1001
ACAD
1000
AcDbSavedByObjectVersion
1070
     0
  0
VISUALSTYLE
  5
3F9
102
{ACAD_XDICTIONARY
360
14BF
102
}
102
{ACAD_REACTORS
330
3F2
102
}
330
3F2
100
AcDbVisualStyle
  2

 70
     5
 71
     0
 72
     2
 73
     0
 90
        0
 40
-0.6
 41
-30.0
 62
     5
 63
     7
 74
     1
 91
        4
 64
     7
 65
   257
 75
     1
175
     1
 42
1.0
 92
        0
 66
   257
 43
1.0
 76
     1
 77
     6
 78
     2
 67
     7
 79
     5
170
     0
171
     0
290
     0
174
     0
 93
        1
 44
0.0
173
     0
291
     0
 45
0.0
1001
ACAD
1000
AcDbSavedByObjectVersion
1070
     0
  0
VISUALSTYLE
  5
3F7
102
{ACAD_XDICTIONARY
360
14BB
102
}
102
{ACAD_REACTORS
330
3F2
102
}
330
3F2
100
AcDbVisualStyle
  2

 70
     7
 71
     1
 72
     0
 73
     1
 90
        0
 40
-0.6
 41
-30.0
 62
     5
 63
     7
 74
     0
 91
        4
 64
     7
 65
   257
 75
     1
175
     1
 42
1.0
 92
        8
 66
     7
 43
1.0
 76
     1
 77
     6
 78
     2
 67
     7
 79
     5
170
     0
171
     0
290
     0
174
     0
 93
        1
 44
0.0
173
     0
291
     1
 45
0.0
1001
ACAD
1000
AcDbSavedByObjectVersion
1070
     0
  0
VISUALSTYLE
  5
3FE
102
{ACAD_XDICTIONARY
360
14C9
102
}
102
{ACAD_REACTORS
330
3F2
102
}
330
3F2
100
AcDbVisualStyle
  2

 70
    12
 71
     2
 72
     2
 73
     0
 90
        0
 40
-0.6
 41
-30.0
 62
     5
 63
     7
 74
     1
 91
        4
 64
     7
 65
   257
 75
     1
175
     1
 42
1.0
 92
        8
 66
     7
 43
1.0
 76
     1
 77
     6
 78
     2
 67
     7
 79
     5
170
     0
171
     0
290
     0
174
     0
 93
        1
 44
50.0
173
     0
291
     1
 45
0.0
1001
ACAD
1000
AcDbSavedByObjectVersion
1070
     0
  0
VISUALSTYLE
  5
402
102
{ACAD_XDICTIONARY
360
14D1
102
}
102
{ACAD_REACTORS
330
3F2
102
}
330
3F2
100
AcDbVisualStyle
  2

 70
    16
 71
     2
 72
     2
 73
     3
 90
        0
 40
-0.6
 41
-30.0
 62
     5
 63
     8
 74
     1
 91
        4
 64
     7
 65
   257
 75
     1
175
     1
 42
1.0
 92
        8
 66
     8
 43
1.0
 76
     1
 77
     6
 78
     2
 67
     7
 79
     5
170
     0
171
     0
290
     0
174
     0
 93
        1
 44
0.0
173
     0
291
     1
 45
0.0
1001
ACAD
1000
AcDbSavedByObjectVersion
1070
     0
  0
VISUALSTYLE
  5
3FB
102
{ACAD_XDICTIONARY
360
14C3
102
}
102
{ACAD_REACTORS
330
3F2
102
}
330
3F2
100
AcDbVisualStyle
  2

 70
     9
 71
     3
 72
     2
 73
     0
 90
        0
 40
-0.6
 41
-30.0
 62
     5
 63
     7
 74
     2
 91
        2
 64
     7
 65
   257
 75
     1
175
     1
 42
40.0
 92
        8
 66
     7
 43
1.0
 76
     1
 77
     6
 78
     2
 67
     7
 79
     3
170
     0
171
     0
290
     0
174
     0
 93
        1
 44
0.0
173
     0
291
     0
 45
0.0
1001
ACAD
1000
AcDbSavedByObjectVersion
1070
     0
  0
VISUALSTYLE
  5
3FD
102
{ACAD_XDICTIONARY
360
14C7
102
}
102
{ACAD_REACTORS
330
3F2
102
}
330
3F2
100
AcDbVisualStyle
  2

 70
    11
 71
     2
 72
     2
 73
     0
 90
        0
 40
-0.6
 41
-30.0
 62
     5
 63
     7
 74
     1
 91
        4
 64
     7
 65
   257
 75
     1
175
     1
 42
1.0
 92
        8
 66
     7
 43
1.0
 76
     1
 77
     6
 78
     2
 67
     7
 79
     5
170
     0
171
     0
290
     0
174
     0
 93
        1
 44
-50.0
173
     0
291
     1
 45
0.0
1001
ACAD
1000
AcDbSavedByObjectVersion
1070
     0
  0
VISUALSTYLE
  5
1288
102
{ACAD_XDICTIONARY
360
14E5
102
}
102
{ACAD_REACTORS
330
3F2
102
}
330
3F2
100
AcDbVisualStyle
  2
EdgeColorOff
 70
    22
 71
     2
 72
     2
 73
     0
 90
        0
 40
-0.6
 41
-30.0
 62
     5
 63
     7
 74
     1
 91
        4
 64
     7
 65
   257
 75
     1
175
     1
 42
1.0
 92
        8
 66
     7
 43
1.0
 76
     1
 77
     6
 78
     2
 67
     7
 79
     5
170
     0
171
     0
290
     0
174
     0
 93
        1
 44
0.0
173
     0
291
     1
 45
0.0
1001
ACAD
1000
AcDbSavedByObjectVersion
1070
     0
  0
VISUALSTYLE
  5
401
102
{ACAD_XDICTIONARY
360
14CF
102
}
102
{ACAD_REACTORS
330
3F2
102
}
330
3F2
100
AcDbVisualStyle
  2

 70
    15
 71
     2
 72
     2
 73
     0
 90
        0
 40
-0.6
 41
-30.0
 62
     5
 63
     7
 74
     1
 91
        4
 64
     7
 65
   257
 75
     1
175
     1
 42
1.0
 92
        8
 66
     7
 43
1.0
 76
     1
 77
     6
 78
     2
 67
     7
 79
     5
170
     0
171
     0
290
     0
174
     0
 93
        1
 44
0.0
173
     0
291
     1
 45
0.0
1001
ACAD
1000
AcDbSavedByObjectVersion
1070
     0
  0
VISUALSTYLE
  5
3F3
102
{ACAD_XDICTIONARY
360
14B3
102
}
102
{ACAD_REACTORS
330
3F2
102
}
330
3F2
100
AcDbVisualStyle
  2

 70
     0
 71
     2
 72
     1
 73
     1
 90
        2
 40
-0.6
 41
30.0
 62
     5
 63
     7
 74
     0
 91
        4
 64
     7
 65
   257
 75
     1
175
     1
 42
1.0
 92
        8
 66
     7
 43
1.0
 76
     1
 77
     6
 78
     2
 67
     7
 79
     5
170
     0
171
     0
290
     0
174
     0
 93
       13
 44
0.0
173
     0
291
     1
 45
0.0
1001
ACAD
1000
AcDbSavedByObjectVersion
1070
     0
  0
VISUALSTYLE
  5
3F4
102
{ACAD_XDICTIONARY
360
14B5
102
}
102
{ACAD_REACTORS
330
3F2
102
}
330
3F2
100
AcDbVisualStyle
  2

 70
     1
 71
     2
 72
     1
 73
     1
 90
        2
 40
-0.6
 41
30.0
 62
     5
 63
     7
 74
     1
 91
        4
 64
     7
 65
   257
 75
     1
175
     1
 42
1.0
 92
        0
 66
   257
 43
1.0
 76
     1
 77
     6
 78
     2
 67
     7
 79
     5
170
     0
171
     0
290
     0
174
     0
 93
       13
 44
0.0
173
     0
291
     1
 45
0.0
1001
ACAD
1000
AcDbSavedByObjectVersion
1070
     0
  0
VISUALSTYLE
  5
3F5
102
{ACAD_XDICTIONARY
360
14B7
102
}
102
{ACAD_REACTORS
330
3F2
102
}
330
3F2
100
AcDbVisualStyle
  2

 70
     2
 71
     2
 72
     2
 73
     1
 90
        2
 40
-0.6
 41
30.0
 62
     5
 63
     7
 74
     0
 91
        4
 64
     7
 65
   257
 75
     1
175
     1
 42
1.0
 92
        0
 66
     7
 43
1.0
 76
     1
 77
     6
 78
     2
 67
     7
 79
     5
170
     0
171
     0
290
     0
174
     0
 93
       13
 44
0.0
173
     0
291
     1
 45
0.0
1001
ACAD
1000
AcDbSavedByObjectVersion
1070
     0
  0
VISUALSTYLE
  5
3F6
102
{ACAD_XDICTIONARY
360
14B9
102
}
102
{ACAD_REACTORS
330
3F2
102
}
330
3F2
100
AcDbVisualStyle
  2

 70
     3
 71
     2
 72
     2
 73
     1
 90
        2
 40
-0.6
 41
30.0
 62
     5
 63
     7
 74
     1
 91
        4
 64
     7
 65
   257
 75
     1
175
     1
 42
1.0
 92
        0
 66
   257
 43
1.0
 76
     1
 77
     6
 78
     2
 67
     7
 79
     5
170
     0
171
     0
290
     0
174
     0
 93
       13
 44
0.0
173
     0
291
     1
 45
0.0
1001
ACAD
1000
AcDbSavedByObjectVersion
1070
     0
  0
VISUALSTYLE
  5
1280
102
{ACAD_XDICTIONARY
360
14D5
102
}
102
{ACAD_REACTORS
330
3F2
102
}
330
3F2
100
AcDbVisualStyle
  2
Hidden
 70
     6
 71
     1
 72
     2
 73
     2
 90
        0
 40
-0.6
 41
-30.0
 62
     5
 63
     7
 74
     2
 91
        2
 64
     7
 65
   257
 75
     2
175
     1
 42
40.0
 92
        0
 66
   257
 43
1.0
 76
     1
 77
     6
 78
     2
 67
     7
 79
     3
170
     0
171
     0
290
     0
174
     0
 93
        1
 44
0.0
173
     0
291
     0
 45
0.0
1001
ACAD
1000
AcDbSavedByObjectVersion
1070
     0
  0
VISUALSTYLE
  5
1286
102
{ACAD_XDICTIONARY
360
14E1
102
}
102
{ACAD_REACTORS
330
3F2
102
}
330
3F2
100
AcDbVisualStyle
  2
JitterOff
 70
    20
 71
     2
 72
     2
 73
     0
 90
        0
 40
-0.6
 41
-30.0
 62
     5
 63
     7
 74
     1
 91
        4
 64
     7
 65
   257
 75
     1
175
     1
 42
1.0
 92
       10
 66
     7
 43
1.0
 76
     1
 77
     6
 78
     2
 67
     7
 79
     5
170
     0
171
     0
290
     0
174
     0
 93
        1
 44
0.0
173
     0
291
     1
 45
0.0
1001
ACAD
1000
AcDbSavedByObjectVersion
1070
     0
  0
VISUALSTYLE
  5
400
102
{ACAD_XDICTIONARY
360
14CD
102
}
102
{ACAD_REACTORS
330
3F2
102
}
330
3F2
100
AcDbVisualStyle
  2

 70
    14
 71
     2
 72
     2
 73
     0
 90
        0
 40
-0.6
 41
-30.0
 62
     5
 63
     7
 74
     1
 91
        4
 64
     7
 65
   257
 75
     7
175
     7
 42
1.0
 92
        8
 66
     7
 43
1.0
 76
     1
 77
     6
 78
     2
 67
     7
 79
     5
170
     0
171
     0
290
     0
174
     0
 93
        1
 44
0.0
173
     0
291
     1
 45
0.0
1001
ACAD
1000
AcDbSavedByObjectVersion
1070
     0
  0
VISUALSTYLE
  5
1287
102
{ACAD_XDICTIONARY
360
14E3
102
}
102
{ACAD_REACTORS
330
3F2
102
}
330
3F2
100
AcDbVisualStyle
  2
OverhangOff
 70
    21
 71
     2
 72
     2
 73
     0
 90
        0
 40
-0.6
 41
-30.0
 62
     5
 63
     7
 74
     1
 91
        4
 64
     7
 65
   257
 75
     1
175
     1
 42
1.0
 92
        9
 66
     7
 43
1.0
 76
     1
 77
     6
 78
     2
 67
     7
 79
     5
170
     0
171
     0
290
     0
174
     0
 93
        1
 44
0.0
173
     0
291
     1
 45
0.0
1001
ACAD
1000
AcDbSavedByObjectVersion
1070
     0
  0
VISUALSTYLE
  5
3FC
102
{ACAD_XDICTIONARY
360
14C5
102
}
102
{ACAD_REACTORS
330
3F2
102
}
330
3F2
100
AcDbVisualStyle
  2

 70
     8
 71
     2
 72
     2
 73
     0
 90
        0
 40
-0.6
 41
-30.0
 62
     5
 63
     7
 74
     1
 91
        0
 64
     7
 65
   257
 75
     1
175
     1
 42
1.0
 92
        8
 66
     8
 43
1.0
 76
     1
 77
     6
 78
     2
 67
     7
 79
     5
170
     0
171
     0
290
     0
174
     0
 93
       13
 44
0.0
173
     0
291
     0
 45
0.0
1001
ACAD
1000
AcDbSavedByObjectVersion
1070
     0
  0
VISUALSTYLE
  5
1285
102
{ACAD_XDICTIONARY
360
14DF
102
}
102
{ACAD_REACTORS
330
3F2
102
}
330
3F2
100
AcDbVisualStyle
  2
Shaded
 70
    27
 71
     2
 72
     2
 73
     1
 90
        2
 40
-0.6
 41
30.0
 62
     5
 63
     7
 74
     0
 91
        4
 64
     7
 65
   257
 75
     1
175
     1
 42
1.0
 92
        8
 66
   257
 43
1.0
 76
     1
 77
     6
 78
     2
 67
     8
 79
     3
170
     0
171
     0
290
     0
174
     0
 93
        5
 44
0.0
173
     0
291
     0
 45
0.0
1001
ACAD
1000
AcDbSavedByObjectVersion
1070
     0
  0
VISUALSTYLE
  5
1284
102
{ACAD_XDICTIONARY
360
14DD
102
}
102
{ACAD_REACTORS
330
3F2
102
}
330
3F2
100
AcDbVisualStyle
  2
Shaded with edges
 70
    26
 71
     2
 72
     2
 73
     1
 90
        2
 40
-0.6
 41
30.0
 62
     5
 63
     7
 74
     1
 91
       10
 64
     7
 65
   257
 75
     2
175
     1
 42
1.0
 92
        8
 66
   257
 43
1.0
 76
     1
 77
     6
 78
     2
 67
     7
 79
     3
170
     0
171
     0
290
     0
174
     0
 93
        5
 44
0.0
173
     0
291
     0
 45
0.0
1001
ACAD
1000
AcDbSavedByObjectVersion
1070
     0
  0
VISUALSTYLE
  5
1281
102
{ACAD_XDICTIONARY
360
14D7
102
}
102
{ACAD_REACTORS
330
3F2
102
}
330
3F2
100
AcDbVisualStyle
  2
Shades of Gray
 70
    23
 71
     2
 72
     2
 73
     3
 90
        0
 40
-0.6
 41
-30.0
 62
     5
 63
     7
 74
     2
 91
        2
 64
     7
 65
     7
 75
     1
175
     1
 42
40.0
 92
        8
 66
     7
 43
1.0
 76
     1
 77
     6
 78
     2
 67
     7
 79
     3
170
     0
171
     0
290
     0
174
     0
 93
        1
 44
0.0
173
     0
291
     0
 45
0.0
1001
ACAD
1000
AcDbSavedByObjectVersion
1070
     0
  0
VISUALSTYLE
  5
1282
102
{ACAD_XDICTIONARY
360
14D9
102
}
102
{ACAD_REACTORS
330
3F2
102
}
330
3F2
100
AcDbVisualStyle
  2
Sketchy
 70
    24
 71
     1
 72
     2
 73
     2
 90
        0
 40
-0.6
 41
-30.0
 62
     5
 63
     7
 74
     2
 91
        2
 64
     7
 65
     7
 75
     1
175
     1
 42
40.0
 92
       11
 66
     7
 43
1.0
 76
     1
 77
     6
 78
     2
 67
     7
 79
     6
170
     0
171
     0
290
     0
174
     0
 93
        1
 44
0.0
173
     0
291
     0
 45
0.0
1001
ACAD
1000
AcDbSavedByObjectVersion
1070
     0
  0
VISUALSTYLE
  5
3FF
102
{ACAD_XDICTIONARY
360
14CB
102
}
102
{ACAD_REACTORS
330
3F2
102
}
330
3F2
100
AcDbVisualStyle
  2

 70
    13
 71
     2
 72
     2
 73
     0
 90
        0
 40
-0.6
 41
-30.0
 62
     5
 63
     7
 74
     1
 91
        4
 64
     7
 65
   257
 75
     1
175
     1
 42
1.0
 92
       12
 66
     7
 43
1.0
 76
     1
 77
     6
 78
     2
 67
     7
 79
     5
170
     0
171
     0
290
     0
174
     0
 93
        1
 44
0.0
173
     0
291
     1
 45
0.0
1001
ACAD
1000
AcDbSavedByObjectVersion
1070
     0
  0
VISUALSTYLE
  5
127F
102
{ACAD_XDICTIONARY
360
14D3
102
}
102
{ACAD_REACTORS
330
3F2
102
}
330
3F2
100
AcDbVisualStyle
  2
Wireframe
 70
     5
 71
     0
 72
     2
 73
     0
 90
        0
 40
-0.6
 41
-30.0
 62
     5
 63
     7
 74
     1
 91
        4
 64
     7
 65
   257
 75
     1
175
     1
 42
1.0
 92
        0
 66
   257
 43
1.0
 76
     1
 77
     6
 78
     2
 67
     7
 79
     3
170
     0
171
     0
290
     0
174
     0
 93
        1
 44
0.0
173
     0
291
     0
 45
0.0
1001
ACAD
1000
AcDbSavedByObjectVersion
1070
     0
  0
VISUALSTYLE
  5
1283
102
{ACAD_XDICTIONARY
360
14DB
102
}
102
{ACAD_REACTORS
330
3F2
102
}
330
3F2
100
AcDbVisualStyle
  2
X-Ray
 70
    25
 71
     2
 72
     2
 73
     1
 90
        1
 40
0.5
 41
-30.0
 62
     5
 63
     7
 74
     1
 91
        0
 64
     7
 65
   257
 75
     1
175
     1
 42
1.0
 92
        8
 66
     7
 43
1.0
 76
     1
 77
     6
 78
     2
 67
     7
 79
     3
170
     0
171
     0
290
     0
174
     0
 93
       13
 44
0.0
173
     0
291
     0
 45
0.0
1001
ACAD
1000
AcDbSavedByObjectVersion
1070
     0
  0
DICTIONARYVAR
  5
449
102
{ACAD_REACTORS
330
357
102
}
330
357
100
DictionaryVariables
280
     0
  1
1:1
  0
DICTIONARYVAR
  5
447
102
{ACAD_REACTORS
330
357
102
}
330
357
100
DictionaryVariables
280
     0
  1
STANDARD
  0
DICTIONARYVAR
  5
38E
102
{ACAD_REACTORS
330
357
102
}
330
357
100
DictionaryVariables
280
     0
  1
STANDARD
  0
DICTIONARYVAR
  5
13D6
102
{ACAD_REACTORS
330
357
102
}
330
357
100
DictionaryVariables
280
     0
  1
Metric50
  0
DICTIONARYVAR
  5
13D7
102
{ACAD_REACTORS
330
357
102
}
330
357
100
DictionaryVariables
280
     0
  1
Metric50
  0
DICTIONARYVAR
  5
359
102
{ACAD_REACTORS
330
357
102
}
330
357
100
DictionaryVariables
280
     0
  1
2
  0
DICTIONARYVAR
  5
358
102
{ACAD_REACTORS
330
357
102
}
330
357
100
DictionaryVariables
280
     0
  1
1
  0
DICTIONARYVAR
  5
126E
102
{ACAD_REACTORS
330
357
102
}
330
357
100
DictionaryVariables
280
     0
  1
0
  0
DICTIONARYVAR
  5
44A
102
{ACAD_REACTORS
330
357
102
}
330
357
100
DictionaryVariables
280
     0
  1
0
  0
DICTIONARYVAR
  5
448
102
{ACAD_REACTORS
330
357
102
}
330
357
100
DictionaryVariables
280
     0
  1
0
  0
DICTIONARYVAR
  5
126D
102
{ACAD_REACTORS
330
357
102
}
330
357
100
DictionaryVariables
280
     0
  1
127
  0
DICTIONARYVAR
  5
13D8
102
{ACAD_REACTORS
330
357
102
}
330
357
100
DictionaryVariables
280
     0
  1
2
  0
XRECORD
  5
F81
102
{ACAD_REACTORS
330
F80
102
}
330
F80
100
AcDbXrecord
280
     1
330
116A
330
11B7
  0
XRECORD
  5
14EC
102
{ACAD_REACTORS
330
14EB
102
}
330
14EB
100
AcDbXrecord
280
     1
1070
     0
1070
     1
1070
     1
  0
XRECORD
  5
14F0
102
{ACAD_REACTORS
330
14EF
102
}
330
14EF
100
AcDbXrecord
280
     1
1070
     0
1070
     1
1070
     1
  0
FIELD
  5
12A0
102
{ACAD_REACTORS
330
129F
102
}
330
129F
100
AcDbField
  1
_text
  2
%<\_FldIdx 0>%
 90
        1
360
12A1
 97
        0
  4

 91
       63
 92
        0
 94
        9
 95
        2
 96
        0
300

 93
        2
  6
ACFD_FIELDTEXT_ATTDEF
 90
        1
 91
        1
  6
ACFD_FIELDTEXT_CHECKSUM
 90
        2
140
6282.0
  7
ACFD_FIELD_VALUE
 90
        0
 91
        0
301

 98
        0
  0
FIELD
  5
12C4
102
{ACAD_REACTORS
330
12C3
102
}
330
12C3
100
AcDbField
  1
_text
  2
%<\_FldIdx 0>%
 90
        1
360
12C5
 97
        0
  4

 91
       63
 92
        0
 94
        9
 95
        2
 96
        0
300

 93
        1
  6
ACFD_FIELDTEXT_CHECKSUM
 90
        2
140
6282.0
  7
ACFD_FIELD_VALUE
 90
        0
 91
        0
301

 98
        0
  0
DICTIONARY
  5
12AB
330
12AA
100
AcDbDictionary
280
     1
281
     1
  3
ACAD_XREC_ROUNDTRIP
360
14EE
  0
DICTIONARY
  5
14E9
330
128C
100
AcDbDictionary
280
     1
281
     1
  3
ACAD_XREC_ROUNDTRIP
360
14EA
  0
DICTIONARY
  5
14B0
330
33B
100
AcDbDictionary
280
     1
281
     1
  3
ACAD_XREC_ROUNDTRIP
360
14B1
  0
DICTIONARY
  5
14AE
330
303
100
AcDbDictionary
280
     1
281
     1
  3
ACAD_XREC_ROUNDTRIP
360
14AF
  0
DICTIONARY
  5
1278
330
3F0
100
AcDbDictionary
280
     1
281
     1
  3
ACAD_XREC_ROUNDTRIP
360
1279
  0
DICTIONARY
  5
1276
330
3EF
100
AcDbDictionary
280
     1
281
     1
  3
ACAD_XREC_ROUNDTRIP
360
1277
  0
DICTIONARY
  5
127A
330
3F1
100
AcDbDictionary
280
     1
281
     1
  3
ACAD_XREC_ROUNDTRIP
360
127B
  0
DICTIONARY
  5
12A9
330
12A8
100
AcDbDictionary
280
     1
281
     1
  3
ACAD_XREC_ROUNDTRIP
360
14ED
  0
DICTIONARY
  5
14E7
330
128A
100
AcDbDictionary
280
     1
281
     1
  3
ACAD_XREC_ROUNDTRIP
360
14E8
  0
DICTIONARY
  5
444
330
389
100
AcDbDictionary
280
     1
281
     1
  3
ACAD_ROUNDTRIP_2008_TABLESTYLE_CELLSTYLEMAP
360
14AB
  3
ACAD_XREC_ROUNDTRIP
360
14B2
  0
DICTIONARY
  5
14BD
330
3F8
100
AcDbDictionary
280
     1
281
     1
  3
ACAD_XREC_ROUNDTRIP
360
14BE
  0
DICTIONARY
  5
14C1
330
3FA
100
AcDbDictionary
280
     1
281
     1
  3
ACAD_XREC_ROUNDTRIP
360
14C2
  0
DICTIONARY
  5
14BF
330
3F9
100
AcDbDictionary
280
     1
281
     1
  3
ACAD_XREC_ROUNDTRIP
360
14C0
  0
DICTIONARY
  5
14BB
330
3F7
100
AcDbDictionary
280
     1
281
     1
  3
ACAD_XREC_ROUNDTRIP
360
14BC
  0
DICTIONARY
  5
14C9
330
3FE
100
AcDbDictionary
280
     1
281
     1
  3
ACAD_XREC_ROUNDTRIP
360
14CA
  0
DICTIONARY
  5
14D1
330
402
100
AcDbDictionary
280
     1
281
     1
  3
ACAD_XREC_ROUNDTRIP
360
14D2
  0
DICTIONARY
  5
14C3
330
3FB
100
AcDbDictionary
280
     1
281
     1
  3
ACAD_XREC_ROUNDTRIP
360
14C4
  0
DICTIONARY
  5
14C7
330
3FD
100
AcDbDictionary
280
     1
281
     1
  3
ACAD_XREC_ROUNDTRIP
360
14C8
  0
DICTIONARY
  5
14E5
330
1288
100
AcDbDictionary
280
     1
281
     1
  3
ACAD_XREC_ROUNDTRIP
360
14E6
  0
DICTIONARY
  5
14CF
330
401
100
AcDbDictionary
280
     1
281
     1
  3
ACAD_XREC_ROUNDTRIP
360
14D0
  0
DICTIONARY
  5
14B3
330
3F3
100
AcDbDictionary
280
     1
281
     1
  3
ACAD_XREC_ROUNDTRIP
360
14B4
  0
DICTIONARY
  5
14B5
330
3F4
100
AcDbDictionary
280
     1
281
     1
  3
ACAD_XREC_ROUNDTRIP
360
14B6
  0
DICTIONARY
  5
14B7
330
3F5
100
AcDbDictionary
280
     1
281
     1
  3
ACAD_XREC_ROUNDTRIP
360
14B8
  0
DICTIONARY
  5
14B9
330
3F6
100
AcDbDictionary
280
     1
281
     1
  3
ACAD_XREC_ROUNDTRIP
360
14BA
  0
DICTIONARY
  5
14D5
330
1280
100
AcDbDictionary
280
     1
281
     1
  3
ACAD_XREC_ROUNDTRIP
360
14D6
  0
DICTIONARY
  5
14E1
330
1286
100
AcDbDictionary
280
     1
281
     1
  3
ACAD_XREC_ROUNDTRIP
360
14E2
  0
DICTIONARY
  5
14CD
330
400
100
AcDbDictionary
280
     1
281
     1
  3
ACAD_XREC_ROUNDTRIP
360
14CE
  0
DICTIONARY
  5
14E3
330
1287
100
AcDbDictionary
280
     1
281
     1
  3
ACAD_XREC_ROUNDTRIP
360
14E4
  0
DICTIONARY
  5
14C5
330
3FC
100
AcDbDictionary
280
     1
281
     1
  3
ACAD_XREC_ROUNDTRIP
360
14C6
  0
DICTIONARY
  5
14DF
330
1285
100
AcDbDictionary
280
     1
281
     1
  3
ACAD_XREC_ROUNDTRIP
360
14E0
  0
DICTIONARY
  5
14DD
330
1284
100
AcDbDictionary
280
     1
281
     1
  3
ACAD_XREC_ROUNDTRIP
360
14DE
  0
DICTIONARY
  5
14D7
330
1281
100
AcDbDictionary
280
     1
281
     1
  3
ACAD_XREC_ROUNDTRIP
360
14D8
  0
DICTIONARY
  5
14D9
330
1282
100
AcDbDictionary
280
     1
281
     1
  3
ACAD_XREC_ROUNDTRIP
360
14DA
  0
DICTIONARY
  5
14CB
330
3FF
100
AcDbDictionary
280
     1
281
     1
  3
ACAD_XREC_ROUNDTRIP
360
14CC
  0
DICTIONARY
  5
14D3
330
127F
100
AcDbDictionary
280
     1
281
     1
  3
ACAD_XREC_ROUNDTRIP
360
14D4
  0
DICTIONARY
  5
14DB
330
1283
100
AcDbDictionary
280
     1
281
     1
  3
ACAD_XREC_ROUNDTRIP
360
14DC
  0
FIELD
  5
12A1
330
12A0
100
AcDbField
  1
AcVar
  2
\AcVar Filename \f "%tc1%fn2"
 90
        0
 97
        0
  4
%tc1%fn2
 91
       63
 92
        0
 94
       59
 95
        2
 96
        0
300

 93
        1
  6
Variable
 90
        4
  1
Filename
  7
ACFD_FIELD_VALUE
 90
        4
  1
S:\CIM_10_2015\DXF\46N11610T6RA45.dxf
301
46N11610T6RA45
 98
       14
  0
FIELD
  5
12C5
330
12C4
100
AcDbField
  1
AcVar
  2
\AcVar Filename \f "%tc1%fn2"
 90
        0
 97
        0
  4
%tc1%fn2
 91
       63
 92
        0
 94
       59
 95
        2
 96
        0
300

 93
        1
  6
Variable
 90
        4
  1
Filename
  7
ACFD_FIELD_VALUE
 90
        4
  1
S:\CIM_10_2015\DXF\46N11610T6RA45.dxf
301
46N11610T6RA45
 98
       14
  0
XRECORD
  5
14EE
102
{ACAD_REACTORS
330
12AB
102
}
330
12AB
100
AcDbXrecord
280
     1
102
DISPLAYNAME
  1
Imperial24
102
FLAGS
 90
        0
  0
XRECORD
  5
14EA
102
{ACAD_REACTORS
330
14E9
102
}
330
14E9
100
AcDbXrecord
280
     1
102
DISPLAYNAME
  1
Metric50
102
FLAGS
 90
        0
  0
XRECORD
  5
14B1
102
{ACAD_REACTORS
330
14B0
102
}
330
14B0
100
AcDbXrecord
280
     1
102
SHADEPLOT
 70
     0
102
SHADEPLOTRESLEVEL
 70
     2
102
SHADEPLOTCUSTOMDPI
 70
   300
  0
XRECORD
  5
14AF
102
{ACAD_REACTORS
330
14AE
102
}
330
14AE
100
AcDbXrecord
280
     1
102
SHADEPLOT
 70
     1
102
SHADEPLOTRESLEVEL
 70
     2
102
SHADEPLOTCUSTOMDPI
 70
   300
  0
XRECORD
  5
1279
102
{ACAD_REACTORS
330
1278
102
}
330
1278
100
AcDbXrecord
280
     1
102
MATERIAL
148
0.0
149
0.0
149
0.0
 93
        0
 94
      127
282
     0
 72
     1
 77
     1
171
     1
175
     1
179
     1
273
     0
  0
XRECORD
  5
1277
102
{ACAD_REACTORS
330
1276
102
}
330
1276
100
AcDbXrecord
280
     1
102
MATERIAL
148
0.0
149
0.0
149
0.0
 93
        0
 94
      127
282
     0
 72
     1
 77
     1
171
     1
175
     1
179
     1
273
     0
  0
XRECORD
  5
127B
102
{ACAD_REACTORS
330
127A
102
}
330
127A
100
AcDbXrecord
280
     1
102
MATERIAL
148
0.0
149
0.0
149
0.0
 93
        0
 94
      127
282
     0
 72
     1
 77
     1
171
     1
175
     1
179
     1
273
     0
  0
XRECORD
  5
14ED
102
{ACAD_REACTORS
330
12A9
102
}
330
12A9
100
AcDbXrecord
280
     1
102
DISPLAYNAME
  1
Imperial24
102
FLAGS
 90
        0
  0
XRECORD
  5
14E8
102
{ACAD_REACTORS
330
14E7
102
}
330
14E7
100
AcDbXrecord
280
     1
102
DISPLAYNAME
  1
Metric50
102
FLAGS
 90
        0
  0
CELLSTYLEMAP
  5
14AB
102
{ACAD_REACTORS
330
444
102
}
330
444
100
AcDbCellStyleMap
 90
        3
300
CELLSTYLE
  1
TABLEFORMAT_BEGIN
 90
        5
170
     1
 91
        0
 92
    32768
 62
   257
 93
        1
300
CONTENTFORMAT
  1
CONTENTFORMAT_BEGIN
 90
        0
 91
        0
 92
        4
 93
        0
300

 40
0.0
140
1.0
 94
        5
 62
     0
340
10
144
6.0
309
CONTENTFORMAT_END
171
     1
301
MARGIN
  1
CELLMARGIN_BEGIN
 40
1.5
 40
1.5
 40
1.5
 40
1.5
 40
0.18
 40
0.18
309
CELLMARGIN_END
 94
        6
 95
        1
302
GRIDFORMAT
  1
GRIDFORMAT_BEGIN
 90
        0
 91
        1
 62
     0
 92
       -2
340
0
 93
        0
 40
0.045
309
GRIDFORMAT_END
 95
        2
302
GRIDFORMAT
  1
GRIDFORMAT_BEGIN
 90
        0
 91
        1
 62
     0
 92
       -2
340
0
 93
        0
 40
0.045
309
GRIDFORMAT_END
 95
        4
302
GRIDFORMAT
  1
GRIDFORMAT_BEGIN
 90
        0
 91
        1
 62
     0
 92
       -2
340
0
 93
        0
 40
0.045
309
GRIDFORMAT_END
 95
        8
302
GRIDFORMAT
  1
GRIDFORMAT_BEGIN
 90
        0
 91
        1
 62
     0
 92
       -2
340
0
 93
        0
 40
0.045
309
GRIDFORMAT_END
 95
       16
302
GRIDFORMAT
  1
GRIDFORMAT_BEGIN
 90
        0
 91
        1
 62
     0
 92
       -2
340
0
 93
        0
 40
0.045
309
GRIDFORMAT_END
 95
       32
302
GRIDFORMAT
  1
GRIDFORMAT_BEGIN
 90
        0
 91
        1
 62
     0
 92
       -2
340
0
 93
        0
 40
0.045
309
GRIDFORMAT_END
309
TABLEFORMAT_END
  1
CELLSTYLE_BEGIN
 90
        1
 91
        1
300
_TITLE
309
CELLSTYLE_END
300
CELLSTYLE
  1
TABLEFORMAT_BEGIN
 90
        5
170
     1
 91
        0
 92
        0
 62
   257
 93
        1
300
CONTENTFORMAT
  1
CONTENTFORMAT_BEGIN
 90
        0
 91
        0
 92
        4
 93
        0
300

 40
0.0
140
1.0
 94
        5
 62
     0
340
10
144
4.5
309
CONTENTFORMAT_END
171
     1
301
MARGIN
  1
CELLMARGIN_BEGIN
 40
1.5
 40
1.5
 40
1.5
 40
1.5
 40
0.18
 40
0.18
309
CELLMARGIN_END
 94
        6
 95
        1
302
GRIDFORMAT
  1
GRIDFORMAT_BEGIN
 90
        0
 91
        1
 62
     0
 92
       -2
340
0
 93
        0
 40
0.045
309
GRIDFORMAT_END
 95
        2
302
GRIDFORMAT
  1
GRIDFORMAT_BEGIN
 90
        0
 91
        1
 62
     0
 92
       -2
340
0
 93
        0
 40
0.045
309
GRIDFORMAT_END
 95
        4
302
GRIDFORMAT
  1
GRIDFORMAT_BEGIN
 90
        0
 91
        1
 62
     0
 92
       -2
340
0
 93
        0
 40
0.045
309
GRIDFORMAT_END
 95
        8
302
GRIDFORMAT
  1
GRIDFORMAT_BEGIN
 90
        0
 91
        1
 62
     0
 92
       -2
340
0
 93
        0
 40
0.045
309
GRIDFORMAT_END
 95
       16
302
GRIDFORMAT
  1
GRIDFORMAT_BEGIN
 90
        0
 91
        1
 62
     0
 92
       -2
340
0
 93
        0
 40
0.045
309
GRIDFORMAT_END
 95
       32
302
GRIDFORMAT
  1
GRIDFORMAT_BEGIN
 90
        0
 91
        1
 62
     0
 92
       -2
340
0
 93
        0
 40
0.045
309
GRIDFORMAT_END
309
TABLEFORMAT_END
  1
CELLSTYLE_BEGIN
 90
        2
 91
        1
300
_HEADER
309
CELLSTYLE_END
300
CELLSTYLE
  1
TABLEFORMAT_BEGIN
 90
        5
170
     1
 91
        0
 92
        0
 62
   257
 93
        1
300
CONTENTFORMAT
  1
CONTENTFORMAT_BEGIN
 90
        0
 91
        0
 92
        4
 93
        0
300

 40
0.0
140
1.0
 94
        2
 62
     0
340
10
144
4.5
309
CONTENTFORMAT_END
171
     1
301
MARGIN
  1
CELLMARGIN_BEGIN
 40
1.5
 40
1.5
 40
1.5
 40
1.5
 40
0.18
 40
0.18
309
CELLMARGIN_END
 94
        6
 95
        1
302
GRIDFORMAT
  1
GRIDFORMAT_BEGIN
 90
        0
 91
        1
 62
     0
 92
       -2
340
0
 93
        0
 40
0.045
309
GRIDFORMAT_END
 95
        2
302
GRIDFORMAT
  1
GRIDFORMAT_BEGIN
 90
        0
 91
        1
 62
     0
 92
       -2
340
0
 93
        0
 40
0.045
309
GRIDFORMAT_END
 95
        4
302
GRIDFORMAT
  1
GRIDFORMAT_BEGIN
 90
        0
 91
        1
 62
     0
 92
       -2
340
0
 93
        0
 40
0.045
309
GRIDFORMAT_END
 95
        8
302
GRIDFORMAT
  1
GRIDFORMAT_BEGIN
 90
        0
 91
        1
 62
     0
 92
       -2
340
0
 93
        0
 40
0.045
309
GRIDFORMAT_END
 95
       16
302
GRIDFORMAT
  1
GRIDFORMAT_BEGIN
 90
        0
 91
        1
 62
     0
 92
       -2
340
0
 93
        0
 40
0.045
309
GRIDFORMAT_END
 95
       32
302
GRIDFORMAT
  1
GRIDFORMAT_BEGIN
 90
        0
 91
        1
 62
     0
 92
       -2
340
0
 93
        0
 40
0.045
309
GRIDFORMAT_END
309
TABLEFORMAT_END
  1
CELLSTYLE_BEGIN
 90
        3
 91
        2
300
_DATA
309
CELLSTYLE_END
  0
XRECORD
  5
14B2
102
{ACAD_REACTORS
330
444
102
}
330
444
100
AcDbXrecord
280
     1
102
ACAD_ROUNDTRIP_PRE2007_TABLESTYLE
 90
        4
 91
        0
  1

 92
        4
 93
        0
  2

 94
        4
 95
        0
  3

  0
XRECORD
  5
14BE
102
{ACAD_REACTORS
330
14BD
102
}
330
14BD
100
AcDbXrecord
280
     1
102
RTVSPost2010Prop28
280
     1
102
RTVSPost2010PropOp28
 70
     1
102
RTVSPost2010Prop29
280
     1
102
RTVSPost2010PropOp29
 70
     1
102
RTVSPost2010Prop30
280
     0
102
RTVSPost2010PropOp30
 70
     1
102
RTVSPost2010Prop31
280
     0
102
RTVSPost2010PropOp31
 70
     1
102
RTVSPost2010Prop32
280
     0
102
RTVSPost2010PropOp32
 70
     1
102
RTVSPost2010Prop33
280
     0
102
RTVSPost2010PropOp33
 70
     1
102
RTVSPost2010Prop34
280
     0
102
RTVSPost2010PropOp34
 70
     1
102
RTVSPost2010Prop35
280
     0
102
RTVSPost2010PropOp35
 70
     1
102
RTVSPost2010Prop36
280
     0
102
RTVSPost2010PropOp36
 70
     1
102
RTVSPost2010Prop37
 90
       50
102
RTVSPost2010PropOp37
 70
     1
102
RTVSPost2010Prop38
140
0.0
102
RTVSPost2010PropOp38
 70
     1
102
RTVSPost2010Prop39
140
1.0
102
RTVSPost2010PropOp39
 70
     1
102
RTVSPost2010Prop40
 90
        0
102
RTVSPost2010PropOp40
 70
     1
102
RTVSPost2010Prop41ColorIndex
 90
       18
102
RTVSPost2010Prop41ColorRGB
 90
        0
102
RTVSPost2010PropOp41
 70
     1
102
RTVSPost2010Prop42
 90
       50
102
RTVSPost2010PropOp42
 70
     1
102
RTVSPost2010Prop43
 90
        3
102
RTVSPost2010PropOp43
 70
     1
102
RTVSPost2010Prop44ColorIndex
 90
        5
102
RTVSPost2010Prop44ColorRGB
 90
      255
102
RTVSPost2010PropOp44
 70
     1
102
RTVSPost2010Prop45
280
     0
102
RTVSPost2010PropOp45
 70
     1
102
RTVSPost2010Prop46
 90
       50
102
RTVSPost2010PropOp46
 70
     1
102
RTVSPost2010Prop47
 90
       50
102
RTVSPost2010PropOp47
 70
     1
102
RTVSPost2010Prop48
 90
       50
102
RTVSPost2010PropOp48
 70
     1
102
RTVSPost2010Prop49
280
     0
102
RTVSPost2010PropOp49
 70
     1
102
RTVSPost2010Prop50
 90
       50
102
RTVSPost2010PropOp50
 70
     1
102
RTVSPost2010Prop51ColorIndex
 90
      256
102
RTVSPost2010Prop51ColorRGB
 90
-16777216
102
RTVSPost2010PropOp51
 70
     0
102
RTVSPost2010Prop52
140
1.0
102
RTVSPost2010PropOp52
 70
     0
102
RTVSPost2010Prop53
 90
        2
102
RTVSPost2010PropOp53
 70
     1
102
RTVSPost2010Prop54
  1
strokes_ogs.tif
102
RTVSPost2010PropOp54
 70
     1
102
RTVSPost2010Prop55
280
     0
102
RTVSPost2010PropOp55
 70
     1
102
RTVSPost2010Prop56
140
1.0
102
RTVSPost2010PropOp56
 70
     1
102
RTVSPost2010Prop57
140
1.0
102
RTVSPost2010PropOp57
 70
     1
102
RTVSPropertyOp0
 70
     1
102
RTVSPropertyOp1
 70
     1
102
RTVSPropertyOp2
 70
     1
102
RTVSPropertyOp3
 70
     1
102
RTVSPropertyOp4
 70
     1
102
RTVSPropertyOp5
 70
     1
102
RTVSPropertyOp6
 70
     1
102
RTVSPropertyOp7
 70
     1
102
RTVSPropertyOp8
 70
     1
102
RTVSPropertyOp9
 70
     1
102
RTVSPropertyOp10
 70
     1
102
RTVSPropertyOp11
 70
     1
102
RTVSPropertyOp12
 70
     1
102
RTVSPropertyOp13
 70
     1
102
RTVSPropertyOp14
 70
     1
102
RTVSPropertyOp15
 70
     1
102
RTVSPropertyOp16
 70
     1
102
RTVSPropertyOp17
 70
     1
102
RTVSPropertyOp18
 70
     1
102
RTVSPropertyOp19
 70
     1
102
RTVSPropertyOp20
 70
     1
102
RTVSPropertyOp21
 70
     1
102
RTVSPropertyOp22
 70
     1
102
RTVSPropertyOp23
 70
     1
102
RTVSPropertyOp24
 70
     1
102
RTVSPropertyOp25
 70
     1
102
RTVSPropertyOp26
 70
     1
102
RTVSPropertyOp27
 70
     1
102
RTVSPropertyOp28
 70
     1
102
RTVSPropertyOp29
 70
     1
102
RTVSPropertyOp30
 70
     1
102
RTVSPropertyOp31
 70
     1
102
RTVSPropertyOp32
 70
     1
102
RTVSPropertyOp33
 70
     1
102
RTVSPropertyOp34
 70
     1
102
RTVSPropertyOp35
 70
     1
102
RTVSPropertyOp36
 70
     1
102
RTVSPropertyOp37
 70
     1
102
RTVSPropertyOp38
 70
     1
102
RTVSPropertyOp39
 70
     1
102
RTVSPropertyOp40
 70
     1
102
RTVSPropertyOp41
 70
     1
102
RTVSPropertyOp42
 70
     1
102
RTVSPropertyOp43
 70
     1
102
RTVSPropertyOp44
 70
     1
102
RTVSPropertyOp45
 70
     1
102
RTVSPropertyOp46
 70
     1
102
RTVSPropertyOp47
 70
     1
102
RTVSPropertyOp48
 70
     1
102
RTVSPropertyOp49
 70
     1
102
RTVSPropertyOp50
 70
     1
102
RTVSPropertyOp51
 70
     0
102
RTVSPropertyOp52
 70
     0
102
RTVSPropertyOp53
 70
     1
102
RTVSPropertyOp54
 70
     1
102
RTVSPropertyOp55
 70
     1
102
RTVSPropertyOp56
 70
     1
102
RTVSPropertyOp57
 70
     1
102
RTVSPropertyOp58
 70
     1
102
RTVSPropertyOp59
 70
     1
102
RTVSPropertyOp60
 70
     1
102
RTVSPropertyOp61
 70
     1
102
RTVSPropertyOp62
 70
     1
  0
XRECORD
  5
14C2
102
{ACAD_REACTORS
330
14C1
102
}
330
14C1
100
AcDbXrecord
280
     1
102
RTVSPost2010Prop28
280
     0
102
RTVSPost2010PropOp28
 70
     1
102
RTVSPost2010Prop29
280
     1
102
RTVSPost2010PropOp29
 70
     1
102
RTVSPost2010Prop30
280
     1
102
RTVSPost2010PropOp30
 70
     1
102
RTVSPost2010Prop31
280
     0
102
RTVSPost2010PropOp31
 70
     1
102
RTVSPost2010Prop32
280
     0
102
RTVSPost2010PropOp32
 70
     1
102
RTVSPost2010Prop33
280
     0
102
RTVSPost2010PropOp33
 70
     1
102
RTVSPost2010Prop34
280
     0
102
RTVSPost2010PropOp34
 70
     1
102
RTVSPost2010Prop35
280
     0
102
RTVSPost2010PropOp35
 70
     1
102
RTVSPost2010Prop36
280
     0
102
RTVSPost2010PropOp36
 70
     1
102
RTVSPost2010Prop37
 90
       50
102
RTVSPost2010PropOp37
 70
     1
102
RTVSPost2010Prop38
140
0.0
102
RTVSPost2010PropOp38
 70
     1
102
RTVSPost2010Prop39
140
1.0
102
RTVSPost2010PropOp39
 70
     1
102
RTVSPost2010Prop40
 90
        0
102
RTVSPost2010PropOp40
 70
     1
102
RTVSPost2010Prop41ColorIndex
 90
       18
102
RTVSPost2010Prop41ColorRGB
 90
        0
102
RTVSPost2010PropOp41
 70
     1
102
RTVSPost2010Prop42
 90
       50
102
RTVSPost2010PropOp42
 70
     1
102
RTVSPost2010Prop43
 90
        3
102
RTVSPost2010PropOp43
 70
     1
102
RTVSPost2010Prop44ColorIndex
 90
        5
102
RTVSPost2010Prop44ColorRGB
 90
      255
102
RTVSPost2010PropOp44
 70
     1
102
RTVSPost2010Prop45
280
     0
102
RTVSPost2010PropOp45
 70
     1
102
RTVSPost2010Prop46
 90
       50
102
RTVSPost2010PropOp46
 70
     1
102
RTVSPost2010Prop47
 90
       50
102
RTVSPost2010PropOp47
 70
     1
102
RTVSPost2010Prop48
 90
       50
102
RTVSPost2010PropOp48
 70
     1
102
RTVSPost2010Prop49
280
     0
102
RTVSPost2010PropOp49
 70
     1
102
RTVSPost2010Prop50
 90
       50
102
RTVSPost2010PropOp50
 70
     1
102
RTVSPost2010Prop51ColorIndex
 90
      256
102
RTVSPost2010Prop51ColorRGB
 90
-16777216
102
RTVSPost2010PropOp51
 70
     0
102
RTVSPost2010Prop52
140
1.0
102
RTVSPost2010PropOp52
 70
     0
102
RTVSPost2010Prop53
 90
        2
102
RTVSPost2010PropOp53
 70
     1
102
RTVSPost2010Prop54
  1
strokes_ogs.tif
102
RTVSPost2010PropOp54
 70
     1
102
RTVSPost2010Prop55
280
     0
102
RTVSPost2010PropOp55
 70
     1
102
RTVSPost2010Prop56
140
1.0
102
RTVSPost2010PropOp56
 70
     1
102
RTVSPost2010Prop57
140
1.0
102
RTVSPost2010PropOp57
 70
     1
102
RTVSPropertyOp0
 70
     1
102
RTVSPropertyOp1
 70
     1
102
RTVSPropertyOp2
 70
     1
102
RTVSPropertyOp3
 70
     1
102
RTVSPropertyOp4
 70
     1
102
RTVSPropertyOp5
 70
     1
102
RTVSPropertyOp6
 70
     1
102
RTVSPropertyOp7
 70
     1
102
RTVSPropertyOp8
 70
     1
102
RTVSPropertyOp9
 70
     1
102
RTVSPropertyOp10
 70
     1
102
RTVSPropertyOp11
 70
     1
102
RTVSPropertyOp12
 70
     1
102
RTVSPropertyOp13
 70
     1
102
RTVSPropertyOp14
 70
     1
102
RTVSPropertyOp15
 70
     1
102
RTVSPropertyOp16
 70
     1
102
RTVSPropertyOp17
 70
     1
102
RTVSPropertyOp18
 70
     1
102
RTVSPropertyOp19
 70
     1
102
RTVSPropertyOp20
 70
     1
102
RTVSPropertyOp21
 70
     1
102
RTVSPropertyOp22
 70
     1
102
RTVSPropertyOp23
 70
     1
102
RTVSPropertyOp24
 70
     1
102
RTVSPropertyOp25
 70
     1
102
RTVSPropertyOp26
 70
     1
102
RTVSPropertyOp27
 70
     1
102
RTVSPropertyOp28
 70
     1
102
RTVSPropertyOp29
 70
     1
102
RTVSPropertyOp30
 70
     1
102
RTVSPropertyOp31
 70
     1
102
RTVSPropertyOp32
 70
     1
102
RTVSPropertyOp33
 70
     1
102
RTVSPropertyOp34
 70
     1
102
RTVSPropertyOp35
 70
     1
102
RTVSPropertyOp36
 70
     1
102
RTVSPropertyOp37
 70
     1
102
RTVSPropertyOp38
 70
     1
102
RTVSPropertyOp39
 70
     1
102
RTVSPropertyOp40
 70
     1
102
RTVSPropertyOp41
 70
     1
102
RTVSPropertyOp42
 70
     1
102
RTVSPropertyOp43
 70
     1
102
RTVSPropertyOp44
 70
     1
102
RTVSPropertyOp45
 70
     1
102
RTVSPropertyOp46
 70
     1
102
RTVSPropertyOp47
 70
     1
102
RTVSPropertyOp48
 70
     1
102
RTVSPropertyOp49
 70
     1
102
RTVSPropertyOp50
 70
     1
102
RTVSPropertyOp51
 70
     0
102
RTVSPropertyOp52
 70
     0
102
RTVSPropertyOp53
 70
     1
102
RTVSPropertyOp54
 70
     1
102
RTVSPropertyOp55
 70
     1
102
RTVSPropertyOp56
 70
     1
102
RTVSPropertyOp57
 70
     1
102
RTVSPropertyOp58
 70
     1
102
RTVSPropertyOp59
 70
     1
102
RTVSPropertyOp60
 70
     1
102
RTVSPropertyOp61
 70
     1
102
RTVSPropertyOp62
 70
     1
  0
XRECORD
  5
14C0
102
{ACAD_REACTORS
330
14BF
102
}
330
14BF
100
AcDbXrecord
280
     1
102
RTVSPost2010Prop28
280
     0
102
RTVSPost2010PropOp28
 70
     1
102
RTVSPost2010Prop29
280
     1
102
RTVSPost2010PropOp29
 70
     1
102
RTVSPost2010Prop30
280
     1
102
RTVSPost2010PropOp30
 70
     1
102
RTVSPost2010Prop31
280
     0
102
RTVSPost2010PropOp31
 70
     1
102
RTVSPost2010Prop32
280
     0
102
RTVSPost2010PropOp32
 70
     1
102
RTVSPost2010Prop33
280
     0
102
RTVSPost2010PropOp33
 70
     1
102
RTVSPost2010Prop34
280
     0
102
RTVSPost2010PropOp34
 70
     1
102
RTVSPost2010Prop35
280
     0
102
RTVSPost2010PropOp35
 70
     1
102
RTVSPost2010Prop36
280
     0
102
RTVSPost2010PropOp36
 70
     1
102
RTVSPost2010Prop37
 90
       50
102
RTVSPost2010PropOp37
 70
     1
102
RTVSPost2010Prop38
140
0.0
102
RTVSPost2010PropOp38
 70
     1
102
RTVSPost2010Prop39
140
1.0
102
RTVSPost2010PropOp39
 70
     1
102
RTVSPost2010Prop40
 90
        0
102
RTVSPost2010PropOp40
 70
     1
102
RTVSPost2010Prop41ColorIndex
 90
       18
102
RTVSPost2010Prop41ColorRGB
 90
        0
102
RTVSPost2010PropOp41
 70
     1
102
RTVSPost2010Prop42
 90
       50
102
RTVSPost2010PropOp42
 70
     1
102
RTVSPost2010Prop43
 90
        3
102
RTVSPost2010PropOp43
 70
     1
102
RTVSPost2010Prop44ColorIndex
 90
        5
102
RTVSPost2010Prop44ColorRGB
 90
      255
102
RTVSPost2010PropOp44
 70
     1
102
RTVSPost2010Prop45
280
     0
102
RTVSPost2010PropOp45
 70
     1
102
RTVSPost2010Prop46
 90
       50
102
RTVSPost2010PropOp46
 70
     1
102
RTVSPost2010Prop47
 90
       50
102
RTVSPost2010PropOp47
 70
     1
102
RTVSPost2010Prop48
 90
       50
102
RTVSPost2010PropOp48
 70
     1
102
RTVSPost2010Prop49
280
     0
102
RTVSPost2010PropOp49
 70
     1
102
RTVSPost2010Prop50
 90
       50
102
RTVSPost2010PropOp50
 70
     1
102
RTVSPost2010Prop51ColorIndex
 90
      256
102
RTVSPost2010Prop51ColorRGB
 90
-16777216
102
RTVSPost2010PropOp51
 70
     0
102
RTVSPost2010Prop52
140
1.0
102
RTVSPost2010PropOp52
 70
     0
102
RTVSPost2010Prop53
 90
        2
102
RTVSPost2010PropOp53
 70
     1
102
RTVSPost2010Prop54
  1
strokes_ogs.tif
102
RTVSPost2010PropOp54
 70
     1
102
RTVSPost2010Prop55
280
     0
102
RTVSPost2010PropOp55
 70
     1
102
RTVSPost2010Prop56
140
1.0
102
RTVSPost2010PropOp56
 70
     1
102
RTVSPost2010Prop57
140
1.0
102
RTVSPost2010PropOp57
 70
     1
102
RTVSPropertyOp0
 70
     1
102
RTVSPropertyOp1
 70
     1
102
RTVSPropertyOp2
 70
     1
102
RTVSPropertyOp3
 70
     1
102
RTVSPropertyOp4
 70
     1
102
RTVSPropertyOp5
 70
     1
102
RTVSPropertyOp6
 70
     1
102
RTVSPropertyOp7
 70
     1
102
RTVSPropertyOp8
 70
     1
102
RTVSPropertyOp9
 70
     1
102
RTVSPropertyOp10
 70
     1
102
RTVSPropertyOp11
 70
     1
102
RTVSPropertyOp12
 70
     1
102
RTVSPropertyOp13
 70
     1
102
RTVSPropertyOp14
 70
     1
102
RTVSPropertyOp15
 70
     1
102
RTVSPropertyOp16
 70
     1
102
RTVSPropertyOp17
 70
     1
102
RTVSPropertyOp18
 70
     1
102
RTVSPropertyOp19
 70
     1
102
RTVSPropertyOp20
 70
     1
102
RTVSPropertyOp21
 70
     1
102
RTVSPropertyOp22
 70
     1
102
RTVSPropertyOp23
 70
     1
102
RTVSPropertyOp24
 70
     1
102
RTVSPropertyOp25
 70
     1
102
RTVSPropertyOp26
 70
     1
102
RTVSPropertyOp27
 70
     1
102
RTVSPropertyOp28
 70
     1
102
RTVSPropertyOp29
 70
     1
102
RTVSPropertyOp30
 70
     1
102
RTVSPropertyOp31
 70
     1
102
RTVSPropertyOp32
 70
     1
102
RTVSPropertyOp33
 70
     1
102
RTVSPropertyOp34
 70
     1
102
RTVSPropertyOp35
 70
     1
102
RTVSPropertyOp36
 70
     1
102
RTVSPropertyOp37
 70
     1
102
RTVSPropertyOp38
 70
     1
102
RTVSPropertyOp39
 70
     1
102
RTVSPropertyOp40
 70
     1
102
RTVSPropertyOp41
 70
     1
102
RTVSPropertyOp42
 70
     1
102
RTVSPropertyOp43
 70
     1
102
RTVSPropertyOp44
 70
     1
102
RTVSPropertyOp45
 70
     1
102
RTVSPropertyOp46
 70
     1
102
RTVSPropertyOp47
 70
     1
102
RTVSPropertyOp48
 70
     1
102
RTVSPropertyOp49
 70
     1
102
RTVSPropertyOp50
 70
     1
102
RTVSPropertyOp51
 70
     0
102
RTVSPropertyOp52
 70
     0
102
RTVSPropertyOp53
 70
     1
102
RTVSPropertyOp54
 70
     1
102
RTVSPropertyOp55
 70
     1
102
RTVSPropertyOp56
 70
     1
102
RTVSPropertyOp57
 70
     1
102
RTVSPropertyOp58
 70
     1
102
RTVSPropertyOp59
 70
     1
102
RTVSPropertyOp60
 70
     1
102
RTVSPropertyOp61
 70
     1
102
RTVSPropertyOp62
 70
     1
  0
XRECORD
  5
14BC
102
{ACAD_REACTORS
330
14BB
102
}
330
14BB
100
AcDbXrecord
280
     1
102
RTVSPost2010Prop28
280
     0
102
RTVSPost2010PropOp28
 70
     1
102
RTVSPost2010Prop29
280
     1
102
RTVSPost2010PropOp29
 70
     1
102
RTVSPost2010Prop30
280
     1
102
RTVSPost2010PropOp30
 70
     1
102
RTVSPost2010Prop31
280
     0
102
RTVSPost2010PropOp31
 70
     1
102
RTVSPost2010Prop32
280
     0
102
RTVSPost2010PropOp32
 70
     1
102
RTVSPost2010Prop33
280
     0
102
RTVSPost2010PropOp33
 70
     1
102
RTVSPost2010Prop34
280
     0
102
RTVSPost2010PropOp34
 70
     1
102
RTVSPost2010Prop35
280
     0
102
RTVSPost2010PropOp35
 70
     1
102
RTVSPost2010Prop36
280
     0
102
RTVSPost2010PropOp36
 70
     1
102
RTVSPost2010Prop37
 90
       50
102
RTVSPost2010PropOp37
 70
     1
102
RTVSPost2010Prop38
140
0.0
102
RTVSPost2010PropOp38
 70
     1
102
RTVSPost2010Prop39
140
1.0
102
RTVSPost2010PropOp39
 70
     1
102
RTVSPost2010Prop40
 90
        0
102
RTVSPost2010PropOp40
 70
     1
102
RTVSPost2010Prop41ColorIndex
 90
       18
102
RTVSPost2010Prop41ColorRGB
 90
        0
102
RTVSPost2010PropOp41
 70
     1
102
RTVSPost2010Prop42
 90
       50
102
RTVSPost2010PropOp42
 70
     1
102
RTVSPost2010Prop43
 90
        3
102
RTVSPost2010PropOp43
 70
     1
102
RTVSPost2010Prop44ColorIndex
 90
        5
102
RTVSPost2010Prop44ColorRGB
 90
      255
102
RTVSPost2010PropOp44
 70
     1
102
RTVSPost2010Prop45
280
     0
102
RTVSPost2010PropOp45
 70
     1
102
RTVSPost2010Prop46
 90
       50
102
RTVSPost2010PropOp46
 70
     1
102
RTVSPost2010Prop47
 90
       50
102
RTVSPost2010PropOp47
 70
     1
102
RTVSPost2010Prop48
 90
       50
102
RTVSPost2010PropOp48
 70
     1
102
RTVSPost2010Prop49
280
     0
102
RTVSPost2010PropOp49
 70
     1
102
RTVSPost2010Prop50
 90
       50
102
RTVSPost2010PropOp50
 70
     1
102
RTVSPost2010Prop51ColorIndex
 90
      256
102
RTVSPost2010Prop51ColorRGB
 90
-16777216
102
RTVSPost2010PropOp51
 70
     0
102
RTVSPost2010Prop52
140
1.0
102
RTVSPost2010PropOp52
 70
     0
102
RTVSPost2010Prop53
 90
        2
102
RTVSPost2010PropOp53
 70
     1
102
RTVSPost2010Prop54
  1
strokes_ogs.tif
102
RTVSPost2010PropOp54
 70
     1
102
RTVSPost2010Prop55
280
     0
102
RTVSPost2010PropOp55
 70
     1
102
RTVSPost2010Prop56
140
1.0
102
RTVSPost2010PropOp56
 70
     1
102
RTVSPost2010Prop57
140
1.0
102
RTVSPost2010PropOp57
 70
     1
102
RTVSPropertyOp0
 70
     1
102
RTVSPropertyOp1
 70
     1
102
RTVSPropertyOp2
 70
     1
102
RTVSPropertyOp3
 70
     1
102
RTVSPropertyOp4
 70
     1
102
RTVSPropertyOp5
 70
     1
102
RTVSPropertyOp6
 70
     1
102
RTVSPropertyOp7
 70
     1
102
RTVSPropertyOp8
 70
     1
102
RTVSPropertyOp9
 70
     1
102
RTVSPropertyOp10
 70
     1
102
RTVSPropertyOp11
 70
     1
102
RTVSPropertyOp12
 70
     1
102
RTVSPropertyOp13
 70
     1
102
RTVSPropertyOp14
 70
     1
102
RTVSPropertyOp15
 70
     1
102
RTVSPropertyOp16
 70
     1
102
RTVSPropertyOp17
 70
     1
102
RTVSPropertyOp18
 70
     1
102
RTVSPropertyOp19
 70
     1
102
RTVSPropertyOp20
 70
     1
102
RTVSPropertyOp21
 70
     1
102
RTVSPropertyOp22
 70
     1
102
RTVSPropertyOp23
 70
     1
102
RTVSPropertyOp24
 70
     1
102
RTVSPropertyOp25
 70
     1
102
RTVSPropertyOp26
 70
     1
102
RTVSPropertyOp27
 70
     1
102
RTVSPropertyOp28
 70
     1
102
RTVSPropertyOp29
 70
     1
102
RTVSPropertyOp30
 70
     1
102
RTVSPropertyOp31
 70
     1
102
RTVSPropertyOp32
 70
     1
102
RTVSPropertyOp33
 70
     1
102
RTVSPropertyOp34
 70
     1
102
RTVSPropertyOp35
 70
     1
102
RTVSPropertyOp36
 70
     1
102
RTVSPropertyOp37
 70
     1
102
RTVSPropertyOp38
 70
     1
102
RTVSPropertyOp39
 70
     1
102
RTVSPropertyOp40
 70
     1
102
RTVSPropertyOp41
 70
     1
102
RTVSPropertyOp42
 70
     1
102
RTVSPropertyOp43
 70
     1
102
RTVSPropertyOp44
 70
     1
102
RTVSPropertyOp45
 70
     1
102
RTVSPropertyOp46
 70
     1
102
RTVSPropertyOp47
 70
     1
102
RTVSPropertyOp48
 70
     1
102
RTVSPropertyOp49
 70
     1
102
RTVSPropertyOp50
 70
     1
102
RTVSPropertyOp51
 70
     0
102
RTVSPropertyOp52
 70
     0
102
RTVSPropertyOp53
 70
     1
102
RTVSPropertyOp54
 70
     1
102
RTVSPropertyOp55
 70
     1
102
RTVSPropertyOp56
 70
     1
102
RTVSPropertyOp57
 70
     1
102
RTVSPropertyOp58
 70
     1
102
RTVSPropertyOp59
 70
     1
102
RTVSPropertyOp60
 70
     1
102
RTVSPropertyOp61
 70
     1
102
RTVSPropertyOp62
 70
     1
  0
XRECORD
  5
14CA
102
{ACAD_REACTORS
330
14C9
102
}
330
14C9
100
AcDbXrecord
280
     1
102
RTVSPost2010Prop28
280
     0
102
RTVSPost2010PropOp28
 70
     1
102
RTVSPost2010Prop29
280
     1
102
RTVSPost2010PropOp29
 70
     1
102
RTVSPost2010Prop30
280
     1
102
RTVSPost2010PropOp30
 70
     1
102
RTVSPost2010Prop31
280
     0
102
RTVSPost2010PropOp31
 70
     1
102
RTVSPost2010Prop32
280
     0
102
RTVSPost2010PropOp32
 70
     1
102
RTVSPost2010Prop33
280
     0
102
RTVSPost2010PropOp33
 70
     1
102
RTVSPost2010Prop34
280
     0
102
RTVSPost2010PropOp34
 70
     1
102
RTVSPost2010Prop35
280
     0
102
RTVSPost2010PropOp35
 70
     1
102
RTVSPost2010Prop36
280
     0
102
RTVSPost2010PropOp36
 70
     1
102
RTVSPost2010Prop37
 90
       50
102
RTVSPost2010PropOp37
 70
     1
102
RTVSPost2010Prop38
140
0.0
102
RTVSPost2010PropOp38
 70
     1
102
RTVSPost2010Prop39
140
1.0
102
RTVSPost2010PropOp39
 70
     1
102
RTVSPost2010Prop40
 90
        0
102
RTVSPost2010PropOp40
 70
     1
102
RTVSPost2010Prop41ColorIndex
 90
       18
102
RTVSPost2010Prop41ColorRGB
 90
        0
102
RTVSPost2010PropOp41
 70
     1
102
RTVSPost2010Prop42
 90
       50
102
RTVSPost2010PropOp42
 70
     1
102
RTVSPost2010Prop43
 90
        3
102
RTVSPost2010PropOp43
 70
     1
102
RTVSPost2010Prop44ColorIndex
 90
        5
102
RTVSPost2010Prop44ColorRGB
 90
      255
102
RTVSPost2010PropOp44
 70
     1
102
RTVSPost2010Prop45
280
     0
102
RTVSPost2010PropOp45
 70
     1
102
RTVSPost2010Prop46
 90
       50
102
RTVSPost2010PropOp46
 70
     1
102
RTVSPost2010Prop47
 90
       50
102
RTVSPost2010PropOp47
 70
     1
102
RTVSPost2010Prop48
 90
       50
102
RTVSPost2010PropOp48
 70
     1
102
RTVSPost2010Prop49
280
     0
102
RTVSPost2010PropOp49
 70
     1
102
RTVSPost2010Prop50
 90
       50
102
RTVSPost2010PropOp50
 70
     1
102
RTVSPost2010Prop51ColorIndex
 90
      256
102
RTVSPost2010Prop51ColorRGB
 90
-16777216
102
RTVSPost2010PropOp51
 70
     0
102
RTVSPost2010Prop52
140
1.0
102
RTVSPost2010PropOp52
 70
     0
102
RTVSPost2010Prop53
 90
        2
102
RTVSPost2010PropOp53
 70
     1
102
RTVSPost2010Prop54
  1
strokes_ogs.tif
102
RTVSPost2010PropOp54
 70
     1
102
RTVSPost2010Prop55
280
     0
102
RTVSPost2010PropOp55
 70
     1
102
RTVSPost2010Prop56
140
1.0
102
RTVSPost2010PropOp56
 70
     1
102
RTVSPost2010Prop57
140
1.0
102
RTVSPost2010PropOp57
 70
     1
102
RTVSPropertyOp0
 70
     1
102
RTVSPropertyOp1
 70
     1
102
RTVSPropertyOp2
 70
     1
102
RTVSPropertyOp3
 70
     1
102
RTVSPropertyOp4
 70
     1
102
RTVSPropertyOp5
 70
     1
102
RTVSPropertyOp6
 70
     1
102
RTVSPropertyOp7
 70
     1
102
RTVSPropertyOp8
 70
     1
102
RTVSPropertyOp9
 70
     1
102
RTVSPropertyOp10
 70
     1
102
RTVSPropertyOp11
 70
     1
102
RTVSPropertyOp12
 70
     1
102
RTVSPropertyOp13
 70
     1
102
RTVSPropertyOp14
 70
     1
102
RTVSPropertyOp15
 70
     1
102
RTVSPropertyOp16
 70
     1
102
RTVSPropertyOp17
 70
     1
102
RTVSPropertyOp18
 70
     1
102
RTVSPropertyOp19
 70
     1
102
RTVSPropertyOp20
 70
     1
102
RTVSPropertyOp21
 70
     1
102
RTVSPropertyOp22
 70
     1
102
RTVSPropertyOp23
 70
     1
102
RTVSPropertyOp24
 70
     1
102
RTVSPropertyOp25
 70
     1
102
RTVSPropertyOp26
 70
     1
102
RTVSPropertyOp27
 70
     1
102
RTVSPropertyOp28
 70
     1
102
RTVSPropertyOp29
 70
     1
102
RTVSPropertyOp30
 70
     1
102
RTVSPropertyOp31
 70
     1
102
RTVSPropertyOp32
 70
     1
102
RTVSPropertyOp33
 70
     1
102
RTVSPropertyOp34
 70
     1
102
RTVSPropertyOp35
 70
     1
102
RTVSPropertyOp36
 70
     1
102
RTVSPropertyOp37
 70
     1
102
RTVSPropertyOp38
 70
     1
102
RTVSPropertyOp39
 70
     1
102
RTVSPropertyOp40
 70
     1
102
RTVSPropertyOp41
 70
     1
102
RTVSPropertyOp42
 70
     1
102
RTVSPropertyOp43
 70
     1
102
RTVSPropertyOp44
 70
     1
102
RTVSPropertyOp45
 70
     1
102
RTVSPropertyOp46
 70
     1
102
RTVSPropertyOp47
 70
     1
102
RTVSPropertyOp48
 70
     1
102
RTVSPropertyOp49
 70
     1
102
RTVSPropertyOp50
 70
     1
102
RTVSPropertyOp51
 70
     0
102
RTVSPropertyOp52
 70
     0
102
RTVSPropertyOp53
 70
     1
102
RTVSPropertyOp54
 70
     1
102
RTVSPropertyOp55
 70
     1
102
RTVSPropertyOp56
 70
     1
102
RTVSPropertyOp57
 70
     1
102
RTVSPropertyOp58
 70
     1
102
RTVSPropertyOp59
 70
     1
102
RTVSPropertyOp60
 70
     1
102
RTVSPropertyOp61
 70
     1
102
RTVSPropertyOp62
 70
     1
  0
XRECORD
  5
14D2
102
{ACAD_REACTORS
330
14D1
102
}
330
14D1
100
AcDbXrecord
280
     1
102
RTVSPost2010Prop28
280
     0
102
RTVSPost2010PropOp28
 70
     1
102
RTVSPost2010Prop29
280
     1
102
RTVSPost2010PropOp29
 70
     1
102
RTVSPost2010Prop30
280
     1
102
RTVSPost2010PropOp30
 70
     1
102
RTVSPost2010Prop31
280
     0
102
RTVSPost2010PropOp31
 70
     1
102
RTVSPost2010Prop32
280
     0
102
RTVSPost2010PropOp32
 70
     1
102
RTVSPost2010Prop33
280
     0
102
RTVSPost2010PropOp33
 70
     1
102
RTVSPost2010Prop34
280
     0
102
RTVSPost2010PropOp34
 70
     1
102
RTVSPost2010Prop35
280
     0
102
RTVSPost2010PropOp35
 70
     1
102
RTVSPost2010Prop36
280
     0
102
RTVSPost2010PropOp36
 70
     1
102
RTVSPost2010Prop37
 90
       50
102
RTVSPost2010PropOp37
 70
     1
102
RTVSPost2010Prop38
140
0.0
102
RTVSPost2010PropOp38
 70
     1
102
RTVSPost2010Prop39
140
1.0
102
RTVSPost2010PropOp39
 70
     1
102
RTVSPost2010Prop40
 90
        0
102
RTVSPost2010PropOp40
 70
     1
102
RTVSPost2010Prop41ColorIndex
 90
       18
102
RTVSPost2010Prop41ColorRGB
 90
        0
102
RTVSPost2010PropOp41
 70
     1
102
RTVSPost2010Prop42
 90
       50
102
RTVSPost2010PropOp42
 70
     1
102
RTVSPost2010Prop43
 90
        3
102
RTVSPost2010PropOp43
 70
     1
102
RTVSPost2010Prop44ColorIndex
 90
        5
102
RTVSPost2010Prop44ColorRGB
 90
      255
102
RTVSPost2010PropOp44
 70
     1
102
RTVSPost2010Prop45
280
     0
102
RTVSPost2010PropOp45
 70
     1
102
RTVSPost2010Prop46
 90
       50
102
RTVSPost2010PropOp46
 70
     1
102
RTVSPost2010Prop47
 90
       50
102
RTVSPost2010PropOp47
 70
     1
102
RTVSPost2010Prop48
 90
       50
102
RTVSPost2010PropOp48
 70
     1
102
RTVSPost2010Prop49
280
     0
102
RTVSPost2010PropOp49
 70
     1
102
RTVSPost2010Prop50
 90
       50
102
RTVSPost2010PropOp50
 70
     1
102
RTVSPost2010Prop51ColorIndex
 90
      256
102
RTVSPost2010Prop51ColorRGB
 90
-16777216
102
RTVSPost2010PropOp51
 70
     0
102
RTVSPost2010Prop52
140
1.0
102
RTVSPost2010PropOp52
 70
     0
102
RTVSPost2010Prop53
 90
        2
102
RTVSPost2010PropOp53
 70
     1
102
RTVSPost2010Prop54
  1
strokes_ogs.tif
102
RTVSPost2010PropOp54
 70
     1
102
RTVSPost2010Prop55
280
     0
102
RTVSPost2010PropOp55
 70
     1
102
RTVSPost2010Prop56
140
1.0
102
RTVSPost2010PropOp56
 70
     1
102
RTVSPost2010Prop57
140
1.0
102
RTVSPost2010PropOp57
 70
     1
102
RTVSPropertyOp0
 70
     1
102
RTVSPropertyOp1
 70
     1
102
RTVSPropertyOp2
 70
     1
102
RTVSPropertyOp3
 70
     1
102
RTVSPropertyOp4
 70
     1
102
RTVSPropertyOp5
 70
     1
102
RTVSPropertyOp6
 70
     1
102
RTVSPropertyOp7
 70
     1
102
RTVSPropertyOp8
 70
     1
102
RTVSPropertyOp9
 70
     1
102
RTVSPropertyOp10
 70
     1
102
RTVSPropertyOp11
 70
     1
102
RTVSPropertyOp12
 70
     1
102
RTVSPropertyOp13
 70
     1
102
RTVSPropertyOp14
 70
     1
102
RTVSPropertyOp15
 70
     1
102
RTVSPropertyOp16
 70
     1
102
RTVSPropertyOp17
 70
     1
102
RTVSPropertyOp18
 70
     1
102
RTVSPropertyOp19
 70
     1
102
RTVSPropertyOp20
 70
     1
102
RTVSPropertyOp21
 70
     1
102
RTVSPropertyOp22
 70
     1
102
RTVSPropertyOp23
 70
     1
102
RTVSPropertyOp24
 70
     1
102
RTVSPropertyOp25
 70
     1
102
RTVSPropertyOp26
 70
     1
102
RTVSPropertyOp27
 70
     1
102
RTVSPropertyOp28
 70
     1
102
RTVSPropertyOp29
 70
     1
102
RTVSPropertyOp30
 70
     1
102
RTVSPropertyOp31
 70
     1
102
RTVSPropertyOp32
 70
     1
102
RTVSPropertyOp33
 70
     1
102
RTVSPropertyOp34
 70
     1
102
RTVSPropertyOp35
 70
     1
102
RTVSPropertyOp36
 70
     1
102
RTVSPropertyOp37
 70
     1
102
RTVSPropertyOp38
 70
     1
102
RTVSPropertyOp39
 70
     1
102
RTVSPropertyOp40
 70
     1
102
RTVSPropertyOp41
 70
     1
102
RTVSPropertyOp42
 70
     1
102
RTVSPropertyOp43
 70
     1
102
RTVSPropertyOp44
 70
     1
102
RTVSPropertyOp45
 70
     1
102
RTVSPropertyOp46
 70
     1
102
RTVSPropertyOp47
 70
     1
102
RTVSPropertyOp48
 70
     1
102
RTVSPropertyOp49
 70
     1
102
RTVSPropertyOp50
 70
     1
102
RTVSPropertyOp51
 70
     0
102
RTVSPropertyOp52
 70
     0
102
RTVSPropertyOp53
 70
     1
102
RTVSPropertyOp54
 70
     1
102
RTVSPropertyOp55
 70
     1
102
RTVSPropertyOp56
 70
     1
102
RTVSPropertyOp57
 70
     1
102
RTVSPropertyOp58
 70
     1
102
RTVSPropertyOp59
 70
     1
102
RTVSPropertyOp60
 70
     1
102
RTVSPropertyOp61
 70
     1
102
RTVSPropertyOp62
 70
     1
  0
XRECORD
  5
14C4
102
{ACAD_REACTORS
330
14C3
102
}
330
14C3
100
AcDbXrecord
280
     1
102
RTVSPost2010Prop28
280
     0
102
RTVSPost2010PropOp28
 70
     1
102
RTVSPost2010Prop29
280
     1
102
RTVSPost2010PropOp29
 70
     1
102
RTVSPost2010Prop30
280
     1
102
RTVSPost2010PropOp30
 70
     1
102
RTVSPost2010Prop31
280
     0
102
RTVSPost2010PropOp31
 70
     1
102
RTVSPost2010Prop32
280
     0
102
RTVSPost2010PropOp32
 70
     1
102
RTVSPost2010Prop33
280
     0
102
RTVSPost2010PropOp33
 70
     1
102
RTVSPost2010Prop34
280
     0
102
RTVSPost2010PropOp34
 70
     1
102
RTVSPost2010Prop35
280
     0
102
RTVSPost2010PropOp35
 70
     1
102
RTVSPost2010Prop36
280
     0
102
RTVSPost2010PropOp36
 70
     1
102
RTVSPost2010Prop37
 90
       50
102
RTVSPost2010PropOp37
 70
     1
102
RTVSPost2010Prop38
140
0.0
102
RTVSPost2010PropOp38
 70
     1
102
RTVSPost2010Prop39
140
1.0
102
RTVSPost2010PropOp39
 70
     1
102
RTVSPost2010Prop40
 90
        0
102
RTVSPost2010PropOp40
 70
     1
102
RTVSPost2010Prop41ColorIndex
 90
       18
102
RTVSPost2010Prop41ColorRGB
 90
        0
102
RTVSPost2010PropOp41
 70
     1
102
RTVSPost2010Prop42
 90
       50
102
RTVSPost2010PropOp42
 70
     1
102
RTVSPost2010Prop43
 90
        3
102
RTVSPost2010PropOp43
 70
     1
102
RTVSPost2010Prop44ColorIndex
 90
        5
102
RTVSPost2010Prop44ColorRGB
 90
      255
102
RTVSPost2010PropOp44
 70
     1
102
RTVSPost2010Prop45
280
     0
102
RTVSPost2010PropOp45
 70
     1
102
RTVSPost2010Prop46
 90
       50
102
RTVSPost2010PropOp46
 70
     1
102
RTVSPost2010Prop47
 90
       50
102
RTVSPost2010PropOp47
 70
     1
102
RTVSPost2010Prop48
 90
       50
102
RTVSPost2010PropOp48
 70
     1
102
RTVSPost2010Prop49
280
     0
102
RTVSPost2010PropOp49
 70
     1
102
RTVSPost2010Prop50
 90
       50
102
RTVSPost2010PropOp50
 70
     1
102
RTVSPost2010Prop51ColorIndex
 90
      256
102
RTVSPost2010Prop51ColorRGB
 90
-16777216
102
RTVSPost2010PropOp51
 70
     0
102
RTVSPost2010Prop52
140
1.0
102
RTVSPost2010PropOp52
 70
     0
102
RTVSPost2010Prop53
 90
        2
102
RTVSPost2010PropOp53
 70
     1
102
RTVSPost2010Prop54
  1
strokes_ogs.tif
102
RTVSPost2010PropOp54
 70
     1
102
RTVSPost2010Prop55
280
     0
102
RTVSPost2010PropOp55
 70
     1
102
RTVSPost2010Prop56
140
1.0
102
RTVSPost2010PropOp56
 70
     1
102
RTVSPost2010Prop57
140
1.0
102
RTVSPost2010PropOp57
 70
     1
102
RTVSPropertyOp0
 70
     1
102
RTVSPropertyOp1
 70
     1
102
RTVSPropertyOp2
 70
     1
102
RTVSPropertyOp3
 70
     1
102
RTVSPropertyOp4
 70
     1
102
RTVSPropertyOp5
 70
     1
102
RTVSPropertyOp6
 70
     1
102
RTVSPropertyOp7
 70
     1
102
RTVSPropertyOp8
 70
     1
102
RTVSPropertyOp9
 70
     1
102
RTVSPropertyOp10
 70
     1
102
RTVSPropertyOp11
 70
     1
102
RTVSPropertyOp12
 70
     1
102
RTVSPropertyOp13
 70
     1
102
RTVSPropertyOp14
 70
     1
102
RTVSPropertyOp15
 70
     1
102
RTVSPropertyOp16
 70
     1
102
RTVSPropertyOp17
 70
     1
102
RTVSPropertyOp18
 70
     1
102
RTVSPropertyOp19
 70
     1
102
RTVSPropertyOp20
 70
     1
102
RTVSPropertyOp21
 70
     1
102
RTVSPropertyOp22
 70
     1
102
RTVSPropertyOp23
 70
     1
102
RTVSPropertyOp24
 70
     1
102
RTVSPropertyOp25
 70
     1
102
RTVSPropertyOp26
 70
     1
102
RTVSPropertyOp27
 70
     1
102
RTVSPropertyOp28
 70
     1
102
RTVSPropertyOp29
 70
     1
102
RTVSPropertyOp30
 70
     1
102
RTVSPropertyOp31
 70
     1
102
RTVSPropertyOp32
 70
     1
102
RTVSPropertyOp33
 70
     1
102
RTVSPropertyOp34
 70
     1
102
RTVSPropertyOp35
 70
     1
102
RTVSPropertyOp36
 70
     1
102
RTVSPropertyOp37
 70
     1
102
RTVSPropertyOp38
 70
     1
102
RTVSPropertyOp39
 70
     1
102
RTVSPropertyOp40
 70
     1
102
RTVSPropertyOp41
 70
     1
102
RTVSPropertyOp42
 70
     1
102
RTVSPropertyOp43
 70
     1
102
RTVSPropertyOp44
 70
     1
102
RTVSPropertyOp45
 70
     1
102
RTVSPropertyOp46
 70
     1
102
RTVSPropertyOp47
 70
     1
102
RTVSPropertyOp48
 70
     1
102
RTVSPropertyOp49
 70
     1
102
RTVSPropertyOp50
 70
     1
102
RTVSPropertyOp51
 70
     0
102
RTVSPropertyOp52
 70
     0
102
RTVSPropertyOp53
 70
     1
102
RTVSPropertyOp54
 70
     1
102
RTVSPropertyOp55
 70
     1
102
RTVSPropertyOp56
 70
     1
102
RTVSPropertyOp57
 70
     1
102
RTVSPropertyOp58
 70
     1
102
RTVSPropertyOp59
 70
     1
102
RTVSPropertyOp60
 70
     1
102
RTVSPropertyOp61
 70
     1
102
RTVSPropertyOp62
 70
     1
  0
XRECORD
  5
14C8
102
{ACAD_REACTORS
330
14C7
102
}
330
14C7
100
AcDbXrecord
280
     1
102
RTVSPost2010Prop28
280
     0
102
RTVSPost2010PropOp28
 70
     1
102
RTVSPost2010Prop29
280
     1
102
RTVSPost2010PropOp29
 70
     1
102
RTVSPost2010Prop30
280
     1
102
RTVSPost2010PropOp30
 70
     1
102
RTVSPost2010Prop31
280
     0
102
RTVSPost2010PropOp31
 70
     1
102
RTVSPost2010Prop32
280
     0
102
RTVSPost2010PropOp32
 70
     1
102
RTVSPost2010Prop33
280
     0
102
RTVSPost2010PropOp33
 70
     1
102
RTVSPost2010Prop34
280
     0
102
RTVSPost2010PropOp34
 70
     1
102
RTVSPost2010Prop35
280
     0
102
RTVSPost2010PropOp35
 70
     1
102
RTVSPost2010Prop36
280
     0
102
RTVSPost2010PropOp36
 70
     1
102
RTVSPost2010Prop37
 90
       50
102
RTVSPost2010PropOp37
 70
     1
102
RTVSPost2010Prop38
140
0.0
102
RTVSPost2010PropOp38
 70
     1
102
RTVSPost2010Prop39
140
1.0
102
RTVSPost2010PropOp39
 70
     1
102
RTVSPost2010Prop40
 90
        0
102
RTVSPost2010PropOp40
 70
     1
102
RTVSPost2010Prop41ColorIndex
 90
       18
102
RTVSPost2010Prop41ColorRGB
 90
        0
102
RTVSPost2010PropOp41
 70
     1
102
RTVSPost2010Prop42
 90
       50
102
RTVSPost2010PropOp42
 70
     1
102
RTVSPost2010Prop43
 90
        3
102
RTVSPost2010PropOp43
 70
     1
102
RTVSPost2010Prop44ColorIndex
 90
        5
102
RTVSPost2010Prop44ColorRGB
 90
      255
102
RTVSPost2010PropOp44
 70
     1
102
RTVSPost2010Prop45
280
     0
102
RTVSPost2010PropOp45
 70
     1
102
RTVSPost2010Prop46
 90
       50
102
RTVSPost2010PropOp46
 70
     1
102
RTVSPost2010Prop47
 90
       50
102
RTVSPost2010PropOp47
 70
     1
102
RTVSPost2010Prop48
 90
       50
102
RTVSPost2010PropOp48
 70
     1
102
RTVSPost2010Prop49
280
     0
102
RTVSPost2010PropOp49
 70
     1
102
RTVSPost2010Prop50
 90
       50
102
RTVSPost2010PropOp50
 70
     1
102
RTVSPost2010Prop51ColorIndex
 90
      256
102
RTVSPost2010Prop51ColorRGB
 90
-16777216
102
RTVSPost2010PropOp51
 70
     0
102
RTVSPost2010Prop52
140
1.0
102
RTVSPost2010PropOp52
 70
     0
102
RTVSPost2010Prop53
 90
        2
102
RTVSPost2010PropOp53
 70
     1
102
RTVSPost2010Prop54
  1
strokes_ogs.tif
102
RTVSPost2010PropOp54
 70
     1
102
RTVSPost2010Prop55
280
     0
102
RTVSPost2010PropOp55
 70
     1
102
RTVSPost2010Prop56
140
1.0
102
RTVSPost2010PropOp56
 70
     1
102
RTVSPost2010Prop57
140
1.0
102
RTVSPost2010PropOp57
 70
     1
102
RTVSPropertyOp0
 70
     1
102
RTVSPropertyOp1
 70
     1
102
RTVSPropertyOp2
 70
     1
102
RTVSPropertyOp3
 70
     1
102
RTVSPropertyOp4
 70
     1
102
RTVSPropertyOp5
 70
     1
102
RTVSPropertyOp6
 70
     1
102
RTVSPropertyOp7
 70
     1
102
RTVSPropertyOp8
 70
     1
102
RTVSPropertyOp9
 70
     1
102
RTVSPropertyOp10
 70
     1
102
RTVSPropertyOp11
 70
     1
102
RTVSPropertyOp12
 70
     1
102
RTVSPropertyOp13
 70
     1
102
RTVSPropertyOp14
 70
     1
102
RTVSPropertyOp15
 70
     1
102
RTVSPropertyOp16
 70
     1
102
RTVSPropertyOp17
 70
     1
102
RTVSPropertyOp18
 70
     1
102
RTVSPropertyOp19
 70
     1
102
RTVSPropertyOp20
 70
     1
102
RTVSPropertyOp21
 70
     1
102
RTVSPropertyOp22
 70
     1
102
RTVSPropertyOp23
 70
     1
102
RTVSPropertyOp24
 70
     1
102
RTVSPropertyOp25
 70
     1
102
RTVSPropertyOp26
 70
     1
102
RTVSPropertyOp27
 70
     1
102
RTVSPropertyOp28
 70
     1
102
RTVSPropertyOp29
 70
     1
102
RTVSPropertyOp30
 70
     1
102
RTVSPropertyOp31
 70
     1
102
RTVSPropertyOp32
 70
     1
102
RTVSPropertyOp33
 70
     1
102
RTVSPropertyOp34
 70
     1
102
RTVSPropertyOp35
 70
     1
102
RTVSPropertyOp36
 70
     1
102
RTVSPropertyOp37
 70
     1
102
RTVSPropertyOp38
 70
     1
102
RTVSPropertyOp39
 70
     1
102
RTVSPropertyOp40
 70
     1
102
RTVSPropertyOp41
 70
     1
102
RTVSPropertyOp42
 70
     1
102
RTVSPropertyOp43
 70
     1
102
RTVSPropertyOp44
 70
     1
102
RTVSPropertyOp45
 70
     1
102
RTVSPropertyOp46
 70
     1
102
RTVSPropertyOp47
 70
     1
102
RTVSPropertyOp48
 70
     1
102
RTVSPropertyOp49
 70
     1
102
RTVSPropertyOp50
 70
     1
102
RTVSPropertyOp51
 70
     0
102
RTVSPropertyOp52
 70
     0
102
RTVSPropertyOp53
 70
     1
102
RTVSPropertyOp54
 70
     1
102
RTVSPropertyOp55
 70
     1
102
RTVSPropertyOp56
 70
     1
102
RTVSPropertyOp57
 70
     1
102
RTVSPropertyOp58
 70
     1
102
RTVSPropertyOp59
 70
     1
102
RTVSPropertyOp60
 70
     1
102
RTVSPropertyOp61
 70
     1
102
RTVSPropertyOp62
 70
     1
  0
XRECORD
  5
14E6
102
{ACAD_REACTORS
330
14E5
102
}
330
14E5
100
AcDbXrecord
280
     1
102
RTVSPost2010Prop28
280
     0
102
RTVSPost2010PropOp28
 70
     1
102
RTVSPost2010Prop29
280
     1
102
RTVSPost2010PropOp29
 70
     1
102
RTVSPost2010Prop30
280
     1
102
RTVSPost2010PropOp30
 70
     1
102
RTVSPost2010Prop31
280
     0
102
RTVSPost2010PropOp31
 70
     1
102
RTVSPost2010Prop32
280
     0
102
RTVSPost2010PropOp32
 70
     1
102
RTVSPost2010Prop33
280
     0
102
RTVSPost2010PropOp33
 70
     1
102
RTVSPost2010Prop34
280
     0
102
RTVSPost2010PropOp34
 70
     1
102
RTVSPost2010Prop35
280
     0
102
RTVSPost2010PropOp35
 70
     1
102
RTVSPost2010Prop36
280
     0
102
RTVSPost2010PropOp36
 70
     1
102
RTVSPost2010Prop37
 90
       50
102
RTVSPost2010PropOp37
 70
     0
102
RTVSPost2010Prop38
140
0.0
102
RTVSPost2010PropOp38
 70
     0
102
RTVSPost2010Prop39
140
1.0
102
RTVSPost2010PropOp39
 70
     0
102
RTVSPost2010Prop40
 90
        0
102
RTVSPost2010PropOp40
 70
     0
102
RTVSPost2010Prop41ColorIndex
 90
       18
102
RTVSPost2010Prop41ColorRGB
 90
        0
102
RTVSPost2010PropOp41
 70
     0
102
RTVSPost2010Prop42
 90
       50
102
RTVSPost2010PropOp42
 70
     0
102
RTVSPost2010Prop43
 90
        3
102
RTVSPost2010PropOp43
 70
     0
102
RTVSPost2010Prop44ColorIndex
 90
        5
102
RTVSPost2010Prop44ColorRGB
 90
      255
102
RTVSPost2010PropOp44
 70
     0
102
RTVSPost2010Prop45
280
     0
102
RTVSPost2010PropOp45
 70
     1
102
RTVSPost2010Prop46
 90
       50
102
RTVSPost2010PropOp46
 70
     0
102
RTVSPost2010Prop47
 90
       50
102
RTVSPost2010PropOp47
 70
     0
102
RTVSPost2010Prop48
 90
       50
102
RTVSPost2010PropOp48
 70
     0
102
RTVSPost2010Prop49
280
     0
102
RTVSPost2010PropOp49
 70
     1
102
RTVSPost2010Prop50
 90
       50
102
RTVSPost2010PropOp50
 70
     0
102
RTVSPost2010Prop51ColorIndex
 90
      256
102
RTVSPost2010Prop51ColorRGB
 90
-16777216
102
RTVSPost2010PropOp51
 70
     0
102
RTVSPost2010Prop52
140
1.0
102
RTVSPost2010PropOp52
 70
     0
102
RTVSPost2010Prop53
 90
        2
102
RTVSPost2010PropOp53
 70
     0
102
RTVSPost2010Prop54
  1
strokes_ogs.tif
102
RTVSPost2010PropOp54
 70
     0
102
RTVSPost2010Prop55
280
     0
102
RTVSPost2010PropOp55
 70
     1
102
RTVSPost2010Prop56
140
1.0
102
RTVSPost2010PropOp56
 70
     0
102
RTVSPost2010Prop57
140
1.0
102
RTVSPost2010PropOp57
 70
     0
102
RTVSPropertyOp0
 70
     0
102
RTVSPropertyOp1
 70
     0
102
RTVSPropertyOp2
 70
     0
102
RTVSPropertyOp3
 70
     0
102
RTVSPropertyOp4
 70
     0
102
RTVSPropertyOp5
 70
     0
102
RTVSPropertyOp6
 70
     0
102
RTVSPropertyOp7
 70
     0
102
RTVSPropertyOp8
 70
     0
102
RTVSPropertyOp9
 70
     0
102
RTVSPropertyOp10
 70
     0
102
RTVSPropertyOp11
 70
     0
102
RTVSPropertyOp12
 70
     0
102
RTVSPropertyOp13
 70
     0
102
RTVSPropertyOp14
 70
     2
102
RTVSPropertyOp15
 70
     0
102
RTVSPropertyOp16
 70
     0
102
RTVSPropertyOp17
 70
     0
102
RTVSPropertyOp18
 70
     0
102
RTVSPropertyOp19
 70
     0
102
RTVSPropertyOp20
 70
     0
102
RTVSPropertyOp21
 70
     0
102
RTVSPropertyOp22
 70
     0
102
RTVSPropertyOp23
 70
     0
102
RTVSPropertyOp24
 70
     0
102
RTVSPropertyOp25
 70
     0
102
RTVSPropertyOp26
 70
     0
102
RTVSPropertyOp27
 70
     0
102
RTVSPropertyOp28
 70
     1
102
RTVSPropertyOp29
 70
     1
102
RTVSPropertyOp30
 70
     1
102
RTVSPropertyOp31
 70
     1
102
RTVSPropertyOp32
 70
     1
102
RTVSPropertyOp33
 70
     1
102
RTVSPropertyOp34
 70
     1
102
RTVSPropertyOp35
 70
     1
102
RTVSPropertyOp36
 70
     1
102
RTVSPropertyOp37
 70
     0
102
RTVSPropertyOp38
 70
     0
102
RTVSPropertyOp39
 70
     0
102
RTVSPropertyOp40
 70
     0
102
RTVSPropertyOp41
 70
     0
102
RTVSPropertyOp42
 70
     0
102
RTVSPropertyOp43
 70
     0
102
RTVSPropertyOp44
 70
     0
102
RTVSPropertyOp45
 70
     1
102
RTVSPropertyOp46
 70
     0
102
RTVSPropertyOp47
 70
     0
102
RTVSPropertyOp48
 70
     0
102
RTVSPropertyOp49
 70
     1
102
RTVSPropertyOp50
 70
     0
102
RTVSPropertyOp51
 70
     0
102
RTVSPropertyOp52
 70
     0
102
RTVSPropertyOp53
 70
     0
102
RTVSPropertyOp54
 70
     0
102
RTVSPropertyOp55
 70
     1
102
RTVSPropertyOp56
 70
     0
102
RTVSPropertyOp57
 70
     0
102
RTVSPropertyOp58
 70
     0
102
RTVSPropertyOp59
 70
     0
102
RTVSPropertyOp60
 70
     0
102
RTVSPropertyOp61
 70
     0
102
RTVSPropertyOp62
 70
     0
  0
XRECORD
  5
14D0
102
{ACAD_REACTORS
330
14CF
102
}
330
14CF
100
AcDbXrecord
280
     1
102
RTVSPost2010Prop28
280
     0
102
RTVSPost2010PropOp28
 70
     1
102
RTVSPost2010Prop29
280
     1
102
RTVSPost2010PropOp29
 70
     1
102
RTVSPost2010Prop30
280
     1
102
RTVSPost2010PropOp30
 70
     1
102
RTVSPost2010Prop31
280
     0
102
RTVSPost2010PropOp31
 70
     1
102
RTVSPost2010Prop32
280
     0
102
RTVSPost2010PropOp32
 70
     1
102
RTVSPost2010Prop33
280
     0
102
RTVSPost2010PropOp33
 70
     1
102
RTVSPost2010Prop34
280
     0
102
RTVSPost2010PropOp34
 70
     1
102
RTVSPost2010Prop35
280
     0
102
RTVSPost2010PropOp35
 70
     1
102
RTVSPost2010Prop36
280
     0
102
RTVSPost2010PropOp36
 70
     1
102
RTVSPost2010Prop37
 90
       50
102
RTVSPost2010PropOp37
 70
     1
102
RTVSPost2010Prop38
140
0.0
102
RTVSPost2010PropOp38
 70
     1
102
RTVSPost2010Prop39
140
1.0
102
RTVSPost2010PropOp39
 70
     1
102
RTVSPost2010Prop40
 90
        0
102
RTVSPost2010PropOp40
 70
     1
102
RTVSPost2010Prop41ColorIndex
 90
       18
102
RTVSPost2010Prop41ColorRGB
 90
        0
102
RTVSPost2010PropOp41
 70
     1
102
RTVSPost2010Prop42
 90
       50
102
RTVSPost2010PropOp42
 70
     1
102
RTVSPost2010Prop43
 90
        3
102
RTVSPost2010PropOp43
 70
     1
102
RTVSPost2010Prop44ColorIndex
 90
        5
102
RTVSPost2010Prop44ColorRGB
 90
      255
102
RTVSPost2010PropOp44
 70
     1
102
RTVSPost2010Prop45
280
     0
102
RTVSPost2010PropOp45
 70
     1
102
RTVSPost2010Prop46
 90
       50
102
RTVSPost2010PropOp46
 70
     1
102
RTVSPost2010Prop47
 90
       50
102
RTVSPost2010PropOp47
 70
     1
102
RTVSPost2010Prop48
 90
       50
102
RTVSPost2010PropOp48
 70
     1
102
RTVSPost2010Prop49
280
     0
102
RTVSPost2010PropOp49
 70
     1
102
RTVSPost2010Prop50
 90
       50
102
RTVSPost2010PropOp50
 70
     1
102
RTVSPost2010Prop51ColorIndex
 90
      256
102
RTVSPost2010Prop51ColorRGB
 90
-16777216
102
RTVSPost2010PropOp51
 70
     0
102
RTVSPost2010Prop52
140
1.0
102
RTVSPost2010PropOp52
 70
     0
102
RTVSPost2010Prop53
 90
        2
102
RTVSPost2010PropOp53
 70
     1
102
RTVSPost2010Prop54
  1
strokes_ogs.tif
102
RTVSPost2010PropOp54
 70
     1
102
RTVSPost2010Prop55
280
     0
102
RTVSPost2010PropOp55
 70
     1
102
RTVSPost2010Prop56
140
1.0
102
RTVSPost2010PropOp56
 70
     1
102
RTVSPost2010Prop57
140
1.0
102
RTVSPost2010PropOp57
 70
     1
102
RTVSPropertyOp0
 70
     1
102
RTVSPropertyOp1
 70
     1
102
RTVSPropertyOp2
 70
     1
102
RTVSPropertyOp3
 70
     1
102
RTVSPropertyOp4
 70
     1
102
RTVSPropertyOp5
 70
     1
102
RTVSPropertyOp6
 70
     1
102
RTVSPropertyOp7
 70
     1
102
RTVSPropertyOp8
 70
     1
102
RTVSPropertyOp9
 70
     1
102
RTVSPropertyOp10
 70
     1
102
RTVSPropertyOp11
 70
     1
102
RTVSPropertyOp12
 70
     1
102
RTVSPropertyOp13
 70
     1
102
RTVSPropertyOp14
 70
     1
102
RTVSPropertyOp15
 70
     1
102
RTVSPropertyOp16
 70
     1
102
RTVSPropertyOp17
 70
     1
102
RTVSPropertyOp18
 70
     1
102
RTVSPropertyOp19
 70
     1
102
RTVSPropertyOp20
 70
     1
102
RTVSPropertyOp21
 70
     1
102
RTVSPropertyOp22
 70
     1
102
RTVSPropertyOp23
 70
     1
102
RTVSPropertyOp24
 70
     1
102
RTVSPropertyOp25
 70
     1
102
RTVSPropertyOp26
 70
     1
102
RTVSPropertyOp27
 70
     1
102
RTVSPropertyOp28
 70
     1
102
RTVSPropertyOp29
 70
     1
102
RTVSPropertyOp30
 70
     1
102
RTVSPropertyOp31
 70
     1
102
RTVSPropertyOp32
 70
     1
102
RTVSPropertyOp33
 70
     1
102
RTVSPropertyOp34
 70
     1
102
RTVSPropertyOp35
 70
     1
102
RTVSPropertyOp36
 70
     1
102
RTVSPropertyOp37
 70
     1
102
RTVSPropertyOp38
 70
     1
102
RTVSPropertyOp39
 70
     1
102
RTVSPropertyOp40
 70
     1
102
RTVSPropertyOp41
 70
     1
102
RTVSPropertyOp42
 70
     1
102
RTVSPropertyOp43
 70
     1
102
RTVSPropertyOp44
 70
     1
102
RTVSPropertyOp45
 70
     1
102
RTVSPropertyOp46
 70
     1
102
RTVSPropertyOp47
 70
     1
102
RTVSPropertyOp48
 70
     1
102
RTVSPropertyOp49
 70
     1
102
RTVSPropertyOp50
 70
     1
102
RTVSPropertyOp51
 70
     0
102
RTVSPropertyOp52
 70
     0
102
RTVSPropertyOp53
 70
     1
102
RTVSPropertyOp54
 70
     1
102
RTVSPropertyOp55
 70
     1
102
RTVSPropertyOp56
 70
     1
102
RTVSPropertyOp57
 70
     1
102
RTVSPropertyOp58
 70
     1
102
RTVSPropertyOp59
 70
     1
102
RTVSPropertyOp60
 70
     1
102
RTVSPropertyOp61
 70
     1
102
RTVSPropertyOp62
 70
     1
  0
XRECORD
  5
14B4
102
{ACAD_REACTORS
330
14B3
102
}
330
14B3
100
AcDbXrecord
280
     1
102
RTVSPost2010Prop28
280
     0
102
RTVSPost2010PropOp28
 70
     1
102
RTVSPost2010Prop29
280
     1
102
RTVSPost2010PropOp29
 70
     1
102
RTVSPost2010Prop30
280
     1
102
RTVSPost2010PropOp30
 70
     1
102
RTVSPost2010Prop31
280
     0
102
RTVSPost2010PropOp31
 70
     1
102
RTVSPost2010Prop32
280
     0
102
RTVSPost2010PropOp32
 70
     1
102
RTVSPost2010Prop33
280
     0
102
RTVSPost2010PropOp33
 70
     1
102
RTVSPost2010Prop34
280
     0
102
RTVSPost2010PropOp34
 70
     1
102
RTVSPost2010Prop35
280
     0
102
RTVSPost2010PropOp35
 70
     1
102
RTVSPost2010Prop36
280
     0
102
RTVSPost2010PropOp36
 70
     1
102
RTVSPost2010Prop37
 90
       50
102
RTVSPost2010PropOp37
 70
     1
102
RTVSPost2010Prop38
140
0.0
102
RTVSPost2010PropOp38
 70
     1
102
RTVSPost2010Prop39
140
1.0
102
RTVSPost2010PropOp39
 70
     1
102
RTVSPost2010Prop40
 90
        0
102
RTVSPost2010PropOp40
 70
     1
102
RTVSPost2010Prop41ColorIndex
 90
       18
102
RTVSPost2010Prop41ColorRGB
 90
        0
102
RTVSPost2010PropOp41
 70
     1
102
RTVSPost2010Prop42
 90
       50
102
RTVSPost2010PropOp42
 70
     1
102
RTVSPost2010Prop43
 90
        3
102
RTVSPost2010PropOp43
 70
     1
102
RTVSPost2010Prop44ColorIndex
 90
        5
102
RTVSPost2010Prop44ColorRGB
 90
      255
102
RTVSPost2010PropOp44
 70
     1
102
RTVSPost2010Prop45
280
     0
102
RTVSPost2010PropOp45
 70
     1
102
RTVSPost2010Prop46
 90
       50
102
RTVSPost2010PropOp46
 70
     1
102
RTVSPost2010Prop47
 90
       50
102
RTVSPost2010PropOp47
 70
     1
102
RTVSPost2010Prop48
 90
       50
102
RTVSPost2010PropOp48
 70
     1
102
RTVSPost2010Prop49
280
     0
102
RTVSPost2010PropOp49
 70
     1
102
RTVSPost2010Prop50
 90
       50
102
RTVSPost2010PropOp50
 70
     1
102
RTVSPost2010Prop51ColorIndex
 90
      256
102
RTVSPost2010Prop51ColorRGB
 90
-16777216
102
RTVSPost2010PropOp51
 70
     0
102
RTVSPost2010Prop52
140
1.0
102
RTVSPost2010PropOp52
 70
     0
102
RTVSPost2010Prop53
 90
        2
102
RTVSPost2010PropOp53
 70
     1
102
RTVSPost2010Prop54
  1
strokes_ogs.tif
102
RTVSPost2010PropOp54
 70
     1
102
RTVSPost2010Prop55
280
     0
102
RTVSPost2010PropOp55
 70
     1
102
RTVSPost2010Prop56
140
1.0
102
RTVSPost2010PropOp56
 70
     1
102
RTVSPost2010Prop57
140
1.0
102
RTVSPost2010PropOp57
 70
     1
102
RTVSPropertyOp0
 70
     1
102
RTVSPropertyOp1
 70
     1
102
RTVSPropertyOp2
 70
     1
102
RTVSPropertyOp3
 70
     1
102
RTVSPropertyOp4
 70
     1
102
RTVSPropertyOp5
 70
     1
102
RTVSPropertyOp6
 70
     1
102
RTVSPropertyOp7
 70
     1
102
RTVSPropertyOp8
 70
     1
102
RTVSPropertyOp9
 70
     1
102
RTVSPropertyOp10
 70
     1
102
RTVSPropertyOp11
 70
     1
102
RTVSPropertyOp12
 70
     1
102
RTVSPropertyOp13
 70
     1
102
RTVSPropertyOp14
 70
     1
102
RTVSPropertyOp15
 70
     1
102
RTVSPropertyOp16
 70
     1
102
RTVSPropertyOp17
 70
     1
102
RTVSPropertyOp18
 70
     1
102
RTVSPropertyOp19
 70
     1
102
RTVSPropertyOp20
 70
     1
102
RTVSPropertyOp21
 70
     1
102
RTVSPropertyOp22
 70
     1
102
RTVSPropertyOp23
 70
     1
102
RTVSPropertyOp24
 70
     1
102
RTVSPropertyOp25
 70
     1
102
RTVSPropertyOp26
 70
     1
102
RTVSPropertyOp27
 70
     1
102
RTVSPropertyOp28
 70
     1
102
RTVSPropertyOp29
 70
     1
102
RTVSPropertyOp30
 70
     1
102
RTVSPropertyOp31
 70
     1
102
RTVSPropertyOp32
 70
     1
102
RTVSPropertyOp33
 70
     1
102
RTVSPropertyOp34
 70
     1
102
RTVSPropertyOp35
 70
     1
102
RTVSPropertyOp36
 70
     1
102
RTVSPropertyOp37
 70
     1
102
RTVSPropertyOp38
 70
     1
102
RTVSPropertyOp39
 70
     1
102
RTVSPropertyOp40
 70
     1
102
RTVSPropertyOp41
 70
     1
102
RTVSPropertyOp42
 70
     1
102
RTVSPropertyOp43
 70
     1
102
RTVSPropertyOp44
 70
     1
102
RTVSPropertyOp45
 70
     1
102
RTVSPropertyOp46
 70
     1
102
RTVSPropertyOp47
 70
     1
102
RTVSPropertyOp48
 70
     1
102
RTVSPropertyOp49
 70
     1
102
RTVSPropertyOp50
 70
     1
102
RTVSPropertyOp51
 70
     0
102
RTVSPropertyOp52
 70
     0
102
RTVSPropertyOp53
 70
     1
102
RTVSPropertyOp54
 70
     1
102
RTVSPropertyOp55
 70
     1
102
RTVSPropertyOp56
 70
     1
102
RTVSPropertyOp57
 70
     1
102
RTVSPropertyOp58
 70
     1
102
RTVSPropertyOp59
 70
     1
102
RTVSPropertyOp60
 70
     1
102
RTVSPropertyOp61
 70
     1
102
RTVSPropertyOp62
 70
     1
  0
XRECORD
  5
14B6
102
{ACAD_REACTORS
330
14B5
102
}
330
14B5
100
AcDbXrecord
280
     1
102
RTVSPost2010Prop28
280
     0
102
RTVSPost2010PropOp28
 70
     1
102
RTVSPost2010Prop29
280
     1
102
RTVSPost2010PropOp29
 70
     1
102
RTVSPost2010Prop30
280
     1
102
RTVSPost2010PropOp30
 70
     1
102
RTVSPost2010Prop31
280
     0
102
RTVSPost2010PropOp31
 70
     1
102
RTVSPost2010Prop32
280
     0
102
RTVSPost2010PropOp32
 70
     1
102
RTVSPost2010Prop33
280
     0
102
RTVSPost2010PropOp33
 70
     1
102
RTVSPost2010Prop34
280
     0
102
RTVSPost2010PropOp34
 70
     1
102
RTVSPost2010Prop35
280
     0
102
RTVSPost2010PropOp35
 70
     1
102
RTVSPost2010Prop36
280
     0
102
RTVSPost2010PropOp36
 70
     1
102
RTVSPost2010Prop37
 90
       50
102
RTVSPost2010PropOp37
 70
     1
102
RTVSPost2010Prop38
140
0.0
102
RTVSPost2010PropOp38
 70
     1
102
RTVSPost2010Prop39
140
1.0
102
RTVSPost2010PropOp39
 70
     1
102
RTVSPost2010Prop40
 90
        0
102
RTVSPost2010PropOp40
 70
     1
102
RTVSPost2010Prop41ColorIndex
 90
       18
102
RTVSPost2010Prop41ColorRGB
 90
        0
102
RTVSPost2010PropOp41
 70
     1
102
RTVSPost2010Prop42
 90
       50
102
RTVSPost2010PropOp42
 70
     1
102
RTVSPost2010Prop43
 90
        3
102
RTVSPost2010PropOp43
 70
     1
102
RTVSPost2010Prop44ColorIndex
 90
        5
102
RTVSPost2010Prop44ColorRGB
 90
      255
102
RTVSPost2010PropOp44
 70
     1
102
RTVSPost2010Prop45
280
     0
102
RTVSPost2010PropOp45
 70
     1
102
RTVSPost2010Prop46
 90
       50
102
RTVSPost2010PropOp46
 70
     1
102
RTVSPost2010Prop47
 90
       50
102
RTVSPost2010PropOp47
 70
     1
102
RTVSPost2010Prop48
 90
       50
102
RTVSPost2010PropOp48
 70
     1
102
RTVSPost2010Prop49
280
     0
102
RTVSPost2010PropOp49
 70
     1
102
RTVSPost2010Prop50
 90
       50
102
RTVSPost2010PropOp50
 70
     1
102
RTVSPost2010Prop51ColorIndex
 90
      256
102
RTVSPost2010Prop51ColorRGB
 90
-16777216
102
RTVSPost2010PropOp51
 70
     0
102
RTVSPost2010Prop52
140
1.0
102
RTVSPost2010PropOp52
 70
     0
102
RTVSPost2010Prop53
 90
        2
102
RTVSPost2010PropOp53
 70
     1
102
RTVSPost2010Prop54
  1
strokes_ogs.tif
102
RTVSPost2010PropOp54
 70
     1
102
RTVSPost2010Prop55
280
     0
102
RTVSPost2010PropOp55
 70
     1
102
RTVSPost2010Prop56
140
1.0
102
RTVSPost2010PropOp56
 70
     1
102
RTVSPost2010Prop57
140
1.0
102
RTVSPost2010PropOp57
 70
     1
102
RTVSPropertyOp0
 70
     1
102
RTVSPropertyOp1
 70
     1
102
RTVSPropertyOp2
 70
     1
102
RTVSPropertyOp3
 70
     1
102
RTVSPropertyOp4
 70
     1
102
RTVSPropertyOp5
 70
     1
102
RTVSPropertyOp6
 70
     1
102
RTVSPropertyOp7
 70
     1
102
RTVSPropertyOp8
 70
     1
102
RTVSPropertyOp9
 70
     1
102
RTVSPropertyOp10
 70
     1
102
RTVSPropertyOp11
 70
     1
102
RTVSPropertyOp12
 70
     1
102
RTVSPropertyOp13
 70
     1
102
RTVSPropertyOp14
 70
     1
102
RTVSPropertyOp15
 70
     1
102
RTVSPropertyOp16
 70
     1
102
RTVSPropertyOp17
 70
     1
102
RTVSPropertyOp18
 70
     1
102
RTVSPropertyOp19
 70
     1
102
RTVSPropertyOp20
 70
     1
102
RTVSPropertyOp21
 70
     1
102
RTVSPropertyOp22
 70
     1
102
RTVSPropertyOp23
 70
     1
102
RTVSPropertyOp24
 70
     1
102
RTVSPropertyOp25
 70
     1
102
RTVSPropertyOp26
 70
     1
102
RTVSPropertyOp27
 70
     1
102
RTVSPropertyOp28
 70
     1
102
RTVSPropertyOp29
 70
     1
102
RTVSPropertyOp30
 70
     1
102
RTVSPropertyOp31
 70
     1
102
RTVSPropertyOp32
 70
     1
102
RTVSPropertyOp33
 70
     1
102
RTVSPropertyOp34
 70
     1
102
RTVSPropertyOp35
 70
     1
102
RTVSPropertyOp36
 70
     1
102
RTVSPropertyOp37
 70
     1
102
RTVSPropertyOp38
 70
     1
102
RTVSPropertyOp39
 70
     1
102
RTVSPropertyOp40
 70
     1
102
RTVSPropertyOp41
 70
     1
102
RTVSPropertyOp42
 70
     1
102
RTVSPropertyOp43
 70
     1
102
RTVSPropertyOp44
 70
     1
102
RTVSPropertyOp45
 70
     1
102
RTVSPropertyOp46
 70
     1
102
RTVSPropertyOp47
 70
     1
102
RTVSPropertyOp48
 70
     1
102
RTVSPropertyOp49
 70
     1
102
RTVSPropertyOp50
 70
     1
102
RTVSPropertyOp51
 70
     0
102
RTVSPropertyOp52
 70
     0
102
RTVSPropertyOp53
 70
     1
102
RTVSPropertyOp54
 70
     1
102
RTVSPropertyOp55
 70
     1
102
RTVSPropertyOp56
 70
     1
102
RTVSPropertyOp57
 70
     1
102
RTVSPropertyOp58
 70
     1
102
RTVSPropertyOp59
 70
     1
102
RTVSPropertyOp60
 70
     1
102
RTVSPropertyOp61
 70
     1
102
RTVSPropertyOp62
 70
     1
  0
XRECORD
  5
14B8
102
{ACAD_REACTORS
330
14B7
102
}
330
14B7
100
AcDbXrecord
280
     1
102
RTVSPost2010Prop28
280
     0
102
RTVSPost2010PropOp28
 70
     1
102
RTVSPost2010Prop29
280
     1
102
RTVSPost2010PropOp29
 70
     1
102
RTVSPost2010Prop30
280
     1
102
RTVSPost2010PropOp30
 70
     1
102
RTVSPost2010Prop31
280
     0
102
RTVSPost2010PropOp31
 70
     1
102
RTVSPost2010Prop32
280
     0
102
RTVSPost2010PropOp32
 70
     1
102
RTVSPost2010Prop33
280
     0
102
RTVSPost2010PropOp33
 70
     1
102
RTVSPost2010Prop34
280
     0
102
RTVSPost2010PropOp34
 70
     1
102
RTVSPost2010Prop35
280
     0
102
RTVSPost2010PropOp35
 70
     1
102
RTVSPost2010Prop36
280
     0
102
RTVSPost2010PropOp36
 70
     1
102
RTVSPost2010Prop37
 90
       50
102
RTVSPost2010PropOp37
 70
     1
102
RTVSPost2010Prop38
140
0.0
102
RTVSPost2010PropOp38
 70
     1
102
RTVSPost2010Prop39
140
1.0
102
RTVSPost2010PropOp39
 70
     1
102
RTVSPost2010Prop40
 90
        0
102
RTVSPost2010PropOp40
 70
     1
102
RTVSPost2010Prop41ColorIndex
 90
       18
102
RTVSPost2010Prop41ColorRGB
 90
        0
102
RTVSPost2010PropOp41
 70
     1
102
RTVSPost2010Prop42
 90
       50
102
RTVSPost2010PropOp42
 70
     1
102
RTVSPost2010Prop43
 90
        3
102
RTVSPost2010PropOp43
 70
     1
102
RTVSPost2010Prop44ColorIndex
 90
        5
102
RTVSPost2010Prop44ColorRGB
 90
      255
102
RTVSPost2010PropOp44
 70
     1
102
RTVSPost2010Prop45
280
     0
102
RTVSPost2010PropOp45
 70
     1
102
RTVSPost2010Prop46
 90
       50
102
RTVSPost2010PropOp46
 70
     1
102
RTVSPost2010Prop47
 90
       50
102
RTVSPost2010PropOp47
 70
     1
102
RTVSPost2010Prop48
 90
       50
102
RTVSPost2010PropOp48
 70
     1
102
RTVSPost2010Prop49
280
     0
102
RTVSPost2010PropOp49
 70
     1
102
RTVSPost2010Prop50
 90
       50
102
RTVSPost2010PropOp50
 70
     1
102
RTVSPost2010Prop51ColorIndex
 90
      256
102
RTVSPost2010Prop51ColorRGB
 90
-16777216
102
RTVSPost2010PropOp51
 70
     0
102
RTVSPost2010Prop52
140
1.0
102
RTVSPost2010PropOp52
 70
     0
102
RTVSPost2010Prop53
 90
        2
102
RTVSPost2010PropOp53
 70
     1
102
RTVSPost2010Prop54
  1
strokes_ogs.tif
102
RTVSPost2010PropOp54
 70
     1
102
RTVSPost2010Prop55
280
     0
102
RTVSPost2010PropOp55
 70
     1
102
RTVSPost2010Prop56
140
1.0
102
RTVSPost2010PropOp56
 70
     1
102
RTVSPost2010Prop57
140
1.0
102
RTVSPost2010PropOp57
 70
     1
102
RTVSPropertyOp0
 70
     1
102
RTVSPropertyOp1
 70
     1
102
RTVSPropertyOp2
 70
     1
102
RTVSPropertyOp3
 70
     1
102
RTVSPropertyOp4
 70
     1
102
RTVSPropertyOp5
 70
     1
102
RTVSPropertyOp6
 70
     1
102
RTVSPropertyOp7
 70
     1
102
RTVSPropertyOp8
 70
     1
102
RTVSPropertyOp9
 70
     1
102
RTVSPropertyOp10
 70
     1
102
RTVSPropertyOp11
 70
     1
102
RTVSPropertyOp12
 70
     1
102
RTVSPropertyOp13
 70
     1
102
RTVSPropertyOp14
 70
     1
102
RTVSPropertyOp15
 70
     1
102
RTVSPropertyOp16
 70
     1
102
RTVSPropertyOp17
 70
     1
102
RTVSPropertyOp18
 70
     1
102
RTVSPropertyOp19
 70
     1
102
RTVSPropertyOp20
 70
     1
102
RTVSPropertyOp21
 70
     1
102
RTVSPropertyOp22
 70
     1
102
RTVSPropertyOp23
 70
     1
102
RTVSPropertyOp24
 70
     1
102
RTVSPropertyOp25
 70
     1
102
RTVSPropertyOp26
 70
     1
102
RTVSPropertyOp27
 70
     1
102
RTVSPropertyOp28
 70
     1
102
RTVSPropertyOp29
 70
     1
102
RTVSPropertyOp30
 70
     1
102
RTVSPropertyOp31
 70
     1
102
RTVSPropertyOp32
 70
     1
102
RTVSPropertyOp33
 70
     1
102
RTVSPropertyOp34
 70
     1
102
RTVSPropertyOp35
 70
     1
102
RTVSPropertyOp36
 70
     1
102
RTVSPropertyOp37
 70
     1
102
RTVSPropertyOp38
 70
     1
102
RTVSPropertyOp39
 70
     1
102
RTVSPropertyOp40
 70
     1
102
RTVSPropertyOp41
 70
     1
102
RTVSPropertyOp42
 70
     1
102
RTVSPropertyOp43
 70
     1
102
RTVSPropertyOp44
 70
     1
102
RTVSPropertyOp45
 70
     1
102
RTVSPropertyOp46
 70
     1
102
RTVSPropertyOp47
 70
     1
102
RTVSPropertyOp48
 70
     1
102
RTVSPropertyOp49
 70
     1
102
RTVSPropertyOp50
 70
     1
102
RTVSPropertyOp51
 70
     0
102
RTVSPropertyOp52
 70
     0
102
RTVSPropertyOp53
 70
     1
102
RTVSPropertyOp54
 70
     1
102
RTVSPropertyOp55
 70
     1
102
RTVSPropertyOp56
 70
     1
102
RTVSPropertyOp57
 70
     1
102
RTVSPropertyOp58
 70
     1
102
RTVSPropertyOp59
 70
     1
102
RTVSPropertyOp60
 70
     1
102
RTVSPropertyOp61
 70
     1
102
RTVSPropertyOp62
 70
     1
  0
XRECORD
  5
14BA
102
{ACAD_REACTORS
330
14B9
102
}
330
14B9
100
AcDbXrecord
280
     1
102
RTVSPost2010Prop28
280
     0
102
RTVSPost2010PropOp28
 70
     1
102
RTVSPost2010Prop29
280
     1
102
RTVSPost2010PropOp29
 70
     1
102
RTVSPost2010Prop30
280
     1
102
RTVSPost2010PropOp30
 70
     1
102
RTVSPost2010Prop31
280
     0
102
RTVSPost2010PropOp31
 70
     1
102
RTVSPost2010Prop32
280
     0
102
RTVSPost2010PropOp32
 70
     1
102
RTVSPost2010Prop33
280
     0
102
RTVSPost2010PropOp33
 70
     1
102
RTVSPost2010Prop34
280
     0
102
RTVSPost2010PropOp34
 70
     1
102
RTVSPost2010Prop35
280
     0
102
RTVSPost2010PropOp35
 70
     1
102
RTVSPost2010Prop36
280
     0
102
RTVSPost2010PropOp36
 70
     1
102
RTVSPost2010Prop37
 90
       50
102
RTVSPost2010PropOp37
 70
     1
102
RTVSPost2010Prop38
140
0.0
102
RTVSPost2010PropOp38
 70
     1
102
RTVSPost2010Prop39
140
1.0
102
RTVSPost2010PropOp39
 70
     1
102
RTVSPost2010Prop40
 90
        0
102
RTVSPost2010PropOp40
 70
     1
102
RTVSPost2010Prop41ColorIndex
 90
       18
102
RTVSPost2010Prop41ColorRGB
 90
        0
102
RTVSPost2010PropOp41
 70
     1
102
RTVSPost2010Prop42
 90
       50
102
RTVSPost2010PropOp42
 70
     1
102
RTVSPost2010Prop43
 90
        3
102
RTVSPost2010PropOp43
 70
     1
102
RTVSPost2010Prop44ColorIndex
 90
        5
102
RTVSPost2010Prop44ColorRGB
 90
      255
102
RTVSPost2010PropOp44
 70
     1
102
RTVSPost2010Prop45
280
     0
102
RTVSPost2010PropOp45
 70
     1
102
RTVSPost2010Prop46
 90
       50
102
RTVSPost2010PropOp46
 70
     1
102
RTVSPost2010Prop47
 90
       50
102
RTVSPost2010PropOp47
 70
     1
102
RTVSPost2010Prop48
 90
       50
102
RTVSPost2010PropOp48
 70
     1
102
RTVSPost2010Prop49
280
     0
102
RTVSPost2010PropOp49
 70
     1
102
RTVSPost2010Prop50
 90
       50
102
RTVSPost2010PropOp50
 70
     1
102
RTVSPost2010Prop51ColorIndex
 90
      256
102
RTVSPost2010Prop51ColorRGB
 90
-16777216
102
RTVSPost2010PropOp51
 70
     0
102
RTVSPost2010Prop52
140
1.0
102
RTVSPost2010PropOp52
 70
     0
102
RTVSPost2010Prop53
 90
        2
102
RTVSPost2010PropOp53
 70
     1
102
RTVSPost2010Prop54
  1
strokes_ogs.tif
102
RTVSPost2010PropOp54
 70
     1
102
RTVSPost2010Prop55
280
     0
102
RTVSPost2010PropOp55
 70
     1
102
RTVSPost2010Prop56
140
1.0
102
RTVSPost2010PropOp56
 70
     1
102
RTVSPost2010Prop57
140
1.0
102
RTVSPost2010PropOp57
 70
     1
102
RTVSPropertyOp0
 70
     1
102
RTVSPropertyOp1
 70
     1
102
RTVSPropertyOp2
 70
     1
102
RTVSPropertyOp3
 70
     1
102
RTVSPropertyOp4
 70
     1
102
RTVSPropertyOp5
 70
     1
102
RTVSPropertyOp6
 70
     1
102
RTVSPropertyOp7
 70
     1
102
RTVSPropertyOp8
 70
     1
102
RTVSPropertyOp9
 70
     1
102
RTVSPropertyOp10
 70
     1
102
RTVSPropertyOp11
 70
     1
102
RTVSPropertyOp12
 70
     1
102
RTVSPropertyOp13
 70
     1
102
RTVSPropertyOp14
 70
     1
102
RTVSPropertyOp15
 70
     1
102
RTVSPropertyOp16
 70
     1
102
RTVSPropertyOp17
 70
     1
102
RTVSPropertyOp18
 70
     1
102
RTVSPropertyOp19
 70
     1
102
RTVSPropertyOp20
 70
     1
102
RTVSPropertyOp21
 70
     1
102
RTVSPropertyOp22
 70
     1
102
RTVSPropertyOp23
 70
     1
102
RTVSPropertyOp24
 70
     1
102
RTVSPropertyOp25
 70
     1
102
RTVSPropertyOp26
 70
     1
102
RTVSPropertyOp27
 70
     1
102
RTVSPropertyOp28
 70
     1
102
RTVSPropertyOp29
 70
     1
102
RTVSPropertyOp30
 70
     1
102
RTVSPropertyOp31
 70
     1
102
RTVSPropertyOp32
 70
     1
102
RTVSPropertyOp33
 70
     1
102
RTVSPropertyOp34
 70
     1
102
RTVSPropertyOp35
 70
     1
102
RTVSPropertyOp36
 70
     1
102
RTVSPropertyOp37
 70
     1
102
RTVSPropertyOp38
 70
     1
102
RTVSPropertyOp39
 70
     1
102
RTVSPropertyOp40
 70
     1
102
RTVSPropertyOp41
 70
     1
102
RTVSPropertyOp42
 70
     1
102
RTVSPropertyOp43
 70
     1
102
RTVSPropertyOp44
 70
     1
102
RTVSPropertyOp45
 70
     1
102
RTVSPropertyOp46
 70
     1
102
RTVSPropertyOp47
 70
     1
102
RTVSPropertyOp48
 70
     1
102
RTVSPropertyOp49
 70
     1
102
RTVSPropertyOp50
 70
     1
102
RTVSPropertyOp51
 70
     0
102
RTVSPropertyOp52
 70
     0
102
RTVSPropertyOp53
 70
     1
102
RTVSPropertyOp54
 70
     1
102
RTVSPropertyOp55
 70
     1
102
RTVSPropertyOp56
 70
     1
102
RTVSPropertyOp57
 70
     1
102
RTVSPropertyOp58
 70
     1
102
RTVSPropertyOp59
 70
     1
102
RTVSPropertyOp60
 70
     1
102
RTVSPropertyOp61
 70
     1
102
RTVSPropertyOp62
 70
     1
  0
XRECORD
  5
14D6
102
{ACAD_REACTORS
330
14D5
102
}
330
14D5
100
AcDbXrecord
280
     1
102
RTVSPost2010Prop28
280
     0
102
RTVSPost2010PropOp28
 70
     1
102
RTVSPost2010Prop29
280
     1
102
RTVSPost2010PropOp29
 70
     1
102
RTVSPost2010Prop30
280
     1
102
RTVSPost2010PropOp30
 70
     1
102
RTVSPost2010Prop31
280
     0
102
RTVSPost2010PropOp31
 70
     1
102
RTVSPost2010Prop32
280
     0
102
RTVSPost2010PropOp32
 70
     1
102
RTVSPost2010Prop33
280
     0
102
RTVSPost2010PropOp33
 70
     1
102
RTVSPost2010Prop34
280
     0
102
RTVSPost2010PropOp34
 70
     1
102
RTVSPost2010Prop35
280
     0
102
RTVSPost2010PropOp35
 70
     1
102
RTVSPost2010Prop36
280
     0
102
RTVSPost2010PropOp36
 70
     1
102
RTVSPost2010Prop37
 90
       50
102
RTVSPost2010PropOp37
 70
     1
102
RTVSPost2010Prop38
140
0.0
102
RTVSPost2010PropOp38
 70
     1
102
RTVSPost2010Prop39
140
1.0
102
RTVSPost2010PropOp39
 70
     1
102
RTVSPost2010Prop40
 90
        0
102
RTVSPost2010PropOp40
 70
     1
102
RTVSPost2010Prop41ColorIndex
 90
       18
102
RTVSPost2010Prop41ColorRGB
 90
        0
102
RTVSPost2010PropOp41
 70
     1
102
RTVSPost2010Prop42
 90
       50
102
RTVSPost2010PropOp42
 70
     1
102
RTVSPost2010Prop43
 90
        3
102
RTVSPost2010PropOp43
 70
     1
102
RTVSPost2010Prop44ColorIndex
 90
        5
102
RTVSPost2010Prop44ColorRGB
 90
      255
102
RTVSPost2010PropOp44
 70
     1
102
RTVSPost2010Prop45
280
     0
102
RTVSPost2010PropOp45
 70
     1
102
RTVSPost2010Prop46
 90
       50
102
RTVSPost2010PropOp46
 70
     1
102
RTVSPost2010Prop47
 90
       50
102
RTVSPost2010PropOp47
 70
     1
102
RTVSPost2010Prop48
 90
       50
102
RTVSPost2010PropOp48
 70
     1
102
RTVSPost2010Prop49
280
     0
102
RTVSPost2010PropOp49
 70
     1
102
RTVSPost2010Prop50
 90
       50
102
RTVSPost2010PropOp50
 70
     1
102
RTVSPost2010Prop51ColorIndex
 90
      256
102
RTVSPost2010Prop51ColorRGB
 90
-16777216
102
RTVSPost2010PropOp51
 70
     0
102
RTVSPost2010Prop52
140
1.0
102
RTVSPost2010PropOp52
 70
     0
102
RTVSPost2010Prop53
 90
        2
102
RTVSPost2010PropOp53
 70
     1
102
RTVSPost2010Prop54
  1
strokes_ogs.tif
102
RTVSPost2010PropOp54
 70
     1
102
RTVSPost2010Prop55
280
     0
102
RTVSPost2010PropOp55
 70
     1
102
RTVSPost2010Prop56
140
1.0
102
RTVSPost2010PropOp56
 70
     1
102
RTVSPost2010Prop57
140
1.0
102
RTVSPost2010PropOp57
 70
     1
102
RTVSPropertyOp0
 70
     1
102
RTVSPropertyOp1
 70
     1
102
RTVSPropertyOp2
 70
     1
102
RTVSPropertyOp3
 70
     1
102
RTVSPropertyOp4
 70
     1
102
RTVSPropertyOp5
 70
     1
102
RTVSPropertyOp6
 70
     1
102
RTVSPropertyOp7
 70
     1
102
RTVSPropertyOp8
 70
     1
102
RTVSPropertyOp9
 70
     1
102
RTVSPropertyOp10
 70
     1
102
RTVSPropertyOp11
 70
     1
102
RTVSPropertyOp12
 70
     1
102
RTVSPropertyOp13
 70
     1
102
RTVSPropertyOp14
 70
     1
102
RTVSPropertyOp15
 70
     1
102
RTVSPropertyOp16
 70
     1
102
RTVSPropertyOp17
 70
     1
102
RTVSPropertyOp18
 70
     1
102
RTVSPropertyOp19
 70
     1
102
RTVSPropertyOp20
 70
     1
102
RTVSPropertyOp21
 70
     1
102
RTVSPropertyOp22
 70
     1
102
RTVSPropertyOp23
 70
     1
102
RTVSPropertyOp24
 70
     1
102
RTVSPropertyOp25
 70
     1
102
RTVSPropertyOp26
 70
     1
102
RTVSPropertyOp27
 70
     1
102
RTVSPropertyOp28
 70
     1
102
RTVSPropertyOp29
 70
     1
102
RTVSPropertyOp30
 70
     1
102
RTVSPropertyOp31
 70
     1
102
RTVSPropertyOp32
 70
     1
102
RTVSPropertyOp33
 70
     1
102
RTVSPropertyOp34
 70
     1
102
RTVSPropertyOp35
 70
     1
102
RTVSPropertyOp36
 70
     1
102
RTVSPropertyOp37
 70
     1
102
RTVSPropertyOp38
 70
     1
102
RTVSPropertyOp39
 70
     1
102
RTVSPropertyOp40
 70
     1
102
RTVSPropertyOp41
 70
     1
102
RTVSPropertyOp42
 70
     1
102
RTVSPropertyOp43
 70
     1
102
RTVSPropertyOp44
 70
     1
102
RTVSPropertyOp45
 70
     1
102
RTVSPropertyOp46
 70
     1
102
RTVSPropertyOp47
 70
     1
102
RTVSPropertyOp48
 70
     1
102
RTVSPropertyOp49
 70
     1
102
RTVSPropertyOp50
 70
     1
102
RTVSPropertyOp51
 70
     0
102
RTVSPropertyOp52
 70
     0
102
RTVSPropertyOp53
 70
     1
102
RTVSPropertyOp54
 70
     1
102
RTVSPropertyOp55
 70
     1
102
RTVSPropertyOp56
 70
     1
102
RTVSPropertyOp57
 70
     1
102
RTVSPropertyOp58
 70
     1
102
RTVSPropertyOp59
 70
     1
102
RTVSPropertyOp60
 70
     1
102
RTVSPropertyOp61
 70
     1
102
RTVSPropertyOp62
 70
     1
  0
XRECORD
  5
14E2
102
{ACAD_REACTORS
330
14E1
102
}
330
14E1
100
AcDbXrecord
280
     1
102
RTVSPost2010Prop28
280
     0
102
RTVSPost2010PropOp28
 70
     1
102
RTVSPost2010Prop29
280
     1
102
RTVSPost2010PropOp29
 70
     1
102
RTVSPost2010Prop30
280
     1
102
RTVSPost2010PropOp30
 70
     1
102
RTVSPost2010Prop31
280
     0
102
RTVSPost2010PropOp31
 70
     1
102
RTVSPost2010Prop32
280
     0
102
RTVSPost2010PropOp32
 70
     1
102
RTVSPost2010Prop33
280
     0
102
RTVSPost2010PropOp33
 70
     1
102
RTVSPost2010Prop34
280
     0
102
RTVSPost2010PropOp34
 70
     1
102
RTVSPost2010Prop35
280
     0
102
RTVSPost2010PropOp35
 70
     1
102
RTVSPost2010Prop36
280
     0
102
RTVSPost2010PropOp36
 70
     1
102
RTVSPost2010Prop37
 90
       50
102
RTVSPost2010PropOp37
 70
     0
102
RTVSPost2010Prop38
140
0.0
102
RTVSPost2010PropOp38
 70
     0
102
RTVSPost2010Prop39
140
1.0
102
RTVSPost2010PropOp39
 70
     0
102
RTVSPost2010Prop40
 90
        0
102
RTVSPost2010PropOp40
 70
     0
102
RTVSPost2010Prop41ColorIndex
 90
       18
102
RTVSPost2010Prop41ColorRGB
 90
        0
102
RTVSPost2010PropOp41
 70
     0
102
RTVSPost2010Prop42
 90
       50
102
RTVSPost2010PropOp42
 70
     0
102
RTVSPost2010Prop43
 90
        3
102
RTVSPost2010PropOp43
 70
     0
102
RTVSPost2010Prop44ColorIndex
 90
        5
102
RTVSPost2010Prop44ColorRGB
 90
      255
102
RTVSPost2010PropOp44
 70
     0
102
RTVSPost2010Prop45
280
     0
102
RTVSPost2010PropOp45
 70
     1
102
RTVSPost2010Prop46
 90
       50
102
RTVSPost2010PropOp46
 70
     0
102
RTVSPost2010Prop47
 90
       50
102
RTVSPost2010PropOp47
 70
     0
102
RTVSPost2010Prop48
 90
       50
102
RTVSPost2010PropOp48
 70
     0
102
RTVSPost2010Prop49
280
     0
102
RTVSPost2010PropOp49
 70
     1
102
RTVSPost2010Prop50
 90
       50
102
RTVSPost2010PropOp50
 70
     0
102
RTVSPost2010Prop51ColorIndex
 90
      256
102
RTVSPost2010Prop51ColorRGB
 90
-16777216
102
RTVSPost2010PropOp51
 70
     0
102
RTVSPost2010Prop52
140
1.0
102
RTVSPost2010PropOp52
 70
     0
102
RTVSPost2010Prop53
 90
        2
102
RTVSPost2010PropOp53
 70
     0
102
RTVSPost2010Prop54
  1
strokes_ogs.tif
102
RTVSPost2010PropOp54
 70
     0
102
RTVSPost2010Prop55
280
     0
102
RTVSPost2010PropOp55
 70
     1
102
RTVSPost2010Prop56
140
1.0
102
RTVSPost2010PropOp56
 70
     0
102
RTVSPost2010Prop57
140
1.0
102
RTVSPost2010PropOp57
 70
     0
102
RTVSPropertyOp0
 70
     0
102
RTVSPropertyOp1
 70
     0
102
RTVSPropertyOp2
 70
     0
102
RTVSPropertyOp3
 70
     0
102
RTVSPropertyOp4
 70
     0
102
RTVSPropertyOp5
 70
     0
102
RTVSPropertyOp6
 70
     0
102
RTVSPropertyOp7
 70
     0
102
RTVSPropertyOp8
 70
     0
102
RTVSPropertyOp9
 70
     0
102
RTVSPropertyOp10
 70
     0
102
RTVSPropertyOp11
 70
     0
102
RTVSPropertyOp12
 70
     0
102
RTVSPropertyOp13
 70
     0
102
RTVSPropertyOp14
 70
     2
102
RTVSPropertyOp15
 70
     0
102
RTVSPropertyOp16
 70
     0
102
RTVSPropertyOp17
 70
     0
102
RTVSPropertyOp18
 70
     0
102
RTVSPropertyOp19
 70
     0
102
RTVSPropertyOp20
 70
     0
102
RTVSPropertyOp21
 70
     0
102
RTVSPropertyOp22
 70
     0
102
RTVSPropertyOp23
 70
     0
102
RTVSPropertyOp24
 70
     0
102
RTVSPropertyOp25
 70
     0
102
RTVSPropertyOp26
 70
     0
102
RTVSPropertyOp27
 70
     0
102
RTVSPropertyOp28
 70
     1
102
RTVSPropertyOp29
 70
     1
102
RTVSPropertyOp30
 70
     1
102
RTVSPropertyOp31
 70
     1
102
RTVSPropertyOp32
 70
     1
102
RTVSPropertyOp33
 70
     1
102
RTVSPropertyOp34
 70
     1
102
RTVSPropertyOp35
 70
     1
102
RTVSPropertyOp36
 70
     1
102
RTVSPropertyOp37
 70
     0
102
RTVSPropertyOp38
 70
     0
102
RTVSPropertyOp39
 70
     0
102
RTVSPropertyOp40
 70
     0
102
RTVSPropertyOp41
 70
     0
102
RTVSPropertyOp42
 70
     0
102
RTVSPropertyOp43
 70
     0
102
RTVSPropertyOp44
 70
     0
102
RTVSPropertyOp45
 70
     1
102
RTVSPropertyOp46
 70
     0
102
RTVSPropertyOp47
 70
     0
102
RTVSPropertyOp48
 70
     0
102
RTVSPropertyOp49
 70
     1
102
RTVSPropertyOp50
 70
     0
102
RTVSPropertyOp51
 70
     0
102
RTVSPropertyOp52
 70
     0
102
RTVSPropertyOp53
 70
     0
102
RTVSPropertyOp54
 70
     0
102
RTVSPropertyOp55
 70
     1
102
RTVSPropertyOp56
 70
     0
102
RTVSPropertyOp57
 70
     0
102
RTVSPropertyOp58
 70
     0
102
RTVSPropertyOp59
 70
     0
102
RTVSPropertyOp60
 70
     0
102
RTVSPropertyOp61
 70
     0
102
RTVSPropertyOp62
 70
     0
  0
XRECORD
  5
14CE
102
{ACAD_REACTORS
330
14CD
102
}
330
14CD
100
AcDbXrecord
280
     1
102
RTVSPost2010Prop28
280
     0
102
RTVSPost2010PropOp28
 70
     1
102
RTVSPost2010Prop29
280
     1
102
RTVSPost2010PropOp29
 70
     1
102
RTVSPost2010Prop30
280
     1
102
RTVSPost2010PropOp30
 70
     1
102
RTVSPost2010Prop31
280
     0
102
RTVSPost2010PropOp31
 70
     1
102
RTVSPost2010Prop32
280
     0
102
RTVSPost2010PropOp32
 70
     1
102
RTVSPost2010Prop33
280
     0
102
RTVSPost2010PropOp33
 70
     1
102
RTVSPost2010Prop34
280
     0
102
RTVSPost2010PropOp34
 70
     1
102
RTVSPost2010Prop35
280
     0
102
RTVSPost2010PropOp35
 70
     1
102
RTVSPost2010Prop36
280
     0
102
RTVSPost2010PropOp36
 70
     1
102
RTVSPost2010Prop37
 90
       50
102
RTVSPost2010PropOp37
 70
     1
102
RTVSPost2010Prop38
140
0.0
102
RTVSPost2010PropOp38
 70
     1
102
RTVSPost2010Prop39
140
1.0
102
RTVSPost2010PropOp39
 70
     1
102
RTVSPost2010Prop40
 90
        0
102
RTVSPost2010PropOp40
 70
     1
102
RTVSPost2010Prop41ColorIndex
 90
       18
102
RTVSPost2010Prop41ColorRGB
 90
        0
102
RTVSPost2010PropOp41
 70
     1
102
RTVSPost2010Prop42
 90
       50
102
RTVSPost2010PropOp42
 70
     1
102
RTVSPost2010Prop43
 90
        3
102
RTVSPost2010PropOp43
 70
     1
102
RTVSPost2010Prop44ColorIndex
 90
        5
102
RTVSPost2010Prop44ColorRGB
 90
      255
102
RTVSPost2010PropOp44
 70
     1
102
RTVSPost2010Prop45
280
     0
102
RTVSPost2010PropOp45
 70
     1
102
RTVSPost2010Prop46
 90
       50
102
RTVSPost2010PropOp46
 70
     1
102
RTVSPost2010Prop47
 90
       50
102
RTVSPost2010PropOp47
 70
     1
102
RTVSPost2010Prop48
 90
       50
102
RTVSPost2010PropOp48
 70
     1
102
RTVSPost2010Prop49
280
     0
102
RTVSPost2010PropOp49
 70
     1
102
RTVSPost2010Prop50
 90
       50
102
RTVSPost2010PropOp50
 70
     1
102
RTVSPost2010Prop51ColorIndex
 90
      256
102
RTVSPost2010Prop51ColorRGB
 90
-16777216
102
RTVSPost2010PropOp51
 70
     0
102
RTVSPost2010Prop52
140
1.0
102
RTVSPost2010PropOp52
 70
     0
102
RTVSPost2010Prop53
 90
        2
102
RTVSPost2010PropOp53
 70
     1
102
RTVSPost2010Prop54
  1
strokes_ogs.tif
102
RTVSPost2010PropOp54
 70
     1
102
RTVSPost2010Prop55
280
     0
102
RTVSPost2010PropOp55
 70
     1
102
RTVSPost2010Prop56
140
1.0
102
RTVSPost2010PropOp56
 70
     1
102
RTVSPost2010Prop57
140
1.0
102
RTVSPost2010PropOp57
 70
     1
102
RTVSPropertyOp0
 70
     1
102
RTVSPropertyOp1
 70
     1
102
RTVSPropertyOp2
 70
     1
102
RTVSPropertyOp3
 70
     1
102
RTVSPropertyOp4
 70
     1
102
RTVSPropertyOp5
 70
     1
102
RTVSPropertyOp6
 70
     1
102
RTVSPropertyOp7
 70
     1
102
RTVSPropertyOp8
 70
     1
102
RTVSPropertyOp9
 70
     1
102
RTVSPropertyOp10
 70
     1
102
RTVSPropertyOp11
 70
     1
102
RTVSPropertyOp12
 70
     1
102
RTVSPropertyOp13
 70
     1
102
RTVSPropertyOp14
 70
     1
102
RTVSPropertyOp15
 70
     1
102
RTVSPropertyOp16
 70
     1
102
RTVSPropertyOp17
 70
     1
102
RTVSPropertyOp18
 70
     1
102
RTVSPropertyOp19
 70
     1
102
RTVSPropertyOp20
 70
     1
102
RTVSPropertyOp21
 70
     1
102
RTVSPropertyOp22
 70
     1
102
RTVSPropertyOp23
 70
     1
102
RTVSPropertyOp24
 70
     1
102
RTVSPropertyOp25
 70
     1
102
RTVSPropertyOp26
 70
     1
102
RTVSPropertyOp27
 70
     1
102
RTVSPropertyOp28
 70
     1
102
RTVSPropertyOp29
 70
     1
102
RTVSPropertyOp30
 70
     1
102
RTVSPropertyOp31
 70
     1
102
RTVSPropertyOp32
 70
     1
102
RTVSPropertyOp33
 70
     1
102
RTVSPropertyOp34
 70
     1
102
RTVSPropertyOp35
 70
     1
102
RTVSPropertyOp36
 70
     1
102
RTVSPropertyOp37
 70
     1
102
RTVSPropertyOp38
 70
     1
102
RTVSPropertyOp39
 70
     1
102
RTVSPropertyOp40
 70
     1
102
RTVSPropertyOp41
 70
     1
102
RTVSPropertyOp42
 70
     1
102
RTVSPropertyOp43
 70
     1
102
RTVSPropertyOp44
 70
     1
102
RTVSPropertyOp45
 70
     1
102
RTVSPropertyOp46
 70
     1
102
RTVSPropertyOp47
 70
     1
102
RTVSPropertyOp48
 70
     1
102
RTVSPropertyOp49
 70
     1
102
RTVSPropertyOp50
 70
     1
102
RTVSPropertyOp51
 70
     0
102
RTVSPropertyOp52
 70
     0
102
RTVSPropertyOp53
 70
     1
102
RTVSPropertyOp54
 70
     1
102
RTVSPropertyOp55
 70
     1
102
RTVSPropertyOp56
 70
     1
102
RTVSPropertyOp57
 70
     1
102
RTVSPropertyOp58
 70
     1
102
RTVSPropertyOp59
 70
     1
102
RTVSPropertyOp60
 70
     1
102
RTVSPropertyOp61
 70
     1
102
RTVSPropertyOp62
 70
     1
  0
XRECORD
  5
14E4
102
{ACAD_REACTORS
330
14E3
102
}
330
14E3
100
AcDbXrecord
280
     1
102
RTVSPost2010Prop28
280
     0
102
RTVSPost2010PropOp28
 70
     1
102
RTVSPost2010Prop29
280
     1
102
RTVSPost2010PropOp29
 70
     1
102
RTVSPost2010Prop30
280
     1
102
RTVSPost2010PropOp30
 70
     1
102
RTVSPost2010Prop31
280
     0
102
RTVSPost2010PropOp31
 70
     1
102
RTVSPost2010Prop32
280
     0
102
RTVSPost2010PropOp32
 70
     1
102
RTVSPost2010Prop33
280
     0
102
RTVSPost2010PropOp33
 70
     1
102
RTVSPost2010Prop34
280
     0
102
RTVSPost2010PropOp34
 70
     1
102
RTVSPost2010Prop35
280
     0
102
RTVSPost2010PropOp35
 70
     1
102
RTVSPost2010Prop36
280
     0
102
RTVSPost2010PropOp36
 70
     1
102
RTVSPost2010Prop37
 90
       50
102
RTVSPost2010PropOp37
 70
     0
102
RTVSPost2010Prop38
140
0.0
102
RTVSPost2010PropOp38
 70
     0
102
RTVSPost2010Prop39
140
1.0
102
RTVSPost2010PropOp39
 70
     0
102
RTVSPost2010Prop40
 90
        0
102
RTVSPost2010PropOp40
 70
     0
102
RTVSPost2010Prop41ColorIndex
 90
       18
102
RTVSPost2010Prop41ColorRGB
 90
        0
102
RTVSPost2010PropOp41
 70
     0
102
RTVSPost2010Prop42
 90
       50
102
RTVSPost2010PropOp42
 70
     0
102
RTVSPost2010Prop43
 90
        3
102
RTVSPost2010PropOp43
 70
     0
102
RTVSPost2010Prop44ColorIndex
 90
        5
102
RTVSPost2010Prop44ColorRGB
 90
      255
102
RTVSPost2010PropOp44
 70
     0
102
RTVSPost2010Prop45
280
     0
102
RTVSPost2010PropOp45
 70
     1
102
RTVSPost2010Prop46
 90
       50
102
RTVSPost2010PropOp46
 70
     0
102
RTVSPost2010Prop47
 90
       50
102
RTVSPost2010PropOp47
 70
     0
102
RTVSPost2010Prop48
 90
       50
102
RTVSPost2010PropOp48
 70
     0
102
RTVSPost2010Prop49
280
     0
102
RTVSPost2010PropOp49
 70
     1
102
RTVSPost2010Prop50
 90
       50
102
RTVSPost2010PropOp50
 70
     0
102
RTVSPost2010Prop51ColorIndex
 90
      256
102
RTVSPost2010Prop51ColorRGB
 90
-16777216
102
RTVSPost2010PropOp51
 70
     0
102
RTVSPost2010Prop52
140
1.0
102
RTVSPost2010PropOp52
 70
     0
102
RTVSPost2010Prop53
 90
        2
102
RTVSPost2010PropOp53
 70
     0
102
RTVSPost2010Prop54
  1
strokes_ogs.tif
102
RTVSPost2010PropOp54
 70
     0
102
RTVSPost2010Prop55
280
     0
102
RTVSPost2010PropOp55
 70
     1
102
RTVSPost2010Prop56
140
1.0
102
RTVSPost2010PropOp56
 70
     0
102
RTVSPost2010Prop57
140
1.0
102
RTVSPost2010PropOp57
 70
     0
102
RTVSPropertyOp0
 70
     0
102
RTVSPropertyOp1
 70
     0
102
RTVSPropertyOp2
 70
     0
102
RTVSPropertyOp3
 70
     0
102
RTVSPropertyOp4
 70
     0
102
RTVSPropertyOp5
 70
     0
102
RTVSPropertyOp6
 70
     0
102
RTVSPropertyOp7
 70
     0
102
RTVSPropertyOp8
 70
     0
102
RTVSPropertyOp9
 70
     0
102
RTVSPropertyOp10
 70
     0
102
RTVSPropertyOp11
 70
     0
102
RTVSPropertyOp12
 70
     0
102
RTVSPropertyOp13
 70
     0
102
RTVSPropertyOp14
 70
     2
102
RTVSPropertyOp15
 70
     0
102
RTVSPropertyOp16
 70
     0
102
RTVSPropertyOp17
 70
     0
102
RTVSPropertyOp18
 70
     0
102
RTVSPropertyOp19
 70
     0
102
RTVSPropertyOp20
 70
     0
102
RTVSPropertyOp21
 70
     0
102
RTVSPropertyOp22
 70
     0
102
RTVSPropertyOp23
 70
     0
102
RTVSPropertyOp24
 70
     0
102
RTVSPropertyOp25
 70
     0
102
RTVSPropertyOp26
 70
     0
102
RTVSPropertyOp27
 70
     0
102
RTVSPropertyOp28
 70
     1
102
RTVSPropertyOp29
 70
     1
102
RTVSPropertyOp30
 70
     1
102
RTVSPropertyOp31
 70
     1
102
RTVSPropertyOp32
 70
     1
102
RTVSPropertyOp33
 70
     1
102
RTVSPropertyOp34
 70
     1
102
RTVSPropertyOp35
 70
     1
102
RTVSPropertyOp36
 70
     1
102
RTVSPropertyOp37
 70
     0
102
RTVSPropertyOp38
 70
     0
102
RTVSPropertyOp39
 70
     0
102
RTVSPropertyOp40
 70
     0
102
RTVSPropertyOp41
 70
     0
102
RTVSPropertyOp42
 70
     0
102
RTVSPropertyOp43
 70
     0
102
RTVSPropertyOp44
 70
     0
102
RTVSPropertyOp45
 70
     1
102
RTVSPropertyOp46
 70
     0
102
RTVSPropertyOp47
 70
     0
102
RTVSPropertyOp48
 70
     0
102
RTVSPropertyOp49
 70
     1
102
RTVSPropertyOp50
 70
     0
102
RTVSPropertyOp51
 70
     0
102
RTVSPropertyOp52
 70
     0
102
RTVSPropertyOp53
 70
     0
102
RTVSPropertyOp54
 70
     0
102
RTVSPropertyOp55
 70
     1
102
RTVSPropertyOp56
 70
     0
102
RTVSPropertyOp57
 70
     0
102
RTVSPropertyOp58
 70
     0
102
RTVSPropertyOp59
 70
     0
102
RTVSPropertyOp60
 70
     0
102
RTVSPropertyOp61
 70
     0
102
RTVSPropertyOp62
 70
     0
  0
XRECORD
  5
14C6
102
{ACAD_REACTORS
330
14C5
102
}
330
14C5
100
AcDbXrecord
280
     1
102
RTVSPost2010Prop28
280
     0
102
RTVSPost2010PropOp28
 70
     1
102
RTVSPost2010Prop29
280
     1
102
RTVSPost2010PropOp29
 70
     1
102
RTVSPost2010Prop30
280
     1
102
RTVSPost2010PropOp30
 70
     1
102
RTVSPost2010Prop31
280
     0
102
RTVSPost2010PropOp31
 70
     1
102
RTVSPost2010Prop32
280
     0
102
RTVSPost2010PropOp32
 70
     1
102
RTVSPost2010Prop33
280
     0
102
RTVSPost2010PropOp33
 70
     1
102
RTVSPost2010Prop34
280
     0
102
RTVSPost2010PropOp34
 70
     1
102
RTVSPost2010Prop35
280
     0
102
RTVSPost2010PropOp35
 70
     1
102
RTVSPost2010Prop36
280
     0
102
RTVSPost2010PropOp36
 70
     1
102
RTVSPost2010Prop37
 90
       50
102
RTVSPost2010PropOp37
 70
     1
102
RTVSPost2010Prop38
140
0.0
102
RTVSPost2010PropOp38
 70
     1
102
RTVSPost2010Prop39
140
1.0
102
RTVSPost2010PropOp39
 70
     1
102
RTVSPost2010Prop40
 90
        0
102
RTVSPost2010PropOp40
 70
     1
102
RTVSPost2010Prop41ColorIndex
 90
       18
102
RTVSPost2010Prop41ColorRGB
 90
        0
102
RTVSPost2010PropOp41
 70
     1
102
RTVSPost2010Prop42
 90
       50
102
RTVSPost2010PropOp42
 70
     1
102
RTVSPost2010Prop43
 90
        3
102
RTVSPost2010PropOp43
 70
     1
102
RTVSPost2010Prop44ColorIndex
 90
        5
102
RTVSPost2010Prop44ColorRGB
 90
      255
102
RTVSPost2010PropOp44
 70
     1
102
RTVSPost2010Prop45
280
     0
102
RTVSPost2010PropOp45
 70
     1
102
RTVSPost2010Prop46
 90
       50
102
RTVSPost2010PropOp46
 70
     1
102
RTVSPost2010Prop47
 90
       50
102
RTVSPost2010PropOp47
 70
     1
102
RTVSPost2010Prop48
 90
       50
102
RTVSPost2010PropOp48
 70
     1
102
RTVSPost2010Prop49
280
     0
102
RTVSPost2010PropOp49
 70
     1
102
RTVSPost2010Prop50
 90
       50
102
RTVSPost2010PropOp50
 70
     1
102
RTVSPost2010Prop51ColorIndex
 90
      256
102
RTVSPost2010Prop51ColorRGB
 90
-16777216
102
RTVSPost2010PropOp51
 70
     0
102
RTVSPost2010Prop52
140
1.0
102
RTVSPost2010PropOp52
 70
     0
102
RTVSPost2010Prop53
 90
        2
102
RTVSPost2010PropOp53
 70
     1
102
RTVSPost2010Prop54
  1
strokes_ogs.tif
102
RTVSPost2010PropOp54
 70
     1
102
RTVSPost2010Prop55
280
     0
102
RTVSPost2010PropOp55
 70
     1
102
RTVSPost2010Prop56
140
1.0
102
RTVSPost2010PropOp56
 70
     1
102
RTVSPost2010Prop57
140
1.0
102
RTVSPost2010PropOp57
 70
     1
102
RTVSPropertyOp0
 70
     1
102
RTVSPropertyOp1
 70
     1
102
RTVSPropertyOp2
 70
     1
102
RTVSPropertyOp3
 70
     1
102
RTVSPropertyOp4
 70
     1
102
RTVSPropertyOp5
 70
     1
102
RTVSPropertyOp6
 70
     1
102
RTVSPropertyOp7
 70
     1
102
RTVSPropertyOp8
 70
     1
102
RTVSPropertyOp9
 70
     1
102
RTVSPropertyOp10
 70
     1
102
RTVSPropertyOp11
 70
     1
102
RTVSPropertyOp12
 70
     1
102
RTVSPropertyOp13
 70
     1
102
RTVSPropertyOp14
 70
     1
102
RTVSPropertyOp15
 70
     1
102
RTVSPropertyOp16
 70
     1
102
RTVSPropertyOp17
 70
     1
102
RTVSPropertyOp18
 70
     1
102
RTVSPropertyOp19
 70
     1
102
RTVSPropertyOp20
 70
     1
102
RTVSPropertyOp21
 70
     1
102
RTVSPropertyOp22
 70
     1
102
RTVSPropertyOp23
 70
     1
102
RTVSPropertyOp24
 70
     1
102
RTVSPropertyOp25
 70
     1
102
RTVSPropertyOp26
 70
     1
102
RTVSPropertyOp27
 70
     1
102
RTVSPropertyOp28
 70
     1
102
RTVSPropertyOp29
 70
     1
102
RTVSPropertyOp30
 70
     1
102
RTVSPropertyOp31
 70
     1
102
RTVSPropertyOp32
 70
     1
102
RTVSPropertyOp33
 70
     1
102
RTVSPropertyOp34
 70
     1
102
RTVSPropertyOp35
 70
     1
102
RTVSPropertyOp36
 70
     1
102
RTVSPropertyOp37
 70
     1
102
RTVSPropertyOp38
 70
     1
102
RTVSPropertyOp39
 70
     1
102
RTVSPropertyOp40
 70
     1
102
RTVSPropertyOp41
 70
     1
102
RTVSPropertyOp42
 70
     1
102
RTVSPropertyOp43
 70
     1
102
RTVSPropertyOp44
 70
     1
102
RTVSPropertyOp45
 70
     1
102
RTVSPropertyOp46
 70
     1
102
RTVSPropertyOp47
 70
     1
102
RTVSPropertyOp48
 70
     1
102
RTVSPropertyOp49
 70
     1
102
RTVSPropertyOp50
 70
     1
102
RTVSPropertyOp51
 70
     0
102
RTVSPropertyOp52
 70
     0
102
RTVSPropertyOp53
 70
     1
102
RTVSPropertyOp54
 70
     1
102
RTVSPropertyOp55
 70
     1
102
RTVSPropertyOp56
 70
     1
102
RTVSPropertyOp57
 70
     1
102
RTVSPropertyOp58
 70
     1
102
RTVSPropertyOp59
 70
     1
102
RTVSPropertyOp60
 70
     1
102
RTVSPropertyOp61
 70
     1
102
RTVSPropertyOp62
 70
     1
  0
XRECORD
  5
14E0
102
{ACAD_REACTORS
330
14DF
102
}
330
14DF
100
AcDbXrecord
280
     1
102
RTVSPost2010Prop28
280
     0
102
RTVSPost2010PropOp28
 70
     1
102
RTVSPost2010Prop29
280
     1
102
RTVSPost2010PropOp29
 70
     1
102
RTVSPost2010Prop30
280
     1
102
RTVSPost2010PropOp30
 70
     1
102
RTVSPost2010Prop31
280
     0
102
RTVSPost2010PropOp31
 70
     1
102
RTVSPost2010Prop32
280
     0
102
RTVSPost2010PropOp32
 70
     1
102
RTVSPost2010Prop33
280
     0
102
RTVSPost2010PropOp33
 70
     1
102
RTVSPost2010Prop34
280
     0
102
RTVSPost2010PropOp34
 70
     1
102
RTVSPost2010Prop35
280
     0
102
RTVSPost2010PropOp35
 70
     1
102
RTVSPost2010Prop36
280
     0
102
RTVSPost2010PropOp36
 70
     1
102
RTVSPost2010Prop37
 90
       50
102
RTVSPost2010PropOp37
 70
     1
102
RTVSPost2010Prop38
140
0.0
102
RTVSPost2010PropOp38
 70
     1
102
RTVSPost2010Prop39
140
1.0
102
RTVSPost2010PropOp39
 70
     1
102
RTVSPost2010Prop40
 90
        0
102
RTVSPost2010PropOp40
 70
     1
102
RTVSPost2010Prop41ColorIndex
 90
       18
102
RTVSPost2010Prop41ColorRGB
 90
        0
102
RTVSPost2010PropOp41
 70
     1
102
RTVSPost2010Prop42
 90
       50
102
RTVSPost2010PropOp42
 70
     1
102
RTVSPost2010Prop43
 90
        3
102
RTVSPost2010PropOp43
 70
     1
102
RTVSPost2010Prop44ColorIndex
 90
        5
102
RTVSPost2010Prop44ColorRGB
 90
      255
102
RTVSPost2010PropOp44
 70
     1
102
RTVSPost2010Prop45
280
     0
102
RTVSPost2010PropOp45
 70
     1
102
RTVSPost2010Prop46
 90
       50
102
RTVSPost2010PropOp46
 70
     1
102
RTVSPost2010Prop47
 90
       50
102
RTVSPost2010PropOp47
 70
     1
102
RTVSPost2010Prop48
 90
       50
102
RTVSPost2010PropOp48
 70
     1
102
RTVSPost2010Prop49
280
     0
102
RTVSPost2010PropOp49
 70
     1
102
RTVSPost2010Prop50
 90
       50
102
RTVSPost2010PropOp50
 70
     1
102
RTVSPost2010Prop51ColorIndex
 90
      256
102
RTVSPost2010Prop51ColorRGB
 90
-16777216
102
RTVSPost2010PropOp51
 70
     0
102
RTVSPost2010Prop52
140
1.0
102
RTVSPost2010PropOp52
 70
     0
102
RTVSPost2010Prop53
 90
        2
102
RTVSPost2010PropOp53
 70
     1
102
RTVSPost2010Prop54
  1
strokes_ogs.tif
102
RTVSPost2010PropOp54
 70
     1
102
RTVSPost2010Prop55
280
     0
102
RTVSPost2010PropOp55
 70
     1
102
RTVSPost2010Prop56
140
1.0
102
RTVSPost2010PropOp56
 70
     1
102
RTVSPost2010Prop57
140
1.0
102
RTVSPost2010PropOp57
 70
     1
102
RTVSPropertyOp0
 70
     1
102
RTVSPropertyOp1
 70
     1
102
RTVSPropertyOp2
 70
     1
102
RTVSPropertyOp3
 70
     1
102
RTVSPropertyOp4
 70
     1
102
RTVSPropertyOp5
 70
     1
102
RTVSPropertyOp6
 70
     1
102
RTVSPropertyOp7
 70
     1
102
RTVSPropertyOp8
 70
     1
102
RTVSPropertyOp9
 70
     1
102
RTVSPropertyOp10
 70
     1
102
RTVSPropertyOp11
 70
     1
102
RTVSPropertyOp12
 70
     1
102
RTVSPropertyOp13
 70
     1
102
RTVSPropertyOp14
 70
     1
102
RTVSPropertyOp15
 70
     1
102
RTVSPropertyOp16
 70
     1
102
RTVSPropertyOp17
 70
     1
102
RTVSPropertyOp18
 70
     1
102
RTVSPropertyOp19
 70
     1
102
RTVSPropertyOp20
 70
     1
102
RTVSPropertyOp21
 70
     1
102
RTVSPropertyOp22
 70
     1
102
RTVSPropertyOp23
 70
     1
102
RTVSPropertyOp24
 70
     1
102
RTVSPropertyOp25
 70
     1
102
RTVSPropertyOp26
 70
     1
102
RTVSPropertyOp27
 70
     1
102
RTVSPropertyOp28
 70
     1
102
RTVSPropertyOp29
 70
     1
102
RTVSPropertyOp30
 70
     1
102
RTVSPropertyOp31
 70
     1
102
RTVSPropertyOp32
 70
     1
102
RTVSPropertyOp33
 70
     1
102
RTVSPropertyOp34
 70
     1
102
RTVSPropertyOp35
 70
     1
102
RTVSPropertyOp36
 70
     1
102
RTVSPropertyOp37
 70
     1
102
RTVSPropertyOp38
 70
     1
102
RTVSPropertyOp39
 70
     1
102
RTVSPropertyOp40
 70
     1
102
RTVSPropertyOp41
 70
     1
102
RTVSPropertyOp42
 70
     1
102
RTVSPropertyOp43
 70
     1
102
RTVSPropertyOp44
 70
     1
102
RTVSPropertyOp45
 70
     1
102
RTVSPropertyOp46
 70
     1
102
RTVSPropertyOp47
 70
     1
102
RTVSPropertyOp48
 70
     1
102
RTVSPropertyOp49
 70
     1
102
RTVSPropertyOp50
 70
     1
102
RTVSPropertyOp51
 70
     0
102
RTVSPropertyOp52
 70
     0
102
RTVSPropertyOp53
 70
     1
102
RTVSPropertyOp54
 70
     1
102
RTVSPropertyOp55
 70
     1
102
RTVSPropertyOp56
 70
     1
102
RTVSPropertyOp57
 70
     1
102
RTVSPropertyOp58
 70
     1
102
RTVSPropertyOp59
 70
     1
102
RTVSPropertyOp60
 70
     1
102
RTVSPropertyOp61
 70
     1
102
RTVSPropertyOp62
 70
     1
  0
XRECORD
  5
14DE
102
{ACAD_REACTORS
330
14DD
102
}
330
14DD
100
AcDbXrecord
280
     1
102
RTVSPost2010Prop28
280
     0
102
RTVSPost2010PropOp28
 70
     1
102
RTVSPost2010Prop29
280
     1
102
RTVSPost2010PropOp29
 70
     1
102
RTVSPost2010Prop30
280
     1
102
RTVSPost2010PropOp30
 70
     1
102
RTVSPost2010Prop31
280
     0
102
RTVSPost2010PropOp31
 70
     1
102
RTVSPost2010Prop32
280
     0
102
RTVSPost2010PropOp32
 70
     1
102
RTVSPost2010Prop33
280
     0
102
RTVSPost2010PropOp33
 70
     1
102
RTVSPost2010Prop34
280
     0
102
RTVSPost2010PropOp34
 70
     1
102
RTVSPost2010Prop35
280
     0
102
RTVSPost2010PropOp35
 70
     1
102
RTVSPost2010Prop36
280
     0
102
RTVSPost2010PropOp36
 70
     1
102
RTVSPost2010Prop37
 90
       50
102
RTVSPost2010PropOp37
 70
     1
102
RTVSPost2010Prop38
140
0.0
102
RTVSPost2010PropOp38
 70
     1
102
RTVSPost2010Prop39
140
1.0
102
RTVSPost2010PropOp39
 70
     1
102
RTVSPost2010Prop40
 90
        0
102
RTVSPost2010PropOp40
 70
     1
102
RTVSPost2010Prop41ColorIndex
 90
       18
102
RTVSPost2010Prop41ColorRGB
 90
        0
102
RTVSPost2010PropOp41
 70
     1
102
RTVSPost2010Prop42
 90
       50
102
RTVSPost2010PropOp42
 70
     1
102
RTVSPost2010Prop43
 90
        3
102
RTVSPost2010PropOp43
 70
     1
102
RTVSPost2010Prop44ColorIndex
 90
        5
102
RTVSPost2010Prop44ColorRGB
 90
      255
102
RTVSPost2010PropOp44
 70
     1
102
RTVSPost2010Prop45
280
     0
102
RTVSPost2010PropOp45
 70
     1
102
RTVSPost2010Prop46
 90
       50
102
RTVSPost2010PropOp46
 70
     1
102
RTVSPost2010Prop47
 90
       50
102
RTVSPost2010PropOp47
 70
     1
102
RTVSPost2010Prop48
 90
       50
102
RTVSPost2010PropOp48
 70
     1
102
RTVSPost2010Prop49
280
     0
102
RTVSPost2010PropOp49
 70
     1
102
RTVSPost2010Prop50
 90
       50
102
RTVSPost2010PropOp50
 70
     1
102
RTVSPost2010Prop51ColorIndex
 90
      256
102
RTVSPost2010Prop51ColorRGB
 90
-16777216
102
RTVSPost2010PropOp51
 70
     0
102
RTVSPost2010Prop52
140
1.0
102
RTVSPost2010PropOp52
 70
     0
102
RTVSPost2010Prop53
 90
        2
102
RTVSPost2010PropOp53
 70
     1
102
RTVSPost2010Prop54
  1
strokes_ogs.tif
102
RTVSPost2010PropOp54
 70
     1
102
RTVSPost2010Prop55
280
     0
102
RTVSPost2010PropOp55
 70
     1
102
RTVSPost2010Prop56
140
1.0
102
RTVSPost2010PropOp56
 70
     1
102
RTVSPost2010Prop57
140
1.0
102
RTVSPost2010PropOp57
 70
     1
102
RTVSPropertyOp0
 70
     1
102
RTVSPropertyOp1
 70
     1
102
RTVSPropertyOp2
 70
     1
102
RTVSPropertyOp3
 70
     1
102
RTVSPropertyOp4
 70
     1
102
RTVSPropertyOp5
 70
     1
102
RTVSPropertyOp6
 70
     1
102
RTVSPropertyOp7
 70
     1
102
RTVSPropertyOp8
 70
     1
102
RTVSPropertyOp9
 70
     1
102
RTVSPropertyOp10
 70
     1
102
RTVSPropertyOp11
 70
     1
102
RTVSPropertyOp12
 70
     1
102
RTVSPropertyOp13
 70
     1
102
RTVSPropertyOp14
 70
     1
102
RTVSPropertyOp15
 70
     1
102
RTVSPropertyOp16
 70
     1
102
RTVSPropertyOp17
 70
     1
102
RTVSPropertyOp18
 70
     1
102
RTVSPropertyOp19
 70
     1
102
RTVSPropertyOp20
 70
     1
102
RTVSPropertyOp21
 70
     1
102
RTVSPropertyOp22
 70
     1
102
RTVSPropertyOp23
 70
     1
102
RTVSPropertyOp24
 70
     1
102
RTVSPropertyOp25
 70
     1
102
RTVSPropertyOp26
 70
     1
102
RTVSPropertyOp27
 70
     1
102
RTVSPropertyOp28
 70
     1
102
RTVSPropertyOp29
 70
     1
102
RTVSPropertyOp30
 70
     1
102
RTVSPropertyOp31
 70
     1
102
RTVSPropertyOp32
 70
     1
102
RTVSPropertyOp33
 70
     1
102
RTVSPropertyOp34
 70
     1
102
RTVSPropertyOp35
 70
     1
102
RTVSPropertyOp36
 70
     1
102
RTVSPropertyOp37
 70
     1
102
RTVSPropertyOp38
 70
     1
102
RTVSPropertyOp39
 70
     1
102
RTVSPropertyOp40
 70
     1
102
RTVSPropertyOp41
 70
     1
102
RTVSPropertyOp42
 70
     1
102
RTVSPropertyOp43
 70
     1
102
RTVSPropertyOp44
 70
     1
102
RTVSPropertyOp45
 70
     1
102
RTVSPropertyOp46
 70
     1
102
RTVSPropertyOp47
 70
     1
102
RTVSPropertyOp48
 70
     1
102
RTVSPropertyOp49
 70
     1
102
RTVSPropertyOp50
 70
     1
102
RTVSPropertyOp51
 70
     0
102
RTVSPropertyOp52
 70
     0
102
RTVSPropertyOp53
 70
     1
102
RTVSPropertyOp54
 70
     1
102
RTVSPropertyOp55
 70
     1
102
RTVSPropertyOp56
 70
     1
102
RTVSPropertyOp57
 70
     1
102
RTVSPropertyOp58
 70
     1
102
RTVSPropertyOp59
 70
     1
102
RTVSPropertyOp60
 70
     1
102
RTVSPropertyOp61
 70
     1
102
RTVSPropertyOp62
 70
     1
  0
XRECORD
  5
14D8
102
{ACAD_REACTORS
330
14D7
102
}
330
14D7
100
AcDbXrecord
280
     1
102
RTVSPost2010Prop28
280
     0
102
RTVSPost2010PropOp28
 70
     1
102
RTVSPost2010Prop29
280
     1
102
RTVSPost2010PropOp29
 70
     1
102
RTVSPost2010Prop30
280
     1
102
RTVSPost2010PropOp30
 70
     1
102
RTVSPost2010Prop31
280
     0
102
RTVSPost2010PropOp31
 70
     1
102
RTVSPost2010Prop32
280
     0
102
RTVSPost2010PropOp32
 70
     1
102
RTVSPost2010Prop33
280
     0
102
RTVSPost2010PropOp33
 70
     1
102
RTVSPost2010Prop34
280
     0
102
RTVSPost2010PropOp34
 70
     1
102
RTVSPost2010Prop35
280
     0
102
RTVSPost2010PropOp35
 70
     1
102
RTVSPost2010Prop36
280
     0
102
RTVSPost2010PropOp36
 70
     1
102
RTVSPost2010Prop37
 90
       50
102
RTVSPost2010PropOp37
 70
     1
102
RTVSPost2010Prop38
140
0.0
102
RTVSPost2010PropOp38
 70
     1
102
RTVSPost2010Prop39
140
1.0
102
RTVSPost2010PropOp39
 70
     1
102
RTVSPost2010Prop40
 90
        0
102
RTVSPost2010PropOp40
 70
     1
102
RTVSPost2010Prop41ColorIndex
 90
       18
102
RTVSPost2010Prop41ColorRGB
 90
        0
102
RTVSPost2010PropOp41
 70
     1
102
RTVSPost2010Prop42
 90
       50
102
RTVSPost2010PropOp42
 70
     1
102
RTVSPost2010Prop43
 90
        3
102
RTVSPost2010PropOp43
 70
     1
102
RTVSPost2010Prop44ColorIndex
 90
        5
102
RTVSPost2010Prop44ColorRGB
 90
      255
102
RTVSPost2010PropOp44
 70
     1
102
RTVSPost2010Prop45
280
     0
102
RTVSPost2010PropOp45
 70
     1
102
RTVSPost2010Prop46
 90
       50
102
RTVSPost2010PropOp46
 70
     1
102
RTVSPost2010Prop47
 90
       50
102
RTVSPost2010PropOp47
 70
     1
102
RTVSPost2010Prop48
 90
       50
102
RTVSPost2010PropOp48
 70
     1
102
RTVSPost2010Prop49
280
     0
102
RTVSPost2010PropOp49
 70
     1
102
RTVSPost2010Prop50
 90
       50
102
RTVSPost2010PropOp50
 70
     1
102
RTVSPost2010Prop51ColorIndex
 90
      256
102
RTVSPost2010Prop51ColorRGB
 90
-16777216
102
RTVSPost2010PropOp51
 70
     0
102
RTVSPost2010Prop52
140
1.0
102
RTVSPost2010PropOp52
 70
     0
102
RTVSPost2010Prop53
 90
        2
102
RTVSPost2010PropOp53
 70
     1
102
RTVSPost2010Prop54
  1
strokes_ogs.tif
102
RTVSPost2010PropOp54
 70
     1
102
RTVSPost2010Prop55
280
     0
102
RTVSPost2010PropOp55
 70
     1
102
RTVSPost2010Prop56
140
1.0
102
RTVSPost2010PropOp56
 70
     1
102
RTVSPost2010Prop57
140
1.0
102
RTVSPost2010PropOp57
 70
     1
102
RTVSPropertyOp0
 70
     1
102
RTVSPropertyOp1
 70
     1
102
RTVSPropertyOp2
 70
     1
102
RTVSPropertyOp3
 70
     1
102
RTVSPropertyOp4
 70
     1
102
RTVSPropertyOp5
 70
     1
102
RTVSPropertyOp6
 70
     1
102
RTVSPropertyOp7
 70
     1
102
RTVSPropertyOp8
 70
     1
102
RTVSPropertyOp9
 70
     1
102
RTVSPropertyOp10
 70
     1
102
RTVSPropertyOp11
 70
     1
102
RTVSPropertyOp12
 70
     1
102
RTVSPropertyOp13
 70
     1
102
RTVSPropertyOp14
 70
     1
102
RTVSPropertyOp15
 70
     1
102
RTVSPropertyOp16
 70
     1
102
RTVSPropertyOp17
 70
     1
102
RTVSPropertyOp18
 70
     1
102
RTVSPropertyOp19
 70
     1
102
RTVSPropertyOp20
 70
     1
102
RTVSPropertyOp21
 70
     1
102
RTVSPropertyOp22
 70
     1
102
RTVSPropertyOp23
 70
     1
102
RTVSPropertyOp24
 70
     1
102
RTVSPropertyOp25
 70
     1
102
RTVSPropertyOp26
 70
     1
102
RTVSPropertyOp27
 70
     1
102
RTVSPropertyOp28
 70
     1
102
RTVSPropertyOp29
 70
     1
102
RTVSPropertyOp30
 70
     1
102
RTVSPropertyOp31
 70
     1
102
RTVSPropertyOp32
 70
     1
102
RTVSPropertyOp33
 70
     1
102
RTVSPropertyOp34
 70
     1
102
RTVSPropertyOp35
 70
     1
102
RTVSPropertyOp36
 70
     1
102
RTVSPropertyOp37
 70
     1
102
RTVSPropertyOp38
 70
     1
102
RTVSPropertyOp39
 70
     1
102
RTVSPropertyOp40
 70
     1
102
RTVSPropertyOp41
 70
     1
102
RTVSPropertyOp42
 70
     1
102
RTVSPropertyOp43
 70
     1
102
RTVSPropertyOp44
 70
     1
102
RTVSPropertyOp45
 70
     1
102
RTVSPropertyOp46
 70
     1
102
RTVSPropertyOp47
 70
     1
102
RTVSPropertyOp48
 70
     1
102
RTVSPropertyOp49
 70
     1
102
RTVSPropertyOp50
 70
     1
102
RTVSPropertyOp51
 70
     0
102
RTVSPropertyOp52
 70
     0
102
RTVSPropertyOp53
 70
     1
102
RTVSPropertyOp54
 70
     1
102
RTVSPropertyOp55
 70
     1
102
RTVSPropertyOp56
 70
     1
102
RTVSPropertyOp57
 70
     1
102
RTVSPropertyOp58
 70
     1
102
RTVSPropertyOp59
 70
     1
102
RTVSPropertyOp60
 70
     1
102
RTVSPropertyOp61
 70
     1
102
RTVSPropertyOp62
 70
     1
  0
XRECORD
  5
14DA
102
{ACAD_REACTORS
330
14D9
102
}
330
14D9
100
AcDbXrecord
280
     1
102
RTVSPost2010Prop28
280
     0
102
RTVSPost2010PropOp28
 70
     1
102
RTVSPost2010Prop29
280
     1
102
RTVSPost2010PropOp29
 70
     1
102
RTVSPost2010Prop30
280
     1
102
RTVSPost2010PropOp30
 70
     1
102
RTVSPost2010Prop31
280
     0
102
RTVSPost2010PropOp31
 70
     1
102
RTVSPost2010Prop32
280
     0
102
RTVSPost2010PropOp32
 70
     1
102
RTVSPost2010Prop33
280
     0
102
RTVSPost2010PropOp33
 70
     1
102
RTVSPost2010Prop34
280
     0
102
RTVSPost2010PropOp34
 70
     1
102
RTVSPost2010Prop35
280
     0
102
RTVSPost2010PropOp35
 70
     1
102
RTVSPost2010Prop36
280
     0
102
RTVSPost2010PropOp36
 70
     1
102
RTVSPost2010Prop37
 90
       50
102
RTVSPost2010PropOp37
 70
     1
102
RTVSPost2010Prop38
140
0.0
102
RTVSPost2010PropOp38
 70
     1
102
RTVSPost2010Prop39
140
1.0
102
RTVSPost2010PropOp39
 70
     1
102
RTVSPost2010Prop40
 90
        0
102
RTVSPost2010PropOp40
 70
     1
102
RTVSPost2010Prop41ColorIndex
 90
       18
102
RTVSPost2010Prop41ColorRGB
 90
        0
102
RTVSPost2010PropOp41
 70
     1
102
RTVSPost2010Prop42
 90
       50
102
RTVSPost2010PropOp42
 70
     1
102
RTVSPost2010Prop43
 90
        3
102
RTVSPost2010PropOp43
 70
     1
102
RTVSPost2010Prop44ColorIndex
 90
        5
102
RTVSPost2010Prop44ColorRGB
 90
      255
102
RTVSPost2010PropOp44
 70
     1
102
RTVSPost2010Prop45
280
     0
102
RTVSPost2010PropOp45
 70
     1
102
RTVSPost2010Prop46
 90
       50
102
RTVSPost2010PropOp46
 70
     1
102
RTVSPost2010Prop47
 90
       50
102
RTVSPost2010PropOp47
 70
     1
102
RTVSPost2010Prop48
 90
       50
102
RTVSPost2010PropOp48
 70
     1
102
RTVSPost2010Prop49
280
     0
102
RTVSPost2010PropOp49
 70
     1
102
RTVSPost2010Prop50
 90
       50
102
RTVSPost2010PropOp50
 70
     1
102
RTVSPost2010Prop51ColorIndex
 90
      256
102
RTVSPost2010Prop51ColorRGB
 90
-16777216
102
RTVSPost2010PropOp51
 70
     0
102
RTVSPost2010Prop52
140
1.0
102
RTVSPost2010PropOp52
 70
     0
102
RTVSPost2010Prop53
 90
        2
102
RTVSPost2010PropOp53
 70
     1
102
RTVSPost2010Prop54
  1
strokes_ogs.tif
102
RTVSPost2010PropOp54
 70
     1
102
RTVSPost2010Prop55
280
     0
102
RTVSPost2010PropOp55
 70
     1
102
RTVSPost2010Prop56
140
1.0
102
RTVSPost2010PropOp56
 70
     1
102
RTVSPost2010Prop57
140
1.0
102
RTVSPost2010PropOp57
 70
     1
102
RTVSPropertyOp0
 70
     1
102
RTVSPropertyOp1
 70
     1
102
RTVSPropertyOp2
 70
     1
102
RTVSPropertyOp3
 70
     1
102
RTVSPropertyOp4
 70
     1
102
RTVSPropertyOp5
 70
     1
102
RTVSPropertyOp6
 70
     1
102
RTVSPropertyOp7
 70
     1
102
RTVSPropertyOp8
 70
     1
102
RTVSPropertyOp9
 70
     1
102
RTVSPropertyOp10
 70
     1
102
RTVSPropertyOp11
 70
     1
102
RTVSPropertyOp12
 70
     1
102
RTVSPropertyOp13
 70
     1
102
RTVSPropertyOp14
 70
     1
102
RTVSPropertyOp15
 70
     1
102
RTVSPropertyOp16
 70
     1
102
RTVSPropertyOp17
 70
     1
102
RTVSPropertyOp18
 70
     1
102
RTVSPropertyOp19
 70
     1
102
RTVSPropertyOp20
 70
     1
102
RTVSPropertyOp21
 70
     1
102
RTVSPropertyOp22
 70
     1
102
RTVSPropertyOp23
 70
     1
102
RTVSPropertyOp24
 70
     1
102
RTVSPropertyOp25
 70
     1
102
RTVSPropertyOp26
 70
     1
102
RTVSPropertyOp27
 70
     1
102
RTVSPropertyOp28
 70
     1
102
RTVSPropertyOp29
 70
     1
102
RTVSPropertyOp30
 70
     1
102
RTVSPropertyOp31
 70
     1
102
RTVSPropertyOp32
 70
     1
102
RTVSPropertyOp33
 70
     1
102
RTVSPropertyOp34
 70
     1
102
RTVSPropertyOp35
 70
     1
102
RTVSPropertyOp36
 70
     1
102
RTVSPropertyOp37
 70
     1
102
RTVSPropertyOp38
 70
     1
102
RTVSPropertyOp39
 70
     1
102
RTVSPropertyOp40
 70
     1
102
RTVSPropertyOp41
 70
     1
102
RTVSPropertyOp42
 70
     1
102
RTVSPropertyOp43
 70
     1
102
RTVSPropertyOp44
 70
     1
102
RTVSPropertyOp45
 70
     1
102
RTVSPropertyOp46
 70
     1
102
RTVSPropertyOp47
 70
     1
102
RTVSPropertyOp48
 70
     1
102
RTVSPropertyOp49
 70
     1
102
RTVSPropertyOp50
 70
     1
102
RTVSPropertyOp51
 70
     0
102
RTVSPropertyOp52
 70
     0
102
RTVSPropertyOp53
 70
     1
102
RTVSPropertyOp54
 70
     1
102
RTVSPropertyOp55
 70
     1
102
RTVSPropertyOp56
 70
     1
102
RTVSPropertyOp57
 70
     1
102
RTVSPropertyOp58
 70
     1
102
RTVSPropertyOp59
 70
     1
102
RTVSPropertyOp60
 70
     1
102
RTVSPropertyOp61
 70
     1
102
RTVSPropertyOp62
 70
     1
  0
XRECORD
  5
14CC
102
{ACAD_REACTORS
330
14CB
102
}
330
14CB
100
AcDbXrecord
280
     1
102
RTVSPost2010Prop28
280
     0
102
RTVSPost2010PropOp28
 70
     1
102
RTVSPost2010Prop29
280
     1
102
RTVSPost2010PropOp29
 70
     1
102
RTVSPost2010Prop30
280
     1
102
RTVSPost2010PropOp30
 70
     1
102
RTVSPost2010Prop31
280
     0
102
RTVSPost2010PropOp31
 70
     1
102
RTVSPost2010Prop32
280
     0
102
RTVSPost2010PropOp32
 70
     1
102
RTVSPost2010Prop33
280
     0
102
RTVSPost2010PropOp33
 70
     1
102
RTVSPost2010Prop34
280
     0
102
RTVSPost2010PropOp34
 70
     1
102
RTVSPost2010Prop35
280
     0
102
RTVSPost2010PropOp35
 70
     1
102
RTVSPost2010Prop36
280
     0
102
RTVSPost2010PropOp36
 70
     1
102
RTVSPost2010Prop37
 90
       50
102
RTVSPost2010PropOp37
 70
     1
102
RTVSPost2010Prop38
140
0.0
102
RTVSPost2010PropOp38
 70
     1
102
RTVSPost2010Prop39
140
1.0
102
RTVSPost2010PropOp39
 70
     1
102
RTVSPost2010Prop40
 90
        0
102
RTVSPost2010PropOp40
 70
     1
102
RTVSPost2010Prop41ColorIndex
 90
       18
102
RTVSPost2010Prop41ColorRGB
 90
        0
102
RTVSPost2010PropOp41
 70
     1
102
RTVSPost2010Prop42
 90
       50
102
RTVSPost2010PropOp42
 70
     1
102
RTVSPost2010Prop43
 90
        3
102
RTVSPost2010PropOp43
 70
     1
102
RTVSPost2010Prop44ColorIndex
 90
        5
102
RTVSPost2010Prop44ColorRGB
 90
      255
102
RTVSPost2010PropOp44
 70
     1
102
RTVSPost2010Prop45
280
     0
102
RTVSPost2010PropOp45
 70
     1
102
RTVSPost2010Prop46
 90
       50
102
RTVSPost2010PropOp46
 70
     1
102
RTVSPost2010Prop47
 90
       50
102
RTVSPost2010PropOp47
 70
     1
102
RTVSPost2010Prop48
 90
       50
102
RTVSPost2010PropOp48
 70
     1
102
RTVSPost2010Prop49
280
     0
102
RTVSPost2010PropOp49
 70
     1
102
RTVSPost2010Prop50
 90
       50
102
RTVSPost2010PropOp50
 70
     1
102
RTVSPost2010Prop51ColorIndex
 90
      256
102
RTVSPost2010Prop51ColorRGB
 90
-16777216
102
RTVSPost2010PropOp51
 70
     0
102
RTVSPost2010Prop52
140
1.0
102
RTVSPost2010PropOp52
 70
     0
102
RTVSPost2010Prop53
 90
        2
102
RTVSPost2010PropOp53
 70
     1
102
RTVSPost2010Prop54
  1
strokes_ogs.tif
102
RTVSPost2010PropOp54
 70
     1
102
RTVSPost2010Prop55
280
     0
102
RTVSPost2010PropOp55
 70
     1
102
RTVSPost2010Prop56
140
1.0
102
RTVSPost2010PropOp56
 70
     1
102
RTVSPost2010Prop57
140
1.0
102
RTVSPost2010PropOp57
 70
     1
102
RTVSPropertyOp0
 70
     1
102
RTVSPropertyOp1
 70
     1
102
RTVSPropertyOp2
 70
     1
102
RTVSPropertyOp3
 70
     1
102
RTVSPropertyOp4
 70
     1
102
RTVSPropertyOp5
 70
     1
102
RTVSPropertyOp6
 70
     1
102
RTVSPropertyOp7
 70
     1
102
RTVSPropertyOp8
 70
     1
102
RTVSPropertyOp9
 70
     1
102
RTVSPropertyOp10
 70
     1
102
RTVSPropertyOp11
 70
     1
102
RTVSPropertyOp12
 70
     1
102
RTVSPropertyOp13
 70
     1
102
RTVSPropertyOp14
 70
     1
102
RTVSPropertyOp15
 70
     1
102
RTVSPropertyOp16
 70
     1
102
RTVSPropertyOp17
 70
     1
102
RTVSPropertyOp18
 70
     1
102
RTVSPropertyOp19
 70
     1
102
RTVSPropertyOp20
 70
     1
102
RTVSPropertyOp21
 70
     1
102
RTVSPropertyOp22
 70
     1
102
RTVSPropertyOp23
 70
     1
102
RTVSPropertyOp24
 70
     1
102
RTVSPropertyOp25
 70
     1
102
RTVSPropertyOp26
 70
     1
102
RTVSPropertyOp27
 70
     1
102
RTVSPropertyOp28
 70
     1
102
RTVSPropertyOp29
 70
     1
102
RTVSPropertyOp30
 70
     1
102
RTVSPropertyOp31
 70
     1
102
RTVSPropertyOp32
 70
     1
102
RTVSPropertyOp33
 70
     1
102
RTVSPropertyOp34
 70
     1
102
RTVSPropertyOp35
 70
     1
102
RTVSPropertyOp36
 70
     1
102
RTVSPropertyOp37
 70
     1
102
RTVSPropertyOp38
 70
     1
102
RTVSPropertyOp39
 70
     1
102
RTVSPropertyOp40
 70
     1
102
RTVSPropertyOp41
 70
     1
102
RTVSPropertyOp42
 70
     1
102
RTVSPropertyOp43
 70
     1
102
RTVSPropertyOp44
 70
     1
102
RTVSPropertyOp45
 70
     1
102
RTVSPropertyOp46
 70
     1
102
RTVSPropertyOp47
 70
     1
102
RTVSPropertyOp48
 70
     1
102
RTVSPropertyOp49
 70
     1
102
RTVSPropertyOp50
 70
     1
102
RTVSPropertyOp51
 70
     0
102
RTVSPropertyOp52
 70
     0
102
RTVSPropertyOp53
 70
     1
102
RTVSPropertyOp54
 70
     1
102
RTVSPropertyOp55
 70
     1
102
RTVSPropertyOp56
 70
     1
102
RTVSPropertyOp57
 70
     1
102
RTVSPropertyOp58
 70
     1
102
RTVSPropertyOp59
 70
     1
102
RTVSPropertyOp60
 70
     1
102
RTVSPropertyOp61
 70
     1
102
RTVSPropertyOp62
 70
     1
  0
XRECORD
  5
14D4
102
{ACAD_REACTORS
330
14D3
102
}
330
14D3
100
AcDbXrecord
280
     1
102
RTVSPost2010Prop28
280
     0
102
RTVSPost2010PropOp28
 70
     1
102
RTVSPost2010Prop29
280
     1
102
RTVSPost2010PropOp29
 70
     1
102
RTVSPost2010Prop30
280
     1
102
RTVSPost2010PropOp30
 70
     1
102
RTVSPost2010Prop31
280
     0
102
RTVSPost2010PropOp31
 70
     1
102
RTVSPost2010Prop32
280
     0
102
RTVSPost2010PropOp32
 70
     1
102
RTVSPost2010Prop33
280
     0
102
RTVSPost2010PropOp33
 70
     1
102
RTVSPost2010Prop34
280
     0
102
RTVSPost2010PropOp34
 70
     1
102
RTVSPost2010Prop35
280
     0
102
RTVSPost2010PropOp35
 70
     1
102
RTVSPost2010Prop36
280
     0
102
RTVSPost2010PropOp36
 70
     1
102
RTVSPost2010Prop37
 90
       50
102
RTVSPost2010PropOp37
 70
     1
102
RTVSPost2010Prop38
140
0.0
102
RTVSPost2010PropOp38
 70
     1
102
RTVSPost2010Prop39
140
1.0
102
RTVSPost2010PropOp39
 70
     1
102
RTVSPost2010Prop40
 90
        0
102
RTVSPost2010PropOp40
 70
     1
102
RTVSPost2010Prop41ColorIndex
 90
       18
102
RTVSPost2010Prop41ColorRGB
 90
        0
102
RTVSPost2010PropOp41
 70
     1
102
RTVSPost2010Prop42
 90
       50
102
RTVSPost2010PropOp42
 70
     1
102
RTVSPost2010Prop43
 90
        3
102
RTVSPost2010PropOp43
 70
     1
102
RTVSPost2010Prop44ColorIndex
 90
        5
102
RTVSPost2010Prop44ColorRGB
 90
      255
102
RTVSPost2010PropOp44
 70
     1
102
RTVSPost2010Prop45
280
     0
102
RTVSPost2010PropOp45
 70
     1
102
RTVSPost2010Prop46
 90
       50
102
RTVSPost2010PropOp46
 70
     1
102
RTVSPost2010Prop47
 90
       50
102
RTVSPost2010PropOp47
 70
     1
102
RTVSPost2010Prop48
 90
       50
102
RTVSPost2010PropOp48
 70
     1
102
RTVSPost2010Prop49
280
     0
102
RTVSPost2010PropOp49
 70
     1
102
RTVSPost2010Prop50
 90
       50
102
RTVSPost2010PropOp50
 70
     1
102
RTVSPost2010Prop51ColorIndex
 90
      256
102
RTVSPost2010Prop51ColorRGB
 90
-16777216
102
RTVSPost2010PropOp51
 70
     0
102
RTVSPost2010Prop52
140
1.0
102
RTVSPost2010PropOp52
 70
     0
102
RTVSPost2010Prop53
 90
        2
102
RTVSPost2010PropOp53
 70
     1
102
RTVSPost2010Prop54
  1
strokes_ogs.tif
102
RTVSPost2010PropOp54
 70
     1
102
RTVSPost2010Prop55
280
     0
102
RTVSPost2010PropOp55
 70
     1
102
RTVSPost2010Prop56
140
1.0
102
RTVSPost2010PropOp56
 70
     1
102
RTVSPost2010Prop57
140
1.0
102
RTVSPost2010PropOp57
 70
     1
102
RTVSPropertyOp0
 70
     1
102
RTVSPropertyOp1
 70
     1
102
RTVSPropertyOp2
 70
     1
102
RTVSPropertyOp3
 70
     1
102
RTVSPropertyOp4
 70
     1
102
RTVSPropertyOp5
 70
     1
102
RTVSPropertyOp6
 70
     1
102
RTVSPropertyOp7
 70
     1
102
RTVSPropertyOp8
 70
     1
102
RTVSPropertyOp9
 70
     1
102
RTVSPropertyOp10
 70
     1
102
RTVSPropertyOp11
 70
     1
102
RTVSPropertyOp12
 70
     1
102
RTVSPropertyOp13
 70
     1
102
RTVSPropertyOp14
 70
     1
102
RTVSPropertyOp15
 70
     1
102
RTVSPropertyOp16
 70
     1
102
RTVSPropertyOp17
 70
     1
102
RTVSPropertyOp18
 70
     1
102
RTVSPropertyOp19
 70
     1
102
RTVSPropertyOp20
 70
     1
102
RTVSPropertyOp21
 70
     1
102
RTVSPropertyOp22
 70
     1
102
RTVSPropertyOp23
 70
     1
102
RTVSPropertyOp24
 70
     1
102
RTVSPropertyOp25
 70
     1
102
RTVSPropertyOp26
 70
     1
102
RTVSPropertyOp27
 70
     1
102
RTVSPropertyOp28
 70
     1
102
RTVSPropertyOp29
 70
     1
102
RTVSPropertyOp30
 70
     1
102
RTVSPropertyOp31
 70
     1
102
RTVSPropertyOp32
 70
     1
102
RTVSPropertyOp33
 70
     1
102
RTVSPropertyOp34
 70
     1
102
RTVSPropertyOp35
 70
     1
102
RTVSPropertyOp36
 70
     1
102
RTVSPropertyOp37
 70
     1
102
RTVSPropertyOp38
 70
     1
102
RTVSPropertyOp39
 70
     1
102
RTVSPropertyOp40
 70
     1
102
RTVSPropertyOp41
 70
     1
102
RTVSPropertyOp42
 70
     1
102
RTVSPropertyOp43
 70
     1
102
RTVSPropertyOp44
 70
     1
102
RTVSPropertyOp45
 70
     1
102
RTVSPropertyOp46
 70
     1
102
RTVSPropertyOp47
 70
     1
102
RTVSPropertyOp48
 70
     1
102
RTVSPropertyOp49
 70
     1
102
RTVSPropertyOp50
 70
     1
102
RTVSPropertyOp51
 70
     0
102
RTVSPropertyOp52
 70
     0
102
RTVSPropertyOp53
 70
     1
102
RTVSPropertyOp54
 70
     1
102
RTVSPropertyOp55
 70
     1
102
RTVSPropertyOp56
 70
     1
102
RTVSPropertyOp57
 70
     1
102
RTVSPropertyOp58
 70
     1
102
RTVSPropertyOp59
 70
     1
102
RTVSPropertyOp60
 70
     1
102
RTVSPropertyOp61
 70
     1
102
RTVSPropertyOp62
 70
     1
  0
XRECORD
  5
14DC
102
{ACAD_REACTORS
330
14DB
102
}
330
14DB
100
AcDbXrecord
280
     1
102
RTVSPost2010Prop28
280
     0
102
RTVSPost2010PropOp28
 70
     1
102
RTVSPost2010Prop29
280
     1
102
RTVSPost2010PropOp29
 70
     1
102
RTVSPost2010Prop30
280
     1
102
RTVSPost2010PropOp30
 70
     1
102
RTVSPost2010Prop31
280
     0
102
RTVSPost2010PropOp31
 70
     1
102
RTVSPost2010Prop32
280
     0
102
RTVSPost2010PropOp32
 70
     1
102
RTVSPost2010Prop33
280
     0
102
RTVSPost2010PropOp33
 70
     1
102
RTVSPost2010Prop34
280
     0
102
RTVSPost2010PropOp34
 70
     1
102
RTVSPost2010Prop35
280
     0
102
RTVSPost2010PropOp35
 70
     1
102
RTVSPost2010Prop36
280
     0
102
RTVSPost2010PropOp36
 70
     1
102
RTVSPost2010Prop37
 90
       50
102
RTVSPost2010PropOp37
 70
     1
102
RTVSPost2010Prop38
140
0.0
102
RTVSPost2010PropOp38
 70
     1
102
RTVSPost2010Prop39
140
1.0
102
RTVSPost2010PropOp39
 70
     1
102
RTVSPost2010Prop40
 90
        0
102
RTVSPost2010PropOp40
 70
     1
102
RTVSPost2010Prop41ColorIndex
 90
       18
102
RTVSPost2010Prop41ColorRGB
 90
        0
102
RTVSPost2010PropOp41
 70
     1
102
RTVSPost2010Prop42
 90
       50
102
RTVSPost2010PropOp42
 70
     1
102
RTVSPost2010Prop43
 90
        3
102
RTVSPost2010PropOp43
 70
     1
102
RTVSPost2010Prop44ColorIndex
 90
        5
102
RTVSPost2010Prop44ColorRGB
 90
      255
102
RTVSPost2010PropOp44
 70
     1
102
RTVSPost2010Prop45
280
     0
102
RTVSPost2010PropOp45
 70
     1
102
RTVSPost2010Prop46
 90
       50
102
RTVSPost2010PropOp46
 70
     1
102
RTVSPost2010Prop47
 90
       50
102
RTVSPost2010PropOp47
 70
     1
102
RTVSPost2010Prop48
 90
       50
102
RTVSPost2010PropOp48
 70
     1
102
RTVSPost2010Prop49
280
     0
102
RTVSPost2010PropOp49
 70
     1
102
RTVSPost2010Prop50
 90
       50
102
RTVSPost2010PropOp50
 70
     1
102
RTVSPost2010Prop51ColorIndex
 90
      256
102
RTVSPost2010Prop51ColorRGB
 90
-16777216
102
RTVSPost2010PropOp51
 70
     0
102
RTVSPost2010Prop52
140
1.0
102
RTVSPost2010PropOp52
 70
     0
102
RTVSPost2010Prop53
 90
        2
102
RTVSPost2010PropOp53
 70
     1
102
RTVSPost2010Prop54
  1
strokes_ogs.tif
102
RTVSPost2010PropOp54
 70
     1
102
RTVSPost2010Prop55
280
     0
102
RTVSPost2010PropOp55
 70
     1
102
RTVSPost2010Prop56
140
1.0
102
RTVSPost2010PropOp56
 70
     1
102
RTVSPost2010Prop57
140
1.0
102
RTVSPost2010PropOp57
 70
     1
102
RTVSPropertyOp0
 70
     1
102
RTVSPropertyOp1
 70
     1
102
RTVSPropertyOp2
 70
     1
102
RTVSPropertyOp3
 70
     1
102
RTVSPropertyOp4
 70
     1
102
RTVSPropertyOp5
 70
     1
102
RTVSPropertyOp6
 70
     1
102
RTVSPropertyOp7
 70
     1
102
RTVSPropertyOp8
 70
     1
102
RTVSPropertyOp9
 70
     1
102
RTVSPropertyOp10
 70
     1
102
RTVSPropertyOp11
 70
     1
102
RTVSPropertyOp12
 70
     1
102
RTVSPropertyOp13
 70
     1
102
RTVSPropertyOp14
 70
     1
102
RTVSPropertyOp15
 70
     1
102
RTVSPropertyOp16
 70
     1
102
RTVSPropertyOp17
 70
     1
102
RTVSPropertyOp18
 70
     1
102
RTVSPropertyOp19
 70
     1
102
RTVSPropertyOp20
 70
     1
102
RTVSPropertyOp21
 70
     1
102
RTVSPropertyOp22
 70
     1
102
RTVSPropertyOp23
 70
     1
102
RTVSPropertyOp24
 70
     1
102
RTVSPropertyOp25
 70
     1
102
RTVSPropertyOp26
 70
     1
102
RTVSPropertyOp27
 70
     1
102
RTVSPropertyOp28
 70
     1
102
RTVSPropertyOp29
 70
     1
102
RTVSPropertyOp30
 70
     1
102
RTVSPropertyOp31
 70
     1
102
RTVSPropertyOp32
 70
     1
102
RTVSPropertyOp33
 70
     1
102
RTVSPropertyOp34
 70
     1
102
RTVSPropertyOp35
 70
     1
102
RTVSPropertyOp36
 70
     1
102
RTVSPropertyOp37
 70
     1
102
RTVSPropertyOp38
 70
     1
102
RTVSPropertyOp39
 70
     1
102
RTVSPropertyOp40
 70
     1
102
RTVSPropertyOp41
 70
     1
102
RTVSPropertyOp42
 70
     1
102
RTVSPropertyOp43
 70
     1
102
RTVSPropertyOp44
 70
     1
102
RTVSPropertyOp45
 70
     1
102
RTVSPropertyOp46
 70
     1
102
RTVSPropertyOp47
 70
     1
102
RTVSPropertyOp48
 70
     1
102
RTVSPropertyOp49
 70
     1
102
RTVSPropertyOp50
 70
     1
102
RTVSPropertyOp51
 70
     0
102
RTVSPropertyOp52
 70
     0
102
RTVSPropertyOp53
 70
     1
102
RTVSPropertyOp54
 70
     1
102
RTVSPropertyOp55
 70
     1
102
RTVSPropertyOp56
 70
     1
102
RTVSPropertyOp57
 70
     1
102
RTVSPropertyOp58
 70
     1
102
RTVSPropertyOp59
 70
     1
102
RTVSPropertyOp60
 70
     1
102
RTVSPropertyOp61
 70
     1
102
RTVSPropertyOp62
 70
     1
  0
ENDSEC
  0
EOF
