  0
SECTION
  2
HEADER
  9
$ACADVER
  1
AC1015
  9
$ACADMAINTVER
 70
    20
  9
$DWGCODEPAGE
  3
ANSI_1252
  9
$INSBASE
 10
0.0
 20
0.0
 30
0.0
  9
$EXTMIN
 10
-38.86753669528707
 20
-43.93813972121347
 30
-0.0000000000000058
  9
$EXTMAX
 10
45.76457319683913
 20
43.72055128649868
 30
0.0000000000000104
  9
$LIMMIN
 10
-170.0
 20
-170.0
  9
$LIMMAX
 10
519.0
 20
260.0
  9
$ORTHOMODE
 70
     0
  9
$REGENMODE
 70
     1
  9
$FILLMODE
 70
     1
  9
$QTEXTMODE
 70
     0
  9
$MIRRTEXT
 70
     0
  9
$LTSCALE
 40
1.0
  9
$ATTMODE
 70
     1
  9
$TEXTSIZE
 40
5.0
  9
$TRACEWID
 40
1.0
  9
$TEXTSTYLE
  7
STANDARD
  9
$CLAYER
  8
1
  9
$CELTYPE
  6
BYLAYER
  9
$CECOLOR
 62
   256
  9
$CELTSCALE
 40
1.0
  9
$DISPSILH
 70
     0
  9
$DIMSCALE
 40
1.0
  9
$DIMASZ
 40
2.5
  9
$DIMEXO
 40
0.0
  9
$DIMDLI
 40
3.75
  9
$DIMRND
 40
0.0
  9
$DIMDLE
 40
0.0
  9
$DIMEXE
 40
1.25
  9
$DIMTP
 40
0.0
  9
$DIMTM
 40
0.0
  9
$DIMTXT
 40
3.5
  9
$DIMCEN
 40
0.0
  9
$DIMTSZ
 40
0.0
  9
$DIMTOL
 70
     0
  9
$DIMLIM
 70
     0
  9
$DIMTIH
 70
     0
  9
$DIMTOH
 70
     0
  9
$DIMSE1
 70
     0
  9
$DIMSE2
 70
     0
  9
$DIMTAD
 70
     1
  9
$DIMZIN
 70
     1
  9
$DIMBLK
  1

  9
$DIMASO
 70
     1
  9
$DIMSHO
 70
     1
  9
$DIMPOST
  1

  9
$DIMAPOST
  1

  9
$DIMALT
 70
     0
  9
$DIMALTD
 70
     3
  9
$DIMALTF
 40
0.039370078
  9
$DIMLFAC
 40
1.0
  9
$DIMTOFL
 70
     0
  9
$DIMTVP
 40
0.0
  9
$DIMTIX
 70
     0
  9
$DIMSOXD
 70
     0
  9
$DIMSAH
 70
     0
  9
$DIMBLK1
  1

  9
$DIMBLK2
  1

  9
$DIMSTYLE
  2
STANDARD
  9
$DIMCLRD
 70
     0
  9
$DIMCLRE
 70
     0
  9
$DIMCLRT
 70
     0
  9
$DIMTFAC
 40
1.0
  9
$DIMGAP
 40
0.625
  9
$DIMJUST
 70
     0
  9
$DIMSD1
 70
     0
  9
$DIMSD2
 70
     0
  9
$DIMTOLJ
 70
     0
  9
$DIMTZIN
 70
     8
  9
$DIMALTZ
 70
     0
  9
$DIMALTTZ
 70
     0
  9
$DIMUPT
 70
     0
  9
$DIMDEC
 70
     2
  9
$DIMTDEC
 70
     2
  9
$DIMALTU
 70
     2
  9
$DIMALTTD
 70
     3
  9
$DIMTXSTY
  7
STANDARD
  9
$DIMAUNIT
 70
     0
  9
$DIMADEC
 70
     2
  9
$DIMALTRND
 40
0.0
  9
$DIMAZIN
 70
     0
  9
$DIMDSEP
 70
    46
  9
$DIMATFIT
 70
     3
  9
$DIMFRAC
 70
     0
  9
$DIMLDRBLK
  1

  9
$DIMLUNIT
 70
     2
  9
$DIMLWD
 70
    -2
  9
$DIMLWE
 70
    -2
  9
$DIMTMOVE
 70
     0
  9
$LUNITS
 70
     2
  9
$LUPREC
 70
     4
  9
$SKETCHINC
 40
1.0
  9
$FILLETRAD
 40
0.0
  9
$AUNITS
 70
     0
  9
$AUPREC
 70
     0
  9
$MENU
  1
c:\tdm21\cad\caduti13\tdm13
  9
$ELEVATION
 40
0.0
  9
$PELEVATION
 40
0.0
  9
$THICKNESS
 40
0.0
  9
$LIMCHECK
 70
     0
  9
$CHAMFERA
 40
0.0
  9
$CHAMFERB
 40
0.0
  9
$CHAMFERC
 40
0.0
  9
$CHAMFERD
 40
0.0
  9
$SKPOLY
 70
     0
  9
$TDCREATE
 40
2455979.440255475
  9
$TDUCREATE
 40
2455979.398588808
  9
$TDUPDATE
 40
2457362.507785880
  9
$TDUUPDATE
 40
2457362.466119213
  9
$TDINDWG
 40
0.0122285069
  9
$TDUSRTIMER
 40
0.0122284838
  9
$USRTIMER
 70
     1
  9
$ANGBASE
 50
0.0
  9
$ANGDIR
 70
     0
  9
$PDMODE
 70
     1
  9
$PDSIZE
 40
0.0
  9
$PLINEWID
 40
0.0
  9
$SPLFRAME
 70
     0
  9
$SPLINETYPE
 70
     6
  9
$SPLINESEGS
 70
     8
  9
$HANDSEED
  5
1859
  9
$SURFTAB1
 70
     6
  9
$SURFTAB2
 70
     6
  9
$SURFTYPE
 70
     6
  9
$SURFU
 70
     6
  9
$SURFV
 70
     6
  9
$UCSBASE
  2

  9
$UCSNAME
  2

  9
$UCSORG
 10
0.0
 20
0.0
 30
0.0
  9
$UCSXDIR
 10
1.0
 20
0.0
 30
0.0
  9
$UCSYDIR
 10
0.0
 20
1.0
 30
0.0
  9
$UCSORTHOREF
  2

  9
$UCSORTHOVIEW
 70
     0
  9
$UCSORGTOP
 10
0.0
 20
0.0
 30
0.0
  9
$UCSORGBOTTOM
 10
0.0
 20
0.0
 30
0.0
  9
$UCSORGLEFT
 10
0.0
 20
0.0
 30
0.0
  9
$UCSORGRIGHT
 10
0.0
 20
0.0
 30
0.0
  9
$UCSORGFRONT
 10
0.0
 20
0.0
 30
0.0
  9
$UCSORGBACK
 10
0.0
 20
0.0
 30
0.0
  9
$PUCSBASE
  2

  9
$PUCSNAME
  2

  9
$PUCSORG
 10
0.0
 20
0.0
 30
0.0
  9
$PUCSXDIR
 10
1.0
 20
0.0
 30
0.0
  9
$PUCSYDIR
 10
0.0
 20
1.0
 30
0.0
  9
$PUCSORTHOREF
  2

  9
$PUCSORTHOVIEW
 70
     0
  9
$PUCSORGTOP
 10
0.0
 20
0.0
 30
0.0
  9
$PUCSORGBOTTOM
 10
0.0
 20
0.0
 30
0.0
  9
$PUCSORGLEFT
 10
0.0
 20
0.0
 30
0.0
  9
$PUCSORGRIGHT
 10
0.0
 20
0.0
 30
0.0
  9
$PUCSORGFRONT
 10
0.0
 20
0.0
 30
0.0
  9
$PUCSORGBACK
 10
0.0
 20
0.0
 30
0.0
  9
$USERI1
 70
     0
  9
$USERI2
 70
     0
  9
$USERI3
 70
     0
  9
$USERI4
 70
     0
  9
$USERI5
 70
     0
  9
$USERR1
 40
0.0
  9
$USERR2
 40
0.0
  9
$USERR3
 40
0.0
  9
$USERR4
 40
0.0
  9
$USERR5
 40
0.0
  9
$WORLDVIEW
 70
     1
  9
$SHADEDGE
 70
     3
  9
$SHADEDIF
 70
    70
  9
$TILEMODE
 70
     1
  9
$MAXACTVP
 70
    64
  9
$PINSBASE
 10
0.0
 20
0.0
 30
0.0
  9
$PLIMCHECK
 70
     0
  9
$PEXTMIN
 10
0.0
 20
0.0
 30
0.0
  9
$PEXTMAX
 10
0.0
 20
0.0
 30
0.0
  9
$PLIMMIN
 10
0.0
 20
0.0
  9
$PLIMMAX
 10
12.0
 20
9.0
  9
$UNITMODE
 70
     0
  9
$VISRETAIN
 70
     0
  9
$PLINEGEN
 70
     0
  9
$PSLTSCALE
 70
     1
  9
$TREEDEPTH
 70
  3020
  9
$CMLSTYLE
  2
STANDARD
  9
$CMLJUST
 70
     0
  9
$CMLSCALE
 40
20.0
  9
$PROXYGRAPHICS
 70
     1
  9
$MEASUREMENT
 70
     1
  9
$CELWEIGHT
370
    -1
  9
$ENDCAPS
280
     0
  9
$JOINSTYLE
280
     0
  9
$LWDISPLAY
290
     0
  9
$INSUNITS
 70
     4
  9
$HYPERLINKBASE
  1

  9
$STYLESHEET
  1
MONOCHROME.CTB
  9
$XEDIT
290
     1
  9
$CEPSNTYPE
380
     0
  9
$PSTYLEMODE
290
     1
  9
$FINGERPRINTGUID
  2
{A04E46BD-DFDD-426F-863A-9E51A5C003A8}
  9
$VERSIONGUID
  2
{9937B4FE-52F1-4DCD-BE08-BA066066BE18}
  9
$EXTNAMES
290
     1
  9
$PSVPSCALE
 40
0.0
  9
$OLESTARTUP
290
     0
  0
ENDSEC
  0
SECTION
  2
CLASSES
  0
CLASS
  1
ACDBDICTIONARYWDFLT
  2
AcDbDictionaryWithDefault
  3
ObjectDBX Classes
 90
        0
280
     0
281
     0
  0
CLASS
  1
ACDBPLACEHOLDER
  2
AcDbPlaceHolder
  3
ObjectDBX Classes
 90
        0
280
     0
281
     0
  0
CLASS
  1
LAYOUT
  2
AcDbLayout
  3
ObjectDBX Classes
 90
        0
280
     0
281
     0
  0
CLASS
  1
DICTIONARYVAR
  2
AcDbDictionaryVar
  3
ObjectDBX Classes
 90
        0
280
     0
281
     0
  0
CLASS
  1
TABLESTYLE
  2
AcDbTableStyle
  3
ObjectDBX Classes
 90
     4095
280
     0
281
     0
  0
CLASS
  1
MATERIAL
  2
AcDbMaterial
  3
ObjectDBX Classes
 90
     1153
280
     0
281
     0
  0
CLASS
  1
VISUALSTYLE
  2
AcDbVisualStyle
  3
ObjectDBX Classes
 90
     4095
280
     0
281
     0
  0
CLASS
  1
SCALE
  2
AcDbScale
  3
ObjectDBX Classes
 90
     1153
280
     0
281
     0
  0
CLASS
  1
MLEADERSTYLE
  2
AcDbMLeaderStyle
  3
ACDB_MLEADERSTYLE_CLASS
 90
     4095
280
     0
281
     0
  0
CLASS
  1
CELLSTYLEMAP
  2
AcDbCellStyleMap
  3
ObjectDBX Classes
 90
     1152
280
     0
281
     0
  0
CLASS
  1
DIMASSOC
  2
AcDbDimAssoc
  3
"AcDbDimAssoc|Product Desc:     AcDim ARX App For Dimension|Company:          Autodesk, Inc.|WEB Address:      www.autodesk.com"
 90
    32768
280
     0
281
     0
  0
CLASS
  1
SORTENTSTABLE
  2
AcDbSortentsTable
  3
ObjectDBX Classes
 90
        0
280
     0
281
     0
  0
CLASS
  1
MULTILEADER
  2
AcDbMLeader
  3
ACDB_MLEADER_CLASS
 90
    33793
280
     0
281
     1
  0
CLASS
  1
AEC_REFEDIT_STATUS_TRACKER
  2
AecDbRefEditStatusTracker
  3
AecArchBase70|Product Desc: Autodesk Architectural Desktop 2007 |Company: Autodesk,Inc. |WEB Address: www.autodesk.com
 90
    32897
280
     0
281
     0
  0
CLASS
  1
NPOCOLLECTION
  2
AcDbImpNonPersistentObjectsCollection
  3
ObjectDBX Classes
 90
    33921
280
     0
281
     0
  0
CLASS
  1
ACDBSECTIONVIEWSTYLE
  2
AcDbSectionViewStyle
  3
ObjectDBX Classes
 90
     1025
280
     0
281
     0
  0
CLASS
  1
ACDBDETAILVIEWSTYLE
  2
AcDbDetailViewStyle
  3
ObjectDBX Classes
 90
     1025
280
     0
281
     0
  0
CLASS
  1
FIELD
  2
AcDbField
  3
ObjectDBX Classes
 90
     1152
280
     0
281
     0
  0
CLASS
  1
FIELDLIST
  2
AcDbFieldList
  3
ObjectDBX Classes
 90
     1152
280
     0
281
     0
  0
ENDSEC
  0
SECTION
  2
TABLES
  0
TABLE
  2
VPORT
  5
8
330
0
100
AcDbSymbolTable
 70
     1
  0
VPORT
  5
3ED
330
8
100
AcDbSymbolTableRecord
100
AcDbViewportTableRecord
  2
*Active
 70
     0
 10
0.0
 20
0.0
 11
1.0
 21
1.0
 12
3.448518250776032
 22
-0.1087942173573992
 13
0.0
 23
0.0
 14
5.0
 24
5.0
 15
5.0
 25
5.0
 16
0.0
 26
0.0
 36
1.0
 17
0.0
 27
0.0
 37
0.0
 40
88.20942623917423
 41
1.538784067085953
 42
50.0
 43
0.0
 44
0.0
 50
0.0
 51
0.0
 71
     0
 72
  2000
 73
     1
 74
     3
 75
     0
 76
     0
 77
     0
 78
     0
281
     0
 65
     1
110
0.0
120
0.0
130
0.0
111
1.0
121
0.0
131
0.0
112
0.0
122
1.0
132
0.0
 79
     0
146
0.0
1001
ACAD_NAV_VCDISPLAY
1070
     3
  0
ENDTAB
  0
TABLE
  2
LTYPE
  5
5
330
0
100
AcDbSymbolTable
 70
     4
  0
LTYPE
  5
12
330
5
100
AcDbSymbolTableRecord
100
AcDbLinetypeTableRecord
  2
BYBLOCK
 70
     0
  3

 72
    65
 73
     0
 40
0.0
  0
LTYPE
  5
13
330
5
100
AcDbSymbolTableRecord
100
AcDbLinetypeTableRecord
  2
BYLAYER
 70
     0
  3

 72
    65
 73
     0
 40
0.0
  0
LTYPE
  5
14
330
5
100
AcDbSymbolTableRecord
100
AcDbLinetypeTableRecord
  2
CONTINUOUS
 70
     0
  3
Solid line
 72
    65
 73
     0
 40
0.0
  0
LTYPE
  5
6A7
330
5
100
AcDbSymbolTableRecord
100
AcDbLinetypeTableRecord
  2
CENTER2
 70
     0
  3
Center (.5x) ___ _ ___ _ ___ _ ___ _ ___ _ ___
 72
    65
 73
     4
 40
28.575
 49
19.05
 74
     0
 49
-3.174999999999998
 74
     0
 49
3.174999999999998
 74
     0
 49
-3.174999999999998
 74
     0
  0
ENDTAB
  0
TABLE
  2
LAYER
  5
2
102
{ACAD_XDICTIONARY
360
451
102
}
330
0
100
AcDbSymbolTable
 70
    12
  0
LAYER
  5
F
102
{ACAD_XDICTIONARY
360
CE9
102
}
330
2
100
AcDbSymbolTableRecord
100
AcDbLayerTableRecord
  2
0
 70
     0
 62
     7
  6
CONTINUOUS
370
    -3
390
300
  0
LAYER
  5
23
102
{ACAD_XDICTIONARY
360
CEB
102
}
330
2
100
AcDbSymbolTableRecord
100
AcDbLayerTableRecord
  2
1
 70
     0
 62
     4
  6
CONTINUOUS
370
    50
390
300
  0
LAYER
  5
24
102
{ACAD_XDICTIONARY
360
CED
102
}
330
2
100
AcDbSymbolTableRecord
100
AcDbLayerTableRecord
  2
SK1
 70
     0
 62
     4
  6
CONTINUOUS
370
    50
390
300
  0
LAYER
  5
25
102
{ACAD_XDICTIONARY
360
CEF
102
}
330
2
100
AcDbSymbolTableRecord
100
AcDbLayerTableRecord
  2
2
 70
     0
 62
     7
  6
CONTINUOUS
370
    25
390
300
  0
LAYER
  5
27
102
{ACAD_XDICTIONARY
360
CF1
102
}
330
2
100
AcDbSymbolTableRecord
100
AcDbLayerTableRecord
  2
SK2
 70
     0
 62
     7
  6
CONTINUOUS
370
    25
390
300
  0
LAYER
  5
2A
102
{ACAD_XDICTIONARY
360
CF3
102
}
330
2
100
AcDbSymbolTableRecord
100
AcDbLayerTableRecord
  2
4
 70
     0
 62
     2
  6
CENTER2
370
    25
390
300
  0
LAYER
  5
2B
102
{ACAD_XDICTIONARY
360
CF5
102
}
330
2
100
AcDbSymbolTableRecord
100
AcDbLayerTableRecord
  2
SK4
 70
     0
 62
     2
  6
CENTER2
370
    25
390
300
  0
LAYER
  5
2F
330
2
100
AcDbSymbolTableRecord
100
AcDbLayerTableRecord
  2
DEFPOINTS
 70
     0
 62
     7
  6
CONTINUOUS
290
     0
370
    25
390
300
  0
LAYER
  5
375
102
{ACAD_XDICTIONARY
360
CF9
102
}
330
2
100
AcDbSymbolTableRecord
100
AcDbLayerTableRecord
  2
CUT
 70
     0
 62
     1
  6
CONTINUOUS
370
    25
390
300
  0
LAYER
  5
376
102
{ACAD_XDICTIONARY
360
CFB
102
}
330
2
100
AcDbSymbolTableRecord
100
AcDbLayerTableRecord
  2
NOCUT
 70
     0
 62
     7
  6
CONTINUOUS
370
    -3
390
300
  0
LAYER
  5
49B
102
{ACAD_XDICTIONARY
360
CFD
102
}
330
2
100
AcDbSymbolTableRecord
100
AcDbLayerTableRecord
  2
INFTOTAL
 70
     0
 62
     9
  6
CONTINUOUS
370
    18
390
300
1001
AcAecLayerStandard
1000

1000

  0
LAYER
  5
E6C
102
{ACAD_XDICTIONARY
360
E6D
102
}
330
2
100
AcDbSymbolTableRecord
100
AcDbLayerTableRecord
  2
SKVIEW63
 70
     0
 62
     5
  6
CONTINUOUS
370
    35
390
300
  0
ENDTAB
  0
TABLE
  2
STYLE
  5
3
330
0
100
AcDbSymbolTable
 70
     3
  0
STYLE
  5
10
330
3
100
AcDbSymbolTableRecord
100
AcDbTextStyleTableRecord
  2
STANDARD
 70
     0
 40
0.0
 41
1.0
 50
0.0
 71
     0
 42
5.0
  3
monos.ttf
  4

1001
ACAD
1000
Monospac821 BT
1071
       49
  0
STYLE
  5
E6F
330
3
100
AcDbSymbolTableRecord
100
AcDbTextStyleTableRecord
  2
BMG_Text
 70
     0
 40
3.5
 41
1.0
 50
0.0
 71
     0
 42
0.2
  3
monos.ttf
  4

1001
ACAD
1000
Monospac821 BT
1071
       49
  0
ENDTAB
  0
TABLE
  2
VIEW
  5
6
330
0
100
AcDbSymbolTable
 70
     0
  0
ENDTAB
  0
TABLE
  2
UCS
  5
7
330
0
100
AcDbSymbolTable
 70
     0
  0
ENDTAB
  0
TABLE
  2
APPID
  5
9
330
0
100
AcDbSymbolTable
 70
    15
  0
APPID
  5
11
330
9
100
AcDbSymbolTableRecord
100
AcDbRegAppTableRecord
  2
ACAD
 70
     0
  0
APPID
  5
3A6
330
9
100
AcDbSymbolTableRecord
100
AcDbRegAppTableRecord
  2
ACAD_PSEXT
 70
     0
  0
APPID
  5
3A8
330
9
100
AcDbSymbolTableRecord
100
AcDbRegAppTableRecord
  2
ACAD_EXEMPT_FROM_CAD_STANDARDS
 70
     0
  0
APPID
  5
43E
330
9
100
AcDbSymbolTableRecord
100
AcDbRegAppTableRecord
  2
ACAD_MLEADERVER
 70
     0
  0
APPID
  5
460
330
9
100
AcDbSymbolTableRecord
100
AcDbRegAppTableRecord
  2
ACAD_DSTYLE_DIMJAG
 70
     0
  0
APPID
  5
461
330
9
100
AcDbSymbolTableRecord
100
AcDbRegAppTableRecord
  2
ACAD_DSTYLE_DIMBREAK
 70
     0
  0
APPID
  5
462
330
9
100
AcDbSymbolTableRecord
100
AcDbRegAppTableRecord
  2
ACAD_DSTYLE_DIMTALN
 70
     0
  0
APPID
  5
47A
330
9
100
AcDbSymbolTableRecord
100
AcDbRegAppTableRecord
  2
AcAecLayerStandard
 70
     0
  0
APPID
  5
4AB
330
9
100
AcDbSymbolTableRecord
100
AcDbRegAppTableRecord
  2
DCO15
 70
     0
  0
APPID
  5
4B9
330
9
100
AcDbSymbolTableRecord
100
AcDbRegAppTableRecord
  2
AcadAnnoPO
 70
     0
  0
APPID
  5
55F
330
9
100
AcDbSymbolTableRecord
100
AcDbRegAppTableRecord
  2
ACAD_DSTYLE_DIMRADIAL_EXTENSION
 70
     0
  0
APPID
  5
701
330
9
100
AcDbSymbolTableRecord
100
AcDbRegAppTableRecord
  2
AcadAnnotative
 70
     0
  0
APPID
  5
702
330
9
100
AcDbSymbolTableRecord
100
AcDbRegAppTableRecord
  2
AcDbDynamicBlockGUID
 70
     0
  0
APPID
  5
703
330
9
100
AcDbSymbolTableRecord
100
AcDbRegAppTableRecord
  2
AcDbBlockRepETag
 70
     0
  0
APPID
  5
E93
330
9
100
AcDbSymbolTableRecord
100
AcDbRegAppTableRecord
  2
ACAD_NAV_VCDISPLAY
 70
     0
  0
ENDTAB
  0
TABLE
  2
DIMSTYLE
  5
A
330
0
100
AcDbSymbolTable
 70
     3
100
AcDbDimStyleTable
 71
     2
340
3F
340
467
  0
DIMSTYLE
105
3F
102
{ACAD_REACTORS
330
168B
330
168F
330
1691
102
}
330
A
100
AcDbSymbolTableRecord
100
AcDbDimStyleTableRecord
  2
STANDARD
 70
     0
 41
2.5
 42
0.0
 43
3.75
 44
1.25
 73
     0
 74
     0
 77
     1
 78
     1
140
3.5
141
0.0
143
0.039370078
147
0.625
171
     3
179
     2
271
     2
272
     2
274
     3
283
     0
284
     8
340
10
1001
ACAD_DSTYLE_DIMJAG
1070
   388
1040
1.5
1001
ACAD_DSTYLE_DIMTALN
1070
   392
1070
     0
  0
DIMSTYLE
105
467
102
{ACAD_REACTORS
330
168D
102
}
330
A
100
AcDbSymbolTableRecord
100
AcDbDimStyleTableRecord
  2
DIAMETER
 70
     0
 41
2.5
 42
0.0
 43
3.75
 44
1.25
 73
     0
 74
     0
 76
     1
 77
     1
 78
     1
140
3.5
141
0.0
143
0.039370078
147
0.625
171
     3
173
     1
179
     2
271
     2
272
     2
274
     3
283
     0
284
     8
340
10
344
464
1001
ACAD_DSTYLE_DIMBREAK
1070
   391
1040
3.75
1001
ACAD_DSTYLE_DIMJAG
1070
   388
1040
1.5
1001
ACAD_DSTYLE_DIMTALN
1070
   392
1070
     0
  0
ENDTAB
  0
TABLE
  2
BLOCK_RECORD
  5
1
330
0
100
AcDbSymbolTable
 70
    24
  0
BLOCK_RECORD
  5
18
102
{ACAD_XDICTIONARY
360
144E
102
}
330
1
100
AcDbSymbolTableRecord
100
AcDbBlockTableRecord
  2
*MODEL_SPACE
340
303
  0
BLOCK_RECORD
  5
338
330
1
100
AcDbSymbolTableRecord
100
AcDbBlockTableRecord
  2
*Paper_Space
340
33B
  0
BLOCK_RECORD
  5
464
330
1
100
AcDbSymbolTableRecord
100
AcDbBlockTableRecord
  2
_None
340
0
  0
BLOCK_RECORD
  5
51F
330
1
100
AcDbSymbolTableRecord
100
AcDbBlockTableRecord
  2
CERO_POINT
340
0
310
2800000020000000200000000100080000000000000400000000000000000000000000000000000000000000000080000080000000808000800000008000800080800000C0C0C000C0DCC000F0CAA6000020400000206000002080000020A0000020C0000020E00000400000004020000040400000406000004080000040A0
310
000040C0000040E00000600000006020000060400000606000006080000060A0000060C0000060E00000800000008020000080400000806000008080000080A0000080C0000080E00000A0000000A0200000A0400000A0600000A0800000A0A00000A0C00000A0E00000C0000000C0200000C0400000C0600000C0800000C0
310
A00000C0C00000C0E00000E0000000E0200000E0400000E0600000E0800000E0A00000E0C00000E0E00040000000400020004000400040006000400080004000A0004000C0004000E00040200000402020004020400040206000402080004020A0004020C0004020E000404000004040200040404000404060004040800040
310
40A0004040C0004040E00040600000406020004060400040606000406080004060A0004060C0004060E00040800000408020004080400040806000408080004080A0004080C0004080E00040A0000040A0200040A0400040A0600040A0800040A0A00040A0C00040A0E00040C0000040C0200040C0400040C0600040C08000
310
40C0A00040C0C00040C0E00040E0000040E0200040E0400040E0600040E0800040E0A00040E0C00040E0E00080000000800020008000400080006000800080008000A0008000C0008000E00080200000802020008020400080206000802080008020A0008020C0008020E00080400000804020008040400080406000804080
310
008040A0008040C0008040E00080600000806020008060400080606000806080008060A0008060C0008060E00080800000808020008080400080806000808080008080A0008080C0008080E00080A0000080A0200080A0400080A0600080A0800080A0A00080A0C00080A0E00080C0000080C0200080C0400080C0600080C0
310
800080C0A00080C0C00080C0E00080E0000080E0200080E0400080E0600080E0800080E0A00080E0C00080E0E000C0000000C0002000C0004000C0006000C0008000C000A000C000C000C000E000C0200000C0202000C0204000C0206000C0208000C020A000C020C000C020E000C0400000C0402000C0404000C0406000C0
310
408000C040A000C040C000C040E000C0600000C0602000C0604000C0606000C0608000C060A000C060C000C060E000C0800000C0802000C0804000C0806000C0808000C080A000C080C000C080E000C0A00000C0A02000C0A04000C0A06000C0A08000C0A0A000C0A0C000C0A0E000C0C00000C0C02000C0C04000C0C06000
310
C0C08000C0C0A000F0FBFF00A4A0A000808080000000FF0000FF000000FFFF00FF000000FF00FF00FFFF0000FFFFFF00000000000000000000000000000000000000000000000000000000000000000000000000000000000000000000000000FF0000000000000000000000000000000000000000000000000000000000FF
310
FFFFFFFF000000000000000000000000000000000000000000FFFFFFFFFFFF0000FF0000FFFF00FF00000000000000000000000000000000FF00000000000000FFFFFF0000FFFFFFFF000000000000000000000000000000FF0000000000000000FF00FF0000FF00FFFF00000000000000000000000000FF00000000000000
310
0000FFFF00FF0000FF0000FFFF00000000000000000000FF000000000000000000FFFF00FF00FF0000FF0000FF000000000000000000FF0000000000000000000000FF0000FF00FF0000FF0000FF0000000000000000FF00000000000000000000FFFFFF0000FFFFFF0000FF00FFFF000000000000FF000000000000000000
310
000000FF00FF000000FFFF0000FF00FF0000000000FF00000000000000000000000000FFFF00FFFF0000FFFF0000FFFF0000000000FF000000000000000000000000FFFF00FF0000FF0000FFFF0000FF0000000000FF00000000000000000000000000FF0000FF0000FF0000FFFF0000FF00000000FF000000000000000000
310
000000FFFFFF0000FF0000FF0000FFFF00FF00000000FF00FF00000000FF0000FF00FF00FFFFFF0000FF0000FF0000FFFF00FF0000FFFFFFFFFFFFFFFFFFFFFFFFFFFFFFFFFFFFFFFFFFFFFFFFFFFFFFFFFFFF000000FF00FF00FF00FF0000FF0000FFFFFF00000000000000000000000000FF000000FF0000FF00FF00FF00
310
00FF0000FFFF000000000000000000000000FF00000000FFFF0000FF00FF00FF00FF000000FF000000000000000000000000FF00000000FF00FF0000FF00FF00FF00FF0000FF0000000000000000000000FF000000000000FF00FF0000FFFF0000FF00FF00FF0000000000000000000000FF000000000000FFFF00FF00FF00
310
FF0000FF00FFFF00000000000000000000FF0000000000000000FF0000FF00FF00FF0000FF00FF00000000000000000000FF000000000000000000FF0000FF00FF00FF0000FFFF000000000000000000FF0000000000000000000000FF0000FF00FF00FF0000FF000000000000000000FF000000000000000000000000FF00
310
00FF00FF00FF00FF00000000000000FFFF00000000000000000000000000FFFF0000FF00FF00FFFF0000000000FFFF00000000000000000000000000000000FFFFFFFFFF00FF00FF000000FFFF0000000000000000000000000000000000000000000000FFFFFFFFFFFFFF0000000000000000000000000000000000000000
310
0000000000000000FF0000000000000000000000000000000000000000000000000000000000000000000000000000000000000000000000
102
{BLKREFS
331
1696
102
}
1001
ACAD
1000
DesignCenter Data
1002
{
1070
     1
1070
     4
1002
}
  0
BLOCK_RECORD
  5
E63
102
{ACAD_XDICTIONARY
360
E64
102
}
330
1
100
AcDbSymbolTableRecord
100
AcDbBlockTableRecord
  2
Name
340
0
310
28000000200000002000000001002000000000000010000001000000010000000000000000000000302821FF302821FF302821FF302821FF302821FF302821FF302821FF302821FF302821FF302821FF302821FF302821FF302821FF302821FF302821FF302821FF302821FF302821FF302821FF302821FF302821FF302821
310
FF302821FF302821FF302821FF302821FF302821FF302821FF302821FF302821FF302821FF302821FF302821FF302821FF302821FF302821FF302821FF302821FF302821FF302821FF302821FF302821FF302821FF302821FF302821FF302821FF302821FF302821FF302821FF302821FF302821FF302821FF302821FF3028
310
21FF302821FF302821FF302821FF302821FF302821FF302821FF302821FF302821FF302821FF302821FF302821FF302821FF302821FF302821FF302821FF302821FF302821FF302821FF302821FF302821FF302821FF302821FF302821FF302821FF302821FF302821FF302821FF302821FF302821FF302821FF302821FF30
310
2821FF302821FF302821FF302821FF302821FF302821FF302821FF302821FF302821FF302821FF302821FF302821FF302821FF302821FF302821FF302821FF302821FF302821FF302821FF302821FF302821FF302821FF302821FF302821FF302821FF302821FF302821FF302821FF302821FF302821FF302821FF302821FF
310
302821FF302821FF302821FF302821FF302821FF302821FF302821FF302821FF302821FF302821FF302821FF302821FF302821FF302821FF302821FF302821FF302821FF302821FF302821FF302821FF302821FF302821FF302821FF302821FF302821FF302821FF302821FF302821FF302821FF302821FF302821FF302821
310
FF302821FF302821FF302821FF302821FF302821FF302821FF302821FF302821FF302821FF302821FF302821FF302821FF302821FF302821FF302821FF302821FF302821FF302821FF302821FF302821FF302821FF302821FF302821FF302821FF302821FF302821FF302821FF302821FF302821FF302821FF302821FF3028
310
21FF302821FF302821FF302821FF302821FF302821FF302821FF302821FF302821FF302821FF302821FF302821FF302821FF302821FF302821FF302821FF302821FF302821FF302821FF302821FF302821FF302821FF302821FF302821FF302821FF302821FF302821FF302821FF302821FF302821FF302821FF302821FF30
310
2821FF302821FF302821FF302821FF302821FF302821FF302821FF302821FF302821FF302821FF302821FF302821FF302821FF302821FF302821FF302821FF302821FF302821FF302821FF302821FF302821FF302821FF302821FF302821FF302821FF302821FF302821FF302821FF302821FF302821FF302821FF302821FF
310
302821FF302821FF302821FF302821FF302821FF302821FF302821FF302821FF302821FF302821FF302821FF302821FF302821FF302821FF302821FF302821FF302821FF302821FF302821FF302821FF302821FF302821FF302821FF302821FF302821FF302821FF302821FF302821FF302821FF302821FF302821FF302821
310
FF302821FF302821FF302821FF302821FF302821FF302821FF302821FF302821FF302821FF302821FF302821FF302821FF302821FF302821FF302821FF302821FF302821FF302821FF302821FF302821FF302821FF302821FF302821FF302821FF302821FF302821FF302821FF302821FF302821FF302821FF302821FF3028
310
21FF302821FF302821FF302821FF302821FF302821FF302821FF302821FF302821FF302821FF302821FF302821FF302821FF302821FF302821FFFF0000FFFF0000FF302821FF302821FFFF0000FFFF0000FFFF0000FFFF0000FFFF0000FF302821FF302821FF302821FF302821FFFF0000FFFF0000FFFF0000FFFF0000FFFF
310
0000FFFF0000FFFF0000FFFF0000FF302821FFFF0000FFFF0000FFFF0000FFFF0000FFFF0000FFFF0000FF302821FF302821FF302821FF302821FFFF0000FFFF0000FF302821FF302821FFFF0000FFFF0000FFFF0000FFFF0000FFFF0000FF302821FF302821FF302821FF302821FFFF0000FFFF0000FFFF0000FFFF0000FF
310
FF0000FFFF0000FFFF0000FFFF0000FF302821FFFF0000FFFF0000FFFF0000FFFF0000FFFF0000FFFF0000FF302821FF302821FF302821FF302821FFFF0000FFFF0000FF302821FFFF0000FFFF0000FFFF0000FFFF0000FFFF0000FFFF0000FF302821FF302821FF302821FFFF0000FFFF0000FFFF0000FFFF0000FFFF0000
310
FFFF0000FFFF0000FFFF0000FFFF0000FF302821FFFF0000FFFF0000FFFF0000FFFF0000FFFF0000FFFF0000FF302821FF302821FF302821FF302821FFFF0000FFFF0000FF302821FFFF0000FFFF0000FFFF0000FFFF0000FFFF0000FFFF0000FFFF0000FFFF0000FFFF0000FFFF0000FFFF0000FFFF0000FFFF0000FFFF00
310
00FFFF0000FFFF0000FFFF0000FFFF0000FF302821FFFF0000FFFF0000FF302821FF302821FF302821FF302821FF302821FF302821FF302821FF302821FFFF0000FFFF0000FF302821FFFF0000FFFF0000FFFF0000FFFF0000FFFF0000FFFF0000FFFF0000FFFF0000FFFF0000FFFF0000FFFF0000FFFF0000FFFF0000FFFF
310
0000FFFF0000FFFF0000FFFF0000FFFF0000FF302821FFFF0000FFFF0000FF302821FF302821FF302821FF302821FF302821FF302821FF302821FF302821FFFF0000FFFF0000FFFF0000FFFF0000FFFF0000FFFF0000FFFF0000FFFF0000FFFF0000FFFF0000FFFF0000FFFF0000FFFF0000FF302821FFFF0000FFFF0000FF
310
FF0000FF302821FFFF0000FFFF0000FFFF0000FF302821FFFF0000FFFF0000FFFF0000FFFF0000FFFF0000FF302821FF302821FF302821FF302821FF302821FFFF0000FFFF0000FFFF0000FFFF0000FFFF0000FFFF0000FFFF0000FF302821FFFF0000FFFF0000FF302821FFFF0000FFFF0000FF302821FFFF0000FFFF0000
310
FFFF0000FF302821FFFF0000FFFF0000FFFF0000FF302821FFFF0000FFFF0000FFFF0000FFFF0000FFFF0000FF302821FF302821FF302821FF302821FF302821FFFF0000FFFF0000FFFF0000FFFF0000FF302821FFFF0000FFFF0000FF302821FFFF0000FFFF0000FFFF0000FFFF0000FFFF0000FF302821FFFF0000FFFF00
310
00FFFF0000FF302821FFFF0000FFFF0000FFFF0000FF302821FFFF0000FFFF0000FFFF0000FFFF0000FFFF0000FF302821FF302821FF302821FF302821FF302821FFFF0000FFFF0000FFFF0000FFFF0000FF302821FFFF0000FFFF0000FF302821FFFF0000FFFF0000FFFF0000FFFF0000FFFF0000FF302821FFFF0000FFFF
310
0000FFFF0000FF302821FF302821FFFF0000FFFF0000FF302821FFFF0000FFFF0000FF302821FF302821FF302821FF302821FF302821FF302821FF302821FF302821FFFF0000FFFF0000FFFF0000FF302821FF302821FFFF0000FFFF0000FF302821FF302821FFFF0000FFFF0000FFFF0000FF302821FF302821FFFF0000FF
310
FF0000FF302821FF302821FF302821FFFF0000FFFF0000FF302821FFFF0000FFFF0000FFFF0000FFFF0000FFFF0000FF302821FF302821FF302821FF302821FF302821FFFF0000FFFF0000FFFF0000FF302821FF302821FFFF0000FFFF0000FF302821FF302821FFFF0000FFFF0000FFFF0000FF302821FF302821FFFF0000
310
FFFF0000FF302821FF302821FF302821FFFF0000FFFF0000FF302821FFFF0000FFFF0000FFFF0000FFFF0000FFFF0000FF302821FF302821FF302821FF302821FF302821FF302821FF302821FF302821FF302821FF302821FF302821FF302821FF302821FF302821FF302821FF302821FF302821FF302821FF302821FF3028
310
21FF302821FF302821FF302821FF302821FF302821FF302821FF302821FF302821FF302821FF302821FF302821FF302821FF302821FF302821FF302821FF302821FF302821FF302821FF302821FF302821FF302821FF302821FF302821FF302821FF302821FF302821FF302821FF302821FF302821FF302821FF302821FF30
310
2821FF302821FF302821FF302821FF302821FF302821FF302821FF302821FF302821FF302821FF302821FF302821FF302821FF302821FF302821FF302821FF302821FF302821FF302821FF302821FF302821FF302821FF302821FF302821FF302821FF302821FF302821FF302821FF302821FF302821FF302821FF302821FF
310
302821FF302821FF302821FF302821FF302821FF302821FF302821FF302821FF302821FF302821FF302821FF302821FF302821FF302821FF302821FF302821FF302821FF302821FF302821FF302821FF302821FF302821FF302821FF302821FF302821FF302821FF302821FF302821FF302821FF302821FF302821FF302821
310
FF302821FF302821FF302821FF302821FF302821FF302821FF302821FF302821FF302821FF302821FF302821FF302821FF302821FF302821FF302821FF302821FF302821FF302821FF302821FF302821FF302821FF302821FF302821FF302821FF302821FF302821FF302821FF302821FF302821FF302821FF302821FF3028
310
21FF302821FF302821FF302821FF302821FF302821FF302821FF302821FF302821FF302821FF302821FF302821FF302821FF302821FF302821FF302821FF302821FF302821FF302821FF302821FF302821FF302821FF302821FF302821FF302821FF302821FF302821FF302821FF302821FF302821FF302821FF302821FF30
310
2821FF302821FF302821FF302821FF302821FF302821FF302821FF302821FF302821FF302821FF302821FF302821FF302821FF302821FF302821FF302821FF302821FF302821FF302821FF302821FF302821FF302821FF302821FF302821FF302821FF302821FF302821FF302821FF302821FF302821FF302821FF302821FF
310
302821FF302821FF302821FF302821FF302821FF302821FF302821FF302821FF302821FF302821FF302821FF302821FF302821FF302821FF302821FF302821FF302821FF302821FF302821FF302821FF302821FF302821FF302821FF302821FF302821FF302821FF302821FF302821FF302821FF302821FF302821FF302821
310
FF302821FF302821FF302821FF302821FF302821FF302821FF302821FF302821FF302821FF302821FF302821FF302821FF302821FF302821FF302821FF302821FF302821FF302821FF302821FF302821FF302821FF302821FF302821FF302821FF302821FF302821FF302821FF302821FF302821FF302821FF302821FF3028
310
21FF302821FF302821FF302821FF302821FF302821FF302821FF302821FF302821FF302821FF302821FF302821FF302821FF302821FF302821FF302821FF302821FF302821FF302821FF302821FF302821FF302821FF302821FF302821FF302821FF302821FF302821FF302821FF302821FF302821FF302821FF302821FF30
310
2821FF302821FF302821FF302821FF302821FF302821FF302821FF302821FF302821FF302821FF302821FF302821FF302821FF302821FF302821FF302821FF302821FF302821FF302821FF302821FF302821FF302821FF302821FF302821FF302821FF302821FF302821FF302821FF302821FF302821FF302821FF302821FF
310
302821FF302821FF302821FF302821FF302821FF302821FF302821FF302821FF302821FF302821FF302821FF302821FF302821FF302821FF302821FF302821FF302821FF302821FF
102
{BLKREFS
331
1192
102
}
1001
AcDbDynamicBlockGUID
1000
{15A9DAFA-FD13-4556-B9B1-5A71F15CF06E}
  0
BLOCK_RECORD
  5
1697
330
1
100
AcDbSymbolTableRecord
100
AcDbBlockTableRecord
  2
*D19
340
0
  0
BLOCK_RECORD
  5
16A3
330
1
100
AcDbSymbolTableRecord
100
AcDbBlockTableRecord
  2
*D20
340
0
  0
BLOCK_RECORD
  5
16B0
330
1
100
AcDbSymbolTableRecord
100
AcDbBlockTableRecord
  2
*D21
340
0
  0
BLOCK_RECORD
  5
16BA
330
1
100
AcDbSymbolTableRecord
100
AcDbBlockTableRecord
  2
*D22
340
0
  0
ENDTAB
  0
ENDSEC
  0
SECTION
  2
BLOCKS
  0
BLOCK
  5
32
330
18
100
AcDbEntity
  8
0
100
AcDbBlockBegin
  2
*MODEL_SPACE
 70
     0
 10
0.0
 20
0.0
 30
0.0
  3
*MODEL_SPACE
  1

  0
ENDBLK
  5
33
330
18
100
AcDbEntity
  8
0
100
AcDbBlockEnd
  0
BLOCK
  5
339
330
338
100
AcDbEntity
 67
     1
  8
0
100
AcDbBlockBegin
  2
*Paper_Space
 70
     0
 10
0.0
 20
0.0
 30
0.0
  3
*Paper_Space
  1

  0
ENDBLK
  5
33A
330
338
100
AcDbEntity
 67
     1
  8
0
100
AcDbBlockEnd
  0
BLOCK
  5
465
330
464
100
AcDbEntity
  8
0
100
AcDbBlockBegin
  2
_None
 70
     0
 10
0.0
 20
0.0
 30
0.0
  3
_None
  1

  0
ENDBLK
  5
466
330
464
100
AcDbEntity
  8
0
100
AcDbBlockEnd
  0
BLOCK
  5
520
330
51F
100
AcDbEntity
  8
0
100
AcDbBlockBegin
  2
CERO_POINT
 70
     0
 10
0.0
 20
0.0
 30
0.0
  3
CERO_POINT
  1

  0
CIRCLE
  5
521
102
{ACAD_REACTORS
330
526
102
}
330
51F
100
AcDbEntity
  8
SK2
100
AcDbCircle
 10
0.0
 20
0.0
 30
0.0
 40
2.5
  0
LINE
  5
522
330
51F
100
AcDbEntity
  8
SK2
100
AcDbLine
 10
0.0900000000037835
 20
0.0
 30
0.0
 11
-0.0899999999965076
 21
0.0
 31
0.0
  0
LINE
  5
523
330
51F
100
AcDbEntity
  8
SK2
100
AcDbLine
 10
0.0
 20
0.0899999999999182
 30
0.0
 11
0.0
 21
-0.0899999999999182
 31
0.0
  0
LINE
  5
524
102
{ACAD_REACTORS
330
526
102
}
330
51F
100
AcDbEntity
  8
SK2
100
AcDbLine
 10
0.0
 20
-2.5
 30
0.0
 11
0.0
 21
2.5
 31
0.0
  0
LINE
  5
525
102
{ACAD_REACTORS
330
526
102
}
330
51F
100
AcDbEntity
  8
SK2
100
AcDbLine
 10
2.5
 20
0.0
 30
0.0
 11
-2.5
 21
0.0
 31
0.0
  0
HATCH
  5
526
330
51F
100
AcDbEntity
  8
SK2
100
AcDbHatch
 10
0.0
 20
0.0
 30
0.0
210
0.0
220
0.0
230
1.0
  2
ANSI31
 70
     0
 71
     1
 91
        2
 92
        7
 72
     1
 73
     1
 93
        3
 10
0.0
 20
-2.5
 42
0.4142135623730951
 10
2.5
 20
0.0
 42
0.0
 10
0.0
 20
0.0
 42
0.0
 97
        3
330
521
330
525
330
524
 92
        7
 72
     1
 73
     1
 93
        3
 10
0.0
 20
0.0
 42
0.0
 10
0.0
 20
2.5
 42
0.4142135623730951
 10
-2.5
 20
0.0
 42
0.0
 97
        3
330
525
330
524
330
521
 75
     0
 76
     1
 52
180.0
 41
0.1
 77
     0
 78
     1
 53
225.0
 43
5.170976743218488
 44
0.0
 45
0.2245064030267288
 46
-0.2245064030267289
 79
     0
 47
0.0243816376539857
 98
        2
 10
0.8789156907296272
 20
-1.044463114528752
 10
-0.8545028512526187
 20
0.7841600866017872
  0
ENDBLK
  5
527
330
51F
100
AcDbEntity
  8
0
100
AcDbBlockEnd
  0
BLOCK
  5
E65
330
E63
100
AcDbEntity
  8
0
100
AcDbBlockBegin
  2
Name
 70
     2
 10
0.0
 20
0.0
 30
0.0
  3
Name
  1

  0
ATTDEF
  5
E66
102
{ACAD_XDICTIONARY
360
E67
102
}
330
E63
100
AcDbEntity
  8
SKVIEW63
100
AcDbText
 10
0.0905073844082551
 20
0.0474757964751689
 30
0.0
 40
3.5
  1
45P16015TRRA60
 41
0.8
  7
BMG_Text
100
AcDbAttributeDefinition
  3
identisch mit Dateiname
  2
NAME
 70
     4
  0
ENDBLK
  5
E6B
330
E63
100
AcDbEntity
  8
0
100
AcDbBlockEnd
  0
BLOCK
  5
1698
330
1697
100
AcDbEntity
  8
0
100
AcDbBlockBegin
  2
*D19
 70
     1
 10
0.0
 20
0.0
 30
0.0
  3
*D19
  1

  0
LINE
  5
176A
330
1697
100
AcDbEntity
  8
2
 62
     0
370
    -2
100
AcDbLine
 10
19.93290042877197
 20
-0.2972414642572403
 30
0.0
 11
19.93290042877197
 21
19.0276823043823
 31
0.0
  0
LINE
  5
176B
330
1697
100
AcDbEntity
  8
2
 62
     0
370
    -2
100
AcDbLine
 10
4.432900428771972
 20
7.832278098848377
 30
0.0
 11
4.432900428771973
 21
19.0276823043823
 31
0.0
  0
LINE
  5
176C
330
1697
100
AcDbEntity
  8
2
 62
     0
370
    -2
100
AcDbLine
 10
17.43290042877197
 20
17.7776823043823
 30
0.0
 11
6.932900428771973
 21
17.7776823043823
 31
0.0
  0
SOLID
  5
176D
330
1697
100
AcDbEntity
  8
2
 62
     0
100
AcDbTrace
 10
17.43290042877197
 20
18.19434897104897
 30
0.0
 11
17.43290042877197
 21
17.36101563771563
 31
0.0
 12
19.93290042877197
 22
17.7776823043823
 32
0.0
 13
19.93290042877197
 23
17.7776823043823
 33
0.0
  0
SOLID
  5
176E
330
1697
100
AcDbEntity
  8
2
 62
     0
100
AcDbTrace
 10
6.932900428771973
 20
18.19434897104897
 30
0.0
 11
6.932900428771973
 21
17.36101563771563
 31
0.0
 12
4.432900428771973
 22
17.7776823043823
 32
0.0
 13
4.432900428771973
 23
17.7776823043823
 33
0.0
  0
MTEXT
  5
176F
330
1697
100
AcDbEntity
  8
2
 62
     0
100
AcDbMText
 10
12.18290042877197
 20
20.21417211464231
 30
0.0
 40
3.5
 41
0.0
 71
     5
 72
     1
  1
15.5
 73
     1
 44
1.0
1001
ACAD
1000
MTEXTBEGIN
1070
    73
1070
     1
1070
    44
1040
1.0
1070
    74
1070
     0
1000
MTEXTEND
  0
POINT
  5
1770
330
1697
100
AcDbEntity
  8
DEFPOINTS
 62
     0
100
AcDbPoint
 10
19.93290042877197
 20
-0.2972414642572403
 30
0.0
  0
POINT
  5
1771
330
1697
100
AcDbEntity
  8
DEFPOINTS
 62
     0
100
AcDbPoint
 10
4.432900428771972
 20
7.832278098848377
 30
0.0
  0
POINT
  5
1772
330
1697
100
AcDbEntity
  8
DEFPOINTS
 62
     0
100
AcDbPoint
 10
4.432900428771973
 20
17.7776823043823
 30
0.0
  0
ENDBLK
  5
1699
330
1697
100
AcDbEntity
  8
0
100
AcDbBlockEnd
  0
BLOCK
  5
16A4
330
16A3
100
AcDbEntity
  8
0
100
AcDbBlockBegin
  2
*D20
 70
     1
 10
0.0
 20
0.0
 30
0.0
  3
*D20
  1

  0
LINE
  5
177C
330
16A3
100
AcDbEntity
  8
SK2
 62
     0
370
    -2
100
AcDbLine
 10
0.0
 20
7.421567916870117
 30
0.0
 11
-19.01326052598574
 21
7.421567916870122
 31
0.0
  0
LINE
  5
177D
330
16A3
100
AcDbEntity
  8
SK2
 62
     0
370
    -2
100
AcDbLine
 10
0.0
 20
-7.738431701660155
 30
0.0
 11
-19.01326052598574
 21
-7.738431701660149
 31
0.0
  0
LINE
  5
177E
330
16A3
100
AcDbEntity
  8
SK2
 62
     0
370
    -2
100
AcDbLine
 10
-17.76326052598574
 20
-5.23843170166015
 30
0.0
 11
-17.76326052598574
 21
4.921567916870121
 31
0.0
  0
LINE
  5
177F
330
16A3
100
AcDbEntity
  8
SK2
 62
     0
370
    -2
100
AcDbLine
 10
-17.76326052598574
 20
7.421567916870121
 30
0.0
 11
-17.76326052598573
 21
26.59801439145434
 31
0.0
  0
SOLID
  5
1780
330
16A3
100
AcDbEntity
  8
SK2
 62
     0
100
AcDbTrace
 10
-18.17992719265241
 20
-5.238431701660149
 30
0.0
 11
-17.34659385931907
 21
-5.23843170166015
 31
0.0
 12
-17.76326052598574
 22
-7.73843170166015
 32
0.0
 13
-17.76326052598574
 23
-7.73843170166015
 33
0.0
  0
SOLID
  5
1781
330
16A3
100
AcDbEntity
  8
SK2
 62
     0
100
AcDbTrace
 10
-18.17992719265241
 20
4.921567916870122
 30
0.0
 11
-17.34659385931907
 21
4.921567916870121
 31
0.0
 12
-17.76326052598574
 22
7.421567916870121
 32
0.0
 13
-17.76326052598574
 23
7.421567916870121
 33
0.0
  0
MTEXT
  5
1782
330
16A3
100
AcDbEntity
  8
SK2
 62
     0
100
AcDbMText
 10
-20.25140177686417
 20
18.62990125020346
 30
0.0
 40
3.5
 41
0.0
 71
     5
 72
     1
  1
%%c15.2
 11
0.0000000000000001
 21
1.0
 31
0.0
 73
     1
 44
1.0
1001
ACAD
1000
MTEXTBEGIN
1070
    73
1070
     1
1070
    44
1040
1.0
1070
    74
1070
     0
1000
MTEXTEND
  0
POINT
  5
1783
330
16A3
100
AcDbEntity
  8
DEFPOINTS
 62
     0
100
AcDbPoint
 10
0.0
 20
7.421567916870117
 30
0.0
  0
POINT
  5
1784
330
16A3
100
AcDbEntity
  8
DEFPOINTS
 62
     0
100
AcDbPoint
 10
0.0
 20
-7.738431701660155
 30
0.0
  0
POINT
  5
1785
330
16A3
100
AcDbEntity
  8
DEFPOINTS
 62
     0
100
AcDbPoint
 10
-17.76326052598574
 20
-7.73843170166015
 30
0.0
  0
ENDBLK
  5
16A5
330
16A3
100
AcDbEntity
  8
0
100
AcDbBlockEnd
  0
BLOCK
  5
16B1
330
16B0
100
AcDbEntity
  8
0
100
AcDbBlockBegin
  2
*D21
 70
     1
 10
0.0
 20
0.0
 30
0.0
  3
*D21
  1

  0
LINE
  5
1773
330
16B0
100
AcDbEntity
  8
2
 62
     0
370
    -2
100
AcDbLine
 10
15.55211210250854
 20
7.777682304382324
 30
0.0
 11
40.62226790226822
 21
7.777682304382317
 31
0.0
  0
LINE
  5
1774
330
16B0
100
AcDbEntity
  8
2
 62
     0
370
    -2
100
AcDbLine
 10
15.62999442985574
 20
-8.084163683687052
 30
0.0
 11
40.62226790226822
 21
-8.084163683687059
 31
0.0
  0
LINE
  5
1775
330
16B0
100
AcDbEntity
  8
2
 62
     0
370
    -2
100
AcDbLine
 10
39.37226790226822
 20
5.277682304382317
 30
0.0
 11
39.37226790226822
 21
-5.584163683687059
 31
0.0
  0
SOLID
  5
1776
330
16B0
100
AcDbEntity
  8
2
 62
     0
100
AcDbTrace
 10
38.95560123560155
 20
5.277682304382317
 30
0.0
 11
39.78893456893489
 21
5.277682304382317
 31
0.0
 12
39.37226790226822
 22
7.777682304382317
 32
0.0
 13
39.37226790226822
 23
7.777682304382317
 33
0.0
  0
SOLID
  5
1777
330
16B0
100
AcDbEntity
  8
2
 62
     0
100
AcDbTrace
 10
38.95560123560155
 20
-5.584163683687059
 30
0.0
 11
39.78893456893489
 21
-5.584163683687059
 31
0.0
 12
39.37226790226822
 22
-8.084163683687059
 32
0.0
 13
39.37226790226822
 23
-8.084163683687059
 33
0.0
  0
MTEXT
  5
1778
330
16B0
100
AcDbEntity
  8
2
 62
     0
100
AcDbMText
 10
36.88412665138979
 20
-1.403240689652341
 30
0.0
 40
3.5
 41
0.0
 71
     5
 72
     1
  1
%%c16
 11
0.0000000000000001
 21
1.0
 31
0.0
 73
     1
 44
1.0
1001
ACAD
1000
MTEXTBEGIN
1070
    73
1070
     1
1070
    44
1040
1.0
1070
    74
1070
     0
1000
MTEXTEND
  0
POINT
  5
1779
330
16B0
100
AcDbEntity
  8
DEFPOINTS
 62
     0
100
AcDbPoint
 10
15.55211210250854
 20
7.777682304382324
 30
0.0
  0
POINT
  5
177A
330
16B0
100
AcDbEntity
  8
DEFPOINTS
 62
     0
100
AcDbPoint
 10
15.62999442985574
 20
-8.084163683687052
 30
0.0
  0
POINT
  5
177B
330
16B0
100
AcDbEntity
  8
DEFPOINTS
 62
     0
100
AcDbPoint
 10
39.37226790226822
 20
-8.084163683687059
 30
0.0
  0
ENDBLK
  5
16B2
330
16B0
100
AcDbEntity
  8
0
100
AcDbBlockEnd
  0
BLOCK
  5
16BB
330
16BA
100
AcDbEntity
  8
0
100
AcDbBlockBegin
  2
*D22
 70
     1
 10
0.0
 20
0.0
 30
0.0
  3
*D22
  1

  0
LINE
  5
1761
330
16BA
100
AcDbEntity
  8
2
 62
     0
370
    -2
100
AcDbLine
 10
0.0
 20
7.421567916870117
 30
0.0
 11
0.0000000000000013
 21
29.0276823043823
 31
0.0
  0
LINE
  5
1762
330
16BA
100
AcDbEntity
  8
2
 62
     0
370
    -2
100
AcDbLine
 10
19.93290042877197
 20
-0.2972414642572403
 30
0.0
 11
19.93290042877197
 21
29.0276823043823
 31
0.0
  0
LINE
  5
1763
330
16BA
100
AcDbEntity
  8
2
 62
     0
370
    -2
100
AcDbLine
 10
2.500000000000001
 20
27.7776823043823
 30
0.0
 11
17.43290042877197
 21
27.7776823043823
 31
0.0
  0
SOLID
  5
1764
330
16BA
100
AcDbEntity
  8
2
 62
     0
100
AcDbTrace
 10
2.500000000000001
 20
28.19434897104897
 30
0.0
 11
2.500000000000001
 21
27.36101563771564
 31
0.0
 12
0.0000000000000012
 22
27.7776823043823
 32
0.0
 13
0.0000000000000012
 23
27.7776823043823
 33
0.0
  0
SOLID
  5
1765
330
16BA
100
AcDbEntity
  8
2
 62
     0
100
AcDbTrace
 10
17.43290042877197
 20
28.19434897104897
 30
0.0
 11
17.43290042877197
 21
27.36101563771564
 31
0.0
 12
19.93290042877197
 22
27.7776823043823
 32
0.0
 13
19.93290042877197
 23
27.7776823043823
 33
0.0
  0
MTEXT
  5
1766
330
16BA
100
AcDbEntity
  8
2
 62
     0
100
AcDbMText
 10
9.966450214385986
 20
30.21417211464232
 30
0.0
 40
3.5
 41
0.0
 71
     5
 72
     1
  1
19.9
 73
     1
 44
1.0
1001
ACAD
1000
MTEXTBEGIN
1070
    73
1070
     1
1070
    44
1040
1.0
1070
    74
1070
     0
1000
MTEXTEND
  0
POINT
  5
1767
330
16BA
100
AcDbEntity
  8
DEFPOINTS
 62
     0
100
AcDbPoint
 10
0.0
 20
7.421567916870117
 30
0.0
  0
POINT
  5
1768
330
16BA
100
AcDbEntity
  8
DEFPOINTS
 62
     0
100
AcDbPoint
 10
19.93290042877197
 20
-0.2972414642572403
 30
0.0
  0
POINT
  5
1769
330
16BA
100
AcDbEntity
  8
DEFPOINTS
 62
     0
100
AcDbPoint
 10
19.93290042877197
 20
27.7776823043823
 30
0.0
  0
ENDBLK
  5
16BC
330
16BA
100
AcDbEntity
  8
0
100
AcDbBlockEnd
  0
ENDSEC
  0
SECTION
  2
ENTITIES
  0
LINE
  5
BF9
330
18
100
AcDbEntity
  8
INFTOTAL
100
AcDbLine
 10
-2.491997431624982
 20
-43.91728540595432
 30
0.0
 11
45.73624147639193
 21
-43.91728540595432
 31
0.0
  0
LINE
  5
BFA
330
18
100
AcDbEntity
  8
INFTOTAL
100
AcDbLine
 10
45.73624147639193
 20
-43.91728540595432
 30
0.0
 11
45.73624147639193
 21
-12.09281848188539
 31
0.0
  0
LINE
  5
BFB
330
18
100
AcDbEntity
  8
INFTOTAL
100
AcDbLine
 10
16.55073083357094
 20
43.69513618933956
 30
0.0
 11
-38.83638791827794
 21
43.69513618933956
 31
0.0
  0
LINE
  5
BFC
330
18
100
AcDbEntity
  8
INFTOTAL
100
AcDbLine
 10
-38.83638791827794
 20
43.69513618933956
 30
0.0
 11
-38.83638791827794
 21
9.987563507905864
 31
0.0
  0
INSERT
  5
1192
330
18
100
AcDbEntity
  8
0
100
AcDbBlockReference
 66
     1
  2
Name
 10
-14.41288502254719
 20
-30.96672198986855
 30
0.0
  0
ATTRIB
  5
1193
102
{ACAD_XDICTIONARY
360
1194
102
}
330
1192
100
AcDbEntity
  8
SKVIEW63
100
AcDbText
 10
-14.32237763813893
 20
-30.91924619339338
 30
0.0
 40
3.5
  1
45P16015TRRA60
 41
0.8
  7
BMG_Text
100
AcDbAttribute
  2
NAME
 70
     0
  0
SEQEND
  5
1198
330
1192
100
AcDbEntity
  8
0
  0
LINE
  5
1590
330
18
100
AcDbEntity
  8
1
100
AcDbLine
 10
0.0
 20
-6.801119804382324
 30
0.0
 11
0.0
 21
7.421567916870117
 31
0.0
  0
LINE
  5
1591
330
18
100
AcDbEntity
  8
1
100
AcDbLine
 10
0.0
 20
-7.728431701660155
 30
0.0
 11
0.0
 21
-6.801119804382324
 31
0.0
  0
ARC
  5
1592
330
18
100
AcDbEntity
  8
1
100
AcDbCircle
 10
10.85048562288284
 20
1.290565133094787
 30
0.0
 40
9.935901641845703
100
AcDbArc
 50
205.7215179671496
 51
218.6680058154907
  0
ARC
  5
1593
330
18
100
AcDbEntity
  8
1
100
AcDbCircle
 10
1.845571517944335
 20
-5.900020122528075
 30
0.0
 40
1.58803904056549
100
AcDbArc
 50
28.29074073366095
 51
38.23247879203292
  0
LWPOLYLINE
  5
1594
330
18
100
AcDbEntity
  8
1
100
AcDbPolyline
 90
       30
 70
     0
 43
0.0
 10
1.898918151855468
 20
-3.021675825119018
 10
1.782892227172851
 20
-2.773210525512695
 10
1.672991752624511
 20
-2.520107984542846
 10
1.56945514678955
 20
-2.262654542922973
 10
1.472528457641601
 20
-2.001132607460021
 10
1.38246726989746
 20
-1.735827803611755
 10
1.299530029296875
 20
-1.467036604881286
 10
1.260814666748046
 20
-1.33143138885498
 10
1.223977088928222
 20
-1.195074558258056
 10
1.177837371826171
 20
-1.012172102928161
 10
1.135168075561523
 20
-0.8281202912330627
 10
1.09604263305664
 20
-0.6430358290672303
 10
1.056348800659179
 20
-0.4337378442287445
 10
1.02132511138916
 20
-0.223484605550766
 10
0.991063117980957
 20
-0.0124862045049668
 10
0.9656476974487304
 20
0.1990284323692322
 10
0.9422883987426757
 20
0.4453255534172058
 10
0.9256858825683593
 20
0.6916165351867676
 10
0.9159183502197265
 20
0.9375370740890502
 10
0.9130458831787109
 20
1.182726979255676
 10
0.9171066284179687
 20
1.426828980445861
 10
0.9281196594238281
 20
1.669487595558166
 10
0.946084976196289
 20
1.910347461700439
 10
0.970977783203125
 20
2.149052143096923
 10
1.002754211425781
 20
2.38524317741394
 10
1.041346549987792
 20
2.618558645248413
 10
1.086664199829101
 20
2.848631620407104
 10
1.1326904296875
 20
3.050896406173706
 10
1.183895111083984
 20
3.250059366226196
 10
1.240157127380371
 20
3.44582462310791
  0
ARC
  5
1595
330
18
100
AcDbEntity
  8
1
100
AcDbCircle
 10
1.302813529968261
 20
3.553066492080688
 30
0.0
 40
0.3726711869239807
100
AcDbArc
 50
70.71868587815754
 51
82.28623312486458
  0
LWPOLYLINE
  5
1596
330
18
100
AcDbEntity
  8
1
100
AcDbPolyline
 90
        7
 70
     0
 43
0.0
 10
1.35289192199707
 20
3.922421932220458
 10
1.352705001831054
 20
3.876945495605468
 10
1.347428321838378
 20
3.828588008880615
 10
1.333658218383789
 20
3.760759353637695
 10
1.318304061889648
 20
3.702920675277709
 10
1.297350883483886
 20
3.631955623626708
 10
1.240151405334472
 20
3.445769786834716
  0
ARC
  5
1597
330
18
100
AcDbEntity
  8
1
100
AcDbCircle
 10
1.255299568176269
 20
-6.270801544189453
 30
0.0
 40
2.283699750900268
100
AcDbArc
 50
16.33829100770112
 51
29.46316271430362
  0
LINE
  5
1598
330
18
100
AcDbEntity
  8
1
100
AcDbLine
 10
3.09289264678955
 20
-4.91732931137085
 30
0.0
 11
3.09289264678955
 21
-6.801119804382324
 31
0.0
  0
LINE
  5
1599
330
18
100
AcDbEntity
  8
1
100
AcDbLine
 10
3.446446418762207
 20
-5.628475666046141
 30
0.0
 11
3.446446418762207
 21
-6.929638862609863
 31
0.0
  0
LINE
  5
159A
330
18
100
AcDbEntity
  8
1
100
AcDbLine
 10
6.620697021484375
 20
4.766585826873779
 30
0.0
 11
9.813330650329589
 21
4.766585350036621
 31
0.0
  0
ARC
  5
159B
330
18
100
AcDbEntity
  8
1
100
AcDbCircle
 10
-4.774756431579589
 20
8.473240852355957
 30
0.0
 40
15.05161285400391
100
AcDbArc
 50
343.7763103048963
 51
345.7435298620778
  0
ARC
  5
159C
330
18
100
AcDbEntity
  8
1
100
AcDbCircle
 10
12.79238605499267
 20
3.095024108886718
 30
0.0
 40
3.328484296798706
100
AcDbArc
 50
159.3651841775665
 51
171.2065597190968
  0
LINE
  5
159D
330
18
100
AcDbEntity
  8
1
100
AcDbLine
 10
6.620697021484375
 20
3.60386300086975
 30
0.0
 11
9.502994060516357
 21
3.60386300086975
 31
0.0
  0
ARC
  5
159E
330
18
100
AcDbEntity
  8
1
100
AcDbCircle
 10
9.255335330963134
 20
-3.749879121780395
 30
0.0
 40
8.564723014831542
100
AcDbArc
 50
65.52035121279908
 51
86.06862768097856
  0
ARC
  5
159F
330
18
100
AcDbEntity
  8
1
100
AcDbCircle
 10
9.710729122161865
 20
4.901805877685546
 30
0.0
 40
0.1696891784667969
100
AcDbArc
 50
307.1902003568951
 51
321.032546508111
  0
ARC
  5
15A0
330
18
100
AcDbEntity
  8
1
100
AcDbCircle
 10
11.51319129765034
 20
4.537964344024658
 30
0.0
 40
1.381991624832153
100
AcDbArc
 50
332.8187250701921
 51
339.0725999717996
  0
ARC
  5
15A1
330
18
100
AcDbEntity
  8
1
100
AcDbCircle
 10
6.623533725738525
 20
6.973347187042236
 30
0.0
 40
3.36955976486206
100
AcDbArc
 50
248.8324484402303
 51
269.9517695304584
  0
LWPOLYLINE
  5
15A2
330
18
100
AcDbEntity
  8
1
100
AcDbPolyline
 90
       13
 70
     0
 43
0.0
 10
3.68467092514038
 20
4.331926822662353
 10
3.802903652191162
 20
4.320641994476318
 10
3.930309295654296
 20
4.30091381072998
 10
4.066729068756103
 20
4.272974967956542
 10
4.167005538940429
 20
4.248867034912109
 10
4.271092891693115
 20
4.221247196197509
 10
4.394894123077392
 20
4.185572147369384
 10
4.522668361663818
 20
4.146165370941162
 10
4.656507492065429
 20
4.102694988250732
 10
4.930762290954589
 20
4.007883071899414
 10
5.089882373809814
 20
3.950533390045166
 10
5.250492095947265
 20
3.890761852264404
 10
5.406737804412841
 20
3.830983161926269
  0
ARC
  5
15A3
330
18
100
AcDbEntity
  8
1
100
AcDbCircle
 10
3.586318492889404
 20
3.273804187774658
 30
0.0
 40
1.061915397644042
100
AcDbArc
 50
84.68961896719774
 51
109.3093851234795
  0
LINE
  5
15A4
330
18
100
AcDbEntity
  8
1
100
AcDbLine
 10
3.17557144165039
 20
4.252873420715332
 30
0.0
 11
3.23539924621582
 21
4.275344848632812
 31
0.0
  0
LWPOLYLINE
  5
15A5
330
18
100
AcDbEntity
  8
1
100
AcDbPolyline
 90
       10
 70
     0
 43
0.0
 10
1.425856167164113
 20
3.904780458476324
 10
1.607741339973699
 20
3.910244921625888
 10
1.793915395464182
 20
3.924172673730282
 10
1.98389534140972
 20
3.946527581956871
 10
2.177188311944888
 20
3.977251650862285
 10
2.373292846209096
 20
4.016265172850381
 10
2.571700189288719
 20
4.063466934957972
 10
2.77189561208246
 20
4.118734481432113
 10
2.97335974666538
 20
4.18192443141757
 10
3.175569933687683
 20
4.252872850930572
  0
ARC
  5
15A6
330
18
100
AcDbEntity
  8
1
100
AcDbCircle
 10
4.503242015838623
 20
3.925390720367431
 30
0.0
 40
3.077580690383911
100
AcDbArc
 50
143.3262473274383
 51
180.3833152263658
  0
LINE
  5
15A7
330
18
100
AcDbEntity
  8
SK1
100
AcDbLine
 10
-0.1895332336425781
 20
2.073254346847534
 30
0.0
 11
-0.1895332336425781
 21
5.395434856414794
 31
0.0
  0
LINE
  5
15A8
330
18
100
AcDbEntity
  8
SK1
100
AcDbLine
 10
-0.1895332336425781
 20
-5.702299118041992
 30
0.0
 11
-0.1895332336425781
 21
2.073254346847534
 31
0.0
  0
ARC
  5
15A9
330
18
100
AcDbEntity
  8
1
100
AcDbCircle
 10
1.712241172790527
 20
-6.162468910217284
 30
0.0
 40
1.813963651657103
100
AcDbArc
 50
6.299580055890312
 51
17.11455534325806
  0
LWPOLYLINE
  5
15AA
330
18
100
AcDbEntity
  8
1
100
AcDbPolyline
 90
       16
 70
     0
 43
0.0
 10
3.352078437805175
 20
-4.001576900482178
 10
3.311419486999511
 20
-4.017854928970337
 10
3.290860176086425
 20
-4.023539066314697
 10
3.270204544067382
 20
-4.027373313903808
 10
3.242596626281738
 20
-4.029300689697266
 10
3.21502685546875
 20
-4.027168989181518
 10
3.187639236450195
 20
-4.020478010177612
 10
3.170906066894531
 20
-4.013838529586792
 10
3.154374122619628
 20
-4.005130052566529
 10
3.138123512268066
 20
-3.994236946105957
 10
3.122245788574218
 20
-3.981063604354858
 10
3.106840133666992
 20
-3.965544939041137
 10
3.092012405395507
 20
-3.947654247283935
 10
3.070174217224121
 20
-3.91487693786621
 10
3.050282478332519
 20
-3.876504182815551
 10
3.032732009887695
 20
-3.833389282226562
  0
ARC
  5
15AB
330
18
100
AcDbEntity
  8
1
100
AcDbCircle
 10
14.62939953804016
 20
0.3033362329006195
 30
0.0
 40
12.31225299835205
100
AcDbArc
 50
194.8243191135962
 51
199.6292215227731
  0
LWPOLYLINE
  5
15AC
330
18
100
AcDbEntity
  8
1
100
AcDbPolyline
 90
       13
 70
     0
 43
0.0
 10
2.727080345153808
 20
-2.846797227859497
 10
2.659560203552246
 20
-2.573809146881103
 10
2.597515106201171
 20
-2.2910737991333
 10
2.56869888305664
 20
-2.146147727966308
 10
2.541452407836914
 20
-1.998823165893554
 10
2.503728866577148
 20
-1.773258686065673
 10
2.47011661529541
 20
-1.542139053344726
 10
2.441075325012207
 20
-1.305560708045959
 10
2.41717529296875
 20
-1.063928365707397
 10
2.39999771118164
 20
-0.8327812552452087
 10
2.388411521911621
 20
-0.5973215103149414
 10
2.382936477661132
 20
-0.3600157052278519
 10
2.383983612060546
 20
-0.1236283835023642
  0
ARC
  5
15AD
330
18
100
AcDbEntity
  8
1
100
AcDbCircle
 10
8.391753673553466
 20
-0.2305683195590973
 30
0.0
 40
6.008717536926269
100
AcDbArc
 50
176.5848147236266
 51
178.9802304171092
  0
ARC
  5
15AE
330
18
100
AcDbEntity
  8
1
100
AcDbCircle
 10
9.842099428176879
 20
-0.34244005382061
 30
0.0
 40
7.463642120361327
100
AcDbArc
 50
160.539552563544
 51
176.3907690262391
  0
ARC
  5
15AF
330
18
100
AcDbEntity
  8
1
100
AcDbCircle
 10
14.07122945785522
 20
-1.773001670837402
 30
0.0
 40
11.92885589599609
100
AcDbArc
 50
157.7439015424314
 51
160.8283461487707
  0
LWPOLYLINE
  5
15B0
330
18
100
AcDbEntity
  8
1
100
AcDbPolyline
 90
       14
 70
     0
 43
0.0
 10
3.030712127685546
 20
2.744435548782348
 10
3.049736022949218
 20
2.786032676696777
 10
3.07177734375
 20
2.820448875427246
 10
3.095987319946289
 20
2.846209049224853
 10
3.120228767395019
 20
2.862487077713012
 10
3.145484924316406
 20
2.871604681015014
 10
3.171062469482421
 20
2.874280214309692
 10
3.196412086486816
 20
2.871406316757202
 10
3.223379135131835
 20
2.863167285919189
 10
3.249995231628417
 20
2.850491762161254
 10
3.274399757385253
 20
2.835352659225463
 10
3.298428535461425
 20
2.817478895187377
 10
3.325550079345703
 20
2.794064283370971
 10
3.352078437805175
 20
2.768056869506835
  0
LINE
  5
15B1
330
18
100
AcDbEntity
  8
1
100
AcDbLine
 10
3.51604413986206
 20
-6.990716457366943
 30
0.0
 11
3.515856742858886
 21
-6.170200824737549
 31
0.0
  0
LINE
  5
15B2
330
18
100
AcDbEntity
  8
1
100
AcDbLine
 10
3.51585578918457
 20
-5.992801189422606
 30
0.0
 11
3.515856742858886
 21
-6.170200824737549
 31
0.0
  0
LINE
  5
15B3
330
18
100
AcDbEntity
  8
1
100
AcDbLine
 10
3.515865802764892
 20
-5.992767333984374
 30
0.0
 11
3.514739990234375
 21
-5.96348476409912
 31
0.0
  0
ARC
  5
15B4
330
18
100
AcDbEntity
  8
1
100
AcDbCircle
 10
5.689324378967285
 20
7.534564971923828
 30
0.0
 40
7.931641578674316
100
AcDbArc
 50
328.8073933172792
 51
332.780524008546
  0
LWPOLYLINE
  5
15B5
330
18
100
AcDbEntity
  8
1
100
AcDbPolyline
 90
       22
 70
     0
 43
0.0
 10
9.502996325492858
 20
3.603863477706909
 10
9.68874442577362
 20
3.598798751831054
 10
9.874281167984008
 20
3.585950851440429
 10
10.05917763710022
 20
3.565326929092407
 10
10.2429928779602
 20
3.536990642547607
 10
10.42527437210083
 20
3.501067876815795
 10
10.6055583357811
 20
3.457754373550415
 10
10.78337025642395
 20
3.407320976257324
 10
10.95822557806968
 20
3.350121974945068
 10
11.1296301484108
 20
3.286600589752197
 10
11.30485129356384
 20
3.213909149169921
 10
11.47516777925193
 20
3.135620355606079
 10
11.64023047685623
 20
3.052435398101806
 10
11.79988783597946
 20
2.965000629425048
 10
11.93726390600204
 20
2.884193658828735
 10
12.07043486833572
 20
2.800879955291748
 10
12.19950652122497
 20
2.715410470962524
 10
12.29369068145752
 20
2.650086879730224
 10
12.38567960262298
 20
2.583855390548706
 10
12.53983938694
 20
2.467395067214965
 10
12.68811452388763
 20
2.348819494247436
 10
12.83105397224426
 20
2.228285074234008
  0
LWPOLYLINE
  5
15B6
330
18
100
AcDbEntity
  8
1
100
AcDbPolyline
 90
       11
 70
     0
 43
0.0
 10
13.81817364692688
 20
1.668334007263183
 10
13.80762958526611
 20
1.722826361656188
 10
13.79923009872436
 20
1.777155041694641
 10
13.79156398773193
 20
1.849206686019897
 10
13.78812432289123
 20
1.920630931854248
 10
13.78905844688415
 20
1.99120807647705
 10
13.79545736312866
 20
2.069306373596191
 10
13.8075966835022
 20
2.145702123641967
 10
13.82552170753479
 20
2.220062494277954
 10
13.84926199913025
 20
2.292069673538208
 10
13.87384176254272
 20
2.350792169570922
  0
LWPOLYLINE
  5
15B7
330
18
100
AcDbEntity
  8
1
100
AcDbPolyline
 90
        9
 70
     0
 43
0.0
 10
12.47357249259948
 20
3.42581820487976
 10
12.53826081752777
 20
3.492289304733276
 10
12.60760128498077
 20
3.555062055587768
 10
12.68122279644012
 20
3.614253282546997
 10
12.75876593589783
 20
3.669991731643676
 10
12.81247472763061
 20
3.705299139022827
 10
12.86769008636474
 20
3.73917269706726
 10
12.98234403133392
 20
3.802780151367187
 10
13.1022754907608
 20
3.861127376556396
  0
LINE
  5
15B8
330
18
100
AcDbEntity
  8
1
100
AcDbLine
 10
5.256218433380126
 20
1.256737112998962
 30
0.0
 11
6.4707932472229
 21
1.260660648345947
 31
0.0
  0
LINE
  5
15B9
330
18
100
AcDbEntity
  8
1
100
AcDbLine
 10
6.4707932472229
 20
1.260660648345947
 30
0.0
 11
10.64083367586136
 21
1.274131178855895
 31
0.0
  0
ARC
  5
15BA
330
18
100
AcDbEntity
  8
1
100
AcDbCircle
 10
0.6905784606933594
 20
0.3598763942718506
 30
0.0
 40
3.589525461196898
100
AcDbArc
 50
35.25938242155336
 51
42.14000092978831
  0
LINE
  5
15BB
330
18
100
AcDbEntity
  8
1
100
AcDbLine
 10
3.621755123138427
 20
2.432146787643432
 30
0.0
 11
3.728244304656982
 21
2.277314901351928
 31
0.0
  0
LWPOLYLINE
  5
15BC
330
18
100
AcDbEntity
  8
1
100
AcDbPolyline
 90
       10
 70
     0
 43
0.0
 10
3.728242679647962
 20
2.277313101314433
 10
3.876818202351898
 20
2.06866254485854
 10
4.032722236219512
 20
1.881959819625336
 10
4.195129997981553
 20
1.718192644022565
 10
4.363182297523621
 20
1.578227399908001
 10
4.535990083282456
 20
1.462804549146284
 10
4.712639145619249
 20
1.372534716323826
 10
4.892194953287201
 20
1.307895458345257
 10
5.073707597407207
 20
1.269228738001373
 10
5.256216816796012
 20
1.256739114874278
  0
LWPOLYLINE
  5
15BD
330
18
100
AcDbEntity
  8
1
100
AcDbPolyline
 90
       22
 70
     0
 43
0.0
 10
3.515856742858886
 20
-6.170200824737549
 10
3.597002983093261
 20
-6.165846347808837
 10
3.677711963653564
 20
-6.157392024993895
 10
3.759524345397949
 20
-6.145402431488037
 10
3.840940952301025
 20
-6.130767345428466
 10
3.946757793426513
 20
-6.108764648437499
 10
4.01688814163208
 20
-6.092876434326171
 10
4.156075477600097
 20
-6.05960464477539
 10
4.366467475891113
 20
-6.008392810821533
 10
4.47062349319458
 20
-5.983807086944579
 10
4.770113945007324
 20
-5.918479442596434
 10
4.973915100097656
 20
-5.878338813781738
 10
5.109285831451416
 20
-5.853030681610106
 10
5.374495506286621
 20
-5.805220127105712
 10
5.645652770996093
 20
-5.756585597991943
 10
5.98652696609497
 20
-5.689399242401123
 10
6.193776130676269
 20
-5.645973682403564
 10
6.298592567443847
 20
-5.625472545623778
 10
6.416744709014892
 20
-5.605952739715575
 10
6.476359367370605
 20
-5.598410606384276
 10
6.548276424407958
 20
-5.592173576354979
 10
6.620697021484375
 20
-5.5898699760437
  0
LINE
  5
15BE
330
18
100
AcDbEntity
  8
1
100
AcDbLine
 10
3.516466617584228
 20
-7.494613647460936
 30
0.0
 11
3.51604413986206
 21
-6.990716457366943
 31
0.0
  0
LINE
  5
15BF
330
18
100
AcDbEntity
  8
SK1
100
AcDbLine
 10
-1.900000572204589
 20
2.037282228469848
 30
0.0
 11
-1.900000572204589
 21
5.305793285369873
 31
0.0
  0
LINE
  5
15C0
330
18
100
AcDbEntity
  8
SK1
100
AcDbLine
 10
-1.900000572204589
 20
-5.612657070159912
 30
0.0
 11
-1.900000572204589
 21
2.037282228469848
 31
0.0
  0
ARC
  5
15C1
330
18
100
AcDbEntity
  8
1
100
AcDbCircle
 10
3.721325397491455
 20
-3.913761854171752
 30
0.0
 40
2.088574886322021
100
AcDbArc
 50
264.35584335402
 51
278.4189707959624
  0
LWPOLYLINE
  5
15C2
330
18
100
AcDbEntity
  8
1
100
AcDbPolyline
 90
       14
 70
     0
 43
0.0
 10
5.272268295288085
 20
-5.43861436843872
 10
5.166096210479736
 20
-5.503734588623046
 10
5.058578968048095
 20
-5.567078590393065
 10
4.966019630432128
 20
-5.619321346282958
 10
4.872029304504394
 20
-5.66999864578247
 10
4.732328414916992
 20
-5.740464687347412
 10
4.587895393371582
 20
-5.806565761566162
 10
4.513764858245849
 20
-5.837566375732421
 10
4.438409328460693
 20
-5.866867542266845
 10
4.371501445770263
 20
-5.890875339508056
 10
4.303775787353515
 20
-5.913104534149169
 10
4.212368011474609
 20
-5.939554214477539
 10
4.120012283325195
 20
-5.961825847625731
 10
4.027052879333496
 20
-5.979412078857421
  0
LINE
  5
15C3
330
18
100
AcDbEntity
  8
1
100
AcDbLine
 10
5.572000980377197
 20
-5.246066570281981
 30
0.0
 11
5.272268295288085
 21
-5.43861436843872
 31
0.0
  0
LWPOLYLINE
  5
15C4
330
18
100
AcDbEntity
  8
1
100
AcDbPolyline
 90
       11
 70
     0
 43
0.0
 10
5.256218433380126
 20
-2.857021331787109
 10
5.166016578674316
 20
-2.860000133514404
 10
5.076072216033935
 20
-2.869505882263183
 10
4.98663854598999
 20
-2.885371685028076
 10
4.897943496704101
 20
-2.907325983047485
 10
4.810189247131347
 20
-2.935014486312866
 10
4.755898475646972
 20
-2.955050706863403
 10
4.702076911926269
 20
-2.977058410644531
 10
4.595956325531005
 20
-3.026541948318481
 10
4.491988658905029
 20
-3.0825777053833
 10
4.40982437133789
 20
-3.131927251815795
  0
ARC
  5
15C5
330
18
100
AcDbEntity
  8
1
100
AcDbCircle
 10
6.31322956085205
 20
-6.097972393035889
 30
0.0
 40
3.524567604064941
100
AcDbArc
 50
122.6895687399634
 51
132.585078824242
  0
ARC
  5
15C6
330
18
100
AcDbEntity
  8
1
100
AcDbCircle
 10
5.922985076904296
 20
-5.74808645248413
 30
0.0
 40
3.003517866134643
100
AcDbArc
 50
131.6204910922263
 51
136.8995299848271
  0
ARC
  5
15C7
330
18
100
AcDbEntity
  8
1
100
AcDbCircle
 10
2.611590385437011
 20
-2.708560705184936
 30
0.0
 40
1.490997552871704
100
AcDbArc
 50
299.7982829177262
 51
318.5618982751395
  0
LWPOLYLINE
  5
15C8
330
18
100
AcDbEntity
  8
1
100
AcDbPolyline
 90
       15
 70
     0
 43
0.0
 10
6.620697021484375
 20
-4.805965423583983
 10
6.574923515319824
 20
-4.807462215423584
 10
6.526418209075927
 20
-4.812073707580565
 10
6.478350639343261
 20
-4.819319248199463
 10
6.428121089935302
 20
-4.82944917678833
 10
6.378547668457031
 20
-4.841769695281981
 10
6.284008979797363
 20
-4.870945453643799
 10
6.214688777923583
 20
-4.896526336669922
 10
6.146543502807617
 20
-4.924706935882569
 10
6.079370021820068
 20
-4.955117225646973
 10
6.012983798980712
 20
-4.987467288970948
 10
5.88223648071289
 20
-5.056978702545166
 10
5.776993751525878
 20
-5.117757797241211
 10
5.707940101623535
 20
-5.159679412841797
 10
5.572000980377197
 20
-5.246066570281981
  0
ARC
  5
15C9
330
18
100
AcDbEntity
  8
1
100
AcDbCircle
 10
31.29736423492432
 20
5.438817977905273
 30
0.0
 40
17.88129806518555
100
AcDbArc
 50
192.172908122493
 51
193.432586930402
  0
ARC
  5
15CA
330
18
100
AcDbEntity
  8
1
100
AcDbCircle
 10
13.89924597740173
 20
1.283158063888549
 30
0.0
 40
0.0046606981195509
100
AcDbArc
 50
240.0245163355043
 51
31.67092509489834
  0
LWPOLYLINE
  5
15CB
330
18
100
AcDbEntity
  8
1
100
AcDbPolyline
 90
        4
 70
     0
 43
0.0
 10
13.75597357749939
 20
1.353883147239685
 10
13.84173369407654
 20
1.304342746734619
 10
13.87796068191528
 20
1.28546142578125
 10
13.89675307273865
 20
1.278835892677307
  0
LINE
  5
15CC
330
18
100
AcDbEntity
  8
1
100
AcDbLine
 10
13.60956907272339
 20
1.439460277557373
 30
0.0
 11
13.75597357749939
 21
1.353883147239685
 31
0.0
  0
ARC
  5
15CD
330
18
100
AcDbEntity
  8
1
100
AcDbCircle
 10
7.549204349517822
 20
-3.759613752365112
 30
0.0
 40
7.984717369079589
100
AcDbArc
 50
40.62568007020183
 51
48.58409982622821
  0
ARC
  5
15CE
330
18
100
AcDbEntity
  8
1
100
AcDbCircle
 10
6.824779510498046
 20
-1.606326818466186
 30
0.0
 40
8.324857711791992
100
AcDbArc
 50
29.64946646592009
 51
41.05513418315161
  0
ARC
  5
15CF
330
18
100
AcDbEntity
  8
1
100
AcDbCircle
 10
14.20172357559204
 20
2.158488512039184
 30
0.0
 40
0.3801359832286835
100
AcDbArc
 50
111.864381029892
 51
149.608274026149
  0
LINE
  5
15D0
330
18
100
AcDbEntity
  8
1
100
AcDbLine
 10
10.64083367586136
 20
1.274131178855895
 30
0.0
 11
12.92714881896972
 21
1.281516671180725
 31
0.0
  0
ARC
  5
15D1
330
18
100
AcDbEntity
  8
1
100
AcDbCircle
 10
12.93653357028961
 20
1.600191593170166
 30
0.0
 40
0.3184665143489838
100
AcDbArc
 50
268.3129681480204
 51
295.0542649894503
  0
LINE
  5
15D2
330
18
100
AcDbEntity
  8
1
100
AcDbLine
 10
6.620697021484375
 20
-5.5898699760437
 30
0.0
 11
11.15640246868133
 21
-5.589869022369384
 31
0.0
  0
LINE
  5
15D3
330
18
100
AcDbEntity
  8
1
100
AcDbLine
 10
6.4707932472229
 20
-2.861018896102905
 30
0.0
 11
5.256218433380126
 21
-2.857021331787109
 31
0.0
  0
LINE
  5
15D4
330
18
100
AcDbEntity
  8
1
100
AcDbLine
 10
10.31412780284881
 20
-4.805966854095459
 30
0.0
 11
6.620697021484375
 21
-4.805973529815674
 31
0.0
  0
ARC
  5
15D5
330
18
100
AcDbEntity
  8
1
100
AcDbCircle
 10
13.89989018440246
 20
1.281402707099914
 30
0.0
 40
0.0066017820499837
100
AcDbArc
 50
261.4275710320521
 51
24.4967945763608
  0
LWPOLYLINE
  5
15D6
330
18
100
AcDbEntity
  8
1
100
AcDbPolyline
 90
       13
 70
     0
 43
0.0
 10
13.07128012180328
 20
1.311975359916687
 10
13.18075335025787
 20
1.372304558753967
 10
13.23577606678009
 20
1.400134682655334
 10
13.27714800834655
 20
1.419295787811279
 10
13.31858086585998
 20
1.43646240234375
 10
13.34970021247864
 20
1.447675108909606
 10
13.38088822364807
 20
1.457133293151855
 10
13.41220390796661
 20
1.464488267898559
 10
13.44374394416809
 20
1.469337701797485
 10
13.48427867889404
 20
1.471162319183349
 10
13.52545428276062
 20
1.467243552207946
 10
13.56726241111755
 20
1.456779837608337
 10
13.60957074165344
 20
1.439352989196777
  0
LWPOLYLINE
  5
15D7
330
18
100
AcDbEntity
  8
1
100
AcDbPolyline
 90
        7
 70
     0
 43
0.0
 10
13.90513825416565
 20
1.284936070442199
 10
14.08320951461792
 20
1.099423646926879
 10
14.22107267379761
 20
0.9487876892089843
 10
14.28854060173035
 20
0.8714587688446044
 10
14.3547294139862
 20
0.7926692366600037
 10
14.41927313804626
 20
0.7122055292129517
 10
14.48156881332397
 20
0.629599153995514
  0
LWPOLYLINE
  5
15D8
330
18
100
AcDbEntity
  8
1
100
AcDbPolyline
 90
       12
 70
     0
 43
0.0
 10
14.48156881332397
 20
0.629599153995514
 10
14.51738047599792
 20
0.5788282155990601
 10
14.55178594589233
 20
0.526778519153595
 10
14.58450555801391
 20
0.4733049869537354
 10
14.61526155471801
 20
0.4183376431465149
 10
14.65274667739868
 20
0.3427242040634155
 10
14.68564629554748
 20
0.2645911574363708
 10
14.71340155601501
 20
0.1842114329338074
 10
14.7355260848999
 20
0.1019518375396728
 10
14.75162720680237
 20
0.0182322263717652
 10
14.76142501831055
 20
-0.0665153935551643
 10
14.76476883888244
 20
-0.1534319070285335
  0
LINE
  5
15D9
330
18
100
AcDbEntity
  8
SK1
100
AcDbLine
 10
-2.100000381469726
 20
1.873065710067749
 30
0.0
 11
-2.100000381469726
 21
4.896568298339843
 31
0.0
  0
LINE
  5
15DA
330
18
100
AcDbEntity
  8
SK1
100
AcDbLine
 10
-2.100000381469726
 20
-5.203432083129883
 30
0.0
 11
-2.100000381469726
 21
1.873065710067749
 31
0.0
  0
LINE
  5
15DB
330
18
100
AcDbEntity
  8
1
100
AcDbLine
 10
10.64083367586136
 20
-2.874678373336791
 30
0.0
 11
6.4707932472229
 21
-2.861018896102905
 31
0.0
  0
LINE
  5
15DC
330
18
100
AcDbEntity
  8
1
100
AcDbLine
 10
12.82780539989471
 20
-2.881801843643188
 30
0.0
 11
10.64083367586136
 21
-2.874678373336791
 31
0.0
  0
LWPOLYLINE
  5
15DD
330
18
100
AcDbEntity
  8
1
100
AcDbPolyline
 90
       27
 70
     0
 43
0.0
 10
11.15640243887901
 20
-5.589869022369384
 10
11.29411013424396
 20
-5.533937931060791
 10
11.43098093383014
 20
-5.47433853149414
 10
11.5669037848711
 20
-5.411174297332763
 10
11.66815869510174
 20
-5.361521244049073
 10
11.76877492666244
 20
-5.309960842132569
 10
11.96791690587997
 20
-5.201277256011963
 10
12.16398769617081
 20
-5.08543825149536
 10
12.35665464401245
 20
-4.962746620178223
 10
12.54559278488159
 20
-4.833494186401368
 10
12.73048233985901
 20
-4.697963714599608
 10
12.91100716590881
 20
-4.556426525115967
 10
13.08685231208801
 20
-4.409147262573243
 10
13.25770187377929
 20
-4.256381988525391
 10
13.42323732376099
 20
-4.098379135131835
 10
13.58313536643982
 20
-3.935381412506103
 10
13.72869157791138
 20
-3.777047872543334
 10
13.86862802505493
 20
-3.614674568176269
 10
14.00262951850891
 20
-3.448478698730468
 10
14.13036155700683
 20
-3.278692483901977
 10
14.25147032737732
 20
-3.105563879013061
 10
14.36558389663696
 20
-2.929359436035156
 10
14.47231364250183
 20
-2.750364542007446
 10
14.52279615402221
 20
-2.659892320632934
 10
14.57127857208252
 20
-2.568839073181152
 10
14.61768388748169
 20
-2.477294206619262
 10
14.66198420524597
 20
-2.385254144668579
  0
ARC
  5
15DE
330
18
100
AcDbEntity
  8
1
100
AcDbCircle
 10
35.25510311126709
 20
4.664972305297851
 30
0.0
 40
21.76650238037109
100
AcDbArc
 50
197.1792325220481
 51
198.8990328208116
  0
LWPOLYLINE
  5
15DF
330
18
100
AcDbEntity
  8
1
100
AcDbPolyline
 90
       16
 70
     0
 43
0.0
 10
14.45971035957336
 20
-1.764021158218383
 10
14.42027854919433
 20
-1.895314216613769
 10
14.37388014793396
 20
-2.02620780467987
 10
14.32055330276489
 20
-2.15580940246582
 10
14.2605459690094
 20
-2.283193349838256
 10
14.19428920745849
 20
-2.407465696334838
 10
14.12236738204956
 20
-2.527828216552734
 10
14.04084777832031
 20
-2.650268793106079
 10
13.95452332496643
 20
-2.767268419265747
 10
13.8641140460968
 20
-2.878652334213256
 10
13.77028584480285
 20
-2.984390020370483
 10
13.68449378013611
 20
-3.073712110519409
 10
13.59682440757751
 20
-3.158777952194213
 10
13.50756430625915
 20
-3.239770650863647
 10
13.4397029876709
 20
-3.297974586486816
 10
13.37111902236938
 20
-3.354114532470703
  0
ARC
  5
15E0
330
18
100
AcDbEntity
  8
1
100
AcDbCircle
 10
10.33878886699676
 20
-0.821804404258728
 30
0.0
 40
3.951217889785766
100
AcDbArc
 50
289.5955772681775
 51
320.1346159304842
  0
ARC
  5
15E1
330
18
100
AcDbEntity
  8
1
100
AcDbCircle
 10
10.14983057975769
 20
-0.3276034891605377
 30
0.0
 40
4.481152534484863
100
AcDbArc
 50
272.1010387678211
 51
289.752468334101
  0
ARC
  5
15E2
330
18
100
AcDbEntity
  8
1
100
AcDbCircle
 10
12.69417119026184
 20
-0.1501140063628554
 30
0.0
 40
2.070648431777954
100
AcDbArc
 50
345.9481343030053
 51
359.9081900094483
  0
ARC
  5
15E3
330
18
100
AcDbEntity
  8
1
100
AcDbCircle
 10
33.90089130401611
 20
-5.39683723449707
 30
0.0
 40
19.77546691894531
100
AcDbArc
 50
166.1198721634405
 51
168.8101880308068
  0
LINE
  5
15E4
330
18
100
AcDbEntity
  8
1
100
AcDbLine
 10
14.50130844116211
 20
-1.559200525283813
 30
0.0
 11
14.45971012115478
 21
-1.764020562171936
 31
0.0
  0
LINE
  5
15E5
330
18
100
AcDbEntity
  8
SK1
100
AcDbLine
 10
-3.57867431640625
 20
4.89247703552246
 30
0.0
 11
-3.563858032226562
 21
4.896568298339843
 31
0.0
  0
LWPOLYLINE
  5
15E6
330
18
100
AcDbEntity
  8
SK1
100
AcDbPolyline
 90
       20
 70
     0
 43
0.0
 10
-3.563858032226562
 20
4.896568298339843
 10
-3.552520751953125
 20
4.894173145294189
 10
-3.541201591491699
 20
4.887003898620605
 10
-3.530827522277832
 20
4.876244068145751
 10
-3.520477294921875
 20
4.861517429351806
 10
-3.508318901062011
 20
4.83913230895996
 10
-3.49620246887207
 20
4.811367511749267
 10
-3.479479789733886
 20
4.76412296295166
 10
-3.462857246398925
 20
4.706950664520263
 10
-3.446343421936035
 20
4.640141487121582
 10
-3.429944992065429
 20
4.564017295837402
 10
-3.397512435913085
 20
4.385258674621582
 10
-3.368560791015625
 20
4.194879531860351
 10
-3.339941978454589
 20
3.979349136352539
 10
-3.317168235778808
 20
3.789616346359252
 10
-3.294694900512695
 20
3.587596416473388
 10
-3.262001037597656
 20
3.269300460815429
 10
-3.230058670043945
 20
2.93269395828247
 10
-3.184705734252929
 20
2.416941404342651
 10
-3.140093803405761
 20
1.873065710067749
  0
LINE
  5
15E7
330
18
100
AcDbEntity
  8
SK1
100
AcDbLine
 10
-4.713494300842285
 20
-5.203432083129883
 30
0.0
 11
-4.728030204772949
 21
-5.199449539184571
 31
0.0
  0
LINE
  5
15E8
330
18
100
AcDbEntity
  8
SK1
100
AcDbLine
 10
-2.414356231689453
 20
-5.203432083129883
 30
0.0
 11
-2.42896556854248
 21
-5.199389457702637
 31
0.0
  0
LWPOLYLINE
  5
15E9
330
18
100
AcDbEntity
  8
SK1
100
AcDbPolyline
 90
       24
 70
     0
 43
0.0
 10
-2.42896556854248
 20
-5.199389457702637
 10
-2.441847801208496
 20
-5.189109325408934
 10
-2.454687118530273
 20
-5.172605514526368
 10
-2.466132164001464
 20
-5.152635097503662
 10
-2.477531433105468
 20
-5.127826690673829
 10
-2.491547584533691
 20
-5.090627193450928
 10
-2.505485534667968
 20
-5.046349525451661
 10
-2.524275779724121
 20
-4.975286960601807
 10
-2.542921066284179
 20
-4.892076969146729
 10
-2.56142234802246
 20
-4.797293186187745
 10
-2.579782485961914
 20
-4.691543102264403
 10
-2.616073608398437
 20
-4.449678897857666
 10
-2.653014183044433
 20
-4.161080360412598
 10
-2.689296722412109
 20
-3.838860034942626
 10
-2.720014572143554
 20
-3.53820252418518
 10
-2.750252723693847
 20
-3.219121694564819
 10
-2.789532661437988
 20
-2.773306131362915
 10
-2.828042030334472
 20
-2.305667161941528
 10
-2.875874519348144
 20
-1.689978241920471
 10
-2.907343864440917
 20
-1.2688889503479
 10
-2.969820022583007
 20
-0.4118411540985108
 10
-3.040648460388183
 20
0.5636374354362488
 10
-3.105717658996582
 20
1.433520197868347
 10
-3.140093803405761
 20
1.873065710067749
  0
LINE
  5
15EA
330
18
100
AcDbEntity
  8
SK1
100
AcDbLine
 10
-3.808254241943359
 20
-5.199342250823975
 30
0.0
 11
-3.823017120361328
 21
-5.203432083129883
 31
0.0
  0
LWPOLYLINE
  5
15EB
330
18
100
AcDbEntity
  8
SK1
100
AcDbPolyline
 90
       25
 70
     0
 43
0.0
 10
-3.823017120361328
 20
-5.203432083129883
 10
-3.836137771606445
 20
-5.200209140777588
 10
-3.849250793457031
 20
-5.190568923950196
 10
-3.862309455871582
 20
-5.174616813659668
 10
-3.875334739685058
 20
-5.15241765975952
 10
-3.888380050659179
 20
-5.123913288116455
 10
-3.901371002197265
 20
-5.089319705963135
 10
-3.920691490173339
 20
-5.026485443115233
 10
-3.939847946166992
 20
-4.950840950012207
 10
-3.956589698791503
 20
-4.873974800109864
 10
-3.973180770874023
 20
-4.788018703460694
 10
-3.993996620178222
 20
-4.666614532470704
 10
-4.01454734802246
 20
-4.532228469848633
 10
-4.052109718322753
 20
-4.250534534454346
 10
-4.088785171508789
 20
-3.932892799377441
 10
-4.118665695190429
 20
-3.645309209823608
 10
-4.14809513092041
 20
-3.339119434356689
 10
-4.188891410827636
 20
-2.881562709808349
 10
-4.229147911071777
 20
-2.398491382598876
 10
-4.278318405151367
 20
-1.775048494338989
 10
-4.310799598693847
 20
-1.347737431526184
 10
-4.37515640258789
 20
-0.4764529466629029
 10
-4.447694778442382
 20
0.5207212567329407
 10
-4.514358520507812
 20
1.418696165084838
 10
-4.549444198608398
 20
1.873065710067749
  0
LWPOLYLINE
  5
15EC
330
18
100
AcDbEntity
  8
1
100
AcDbPolyline
 90
        6
 70
     0
 43
0.0
 10
13.37097561359405
 20
-3.35396122932434
 10
13.37023997306824
 20
-3.340265989303588
 10
13.36649477481842
 20
-3.328933477401733
 10
13.36193656921387
 20
-3.321201562881469
 10
13.35064041614532
 20
-3.307536602020263
 10
13.31462132930755
 20
-3.265497922897338
  0
ARC
  5
15ED
330
18
100
AcDbEntity
  8
1
100
AcDbCircle
 10
11.2289135158062
 20
-4.882822513580323
 30
0.0
 40
2.639417886734009
100
AcDbArc
 50
37.7911481623301
 51
47.46781074454363
  0
LWPOLYLINE
  5
15EE
330
18
100
AcDbEntity
  8
1
100
AcDbPolyline
 90
        8
 70
     0
 43
0.0
 10
13.01334083080291
 20
-2.937973737716674
 10
12.99748516082763
 20
-2.924621105194091
 10
12.98074412345886
 20
-2.913852930068969
 10
12.95959770679474
 20
-2.90364933013916
 10
12.93814766407013
 20
-2.896052360534667
 10
12.90162205696106
 20
-2.887640714645385
 10
12.86475300788879
 20
-2.883270978927612
 10
12.82784223556518
 20
-2.881905794143676
  0
LWPOLYLINE
  5
15EF
330
18
100
AcDbEntity
  8
SK1
100
AcDbPolyline
 90
       19
 70
     0
 43
0.0
 10
-10.03965854644775
 20
1.873065710067749
 10
-10.07958316802978
 20
2.364450216293334
 10
-10.1205530166626
 20
2.835947751998901
 10
-10.15059566497803
 20
3.157894134521484
 10
-10.18114948272705
 20
3.462692022323608
 10
-10.21831798553467
 20
3.800079584121704
 10
-10.25605297088623
 20
4.101840019226074
 10
-10.27811527252197
 20
4.257967948913574
 10
-10.30037021636963
 20
4.399508476257324
 10
-10.32051753997802
 20
4.513244152069091
 10
-10.34084606170654
 20
4.613640308380126
 10
-10.36254215240478
 20
4.70444107055664
 10
-10.3844404220581
 20
4.778603076934814
 10
-10.40437221527099
 20
4.830572605133056
 10
-10.41430187225341
 20
4.8508882522583
 10
-10.42418766021728
 20
4.867412090301513
 10
-10.4373025894165
 20
4.883628368377685
 10
-10.45037937164306
 20
4.893324851989746
 10
-10.46349239349365
 20
4.896568298339843
  0
LINE
  5
15F0
330
18
100
AcDbEntity
  8
SK1
100
AcDbLine
 10
-10.46349239349365
 20
4.896568298339843
 30
0.0
 11
-10.47801685333252
 21
4.892592906951904
 31
0.0
  0
LWPOLYLINE
  5
15F1
330
18
100
AcDbEntity
  8
SK1
100
AcDbPolyline
 90
       23
 70
     0
 43
0.0
 10
-10.03965854644775
 20
1.873065710067749
 10
-10.00784015655517
 20
1.462532520294189
 10
-9.944918632507324
 20
0.6152694821357727
 10
-9.827010154724121
 20
-1.009779691696166
 10
-9.754902839660644
 20
-1.962854623794555
 10
-9.718798637390136
 20
-2.415467262268066
 10
-9.682183265686035
 20
-2.852481603622436
 10
-9.646763801574707
 20
-3.251166343688964
 10
-9.611187934875488
 20
-3.62343955039978
 10
-9.575655937194824
 20
-3.96360421180725
 10
-9.539107322692871
 20
-4.275816440582275
 10
-9.501973152160644
 20
-4.551439285278321
 10
-9.483098030090332
 20
-4.674160003662108
 10
-9.46399974822998
 20
-4.785861968994141
 10
-9.444680213928222
 20
-4.885797023773194
 10
-9.425148963928222
 20
-4.973227977752684
 10
-9.398798942565917
 20
-5.069145679473877
 10
-9.385510444641113
 20
-5.107831954956055
 10
-9.372159004211425
 20
-5.14012050628662
 10
-9.358754158020019
 20
-5.165878295898436
 10
-9.345309257507324
 20
-5.184998512268065
 10
-9.337010383605957
 20
-5.193442344665526
 10
-9.328705787658691
 20
-5.199323654174805
  0
LINE
  5
15F2
330
18
100
AcDbEntity
  8
SK1
100
AcDbLine
 10
-9.328705787658691
 20
-5.199323654174805
 30
0.0
 11
-9.313836097717285
 21
-5.203432083129883
 31
0.0
  0
LWPOLYLINE
  5
15F3
330
18
100
AcDbEntity
  8
SK1
100
AcDbPolyline
 90
       19
 70
     0
 43
0.0
 10
-7.739697456359863
 20
1.873065710067749
 10
-7.795086860656738
 20
2.547024965286254
 10
-7.851918220520019
 20
3.174784660339355
 10
-7.874165534973144
 20
3.399479150772094
 10
-7.910843849182128
 20
3.740845680236816
 10
-7.945340156555175
 20
4.025990486145019
 10
-7.966504096984863
 20
4.182950973510742
 10
-7.988978385925292
 20
4.332645416259765
 10
-8.023228645324707
 20
4.528679847717285
 10
-8.040562629699707
 20
4.612493515014648
 10
-8.058011054992675
 20
4.686222553253173
 10
-8.075562477111816
 20
4.749452590942382
 10
-8.093203544616699
 20
4.801807880401611
 10
-8.10567569732666
 20
4.831976890563964
 10
-8.118178367614746
 20
4.856482982635498
 10
-8.129363059997558
 20
4.873505115509033
 10
-8.140564918518066
 20
4.885884284973144
 10
-8.152449607849121
 20
4.89388370513916
 10
-8.164340019226074
 20
4.896568298339843
  0
LINE
  5
15F4
330
18
100
AcDbEntity
  8
SK1
100
AcDbLine
 10
-8.164340019226074
 20
4.896568298339843
 30
0.0
 11
-8.178997993469238
 21
4.8925142288208
 31
0.0
  0
LWPOLYLINE
  5
15F5
330
18
100
AcDbEntity
  8
SK1
100
AcDbPolyline
 90
       24
 70
     0
 43
0.0
 10
-7.739697456359863
 20
1.873065710067749
 10
-7.668023109436035
 20
0.9353182315826416
 10
-7.597170829772949
 20
-0.0330697298049927
 10
-7.526684761047363
 20
-1.00218641757965
 10
-7.463671684265136
 20
-1.843128442764282
 10
-7.431498527526855
 20
-2.254448175430297
 10
-7.382590293884277
 20
-2.84721827507019
 10
-7.346405982971191
 20
-3.255287408828735
 10
-7.309615135192871
 20
-3.639286041259765
 10
-7.273550987243652
 20
-3.98162817955017
 10
-7.237097740173339
 20
-4.290415287017822
 10
-7.201897621154785
 20
-4.550150394439698
 10
-7.183938026428222
 20
-4.667220592498778
 10
-7.165688514709472
 20
-4.775033950805664
 10
-7.14754581451416
 20
-4.870720863342286
 10
-7.129229545593261
 20
-4.955389976501465
 10
-7.113797187805175
 20
-5.017252922058104
 10
-7.098248481750488
 20
-5.070713043212891
 10
-7.084864616394042
 20
-5.109549045562745
 10
-7.071415901184082
 20
-5.141846179962159
 10
-7.061800956726074
 20
-5.160783767700196
 10
-7.052163124084472
 20
-5.176287174224854
 10
-7.040553092956542
 20
-5.190328121185303
 10
-7.028925895690917
 20
-5.199318885803223
  0
LINE
  5
15F6
330
18
100
AcDbEntity
  8
SK1
100
AcDbLine
 10
-7.028925895690917
 20
-5.199318885803223
 30
0.0
 11
-7.014084815979003
 21
-5.203432083129883
 31
0.0
  0
LINE
  5
15F7
330
18
100
AcDbEntity
  8
SK1
100
AcDbLine
 10
-5.864176750183105
 20
4.896568298339843
 30
0.0
 11
-5.878634452819824
 21
4.892577171325683
 31
0.0
  0
LWPOLYLINE
  5
15F8
330
18
100
AcDbEntity
  8
SK1
100
AcDbPolyline
 90
       43
 70
     0
 43
0.0
 10
-2.58600902557373
 20
-4.959974765777588
 10
-2.600378036499023
 20
-4.910598278045653
 10
-2.614605903625488
 20
-4.854471683502198
 10
-2.642607688903808
 20
-4.723330020904541
 10
-2.669959068298339
 20
-4.569383144378662
 10
-2.690025329589843
 20
-4.440691947937012
 10
-2.709705352783203
 20
-4.301965713500975
 10
-2.747932434082031
 20
-3.998615026473999
 10
-2.77558422088623
 20
-3.752880334854125
 10
-2.802546501159667
 20
-3.493533134460449
 10
-2.854667663574218
 20
-2.942284345626831
 10
-2.888290405273437
 20
-2.556082010269165
 10
-2.92119026184082
 20
-2.158638715744018
 10
-2.964179039001464
 20
-1.615514516830444
 10
-3.048322677612304
 20
-0.5012826919555664
 10
-3.137673377990722
 20
0.700960397720337
 10
-3.182740211486816
 20
1.292560219764709
 10
-3.251978874206542
 20
2.155619859695434
 10
-3.287869453430175
 20
2.572341442108154
 10
-3.32480239868164
 20
2.973830699920654
 10
-3.362953186035156
 20
3.355238437652587
 10
-3.390375137329101
 20
3.606159448623657
 10
-3.418574333190917
 20
3.842232465744018
 10
-3.441568374633789
 20
4.017261981964111
 10
-3.465101242065429
 20
4.179368019104003
 10
-3.485482215881347
 20
4.30532169342041
 10
-3.506232261657714
 20
4.419363021850585
 10
-3.522564888000488
 20
4.498804092407226
 10
-3.539095878601074
 20
4.569779872894287
 10
-3.558250427246093
 20
4.639951229095458
 10
-3.577628135681152
 20
4.697569847106933
 10
-3.59728717803955
 20
4.742119312286376
 10
-3.60717487335205
 20
4.759188652038574
 10
-3.617092132568359
 20
4.772704601287841
 10
-3.630349159240722
 20
4.785117626190185
 10
-3.643631935119628
 20
4.791051864624023
 10
-3.656923294067382
 20
4.790468215942382
 10
-3.670209884643554
 20
4.783366680145263
 10
-3.683474540710449
 20
4.769784927368164
 10
-3.696044921875
 20
4.750946521759033
 10
-3.708568572998046
 20
4.726422786712646
 10
-3.722342491149902
 20
4.692857265472412
 10
-3.736026763916015
 20
4.652713775634765
  0
LWPOLYLINE
  5
15F9
330
18
100
AcDbEntity
  8
SK1
100
AcDbPolyline
 90
       45
 70
     0
 43
0.0
 10
-4.886204719543457
 20
-4.959019184112549
 10
-4.900622367858886
 20
-4.909467220306395
 10
-4.914895057678222
 20
-4.853163242340088
 10
-4.942967414855957
 20
-4.721698760986329
 10
-4.970362663269042
 20
-4.5675311088562
 10
-4.990443229675292
 20
-4.438780307769776
 10
-5.010119438171386
 20
-4.300109386444092
 10
-5.04828929901123
 20
-3.997265577316284
 10
-5.076041221618652
 20
-3.750565290451049
 10
-5.103064537048339
 20
-3.490421533584594
 10
-5.155198097229003
 20
-2.938259363174438
 10
-5.188767433166503
 20
-2.5519700050354
 10
-5.221579551696777
 20
-2.154795169830322
 10
-5.26442813873291
 20
-1.612418413162231
 10
-5.348309516906738
 20
-0.5002447068691254
 10
-5.441561698913574
 20
0.7539265751838684
 10
-5.489087104797363
 20
1.375211477279663
 10
-5.525465965270996
 20
1.833916544914245
 10
-5.562659263610839
 20
2.282673835754394
 10
-5.600300788879394
 20
2.711363077163696
 10
-5.639065742492675
 20
3.121285438537597
 10
-5.679131507873535
 20
3.506423950195312
 10
-5.710152626037597
 20
3.774737834930419
 10
-5.742100715637207
 20
4.021588325500488
 10
-5.763993263244628
 20
4.172501564025878
 10
-5.786356925964355
 20
4.310690402984619
 10
-5.806113243103027
 20
4.418929576873779
 10
-5.826203346252441
 20
4.515351772308349
 10
-5.842488288879394
 20
4.583215713500976
 10
-5.858952522277832
 20
4.642304420471191
 10
-5.872176170349121
 20
4.682741641998291
 10
-5.885485649108886
 20
4.717076301574707
 10
-5.900591850280761
 20
4.748234272003173
 10
-5.91576862335205
 20
4.771134853363037
 10
-5.923827171325683
 20
4.779852867126464
 10
-5.93189525604248
 20
4.786184787750244
 10
-5.942660331726074
 20
4.7908935546875
 10
-5.9534273147583
 20
4.791322708129882
 10
-5.964184761047363
 20
4.787474632263183
 10
-5.976265907287597
 20
4.778061866760253
 10
-5.988314628601074
 20
4.763319969177246
 10
-5.998425483703613
 20
4.746831893920898
 10
-6.008498191833496
 20
4.726684093475341
 10
-6.022273063659667
 20
4.693142414093017
 10
-6.035948753356933
 20
4.653046131134033
  0
LWPOLYLINE
  5
15FA
330
18
100
AcDbEntity
  8
SK1
100
AcDbPolyline
 90
       44
 70
     0
 43
0.0
 10
-7.186024665832519
 20
-4.95962619781494
 10
-7.200367927551269
 20
-4.910338878631592
 10
-7.214579582214355
 20
-4.854302406311036
 10
-7.242569923400878
 20
-4.723312377929686
 10
-7.269934654235839
 20
-4.569455623626709
 10
-7.290019035339355
 20
-4.440792083740233
 10
-7.309718132019042
 20
-4.30207347869873
 10
-7.34797191619873
 20
-3.998760223388671
 10
-7.375754356384277
 20
-3.751985311508178
 10
-7.402812004089355
 20
-3.4917414188385
 10
-7.4550142288208
 20
-2.939536571502685
 10
-7.488614082336425
 20
-2.553421974182128
 10
-7.521443367004394
 20
-2.156590700149536
 10
-7.564290046691894
 20
-1.614881515502929
 10
-7.648097038269042
 20
-0.504499763250351
 10
-7.736924171447753
 20
0.6911922097206116
 10
-7.78176212310791
 20
1.280259728431701
 10
-7.850716590881347
 20
2.141117572784423
 10
-7.886389732360839
 20
2.556343793869018
 10
-7.923125267028808
 20
2.95700979232788
 10
-7.961108207702636
 20
3.338372468948364
 10
-7.988659858703613
 20
3.591747760772705
 10
-8.0170259475708
 20
3.830446004867553
 10
-8.040095329284667
 20
4.0070161819458
 10
-8.06371784210205
 20
4.17070722579956
 10
-8.084183692932128
 20
4.297987461090087
 10
-8.105025291442871
 20
4.413312911987304
 10
-8.121502876281738
 20
4.494043827056884
 10
-8.13818073272705
 20
4.566176414489746
 10
-8.157448768615722
 20
4.637324810028076
 10
-8.176934242248535
 20
4.695777416229248
 10
-8.189480781555175
 20
4.726160049438476
 10
-8.202090263366699
 20
4.750917911529541
 10
-8.212180137634277
 20
4.766539573669433
 10
-8.222290992736816
 20
4.778445720672607
 10
-8.233706474304199
 20
4.787362098693847
 10
-8.245129585266113
 20
4.791474819183349
 10
-8.256552696228027
 20
4.790769100189208
 10
-8.267964363098144
 20
4.785253047943115
 10
-8.278721809387207
 20
4.775655269622802
 10
-8.289450645446777
 20
4.761837482452392
 10
-8.301403999328613
 20
4.74146556854248
 10
-8.313298225402832
 20
4.71600341796875
 10
-8.336041450500488
 20
4.6530122756958
  0
LWPOLYLINE
  5
15FB
330
18
100
AcDbEntity
  8
SK1
100
AcDbPolyline
 90
       45
 70
     0
 43
0.0
 10
-9.485970497131347
 20
-4.959757328033448
 10
-9.500306129455566
 20
-4.910527706146241
 10
-9.514512062072753
 20
-4.854548454284668
 10
-9.542496681213378
 20
-4.723667621612549
 10
-9.569859504699707
 20
-4.569894313812256
 10
-9.589945793151855
 20
-4.441263675689698
 10
-9.609650611877441
 20
-4.302542209625244
 10
-9.647933006286621
 20
-3.999083757400512
 10
-9.675629615783691
 20
-3.75312852859497
 10
-9.702631950378417
 20
-3.493480205535888
 10
-9.754828453063964
 20
-2.941461324691772
 10
-9.788481712341308
 20
-2.554882526397705
 10
-9.821377754211425
 20
-2.15749168395996
 10
-9.864277839660644
 20
-1.615572214126586
 10
-9.947890281677246
 20
-0.5085744857788086
 10
-10.03573513031006
 20
0.674035131931305
 10
-10.08009624481201
 20
1.257743120193481
 10
-10.14823818206787
 20
2.11139702796936
 10
-10.18801021575928
 20
2.575210809707641
 10
-10.22905445098877
 20
3.019895553588867
 10
-10.27163982391357
 20
3.438860654830932
 10
-10.3047513961792
 20
3.731199979782104
 10
-10.33899211883545
 20
3.999994277954101
 10
-10.36106395721435
 20
4.154110431671142
 10
-10.38364887237549
 20
4.295569419860839
 10
-10.40355587005615
 20
4.406230926513671
 10
-10.42383480072021
 20
4.505098819732666
 10
-10.44027996063232
 20
4.574804782867431
 10
-10.45693111419677
 20
4.63567304611206
 10
-10.47041988372803
 20
4.677736282348632
 10
-10.48401355743408
 20
4.713505268096923
 10
-10.49939250946045
 20
4.745894432067871
 10
-10.51486301422119
 20
4.769769668579101
 10
-10.52423954010009
 20
4.779970169067382
 10
-10.5336332321167
 20
4.78694725036621
 10
-10.54256534576416
 20
4.790567874908447
 10
-10.55150127410888
 20
4.79124641418457
 10
-10.56000804901123
 20
4.789157390594482
 10
-10.56850910186767
 20
4.78440523147583
 10
-10.57831478118896
 20
4.775618553161621
 10
-10.58809947967529
 20
4.763329982757568
 10
-10.5984239578247
 20
4.74656057357788
 10
-10.6087064743042
 20
4.725987434387207
 10
-10.62251758575439
 20
4.692316532135009
 10
-10.63622379302978
 20
4.652091979980468
  0
LINE
  5
15FC
330
18
100
AcDbEntity
  8
SK1
100
AcDbLine
 10
-4.973118782043457
 20
4.896568298339843
 30
0.0
 11
-4.958685874938964
 21
4.892592906951904
 31
0.0
  0
LWPOLYLINE
  5
15FD
330
18
100
AcDbEntity
  8
SK1
100
AcDbPolyline
 90
       19
 70
     0
 43
0.0
 10
-4.958685874938964
 20
4.892592906951904
 10
-4.946394920349121
 20
4.882946491241455
 10
-4.934136390686035
 20
4.867614269256591
 10
-4.9235200881958
 20
4.849752902984619
 10
-4.912930488586425
 20
4.827714443206787
 10
-4.899163246154785
 20
4.792797088623046
 10
-4.885439872741699
 20
4.750991821289062
 10
-4.867316246032714
 20
4.685205459594726
 10
-4.849265098571777
 20
4.607902526855468
 10
-4.831284523010253
 20
4.51948070526123
 10
-4.813382148742675
 20
4.420402526855468
 10
-4.777884483337402
 20
4.192528247833251
 10
-4.749606132507324
 20
3.982195854187011
 10
-4.721730232238769
 20
3.75094199180603
 10
-4.694302558898925
 20
3.501414537429809
 10
-4.667389869689941
 20
3.236506938934326
 10
-4.615185737609863
 20
2.670183897018432
 10
-4.582060813903808
 20
2.278797626495361
 10
-4.549444198608398
 20
1.873065710067749
  0
LWPOLYLINE
  5
15FE
330
18
100
AcDbEntity
  8
SK1
100
AcDbPolyline
 90
       45
 70
     0
 43
0.0
 10
-3.651254653930664
 20
-4.9599609375
 10
-3.674294471740722
 20
-5.023587226867676
 10
-3.685903549194335
 20
-5.048354148864745
 10
-3.697559356689453
 20
-5.068268299102784
 10
-3.709250450134277
 20
-5.083237648010254
 10
-3.720966339111328
 20
-5.093194007873536
 10
-3.728785514831542
 20
-5.097022533416748
 10
-3.736607551574707
 20
-5.098594665527344
 10
-3.744427680969238
 20
-5.097907543182373
 10
-3.75224494934082
 20
-5.094964027404786
 10
-3.767849922180175
 20
-5.082343578338623
 10
-3.781744003295898
 20
-5.063560485839844
 10
-3.795569419860839
 20
-5.037837982177733
 10
-3.807183265686035
 20
-5.010837078094481
 10
-3.818727493286132
 20
-4.979145050048829
 10
-3.834389686584472
 20
-4.928471088409424
 10
-3.849888801574707
 20
-4.869706630706787
 10
-3.867801666259765
 20
-4.79124879837036
 10
-3.885452270507812
 20
-4.703061103820801
 10
-3.90658950805664
 20
-4.583529949188231
 10
-3.927313804626464
 20
-4.451983451843262
 10
-3.95229148864746
 20
-4.275156021118164
 10
-3.97669506072998
 20
-4.083863258361815
 10
-4.000561714172363
 20
-3.879877805709838
 10
-4.023931503295898
 20
-3.664809226989746
 10
-4.069324493408203
 20
-3.207098245620727
 10
-4.11315631866455
 20
-2.720703840255737
 10
-4.155693054199218
 20
-2.213607311248779
 10
-4.210844039916992
 20
-1.515959978103637
 10
-4.246892929077148
 20
-1.042261540889739
 10
-4.318099021911621
 20
-0.085504524409771
 10
-4.389239311218261
 20
0.8680236339569091
 10
-4.42538833618164
 20
1.339940190315246
 10
-4.480862617492675
 20
2.034194946289062
 10
-4.523761749267578
 20
2.537464380264282
 10
-4.568032264709472
 20
3.018131494522094
 10
-4.613913536071777
 20
3.467446327209472
 10
-4.637537956237792
 20
3.677087545394897
 10
-4.661660194396972
 20
3.874717712402343
 10
-4.686314582824707
 20
4.058661460876464
 10
-4.711539268493652
 20
4.227094173431396
 10
-4.740702629089355
 20
4.395870208740234
 10
-4.770623207092285
 20
4.539011001586914
 10
-4.785849571228027
 20
4.599865913391113
 10
-4.801238059997558
 20
4.653004169464111
  0
LWPOLYLINE
  5
15FF
330
18
100
AcDbEntity
  8
SK1
100
AcDbPolyline
 90
       46
 70
     0
 43
0.0
 10
-5.951048851013183
 20
-4.959360122680664
 10
-5.97413158416748
 20
-5.023082733154297
 10
-5.985777854919433
 20
-5.047914028167725
 10
-5.997479438781738
 20
-5.067884922027588
 10
-6.009224891662597
 20
-5.082891941070557
 10
-6.021004676818847
 20
-5.092852115631104
 10
-6.028870582580566
 20
-5.096659183502198
 10
-6.03674030303955
 20
-5.09818696975708
 10
-6.044611930847167
 20
-5.097429752349854
 10
-6.052481651306152
 20
-5.094388961791993
 10
-6.060343742370605
 20
-5.089071273803711
 10
-6.068194389343261
 20
-5.081490039825438
 10
-6.082118034362792
 20
-5.062479972839354
 10
-6.095974922180175
 20
-5.03652048110962
 10
-6.107592582702636
 20
-5.009373664855957
 10
-6.119139671325683
 20
-4.977553844451903
 10
-6.134858131408691
 20
-4.926555633544922
 10
-6.150406837463378
 20
-4.867465496063231
 10
-6.168305397033691
 20
-4.788939476013182
 10
-6.185933113098144
 20
-4.70078945159912
 10
-6.207110404968261
 20
-4.580977916717528
 10
-6.22785472869873
 20
-4.449252128601073
 10
-6.253008842468261
 20
-4.271045684814454
 10
-6.27755069732666
 20
-4.078417778015137
 10
-6.301520347595214
 20
-3.873216867446899
 10
-6.324955940246582
 20
-3.657105445861816
 10
-6.370387077331542
 20
-3.197940111160278
 10
-6.414155006408691
 20
-2.710959672927856
 10
-6.456564903259277
 20
-2.204008817672729
 10
-6.511513710021972
 20
-1.507254362106323
 10
-6.547440528869628
 20
-1.034299552440643
 10
-6.618489265441894
 20
-0.0788203030824661
 10
-6.706639289855957
 20
1.097895622253417
 10
-6.751654624938964
 20
1.674907565116882
 10
-6.786131858825683
 20
2.098642110824584
 10
-6.821410179138183
 20
2.51160192489624
 10
-6.857666969299316
 20
2.910278558731079
 10
-6.895079612731933
 20
3.290235996246337
 10
-6.933833122253417
 20
3.645909547805786
 10
-6.97329044342041
 20
3.964326381683349
 10
-6.993624687194824
 20
4.109972476959228
 10
-7.014369010925292
 20
4.24501609802246
 10
-7.042653083801269
 20
4.406324863433837
 10
-7.071608543395996
 20
4.543285846710205
 10
-7.086318016052246
 20
4.601659297943115
 10
-7.101164817810058
 20
4.652803421020507
  0
LWPOLYLINE
  5
1600
330
18
100
AcDbEntity
  8
SK1
100
AcDbPolyline
 90
       46
 70
     0
 43
0.0
 10
-8.251275062561035
 20
-4.960242748260498
 10
-8.274313926696777
 20
-5.023821830749512
 10
-8.285933494567871
 20
-5.048574924468995
 10
-8.297606468200683
 20
-5.068470954895018
 10
-8.309327125549316
 20
-5.083408832550049
 10
-8.321080207824707
 20
-5.093309879302979
 10
-8.32892894744873
 20
-5.097083568572998
 10
-8.336785316467285
 20
-5.098582267761229
 10
-8.344645500183105
 20
-5.097800731658934
 10
-8.352503776550292
 20
-5.094738006591797
 10
-8.360360145568847
 20
-5.089399814605713
 10
-8.368206977844238
 20
-5.081796169281006
 10
-8.382100105285644
 20
-5.062779903411866
 10
-8.395937919616699
 20
-5.036809921264649
 10
-8.407578468322753
 20
-5.009558200836182
 10
-8.419156074523925
 20
-4.977582454681395
 10
-8.434855461120605
 20
-4.926529407501221
 10
-8.45040225982666
 20
-4.867327690124512
 10
-8.468445777893066
 20
-4.787965297698975
 10
-8.486235618591308
 20
-4.698710441589354
 10
-8.507428169250488
 20
-4.5784010887146
 10
-8.528212547302246
 20
-4.446017742156981
 10
-8.553317070007324
 20
-4.267725944519043
 10
-8.577837944030761
 20
-4.074901819229125
 10
-8.601815223693847
 20
-3.869364976882934
 10
-8.625281333923339
 20
-3.652769804000854
 10
-8.670825004577636
 20
-3.192248821258544
 10
-8.714739799499511
 20
-2.703609943389892
 10
-8.757292747497558
 20
-2.195063352584838
 10
-8.812367439270019
 20
-1.49694538116455
 10
-8.848311424255371
 20
-1.023881077766418
 10
-8.919232368469238
 20
-0.0702097862958908
 10
-8.989977836608886
 20
0.8780349493026733
 10
-9.025973320007324
 20
1.347903847694396
 10
-9.081305503845214
 20
2.040280818939208
 10
-9.124180793762207
 20
2.543072700500488
 10
-9.168501853942871
 20
3.023879528045654
 10
-9.214507102966308
 20
3.473667621612548
 10
-9.238215446472167
 20
3.683560371398925
 10
-9.262438774108886
 20
3.881387710571289
 10
-9.287207603454589
 20
4.065423011779785
 10
-9.3125581741333
 20
4.233790397644042
 10
-9.34139347076416
 20
4.399712562561035
 10
-9.370959281921386
 20
4.540533065795898
 10
-9.385994911193847
 20
4.600464820861816
 10
-9.401179313659667
 20
4.652863025665283
  0
LINE
  5
1601
330
18
100
AcDbEntity
  8
SK1
100
AcDbLine
 10
-6.109087944030761
 20
-5.199427604675293
 30
0.0
 11
-6.123675346374511
 21
-5.203432083129883
 31
0.0
  0
LWPOLYLINE
  5
1602
330
18
100
AcDbEntity
  8
SK1
100
AcDbPolyline
 90
       25
 70
     0
 43
0.0
 10
-6.123675346374511
 20
-5.203432083129883
 10
-6.131085395812988
 20
-5.202396392822266
 10
-6.13854694366455
 20
-5.199258804321289
 10
-6.153594017028808
 20
-5.186563968658448
 10
-6.168683052062988
 20
-5.165273189544678
 10
-6.183581352233886
 20
-5.135831832885743
 10
-6.198414802551269
 20
-5.098222732543946
 10
-6.213181495666503
 20
-5.052608013153075
 10
-6.227877616882324
 20
-4.999186038970948
 10
-6.257037162780761
 20
-4.869861125946045
 10
-6.278691291809082
 20
-4.754252433776854
 10
-6.300150871276855
 20
-4.623791694641114
 10
-6.321404457092285
 20
-4.479533672332764
 10
-6.342448234558105
 20
-4.322550773620605
 10
-6.383891105651855
 20
-3.9745934009552
 10
-6.418108940124511
 20
-3.651164054870605
 10
-6.451767921447753
 20
-3.303808450698852
 10
-6.490107536315917
 20
-2.876188039779663
 10
-6.527514457702636
 20
-2.42954134941101
 10
-6.576088905334472
 20
-1.812667608261108
 10
-6.608061790466308
 20
-1.388564109802246
 10
-6.671269416809082
 20
-0.5235767662525177
 10
-6.768235206604003
 20
0.8122650980949401
 10
-6.816584587097167
 20
1.455116510391235
 10
-6.849270820617675
 20
1.873065710067749
  0
LWPOLYLINE
  5
1603
330
18
100
AcDbEntity
  8
SK1
100
AcDbPolyline
 90
       18
 70
     0
 43
0.0
 10
-6.849270820617675
 20
1.873065710067749
 10
-6.890532493591308
 20
2.377108812332153
 10
-6.932501792907714
 20
2.858113050460815
 10
-6.973614692687988
 20
3.292761325836181
 10
-7.015192985534667
 20
3.689238786697387
 10
-7.055499076843261
 20
4.026617050170898
 10
-7.076325416564941
 20
4.181883335113525
 10
-7.09706974029541
 20
4.322514057159423
 10
-7.116780281066894
 20
4.442513465881347
 10
-7.136708259582519
 20
4.550071716308593
 10
-7.156453132629394
 20
4.642645359039306
 10
-7.176390647888183
 20
4.721767425537109
 10
-7.190695762634277
 20
4.769532680511474
 10
-7.205077171325683
 20
4.809928894042968
 10
-7.217959403991699
 20
4.839585304260253
 10
-7.230883598327636
 20
4.863126754760742
 10
-7.24462604522705
 20
4.881319999694824
 10
-7.258391380310058
 20
4.892470359802246
  0
LINE
  5
1604
330
18
100
AcDbEntity
  8
SK1
100
AcDbLine
 10
-7.258391380310058
 20
4.892470359802246
 30
0.0
 11
-7.273238182067871
 21
4.896568298339843
 31
0.0
  0
LWPOLYLINE
  5
1605
330
18
100
AcDbEntity
  8
SK1
100
AcDbPolyline
 90
       24
 70
     0
 43
0.0
 10
-9.149744987487792
 20
1.873065710067749
 10
-9.118916511535644
 20
1.476425170898437
 10
-9.057888984680175
 20
0.6596066355705262
 10
-8.932452201843261
 20
-1.062324345111846
 10
-8.876158714294433
 20
-1.811676740646362
 10
-8.847527503967285
 20
-2.17903709411621
 10
-8.8038911819458
 20
-2.714822769165039
 10
-8.757723808288574
 20
-3.242339372634887
 10
-8.710680961608886
 20
-3.729148387908935
 10
-8.67391300201416
 20
-4.068835258483887
 10
-8.636723518371582
 20
-4.371598243713379
 10
-8.600420951843261
 20
-4.624541282653807
 10
-8.58167552947998
 20
-4.738267898559571
 10
-8.562909126281738
 20
-4.840137481689454
 10
-8.5454683303833
 20
-4.923855781555176
 10
-8.52790355682373
 20
-4.997421741485596
 10
-8.5106782913208
 20
-5.058931827545166
 10
-8.493369102478027
 20
-5.109971523284912
 10
-8.480933189392089
 20
-5.139890670776368
 10
-8.468476295471191
 20
-5.16414976119995
 10
-8.457425117492675
 20
-5.180840015411377
 10
-8.446370124816894
 20
-5.192965030670166
 10
-8.434607505798339
 20
-5.200815200805664
 10
-8.422854423522949
 20
-5.203432083129883
  0
LINE
  5
1606
330
18
100
AcDbEntity
  8
SK1
100
AcDbLine
 10
-8.422854423522949
 20
-5.203432083129883
 30
0.0
 11
-8.408305168151855
 21
-5.199409008026123
 31
0.0
  0
LWPOLYLINE
  5
1607
330
18
100
AcDbEntity
  8
SK1
100
AcDbPolyline
 90
       18
 70
     0
 43
0.0
 10
-9.149744987487792
 20
1.873065710067749
 10
-9.203307151794433
 20
2.525808811187744
 10
-9.258299827575683
 20
3.135798215866088
 10
-9.280032157897949
 20
3.357154846191406
 10
-9.315779685974121
 20
3.694535493850708
 10
-9.349162101745605
 20
3.976071834564208
 10
-9.368693351745605
 20
4.125415802001953
 10
-9.389960289001464
 20
4.274316787719726
 10
-9.422734260559082
 20
4.474584102630615
 10
-9.439282417297363
 20
4.56168508529663
 10
-9.455937385559082
 20
4.639518737792968
 10
-9.472702980041503
 20
4.707695484161376
 10
-9.489581108093261
 20
4.765860080718994
 10
-9.512270927429199
 20
4.827288150787353
 10
-9.52369213104248
 20
4.85090160369873
 10
-9.535162925720214
 20
4.869681358337402
 10
-9.546679496765136
 20
4.883560180664062
 10
-9.558236122131347
 20
4.892476558685302
  0
LINE
  5
1608
330
18
100
AcDbEntity
  8
SK1
100
AcDbLine
 10
-9.558236122131347
 20
4.892476558685302
 30
0.0
 11
-9.57299518585205
 21
4.896568298339843
 31
0.0
  0
LWPOLYLINE
  5
1609
330
18
100
AcDbEntity
  8
SK1
100
AcDbPolyline
 90
       42
 70
     0
 43
0.0
 10
-4.979796409606933
 20
-4.662021160125731
 10
-4.994671821594238
 20
-4.611181735992432
 10
-5.009402275085449
 20
-4.553596973419188
 10
-5.038393974304199
 20
-4.419579505920411
 10
-5.066718101501464
 20
-4.262843608856201
 10
-5.087498664855957
 20
-4.132137060165405
 10
-5.107880592346191
 20
-3.991473913192749
 10
-5.147482872009277
 20
-3.684513568878173
 10
-5.175166130065917
 20
-3.445099592208862
 10
-5.202187538146972
 20
-3.193158626556396
 10
-5.254496574401855
 20
-2.659454822540283
 10
-5.288277626037597
 20
-2.286745309829711
 10
-5.321352958679199
 20
-1.904150605201721
 10
-5.364598274230957
 20
-1.382893085479736
 10
-5.44936466217041
 20
-0.3188034743070602
 10
-5.551070213317871
 20
0.9633675813674926
 10
-5.603163719177246
 20
1.592694163322448
 10
-5.643208503723144
 20
2.053126573562622
 10
-5.684329032897949
 20
2.498547077178955
 10
-5.737225532531738
 20
3.021849870681762
 10
-5.764628410339355
 20
3.267610788345336
 10
-5.79273509979248
 20
3.499763488769531
 10
-5.831341743469238
 20
3.78328537940979
 10
-5.8511323928833
 20
3.911844253540039
 10
-5.871243476867675
 20
4.030323028564453
 10
-5.891669273376464
 20
4.137743473052978
 10
-5.912404060363769
 20
4.233129501342773
 10
-5.928853034973144
 20
4.298814296722412
 10
-5.945464134216308
 20
4.356023788452148
 10
-5.960196495056152
 20
4.399000167846679
 10
-5.975022315979003
 20
4.434801578521728
 10
-5.990939140319824
 20
4.464863777160644
 10
-6.006922721862792
 20
4.486262321472167
 10
-6.022948265075683
 20
4.498836517333984
 10
-6.030970573425292
 20
4.501781463623046
 10
-6.038994789123535
 20
4.50248908996582
 10
-6.047019004821777
 20
4.500957489013671
 10
-6.055039405822753
 20
4.49718952178955
 10
-6.066908836364746
 20
4.487514019012451
 10
-6.078749656677246
 20
4.472990989685058
 10
-6.090851783752441
 20
4.45314073562622
 10
-6.107680320739746
 20
4.417163848876953
  0
LINE
  5
160A
330
18
100
AcDbEntity
  8
SK1
100
AcDbLine
 10
-10.24149799346924
 20
-4.65377378463745
 30
0.0
 11
-10.24885082244873
 21
-4.652712345123291
 31
0.0
  0
LWPOLYLINE
  5
160B
330
18
100
AcDbEntity
  8
SK1
100
AcDbPolyline
 90
       44
 70
     0
 43
0.0
 10
-10.24885082244873
 20
-4.652712345123291
 10
-10.26040172576904
 20
-4.647376537322998
 10
-10.27192974090576
 20
-4.637584686279297
 10
-10.28178882598877
 20
-4.625678062438965
 10
-10.29161930084228
 20
-4.610572814941405
 10
-10.30466365814209
 20
-4.58556032180786
 10
-10.31763553619384
 20
-4.555100440979004
 10
-10.3345365524292
 20
-4.507122039794922
 10
-10.35126972198486
 20
-4.45045804977417
 10
-10.36781978607177
 20
-4.385567665100098
 10
-10.38417530059814
 20
-4.312935829162598
 10
-10.41626262664795
 20
-4.146430015563965
 10
-10.44038677215576
 20
-4.000961303710937
 10
-10.46403217315674
 20
-3.842150926589965
 10
-10.49135303497314
 20
-3.639540910720825
 10
-10.51807880401611
 20
-3.422587394714355
 10
-10.5613317489624
 20
-3.035176515579223
 10
-10.6031904220581
 20
-2.622026920318603
 10
-10.6526346206665
 20
-2.093050837516784
 10
-10.70069217681885
 20
-1.545078635215759
 10
-10.73867702484131
 20
-1.094527781009674
 10
-10.81373119354248
 20
-0.1791042853146791
 10
-10.88527774810791
 20
0.6952927708625794
 10
-10.9215612411499
 20
1.128362536430358
 10
-10.9771089553833
 20
1.765446305274963
 10
-11.01992130279541
 20
2.227087497711181
 10
-11.06394481658935
 20
2.66788101196289
 10
-11.10937786102295
 20
3.080126523971557
 10
-11.13268947601318
 20
3.272750616073608
 10
-11.15643405914306
 20
3.454697370529174
 10
-11.18064212799072
 20
3.624584913253784
 10
-11.20534610748291
 20
3.780927419662475
 10
-11.22583103179931
 20
3.89700698852539
 10
-11.24666690826416
 20
4.002062320709228
 10
-11.26533412933349
 20
4.08475923538208
 10
-11.28425121307373
 20
4.15731143951416
 10
-11.29942035675049
 20
4.207170009613037
 10
-11.31472110748291
 20
4.249865055084228
 10
-11.32693767547607
 20
4.278431415557861
 10
-11.33921718597412
 20
4.302164554595947
 10
-11.35316371917724
 20
4.323028564453125
 10
-11.36716175079345
 20
4.337429523468017
 10
-11.378586769104
 20
4.344311714172363
 10
-11.39002513885498
 20
4.346809387207031
  0
LINE
  5
160C
330
18
100
AcDbEntity
  8
SK1
100
AcDbLine
 10
-11.39002513885498
 20
4.346809387207031
 30
0.0
 11
-11.39879703521728
 21
4.345745086669921
 31
0.0
  0
LINE
  5
160D
330
18
100
AcDbEntity
  8
SK1
100
AcDbLine
 10
-11.75000095367431
 20
4.250545978546142
 30
0.0
 11
-11.75000095367431
 21
-4.250545978546141
 31
0.0
  0
LINE
  5
160E
330
18
100
AcDbEntity
  8
SK1
100
AcDbLine
 10
-11.75000095367431
 20
4.251657485961914
 30
0.0
 11
-11.75000095367431
 21
4.250545978546142
 31
0.0
  0
ARC
  5
160F
330
18
100
AcDbEntity
  8
1
100
AcDbCircle
 10
14.39316344261169
 20
6.719374656677246
 30
0.0
 40
3.135422229766846
100
AcDbArc
 50
245.6943384968335
 51
255.3407518752744
  0
ARC
  5
1610
330
18
100
AcDbEntity
  8
1
100
AcDbCircle
 10
12.43137753009796
 20
6.339697360992431
 30
0.0
 40
4.15960693359375
100
AcDbArc
 50
293.0471387541559
 51
301.9630629528997
  0
LWPOLYLINE
  5
1611
330
18
100
AcDbEntity
  8
1
100
AcDbPolyline
 90
       15
 70
     0
 43
0.0
 10
13.59997487068176
 20
3.686526536941528
 10
13.67009878158569
 20
3.587680578231811
 10
13.70911026000976
 20
3.537345647811889
 10
13.75078558921814
 20
3.486953258514404
 10
13.81301093101501
 20
3.417476415634155
 10
13.87952828407287
 20
3.349669218063354
 10
13.94951319694519
 20
3.284180879592895
 10
14.0037043094635
 20
3.236859560012817
 10
14.058926820755
 20
3.191191434860229
 10
14.17135167121887
 20
3.104769468307495
 10
14.24094581604004
 20
3.054911136627197
 10
14.31128358840942
 20
3.00688886642456
 10
14.394296169281
 20
2.952883958816528
 10
14.47780084609985
 20
2.901138305664062
 10
14.63315510749817
 20
2.810940504074096
  0
LINE
  5
1612
330
18
100
AcDbEntity
  8
1
100
AcDbLine
 10
16.64908075332641
 20
-0.1534319017538905
 30
0.0
 11
14.76476883888244
 21
-0.1534319070285335
 31
0.0
  0
LWPOLYLINE
  5
1613
330
18
100
AcDbEntity
  8
1
100
AcDbPolyline
 90
       23
 70
     0
 43
0.0
 10
16.62001752853393
 20
0.4463749527931214
 10
16.47609853744507
 20
0.5904847383499146
 10
16.33526515960693
 20
0.7396810054779053
 10
16.19879913330078
 20
0.8943512439727783
 10
16.13218975067139
 20
0.9742722511291503
 10
16.06709384918213
 20
1.055606007575988
 10
16.00359344482422
 20
1.138277649879455
 10
15.9417290687561
 20
1.222162365913391
 10
15.82270717620849
 20
1.392971873283386
 10
15.74631071090698
 20
1.508588671684265
 10
15.59735059738159
 20
1.74234127998352
 10
15.48532295227051
 20
1.917944192886352
 10
15.38334798812866
 20
2.07094383239746
 10
15.33027482032776
 20
2.146470308303833
 10
15.27172946929931
 20
2.225881814956665
 10
15.21091175079346
 20
2.303712844848632
 10
15.13441967964172
 20
2.394615173339843
 10
15.05407524108887
 20
2.481711149215698
 10
14.96977424621582
 20
2.564124107360839
 10
14.88157773017883
 20
2.640991687774658
 10
14.80116581916809
 20
2.703224897384643
 10
14.71821236610412
 20
2.760054588317871
 10
14.63321542739868
 20
2.810959815979003
  0
LINE
  5
1614
330
18
100
AcDbEntity
  8
1
100
AcDbLine
 10
17.3861870765686
 20
-0.1534319011114462
 30
0.0
 11
16.64908075332641
 21
-0.1534319017538905
 31
0.0
  0
ARC
  5
1615
330
18
100
AcDbEntity
  8
1
100
AcDbCircle
 10
19.77785587310791
 20
3.694838047027587
 30
0.0
 40
4.530614376068115
100
AcDbArc
 50
225.8104558551924
 51
238.1393696059531
  0
ARC
  5
1616
330
18
100
AcDbEntity
  8
1
100
AcDbCircle
 10
11.24639524519443
 20
3.631885051727294
 30
0.0
 40
1.823241472244263
100
AcDbArc
 50
132.8121553333381
 51
140.3530637112664
  0
LWPOLYLINE
  5
1617
330
18
100
AcDbEntity
  8
1
100
AcDbPolyline
 90
        6
 70
     0
 43
0.0
 10
10.00720643997192
 20
4.969501018524169
 10
9.554772019386291
 20
5.094232559204101
 10
9.26626181602478
 20
5.172442436218261
 10
8.664438486099243
 20
5.333832263946533
 10
7.643619298934936
 20
5.605836391448974
 10
6.620697021484375
 20
5.879093170166015
  0
LWPOLYLINE
  5
1618
330
18
100
AcDbEntity
  8
1
100
AcDbPolyline
 90
       12
 70
     0
 43
0.0
 10
10.00725364685058
 20
4.969486713409423
 10
10.25447130203247
 20
4.90338134765625
 10
10.51008933782577
 20
4.841569423675537
 10
10.7714996933937
 20
4.785479068756103
 10
11.0352318584919
 20
4.736228942871093
 10
11.25019617378711
 20
4.70132303237915
 10
11.4615721181035
 20
4.671225547790527
 10
11.66578648984432
 20
4.645795345306396
 10
11.86346384882927
 20
4.62428331375122
 10
12.05707305669784
 20
4.605885982513427
 10
12.24260795116424
 20
4.590517044067382
 10
12.43538683652878
 20
4.57676362991333
  0
LWPOLYLINE
  5
1619
330
18
100
AcDbEntity
  8
1
100
AcDbPolyline
 90
        9
 70
     0
 43
0.0
 10
13.59984850883484
 20
3.686651945114135
 10
13.56743693351745
 20
3.732561826705932
 10
13.53315091133117
 20
3.777671337127685
 10
13.46036505699158
 20
3.866971015930175
 10
13.41037726402283
 20
3.925242900848388
 10
13.30807793140411
 20
4.040027141571044
 10
13.15072536468506
 20
4.209937095642089
 10
13.04464030265808
 20
4.322025775909423
 10
12.83101832866669
 20
4.544776439666748
  0
ARC
  5
161A
330
18
100
AcDbEntity
  8
1
100
AcDbCircle
 10
11.46590996719897
 20
-9.845704078674318
 30
0.0
 40
14.45505332946777
100
AcDbArc
 50
84.58103319085909
 51
86.15444207872821
  0
ARC
  5
161B
330
18
100
AcDbEntity
  8
1
100
AcDbCircle
 10
4.540993213653564
 20
3.89743947982788
 30
0.0
 40
3.124906301498413
100
AcDbArc
 50
127.2888125986497
 51
137.9118461707601
  0
ARC
  5
161C
330
18
100
AcDbEntity
  8
1
100
AcDbCircle
 10
4.518798351287841
 20
3.91785717010498
 30
0.0
 40
3.094725131988524
100
AcDbArc
 50
137.9169407880133
 51
143.386392399426
  0
LWPOLYLINE
  5
161D
330
18
100
AcDbEntity
  8
1
100
AcDbPolyline
 90
       21
 70
     0
 43
0.0
 10
2.097823143005371
 20
6.343573093414306
 10
2.030115127563476
 20
6.254585742950439
 10
1.96471881866455
 20
6.162169933319091
 10
1.901273727416992
 20
6.065598011016845
 10
1.840371131896972
 20
5.965558052062988
 10
1.763429641723632
 20
5.826861858367919
 10
1.691524505615234
 20
5.681964397430419
 10
1.625355720520019
 20
5.53173542022705
 10
1.593707084655761
 20
5.452526569366455
 10
1.563674926757812
 20
5.371887683868408
 10
1.535429000854492
 20
5.290185451507568
 10
1.508901596069335
 20
5.207123279571533
 10
1.47624397277832
 20
5.094080448150634
 10
1.446906089782714
 20
4.978754997253417
 10
1.421038627624511
 20
4.861241817474365
 10
1.393815994262695
 20
4.711433410644531
 10
1.372549057006835
 20
4.558596134185791
 10
1.357533454895019
 20
4.402980327606201
 10
1.349058151245117
 20
4.244863033294677
 10
1.347404479980468
 20
4.084548950195312
 10
1.352835655212402
 20
3.922371387481689
  0
ARC
  5
161E
330
18
100
AcDbEntity
  8
1
100
AcDbCircle
 10
2.148423194885253
 20
9.379638671875
 30
0.0
 40
3.036859512329102
100
AcDbArc
 50
269.045171216607
 51
279.4653348848012
  0
ARC
  5
161F
330
18
100
AcDbEntity
  8
1
100
AcDbCircle
 10
3.104935646057128
 20
-8.199705123901367
 30
0.0
 40
0.4827292263507843
100
AcDbArc
 50
44.95099813152858
 51
91.42873464694396
  0
LINE
  5
1620
330
18
100
AcDbEntity
  8
1
100
AcDbLine
 10
3.446446418762207
 20
-6.929638862609863
 30
0.0
 11
3.446446418762207
 21
-7.85877752304077
 31
0.0
  0
LINE
  5
1621
330
18
100
AcDbEntity
  8
1
100
AcDbLine
 10
3.09289264678955
 20
-6.801119804382324
 30
0.0
 11
3.09289264678955
 21
-7.716888904571533
 31
0.0
  0
LWPOLYLINE
  5
1622
330
18
100
AcDbEntity
  8
1
100
AcDbPolyline
 90
       10
 70
     0
 43
0.0
 10
3.488966461026592
 20
6.498705484914211
 10
3.725775671824919
 20
6.160884957886025
 10
3.999979387280859
 20
5.85170896928281
 10
4.30803564344805
 20
5.575171229411864
 10
4.645965193907585
 20
5.334843851447431
 10
5.009402910775889
 20
5.133831209473783
 10
5.393654170248368
 20
4.974729838440964
 10
5.793755494331605
 20
4.859594894017021
 10
6.204538665438093
 20
4.789913605583336
 10
6.620697485658041
 20
4.76658606528835
  0
ARC
  5
1623
330
18
100
AcDbEntity
  8
1
100
AcDbCircle
 10
7.01807689666748
 20
-22.37773227691651
 30
0.0
 40
29.09137916564941
100
AcDbArc
 50
96.96780651967651
 51
98.63997356639531
  0
LWPOLYLINE
  5
1624
330
18
100
AcDbEntity
  8
1
100
AcDbPolyline
 90
       36
 70
     0
 43
0.0
 10
2.097823143005371
 20
6.343573093414306
 10
2.01594066619873
 20
6.400867938995361
 10
1.937346458435058
 20
6.458527565002441
 10
1.867009162902832
 20
6.512847900390625
 10
1.800300598144531
 20
6.567337989807128
 10
1.715206146240234
 20
6.642423152923583
 10
1.639296531677246
 20
6.717037677764892
 10
1.605242729187011
 20
6.753980636596679
 10
1.574036598205566
 20
6.790570259094238
 10
1.532953262329101
 20
6.844603061676025
 10
1.499248504638671
 20
6.897346019744873
 10
1.473433494567871
 20
6.948497295379638
 10
1.455938339233398
 20
6.997763156890869
 10
1.450352668762207
 20
7.021939754486083
 10
1.447028160095214
 20
7.045510292053222
 10
1.44598388671875
 20
7.067793369293212
 10
1.447100639343261
 20
7.089428424835205
 10
1.4529390335083
 20
7.121043682098388
 10
1.463715553283691
 20
7.151007652282714
 10
1.479324340820312
 20
7.179259300231933
 10
1.499619483947753
 20
7.205760478973388
 10
1.527441024780273
 20
7.233130455017089
 10
1.560530662536621
 20
7.258316993713378
 10
1.598564147949218
 20
7.281344413757324
 10
1.630126953125
 20
7.297224998474121
 10
1.664129257202148
 20
7.311943054199218
 10
1.738850593566894
 20
7.338022232055664
 10
1.790373802185058
 20
7.352333068847656
 10
1.844867706298828
 20
7.365039825439453
 10
1.908161163330078
 20
7.377301692962646
 10
1.974491119384765
 20
7.387828350067138
 10
2.10832405090332
 20
7.403473377227783
 10
2.213289260864257
 20
7.411689758300781
 10
2.322122573852539
 20
7.417283535003662
 10
2.436119079589843
 20
7.420534610748291
 10
2.553132057189941
 20
7.421567916870117
  0
ARC
  5
1625
330
18
100
AcDbEntity
  8
1
100
AcDbCircle
 10
2.540063858032226
 20
-1.221355557441711
 30
0.0
 40
8.642956733703611
100
AcDbArc
 50
87.7564288282957
 51
89.91336838311751
  0
LINE
  5
1626
330
18
100
AcDbEntity
  8
1
100
AcDbLine
 10
2.878416061401367
 20
7.41499900817871
 30
0.0
 11
3.09289264678955
 21
7.410025119781494
 31
0.0
  0
ARC
  5
1627
330
18
100
AcDbEntity
  8
1
100
AcDbCircle
 10
2.540063858032226
 20
0.9144917726516723
 30
0.0
 40
8.642956733703611
100
AcDbArc
 50
270.0866316168825
 51
272.2435711717043
  0
LINE
  5
1628
330
18
100
AcDbEntity
  8
1
100
AcDbLine
 10
2.878416061401367
 20
-7.721862792968749
 30
0.0
 11
3.09289264678955
 21
-7.716888904571533
 31
0.0
  0
LWPOLYLINE
  5
1629
330
18
100
AcDbEntity
  8
1
100
AcDbPolyline
 90
       17
 70
     0
 43
0.0
 10
3.488966464996337
 20
6.498705387115478
 10
3.571539402008056
 20
6.505373001098632
 10
3.662362575531005
 20
6.506952762603759
 10
3.760012626647949
 20
6.503912925720214
 10
3.836909294128417
 20
6.498894214630126
 10
3.916338443756103
 20
6.491759300231933
 10
4.039127349853515
 20
6.477541446685791
 10
4.164932250976562
 20
6.459707736968994
 10
4.292447090148925
 20
6.438897609710693
 10
4.420646667480468
 20
6.41568899154663
 10
4.676662445068359
 20
6.363938808441162
 10
4.840524673461914
 20
6.327889442443847
 10
5.004254341125488
 20
6.290139198303222
 10
5.222590446472167
 20
6.237778186798095
 10
5.658363342285156
 20
6.128999710083007
 10
6.142785549163818
 20
6.004709720611572
 10
6.620697021484375
 20
5.879093170166015
  0
ARC
  5
162A
330
18
100
AcDbEntity
  8
1
100
AcDbCircle
 10
3.104935646057128
 20
7.892841339111328
 30
0.0
 40
0.4827292263507843
100
AcDbArc
 50
268.571265353056
 51
315.0490018684714
  0
LINE
  5
162B
330
18
100
AcDbEntity
  8
1
100
AcDbLine
 10
3.474318504333496
 20
7.580244064331054
 30
0.0
 11
3.446446418762207
 21
7.551913738250732
 31
0.0
  0
LWPOLYLINE
  5
162C
330
18
100
AcDbEntity
  8
1
100
AcDbPolyline
 90
       10
 70
     0
 43
0.0
 10
3.474322665871369
 20
7.580243421950058
 10
4.619033094290102
 20
7.205720489202121
 10
5.769293080934232
 20
6.849467981843304
 10
6.924802587721529
 20
6.511578826099253
 10
8.08526020726552
 20
6.192141158230811
 10
9.25036324149562
 20
5.891238301544376
 10
10.419807780614
 20
5.60894874465734
 10
11.59328878236869
 20
5.345346121025016
 10
12.77050015162177
 20
5.100499189733625
 10
13.95113482019238
 20
4.874471817565108
  0
LINE
  5
162D
330
18
100
AcDbEntity
  8
1
100
AcDbLine
 10
3.474318504333496
 20
-7.887107849121094
 30
0.0
 11
3.446446418762207
 21
-7.85877752304077
 31
0.0
  0
LINE
  5
162E
330
18
100
AcDbEntity
  8
1
100
AcDbLine
 10
3.474318504333496
 20
7.580244064331054
 30
0.0
 11
3.72499942779541
 21
7.835753440856933
 31
0.0
  0
ARC
  5
162F
330
18
100
AcDbEntity
  8
1
100
AcDbCircle
 10
3.791876792907714
 20
-7.46208095550537
 30
0.0
 40
0.2779516577720642
100
AcDbArc
 50
186.7368427976353
 51
212.175334526434
  0
LINE
  5
1630
330
18
100
AcDbEntity
  8
1
100
AcDbLine
 10
3.474318504333496
 20
-7.887107849121094
 30
0.0
 11
3.72499942779541
 21
-8.142617225646972
 31
0.0
  0
LWPOLYLINE
  5
1631
330
18
100
AcDbEntity
  8
1
100
AcDbPolyline
 90
       10
 70
     0
 43
0.0
 10
3.556037481678032
 20
-7.610453859616399
 10
3.550153723675236
 20
-7.670041979705529
 10
3.550449438255782
 20
-7.729609573701025
 10
3.556924424500209
 20
-7.789116169165395
 10
3.569574283062166
 20
-7.848521335105772
 10
3.588390419157548
 20
-7.907784709444342
 10
3.613360048404103
 20
-7.966866026441749
 10
3.644466205507598
 20
-8.025725144055172
 10
3.68168775578863
 20
-8.084322071212284
 10
3.724999409542476
 20
-8.142616994982743
  0
LWPOLYLINE
  5
1632
330
18
100
AcDbEntity
  8
1
100
AcDbPolyline
 90
       12
 70
     0
 43
0.0
 10
3.556037902832031
 20
-7.610455036163329
 10
3.835662841796875
 20
-7.606988430023193
 10
3.974332332611083
 20
-7.606615543365478
 10
4.249125003814697
 20
-7.610388755798338
 10
4.551201820373535
 20
-7.621645927429199
 10
4.791155815124511
 20
-7.634503364562988
 10
5.185839176177978
 20
-7.658604145050049
 10
5.591675758361816
 20
-7.681345939636229
 10
5.793624401092529
 20
-7.69016933441162
 10
5.993758201599121
 20
-7.69656467437744
 10
6.340724945068359
 20
-7.701851844787597
 10
6.620697021484375
 20
-7.702140331268309
  0
LWPOLYLINE
  5
1633
330
18
100
AcDbEntity
  8
1
100
AcDbPolyline
 90
       10
 70
     0
 43
0.0
 10
13.95114160024607
 20
4.874464221926018
 10
14.58807930910231
 20
4.295370156169809
 10
15.23155215859782
 20
3.72346764152644
 10
15.88147444711148
 20
3.158832847445353
 10
16.53775961404668
 20
2.60154097541681
 10
17.20032025135998
 20
2.051666248956109
 10
17.86906811520276
 20
1.50928190371809
 10
18.54391413767394
 20
0.974460177743083
 10
19.2247684386827
 20
0.4472723018359944
 10
19.9115403379192
 20
-0.0722115099209191
  0
LWPOLYLINE
  5
1634
330
18
100
AcDbEntity
  8
1
100
AcDbPolyline
 90
        8
 70
     0
 43
0.0
 10
19.63567447662353
 20
-0.6208089292049408
 10
19.67234325408935
 20
-0.57285475730896
 10
19.7106761932373
 20
-0.5142335593700409
 10
19.74967575073242
 20
-0.4465261697769165
 10
19.779221534729
 20
-0.3899726718664169
 10
19.8081636428833
 20
-0.3300792723894119
 10
19.86273384094238
 20
-0.2037835270166397
 10
19.91154098510742
 20
-0.0722076967358589
  0
LINE
  5
1635
330
18
100
AcDbEntity
  8
1
100
AcDbLine
 10
19.72702217102051
 20
0.5560036897659302
 30
0.0
 11
15.55211210250854
 21
7.777682304382324
 31
0.0
  0
LINE
  5
1636
330
18
100
AcDbEntity
  8
1
100
AcDbLine
 10
3.725000381469726
 20
7.835753917694091
 30
0.0
 11
15.55211210250854
 21
7.777682304382324
 31
0.0
  0
LINE
  5
1637
330
18
100
AcDbEntity
  8
1
100
AcDbLine
 10
19.93290042877197
 20
-0.0096223205327988
 30
0.0
 11
19.91154098510742
 21
-0.0722076967358589
 31
0.0
  0
LINE
  5
1638
330
18
100
AcDbEntity
  8
1
100
AcDbLine
 10
19.72702217102051
 20
0.5560036897659302
 30
0.0
 11
19.93290042877197
 21
-0.0096223205327988
 31
0.0
  0
LINE
  5
1639
330
18
100
AcDbEntity
  8
1
100
AcDbLine
 10
19.72702217102051
 20
-0.8628674745559692
 30
0.0
 11
15.55211210250854
 21
-8.084546089172363
 31
0.0
  0
LINE
  5
163A
330
18
100
AcDbEntity
  8
1
100
AcDbLine
 10
3.725000381469726
 20
-8.14261770248413
 30
0.0
 11
15.55211210250854
 21
-8.084546089172363
 31
0.0
  0
LINE
  5
163B
330
18
100
AcDbEntity
  8
1
100
AcDbLine
 10
19.72702217102051
 20
-0.8628674745559692
 30
0.0
 11
19.93290042877197
 21
-0.2972414642572403
 31
0.0
  0
LINE
  5
163C
330
18
100
AcDbEntity
  8
1
100
AcDbLine
 10
19.93290042877197
 20
-0.2972414642572403
 30
0.0
 11
19.93290042877197
 21
-0.0096223205327988
 31
0.0
  0
LINE
  5
163D
330
18
100
AcDbEntity
  8
1
100
AcDbLine
 10
19.53891181945801
 20
-0.7357282638549805
 30
0.0
 11
19.63567447662353
 21
-0.6208089292049408
 31
0.0
  0
ARC
  5
163E
330
18
100
AcDbEntity
  8
1
100
AcDbCircle
 10
50.52149295806884
 20
52.38185024261475
 30
0.0
 40
62.11203002929688
100
AcDbArc
 50
237.7593527920109
 51
239.3643676297451
  0
LINE
  5
163F
330
18
100
AcDbEntity
  8
1
100
AcDbLine
 10
16.64908075332641
 20
-4.41973876953125
 30
0.0
 11
18.87065172195434
 21
-1.060910582542419
 31
0.0
  0
LINE
  5
1640
330
18
100
AcDbEntity
  8
1
100
AcDbLine
 10
18.87065124511719
 20
-1.060911834239959
 30
0.0
 11
19.21579074859619
 21
-0.8930999636650085
 31
0.0
  0
LINE
  5
1641
330
18
100
AcDbEntity
  8
1
100
AcDbLine
 10
19.21579074859619
 20
-0.8930999636650085
 30
0.0
 11
19.53891181945801
 21
-0.7357282638549805
 31
0.0
  0
ARC
  5
1642
330
18
100
AcDbEntity
  8
1
100
AcDbCircle
 10
3.642662525177001
 20
4.103221893310546
 30
0.0
 40
15.54984760284424
100
AcDbArc
 50
321.8390716556115
 51
326.7636216516264
  0
LINE
  5
1643
330
18
100
AcDbEntity
  8
1
100
AcDbLine
 10
14.68940496444702
 20
-7.580436706542969
 30
0.0
 11
14.62094807624817
 21
-7.758555889129639
 31
0.0
  0
LWPOLYLINE
  5
1644
330
18
100
AcDbEntity
  8
1
100
AcDbPolyline
 90
       15
 70
     0
 43
0.0
 10
15.86899471282959
 20
-5.504302024841307
 10
15.75703191757202
 20
-5.649222373962401
 10
15.64719486236572
 20
-5.799471855163574
 10
15.54018306732178
 20
-5.954082965850829
 10
15.43654489517212
 20
-6.112130165100097
 10
15.36954498291015
 20
-6.218953609466552
 10
15.30434727668762
 20
-6.326627731323242
 10
15.17974281311035
 20
-6.543402194976806
 10
15.08381867408752
 20
-6.721074581146239
 10
14.99351596832275
 20
-6.897962570190429
 10
14.90890622138977
 20
-7.073174953460693
 10
14.85006475448608
 20
-7.201061248779296
 10
14.79436779022217
 20
-7.327200412750244
 10
14.74028062820434
 20
-7.454960346221924
 10
14.68940496444702
 20
-7.580436706542969
  0
ARC
  5
1645
330
18
100
AcDbEntity
  8
1
100
AcDbCircle
 10
6.924426555633544
 20
-273.2110795974731
 30
0.0
 40
265.5093994140625
100
AcDbArc
 50
88.34325139918489
 51
90.06554499760776
  0
LINE
  5
1646
330
18
100
AcDbEntity
  8
1
100
AcDbLine
 10
14.62097644805908
 20
-7.758501529693603
 30
0.0
 11
14.60076284408569
 21
-7.812425613403319
 31
0.0
  0
ARC
  5
1647
330
18
100
AcDbEntity
  8
SK1
100
AcDbCircle
 10
-0.1999998092651367
 20
5.595160961151123
 30
0.0
 40
0.2000000327825546
100
AcDbArc
 50
273.0000079000785
 51
359.9999876510596
  0
ARC
  5
1648
330
18
100
AcDbEntity
  8
SK1
100
AcDbCircle
 10
-0.1999998092651367
 20
-5.902024745941162
 30
0.0
 40
0.2000000327825546
100
AcDbArc
 50
0.0000123489402791
 51
86.99999209992149
  0
LINE
  5
1649
330
18
100
AcDbEntity
  8
SK1
100
AcDbLine
 10
-1.900000572204589
 20
5.305793285369873
 30
0.0
 11
-0.1895332336425781
 21
5.395435333251953
 31
0.0
  0
LINE
  5
164A
330
18
100
AcDbEntity
  8
SK1
100
AcDbLine
 10
-1.900000572204589
 20
-5.612657070159912
 30
0.0
 11
-0.1895332336425781
 21
-5.702299118041992
 31
0.0
  0
ARC
  5
164B
330
18
100
AcDbEntity
  8
SK1
100
AcDbCircle
 10
-2.100000381469726
 20
5.09656810760498
 30
0.0
 40
0.2000000327825546
100
AcDbArc
 50
270.0000043257107
 51
359.9999888902111
  0
ARC
  5
164C
330
18
100
AcDbEntity
  8
SK1
100
AcDbCircle
 10
-2.100000381469726
 20
-5.403431892395018
 30
0.0
 40
0.2000000327825546
100
AcDbArc
 50
0.0000111097888472
 51
89.99999567428931
  0
LINE
  5
164D
330
18
100
AcDbEntity
  8
SK1
100
AcDbLine
 10
-3.563858032226562
 20
4.896568298339843
 30
0.0
 11
-2.100000381469726
 21
4.896568298339843
 31
0.0
  0
LINE
  5
164E
330
18
100
AcDbEntity
  8
SK1
100
AcDbLine
 10
-4.713494300842285
 20
-5.203432083129883
 30
0.0
 11
-3.823017120361328
 21
-5.203432083129883
 31
0.0
  0
LINE
  5
164F
330
18
100
AcDbEntity
  8
SK1
100
AcDbLine
 10
-2.414356231689453
 20
-5.203432083129883
 30
0.0
 11
-2.100000381469726
 21
-5.203432083129883
 31
0.0
  0
LWPOLYLINE
  5
1650
330
18
100
AcDbEntity
  8
SK1
100
AcDbPolyline
 90
        7
 70
     0
 43
0.0
 10
-2.586020469665527
 20
-4.959939479827881
 10
-2.562047958374023
 20
-5.027732372283934
 10
-2.538819313049316
 20
-5.07872438430786
 10
-2.514885902404785
 20
-5.118881702423096
 10
-2.486427307128906
 20
-5.154367923736573
 10
-2.457661628723144
 20
-5.180497169494629
 10
-2.42802619934082
 20
-5.199912548065184
  0
LWPOLYLINE
  5
1651
330
18
100
AcDbEntity
  8
SK1
100
AcDbPolyline
 90
        8
 70
     0
 43
0.0
 10
-3.735941886901855
 20
4.65298318862915
 10
-3.711919784545898
 20
4.720857143402099
 10
-3.688690185546875
 20
4.771803855895996
 10
-3.664817810058593
 20
4.811838150024414
 10
-3.651371955871582
 20
4.830016613006591
 10
-3.622395515441894
 20
4.861041545867919
 10
-3.607584953308105
 20
4.873463153839111
 10
-3.577947616577148
 20
4.892878532409667
  0
LWPOLYLINE
  5
1652
330
18
100
AcDbEntity
  8
SK1
100
AcDbPolyline
 90
        7
 70
     0
 43
0.0
 10
-4.886178016662597
 20
-4.959103107452391
 10
-4.862452507019042
 20
-5.026293754577637
 10
-4.838686943054199
 20
-5.078506946563721
 10
-4.814883232116699
 20
-5.118403434753418
 10
-4.786398887634277
 20
-5.153920650482178
 10
-4.757616996765136
 20
-5.180061817169188
 10
-4.727972984313964
 20
-5.19948148727417
  0
LWPOLYLINE
  5
1653
330
18
100
AcDbEntity
  8
SK1
100
AcDbPolyline
 90
        7
 70
     0
 43
0.0
 10
-6.03588581085205
 20
4.653247833251953
 10
-6.011906623840332
 20
4.720994472503662
 10
-5.988709449768066
 20
4.771869659423828
 10
-5.964861869812011
 20
4.811874389648437
 10
-5.936377525329589
 20
4.847395896911621
 10
-5.907612800598144
 20
4.873524188995361
 10
-5.877978324890136
 20
4.892938137054443
  0
LWPOLYLINE
  5
1654
330
18
100
AcDbEntity
  8
SK1
100
AcDbPolyline
 90
        7
 70
     0
 43
0.0
 10
-7.185996055603027
 20
-4.959717750549315
 10
-7.161961555480957
 20
-5.027678966522217
 10
-7.138703346252441
 20
-5.078715324401854
 10
-7.114787101745605
 20
-5.11883544921875
 10
-7.086319923400878
 20
-5.154333591461182
 10
-7.057549476623535
 20
-5.180467128753662
 10
-7.027911186218261
 20
-5.199883937835694
  0
LWPOLYLINE
  5
1655
330
18
100
AcDbEntity
  8
SK1
100
AcDbPolyline
 90
        8
 70
     0
 43
0.0
 10
-8.336020469665527
 20
4.65308141708374
 10
-8.311999320983886
 20
4.720993041992187
 10
-8.295472145080566
 20
4.758596420288085
 10
-8.275820732116699
 20
4.795040130615234
 10
-8.251896858215332
 20
4.829627513885498
 10
-8.223185539245605
 20
4.860565185546875
 10
-8.207661628723144
 20
4.873637199401855
 10
-8.178027153015136
 20
4.893052101135253
  0
LWPOLYLINE
  5
1656
330
18
100
AcDbEntity
  8
SK1
100
AcDbPolyline
 90
        8
 70
     0
 43
0.0
 10
-9.486132621765136
 20
-4.95924186706543
 10
-9.466429710388183
 20
-5.016225814819336
 10
-9.445420265197753
 20
-5.065250873565674
 10
-9.423548698425292
 20
-5.105318546295166
 10
-9.401823997497558
 20
-5.136313915252684
 10
-9.373108863830566
 20
-5.167253494262696
 10
-9.357584953308105
 20
-5.180326461791993
 10
-9.327948570251464
 20
-5.199742317199707
  0
LWPOLYLINE
  5
1657
330
18
100
AcDbEntity
  8
SK1
100
AcDbPolyline
 90
        7
 70
     0
 43
0.0
 10
-10.6361780166626
 20
4.652238845825195
 10
-10.61209011077881
 20
4.72033405303955
 10
-10.5887861251831
 20
4.771455287933349
 10
-10.5648832321167
 20
4.811540126800537
 10
-10.53639698028564
 20
4.847057342529296
 10
-10.50761699676513
 20
4.873198509216308
 10
-10.47797298431396
 20
4.892618179321289
  0
LINE
  5
1658
330
18
100
AcDbEntity
  8
SK1
100
AcDbLine
 10
-5.864176750183105
 20
4.896568298339843
 30
0.0
 11
-4.973118782043457
 21
4.896568298339843
 31
0.0
  0
LWPOLYLINE
  5
1659
330
18
100
AcDbEntity
  8
SK1
100
AcDbPolyline
 90
        7
 70
     0
 43
0.0
 10
-3.80927562713623
 20
-5.199911117553711
 10
-3.779637336730957
 20
-5.18049383163452
 10
-3.750844001770019
 20
-5.154336452484131
 10
-3.722395896911621
 20
-5.118857860565184
 10
-3.698517799377441
 20
-5.078812599182129
 10
-3.67529296875
 20
-5.027879238128662
 10
-3.651273727416992
 20
-4.960023403167725
  0
LWPOLYLINE
  5
165A
330
18
100
AcDbEntity
  8
SK1
100
AcDbPolyline
 90
        7
 70
     0
 43
0.0
 10
-4.959204673767089
 20
4.892879009246826
 10
-4.929570198059082
 20
4.873465061187744
 10
-4.900805473327636
 20
4.847337245941162
 10
-4.872347831726074
 20
4.811851501464843
 10
-4.848437309265136
 20
4.771742820739746
 10
-4.825259208679199
 20
4.720890998840332
 10
-4.801320075988769
 20
4.653267383575439
  0
LWPOLYLINE
  5
165B
330
18
100
AcDbEntity
  8
SK1
100
AcDbPolyline
 90
        8
 70
     0
 43
0.0
 10
-6.109185218811035
 20
-5.199478626251221
 10
-6.079535484313964
 20
-5.180056095123291
 10
-6.050749778747558
 20
-5.153910636901854
 10
-6.0222749710083
 20
-5.118408679962159
 10
-5.99836254119873
 20
-5.078311443328856
 10
-5.981055259704589
 20
-5.041642189025879
 10
-5.962161064147949
 20
-4.99281644821167
 10
-5.950934410095214
 20
-4.958994865417479
  0
LWPOLYLINE
  5
165C
330
18
100
AcDbEntity
  8
SK1
100
AcDbPolyline
 90
        8
 70
     0
 43
0.0
 10
-7.259234428405761
 20
4.892937183380126
 10
-7.229598045349121
 20
4.873521327972412
 10
-7.20082950592041
 20
4.847389221191406
 10
-7.172364234924316
 20
4.811893939971923
 10
-7.148547172546386
 20
4.77196455001831
 10
-7.127318382263183
 20
4.725969791412353
 10
-7.109410285949707
 20
4.677998542785644
 10
-7.101065635681152
 20
4.652488231658935
  0
LWPOLYLINE
  5
165D
330
18
100
AcDbEntity
  8
SK1
100
AcDbPolyline
 90
        7
 70
     0
 43
0.0
 10
-8.409165382385253
 20
-5.19988489151001
 10
-8.379528999328613
 20
-5.18046998977661
 10
-8.350764274597167
 20
-5.154341220855713
 10
-8.322255134582519
 20
-5.118779659271241
 10
-8.298422813415527
 20
-5.078794956207276
 10
-8.275164604187011
 20
-5.027755737304686
 10
-8.251112937927246
 20
-4.959727764129639
  0
LWPOLYLINE
  5
165E
330
18
100
AcDbEntity
  8
SK1
100
AcDbPolyline
 90
        7
 70
     0
 43
0.0
 10
-9.55927562713623
 20
4.893051147460937
 10
-9.529637336730957
 20
4.873633861541748
 10
-9.500866889953613
 20
4.847498893737792
 10
-9.472395896911621
 20
4.811997890472412
 10
-9.448538780212402
 20
4.771989345550537
 10
-9.425259590148925
 20
4.72093391418457
 10
-9.401179313659667
 20
4.652862548828125
  0
LINE
  5
165F
330
18
100
AcDbEntity
  8
SK1
100
AcDbLine
 10
-10.46349239349365
 20
4.896568298339843
 30
0.0
 11
-9.57299518585205
 21
4.896568298339843
 31
0.0
  0
LINE
  5
1660
330
18
100
AcDbEntity
  8
SK1
100
AcDbLine
 10
-9.313836097717285
 20
-5.203432083129883
 30
0.0
 11
-8.422854423522949
 21
-5.203432083129883
 31
0.0
  0
LINE
  5
1661
330
18
100
AcDbEntity
  8
SK1
100
AcDbLine
 10
-8.164340019226074
 20
4.896568298339843
 30
0.0
 11
-7.273238182067871
 21
4.896568298339843
 31
0.0
  0
LINE
  5
1662
330
18
100
AcDbEntity
  8
SK1
100
AcDbLine
 10
-7.014084815979003
 20
-5.203432083129883
 30
0.0
 11
-6.123675346374511
 21
-5.203432083129883
 31
0.0
  0
LINE
  5
1663
330
18
100
AcDbEntity
  8
SK1
100
AcDbLine
 10
-2.586015701293945
 20
-4.959953784942627
 30
0.0
 11
-2.679576873779296
 21
-4.662996292114258
 31
0.0
  0
LINE
  5
1664
330
18
100
AcDbEntity
  8
SK1
100
AcDbLine
 10
-3.735994338989257
 20
4.652814865112304
 30
0.0
 11
-3.814155578613281
 21
4.404680252075195
 31
0.0
  0
LINE
  5
1665
330
18
100
AcDbEntity
  8
SK1
100
AcDbLine
 10
-4.886157035827636
 20
-4.959169864654541
 30
0.0
 11
-4.979737281799316
 21
-4.662205696105957
 31
0.0
  0
LINE
  5
1666
330
18
100
AcDbEntity
  8
SK1
100
AcDbLine
 10
-6.035958290100097
 20
4.653017520904541
 30
0.0
 11
-6.114113807678222
 21
4.404890060424804
 31
0.0
  0
LINE
  5
1667
330
18
100
AcDbEntity
  8
SK1
100
AcDbLine
 10
-7.185933113098144
 20
-4.959918975830079
 30
0.0
 11
-7.279576301574707
 21
-4.66271448135376
 31
0.0
  0
LINE
  5
1668
330
18
100
AcDbEntity
  8
SK1
100
AcDbLine
 10
-8.336028099060058
 20
4.653054237365722
 30
0.0
 11
-8.414172172546386
 21
4.40496015548706
 31
0.0
  0
LINE
  5
1669
330
18
100
AcDbEntity
  8
SK1
100
AcDbLine
 10
-9.486035346984863
 20
-4.959549427032471
 30
0.0
 11
-9.579606056213378
 21
-4.662581920623778
 31
0.0
  0
LINE
  5
166A
330
18
100
AcDbEntity
  8
SK1
100
AcDbLine
 10
-10.63619899749756
 20
4.652173042297363
 30
0.0
 11
-10.71426105499267
 21
4.404380321502685
 31
0.0
  0
ARC
  5
166B
330
18
100
AcDbEntity
  8
SK1
100
AcDbCircle
 10
-2.795267105102539
 20
-4.83213710784912
 30
0.0
 40
0.1781960725784302
100
AcDbArc
 50
42.5365303898838
 51
90.86008042470398
  0
ARC
  5
166C
330
18
100
AcDbEntity
  8
SK1
100
AcDbCircle
 10
-3.943592071533203
 20
4.520470142364501
 30
0.0
 40
0.173431396484375
100
AcDbArc
 50
268.5798850692571
 51
321.9746586206758
  0
ARC
  5
166D
330
18
100
AcDbEntity
  8
SK1
100
AcDbCircle
 10
-5.095143318176269
 20
-4.83162546157837
 30
0.0
 40
0.1780615448951721
100
AcDbArc
 50
42.57759821341404
 51
90.87796869556123
  0
ARC
  5
166E
330
18
100
AcDbEntity
  8
SK1
100
AcDbCircle
 10
-6.243626594543457
 20
4.520484447479248
 30
0.0
 40
0.1733939945697784
100
AcDbArc
 50
268.5901645159677
 51
321.9695984484796
  0
ARC
  5
166F
330
18
100
AcDbEntity
  8
SK1
100
AcDbCircle
 10
-7.395062446594238
 20
-4.831817626953125
 30
0.0
 40
0.1778955161571503
100
AcDbArc
 50
42.16997700590648
 51
90.88995565566653
  0
ARC
  5
1670
330
18
100
AcDbEntity
  8
SK1
100
AcDbCircle
 10
-8.543675422668457
 20
4.520593166351318
 30
0.0
 40
0.1733999401330948
100
AcDbArc
 50
268.5912914014813
 51
321.9786072512157
  0
ARC
  5
1671
330
18
100
AcDbEntity
  8
SK1
100
AcDbCircle
 10
-9.694809913635253
 20
-4.831065654754639
 30
0.0
 40
0.177245169878006
100
AcDbArc
 50
41.58303864155644
 51
90.98712195279626
  0
ARC
  5
1672
330
18
100
AcDbEntity
  8
SK1
100
AcDbCircle
 10
-10.84359836578369
 20
4.520163536071777
 30
0.0
 40
0.1733535975217819
100
AcDbArc
 50
268.5886550035676
 51
321.9430692311
  0
LINE
  5
1673
330
18
100
AcDbEntity
  8
SK1
100
AcDbLine
 10
-2.797944068908691
 20
-4.653812408447266
 30
0.0
 11
-3.439361572265625
 21
-4.653812408447266
 31
0.0
  0
LINE
  5
1674
330
18
100
AcDbEntity
  8
SK1
100
AcDbLine
 10
-3.947832107543945
 20
4.346796989440917
 30
0.0
 11
-4.589249610900878
 21
4.346796989440917
 31
0.0
  0
LINE
  5
1675
330
18
100
AcDbEntity
  8
SK1
100
AcDbLine
 10
-5.097874641418457
 20
-4.653432369232178
 30
0.0
 11
-5.739291191101074
 21
-4.653432369232178
 31
0.0
  0
LINE
  5
1676
330
18
100
AcDbEntity
  8
SK1
100
AcDbLine
 10
-6.24787425994873
 20
4.34684944152832
 30
0.0
 11
-6.889290809631347
 21
4.34684944152832
 31
0.0
  0
LINE
  5
1677
330
18
100
AcDbEntity
  8
SK1
100
AcDbLine
 10
-7.397843360900878
 20
-4.653787612915039
 30
0.0
 11
-8.039259910583496
 21
-4.653787612915039
 31
0.0
  0
LINE
  5
1678
330
18
100
AcDbEntity
  8
SK1
100
AcDbLine
 10
-8.547944068908691
 20
4.346951961517333
 30
0.0
 11
-9.189362525939941
 21
4.346951961517333
 31
0.0
  0
LINE
  5
1679
330
18
100
AcDbEntity
  8
SK1
100
AcDbLine
 10
-9.697876930236816
 20
-4.653660774230957
 30
0.0
 11
-10.24091053009033
 21
-4.653660774230957
 31
0.0
  0
LINE
  5
167A
330
18
100
AcDbEntity
  8
SK1
100
AcDbLine
 10
-10.84786128997802
 20
4.346568584442138
 30
0.0
 11
-11.39073276519775
 21
4.346568584442138
 31
0.0
  0
ARC
  5
167B
330
18
100
AcDbEntity
  8
SK1
100
AcDbCircle
 10
-3.443802833557128
 20
-4.826968193054198
 30
0.0
 40
0.1729518622159958
100
AcDbArc
 50
88.53355408410822
 51
142.0596722643326
  0
ARC
  5
167C
330
18
100
AcDbEntity
  8
SK1
100
AcDbCircle
 10
-4.591975212097167
 20
4.524977207183837
 30
0.0
 40
0.1780584156513214
100
AcDbArc
 50
222.3940362803052
 51
270.868681412256
  0
ARC
  5
167D
330
18
100
AcDbEntity
  8
SK1
100
AcDbCircle
 10
-5.743985176086425
 20
-4.826196670532225
 30
0.0
 40
0.1724895238876343
100
AcDbArc
 50
88.44370294052799
 51
142.0714324661928
  0
ARC
  5
167E
330
18
100
AcDbEntity
  8
SK1
100
AcDbCircle
 10
-6.892231941223144
 20
4.524743556976318
 30
0.0
 40
0.1777463555335999
100
AcDbArc
 50
222.2773508086387
 51
270.9389231539691
  0
ARC
  5
167F
330
18
100
AcDbEntity
  8
SK1
100
AcDbCircle
 10
-8.04390811920166
 20
-4.82670259475708
 30
0.0
 40
0.1726399064064026
100
AcDbArc
 50
88.45501374846731
 51
142.078562328203
  0
ARC
  5
1680
330
18
100
AcDbEntity
  8
SK1
100
AcDbCircle
 10
-9.191916465759277
 20
4.525741100311279
 30
0.0
 40
0.1786347180604935
100
AcDbArc
 50
222.7317504636533
 51
270.8186503293671
  0
LINE
  5
1681
330
18
100
AcDbEntity
  8
SK1
100
AcDbLine
 10
-3.572996139526367
 20
-4.711513519287108
 30
0.0
 11
-3.651185989379882
 21
-4.9597430229187
 31
0.0
  0
LINE
  5
1682
330
18
100
AcDbEntity
  8
SK1
100
AcDbLine
 10
-4.707634925842285
 20
4.355924606323242
 30
0.0
 11
-4.801199913024902
 21
4.652882575988769
 31
0.0
  0
LINE
  5
1683
330
18
100
AcDbEntity
  8
SK1
100
AcDbLine
 10
-5.872834205627441
 20
-4.71108102798462
 30
0.0
 11
-5.950959205627441
 21
-4.95907735824585
 31
0.0
  0
LINE
  5
1684
330
18
100
AcDbEntity
  8
SK1
100
AcDbLine
 10
-7.007588386535644
 20
4.355811119079589
 30
0.0
 11
-7.101161003112792
 21
4.652788162231445
 31
0.0
  0
LINE
  5
1685
330
18
100
AcDbEntity
  8
SK1
100
AcDbLine
 10
-8.172942161560058
 20
-4.711544990539551
 30
0.0
 11
-8.251175880432128
 21
-4.959924697875975
 31
0.0
  0
LINE
  5
1686
330
18
100
AcDbEntity
  8
SK1
100
AcDbLine
 10
-9.307606697082519
 20
4.355880260467529
 30
0.0
 11
-9.401179313659667
 21
4.652863025665283
 31
0.0
  0
LINE
  5
1687
330
18
100
AcDbEntity
  8
SK1
100
AcDbLine
 10
-11.75000095367431
 20
-4.250554084777832
 30
0.0
 11
-10.24884128570556
 21
-4.652714729309082
 31
0.0
  0
LINE
  5
1688
330
18
100
AcDbEntity
  8
SK1
100
AcDbLine
 10
-11.75000095367431
 20
4.251657485961914
 30
0.0
 11
-11.39877986907959
 21
4.345749378204345
 31
0.0
  0
LINE
  5
1689
330
18
100
AcDbEntity
  8
1
100
AcDbLine
 10
2.553132057189941
 20
7.421567916870117
 30
0.0
 11
0.0
 21
7.421567916870117
 31
0.0
  0
LINE
  5
168A
330
18
100
AcDbEntity
  8
1
100
AcDbLine
 10
2.553132057189941
 20
-7.728431701660155
 30
0.0
 11
0.0
 21
-7.728431701660155
 31
0.0
  0
DIMENSION
  5
168B
102
{ACAD_XDICTIONARY
360
168C
102
}
330
18
100
AcDbEntity
  8
SK2
100
AcDbDimension
  2
*D20
 10
-17.76326052598574
 20
-7.73843170166015
 30
0.0
 11
-17.76326052598574
 21
18.62990125020346
 31
0.0
 70
   160
  1
%%c<>
 71
     5
 42
15.15999961853027
  3
STANDARD
100
AcDbAlignedDimension
 13
0.0
 23
7.421567916870117
 33
0.0
 14
0.0
 24
-7.738431701660155
 34
0.0
 50
90.0
100
AcDbRotatedDimension
1001
ACAD
1000
DSTYLE
1002
{
1070
   172
1070
     1
1070
   271
1070
     1
1002
}
  0
DIMENSION
  5
168D
102
{ACAD_XDICTIONARY
360
168E
102
}
330
18
100
AcDbEntity
  8
2
100
AcDbDimension
  2
*D21
 10
39.37226790226822
 20
-8.084163683687059
 30
0.0
 11
39.37226790226822
 21
-1.403240689652341
 31
0.0
 70
   160
  1
%%c<>
 71
     5
 42
15.86184598806937
  3
DIAMETER
100
AcDbAlignedDimension
 13
15.55211210250854
 23
7.777682304382324
 33
0.0
 14
15.62999442985574
 24
-8.084163683687052
 34
0.0
 50
90.0
100
AcDbRotatedDimension
1001
ACAD
1000
DSTYLE
1002
{
1070
    76
1070
     0
1070
   172
1070
     1
1070
   271
1070
     0
1070
   344
1005
0
1002
}
  0
DIMENSION
  5
168F
102
{ACAD_XDICTIONARY
360
1690
102
}
330
18
100
AcDbEntity
  8
2
100
AcDbDimension
  2
*D22
 10
19.93290042877197
 20
27.7776823043823
 30
0.0
 11
9.966450214385986
 21
30.21417211464232
 31
0.0
 70
    32
 71
     5
 42
19.93290042877197
  3
STANDARD
100
AcDbAlignedDimension
 13
0.0
 23
7.421567916870117
 33
0.0
 14
19.93290042877197
 24
-0.2972414642572403
 34
0.0
100
AcDbRotatedDimension
1001
ACAD
1000
DSTYLE
1002
{
1070
   271
1070
     1
1002
}
  0
DIMENSION
  5
1691
330
18
100
AcDbEntity
  8
2
100
AcDbDimension
  2
*D19
 10
4.432900428771973
 20
17.7776823043823
 30
0.0
 11
12.18290042877197
 21
20.21417211464231
 31
0.0
 70
    32
 71
     5
 42
15.5
  3
STANDARD
100
AcDbAlignedDimension
 13
19.93290042877197
 23
-0.2972414642572403
 33
0.0
 14
4.432900428771972
 24
7.832278098848377
 34
0.0
100
AcDbRotatedDimension
1001
ACAD
1000
DSTYLE
1002
{
1070
   271
1070
     1
1002
}
  0
LWPOLYLINE
  5
1692
330
18
100
AcDbEntity
  8
SK4
100
AcDbPolyline
 90
        2
 70
     0
 43
0.0
 10
-14.31230574564805
 20
0.0
 10
0.0
 20
0.0
  0
LWPOLYLINE
  5
1693
330
18
100
AcDbEntity
  8
4
100
AcDbPolyline
 90
        2
 70
     0
 43
0.0
 10
0.0
 20
0.0
 10
22.47729351750797
 20
0.0
  0
INSERT
  5
1696
330
18
100
AcDbEntity
  8
0
100
AcDbBlockReference
  2
CERO_POINT
 10
0.0
 20
0.0
 30
0.0
 41
0.461999999999955
 42
0.461999999999955
 43
0.461999999999955
  0
LWPOLYLINE
  5
16CF
330
18
100
AcDbEntity
  8
CUT
100
AcDbPolyline
 90
        6
 70
     0
 43
0.0
 10
4.432900428771972
 20
7.83227809884838
 10
15.55211210250854
 20
7.777682304382324
 10
19.72702217102051
 20
0.5560036897659302
 10
19.92939806758144
 20
0.0
 10
4.432900428771972
 20
0.0000000000000013
 10
4.432900428771972
 20
7.832278098848377
  0
LWPOLYLINE
  5
16D6
330
18
100
AcDbEntity
  8
NOCUT
100
AcDbPolyline
 90
        8
 70
     0
 43
0.0
 10
4.432900428771972
 20
7.832278098848377
 10
3.721589760581252
 20
7.832278098848377
 10
3.474322665871369
 20
7.580243421950058
 10
3.09289949779972
 20
7.410262187978219
 10
0.0
 20
7.421567916870117
 10
0.0
 20
0.0
 10
4.432900428771972
 20
0.0
 10
4.432900428771972
 20
7.832276397185715
  0
ENDSEC
  0
SECTION
  2
OBJECTS
  0
DICTIONARY
  5
C
330
0
100
AcDbDictionary
281
     1
  3
ACAD_CIP_PREVIOUS_PRODUCT_INFO
350
D23
  3
ACAD_COLOR
350
387
  3
ACAD_DETAILVIEWSTYLE
350
D20
  3
ACAD_FIELDLIST
350
E7F
  3
ACAD_GROUP
350
D
  3
ACAD_LAYOUT
350
301
  3
ACAD_MATERIAL
350
386
  3
ACAD_MLEADERSTYLE
350
43C
  3
ACAD_MLINESTYLE
350
E
  3
ACAD_PLOTSETTINGS
350
302
  3
ACAD_PLOTSTYLENAME
350
2FF
  3
ACAD_SCALELIST
350
41A
  3
ACAD_SECTIONVIEWSTYLE
350
D1E
  3
ACAD_TABLESTYLE
350
388
  3
ACAD_VISUALSTYLE
350
3F2
  3
ACDB_RECOMPOSE_DATA
350
1814
  3
AcDbVariableDictionary
350
357
  3
AEC_PROPERTY_SET_DEFS
350
5CF
  3
ASE_INDEX_DICTIONARY
350
69C
  3
DWGPROPS
350
1815
  0
DICTIONARY
  5
451
330
2
100
AcDbDictionary
280
     1
281
     1
  3
ACAD_LAYERFILTERS
360
6C6
  3
ACAD_LAYERSTATES
360
133E
  3
ACLYDICTIONARY
360
6C5
  0
DICTIONARY
  5
CE9
330
F
100
AcDbDictionary
280
     1
281
     1
  3
ADSK_XREC_LAYER_RECONCILED
360
CEA
  0
DICTIONARY
  5
CEB
330
23
100
AcDbDictionary
280
     1
281
     1
  3
ADSK_XREC_LAYER_RECONCILED
360
CEC
  0
DICTIONARY
  5
CED
330
24
100
AcDbDictionary
280
     1
281
     1
  3
ADSK_XREC_LAYER_RECONCILED
360
CEE
  0
DICTIONARY
  5
CEF
330
25
100
AcDbDictionary
280
     1
281
     1
  3
ADSK_XREC_LAYER_RECONCILED
360
CF0
  0
DICTIONARY
  5
CF1
330
27
100
AcDbDictionary
280
     1
281
     1
  3
ADSK_XREC_LAYER_RECONCILED
360
CF2
  0
DICTIONARY
  5
CF3
330
2A
100
AcDbDictionary
280
     1
281
     1
  3
ADSK_XREC_LAYER_RECONCILED
360
CF4
  0
DICTIONARY
  5
CF5
330
2B
100
AcDbDictionary
280
     1
281
     1
  3
ADSK_XREC_LAYER_RECONCILED
360
CF6
  0
DICTIONARY
  5
CF9
330
375
100
AcDbDictionary
280
     1
281
     1
  3
ADSK_XREC_LAYER_RECONCILED
360
CFA
  0
DICTIONARY
  5
CFB
330
376
100
AcDbDictionary
280
     1
281
     1
  3
ADSK_XREC_LAYER_RECONCILED
360
CFC
  0
DICTIONARY
  5
CFD
330
49B
100
AcDbDictionary
280
     1
281
     1
  3
ADSK_XREC_LAYER_RECONCILED
360
CFE
  0
DICTIONARY
  5
E6D
330
E6C
100
AcDbDictionary
280
     1
281
     1
  0
DICTIONARY
  5
144E
330
18
100
AcDbDictionary
280
     1
281
     1
  3
ACAD_SORTENTS
360
144F
  0
DICTIONARY
  5
E64
330
E63
100
AcDbDictionary
280
     1
281
     1
  3
AcDbBlockTableRecordData
360
1853
  0
DICTIONARY
  5
E67
330
E66
100
AcDbDictionary
280
     1
281
     1
  3
ACAD_FIELD
360
E68
  0
DICTIONARY
  5
1194
330
1193
100
AcDbDictionary
280
     1
281
     1
  0
DICTIONARY
  5
168C
330
168B
100
AcDbDictionary
280
     1
281
     1
  0
DICTIONARY
  5
168E
330
168D
100
AcDbDictionary
280
     1
281
     1
  0
DICTIONARY
  5
1690
330
168F
100
AcDbDictionary
280
     1
281
     1
  0
XRECORD
  5
D23
102
{ACAD_REACTORS
330
C
102
}
330
C
100
AcDbXrecord
280
     1
300
ACDLT
300
2015
300
ACDLT_F_S
  0
DICTIONARY
  5
387
102
{ACAD_REACTORS
330
C
102
}
330
C
100
AcDbDictionary
281
     1
  0
DICTIONARY
  5
D20
102
{ACAD_REACTORS
330
C
102
}
330
C
100
AcDbDictionary
281
     1
  3
Imperial24
350
E73
  3
Metric50
350
D21
  0
FIELDLIST
  5
E7F
102
{ACAD_REACTORS
330
C
102
}
330
C
100
AcDbIdSet
 90
        2
330
E69
330
E6A
100
AcDbFieldList
  0
DICTIONARY
  5
D
102
{ACAD_REACTORS
330
C
102
}
330
C
100
AcDbDictionary
281
     1
  0
DICTIONARY
  5
301
102
{ACAD_REACTORS
330
C
102
}
330
C
100
AcDbDictionary
281
     1
  3
Layout1
350
33B
  3
Model
350
303
  0
DICTIONARY
  5
386
102
{ACAD_REACTORS
330
C
102
}
330
C
100
AcDbDictionary
281
     1
  3
ByBlock
350
3F0
  3
ByLayer
350
3EF
  3
Global
350
3F1
  0
DICTIONARY
  5
43C
102
{ACAD_REACTORS
330
C
102
}
330
C
100
AcDbDictionary
281
     1
  3
Standard
350
43D
  0
DICTIONARY
  5
E
102
{ACAD_REACTORS
330
C
102
}
330
C
100
AcDbDictionary
281
     1
  3
STANDARD
350
1B
  0
DICTIONARY
  5
302
102
{ACAD_REACTORS
330
C
102
}
330
C
100
AcDbDictionary
281
     1
  0
ACDBDICTIONARYWDFLT
  5
2FF
102
{ACAD_REACTORS
330
C
102
}
330
C
100
AcDbDictionary
281
     1
  3
Normal
350
300
100
AcDbDictionaryWithDefault
340
300
  0
DICTIONARY
  5
41A
102
{ACAD_REACTORS
330
C
102
}
330
C
100
AcDbDictionary
281
     1
  3
A0
350
41B
  3
A1
350
41C
  3
A2
350
41D
  3
A3
350
41E
  3
A4
350
41F
  3
A5
350
420
  3
A6
350
421
  3
A7
350
422
  3
A8
350
423
  3
A9
350
424
  3
B0
350
425
  3
B1
350
426
  3
B2
350
427
  3
B3
350
428
  3
B4
350
429
  3
B5
350
42A
  3
B6
350
42B
  3
B7
350
42C
  3
B8
350
42D
  3
B9
350
42E
  3
C0
350
42F
  3
C1
350
430
  3
C2
350
431
  3
C3
350
432
  3
C4
350
433
  3
C5
350
434
  3
C6
350
435
  3
C7
350
436
  3
C8
350
437
  3
C9
350
438
  3
D0
350
439
  3
D1
350
43A
  3
D2
350
43B
  0
DICTIONARY
  5
D1E
102
{ACAD_REACTORS
330
C
102
}
330
C
100
AcDbDictionary
281
     1
  3
Imperial24
350
E71
  3
Metric50
350
D1F
  0
DICTIONARY
  5
388
102
{ACAD_REACTORS
330
C
102
}
330
C
100
AcDbDictionary
281
     1
  3
Standard
350
389
  0
DICTIONARY
  5
3F2
102
{ACAD_REACTORS
330
C
102
}
330
C
100
AcDbDictionary
281
     1
  3
2dWireframe
350
3F8
  3
3D Hidden
350
3FA
  3
3dWireframe
350
3F9
  3
Basic
350
3F7
  3
Brighten
350
3FE
  3
ColorChange
350
402
  3
Conceptual
350
3FB
  3
Dim
350
3FD
  3
EdgeColorOff
350
D1D
  3
Facepattern
350
401
  3
Flat
350
3F3
  3
FlatWithEdges
350
3F4
  3
Gouraud
350
3F5
  3
GouraudWithEdges
350
3F6
  3
Hidden
350
D15
  3
JitterOff
350
D1B
  3
Linepattern
350
400
  3
OverhangOff
350
D1C
  3
Realistic
350
3FC
  3
Shaded
350
D1A
  3
Shaded with edges
350
D19
  3
Shades of Gray
350
D16
  3
Sketchy
350
D17
  3
Thicken
350
3FF
  3
Wireframe
350
D14
  3
X-Ray
350
D18
  0
XRECORD
  5
1814
102
{ACAD_REACTORS
330
C
102
}
330
C
100
AcDbXrecord
280
     1
 90
        1
330
389
  0
DICTIONARY
  5
357
102
{ACAD_REACTORS
330
C
102
}
330
C
100
AcDbDictionary
281
     1
  3
CANNOSCALE
350
449
  3
CMLEADERSTYLE
350
447
  3
CTABLESTYLE
350
38E
  3
CVIEWDETAILSTYLE
350
E90
  3
CVIEWSECTIONSTYLE
350
E91
  3
DIMASSOC
350
359
  3
HIDETEXT
350
358
  3
INDEXCTL
350
D03
  3
LIGHTINGUNITS
350
44A
  3
MSLTSCALE
350
448
  3
SORTENTS
350
D02
  3
XCLIPFRAME
350
1786
  0
DICTIONARY
  5
5CF
102
{ACAD_REACTORS
330
C
102
}
330
C
100
AcDbDictionary
281
     1
  0
DICTIONARY
  5
69C
102
{ACAD_REACTORS
330
C
102
}
330
C
100
AcDbDictionary
281
     1
  3
ASEBlockHierarchyIndexRecord
350
69D
1001
DCO15
1040
1680501600.633
  0
XRECORD
  5
1815
102
{ACAD_REACTORS
330
C
102
}
330
C
100
AcDbXrecord
280
     1
  1
DWGPROPS COOKIE
  2

  3

  4

  6

  7

  8
marini
  9

300
=
301
=
302
=
303
=
304
=
305
=
306
=
307
=
308
=
309
=
 40
0.0122272685185185
 41
2455979.440255475
 42
2457362.50778588
  1

 90
        0
  0
DICTIONARY
  5
6C6
102
{ACAD_REACTORS
330
451
102
}
330
451
100
AcDbDictionary
281
     1
  0
DICTIONARY
  5
133E
102
{ACAD_REACTORS
330
451
102
}
330
451
100
AcDbDictionary
281
     1
  0
DICTIONARY
  5
6C5
102
{ACAD_REACTORS
330
451
102
}
330
451
100
AcDbDictionary
281
     1
1001
ACAD
1000
<All
  0
XRECORD
  5
CEA
102
{ACAD_REACTORS
330
CE9
102
}
330
CE9
100
AcDbXrecord
280
     1
290
     1
  0
XRECORD
  5
CEC
102
{ACAD_REACTORS
330
CEB
102
}
330
CEB
100
AcDbXrecord
280
     1
290
     1
  0
XRECORD
  5
CEE
102
{ACAD_REACTORS
330
CED
102
}
330
CED
100
AcDbXrecord
280
     1
290
     1
  0
XRECORD
  5
CF0
102
{ACAD_REACTORS
330
CEF
102
}
330
CEF
100
AcDbXrecord
280
     1
290
     1
  0
XRECORD
  5
CF2
102
{ACAD_REACTORS
330
CF1
102
}
330
CF1
100
AcDbXrecord
280
     1
290
     1
  0
XRECORD
  5
CF4
102
{ACAD_REACTORS
330
CF3
102
}
330
CF3
100
AcDbXrecord
280
     1
290
     1
  0
XRECORD
  5
CF6
102
{ACAD_REACTORS
330
CF5
102
}
330
CF5
100
AcDbXrecord
280
     1
290
     1
  0
XRECORD
  5
CFA
102
{ACAD_REACTORS
330
CF9
102
}
330
CF9
100
AcDbXrecord
280
     1
290
     1
  0
XRECORD
  5
CFC
102
{ACAD_REACTORS
330
CFB
102
}
330
CFB
100
AcDbXrecord
280
     1
290
     1
  0
XRECORD
  5
CFE
102
{ACAD_REACTORS
330
CFD
102
}
330
CFD
100
AcDbXrecord
280
     1
290
     1
  0
SORTENTSTABLE
  5
144F
102
{ACAD_REACTORS
330
144E
102
}
330
144E
100
AcDbSortentsTable
330
18
331
BF9
  5
BF9
331
BFA
  5
BFA
331
BFB
  5
BFB
331
BFC
  5
BFC
331
1192
  5
1453
  0
DICTIONARY
  5
1853
102
{ACAD_REACTORS
330
E64
102
}
330
E64
100
AcDbDictionary
280
     1
281
     1
  3
Edit
360
1854
  0
DICTIONARY
  5
E68
102
{ACAD_REACTORS
330
E67
102
}
330
E67
100
AcDbDictionary
280
     1
281
     1
  3
TEXT
360
E69
  0
ACDBDETAILVIEWSTYLE
  5
E73
102
{ACAD_XDICTIONARY
360
1857
102
}
102
{ACAD_REACTORS
330
D20
102
}
330
D20
100
AcDbModelDocViewStyle
 70
     0
  3
Imperial24
290
     0
100
AcDbDetailViewStyle
 70
     0
 71
     0
 90
        3
 71
     1
340
10
 40
0.24
340
0
 40
0.24
300

 40
0.36
280
     3
 71
     2
340
14
 90
       25
 71
     3
340
10
 40
0.24
 90
        1
 40
0.75
 90
        1
300
%<\AcVar ViewType \f "%tc1">% %<\AcVar ViewDetailId>%\PVARIA %<\AcVar ViewScale \f "%sn">%
 71
     4
340
14
 90
       25
340
14
 90
       25
280
     0
  0
ACDBDETAILVIEWSTYLE
  5
D21
102
{ACAD_XDICTIONARY
360
1851
102
}
102
{ACAD_REACTORS
330
D20
102
}
330
D20
100
AcDbModelDocViewStyle
 70
     0
  3
Metric50
290
     0
100
AcDbDetailViewStyle
 70
     0
 71
     0
 90
        3
 71
     1
340
10
 40
5.0
340
0
 40
5.0
300

 40
0.0
280
     1
 71
     2
340
14
 90
       25
 71
     3
340
10
 40
5.0
 90
        0
 40
15.0
 90
        1
300
%<\AcVar ViewDetailId>% (%<\AcVar ViewScale \f "%sn">%)
 71
     4
340
14
 90
       25
340
14
 90
       25
280
     0
  0
LAYOUT
  5
33B
102
{ACAD_XDICTIONARY
360
1818
102
}
102
{ACAD_REACTORS
330
301
102
}
330
301
100
AcDbPlotSettings
  1

  2
Lexmark Optra PS2
  4

  6

 40
0.0
 41
0.0
 42
0.0
 43
0.0
 44
0.0
 45
0.0
 46
0.0
 47
0.0
 48
0.0
 49
0.0
140
0.0
141
0.0
142
1.0
143
1.0
 70
   688
 72
     0
 73
     0
 74
     5
  7
monochrome.ctb
 75
    16
147
1.0
148
0.0
149
0.0
100
AcDbLayout
  1
Layout1
 70
     1
 71
     1
 10
0.0
 20
0.0
 11
12.0
 21
9.0
 12
0.0
 22
0.0
 32
0.0
 14
0.0
 24
0.0
 34
0.0
 15
0.0
 25
0.0
 35
0.0
146
0.0
 13
0.0
 23
0.0
 33
0.0
 16
1.0
 26
0.0
 36
0.0
 17
0.0
 27
1.0
 37
0.0
 76
     0
330
338
  0
LAYOUT
  5
303
102
{ACAD_XDICTIONARY
360
1816
102
}
102
{ACAD_REACTORS
330
301
102
}
330
301
100
AcDbPlotSettings
  1

  2
Default Windows System Printer.pc3
  4
A4
  6

 40
6.805083274841307
 41
5.535083293914794
 42
6.974411010742187
 43
7.14373779296875
 44
209.9733276367186
 45
296.9259948730469
 46
67.83299579489725
 47
0.0
 48
0.0
 49
0.0
140
0.0
141
0.0
142
1.0
143
0.3604333568168785
 70
  3764
 72
     1
 73
     1
 74
     1
  7
monochrome.ctb
 75
     0
147
2.774437995504559
148
-82.35087775247029
149
-53.69369632994493
100
AcDbLayout
  1
Model
 70
     1
 71
     0
 10
0.0
 20
0.0
 11
12.0
 21
9.0
 12
0.0
 22
0.0
 32
0.0
 14
0.0
 24
0.0
 34
0.0
 15
0.0
 25
0.0
 35
0.0
146
0.0
 13
0.0
 23
0.0
 33
0.0
 16
1.0
 26
0.0
 36
0.0
 17
0.0
 27
1.0
 37
0.0
 76
     0
330
18
331
3ED
1001
ACAD_PSEXT
1000
Default Windows System Printer.pc3
1000
Lexmark Optra Rx
1000
Lexmark Rx
1000
Erstellt von Lexmark Benutzerdefinierte Installation,Nov 13,2005,10:03
1070
     0
  0
MATERIAL
  5
3F0
102
{ACAD_XDICTIONARY
360
D0D
102
}
102
{ACAD_REACTORS
330
386
102
}
330
386
100
AcDbMaterial
  1
ByBlock
 73
     1
 78
     1
172
     1
176
     1
270
     1
274
     1
  0
MATERIAL
  5
3EF
102
{ACAD_XDICTIONARY
360
D0B
102
}
102
{ACAD_REACTORS
330
386
102
}
330
386
100
AcDbMaterial
  1
ByLayer
 73
     1
 78
     1
172
     1
176
     1
270
     1
274
     1
  0
MATERIAL
  5
3F1
102
{ACAD_XDICTIONARY
360
D0F
102
}
102
{ACAD_REACTORS
330
386
102
}
330
386
100
AcDbMaterial
  1
Global
 73
     1
 78
     1
172
     1
176
     1
270
     1
274
     1
  0
MLEADERSTYLE
  5
43D
102
{ACAD_REACTORS
330
43C
102
}
330
43C
100
AcDbMLeaderStyle
170
     2
171
     1
172
     0
 90
        2
 40
0.0
 41
0.0
173
     1
 91
-1056964608
340
12
 92
       -2
290
     1
 42
2.0
291
     1
 43
0.36
  3
Standard
 44
4.0
300

342
10
174
     1
178
     6
175
     1
176
     0
 93
-1056964608
 45
4.0
292
     0
297
     0
 46
4.0
 94
-1056964608
 47
1.0
 49
1.0
140
1.0
293
     1
141
0.0
294
     1
177
     0
142
1.0
295
     0
296
     0
143
0.125
1001
ACAD_MLEADERVER
1070
     2
  0
MLINESTYLE
  5
1B
102
{ACAD_REACTORS
330
E
102
}
330
E
100
AcDbMlineStyle
  2
STANDARD
 70
     0
  3

 62
     0
 51
90.0
 52
90.0
 71
     2
 49
0.5
 62
   256
  6
BYLAYER
 49
-0.5
 62
   256
  6
BYLAYER
  0
ACDBPLACEHOLDER
  5
300
102
{ACAD_REACTORS
330
2FF
102
}
330
2FF
  0
SCALE
  5
41B
102
{ACAD_REACTORS
330
41A
102
}
330
41A
100
AcDbScale
 70
     0
300
1:1
140
1.0
141
1.0
290
     1
  0
SCALE
  5
41C
102
{ACAD_REACTORS
330
41A
102
}
330
41A
100
AcDbScale
 70
     0
300
1:2
140
1.0
141
2.0
290
     0
  0
SCALE
  5
41D
102
{ACAD_REACTORS
330
41A
102
}
330
41A
100
AcDbScale
 70
     0
300
1:4
140
1.0
141
4.0
290
     0
  0
SCALE
  5
41E
102
{ACAD_REACTORS
330
41A
102
}
330
41A
100
AcDbScale
 70
     0
300
1:5
140
1.0
141
5.0
290
     0
  0
SCALE
  5
41F
102
{ACAD_REACTORS
330
41A
102
}
330
41A
100
AcDbScale
 70
     0
300
1:8
140
1.0
141
8.0
290
     0
  0
SCALE
  5
420
102
{ACAD_REACTORS
330
41A
102
}
330
41A
100
AcDbScale
 70
     0
300
1:10
140
1.0
141
10.0
290
     0
  0
SCALE
  5
421
102
{ACAD_REACTORS
330
41A
102
}
330
41A
100
AcDbScale
 70
     0
300
1:16
140
1.0
141
16.0
290
     0
  0
SCALE
  5
422
102
{ACAD_REACTORS
330
41A
102
}
330
41A
100
AcDbScale
 70
     0
300
1:20
140
1.0
141
20.0
290
     0
  0
SCALE
  5
423
102
{ACAD_REACTORS
330
41A
102
}
330
41A
100
AcDbScale
 70
     0
300
1:30
140
1.0
141
30.0
290
     0
  0
SCALE
  5
424
102
{ACAD_REACTORS
330
41A
102
}
330
41A
100
AcDbScale
 70
     0
300
1:40
140
1.0
141
40.0
290
     0
  0
SCALE
  5
425
102
{ACAD_REACTORS
330
41A
102
}
330
41A
100
AcDbScale
 70
     0
300
1:50
140
1.0
141
50.0
290
     0
  0
SCALE
  5
426
102
{ACAD_REACTORS
330
41A
102
}
330
41A
100
AcDbScale
 70
     0
300
1:100
140
1.0
141
100.0
290
     0
  0
SCALE
  5
427
102
{ACAD_REACTORS
330
41A
102
}
330
41A
100
AcDbScale
 70
     0
300
2:1
140
2.0
141
1.0
290
     0
  0
SCALE
  5
428
102
{ACAD_REACTORS
330
41A
102
}
330
41A
100
AcDbScale
 70
     0
300
4:1
140
4.0
141
1.0
290
     0
  0
SCALE
  5
429
102
{ACAD_REACTORS
330
41A
102
}
330
41A
100
AcDbScale
 70
     0
300
8:1
140
8.0
141
1.0
290
     0
  0
SCALE
  5
42A
102
{ACAD_REACTORS
330
41A
102
}
330
41A
100
AcDbScale
 70
     0
300
10:1
140
10.0
141
1.0
290
     0
  0
SCALE
  5
42B
102
{ACAD_REACTORS
330
41A
102
}
330
41A
100
AcDbScale
 70
     0
300
100:1
140
100.0
141
1.0
290
     0
  0
SCALE
  5
42C
102
{ACAD_REACTORS
330
41A
102
}
330
41A
100
AcDbScale
 70
     0
300
1/128" = 1'-0"
140
0.0078125
141
12.0
290
     0
  0
SCALE
  5
42D
102
{ACAD_REACTORS
330
41A
102
}
330
41A
100
AcDbScale
 70
     0
300
1/64" = 1'-0"
140
0.015625
141
12.0
290
     0
  0
SCALE
  5
42E
102
{ACAD_REACTORS
330
41A
102
}
330
41A
100
AcDbScale
 70
     0
300
1/32" = 1'-0"
140
0.03125
141
12.0
290
     0
  0
SCALE
  5
42F
102
{ACAD_REACTORS
330
41A
102
}
330
41A
100
AcDbScale
 70
     0
300
1/16" = 1'-0"
140
0.0625
141
12.0
290
     0
  0
SCALE
  5
430
102
{ACAD_REACTORS
330
41A
102
}
330
41A
100
AcDbScale
 70
     0
300
3/32" = 1'-0"
140
0.09375
141
12.0
290
     0
  0
SCALE
  5
431
102
{ACAD_REACTORS
330
41A
102
}
330
41A
100
AcDbScale
 70
     0
300
1/8" = 1'-0"
140
0.125
141
12.0
290
     0
  0
SCALE
  5
432
102
{ACAD_REACTORS
330
41A
102
}
330
41A
100
AcDbScale
 70
     0
300
3/16" = 1'-0"
140
0.1875
141
12.0
290
     0
  0
SCALE
  5
433
102
{ACAD_REACTORS
330
41A
102
}
330
41A
100
AcDbScale
 70
     0
300
1/4" = 1'-0"
140
0.25
141
12.0
290
     0
  0
SCALE
  5
434
102
{ACAD_REACTORS
330
41A
102
}
330
41A
100
AcDbScale
 70
     0
300
3/8" = 1'-0"
140
0.375
141
12.0
290
     0
  0
SCALE
  5
435
102
{ACAD_REACTORS
330
41A
102
}
330
41A
100
AcDbScale
 70
     0
300
1/2" = 1'-0"
140
0.5
141
12.0
290
     0
  0
SCALE
  5
436
102
{ACAD_REACTORS
330
41A
102
}
330
41A
100
AcDbScale
 70
     0
300
3/4" = 1'-0"
140
0.75
141
12.0
290
     0
  0
SCALE
  5
437
102
{ACAD_REACTORS
330
41A
102
}
330
41A
100
AcDbScale
 70
     0
300
1" = 1'-0"
140
1.0
141
12.0
290
     0
  0
SCALE
  5
438
102
{ACAD_REACTORS
330
41A
102
}
330
41A
100
AcDbScale
 70
     0
300
1-1/2" = 1'-0"
140
1.5
141
12.0
290
     0
  0
SCALE
  5
439
102
{ACAD_REACTORS
330
41A
102
}
330
41A
100
AcDbScale
 70
     0
300
3" = 1'-0"
140
3.0
141
12.0
290
     0
  0
SCALE
  5
43A
102
{ACAD_REACTORS
330
41A
102
}
330
41A
100
AcDbScale
 70
     0
300
6" = 1'-0"
140
6.0
141
12.0
290
     0
  0
SCALE
  5
43B
102
{ACAD_REACTORS
330
41A
102
}
330
41A
100
AcDbScale
 70
     0
300
1'-0" = 1'-0"
140
12.0
141
12.0
290
     0
  0
ACDBSECTIONVIEWSTYLE
  5
E71
102
{ACAD_XDICTIONARY
360
1855
102
}
102
{ACAD_REACTORS
330
D1E
102
}
330
D1E
100
AcDbModelDocViewStyle
 70
     0
  3
Imperial24
290
     0
100
AcDbSectionViewStyle
 70
     0
 71
     0
 90
       78
 71
     1
340
10
 40
0.24
340
0
340
0
 40
0.24
300
I, O, Q, S, X, Z
 40
0.48
 90
        3
 40
0.18
 90
        1
 71
     2
340
14
 90
       25
340
14
 90
       50
 40
0.24
 40
0.0
 40
0.24
 71
     3
340
10
 40
0.24
 90
        1
 40
0.75
 90
        1
300
%<\AcVar ViewType \f "%tc1">% %<\AcVar ViewSectionStartId>%-%<\AcVar ViewSectionEndId>%\PVARIA %<\AcVar ViewScale \f "%sn">%
 71
     4
300
ANSI31
 40
1.0
 90
        0
290
     0
290
     0
 90
        6
 40
0.0
 40
1.570796326794896
 40
0.2617993877991494
 40
1.308996938995747
 40
-0.2617993877991494
 40
1.832595714594044
  0
ACDBSECTIONVIEWSTYLE
  5
D1F
102
{ACAD_XDICTIONARY
360
184F
102
}
102
{ACAD_REACTORS
330
D1E
102
}
330
D1E
100
AcDbModelDocViewStyle
 70
     0
  3
Metric50
290
     0
100
AcDbSectionViewStyle
 70
     0
 71
     0
 90
      102
 71
     1
340
10
 40
5.0
340
0
340
0
 40
5.0
300
I, O, Q, S, X, Z
 40
10.0
 90
        0
 40
2.5
 90
        0
 71
     2
340
14
 90
       25
340
14
 90
       50
 40
5.0
 40
2.5
 40
5.0
 71
     3
340
10
 40
5.0
 90
        0
 40
15.0
 90
        1
300
%<\AcVar ViewSectionStartId>%-%<\AcVar ViewSectionEndId>% (%<\AcVar ViewScale \f "%sn">%)
 71
     4
300
ANSI31
 40
1.0
 90
        0
290
     0
290
     0
 90
        6
 40
0.0
 40
1.570796326794896
 40
0.2617993877991494
 40
1.308996938995747
 40
-0.2617993877991494
 40
1.832595714594044
  0
TABLESTYLE
  5
389
102
{ACAD_XDICTIONARY
360
444
102
}
102
{ACAD_REACTORS
330
388
102
}
330
388
100
AcDbTableStyle
  3
Standard
 70
     0
 71
     0
 40
1.5
 41
1.5
280
     0
281
     0
  7
STANDARD
140
4.5
170
     2
 62
     0
 63
     7
283
     0
274
    -2
284
     1
 64
     0
275
    -2
285
     1
 65
     0
276
    -2
286
     1
 66
     0
277
    -2
287
     1
 67
     0
278
    -2
288
     1
 68
     0
279
    -2
289
     1
 69
     0
  7
STANDARD
140
6.0
170
     5
 62
     0
 63
     7
283
     0
274
    -2
284
     1
 64
     0
275
    -2
285
     1
 65
     0
276
    -2
286
     1
 66
     0
277
    -2
287
     1
 67
     0
278
    -2
288
     1
 68
     0
279
    -2
289
     1
 69
     0
  7
STANDARD
140
4.5
170
     5
 62
     0
 63
     7
283
     0
274
    -2
284
     1
 64
     0
275
    -2
285
     1
 65
     0
276
    -2
286
     1
 66
     0
277
    -2
287
     1
 67
     0
278
    -2
288
     1
 68
     0
279
    -2
289
     1
 69
     0
  0
VISUALSTYLE
  5
3F8
102
{ACAD_XDICTIONARY
360
1825
102
}
102
{ACAD_REACTORS
330
3F2
102
}
330
3F2
100
AcDbVisualStyle
  2

 70
     4
 71
     0
 72
     2
 73
     0
 90
        0
 40
-0.6
 41
-30.0
 62
     5
 63
     7
 74
     1
 91
        4
 64
     7
 65
   257
 75
     1
175
     1
 42
1.0
 92
        0
 66
   257
 43
1.0
 76
     1
 77
     6
 78
     2
 67
     7
 79
     5
170
     0
171
     0
290
     0
174
     0
 93
        1
 44
0.0
173
     0
291
     0
 45
0.0
1001
ACAD
1000
AcDbSavedByObjectVersion
1070
     0
  0
VISUALSTYLE
  5
3FA
102
{ACAD_XDICTIONARY
360
1829
102
}
102
{ACAD_REACTORS
330
3F2
102
}
330
3F2
100
AcDbVisualStyle
  2

 70
     6
 71
     1
 72
     2
 73
     2
 90
        0
 40
-0.6
 41
-30.0
 62
     5
 63
     7
 74
     2
 91
        2
 64
     7
 65
   257
 75
     2
175
     1
 42
40.0
 92
        0
 66
   257
 43
1.0
 76
     1
 77
     6
 78
     2
 67
     7
 79
     3
170
     0
171
     0
290
     0
174
     0
 93
        1
 44
0.0
173
     0
291
     0
 45
0.0
1001
ACAD
1000
AcDbSavedByObjectVersion
1070
     0
  0
VISUALSTYLE
  5
3F9
102
{ACAD_XDICTIONARY
360
1827
102
}
102
{ACAD_REACTORS
330
3F2
102
}
330
3F2
100
AcDbVisualStyle
  2

 70
     5
 71
     0
 72
     2
 73
     0
 90
        0
 40
-0.6
 41
-30.0
 62
     5
 63
     7
 74
     1
 91
        4
 64
     7
 65
   257
 75
     1
175
     1
 42
1.0
 92
        0
 66
   257
 43
1.0
 76
     1
 77
     6
 78
     2
 67
     7
 79
     5
170
     0
171
     0
290
     0
174
     0
 93
        1
 44
0.0
173
     0
291
     0
 45
0.0
1001
ACAD
1000
AcDbSavedByObjectVersion
1070
     0
  0
VISUALSTYLE
  5
3F7
102
{ACAD_XDICTIONARY
360
1823
102
}
102
{ACAD_REACTORS
330
3F2
102
}
330
3F2
100
AcDbVisualStyle
  2

 70
     7
 71
     1
 72
     0
 73
     1
 90
        0
 40
-0.6
 41
-30.0
 62
     5
 63
     7
 74
     0
 91
        4
 64
     7
 65
   257
 75
     1
175
     1
 42
1.0
 92
        8
 66
     7
 43
1.0
 76
     1
 77
     6
 78
     2
 67
     7
 79
     5
170
     0
171
     0
290
     0
174
     0
 93
        1
 44
0.0
173
     0
291
     1
 45
0.0
1001
ACAD
1000
AcDbSavedByObjectVersion
1070
     0
  0
VISUALSTYLE
  5
3FE
102
{ACAD_XDICTIONARY
360
1831
102
}
102
{ACAD_REACTORS
330
3F2
102
}
330
3F2
100
AcDbVisualStyle
  2

 70
    12
 71
     2
 72
     2
 73
     0
 90
        0
 40
-0.6
 41
-30.0
 62
     5
 63
     7
 74
     1
 91
        4
 64
     7
 65
   257
 75
     1
175
     1
 42
1.0
 92
        8
 66
     7
 43
1.0
 76
     1
 77
     6
 78
     2
 67
     7
 79
     5
170
     0
171
     0
290
     0
174
     0
 93
        1
 44
50.0
173
     0
291
     1
 45
0.0
1001
ACAD
1000
AcDbSavedByObjectVersion
1070
     0
  0
VISUALSTYLE
  5
402
102
{ACAD_XDICTIONARY
360
1839
102
}
102
{ACAD_REACTORS
330
3F2
102
}
330
3F2
100
AcDbVisualStyle
  2

 70
    16
 71
     2
 72
     2
 73
     3
 90
        0
 40
-0.6
 41
-30.0
 62
     5
 63
     8
 74
     1
 91
        4
 64
     7
 65
   257
 75
     1
175
     1
 42
1.0
 92
        8
 66
     8
 43
1.0
 76
     1
 77
     6
 78
     2
 67
     7
 79
     5
170
     0
171
     0
290
     0
174
     0
 93
        1
 44
0.0
173
     0
291
     1
 45
0.0
1001
ACAD
1000
AcDbSavedByObjectVersion
1070
     0
  0
VISUALSTYLE
  5
3FB
102
{ACAD_XDICTIONARY
360
182B
102
}
102
{ACAD_REACTORS
330
3F2
102
}
330
3F2
100
AcDbVisualStyle
  2

 70
     9
 71
     3
 72
     2
 73
     0
 90
        0
 40
-0.6
 41
-30.0
 62
     5
 63
     7
 74
     2
 91
        2
 64
     7
 65
   257
 75
     1
175
     1
 42
40.0
 92
        8
 66
     7
 43
1.0
 76
     1
 77
     6
 78
     2
 67
     7
 79
     3
170
     0
171
     0
290
     0
174
     0
 93
        1
 44
0.0
173
     0
291
     0
 45
0.0
1001
ACAD
1000
AcDbSavedByObjectVersion
1070
     0
  0
VISUALSTYLE
  5
3FD
102
{ACAD_XDICTIONARY
360
182F
102
}
102
{ACAD_REACTORS
330
3F2
102
}
330
3F2
100
AcDbVisualStyle
  2

 70
    11
 71
     2
 72
     2
 73
     0
 90
        0
 40
-0.6
 41
-30.0
 62
     5
 63
     7
 74
     1
 91
        4
 64
     7
 65
   257
 75
     1
175
     1
 42
1.0
 92
        8
 66
     7
 43
1.0
 76
     1
 77
     6
 78
     2
 67
     7
 79
     5
170
     0
171
     0
290
     0
174
     0
 93
        1
 44
-50.0
173
     0
291
     1
 45
0.0
1001
ACAD
1000
AcDbSavedByObjectVersion
1070
     0
  0
VISUALSTYLE
  5
D1D
102
{ACAD_XDICTIONARY
360
184D
102
}
102
{ACAD_REACTORS
330
3F2
102
}
330
3F2
100
AcDbVisualStyle
  2

 70
    22
 71
     2
 72
     2
 73
     0
 90
        0
 40
-0.6
 41
-30.0
 62
     5
 63
     7
 74
     1
 91
        4
 64
     7
 65
   257
 75
     1
175
     1
 42
1.0
 92
        8
 66
     7
 43
1.0
 76
     1
 77
     6
 78
     2
 67
     7
 79
     5
170
     0
171
     0
290
     0
174
     0
 93
        1
 44
0.0
173
     0
291
     1
 45
0.0
1001
ACAD
1000
AcDbSavedByObjectVersion
1070
     0
  0
VISUALSTYLE
  5
401
102
{ACAD_XDICTIONARY
360
1837
102
}
102
{ACAD_REACTORS
330
3F2
102
}
330
3F2
100
AcDbVisualStyle
  2

 70
    15
 71
     2
 72
     2
 73
     0
 90
        0
 40
-0.6
 41
-30.0
 62
     5
 63
     7
 74
     1
 91
        4
 64
     7
 65
   257
 75
     1
175
     1
 42
1.0
 92
        8
 66
     7
 43
1.0
 76
     1
 77
     6
 78
     2
 67
     7
 79
     5
170
     0
171
     0
290
     0
174
     0
 93
        1
 44
0.0
173
     0
291
     1
 45
0.0
1001
ACAD
1000
AcDbSavedByObjectVersion
1070
     0
  0
VISUALSTYLE
  5
3F3
102
{ACAD_XDICTIONARY
360
181B
102
}
102
{ACAD_REACTORS
330
3F2
102
}
330
3F2
100
AcDbVisualStyle
  2

 70
     0
 71
     2
 72
     1
 73
     1
 90
        2
 40
-0.6
 41
30.0
 62
     5
 63
     7
 74
     0
 91
        4
 64
     7
 65
   257
 75
     1
175
     1
 42
1.0
 92
        8
 66
     7
 43
1.0
 76
     1
 77
     6
 78
     2
 67
     7
 79
     5
170
     0
171
     0
290
     0
174
     0
 93
       13
 44
0.0
173
     0
291
     1
 45
0.0
1001
ACAD
1000
AcDbSavedByObjectVersion
1070
     0
  0
VISUALSTYLE
  5
3F4
102
{ACAD_XDICTIONARY
360
181D
102
}
102
{ACAD_REACTORS
330
3F2
102
}
330
3F2
100
AcDbVisualStyle
  2

 70
     1
 71
     2
 72
     1
 73
     1
 90
        2
 40
-0.6
 41
30.0
 62
     5
 63
     7
 74
     1
 91
        4
 64
     7
 65
   257
 75
     1
175
     1
 42
1.0
 92
        0
 66
   257
 43
1.0
 76
     1
 77
     6
 78
     2
 67
     7
 79
     5
170
     0
171
     0
290
     0
174
     0
 93
       13
 44
0.0
173
     0
291
     1
 45
0.0
1001
ACAD
1000
AcDbSavedByObjectVersion
1070
     0
  0
VISUALSTYLE
  5
3F5
102
{ACAD_XDICTIONARY
360
181F
102
}
102
{ACAD_REACTORS
330
3F2
102
}
330
3F2
100
AcDbVisualStyle
  2

 70
     2
 71
     2
 72
     2
 73
     1
 90
        2
 40
-0.6
 41
30.0
 62
     5
 63
     7
 74
     0
 91
        4
 64
     7
 65
   257
 75
     1
175
     1
 42
1.0
 92
        0
 66
     7
 43
1.0
 76
     1
 77
     6
 78
     2
 67
     7
 79
     5
170
     0
171
     0
290
     0
174
     0
 93
       13
 44
0.0
173
     0
291
     1
 45
0.0
1001
ACAD
1000
AcDbSavedByObjectVersion
1070
     0
  0
VISUALSTYLE
  5
3F6
102
{ACAD_XDICTIONARY
360
1821
102
}
102
{ACAD_REACTORS
330
3F2
102
}
330
3F2
100
AcDbVisualStyle
  2

 70
     3
 71
     2
 72
     2
 73
     1
 90
        2
 40
-0.6
 41
30.0
 62
     5
 63
     7
 74
     1
 91
        4
 64
     7
 65
   257
 75
     1
175
     1
 42
1.0
 92
        0
 66
   257
 43
1.0
 76
     1
 77
     6
 78
     2
 67
     7
 79
     5
170
     0
171
     0
290
     0
174
     0
 93
       13
 44
0.0
173
     0
291
     1
 45
0.0
1001
ACAD
1000
AcDbSavedByObjectVersion
1070
     0
  0
VISUALSTYLE
  5
D15
102
{ACAD_XDICTIONARY
360
183D
102
}
102
{ACAD_REACTORS
330
3F2
102
}
330
3F2
100
AcDbVisualStyle
  2

 70
     6
 71
     1
 72
     2
 73
     2
 90
        0
 40
-0.6
 41
-30.0
 62
     5
 63
     7
 74
     2
 91
        2
 64
     7
 65
   257
 75
     2
175
     1
 42
40.0
 92
        0
 66
   257
 43
1.0
 76
     1
 77
     6
 78
     2
 67
     7
 79
     3
170
     0
171
     0
290
     0
174
     0
 93
        1
 44
0.0
173
     0
291
     0
 45
0.0
1001
ACAD
1000
AcDbSavedByObjectVersion
1070
     0
  0
VISUALSTYLE
  5
D1B
102
{ACAD_XDICTIONARY
360
1849
102
}
102
{ACAD_REACTORS
330
3F2
102
}
330
3F2
100
AcDbVisualStyle
  2

 70
    20
 71
     2
 72
     2
 73
     0
 90
        0
 40
-0.6
 41
-30.0
 62
     5
 63
     7
 74
     1
 91
        4
 64
     7
 65
   257
 75
     1
175
     1
 42
1.0
 92
       10
 66
     7
 43
1.0
 76
     1
 77
     6
 78
     2
 67
     7
 79
     5
170
     0
171
     0
290
     0
174
     0
 93
        1
 44
0.0
173
     0
291
     1
 45
0.0
1001
ACAD
1000
AcDbSavedByObjectVersion
1070
     0
  0
VISUALSTYLE
  5
400
102
{ACAD_XDICTIONARY
360
1835
102
}
102
{ACAD_REACTORS
330
3F2
102
}
330
3F2
100
AcDbVisualStyle
  2

 70
    14
 71
     2
 72
     2
 73
     0
 90
        0
 40
-0.6
 41
-30.0
 62
     5
 63
     7
 74
     1
 91
        4
 64
     7
 65
   257
 75
     7
175
     7
 42
1.0
 92
        8
 66
     7
 43
1.0
 76
     1
 77
     6
 78
     2
 67
     7
 79
     5
170
     0
171
     0
290
     0
174
     0
 93
        1
 44
0.0
173
     0
291
     1
 45
0.0
1001
ACAD
1000
AcDbSavedByObjectVersion
1070
     0
  0
VISUALSTYLE
  5
D1C
102
{ACAD_XDICTIONARY
360
184B
102
}
102
{ACAD_REACTORS
330
3F2
102
}
330
3F2
100
AcDbVisualStyle
  2

 70
    21
 71
     2
 72
     2
 73
     0
 90
        0
 40
-0.6
 41
-30.0
 62
     5
 63
     7
 74
     1
 91
        4
 64
     7
 65
   257
 75
     1
175
     1
 42
1.0
 92
        9
 66
     7
 43
1.0
 76
     1
 77
     6
 78
     2
 67
     7
 79
     5
170
     0
171
     0
290
     0
174
     0
 93
        1
 44
0.0
173
     0
291
     1
 45
0.0
1001
ACAD
1000
AcDbSavedByObjectVersion
1070
     0
  0
VISUALSTYLE
  5
3FC
102
{ACAD_XDICTIONARY
360
182D
102
}
102
{ACAD_REACTORS
330
3F2
102
}
330
3F2
100
AcDbVisualStyle
  2

 70
     8
 71
     2
 72
     2
 73
     0
 90
        0
 40
-0.6
 41
-30.0
 62
     5
 63
     7
 74
     1
 91
        0
 64
     7
 65
   257
 75
     1
175
     1
 42
1.0
 92
        8
 66
     8
 43
1.0
 76
     1
 77
     6
 78
     2
 67
     7
 79
     5
170
     0
171
     0
290
     0
174
     0
 93
       13
 44
0.0
173
     0
291
     0
 45
0.0
1001
ACAD
1000
AcDbSavedByObjectVersion
1070
     0
  0
VISUALSTYLE
  5
D1A
102
{ACAD_XDICTIONARY
360
1847
102
}
102
{ACAD_REACTORS
330
3F2
102
}
330
3F2
100
AcDbVisualStyle
  2

 70
    27
 71
     2
 72
     2
 73
     1
 90
        2
 40
-0.6
 41
30.0
 62
     5
 63
     7
 74
     0
 91
        4
 64
     7
 65
   257
 75
     1
175
     1
 42
1.0
 92
        8
 66
   257
 43
1.0
 76
     1
 77
     6
 78
     2
 67
     8
 79
     3
170
     0
171
     0
290
     0
174
     0
 93
        5
 44
0.0
173
     0
291
     0
 45
0.0
1001
ACAD
1000
AcDbSavedByObjectVersion
1070
     0
  0
VISUALSTYLE
  5
D19
102
{ACAD_XDICTIONARY
360
1845
102
}
102
{ACAD_REACTORS
330
3F2
102
}
330
3F2
100
AcDbVisualStyle
  2

 70
    26
 71
     2
 72
     2
 73
     1
 90
        2
 40
-0.6
 41
30.0
 62
     5
 63
     7
 74
     1
 91
       10
 64
     7
 65
   257
 75
     2
175
     1
 42
1.0
 92
        8
 66
   257
 43
1.0
 76
     1
 77
     6
 78
     2
 67
     7
 79
     3
170
     0
171
     0
290
     0
174
     0
 93
        5
 44
0.0
173
     0
291
     0
 45
0.0
1001
ACAD
1000
AcDbSavedByObjectVersion
1070
     0
  0
VISUALSTYLE
  5
D16
102
{ACAD_XDICTIONARY
360
183F
102
}
102
{ACAD_REACTORS
330
3F2
102
}
330
3F2
100
AcDbVisualStyle
  2

 70
    23
 71
     2
 72
     2
 73
     3
 90
        0
 40
-0.6
 41
-30.0
 62
     5
 63
     7
 74
     2
 91
        2
 64
     7
 65
     7
 75
     1
175
     1
 42
40.0
 92
        8
 66
     7
 43
1.0
 76
     1
 77
     6
 78
     2
 67
     7
 79
     3
170
     0
171
     0
290
     0
174
     0
 93
        1
 44
0.0
173
     0
291
     0
 45
0.0
1001
ACAD
1000
AcDbSavedByObjectVersion
1070
     0
  0
VISUALSTYLE
  5
D17
102
{ACAD_XDICTIONARY
360
1841
102
}
102
{ACAD_REACTORS
330
3F2
102
}
330
3F2
100
AcDbVisualStyle
  2

 70
    24
 71
     1
 72
     2
 73
     2
 90
        0
 40
-0.6
 41
-30.0
 62
     5
 63
     7
 74
     2
 91
        2
 64
     7
 65
     7
 75
     1
175
     1
 42
40.0
 92
       11
 66
     7
 43
1.0
 76
     1
 77
     6
 78
     2
 67
     7
 79
     6
170
     0
171
     0
290
     0
174
     0
 93
        1
 44
0.0
173
     0
291
     0
 45
0.0
1001
ACAD
1000
AcDbSavedByObjectVersion
1070
     0
  0
VISUALSTYLE
  5
3FF
102
{ACAD_XDICTIONARY
360
1833
102
}
102
{ACAD_REACTORS
330
3F2
102
}
330
3F2
100
AcDbVisualStyle
  2

 70
    13
 71
     2
 72
     2
 73
     0
 90
        0
 40
-0.6
 41
-30.0
 62
     5
 63
     7
 74
     1
 91
        4
 64
     7
 65
   257
 75
     1
175
     1
 42
1.0
 92
       12
 66
     7
 43
1.0
 76
     1
 77
     6
 78
     2
 67
     7
 79
     5
170
     0
171
     0
290
     0
174
     0
 93
        1
 44
0.0
173
     0
291
     1
 45
0.0
1001
ACAD
1000
AcDbSavedByObjectVersion
1070
     0
  0
VISUALSTYLE
  5
D14
102
{ACAD_XDICTIONARY
360
183B
102
}
102
{ACAD_REACTORS
330
3F2
102
}
330
3F2
100
AcDbVisualStyle
  2

 70
     5
 71
     0
 72
     2
 73
     0
 90
        0
 40
-0.6
 41
-30.0
 62
     5
 63
     7
 74
     1
 91
        4
 64
     7
 65
   257
 75
     1
175
     1
 42
1.0
 92
        0
 66
   257
 43
1.0
 76
     1
 77
     6
 78
     2
 67
     7
 79
     3
170
     0
171
     0
290
     0
174
     0
 93
        1
 44
0.0
173
     0
291
     0
 45
0.0
1001
ACAD
1000
AcDbSavedByObjectVersion
1070
     0
  0
VISUALSTYLE
  5
D18
102
{ACAD_XDICTIONARY
360
1843
102
}
102
{ACAD_REACTORS
330
3F2
102
}
330
3F2
100
AcDbVisualStyle
  2

 70
    25
 71
     2
 72
     2
 73
     1
 90
        1
 40
0.5
 41
-30.0
 62
     5
 63
     7
 74
     1
 91
        0
 64
     7
 65
   257
 75
     1
175
     1
 42
1.0
 92
        8
 66
     7
 43
1.0
 76
     1
 77
     6
 78
     2
 67
     7
 79
     3
170
     0
171
     0
290
     0
174
     0
 93
       13
 44
0.0
173
     0
291
     0
 45
0.0
1001
ACAD
1000
AcDbSavedByObjectVersion
1070
     0
  0
DICTIONARYVAR
  5
449
102
{ACAD_REACTORS
330
357
102
}
330
357
100
DictionaryVariables
280
     0
  1
1:1
  0
DICTIONARYVAR
  5
447
102
{ACAD_REACTORS
330
357
102
}
330
357
100
DictionaryVariables
280
     0
  1
STANDARD
  0
DICTIONARYVAR
  5
38E
102
{ACAD_REACTORS
330
357
102
}
330
357
100
DictionaryVariables
280
     0
  1
STANDARD
  0
DICTIONARYVAR
  5
E90
102
{ACAD_REACTORS
330
357
102
}
330
357
100
DictionaryVariables
280
     0
  1
Metric50
  0
DICTIONARYVAR
  5
E91
102
{ACAD_REACTORS
330
357
102
}
330
357
100
DictionaryVariables
280
     0
  1
Metric50
  0
DICTIONARYVAR
  5
359
102
{ACAD_REACTORS
330
357
102
}
330
357
100
DictionaryVariables
280
     0
  1
2
  0
DICTIONARYVAR
  5
358
102
{ACAD_REACTORS
330
357
102
}
330
357
100
DictionaryVariables
280
     0
  1
1
  0
DICTIONARYVAR
  5
D03
102
{ACAD_REACTORS
330
357
102
}
330
357
100
DictionaryVariables
280
     0
  1
0
  0
DICTIONARYVAR
  5
44A
102
{ACAD_REACTORS
330
357
102
}
330
357
100
DictionaryVariables
280
     0
  1
0
  0
DICTIONARYVAR
  5
448
102
{ACAD_REACTORS
330
357
102
}
330
357
100
DictionaryVariables
280
     0
  1
0
  0
DICTIONARYVAR
  5
D02
102
{ACAD_REACTORS
330
357
102
}
330
357
100
DictionaryVariables
280
     0
  1
127
  0
DICTIONARYVAR
  5
1786
102
{ACAD_REACTORS
330
357
102
}
330
357
100
DictionaryVariables
280
     0
  1
2
  0
XRECORD
  5
69D
102
{ACAD_REACTORS
330
69C
102
}
330
69C
100
AcDbXrecord
280
     1
  0
XRECORD
  5
1854
102
{ACAD_REACTORS
330
1853
102
}
330
1853
100
AcDbXrecord
280
     1
1070
     0
1070
     1
1070
     1
  0
FIELD
  5
E69
102
{ACAD_REACTORS
330
E68
102
}
330
E68
100
AcDbField
  1
_text
  2
%<\_FldIdx 0>%
 90
        1
360
E6A
 97
        0
  4

 91
       63
 92
        0
 94
        9
 95
        2
 96
        0
300

 93
        2
  6
ACFD_FIELDTEXT_ATTDEF
 90
        1
 91
        1
  6
ACFD_FIELDTEXT_CHECKSUM
 90
        2
140
6551.0
  7
ACFD_FIELD_VALUE
 90
        0
 91
        0
301

 98
        0
  0
DICTIONARY
  5
1857
330
E73
100
AcDbDictionary
280
     1
281
     1
  3
ACAD_XREC_ROUNDTRIP
360
1858
  0
DICTIONARY
  5
1851
330
D21
100
AcDbDictionary
280
     1
281
     1
  3
ACAD_XREC_ROUNDTRIP
360
1852
  0
DICTIONARY
  5
1818
330
33B
100
AcDbDictionary
280
     1
281
     1
  3
ACAD_XREC_ROUNDTRIP
360
1819
  0
DICTIONARY
  5
1816
330
303
100
AcDbDictionary
280
     1
281
     1
  3
ACAD_XREC_ROUNDTRIP
360
1817
  0
DICTIONARY
  5
D0D
330
3F0
100
AcDbDictionary
280
     1
281
     1
  3
ACAD_XREC_ROUNDTRIP
360
D0E
  0
DICTIONARY
  5
D0B
330
3EF
100
AcDbDictionary
280
     1
281
     1
  3
ACAD_XREC_ROUNDTRIP
360
D0C
  0
DICTIONARY
  5
D0F
330
3F1
100
AcDbDictionary
280
     1
281
     1
  3
ACAD_XREC_ROUNDTRIP
360
D10
  0
DICTIONARY
  5
1855
330
E71
100
AcDbDictionary
280
     1
281
     1
  3
ACAD_XREC_ROUNDTRIP
360
1856
  0
DICTIONARY
  5
184F
330
D1F
100
AcDbDictionary
280
     1
281
     1
  3
ACAD_XREC_ROUNDTRIP
360
1850
  0
DICTIONARY
  5
444
330
389
100
AcDbDictionary
280
     1
281
     1
  3
ACAD_ROUNDTRIP_2008_TABLESTYLE_CELLSTYLEMAP
360
1813
  3
ACAD_XREC_ROUNDTRIP
360
181A
  0
DICTIONARY
  5
1825
330
3F8
100
AcDbDictionary
280
     1
281
     1
  3
ACAD_XREC_ROUNDTRIP
360
1826
  0
DICTIONARY
  5
1829
330
3FA
100
AcDbDictionary
280
     1
281
     1
  3
ACAD_XREC_ROUNDTRIP
360
182A
  0
DICTIONARY
  5
1827
330
3F9
100
AcDbDictionary
280
     1
281
     1
  3
ACAD_XREC_ROUNDTRIP
360
1828
  0
DICTIONARY
  5
1823
330
3F7
100
AcDbDictionary
280
     1
281
     1
  3
ACAD_XREC_ROUNDTRIP
360
1824
  0
DICTIONARY
  5
1831
330
3FE
100
AcDbDictionary
280
     1
281
     1
  3
ACAD_XREC_ROUNDTRIP
360
1832
  0
DICTIONARY
  5
1839
330
402
100
AcDbDictionary
280
     1
281
     1
  3
ACAD_XREC_ROUNDTRIP
360
183A
  0
DICTIONARY
  5
182B
330
3FB
100
AcDbDictionary
280
     1
281
     1
  3
ACAD_XREC_ROUNDTRIP
360
182C
  0
DICTIONARY
  5
182F
330
3FD
100
AcDbDictionary
280
     1
281
     1
  3
ACAD_XREC_ROUNDTRIP
360
1830
  0
DICTIONARY
  5
184D
330
D1D
100
AcDbDictionary
280
     1
281
     1
  3
ACAD_XREC_ROUNDTRIP
360
184E
  0
DICTIONARY
  5
1837
330
401
100
AcDbDictionary
280
     1
281
     1
  3
ACAD_XREC_ROUNDTRIP
360
1838
  0
DICTIONARY
  5
181B
330
3F3
100
AcDbDictionary
280
     1
281
     1
  3
ACAD_XREC_ROUNDTRIP
360
181C
  0
DICTIONARY
  5
181D
330
3F4
100
AcDbDictionary
280
     1
281
     1
  3
ACAD_XREC_ROUNDTRIP
360
181E
  0
DICTIONARY
  5
181F
330
3F5
100
AcDbDictionary
280
     1
281
     1
  3
ACAD_XREC_ROUNDTRIP
360
1820
  0
DICTIONARY
  5
1821
330
3F6
100
AcDbDictionary
280
     1
281
     1
  3
ACAD_XREC_ROUNDTRIP
360
1822
  0
DICTIONARY
  5
183D
330
D15
100
AcDbDictionary
280
     1
281
     1
  3
ACAD_XREC_ROUNDTRIP
360
183E
  0
DICTIONARY
  5
1849
330
D1B
100
AcDbDictionary
280
     1
281
     1
  3
ACAD_XREC_ROUNDTRIP
360
184A
  0
DICTIONARY
  5
1835
330
400
100
AcDbDictionary
280
     1
281
     1
  3
ACAD_XREC_ROUNDTRIP
360
1836
  0
DICTIONARY
  5
184B
330
D1C
100
AcDbDictionary
280
     1
281
     1
  3
ACAD_XREC_ROUNDTRIP
360
184C
  0
DICTIONARY
  5
182D
330
3FC
100
AcDbDictionary
280
     1
281
     1
  3
ACAD_XREC_ROUNDTRIP
360
182E
  0
DICTIONARY
  5
1847
330
D1A
100
AcDbDictionary
280
     1
281
     1
  3
ACAD_XREC_ROUNDTRIP
360
1848
  0
DICTIONARY
  5
1845
330
D19
100
AcDbDictionary
280
     1
281
     1
  3
ACAD_XREC_ROUNDTRIP
360
1846
  0
DICTIONARY
  5
183F
330
D16
100
AcDbDictionary
280
     1
281
     1
  3
ACAD_XREC_ROUNDTRIP
360
1840
  0
DICTIONARY
  5
1841
330
D17
100
AcDbDictionary
280
     1
281
     1
  3
ACAD_XREC_ROUNDTRIP
360
1842
  0
DICTIONARY
  5
1833
330
3FF
100
AcDbDictionary
280
     1
281
     1
  3
ACAD_XREC_ROUNDTRIP
360
1834
  0
DICTIONARY
  5
183B
330
D14
100
AcDbDictionary
280
     1
281
     1
  3
ACAD_XREC_ROUNDTRIP
360
183C
  0
DICTIONARY
  5
1843
330
D18
100
AcDbDictionary
280
     1
281
     1
  3
ACAD_XREC_ROUNDTRIP
360
1844
  0
FIELD
  5
E6A
330
E69
100
AcDbField
  1
AcVar
  2
\AcVar Filename \f "%tc1%fn2"
 90
        0
 97
        0
  4
%tc1%fn2
 91
       63
 92
        0
 94
       59
 95
        2
 96
        0
300

 93
        1
  6
Variable
 90
        4
  1
Filename
  7
ACFD_FIELD_VALUE
 90
        4
  1
S:\CIM_10_2015\DXF\45P16015TRRA60.dxf
301
45P16015TRRA60
 98
       14
  0
XRECORD
  5
1858
102
{ACAD_REACTORS
330
1857
102
}
330
1857
100
AcDbXrecord
280
     1
102
DISPLAYNAME
  1
Imperial24
102
FLAGS
 90
        0
  0
XRECORD
  5
1852
102
{ACAD_REACTORS
330
1851
102
}
330
1851
100
AcDbXrecord
280
     1
102
DISPLAYNAME
  1
Metric50
102
FLAGS
 90
        0
  0
XRECORD
  5
1819
102
{ACAD_REACTORS
330
1818
102
}
330
1818
100
AcDbXrecord
280
     1
102
SHADEPLOT
 70
     0
102
SHADEPLOTRESLEVEL
 70
     2
102
SHADEPLOTCUSTOMDPI
 70
   300
  0
XRECORD
  5
1817
102
{ACAD_REACTORS
330
1816
102
}
330
1816
100
AcDbXrecord
280
     1
102
SHADEPLOT
 70
     1
102
SHADEPLOTRESLEVEL
 70
     2
102
SHADEPLOTCUSTOMDPI
 70
   300
  0
XRECORD
  5
D0E
102
{ACAD_REACTORS
330
D0D
102
}
330
D0D
100
AcDbXrecord
280
     1
102
MATERIAL
148
0.0
149
0.0
149
0.0
 93
        0
 94
      127
282
     0
 72
     1
 77
     1
171
     1
175
     1
179
     1
273
     0
  0
XRECORD
  5
D0C
102
{ACAD_REACTORS
330
D0B
102
}
330
D0B
100
AcDbXrecord
280
     1
102
MATERIAL
148
0.0
149
0.0
149
0.0
 93
        0
 94
      127
282
     0
 72
     1
 77
     1
171
     1
175
     1
179
     1
273
     0
  0
XRECORD
  5
D10
102
{ACAD_REACTORS
330
D0F
102
}
330
D0F
100
AcDbXrecord
280
     1
102
MATERIAL
148
0.0
149
0.0
149
0.0
 93
        0
 94
      127
282
     0
 72
     1
 77
     1
171
     1
175
     1
179
     1
273
     0
  0
XRECORD
  5
1856
102
{ACAD_REACTORS
330
1855
102
}
330
1855
100
AcDbXrecord
280
     1
102
DISPLAYNAME
  1
Imperial24
102
FLAGS
 90
        0
  0
XRECORD
  5
1850
102
{ACAD_REACTORS
330
184F
102
}
330
184F
100
AcDbXrecord
280
     1
102
DISPLAYNAME
  1
Metric50
102
FLAGS
 90
        0
  0
CELLSTYLEMAP
  5
1813
102
{ACAD_REACTORS
330
444
102
}
330
444
100
AcDbCellStyleMap
 90
        3
300
CELLSTYLE
  1
TABLEFORMAT_BEGIN
 90
        5
170
     1
 91
        0
 92
    32768
 62
   257
 93
        1
300
CONTENTFORMAT
  1
CONTENTFORMAT_BEGIN
 90
        0
 91
        0
 92
        4
 93
        0
300

 40
0.0
140
1.0
 94
        5
 62
     0
340
10
144
6.0
309
CONTENTFORMAT_END
171
     1
301
MARGIN
  1
CELLMARGIN_BEGIN
 40
1.5
 40
1.5
 40
1.5
 40
1.5
 40
0.18
 40
0.18
309
CELLMARGIN_END
 94
        6
 95
        1
302
GRIDFORMAT
  1
GRIDFORMAT_BEGIN
 90
        0
 91
        1
 62
     0
 92
       -2
340
0
 93
        0
 40
0.045
309
GRIDFORMAT_END
 95
        2
302
GRIDFORMAT
  1
GRIDFORMAT_BEGIN
 90
        0
 91
        1
 62
     0
 92
       -2
340
0
 93
        0
 40
0.045
309
GRIDFORMAT_END
 95
        4
302
GRIDFORMAT
  1
GRIDFORMAT_BEGIN
 90
        0
 91
        1
 62
     0
 92
       -2
340
0
 93
        0
 40
0.045
309
GRIDFORMAT_END
 95
        8
302
GRIDFORMAT
  1
GRIDFORMAT_BEGIN
 90
        0
 91
        1
 62
     0
 92
       -2
340
0
 93
        0
 40
0.045
309
GRIDFORMAT_END
 95
       16
302
GRIDFORMAT
  1
GRIDFORMAT_BEGIN
 90
        0
 91
        1
 62
     0
 92
       -2
340
0
 93
        0
 40
0.045
309
GRIDFORMAT_END
 95
       32
302
GRIDFORMAT
  1
GRIDFORMAT_BEGIN
 90
        0
 91
        1
 62
     0
 92
       -2
340
0
 93
        0
 40
0.045
309
GRIDFORMAT_END
309
TABLEFORMAT_END
  1
CELLSTYLE_BEGIN
 90
        1
 91
        1
300
_TITLE
309
CELLSTYLE_END
300
CELLSTYLE
  1
TABLEFORMAT_BEGIN
 90
        5
170
     1
 91
        0
 92
        0
 62
   257
 93
        1
300
CONTENTFORMAT
  1
CONTENTFORMAT_BEGIN
 90
        0
 91
        0
 92
        4
 93
        0
300

 40
0.0
140
1.0
 94
        5
 62
     0
340
10
144
4.5
309
CONTENTFORMAT_END
171
     1
301
MARGIN
  1
CELLMARGIN_BEGIN
 40
1.5
 40
1.5
 40
1.5
 40
1.5
 40
0.18
 40
0.18
309
CELLMARGIN_END
 94
        6
 95
        1
302
GRIDFORMAT
  1
GRIDFORMAT_BEGIN
 90
        0
 91
        1
 62
     0
 92
       -2
340
0
 93
        0
 40
0.045
309
GRIDFORMAT_END
 95
        2
302
GRIDFORMAT
  1
GRIDFORMAT_BEGIN
 90
        0
 91
        1
 62
     0
 92
       -2
340
0
 93
        0
 40
0.045
309
GRIDFORMAT_END
 95
        4
302
GRIDFORMAT
  1
GRIDFORMAT_BEGIN
 90
        0
 91
        1
 62
     0
 92
       -2
340
0
 93
        0
 40
0.045
309
GRIDFORMAT_END
 95
        8
302
GRIDFORMAT
  1
GRIDFORMAT_BEGIN
 90
        0
 91
        1
 62
     0
 92
       -2
340
0
 93
        0
 40
0.045
309
GRIDFORMAT_END
 95
       16
302
GRIDFORMAT
  1
GRIDFORMAT_BEGIN
 90
        0
 91
        1
 62
     0
 92
       -2
340
0
 93
        0
 40
0.045
309
GRIDFORMAT_END
 95
       32
302
GRIDFORMAT
  1
GRIDFORMAT_BEGIN
 90
        0
 91
        1
 62
     0
 92
       -2
340
0
 93
        0
 40
0.045
309
GRIDFORMAT_END
309
TABLEFORMAT_END
  1
CELLSTYLE_BEGIN
 90
        2
 91
        1
300
_HEADER
309
CELLSTYLE_END
300
CELLSTYLE
  1
TABLEFORMAT_BEGIN
 90
        5
170
     1
 91
        0
 92
        0
 62
   257
 93
        1
300
CONTENTFORMAT
  1
CONTENTFORMAT_BEGIN
 90
        0
 91
        0
 92
        4
 93
        0
300

 40
0.0
140
1.0
 94
        2
 62
     0
340
10
144
4.5
309
CONTENTFORMAT_END
171
     1
301
MARGIN
  1
CELLMARGIN_BEGIN
 40
1.5
 40
1.5
 40
1.5
 40
1.5
 40
0.18
 40
0.18
309
CELLMARGIN_END
 94
        6
 95
        1
302
GRIDFORMAT
  1
GRIDFORMAT_BEGIN
 90
        0
 91
        1
 62
     0
 92
       -2
340
0
 93
        0
 40
0.045
309
GRIDFORMAT_END
 95
        2
302
GRIDFORMAT
  1
GRIDFORMAT_BEGIN
 90
        0
 91
        1
 62
     0
 92
       -2
340
0
 93
        0
 40
0.045
309
GRIDFORMAT_END
 95
        4
302
GRIDFORMAT
  1
GRIDFORMAT_BEGIN
 90
        0
 91
        1
 62
     0
 92
       -2
340
0
 93
        0
 40
0.045
309
GRIDFORMAT_END
 95
        8
302
GRIDFORMAT
  1
GRIDFORMAT_BEGIN
 90
        0
 91
        1
 62
     0
 92
       -2
340
0
 93
        0
 40
0.045
309
GRIDFORMAT_END
 95
       16
302
GRIDFORMAT
  1
GRIDFORMAT_BEGIN
 90
        0
 91
        1
 62
     0
 92
       -2
340
0
 93
        0
 40
0.045
309
GRIDFORMAT_END
 95
       32
302
GRIDFORMAT
  1
GRIDFORMAT_BEGIN
 90
        0
 91
        1
 62
     0
 92
       -2
340
0
 93
        0
 40
0.045
309
GRIDFORMAT_END
309
TABLEFORMAT_END
  1
CELLSTYLE_BEGIN
 90
        3
 91
        2
300
_DATA
309
CELLSTYLE_END
  0
XRECORD
  5
181A
102
{ACAD_REACTORS
330
444
102
}
330
444
100
AcDbXrecord
280
     1
102
ACAD_ROUNDTRIP_PRE2007_TABLESTYLE
 90
        4
 91
        0
  1

 92
        4
 93
        0
  2

 94
        4
 95
        0
  3

  0
XRECORD
  5
1826
102
{ACAD_REACTORS
330
1825
102
}
330
1825
100
AcDbXrecord
280
     1
102
RTVSPost2010Prop28
280
     1
102
RTVSPost2010PropOp28
 70
     1
102
RTVSPost2010Prop29
280
     1
102
RTVSPost2010PropOp29
 70
     1
102
RTVSPost2010Prop30
280
     0
102
RTVSPost2010PropOp30
 70
     1
102
RTVSPost2010Prop31
280
     0
102
RTVSPost2010PropOp31
 70
     1
102
RTVSPost2010Prop32
280
     0
102
RTVSPost2010PropOp32
 70
     1
102
RTVSPost2010Prop33
280
     0
102
RTVSPost2010PropOp33
 70
     1
102
RTVSPost2010Prop34
280
     0
102
RTVSPost2010PropOp34
 70
     1
102
RTVSPost2010Prop35
280
     0
102
RTVSPost2010PropOp35
 70
     1
102
RTVSPost2010Prop36
280
     0
102
RTVSPost2010PropOp36
 70
     1
102
RTVSPost2010Prop37
 90
       50
102
RTVSPost2010PropOp37
 70
     1
102
RTVSPost2010Prop38
140
0.0
102
RTVSPost2010PropOp38
 70
     1
102
RTVSPost2010Prop39
140
1.0
102
RTVSPost2010PropOp39
 70
     1
102
RTVSPost2010Prop40
 90
        0
102
RTVSPost2010PropOp40
 70
     1
102
RTVSPost2010Prop41ColorIndex
 90
       18
102
RTVSPost2010Prop41ColorRGB
 90
        0
102
RTVSPost2010PropOp41
 70
     1
102
RTVSPost2010Prop42
 90
       50
102
RTVSPost2010PropOp42
 70
     1
102
RTVSPost2010Prop43
 90
        3
102
RTVSPost2010PropOp43
 70
     1
102
RTVSPost2010Prop44ColorIndex
 90
        5
102
RTVSPost2010Prop44ColorRGB
 90
      255
102
RTVSPost2010PropOp44
 70
     1
102
RTVSPost2010Prop45
280
     0
102
RTVSPost2010PropOp45
 70
     1
102
RTVSPost2010Prop46
 90
       50
102
RTVSPost2010PropOp46
 70
     1
102
RTVSPost2010Prop47
 90
       50
102
RTVSPost2010PropOp47
 70
     1
102
RTVSPost2010Prop48
 90
       50
102
RTVSPost2010PropOp48
 70
     1
102
RTVSPost2010Prop49
280
     0
102
RTVSPost2010PropOp49
 70
     1
102
RTVSPost2010Prop50
 90
       50
102
RTVSPost2010PropOp50
 70
     1
102
RTVSPost2010Prop51ColorIndex
 90
      256
102
RTVSPost2010Prop51ColorRGB
 90
-16777216
102
RTVSPost2010PropOp51
 70
     0
102
RTVSPost2010Prop52
140
1.0
102
RTVSPost2010PropOp52
 70
     0
102
RTVSPost2010Prop53
 90
        2
102
RTVSPost2010PropOp53
 70
     1
102
RTVSPost2010Prop54
  1
strokes_ogs.tif
102
RTVSPost2010PropOp54
 70
     1
102
RTVSPost2010Prop55
280
     0
102
RTVSPost2010PropOp55
 70
     1
102
RTVSPost2010Prop56
140
1.0
102
RTVSPost2010PropOp56
 70
     1
102
RTVSPost2010Prop57
140
1.0
102
RTVSPost2010PropOp57
 70
     1
102
RTVSPropertyOp0
 70
     1
102
RTVSPropertyOp1
 70
     1
102
RTVSPropertyOp2
 70
     1
102
RTVSPropertyOp3
 70
     1
102
RTVSPropertyOp4
 70
     1
102
RTVSPropertyOp5
 70
     1
102
RTVSPropertyOp6
 70
     1
102
RTVSPropertyOp7
 70
     1
102
RTVSPropertyOp8
 70
     1
102
RTVSPropertyOp9
 70
     1
102
RTVSPropertyOp10
 70
     1
102
RTVSPropertyOp11
 70
     1
102
RTVSPropertyOp12
 70
     1
102
RTVSPropertyOp13
 70
     1
102
RTVSPropertyOp14
 70
     1
102
RTVSPropertyOp15
 70
     1
102
RTVSPropertyOp16
 70
     1
102
RTVSPropertyOp17
 70
     1
102
RTVSPropertyOp18
 70
     1
102
RTVSPropertyOp19
 70
     1
102
RTVSPropertyOp20
 70
     1
102
RTVSPropertyOp21
 70
     1
102
RTVSPropertyOp22
 70
     1
102
RTVSPropertyOp23
 70
     1
102
RTVSPropertyOp24
 70
     1
102
RTVSPropertyOp25
 70
     1
102
RTVSPropertyOp26
 70
     1
102
RTVSPropertyOp27
 70
     1
102
RTVSPropertyOp28
 70
     1
102
RTVSPropertyOp29
 70
     1
102
RTVSPropertyOp30
 70
     1
102
RTVSPropertyOp31
 70
     1
102
RTVSPropertyOp32
 70
     1
102
RTVSPropertyOp33
 70
     1
102
RTVSPropertyOp34
 70
     1
102
RTVSPropertyOp35
 70
     1
102
RTVSPropertyOp36
 70
     1
102
RTVSPropertyOp37
 70
     1
102
RTVSPropertyOp38
 70
     1
102
RTVSPropertyOp39
 70
     1
102
RTVSPropertyOp40
 70
     1
102
RTVSPropertyOp41
 70
     1
102
RTVSPropertyOp42
 70
     1
102
RTVSPropertyOp43
 70
     1
102
RTVSPropertyOp44
 70
     1
102
RTVSPropertyOp45
 70
     1
102
RTVSPropertyOp46
 70
     1
102
RTVSPropertyOp47
 70
     1
102
RTVSPropertyOp48
 70
     1
102
RTVSPropertyOp49
 70
     1
102
RTVSPropertyOp50
 70
     1
102
RTVSPropertyOp51
 70
     0
102
RTVSPropertyOp52
 70
     0
102
RTVSPropertyOp53
 70
     1
102
RTVSPropertyOp54
 70
     1
102
RTVSPropertyOp55
 70
     1
102
RTVSPropertyOp56
 70
     1
102
RTVSPropertyOp57
 70
     1
102
RTVSPropertyOp58
 70
     1
102
RTVSPropertyOp59
 70
     1
102
RTVSPropertyOp60
 70
     1
102
RTVSPropertyOp61
 70
     1
102
RTVSPropertyOp62
 70
     1
  0
XRECORD
  5
182A
102
{ACAD_REACTORS
330
1829
102
}
330
1829
100
AcDbXrecord
280
     1
102
RTVSPost2010Prop28
280
     0
102
RTVSPost2010PropOp28
 70
     1
102
RTVSPost2010Prop29
280
     1
102
RTVSPost2010PropOp29
 70
     1
102
RTVSPost2010Prop30
280
     1
102
RTVSPost2010PropOp30
 70
     1
102
RTVSPost2010Prop31
280
     0
102
RTVSPost2010PropOp31
 70
     1
102
RTVSPost2010Prop32
280
     0
102
RTVSPost2010PropOp32
 70
     1
102
RTVSPost2010Prop33
280
     0
102
RTVSPost2010PropOp33
 70
     1
102
RTVSPost2010Prop34
280
     0
102
RTVSPost2010PropOp34
 70
     1
102
RTVSPost2010Prop35
280
     0
102
RTVSPost2010PropOp35
 70
     1
102
RTVSPost2010Prop36
280
     0
102
RTVSPost2010PropOp36
 70
     1
102
RTVSPost2010Prop37
 90
       50
102
RTVSPost2010PropOp37
 70
     1
102
RTVSPost2010Prop38
140
0.0
102
RTVSPost2010PropOp38
 70
     1
102
RTVSPost2010Prop39
140
1.0
102
RTVSPost2010PropOp39
 70
     1
102
RTVSPost2010Prop40
 90
        0
102
RTVSPost2010PropOp40
 70
     1
102
RTVSPost2010Prop41ColorIndex
 90
       18
102
RTVSPost2010Prop41ColorRGB
 90
        0
102
RTVSPost2010PropOp41
 70
     1
102
RTVSPost2010Prop42
 90
       50
102
RTVSPost2010PropOp42
 70
     1
102
RTVSPost2010Prop43
 90
        3
102
RTVSPost2010PropOp43
 70
     1
102
RTVSPost2010Prop44ColorIndex
 90
        5
102
RTVSPost2010Prop44ColorRGB
 90
      255
102
RTVSPost2010PropOp44
 70
     1
102
RTVSPost2010Prop45
280
     0
102
RTVSPost2010PropOp45
 70
     1
102
RTVSPost2010Prop46
 90
       50
102
RTVSPost2010PropOp46
 70
     1
102
RTVSPost2010Prop47
 90
       50
102
RTVSPost2010PropOp47
 70
     1
102
RTVSPost2010Prop48
 90
       50
102
RTVSPost2010PropOp48
 70
     1
102
RTVSPost2010Prop49
280
     0
102
RTVSPost2010PropOp49
 70
     1
102
RTVSPost2010Prop50
 90
       50
102
RTVSPost2010PropOp50
 70
     1
102
RTVSPost2010Prop51ColorIndex
 90
      256
102
RTVSPost2010Prop51ColorRGB
 90
-16777216
102
RTVSPost2010PropOp51
 70
     0
102
RTVSPost2010Prop52
140
1.0
102
RTVSPost2010PropOp52
 70
     0
102
RTVSPost2010Prop53
 90
        2
102
RTVSPost2010PropOp53
 70
     1
102
RTVSPost2010Prop54
  1
strokes_ogs.tif
102
RTVSPost2010PropOp54
 70
     1
102
RTVSPost2010Prop55
280
     0
102
RTVSPost2010PropOp55
 70
     1
102
RTVSPost2010Prop56
140
1.0
102
RTVSPost2010PropOp56
 70
     1
102
RTVSPost2010Prop57
140
1.0
102
RTVSPost2010PropOp57
 70
     1
102
RTVSPropertyOp0
 70
     1
102
RTVSPropertyOp1
 70
     1
102
RTVSPropertyOp2
 70
     1
102
RTVSPropertyOp3
 70
     1
102
RTVSPropertyOp4
 70
     1
102
RTVSPropertyOp5
 70
     1
102
RTVSPropertyOp6
 70
     1
102
RTVSPropertyOp7
 70
     1
102
RTVSPropertyOp8
 70
     1
102
RTVSPropertyOp9
 70
     1
102
RTVSPropertyOp10
 70
     1
102
RTVSPropertyOp11
 70
     1
102
RTVSPropertyOp12
 70
     1
102
RTVSPropertyOp13
 70
     1
102
RTVSPropertyOp14
 70
     1
102
RTVSPropertyOp15
 70
     1
102
RTVSPropertyOp16
 70
     1
102
RTVSPropertyOp17
 70
     1
102
RTVSPropertyOp18
 70
     1
102
RTVSPropertyOp19
 70
     1
102
RTVSPropertyOp20
 70
     1
102
RTVSPropertyOp21
 70
     1
102
RTVSPropertyOp22
 70
     1
102
RTVSPropertyOp23
 70
     1
102
RTVSPropertyOp24
 70
     1
102
RTVSPropertyOp25
 70
     1
102
RTVSPropertyOp26
 70
     1
102
RTVSPropertyOp27
 70
     1
102
RTVSPropertyOp28
 70
     1
102
RTVSPropertyOp29
 70
     1
102
RTVSPropertyOp30
 70
     1
102
RTVSPropertyOp31
 70
     1
102
RTVSPropertyOp32
 70
     1
102
RTVSPropertyOp33
 70
     1
102
RTVSPropertyOp34
 70
     1
102
RTVSPropertyOp35
 70
     1
102
RTVSPropertyOp36
 70
     1
102
RTVSPropertyOp37
 70
     1
102
RTVSPropertyOp38
 70
     1
102
RTVSPropertyOp39
 70
     1
102
RTVSPropertyOp40
 70
     1
102
RTVSPropertyOp41
 70
     1
102
RTVSPropertyOp42
 70
     1
102
RTVSPropertyOp43
 70
     1
102
RTVSPropertyOp44
 70
     1
102
RTVSPropertyOp45
 70
     1
102
RTVSPropertyOp46
 70
     1
102
RTVSPropertyOp47
 70
     1
102
RTVSPropertyOp48
 70
     1
102
RTVSPropertyOp49
 70
     1
102
RTVSPropertyOp50
 70
     1
102
RTVSPropertyOp51
 70
     0
102
RTVSPropertyOp52
 70
     0
102
RTVSPropertyOp53
 70
     1
102
RTVSPropertyOp54
 70
     1
102
RTVSPropertyOp55
 70
     1
102
RTVSPropertyOp56
 70
     1
102
RTVSPropertyOp57
 70
     1
102
RTVSPropertyOp58
 70
     1
102
RTVSPropertyOp59
 70
     1
102
RTVSPropertyOp60
 70
     1
102
RTVSPropertyOp61
 70
     1
102
RTVSPropertyOp62
 70
     1
  0
XRECORD
  5
1828
102
{ACAD_REACTORS
330
1827
102
}
330
1827
100
AcDbXrecord
280
     1
102
RTVSPost2010Prop28
280
     0
102
RTVSPost2010PropOp28
 70
     1
102
RTVSPost2010Prop29
280
     1
102
RTVSPost2010PropOp29
 70
     1
102
RTVSPost2010Prop30
280
     1
102
RTVSPost2010PropOp30
 70
     1
102
RTVSPost2010Prop31
280
     0
102
RTVSPost2010PropOp31
 70
     1
102
RTVSPost2010Prop32
280
     0
102
RTVSPost2010PropOp32
 70
     1
102
RTVSPost2010Prop33
280
     0
102
RTVSPost2010PropOp33
 70
     1
102
RTVSPost2010Prop34
280
     0
102
RTVSPost2010PropOp34
 70
     1
102
RTVSPost2010Prop35
280
     0
102
RTVSPost2010PropOp35
 70
     1
102
RTVSPost2010Prop36
280
     0
102
RTVSPost2010PropOp36
 70
     1
102
RTVSPost2010Prop37
 90
       50
102
RTVSPost2010PropOp37
 70
     1
102
RTVSPost2010Prop38
140
0.0
102
RTVSPost2010PropOp38
 70
     1
102
RTVSPost2010Prop39
140
1.0
102
RTVSPost2010PropOp39
 70
     1
102
RTVSPost2010Prop40
 90
        0
102
RTVSPost2010PropOp40
 70
     1
102
RTVSPost2010Prop41ColorIndex
 90
       18
102
RTVSPost2010Prop41ColorRGB
 90
        0
102
RTVSPost2010PropOp41
 70
     1
102
RTVSPost2010Prop42
 90
       50
102
RTVSPost2010PropOp42
 70
     1
102
RTVSPost2010Prop43
 90
        3
102
RTVSPost2010PropOp43
 70
     1
102
RTVSPost2010Prop44ColorIndex
 90
        5
102
RTVSPost2010Prop44ColorRGB
 90
      255
102
RTVSPost2010PropOp44
 70
     1
102
RTVSPost2010Prop45
280
     0
102
RTVSPost2010PropOp45
 70
     1
102
RTVSPost2010Prop46
 90
       50
102
RTVSPost2010PropOp46
 70
     1
102
RTVSPost2010Prop47
 90
       50
102
RTVSPost2010PropOp47
 70
     1
102
RTVSPost2010Prop48
 90
       50
102
RTVSPost2010PropOp48
 70
     1
102
RTVSPost2010Prop49
280
     0
102
RTVSPost2010PropOp49
 70
     1
102
RTVSPost2010Prop50
 90
       50
102
RTVSPost2010PropOp50
 70
     1
102
RTVSPost2010Prop51ColorIndex
 90
      256
102
RTVSPost2010Prop51ColorRGB
 90
-16777216
102
RTVSPost2010PropOp51
 70
     0
102
RTVSPost2010Prop52
140
1.0
102
RTVSPost2010PropOp52
 70
     0
102
RTVSPost2010Prop53
 90
        2
102
RTVSPost2010PropOp53
 70
     1
102
RTVSPost2010Prop54
  1
strokes_ogs.tif
102
RTVSPost2010PropOp54
 70
     1
102
RTVSPost2010Prop55
280
     0
102
RTVSPost2010PropOp55
 70
     1
102
RTVSPost2010Prop56
140
1.0
102
RTVSPost2010PropOp56
 70
     1
102
RTVSPost2010Prop57
140
1.0
102
RTVSPost2010PropOp57
 70
     1
102
RTVSPropertyOp0
 70
     1
102
RTVSPropertyOp1
 70
     1
102
RTVSPropertyOp2
 70
     1
102
RTVSPropertyOp3
 70
     1
102
RTVSPropertyOp4
 70
     1
102
RTVSPropertyOp5
 70
     1
102
RTVSPropertyOp6
 70
     1
102
RTVSPropertyOp7
 70
     1
102
RTVSPropertyOp8
 70
     1
102
RTVSPropertyOp9
 70
     1
102
RTVSPropertyOp10
 70
     1
102
RTVSPropertyOp11
 70
     1
102
RTVSPropertyOp12
 70
     1
102
RTVSPropertyOp13
 70
     1
102
RTVSPropertyOp14
 70
     1
102
RTVSPropertyOp15
 70
     1
102
RTVSPropertyOp16
 70
     1
102
RTVSPropertyOp17
 70
     1
102
RTVSPropertyOp18
 70
     1
102
RTVSPropertyOp19
 70
     1
102
RTVSPropertyOp20
 70
     1
102
RTVSPropertyOp21
 70
     1
102
RTVSPropertyOp22
 70
     1
102
RTVSPropertyOp23
 70
     1
102
RTVSPropertyOp24
 70
     1
102
RTVSPropertyOp25
 70
     1
102
RTVSPropertyOp26
 70
     1
102
RTVSPropertyOp27
 70
     1
102
RTVSPropertyOp28
 70
     1
102
RTVSPropertyOp29
 70
     1
102
RTVSPropertyOp30
 70
     1
102
RTVSPropertyOp31
 70
     1
102
RTVSPropertyOp32
 70
     1
102
RTVSPropertyOp33
 70
     1
102
RTVSPropertyOp34
 70
     1
102
RTVSPropertyOp35
 70
     1
102
RTVSPropertyOp36
 70
     1
102
RTVSPropertyOp37
 70
     1
102
RTVSPropertyOp38
 70
     1
102
RTVSPropertyOp39
 70
     1
102
RTVSPropertyOp40
 70
     1
102
RTVSPropertyOp41
 70
     1
102
RTVSPropertyOp42
 70
     1
102
RTVSPropertyOp43
 70
     1
102
RTVSPropertyOp44
 70
     1
102
RTVSPropertyOp45
 70
     1
102
RTVSPropertyOp46
 70
     1
102
RTVSPropertyOp47
 70
     1
102
RTVSPropertyOp48
 70
     1
102
RTVSPropertyOp49
 70
     1
102
RTVSPropertyOp50
 70
     1
102
RTVSPropertyOp51
 70
     0
102
RTVSPropertyOp52
 70
     0
102
RTVSPropertyOp53
 70
     1
102
RTVSPropertyOp54
 70
     1
102
RTVSPropertyOp55
 70
     1
102
RTVSPropertyOp56
 70
     1
102
RTVSPropertyOp57
 70
     1
102
RTVSPropertyOp58
 70
     1
102
RTVSPropertyOp59
 70
     1
102
RTVSPropertyOp60
 70
     1
102
RTVSPropertyOp61
 70
     1
102
RTVSPropertyOp62
 70
     1
  0
XRECORD
  5
1824
102
{ACAD_REACTORS
330
1823
102
}
330
1823
100
AcDbXrecord
280
     1
102
RTVSPost2010Prop28
280
     0
102
RTVSPost2010PropOp28
 70
     1
102
RTVSPost2010Prop29
280
     1
102
RTVSPost2010PropOp29
 70
     1
102
RTVSPost2010Prop30
280
     1
102
RTVSPost2010PropOp30
 70
     1
102
RTVSPost2010Prop31
280
     0
102
RTVSPost2010PropOp31
 70
     1
102
RTVSPost2010Prop32
280
     0
102
RTVSPost2010PropOp32
 70
     1
102
RTVSPost2010Prop33
280
     0
102
RTVSPost2010PropOp33
 70
     1
102
RTVSPost2010Prop34
280
     0
102
RTVSPost2010PropOp34
 70
     1
102
RTVSPost2010Prop35
280
     0
102
RTVSPost2010PropOp35
 70
     1
102
RTVSPost2010Prop36
280
     0
102
RTVSPost2010PropOp36
 70
     1
102
RTVSPost2010Prop37
 90
       50
102
RTVSPost2010PropOp37
 70
     1
102
RTVSPost2010Prop38
140
0.0
102
RTVSPost2010PropOp38
 70
     1
102
RTVSPost2010Prop39
140
1.0
102
RTVSPost2010PropOp39
 70
     1
102
RTVSPost2010Prop40
 90
        0
102
RTVSPost2010PropOp40
 70
     1
102
RTVSPost2010Prop41ColorIndex
 90
       18
102
RTVSPost2010Prop41ColorRGB
 90
        0
102
RTVSPost2010PropOp41
 70
     1
102
RTVSPost2010Prop42
 90
       50
102
RTVSPost2010PropOp42
 70
     1
102
RTVSPost2010Prop43
 90
        3
102
RTVSPost2010PropOp43
 70
     1
102
RTVSPost2010Prop44ColorIndex
 90
        5
102
RTVSPost2010Prop44ColorRGB
 90
      255
102
RTVSPost2010PropOp44
 70
     1
102
RTVSPost2010Prop45
280
     0
102
RTVSPost2010PropOp45
 70
     1
102
RTVSPost2010Prop46
 90
       50
102
RTVSPost2010PropOp46
 70
     1
102
RTVSPost2010Prop47
 90
       50
102
RTVSPost2010PropOp47
 70
     1
102
RTVSPost2010Prop48
 90
       50
102
RTVSPost2010PropOp48
 70
     1
102
RTVSPost2010Prop49
280
     0
102
RTVSPost2010PropOp49
 70
     1
102
RTVSPost2010Prop50
 90
       50
102
RTVSPost2010PropOp50
 70
     1
102
RTVSPost2010Prop51ColorIndex
 90
      256
102
RTVSPost2010Prop51ColorRGB
 90
-16777216
102
RTVSPost2010PropOp51
 70
     0
102
RTVSPost2010Prop52
140
1.0
102
RTVSPost2010PropOp52
 70
     0
102
RTVSPost2010Prop53
 90
        2
102
RTVSPost2010PropOp53
 70
     1
102
RTVSPost2010Prop54
  1
strokes_ogs.tif
102
RTVSPost2010PropOp54
 70
     1
102
RTVSPost2010Prop55
280
     0
102
RTVSPost2010PropOp55
 70
     1
102
RTVSPost2010Prop56
140
1.0
102
RTVSPost2010PropOp56
 70
     1
102
RTVSPost2010Prop57
140
1.0
102
RTVSPost2010PropOp57
 70
     1
102
RTVSPropertyOp0
 70
     1
102
RTVSPropertyOp1
 70
     1
102
RTVSPropertyOp2
 70
     1
102
RTVSPropertyOp3
 70
     1
102
RTVSPropertyOp4
 70
     1
102
RTVSPropertyOp5
 70
     1
102
RTVSPropertyOp6
 70
     1
102
RTVSPropertyOp7
 70
     1
102
RTVSPropertyOp8
 70
     1
102
RTVSPropertyOp9
 70
     1
102
RTVSPropertyOp10
 70
     1
102
RTVSPropertyOp11
 70
     1
102
RTVSPropertyOp12
 70
     1
102
RTVSPropertyOp13
 70
     1
102
RTVSPropertyOp14
 70
     1
102
RTVSPropertyOp15
 70
     1
102
RTVSPropertyOp16
 70
     1
102
RTVSPropertyOp17
 70
     1
102
RTVSPropertyOp18
 70
     1
102
RTVSPropertyOp19
 70
     1
102
RTVSPropertyOp20
 70
     1
102
RTVSPropertyOp21
 70
     1
102
RTVSPropertyOp22
 70
     1
102
RTVSPropertyOp23
 70
     1
102
RTVSPropertyOp24
 70
     1
102
RTVSPropertyOp25
 70
     1
102
RTVSPropertyOp26
 70
     1
102
RTVSPropertyOp27
 70
     1
102
RTVSPropertyOp28
 70
     1
102
RTVSPropertyOp29
 70
     1
102
RTVSPropertyOp30
 70
     1
102
RTVSPropertyOp31
 70
     1
102
RTVSPropertyOp32
 70
     1
102
RTVSPropertyOp33
 70
     1
102
RTVSPropertyOp34
 70
     1
102
RTVSPropertyOp35
 70
     1
102
RTVSPropertyOp36
 70
     1
102
RTVSPropertyOp37
 70
     1
102
RTVSPropertyOp38
 70
     1
102
RTVSPropertyOp39
 70
     1
102
RTVSPropertyOp40
 70
     1
102
RTVSPropertyOp41
 70
     1
102
RTVSPropertyOp42
 70
     1
102
RTVSPropertyOp43
 70
     1
102
RTVSPropertyOp44
 70
     1
102
RTVSPropertyOp45
 70
     1
102
RTVSPropertyOp46
 70
     1
102
RTVSPropertyOp47
 70
     1
102
RTVSPropertyOp48
 70
     1
102
RTVSPropertyOp49
 70
     1
102
RTVSPropertyOp50
 70
     1
102
RTVSPropertyOp51
 70
     0
102
RTVSPropertyOp52
 70
     0
102
RTVSPropertyOp53
 70
     1
102
RTVSPropertyOp54
 70
     1
102
RTVSPropertyOp55
 70
     1
102
RTVSPropertyOp56
 70
     1
102
RTVSPropertyOp57
 70
     1
102
RTVSPropertyOp58
 70
     1
102
RTVSPropertyOp59
 70
     1
102
RTVSPropertyOp60
 70
     1
102
RTVSPropertyOp61
 70
     1
102
RTVSPropertyOp62
 70
     1
  0
XRECORD
  5
1832
102
{ACAD_REACTORS
330
1831
102
}
330
1831
100
AcDbXrecord
280
     1
102
RTVSPost2010Prop28
280
     0
102
RTVSPost2010PropOp28
 70
     1
102
RTVSPost2010Prop29
280
     1
102
RTVSPost2010PropOp29
 70
     1
102
RTVSPost2010Prop30
280
     1
102
RTVSPost2010PropOp30
 70
     1
102
RTVSPost2010Prop31
280
     0
102
RTVSPost2010PropOp31
 70
     1
102
RTVSPost2010Prop32
280
     0
102
RTVSPost2010PropOp32
 70
     1
102
RTVSPost2010Prop33
280
     0
102
RTVSPost2010PropOp33
 70
     1
102
RTVSPost2010Prop34
280
     0
102
RTVSPost2010PropOp34
 70
     1
102
RTVSPost2010Prop35
280
     0
102
RTVSPost2010PropOp35
 70
     1
102
RTVSPost2010Prop36
280
     0
102
RTVSPost2010PropOp36
 70
     1
102
RTVSPost2010Prop37
 90
       50
102
RTVSPost2010PropOp37
 70
     1
102
RTVSPost2010Prop38
140
0.0
102
RTVSPost2010PropOp38
 70
     1
102
RTVSPost2010Prop39
140
1.0
102
RTVSPost2010PropOp39
 70
     1
102
RTVSPost2010Prop40
 90
        0
102
RTVSPost2010PropOp40
 70
     1
102
RTVSPost2010Prop41ColorIndex
 90
       18
102
RTVSPost2010Prop41ColorRGB
 90
        0
102
RTVSPost2010PropOp41
 70
     1
102
RTVSPost2010Prop42
 90
       50
102
RTVSPost2010PropOp42
 70
     1
102
RTVSPost2010Prop43
 90
        3
102
RTVSPost2010PropOp43
 70
     1
102
RTVSPost2010Prop44ColorIndex
 90
        5
102
RTVSPost2010Prop44ColorRGB
 90
      255
102
RTVSPost2010PropOp44
 70
     1
102
RTVSPost2010Prop45
280
     0
102
RTVSPost2010PropOp45
 70
     1
102
RTVSPost2010Prop46
 90
       50
102
RTVSPost2010PropOp46
 70
     1
102
RTVSPost2010Prop47
 90
       50
102
RTVSPost2010PropOp47
 70
     1
102
RTVSPost2010Prop48
 90
       50
102
RTVSPost2010PropOp48
 70
     1
102
RTVSPost2010Prop49
280
     0
102
RTVSPost2010PropOp49
 70
     1
102
RTVSPost2010Prop50
 90
       50
102
RTVSPost2010PropOp50
 70
     1
102
RTVSPost2010Prop51ColorIndex
 90
      256
102
RTVSPost2010Prop51ColorRGB
 90
-16777216
102
RTVSPost2010PropOp51
 70
     0
102
RTVSPost2010Prop52
140
1.0
102
RTVSPost2010PropOp52
 70
     0
102
RTVSPost2010Prop53
 90
        2
102
RTVSPost2010PropOp53
 70
     1
102
RTVSPost2010Prop54
  1
strokes_ogs.tif
102
RTVSPost2010PropOp54
 70
     1
102
RTVSPost2010Prop55
280
     0
102
RTVSPost2010PropOp55
 70
     1
102
RTVSPost2010Prop56
140
1.0
102
RTVSPost2010PropOp56
 70
     1
102
RTVSPost2010Prop57
140
1.0
102
RTVSPost2010PropOp57
 70
     1
102
RTVSPropertyOp0
 70
     1
102
RTVSPropertyOp1
 70
     1
102
RTVSPropertyOp2
 70
     1
102
RTVSPropertyOp3
 70
     1
102
RTVSPropertyOp4
 70
     1
102
RTVSPropertyOp5
 70
     1
102
RTVSPropertyOp6
 70
     1
102
RTVSPropertyOp7
 70
     1
102
RTVSPropertyOp8
 70
     1
102
RTVSPropertyOp9
 70
     1
102
RTVSPropertyOp10
 70
     1
102
RTVSPropertyOp11
 70
     1
102
RTVSPropertyOp12
 70
     1
102
RTVSPropertyOp13
 70
     1
102
RTVSPropertyOp14
 70
     1
102
RTVSPropertyOp15
 70
     1
102
RTVSPropertyOp16
 70
     1
102
RTVSPropertyOp17
 70
     1
102
RTVSPropertyOp18
 70
     1
102
RTVSPropertyOp19
 70
     1
102
RTVSPropertyOp20
 70
     1
102
RTVSPropertyOp21
 70
     1
102
RTVSPropertyOp22
 70
     1
102
RTVSPropertyOp23
 70
     1
102
RTVSPropertyOp24
 70
     1
102
RTVSPropertyOp25
 70
     1
102
RTVSPropertyOp26
 70
     1
102
RTVSPropertyOp27
 70
     1
102
RTVSPropertyOp28
 70
     1
102
RTVSPropertyOp29
 70
     1
102
RTVSPropertyOp30
 70
     1
102
RTVSPropertyOp31
 70
     1
102
RTVSPropertyOp32
 70
     1
102
RTVSPropertyOp33
 70
     1
102
RTVSPropertyOp34
 70
     1
102
RTVSPropertyOp35
 70
     1
102
RTVSPropertyOp36
 70
     1
102
RTVSPropertyOp37
 70
     1
102
RTVSPropertyOp38
 70
     1
102
RTVSPropertyOp39
 70
     1
102
RTVSPropertyOp40
 70
     1
102
RTVSPropertyOp41
 70
     1
102
RTVSPropertyOp42
 70
     1
102
RTVSPropertyOp43
 70
     1
102
RTVSPropertyOp44
 70
     1
102
RTVSPropertyOp45
 70
     1
102
RTVSPropertyOp46
 70
     1
102
RTVSPropertyOp47
 70
     1
102
RTVSPropertyOp48
 70
     1
102
RTVSPropertyOp49
 70
     1
102
RTVSPropertyOp50
 70
     1
102
RTVSPropertyOp51
 70
     0
102
RTVSPropertyOp52
 70
     0
102
RTVSPropertyOp53
 70
     1
102
RTVSPropertyOp54
 70
     1
102
RTVSPropertyOp55
 70
     1
102
RTVSPropertyOp56
 70
     1
102
RTVSPropertyOp57
 70
     1
102
RTVSPropertyOp58
 70
     1
102
RTVSPropertyOp59
 70
     1
102
RTVSPropertyOp60
 70
     1
102
RTVSPropertyOp61
 70
     1
102
RTVSPropertyOp62
 70
     1
  0
XRECORD
  5
183A
102
{ACAD_REACTORS
330
1839
102
}
330
1839
100
AcDbXrecord
280
     1
102
RTVSPost2010Prop28
280
     0
102
RTVSPost2010PropOp28
 70
     1
102
RTVSPost2010Prop29
280
     1
102
RTVSPost2010PropOp29
 70
     1
102
RTVSPost2010Prop30
280
     1
102
RTVSPost2010PropOp30
 70
     1
102
RTVSPost2010Prop31
280
     0
102
RTVSPost2010PropOp31
 70
     1
102
RTVSPost2010Prop32
280
     0
102
RTVSPost2010PropOp32
 70
     1
102
RTVSPost2010Prop33
280
     0
102
RTVSPost2010PropOp33
 70
     1
102
RTVSPost2010Prop34
280
     0
102
RTVSPost2010PropOp34
 70
     1
102
RTVSPost2010Prop35
280
     0
102
RTVSPost2010PropOp35
 70
     1
102
RTVSPost2010Prop36
280
     0
102
RTVSPost2010PropOp36
 70
     1
102
RTVSPost2010Prop37
 90
       50
102
RTVSPost2010PropOp37
 70
     1
102
RTVSPost2010Prop38
140
0.0
102
RTVSPost2010PropOp38
 70
     1
102
RTVSPost2010Prop39
140
1.0
102
RTVSPost2010PropOp39
 70
     1
102
RTVSPost2010Prop40
 90
        0
102
RTVSPost2010PropOp40
 70
     1
102
RTVSPost2010Prop41ColorIndex
 90
       18
102
RTVSPost2010Prop41ColorRGB
 90
        0
102
RTVSPost2010PropOp41
 70
     1
102
RTVSPost2010Prop42
 90
       50
102
RTVSPost2010PropOp42
 70
     1
102
RTVSPost2010Prop43
 90
        3
102
RTVSPost2010PropOp43
 70
     1
102
RTVSPost2010Prop44ColorIndex
 90
        5
102
RTVSPost2010Prop44ColorRGB
 90
      255
102
RTVSPost2010PropOp44
 70
     1
102
RTVSPost2010Prop45
280
     0
102
RTVSPost2010PropOp45
 70
     1
102
RTVSPost2010Prop46
 90
       50
102
RTVSPost2010PropOp46
 70
     1
102
RTVSPost2010Prop47
 90
       50
102
RTVSPost2010PropOp47
 70
     1
102
RTVSPost2010Prop48
 90
       50
102
RTVSPost2010PropOp48
 70
     1
102
RTVSPost2010Prop49
280
     0
102
RTVSPost2010PropOp49
 70
     1
102
RTVSPost2010Prop50
 90
       50
102
RTVSPost2010PropOp50
 70
     1
102
RTVSPost2010Prop51ColorIndex
 90
      256
102
RTVSPost2010Prop51ColorRGB
 90
-16777216
102
RTVSPost2010PropOp51
 70
     0
102
RTVSPost2010Prop52
140
1.0
102
RTVSPost2010PropOp52
 70
     0
102
RTVSPost2010Prop53
 90
        2
102
RTVSPost2010PropOp53
 70
     1
102
RTVSPost2010Prop54
  1
strokes_ogs.tif
102
RTVSPost2010PropOp54
 70
     1
102
RTVSPost2010Prop55
280
     0
102
RTVSPost2010PropOp55
 70
     1
102
RTVSPost2010Prop56
140
1.0
102
RTVSPost2010PropOp56
 70
     1
102
RTVSPost2010Prop57
140
1.0
102
RTVSPost2010PropOp57
 70
     1
102
RTVSPropertyOp0
 70
     1
102
RTVSPropertyOp1
 70
     1
102
RTVSPropertyOp2
 70
     1
102
RTVSPropertyOp3
 70
     1
102
RTVSPropertyOp4
 70
     1
102
RTVSPropertyOp5
 70
     1
102
RTVSPropertyOp6
 70
     1
102
RTVSPropertyOp7
 70
     1
102
RTVSPropertyOp8
 70
     1
102
RTVSPropertyOp9
 70
     1
102
RTVSPropertyOp10
 70
     1
102
RTVSPropertyOp11
 70
     1
102
RTVSPropertyOp12
 70
     1
102
RTVSPropertyOp13
 70
     1
102
RTVSPropertyOp14
 70
     1
102
RTVSPropertyOp15
 70
     1
102
RTVSPropertyOp16
 70
     1
102
RTVSPropertyOp17
 70
     1
102
RTVSPropertyOp18
 70
     1
102
RTVSPropertyOp19
 70
     1
102
RTVSPropertyOp20
 70
     1
102
RTVSPropertyOp21
 70
     1
102
RTVSPropertyOp22
 70
     1
102
RTVSPropertyOp23
 70
     1
102
RTVSPropertyOp24
 70
     1
102
RTVSPropertyOp25
 70
     1
102
RTVSPropertyOp26
 70
     1
102
RTVSPropertyOp27
 70
     1
102
RTVSPropertyOp28
 70
     1
102
RTVSPropertyOp29
 70
     1
102
RTVSPropertyOp30
 70
     1
102
RTVSPropertyOp31
 70
     1
102
RTVSPropertyOp32
 70
     1
102
RTVSPropertyOp33
 70
     1
102
RTVSPropertyOp34
 70
     1
102
RTVSPropertyOp35
 70
     1
102
RTVSPropertyOp36
 70
     1
102
RTVSPropertyOp37
 70
     1
102
RTVSPropertyOp38
 70
     1
102
RTVSPropertyOp39
 70
     1
102
RTVSPropertyOp40
 70
     1
102
RTVSPropertyOp41
 70
     1
102
RTVSPropertyOp42
 70
     1
102
RTVSPropertyOp43
 70
     1
102
RTVSPropertyOp44
 70
     1
102
RTVSPropertyOp45
 70
     1
102
RTVSPropertyOp46
 70
     1
102
RTVSPropertyOp47
 70
     1
102
RTVSPropertyOp48
 70
     1
102
RTVSPropertyOp49
 70
     1
102
RTVSPropertyOp50
 70
     1
102
RTVSPropertyOp51
 70
     0
102
RTVSPropertyOp52
 70
     0
102
RTVSPropertyOp53
 70
     1
102
RTVSPropertyOp54
 70
     1
102
RTVSPropertyOp55
 70
     1
102
RTVSPropertyOp56
 70
     1
102
RTVSPropertyOp57
 70
     1
102
RTVSPropertyOp58
 70
     1
102
RTVSPropertyOp59
 70
     1
102
RTVSPropertyOp60
 70
     1
102
RTVSPropertyOp61
 70
     1
102
RTVSPropertyOp62
 70
     1
  0
XRECORD
  5
182C
102
{ACAD_REACTORS
330
182B
102
}
330
182B
100
AcDbXrecord
280
     1
102
RTVSPost2010Prop28
280
     0
102
RTVSPost2010PropOp28
 70
     1
102
RTVSPost2010Prop29
280
     1
102
RTVSPost2010PropOp29
 70
     1
102
RTVSPost2010Prop30
280
     1
102
RTVSPost2010PropOp30
 70
     1
102
RTVSPost2010Prop31
280
     0
102
RTVSPost2010PropOp31
 70
     1
102
RTVSPost2010Prop32
280
     0
102
RTVSPost2010PropOp32
 70
     1
102
RTVSPost2010Prop33
280
     0
102
RTVSPost2010PropOp33
 70
     1
102
RTVSPost2010Prop34
280
     0
102
RTVSPost2010PropOp34
 70
     1
102
RTVSPost2010Prop35
280
     0
102
RTVSPost2010PropOp35
 70
     1
102
RTVSPost2010Prop36
280
     0
102
RTVSPost2010PropOp36
 70
     1
102
RTVSPost2010Prop37
 90
       50
102
RTVSPost2010PropOp37
 70
     1
102
RTVSPost2010Prop38
140
0.0
102
RTVSPost2010PropOp38
 70
     1
102
RTVSPost2010Prop39
140
1.0
102
RTVSPost2010PropOp39
 70
     1
102
RTVSPost2010Prop40
 90
        0
102
RTVSPost2010PropOp40
 70
     1
102
RTVSPost2010Prop41ColorIndex
 90
       18
102
RTVSPost2010Prop41ColorRGB
 90
        0
102
RTVSPost2010PropOp41
 70
     1
102
RTVSPost2010Prop42
 90
       50
102
RTVSPost2010PropOp42
 70
     1
102
RTVSPost2010Prop43
 90
        3
102
RTVSPost2010PropOp43
 70
     1
102
RTVSPost2010Prop44ColorIndex
 90
        5
102
RTVSPost2010Prop44ColorRGB
 90
      255
102
RTVSPost2010PropOp44
 70
     1
102
RTVSPost2010Prop45
280
     0
102
RTVSPost2010PropOp45
 70
     1
102
RTVSPost2010Prop46
 90
       50
102
RTVSPost2010PropOp46
 70
     1
102
RTVSPost2010Prop47
 90
       50
102
RTVSPost2010PropOp47
 70
     1
102
RTVSPost2010Prop48
 90
       50
102
RTVSPost2010PropOp48
 70
     1
102
RTVSPost2010Prop49
280
     0
102
RTVSPost2010PropOp49
 70
     1
102
RTVSPost2010Prop50
 90
       50
102
RTVSPost2010PropOp50
 70
     1
102
RTVSPost2010Prop51ColorIndex
 90
      256
102
RTVSPost2010Prop51ColorRGB
 90
-16777216
102
RTVSPost2010PropOp51
 70
     0
102
RTVSPost2010Prop52
140
1.0
102
RTVSPost2010PropOp52
 70
     0
102
RTVSPost2010Prop53
 90
        2
102
RTVSPost2010PropOp53
 70
     1
102
RTVSPost2010Prop54
  1
strokes_ogs.tif
102
RTVSPost2010PropOp54
 70
     1
102
RTVSPost2010Prop55
280
     0
102
RTVSPost2010PropOp55
 70
     1
102
RTVSPost2010Prop56
140
1.0
102
RTVSPost2010PropOp56
 70
     1
102
RTVSPost2010Prop57
140
1.0
102
RTVSPost2010PropOp57
 70
     1
102
RTVSPropertyOp0
 70
     1
102
RTVSPropertyOp1
 70
     1
102
RTVSPropertyOp2
 70
     1
102
RTVSPropertyOp3
 70
     1
102
RTVSPropertyOp4
 70
     1
102
RTVSPropertyOp5
 70
     1
102
RTVSPropertyOp6
 70
     1
102
RTVSPropertyOp7
 70
     1
102
RTVSPropertyOp8
 70
     1
102
RTVSPropertyOp9
 70
     1
102
RTVSPropertyOp10
 70
     1
102
RTVSPropertyOp11
 70
     1
102
RTVSPropertyOp12
 70
     1
102
RTVSPropertyOp13
 70
     1
102
RTVSPropertyOp14
 70
     1
102
RTVSPropertyOp15
 70
     1
102
RTVSPropertyOp16
 70
     1
102
RTVSPropertyOp17
 70
     1
102
RTVSPropertyOp18
 70
     1
102
RTVSPropertyOp19
 70
     1
102
RTVSPropertyOp20
 70
     1
102
RTVSPropertyOp21
 70
     1
102
RTVSPropertyOp22
 70
     1
102
RTVSPropertyOp23
 70
     1
102
RTVSPropertyOp24
 70
     1
102
RTVSPropertyOp25
 70
     1
102
RTVSPropertyOp26
 70
     1
102
RTVSPropertyOp27
 70
     1
102
RTVSPropertyOp28
 70
     1
102
RTVSPropertyOp29
 70
     1
102
RTVSPropertyOp30
 70
     1
102
RTVSPropertyOp31
 70
     1
102
RTVSPropertyOp32
 70
     1
102
RTVSPropertyOp33
 70
     1
102
RTVSPropertyOp34
 70
     1
102
RTVSPropertyOp35
 70
     1
102
RTVSPropertyOp36
 70
     1
102
RTVSPropertyOp37
 70
     1
102
RTVSPropertyOp38
 70
     1
102
RTVSPropertyOp39
 70
     1
102
RTVSPropertyOp40
 70
     1
102
RTVSPropertyOp41
 70
     1
102
RTVSPropertyOp42
 70
     1
102
RTVSPropertyOp43
 70
     1
102
RTVSPropertyOp44
 70
     1
102
RTVSPropertyOp45
 70
     1
102
RTVSPropertyOp46
 70
     1
102
RTVSPropertyOp47
 70
     1
102
RTVSPropertyOp48
 70
     1
102
RTVSPropertyOp49
 70
     1
102
RTVSPropertyOp50
 70
     1
102
RTVSPropertyOp51
 70
     0
102
RTVSPropertyOp52
 70
     0
102
RTVSPropertyOp53
 70
     1
102
RTVSPropertyOp54
 70
     1
102
RTVSPropertyOp55
 70
     1
102
RTVSPropertyOp56
 70
     1
102
RTVSPropertyOp57
 70
     1
102
RTVSPropertyOp58
 70
     1
102
RTVSPropertyOp59
 70
     1
102
RTVSPropertyOp60
 70
     1
102
RTVSPropertyOp61
 70
     1
102
RTVSPropertyOp62
 70
     1
  0
XRECORD
  5
1830
102
{ACAD_REACTORS
330
182F
102
}
330
182F
100
AcDbXrecord
280
     1
102
RTVSPost2010Prop28
280
     0
102
RTVSPost2010PropOp28
 70
     1
102
RTVSPost2010Prop29
280
     1
102
RTVSPost2010PropOp29
 70
     1
102
RTVSPost2010Prop30
280
     1
102
RTVSPost2010PropOp30
 70
     1
102
RTVSPost2010Prop31
280
     0
102
RTVSPost2010PropOp31
 70
     1
102
RTVSPost2010Prop32
280
     0
102
RTVSPost2010PropOp32
 70
     1
102
RTVSPost2010Prop33
280
     0
102
RTVSPost2010PropOp33
 70
     1
102
RTVSPost2010Prop34
280
     0
102
RTVSPost2010PropOp34
 70
     1
102
RTVSPost2010Prop35
280
     0
102
RTVSPost2010PropOp35
 70
     1
102
RTVSPost2010Prop36
280
     0
102
RTVSPost2010PropOp36
 70
     1
102
RTVSPost2010Prop37
 90
       50
102
RTVSPost2010PropOp37
 70
     1
102
RTVSPost2010Prop38
140
0.0
102
RTVSPost2010PropOp38
 70
     1
102
RTVSPost2010Prop39
140
1.0
102
RTVSPost2010PropOp39
 70
     1
102
RTVSPost2010Prop40
 90
        0
102
RTVSPost2010PropOp40
 70
     1
102
RTVSPost2010Prop41ColorIndex
 90
       18
102
RTVSPost2010Prop41ColorRGB
 90
        0
102
RTVSPost2010PropOp41
 70
     1
102
RTVSPost2010Prop42
 90
       50
102
RTVSPost2010PropOp42
 70
     1
102
RTVSPost2010Prop43
 90
        3
102
RTVSPost2010PropOp43
 70
     1
102
RTVSPost2010Prop44ColorIndex
 90
        5
102
RTVSPost2010Prop44ColorRGB
 90
      255
102
RTVSPost2010PropOp44
 70
     1
102
RTVSPost2010Prop45
280
     0
102
RTVSPost2010PropOp45
 70
     1
102
RTVSPost2010Prop46
 90
       50
102
RTVSPost2010PropOp46
 70
     1
102
RTVSPost2010Prop47
 90
       50
102
RTVSPost2010PropOp47
 70
     1
102
RTVSPost2010Prop48
 90
       50
102
RTVSPost2010PropOp48
 70
     1
102
RTVSPost2010Prop49
280
     0
102
RTVSPost2010PropOp49
 70
     1
102
RTVSPost2010Prop50
 90
       50
102
RTVSPost2010PropOp50
 70
     1
102
RTVSPost2010Prop51ColorIndex
 90
      256
102
RTVSPost2010Prop51ColorRGB
 90
-16777216
102
RTVSPost2010PropOp51
 70
     0
102
RTVSPost2010Prop52
140
1.0
102
RTVSPost2010PropOp52
 70
     0
102
RTVSPost2010Prop53
 90
        2
102
RTVSPost2010PropOp53
 70
     1
102
RTVSPost2010Prop54
  1
strokes_ogs.tif
102
RTVSPost2010PropOp54
 70
     1
102
RTVSPost2010Prop55
280
     0
102
RTVSPost2010PropOp55
 70
     1
102
RTVSPost2010Prop56
140
1.0
102
RTVSPost2010PropOp56
 70
     1
102
RTVSPost2010Prop57
140
1.0
102
RTVSPost2010PropOp57
 70
     1
102
RTVSPropertyOp0
 70
     1
102
RTVSPropertyOp1
 70
     1
102
RTVSPropertyOp2
 70
     1
102
RTVSPropertyOp3
 70
     1
102
RTVSPropertyOp4
 70
     1
102
RTVSPropertyOp5
 70
     1
102
RTVSPropertyOp6
 70
     1
102
RTVSPropertyOp7
 70
     1
102
RTVSPropertyOp8
 70
     1
102
RTVSPropertyOp9
 70
     1
102
RTVSPropertyOp10
 70
     1
102
RTVSPropertyOp11
 70
     1
102
RTVSPropertyOp12
 70
     1
102
RTVSPropertyOp13
 70
     1
102
RTVSPropertyOp14
 70
     1
102
RTVSPropertyOp15
 70
     1
102
RTVSPropertyOp16
 70
     1
102
RTVSPropertyOp17
 70
     1
102
RTVSPropertyOp18
 70
     1
102
RTVSPropertyOp19
 70
     1
102
RTVSPropertyOp20
 70
     1
102
RTVSPropertyOp21
 70
     1
102
RTVSPropertyOp22
 70
     1
102
RTVSPropertyOp23
 70
     1
102
RTVSPropertyOp24
 70
     1
102
RTVSPropertyOp25
 70
     1
102
RTVSPropertyOp26
 70
     1
102
RTVSPropertyOp27
 70
     1
102
RTVSPropertyOp28
 70
     1
102
RTVSPropertyOp29
 70
     1
102
RTVSPropertyOp30
 70
     1
102
RTVSPropertyOp31
 70
     1
102
RTVSPropertyOp32
 70
     1
102
RTVSPropertyOp33
 70
     1
102
RTVSPropertyOp34
 70
     1
102
RTVSPropertyOp35
 70
     1
102
RTVSPropertyOp36
 70
     1
102
RTVSPropertyOp37
 70
     1
102
RTVSPropertyOp38
 70
     1
102
RTVSPropertyOp39
 70
     1
102
RTVSPropertyOp40
 70
     1
102
RTVSPropertyOp41
 70
     1
102
RTVSPropertyOp42
 70
     1
102
RTVSPropertyOp43
 70
     1
102
RTVSPropertyOp44
 70
     1
102
RTVSPropertyOp45
 70
     1
102
RTVSPropertyOp46
 70
     1
102
RTVSPropertyOp47
 70
     1
102
RTVSPropertyOp48
 70
     1
102
RTVSPropertyOp49
 70
     1
102
RTVSPropertyOp50
 70
     1
102
RTVSPropertyOp51
 70
     0
102
RTVSPropertyOp52
 70
     0
102
RTVSPropertyOp53
 70
     1
102
RTVSPropertyOp54
 70
     1
102
RTVSPropertyOp55
 70
     1
102
RTVSPropertyOp56
 70
     1
102
RTVSPropertyOp57
 70
     1
102
RTVSPropertyOp58
 70
     1
102
RTVSPropertyOp59
 70
     1
102
RTVSPropertyOp60
 70
     1
102
RTVSPropertyOp61
 70
     1
102
RTVSPropertyOp62
 70
     1
  0
XRECORD
  5
184E
102
{ACAD_REACTORS
330
184D
102
}
330
184D
100
AcDbXrecord
280
     1
102
RTVSPost2010Prop28
280
     0
102
RTVSPost2010PropOp28
 70
     1
102
RTVSPost2010Prop29
280
     1
102
RTVSPost2010PropOp29
 70
     1
102
RTVSPost2010Prop30
280
     1
102
RTVSPost2010PropOp30
 70
     1
102
RTVSPost2010Prop31
280
     0
102
RTVSPost2010PropOp31
 70
     1
102
RTVSPost2010Prop32
280
     0
102
RTVSPost2010PropOp32
 70
     1
102
RTVSPost2010Prop33
280
     0
102
RTVSPost2010PropOp33
 70
     1
102
RTVSPost2010Prop34
280
     0
102
RTVSPost2010PropOp34
 70
     1
102
RTVSPost2010Prop35
280
     0
102
RTVSPost2010PropOp35
 70
     1
102
RTVSPost2010Prop36
280
     0
102
RTVSPost2010PropOp36
 70
     1
102
RTVSPost2010Prop37
 90
       50
102
RTVSPost2010PropOp37
 70
     0
102
RTVSPost2010Prop38
140
0.0
102
RTVSPost2010PropOp38
 70
     0
102
RTVSPost2010Prop39
140
1.0
102
RTVSPost2010PropOp39
 70
     0
102
RTVSPost2010Prop40
 90
        0
102
RTVSPost2010PropOp40
 70
     0
102
RTVSPost2010Prop41ColorIndex
 90
       18
102
RTVSPost2010Prop41ColorRGB
 90
        0
102
RTVSPost2010PropOp41
 70
     0
102
RTVSPost2010Prop42
 90
       50
102
RTVSPost2010PropOp42
 70
     0
102
RTVSPost2010Prop43
 90
        3
102
RTVSPost2010PropOp43
 70
     0
102
RTVSPost2010Prop44ColorIndex
 90
        5
102
RTVSPost2010Prop44ColorRGB
 90
      255
102
RTVSPost2010PropOp44
 70
     0
102
RTVSPost2010Prop45
280
     0
102
RTVSPost2010PropOp45
 70
     1
102
RTVSPost2010Prop46
 90
       50
102
RTVSPost2010PropOp46
 70
     0
102
RTVSPost2010Prop47
 90
       50
102
RTVSPost2010PropOp47
 70
     0
102
RTVSPost2010Prop48
 90
       50
102
RTVSPost2010PropOp48
 70
     0
102
RTVSPost2010Prop49
280
     0
102
RTVSPost2010PropOp49
 70
     1
102
RTVSPost2010Prop50
 90
       50
102
RTVSPost2010PropOp50
 70
     0
102
RTVSPost2010Prop51ColorIndex
 90
      256
102
RTVSPost2010Prop51ColorRGB
 90
-16777216
102
RTVSPost2010PropOp51
 70
     0
102
RTVSPost2010Prop52
140
1.0
102
RTVSPost2010PropOp52
 70
     0
102
RTVSPost2010Prop53
 90
        2
102
RTVSPost2010PropOp53
 70
     0
102
RTVSPost2010Prop54
  1
strokes_ogs.tif
102
RTVSPost2010PropOp54
 70
     0
102
RTVSPost2010Prop55
280
     0
102
RTVSPost2010PropOp55
 70
     1
102
RTVSPost2010Prop56
140
1.0
102
RTVSPost2010PropOp56
 70
     0
102
RTVSPost2010Prop57
140
1.0
102
RTVSPost2010PropOp57
 70
     0
102
RTVSPropertyOp0
 70
     0
102
RTVSPropertyOp1
 70
     0
102
RTVSPropertyOp2
 70
     0
102
RTVSPropertyOp3
 70
     0
102
RTVSPropertyOp4
 70
     0
102
RTVSPropertyOp5
 70
     0
102
RTVSPropertyOp6
 70
     0
102
RTVSPropertyOp7
 70
     0
102
RTVSPropertyOp8
 70
     0
102
RTVSPropertyOp9
 70
     0
102
RTVSPropertyOp10
 70
     0
102
RTVSPropertyOp11
 70
     0
102
RTVSPropertyOp12
 70
     0
102
RTVSPropertyOp13
 70
     0
102
RTVSPropertyOp14
 70
     2
102
RTVSPropertyOp15
 70
     0
102
RTVSPropertyOp16
 70
     0
102
RTVSPropertyOp17
 70
     0
102
RTVSPropertyOp18
 70
     0
102
RTVSPropertyOp19
 70
     0
102
RTVSPropertyOp20
 70
     0
102
RTVSPropertyOp21
 70
     0
102
RTVSPropertyOp22
 70
     0
102
RTVSPropertyOp23
 70
     0
102
RTVSPropertyOp24
 70
     0
102
RTVSPropertyOp25
 70
     0
102
RTVSPropertyOp26
 70
     0
102
RTVSPropertyOp27
 70
     0
102
RTVSPropertyOp28
 70
     1
102
RTVSPropertyOp29
 70
     1
102
RTVSPropertyOp30
 70
     1
102
RTVSPropertyOp31
 70
     1
102
RTVSPropertyOp32
 70
     1
102
RTVSPropertyOp33
 70
     1
102
RTVSPropertyOp34
 70
     1
102
RTVSPropertyOp35
 70
     1
102
RTVSPropertyOp36
 70
     1
102
RTVSPropertyOp37
 70
     0
102
RTVSPropertyOp38
 70
     0
102
RTVSPropertyOp39
 70
     0
102
RTVSPropertyOp40
 70
     0
102
RTVSPropertyOp41
 70
     0
102
RTVSPropertyOp42
 70
     0
102
RTVSPropertyOp43
 70
     0
102
RTVSPropertyOp44
 70
     0
102
RTVSPropertyOp45
 70
     1
102
RTVSPropertyOp46
 70
     0
102
RTVSPropertyOp47
 70
     0
102
RTVSPropertyOp48
 70
     0
102
RTVSPropertyOp49
 70
     1
102
RTVSPropertyOp50
 70
     0
102
RTVSPropertyOp51
 70
     0
102
RTVSPropertyOp52
 70
     0
102
RTVSPropertyOp53
 70
     0
102
RTVSPropertyOp54
 70
     0
102
RTVSPropertyOp55
 70
     1
102
RTVSPropertyOp56
 70
     0
102
RTVSPropertyOp57
 70
     0
102
RTVSPropertyOp58
 70
     0
102
RTVSPropertyOp59
 70
     0
102
RTVSPropertyOp60
 70
     0
102
RTVSPropertyOp61
 70
     0
102
RTVSPropertyOp62
 70
     0
  0
XRECORD
  5
1838
102
{ACAD_REACTORS
330
1837
102
}
330
1837
100
AcDbXrecord
280
     1
102
RTVSPost2010Prop28
280
     0
102
RTVSPost2010PropOp28
 70
     1
102
RTVSPost2010Prop29
280
     1
102
RTVSPost2010PropOp29
 70
     1
102
RTVSPost2010Prop30
280
     1
102
RTVSPost2010PropOp30
 70
     1
102
RTVSPost2010Prop31
280
     0
102
RTVSPost2010PropOp31
 70
     1
102
RTVSPost2010Prop32
280
     0
102
RTVSPost2010PropOp32
 70
     1
102
RTVSPost2010Prop33
280
     0
102
RTVSPost2010PropOp33
 70
     1
102
RTVSPost2010Prop34
280
     0
102
RTVSPost2010PropOp34
 70
     1
102
RTVSPost2010Prop35
280
     0
102
RTVSPost2010PropOp35
 70
     1
102
RTVSPost2010Prop36
280
     0
102
RTVSPost2010PropOp36
 70
     1
102
RTVSPost2010Prop37
 90
       50
102
RTVSPost2010PropOp37
 70
     1
102
RTVSPost2010Prop38
140
0.0
102
RTVSPost2010PropOp38
 70
     1
102
RTVSPost2010Prop39
140
1.0
102
RTVSPost2010PropOp39
 70
     1
102
RTVSPost2010Prop40
 90
        0
102
RTVSPost2010PropOp40
 70
     1
102
RTVSPost2010Prop41ColorIndex
 90
       18
102
RTVSPost2010Prop41ColorRGB
 90
        0
102
RTVSPost2010PropOp41
 70
     1
102
RTVSPost2010Prop42
 90
       50
102
RTVSPost2010PropOp42
 70
     1
102
RTVSPost2010Prop43
 90
        3
102
RTVSPost2010PropOp43
 70
     1
102
RTVSPost2010Prop44ColorIndex
 90
        5
102
RTVSPost2010Prop44ColorRGB
 90
      255
102
RTVSPost2010PropOp44
 70
     1
102
RTVSPost2010Prop45
280
     0
102
RTVSPost2010PropOp45
 70
     1
102
RTVSPost2010Prop46
 90
       50
102
RTVSPost2010PropOp46
 70
     1
102
RTVSPost2010Prop47
 90
       50
102
RTVSPost2010PropOp47
 70
     1
102
RTVSPost2010Prop48
 90
       50
102
RTVSPost2010PropOp48
 70
     1
102
RTVSPost2010Prop49
280
     0
102
RTVSPost2010PropOp49
 70
     1
102
RTVSPost2010Prop50
 90
       50
102
RTVSPost2010PropOp50
 70
     1
102
RTVSPost2010Prop51ColorIndex
 90
      256
102
RTVSPost2010Prop51ColorRGB
 90
-16777216
102
RTVSPost2010PropOp51
 70
     0
102
RTVSPost2010Prop52
140
1.0
102
RTVSPost2010PropOp52
 70
     0
102
RTVSPost2010Prop53
 90
        2
102
RTVSPost2010PropOp53
 70
     1
102
RTVSPost2010Prop54
  1
strokes_ogs.tif
102
RTVSPost2010PropOp54
 70
     1
102
RTVSPost2010Prop55
280
     0
102
RTVSPost2010PropOp55
 70
     1
102
RTVSPost2010Prop56
140
1.0
102
RTVSPost2010PropOp56
 70
     1
102
RTVSPost2010Prop57
140
1.0
102
RTVSPost2010PropOp57
 70
     1
102
RTVSPropertyOp0
 70
     1
102
RTVSPropertyOp1
 70
     1
102
RTVSPropertyOp2
 70
     1
102
RTVSPropertyOp3
 70
     1
102
RTVSPropertyOp4
 70
     1
102
RTVSPropertyOp5
 70
     1
102
RTVSPropertyOp6
 70
     1
102
RTVSPropertyOp7
 70
     1
102
RTVSPropertyOp8
 70
     1
102
RTVSPropertyOp9
 70
     1
102
RTVSPropertyOp10
 70
     1
102
RTVSPropertyOp11
 70
     1
102
RTVSPropertyOp12
 70
     1
102
RTVSPropertyOp13
 70
     1
102
RTVSPropertyOp14
 70
     1
102
RTVSPropertyOp15
 70
     1
102
RTVSPropertyOp16
 70
     1
102
RTVSPropertyOp17
 70
     1
102
RTVSPropertyOp18
 70
     1
102
RTVSPropertyOp19
 70
     1
102
RTVSPropertyOp20
 70
     1
102
RTVSPropertyOp21
 70
     1
102
RTVSPropertyOp22
 70
     1
102
RTVSPropertyOp23
 70
     1
102
RTVSPropertyOp24
 70
     1
102
RTVSPropertyOp25
 70
     1
102
RTVSPropertyOp26
 70
     1
102
RTVSPropertyOp27
 70
     1
102
RTVSPropertyOp28
 70
     1
102
RTVSPropertyOp29
 70
     1
102
RTVSPropertyOp30
 70
     1
102
RTVSPropertyOp31
 70
     1
102
RTVSPropertyOp32
 70
     1
102
RTVSPropertyOp33
 70
     1
102
RTVSPropertyOp34
 70
     1
102
RTVSPropertyOp35
 70
     1
102
RTVSPropertyOp36
 70
     1
102
RTVSPropertyOp37
 70
     1
102
RTVSPropertyOp38
 70
     1
102
RTVSPropertyOp39
 70
     1
102
RTVSPropertyOp40
 70
     1
102
RTVSPropertyOp41
 70
     1
102
RTVSPropertyOp42
 70
     1
102
RTVSPropertyOp43
 70
     1
102
RTVSPropertyOp44
 70
     1
102
RTVSPropertyOp45
 70
     1
102
RTVSPropertyOp46
 70
     1
102
RTVSPropertyOp47
 70
     1
102
RTVSPropertyOp48
 70
     1
102
RTVSPropertyOp49
 70
     1
102
RTVSPropertyOp50
 70
     1
102
RTVSPropertyOp51
 70
     0
102
RTVSPropertyOp52
 70
     0
102
RTVSPropertyOp53
 70
     1
102
RTVSPropertyOp54
 70
     1
102
RTVSPropertyOp55
 70
     1
102
RTVSPropertyOp56
 70
     1
102
RTVSPropertyOp57
 70
     1
102
RTVSPropertyOp58
 70
     1
102
RTVSPropertyOp59
 70
     1
102
RTVSPropertyOp60
 70
     1
102
RTVSPropertyOp61
 70
     1
102
RTVSPropertyOp62
 70
     1
  0
XRECORD
  5
181C
102
{ACAD_REACTORS
330
181B
102
}
330
181B
100
AcDbXrecord
280
     1
102
RTVSPost2010Prop28
280
     0
102
RTVSPost2010PropOp28
 70
     1
102
RTVSPost2010Prop29
280
     1
102
RTVSPost2010PropOp29
 70
     1
102
RTVSPost2010Prop30
280
     1
102
RTVSPost2010PropOp30
 70
     1
102
RTVSPost2010Prop31
280
     0
102
RTVSPost2010PropOp31
 70
     1
102
RTVSPost2010Prop32
280
     0
102
RTVSPost2010PropOp32
 70
     1
102
RTVSPost2010Prop33
280
     0
102
RTVSPost2010PropOp33
 70
     1
102
RTVSPost2010Prop34
280
     0
102
RTVSPost2010PropOp34
 70
     1
102
RTVSPost2010Prop35
280
     0
102
RTVSPost2010PropOp35
 70
     1
102
RTVSPost2010Prop36
280
     0
102
RTVSPost2010PropOp36
 70
     1
102
RTVSPost2010Prop37
 90
       50
102
RTVSPost2010PropOp37
 70
     1
102
RTVSPost2010Prop38
140
0.0
102
RTVSPost2010PropOp38
 70
     1
102
RTVSPost2010Prop39
140
1.0
102
RTVSPost2010PropOp39
 70
     1
102
RTVSPost2010Prop40
 90
        0
102
RTVSPost2010PropOp40
 70
     1
102
RTVSPost2010Prop41ColorIndex
 90
       18
102
RTVSPost2010Prop41ColorRGB
 90
        0
102
RTVSPost2010PropOp41
 70
     1
102
RTVSPost2010Prop42
 90
       50
102
RTVSPost2010PropOp42
 70
     1
102
RTVSPost2010Prop43
 90
        3
102
RTVSPost2010PropOp43
 70
     1
102
RTVSPost2010Prop44ColorIndex
 90
        5
102
RTVSPost2010Prop44ColorRGB
 90
      255
102
RTVSPost2010PropOp44
 70
     1
102
RTVSPost2010Prop45
280
     0
102
RTVSPost2010PropOp45
 70
     1
102
RTVSPost2010Prop46
 90
       50
102
RTVSPost2010PropOp46
 70
     1
102
RTVSPost2010Prop47
 90
       50
102
RTVSPost2010PropOp47
 70
     1
102
RTVSPost2010Prop48
 90
       50
102
RTVSPost2010PropOp48
 70
     1
102
RTVSPost2010Prop49
280
     0
102
RTVSPost2010PropOp49
 70
     1
102
RTVSPost2010Prop50
 90
       50
102
RTVSPost2010PropOp50
 70
     1
102
RTVSPost2010Prop51ColorIndex
 90
      256
102
RTVSPost2010Prop51ColorRGB
 90
-16777216
102
RTVSPost2010PropOp51
 70
     0
102
RTVSPost2010Prop52
140
1.0
102
RTVSPost2010PropOp52
 70
     0
102
RTVSPost2010Prop53
 90
        2
102
RTVSPost2010PropOp53
 70
     1
102
RTVSPost2010Prop54
  1
strokes_ogs.tif
102
RTVSPost2010PropOp54
 70
     1
102
RTVSPost2010Prop55
280
     0
102
RTVSPost2010PropOp55
 70
     1
102
RTVSPost2010Prop56
140
1.0
102
RTVSPost2010PropOp56
 70
     1
102
RTVSPost2010Prop57
140
1.0
102
RTVSPost2010PropOp57
 70
     1
102
RTVSPropertyOp0
 70
     1
102
RTVSPropertyOp1
 70
     1
102
RTVSPropertyOp2
 70
     1
102
RTVSPropertyOp3
 70
     1
102
RTVSPropertyOp4
 70
     1
102
RTVSPropertyOp5
 70
     1
102
RTVSPropertyOp6
 70
     1
102
RTVSPropertyOp7
 70
     1
102
RTVSPropertyOp8
 70
     1
102
RTVSPropertyOp9
 70
     1
102
RTVSPropertyOp10
 70
     1
102
RTVSPropertyOp11
 70
     1
102
RTVSPropertyOp12
 70
     1
102
RTVSPropertyOp13
 70
     1
102
RTVSPropertyOp14
 70
     1
102
RTVSPropertyOp15
 70
     1
102
RTVSPropertyOp16
 70
     1
102
RTVSPropertyOp17
 70
     1
102
RTVSPropertyOp18
 70
     1
102
RTVSPropertyOp19
 70
     1
102
RTVSPropertyOp20
 70
     1
102
RTVSPropertyOp21
 70
     1
102
RTVSPropertyOp22
 70
     1
102
RTVSPropertyOp23
 70
     1
102
RTVSPropertyOp24
 70
     1
102
RTVSPropertyOp25
 70
     1
102
RTVSPropertyOp26
 70
     1
102
RTVSPropertyOp27
 70
     1
102
RTVSPropertyOp28
 70
     1
102
RTVSPropertyOp29
 70
     1
102
RTVSPropertyOp30
 70
     1
102
RTVSPropertyOp31
 70
     1
102
RTVSPropertyOp32
 70
     1
102
RTVSPropertyOp33
 70
     1
102
RTVSPropertyOp34
 70
     1
102
RTVSPropertyOp35
 70
     1
102
RTVSPropertyOp36
 70
     1
102
RTVSPropertyOp37
 70
     1
102
RTVSPropertyOp38
 70
     1
102
RTVSPropertyOp39
 70
     1
102
RTVSPropertyOp40
 70
     1
102
RTVSPropertyOp41
 70
     1
102
RTVSPropertyOp42
 70
     1
102
RTVSPropertyOp43
 70
     1
102
RTVSPropertyOp44
 70
     1
102
RTVSPropertyOp45
 70
     1
102
RTVSPropertyOp46
 70
     1
102
RTVSPropertyOp47
 70
     1
102
RTVSPropertyOp48
 70
     1
102
RTVSPropertyOp49
 70
     1
102
RTVSPropertyOp50
 70
     1
102
RTVSPropertyOp51
 70
     0
102
RTVSPropertyOp52
 70
     0
102
RTVSPropertyOp53
 70
     1
102
RTVSPropertyOp54
 70
     1
102
RTVSPropertyOp55
 70
     1
102
RTVSPropertyOp56
 70
     1
102
RTVSPropertyOp57
 70
     1
102
RTVSPropertyOp58
 70
     1
102
RTVSPropertyOp59
 70
     1
102
RTVSPropertyOp60
 70
     1
102
RTVSPropertyOp61
 70
     1
102
RTVSPropertyOp62
 70
     1
  0
XRECORD
  5
181E
102
{ACAD_REACTORS
330
181D
102
}
330
181D
100
AcDbXrecord
280
     1
102
RTVSPost2010Prop28
280
     0
102
RTVSPost2010PropOp28
 70
     1
102
RTVSPost2010Prop29
280
     1
102
RTVSPost2010PropOp29
 70
     1
102
RTVSPost2010Prop30
280
     1
102
RTVSPost2010PropOp30
 70
     1
102
RTVSPost2010Prop31
280
     0
102
RTVSPost2010PropOp31
 70
     1
102
RTVSPost2010Prop32
280
     0
102
RTVSPost2010PropOp32
 70
     1
102
RTVSPost2010Prop33
280
     0
102
RTVSPost2010PropOp33
 70
     1
102
RTVSPost2010Prop34
280
     0
102
RTVSPost2010PropOp34
 70
     1
102
RTVSPost2010Prop35
280
     0
102
RTVSPost2010PropOp35
 70
     1
102
RTVSPost2010Prop36
280
     0
102
RTVSPost2010PropOp36
 70
     1
102
RTVSPost2010Prop37
 90
       50
102
RTVSPost2010PropOp37
 70
     1
102
RTVSPost2010Prop38
140
0.0
102
RTVSPost2010PropOp38
 70
     1
102
RTVSPost2010Prop39
140
1.0
102
RTVSPost2010PropOp39
 70
     1
102
RTVSPost2010Prop40
 90
        0
102
RTVSPost2010PropOp40
 70
     1
102
RTVSPost2010Prop41ColorIndex
 90
       18
102
RTVSPost2010Prop41ColorRGB
 90
        0
102
RTVSPost2010PropOp41
 70
     1
102
RTVSPost2010Prop42
 90
       50
102
RTVSPost2010PropOp42
 70
     1
102
RTVSPost2010Prop43
 90
        3
102
RTVSPost2010PropOp43
 70
     1
102
RTVSPost2010Prop44ColorIndex
 90
        5
102
RTVSPost2010Prop44ColorRGB
 90
      255
102
RTVSPost2010PropOp44
 70
     1
102
RTVSPost2010Prop45
280
     0
102
RTVSPost2010PropOp45
 70
     1
102
RTVSPost2010Prop46
 90
       50
102
RTVSPost2010PropOp46
 70
     1
102
RTVSPost2010Prop47
 90
       50
102
RTVSPost2010PropOp47
 70
     1
102
RTVSPost2010Prop48
 90
       50
102
RTVSPost2010PropOp48
 70
     1
102
RTVSPost2010Prop49
280
     0
102
RTVSPost2010PropOp49
 70
     1
102
RTVSPost2010Prop50
 90
       50
102
RTVSPost2010PropOp50
 70
     1
102
RTVSPost2010Prop51ColorIndex
 90
      256
102
RTVSPost2010Prop51ColorRGB
 90
-16777216
102
RTVSPost2010PropOp51
 70
     0
102
RTVSPost2010Prop52
140
1.0
102
RTVSPost2010PropOp52
 70
     0
102
RTVSPost2010Prop53
 90
        2
102
RTVSPost2010PropOp53
 70
     1
102
RTVSPost2010Prop54
  1
strokes_ogs.tif
102
RTVSPost2010PropOp54
 70
     1
102
RTVSPost2010Prop55
280
     0
102
RTVSPost2010PropOp55
 70
     1
102
RTVSPost2010Prop56
140
1.0
102
RTVSPost2010PropOp56
 70
     1
102
RTVSPost2010Prop57
140
1.0
102
RTVSPost2010PropOp57
 70
     1
102
RTVSPropertyOp0
 70
     1
102
RTVSPropertyOp1
 70
     1
102
RTVSPropertyOp2
 70
     1
102
RTVSPropertyOp3
 70
     1
102
RTVSPropertyOp4
 70
     1
102
RTVSPropertyOp5
 70
     1
102
RTVSPropertyOp6
 70
     1
102
RTVSPropertyOp7
 70
     1
102
RTVSPropertyOp8
 70
     1
102
RTVSPropertyOp9
 70
     1
102
RTVSPropertyOp10
 70
     1
102
RTVSPropertyOp11
 70
     1
102
RTVSPropertyOp12
 70
     1
102
RTVSPropertyOp13
 70
     1
102
RTVSPropertyOp14
 70
     1
102
RTVSPropertyOp15
 70
     1
102
RTVSPropertyOp16
 70
     1
102
RTVSPropertyOp17
 70
     1
102
RTVSPropertyOp18
 70
     1
102
RTVSPropertyOp19
 70
     1
102
RTVSPropertyOp20
 70
     1
102
RTVSPropertyOp21
 70
     1
102
RTVSPropertyOp22
 70
     1
102
RTVSPropertyOp23
 70
     1
102
RTVSPropertyOp24
 70
     1
102
RTVSPropertyOp25
 70
     1
102
RTVSPropertyOp26
 70
     1
102
RTVSPropertyOp27
 70
     1
102
RTVSPropertyOp28
 70
     1
102
RTVSPropertyOp29
 70
     1
102
RTVSPropertyOp30
 70
     1
102
RTVSPropertyOp31
 70
     1
102
RTVSPropertyOp32
 70
     1
102
RTVSPropertyOp33
 70
     1
102
RTVSPropertyOp34
 70
     1
102
RTVSPropertyOp35
 70
     1
102
RTVSPropertyOp36
 70
     1
102
RTVSPropertyOp37
 70
     1
102
RTVSPropertyOp38
 70
     1
102
RTVSPropertyOp39
 70
     1
102
RTVSPropertyOp40
 70
     1
102
RTVSPropertyOp41
 70
     1
102
RTVSPropertyOp42
 70
     1
102
RTVSPropertyOp43
 70
     1
102
RTVSPropertyOp44
 70
     1
102
RTVSPropertyOp45
 70
     1
102
RTVSPropertyOp46
 70
     1
102
RTVSPropertyOp47
 70
     1
102
RTVSPropertyOp48
 70
     1
102
RTVSPropertyOp49
 70
     1
102
RTVSPropertyOp50
 70
     1
102
RTVSPropertyOp51
 70
     0
102
RTVSPropertyOp52
 70
     0
102
RTVSPropertyOp53
 70
     1
102
RTVSPropertyOp54
 70
     1
102
RTVSPropertyOp55
 70
     1
102
RTVSPropertyOp56
 70
     1
102
RTVSPropertyOp57
 70
     1
102
RTVSPropertyOp58
 70
     1
102
RTVSPropertyOp59
 70
     1
102
RTVSPropertyOp60
 70
     1
102
RTVSPropertyOp61
 70
     1
102
RTVSPropertyOp62
 70
     1
  0
XRECORD
  5
1820
102
{ACAD_REACTORS
330
181F
102
}
330
181F
100
AcDbXrecord
280
     1
102
RTVSPost2010Prop28
280
     0
102
RTVSPost2010PropOp28
 70
     1
102
RTVSPost2010Prop29
280
     1
102
RTVSPost2010PropOp29
 70
     1
102
RTVSPost2010Prop30
280
     1
102
RTVSPost2010PropOp30
 70
     1
102
RTVSPost2010Prop31
280
     0
102
RTVSPost2010PropOp31
 70
     1
102
RTVSPost2010Prop32
280
     0
102
RTVSPost2010PropOp32
 70
     1
102
RTVSPost2010Prop33
280
     0
102
RTVSPost2010PropOp33
 70
     1
102
RTVSPost2010Prop34
280
     0
102
RTVSPost2010PropOp34
 70
     1
102
RTVSPost2010Prop35
280
     0
102
RTVSPost2010PropOp35
 70
     1
102
RTVSPost2010Prop36
280
     0
102
RTVSPost2010PropOp36
 70
     1
102
RTVSPost2010Prop37
 90
       50
102
RTVSPost2010PropOp37
 70
     1
102
RTVSPost2010Prop38
140
0.0
102
RTVSPost2010PropOp38
 70
     1
102
RTVSPost2010Prop39
140
1.0
102
RTVSPost2010PropOp39
 70
     1
102
RTVSPost2010Prop40
 90
        0
102
RTVSPost2010PropOp40
 70
     1
102
RTVSPost2010Prop41ColorIndex
 90
       18
102
RTVSPost2010Prop41ColorRGB
 90
        0
102
RTVSPost2010PropOp41
 70
     1
102
RTVSPost2010Prop42
 90
       50
102
RTVSPost2010PropOp42
 70
     1
102
RTVSPost2010Prop43
 90
        3
102
RTVSPost2010PropOp43
 70
     1
102
RTVSPost2010Prop44ColorIndex
 90
        5
102
RTVSPost2010Prop44ColorRGB
 90
      255
102
RTVSPost2010PropOp44
 70
     1
102
RTVSPost2010Prop45
280
     0
102
RTVSPost2010PropOp45
 70
     1
102
RTVSPost2010Prop46
 90
       50
102
RTVSPost2010PropOp46
 70
     1
102
RTVSPost2010Prop47
 90
       50
102
RTVSPost2010PropOp47
 70
     1
102
RTVSPost2010Prop48
 90
       50
102
RTVSPost2010PropOp48
 70
     1
102
RTVSPost2010Prop49
280
     0
102
RTVSPost2010PropOp49
 70
     1
102
RTVSPost2010Prop50
 90
       50
102
RTVSPost2010PropOp50
 70
     1
102
RTVSPost2010Prop51ColorIndex
 90
      256
102
RTVSPost2010Prop51ColorRGB
 90
-16777216
102
RTVSPost2010PropOp51
 70
     0
102
RTVSPost2010Prop52
140
1.0
102
RTVSPost2010PropOp52
 70
     0
102
RTVSPost2010Prop53
 90
        2
102
RTVSPost2010PropOp53
 70
     1
102
RTVSPost2010Prop54
  1
strokes_ogs.tif
102
RTVSPost2010PropOp54
 70
     1
102
RTVSPost2010Prop55
280
     0
102
RTVSPost2010PropOp55
 70
     1
102
RTVSPost2010Prop56
140
1.0
102
RTVSPost2010PropOp56
 70
     1
102
RTVSPost2010Prop57
140
1.0
102
RTVSPost2010PropOp57
 70
     1
102
RTVSPropertyOp0
 70
     1
102
RTVSPropertyOp1
 70
     1
102
RTVSPropertyOp2
 70
     1
102
RTVSPropertyOp3
 70
     1
102
RTVSPropertyOp4
 70
     1
102
RTVSPropertyOp5
 70
     1
102
RTVSPropertyOp6
 70
     1
102
RTVSPropertyOp7
 70
     1
102
RTVSPropertyOp8
 70
     1
102
RTVSPropertyOp9
 70
     1
102
RTVSPropertyOp10
 70
     1
102
RTVSPropertyOp11
 70
     1
102
RTVSPropertyOp12
 70
     1
102
RTVSPropertyOp13
 70
     1
102
RTVSPropertyOp14
 70
     1
102
RTVSPropertyOp15
 70
     1
102
RTVSPropertyOp16
 70
     1
102
RTVSPropertyOp17
 70
     1
102
RTVSPropertyOp18
 70
     1
102
RTVSPropertyOp19
 70
     1
102
RTVSPropertyOp20
 70
     1
102
RTVSPropertyOp21
 70
     1
102
RTVSPropertyOp22
 70
     1
102
RTVSPropertyOp23
 70
     1
102
RTVSPropertyOp24
 70
     1
102
RTVSPropertyOp25
 70
     1
102
RTVSPropertyOp26
 70
     1
102
RTVSPropertyOp27
 70
     1
102
RTVSPropertyOp28
 70
     1
102
RTVSPropertyOp29
 70
     1
102
RTVSPropertyOp30
 70
     1
102
RTVSPropertyOp31
 70
     1
102
RTVSPropertyOp32
 70
     1
102
RTVSPropertyOp33
 70
     1
102
RTVSPropertyOp34
 70
     1
102
RTVSPropertyOp35
 70
     1
102
RTVSPropertyOp36
 70
     1
102
RTVSPropertyOp37
 70
     1
102
RTVSPropertyOp38
 70
     1
102
RTVSPropertyOp39
 70
     1
102
RTVSPropertyOp40
 70
     1
102
RTVSPropertyOp41
 70
     1
102
RTVSPropertyOp42
 70
     1
102
RTVSPropertyOp43
 70
     1
102
RTVSPropertyOp44
 70
     1
102
RTVSPropertyOp45
 70
     1
102
RTVSPropertyOp46
 70
     1
102
RTVSPropertyOp47
 70
     1
102
RTVSPropertyOp48
 70
     1
102
RTVSPropertyOp49
 70
     1
102
RTVSPropertyOp50
 70
     1
102
RTVSPropertyOp51
 70
     0
102
RTVSPropertyOp52
 70
     0
102
RTVSPropertyOp53
 70
     1
102
RTVSPropertyOp54
 70
     1
102
RTVSPropertyOp55
 70
     1
102
RTVSPropertyOp56
 70
     1
102
RTVSPropertyOp57
 70
     1
102
RTVSPropertyOp58
 70
     1
102
RTVSPropertyOp59
 70
     1
102
RTVSPropertyOp60
 70
     1
102
RTVSPropertyOp61
 70
     1
102
RTVSPropertyOp62
 70
     1
  0
XRECORD
  5
1822
102
{ACAD_REACTORS
330
1821
102
}
330
1821
100
AcDbXrecord
280
     1
102
RTVSPost2010Prop28
280
     0
102
RTVSPost2010PropOp28
 70
     1
102
RTVSPost2010Prop29
280
     1
102
RTVSPost2010PropOp29
 70
     1
102
RTVSPost2010Prop30
280
     1
102
RTVSPost2010PropOp30
 70
     1
102
RTVSPost2010Prop31
280
     0
102
RTVSPost2010PropOp31
 70
     1
102
RTVSPost2010Prop32
280
     0
102
RTVSPost2010PropOp32
 70
     1
102
RTVSPost2010Prop33
280
     0
102
RTVSPost2010PropOp33
 70
     1
102
RTVSPost2010Prop34
280
     0
102
RTVSPost2010PropOp34
 70
     1
102
RTVSPost2010Prop35
280
     0
102
RTVSPost2010PropOp35
 70
     1
102
RTVSPost2010Prop36
280
     0
102
RTVSPost2010PropOp36
 70
     1
102
RTVSPost2010Prop37
 90
       50
102
RTVSPost2010PropOp37
 70
     1
102
RTVSPost2010Prop38
140
0.0
102
RTVSPost2010PropOp38
 70
     1
102
RTVSPost2010Prop39
140
1.0
102
RTVSPost2010PropOp39
 70
     1
102
RTVSPost2010Prop40
 90
        0
102
RTVSPost2010PropOp40
 70
     1
102
RTVSPost2010Prop41ColorIndex
 90
       18
102
RTVSPost2010Prop41ColorRGB
 90
        0
102
RTVSPost2010PropOp41
 70
     1
102
RTVSPost2010Prop42
 90
       50
102
RTVSPost2010PropOp42
 70
     1
102
RTVSPost2010Prop43
 90
        3
102
RTVSPost2010PropOp43
 70
     1
102
RTVSPost2010Prop44ColorIndex
 90
        5
102
RTVSPost2010Prop44ColorRGB
 90
      255
102
RTVSPost2010PropOp44
 70
     1
102
RTVSPost2010Prop45
280
     0
102
RTVSPost2010PropOp45
 70
     1
102
RTVSPost2010Prop46
 90
       50
102
RTVSPost2010PropOp46
 70
     1
102
RTVSPost2010Prop47
 90
       50
102
RTVSPost2010PropOp47
 70
     1
102
RTVSPost2010Prop48
 90
       50
102
RTVSPost2010PropOp48
 70
     1
102
RTVSPost2010Prop49
280
     0
102
RTVSPost2010PropOp49
 70
     1
102
RTVSPost2010Prop50
 90
       50
102
RTVSPost2010PropOp50
 70
     1
102
RTVSPost2010Prop51ColorIndex
 90
      256
102
RTVSPost2010Prop51ColorRGB
 90
-16777216
102
RTVSPost2010PropOp51
 70
     0
102
RTVSPost2010Prop52
140
1.0
102
RTVSPost2010PropOp52
 70
     0
102
RTVSPost2010Prop53
 90
        2
102
RTVSPost2010PropOp53
 70
     1
102
RTVSPost2010Prop54
  1
strokes_ogs.tif
102
RTVSPost2010PropOp54
 70
     1
102
RTVSPost2010Prop55
280
     0
102
RTVSPost2010PropOp55
 70
     1
102
RTVSPost2010Prop56
140
1.0
102
RTVSPost2010PropOp56
 70
     1
102
RTVSPost2010Prop57
140
1.0
102
RTVSPost2010PropOp57
 70
     1
102
RTVSPropertyOp0
 70
     1
102
RTVSPropertyOp1
 70
     1
102
RTVSPropertyOp2
 70
     1
102
RTVSPropertyOp3
 70
     1
102
RTVSPropertyOp4
 70
     1
102
RTVSPropertyOp5
 70
     1
102
RTVSPropertyOp6
 70
     1
102
RTVSPropertyOp7
 70
     1
102
RTVSPropertyOp8
 70
     1
102
RTVSPropertyOp9
 70
     1
102
RTVSPropertyOp10
 70
     1
102
RTVSPropertyOp11
 70
     1
102
RTVSPropertyOp12
 70
     1
102
RTVSPropertyOp13
 70
     1
102
RTVSPropertyOp14
 70
     1
102
RTVSPropertyOp15
 70
     1
102
RTVSPropertyOp16
 70
     1
102
RTVSPropertyOp17
 70
     1
102
RTVSPropertyOp18
 70
     1
102
RTVSPropertyOp19
 70
     1
102
RTVSPropertyOp20
 70
     1
102
RTVSPropertyOp21
 70
     1
102
RTVSPropertyOp22
 70
     1
102
RTVSPropertyOp23
 70
     1
102
RTVSPropertyOp24
 70
     1
102
RTVSPropertyOp25
 70
     1
102
RTVSPropertyOp26
 70
     1
102
RTVSPropertyOp27
 70
     1
102
RTVSPropertyOp28
 70
     1
102
RTVSPropertyOp29
 70
     1
102
RTVSPropertyOp30
 70
     1
102
RTVSPropertyOp31
 70
     1
102
RTVSPropertyOp32
 70
     1
102
RTVSPropertyOp33
 70
     1
102
RTVSPropertyOp34
 70
     1
102
RTVSPropertyOp35
 70
     1
102
RTVSPropertyOp36
 70
     1
102
RTVSPropertyOp37
 70
     1
102
RTVSPropertyOp38
 70
     1
102
RTVSPropertyOp39
 70
     1
102
RTVSPropertyOp40
 70
     1
102
RTVSPropertyOp41
 70
     1
102
RTVSPropertyOp42
 70
     1
102
RTVSPropertyOp43
 70
     1
102
RTVSPropertyOp44
 70
     1
102
RTVSPropertyOp45
 70
     1
102
RTVSPropertyOp46
 70
     1
102
RTVSPropertyOp47
 70
     1
102
RTVSPropertyOp48
 70
     1
102
RTVSPropertyOp49
 70
     1
102
RTVSPropertyOp50
 70
     1
102
RTVSPropertyOp51
 70
     0
102
RTVSPropertyOp52
 70
     0
102
RTVSPropertyOp53
 70
     1
102
RTVSPropertyOp54
 70
     1
102
RTVSPropertyOp55
 70
     1
102
RTVSPropertyOp56
 70
     1
102
RTVSPropertyOp57
 70
     1
102
RTVSPropertyOp58
 70
     1
102
RTVSPropertyOp59
 70
     1
102
RTVSPropertyOp60
 70
     1
102
RTVSPropertyOp61
 70
     1
102
RTVSPropertyOp62
 70
     1
  0
XRECORD
  5
183E
102
{ACAD_REACTORS
330
183D
102
}
330
183D
100
AcDbXrecord
280
     1
102
RTVSPost2010Prop28
280
     0
102
RTVSPost2010PropOp28
 70
     1
102
RTVSPost2010Prop29
280
     1
102
RTVSPost2010PropOp29
 70
     1
102
RTVSPost2010Prop30
280
     1
102
RTVSPost2010PropOp30
 70
     1
102
RTVSPost2010Prop31
280
     0
102
RTVSPost2010PropOp31
 70
     1
102
RTVSPost2010Prop32
280
     0
102
RTVSPost2010PropOp32
 70
     1
102
RTVSPost2010Prop33
280
     0
102
RTVSPost2010PropOp33
 70
     1
102
RTVSPost2010Prop34
280
     0
102
RTVSPost2010PropOp34
 70
     1
102
RTVSPost2010Prop35
280
     0
102
RTVSPost2010PropOp35
 70
     1
102
RTVSPost2010Prop36
280
     0
102
RTVSPost2010PropOp36
 70
     1
102
RTVSPost2010Prop37
 90
       50
102
RTVSPost2010PropOp37
 70
     1
102
RTVSPost2010Prop38
140
0.0
102
RTVSPost2010PropOp38
 70
     1
102
RTVSPost2010Prop39
140
1.0
102
RTVSPost2010PropOp39
 70
     1
102
RTVSPost2010Prop40
 90
        0
102
RTVSPost2010PropOp40
 70
     1
102
RTVSPost2010Prop41ColorIndex
 90
       18
102
RTVSPost2010Prop41ColorRGB
 90
        0
102
RTVSPost2010PropOp41
 70
     1
102
RTVSPost2010Prop42
 90
       50
102
RTVSPost2010PropOp42
 70
     1
102
RTVSPost2010Prop43
 90
        3
102
RTVSPost2010PropOp43
 70
     1
102
RTVSPost2010Prop44ColorIndex
 90
        5
102
RTVSPost2010Prop44ColorRGB
 90
      255
102
RTVSPost2010PropOp44
 70
     1
102
RTVSPost2010Prop45
280
     0
102
RTVSPost2010PropOp45
 70
     1
102
RTVSPost2010Prop46
 90
       50
102
RTVSPost2010PropOp46
 70
     1
102
RTVSPost2010Prop47
 90
       50
102
RTVSPost2010PropOp47
 70
     1
102
RTVSPost2010Prop48
 90
       50
102
RTVSPost2010PropOp48
 70
     1
102
RTVSPost2010Prop49
280
     0
102
RTVSPost2010PropOp49
 70
     1
102
RTVSPost2010Prop50
 90
       50
102
RTVSPost2010PropOp50
 70
     1
102
RTVSPost2010Prop51ColorIndex
 90
      256
102
RTVSPost2010Prop51ColorRGB
 90
-16777216
102
RTVSPost2010PropOp51
 70
     0
102
RTVSPost2010Prop52
140
1.0
102
RTVSPost2010PropOp52
 70
     0
102
RTVSPost2010Prop53
 90
        2
102
RTVSPost2010PropOp53
 70
     1
102
RTVSPost2010Prop54
  1
strokes_ogs.tif
102
RTVSPost2010PropOp54
 70
     1
102
RTVSPost2010Prop55
280
     0
102
RTVSPost2010PropOp55
 70
     1
102
RTVSPost2010Prop56
140
1.0
102
RTVSPost2010PropOp56
 70
     1
102
RTVSPost2010Prop57
140
1.0
102
RTVSPost2010PropOp57
 70
     1
102
RTVSPropertyOp0
 70
     1
102
RTVSPropertyOp1
 70
     1
102
RTVSPropertyOp2
 70
     1
102
RTVSPropertyOp3
 70
     1
102
RTVSPropertyOp4
 70
     1
102
RTVSPropertyOp5
 70
     1
102
RTVSPropertyOp6
 70
     1
102
RTVSPropertyOp7
 70
     1
102
RTVSPropertyOp8
 70
     1
102
RTVSPropertyOp9
 70
     1
102
RTVSPropertyOp10
 70
     1
102
RTVSPropertyOp11
 70
     1
102
RTVSPropertyOp12
 70
     1
102
RTVSPropertyOp13
 70
     1
102
RTVSPropertyOp14
 70
     1
102
RTVSPropertyOp15
 70
     1
102
RTVSPropertyOp16
 70
     1
102
RTVSPropertyOp17
 70
     1
102
RTVSPropertyOp18
 70
     1
102
RTVSPropertyOp19
 70
     1
102
RTVSPropertyOp20
 70
     1
102
RTVSPropertyOp21
 70
     1
102
RTVSPropertyOp22
 70
     1
102
RTVSPropertyOp23
 70
     1
102
RTVSPropertyOp24
 70
     1
102
RTVSPropertyOp25
 70
     1
102
RTVSPropertyOp26
 70
     1
102
RTVSPropertyOp27
 70
     1
102
RTVSPropertyOp28
 70
     1
102
RTVSPropertyOp29
 70
     1
102
RTVSPropertyOp30
 70
     1
102
RTVSPropertyOp31
 70
     1
102
RTVSPropertyOp32
 70
     1
102
RTVSPropertyOp33
 70
     1
102
RTVSPropertyOp34
 70
     1
102
RTVSPropertyOp35
 70
     1
102
RTVSPropertyOp36
 70
     1
102
RTVSPropertyOp37
 70
     1
102
RTVSPropertyOp38
 70
     1
102
RTVSPropertyOp39
 70
     1
102
RTVSPropertyOp40
 70
     1
102
RTVSPropertyOp41
 70
     1
102
RTVSPropertyOp42
 70
     1
102
RTVSPropertyOp43
 70
     1
102
RTVSPropertyOp44
 70
     1
102
RTVSPropertyOp45
 70
     1
102
RTVSPropertyOp46
 70
     1
102
RTVSPropertyOp47
 70
     1
102
RTVSPropertyOp48
 70
     1
102
RTVSPropertyOp49
 70
     1
102
RTVSPropertyOp50
 70
     1
102
RTVSPropertyOp51
 70
     0
102
RTVSPropertyOp52
 70
     0
102
RTVSPropertyOp53
 70
     1
102
RTVSPropertyOp54
 70
     1
102
RTVSPropertyOp55
 70
     1
102
RTVSPropertyOp56
 70
     1
102
RTVSPropertyOp57
 70
     1
102
RTVSPropertyOp58
 70
     1
102
RTVSPropertyOp59
 70
     1
102
RTVSPropertyOp60
 70
     1
102
RTVSPropertyOp61
 70
     1
102
RTVSPropertyOp62
 70
     1
  0
XRECORD
  5
184A
102
{ACAD_REACTORS
330
1849
102
}
330
1849
100
AcDbXrecord
280
     1
102
RTVSPost2010Prop28
280
     0
102
RTVSPost2010PropOp28
 70
     1
102
RTVSPost2010Prop29
280
     1
102
RTVSPost2010PropOp29
 70
     1
102
RTVSPost2010Prop30
280
     1
102
RTVSPost2010PropOp30
 70
     1
102
RTVSPost2010Prop31
280
     0
102
RTVSPost2010PropOp31
 70
     1
102
RTVSPost2010Prop32
280
     0
102
RTVSPost2010PropOp32
 70
     1
102
RTVSPost2010Prop33
280
     0
102
RTVSPost2010PropOp33
 70
     1
102
RTVSPost2010Prop34
280
     0
102
RTVSPost2010PropOp34
 70
     1
102
RTVSPost2010Prop35
280
     0
102
RTVSPost2010PropOp35
 70
     1
102
RTVSPost2010Prop36
280
     0
102
RTVSPost2010PropOp36
 70
     1
102
RTVSPost2010Prop37
 90
       50
102
RTVSPost2010PropOp37
 70
     0
102
RTVSPost2010Prop38
140
0.0
102
RTVSPost2010PropOp38
 70
     0
102
RTVSPost2010Prop39
140
1.0
102
RTVSPost2010PropOp39
 70
     0
102
RTVSPost2010Prop40
 90
        0
102
RTVSPost2010PropOp40
 70
     0
102
RTVSPost2010Prop41ColorIndex
 90
       18
102
RTVSPost2010Prop41ColorRGB
 90
        0
102
RTVSPost2010PropOp41
 70
     0
102
RTVSPost2010Prop42
 90
       50
102
RTVSPost2010PropOp42
 70
     0
102
RTVSPost2010Prop43
 90
        3
102
RTVSPost2010PropOp43
 70
     0
102
RTVSPost2010Prop44ColorIndex
 90
        5
102
RTVSPost2010Prop44ColorRGB
 90
      255
102
RTVSPost2010PropOp44
 70
     0
102
RTVSPost2010Prop45
280
     0
102
RTVSPost2010PropOp45
 70
     1
102
RTVSPost2010Prop46
 90
       50
102
RTVSPost2010PropOp46
 70
     0
102
RTVSPost2010Prop47
 90
       50
102
RTVSPost2010PropOp47
 70
     0
102
RTVSPost2010Prop48
 90
       50
102
RTVSPost2010PropOp48
 70
     0
102
RTVSPost2010Prop49
280
     0
102
RTVSPost2010PropOp49
 70
     1
102
RTVSPost2010Prop50
 90
       50
102
RTVSPost2010PropOp50
 70
     0
102
RTVSPost2010Prop51ColorIndex
 90
      256
102
RTVSPost2010Prop51ColorRGB
 90
-16777216
102
RTVSPost2010PropOp51
 70
     0
102
RTVSPost2010Prop52
140
1.0
102
RTVSPost2010PropOp52
 70
     0
102
RTVSPost2010Prop53
 90
        2
102
RTVSPost2010PropOp53
 70
     0
102
RTVSPost2010Prop54
  1
strokes_ogs.tif
102
RTVSPost2010PropOp54
 70
     0
102
RTVSPost2010Prop55
280
     0
102
RTVSPost2010PropOp55
 70
     1
102
RTVSPost2010Prop56
140
1.0
102
RTVSPost2010PropOp56
 70
     0
102
RTVSPost2010Prop57
140
1.0
102
RTVSPost2010PropOp57
 70
     0
102
RTVSPropertyOp0
 70
     0
102
RTVSPropertyOp1
 70
     0
102
RTVSPropertyOp2
 70
     0
102
RTVSPropertyOp3
 70
     0
102
RTVSPropertyOp4
 70
     0
102
RTVSPropertyOp5
 70
     0
102
RTVSPropertyOp6
 70
     0
102
RTVSPropertyOp7
 70
     0
102
RTVSPropertyOp8
 70
     0
102
RTVSPropertyOp9
 70
     0
102
RTVSPropertyOp10
 70
     0
102
RTVSPropertyOp11
 70
     0
102
RTVSPropertyOp12
 70
     0
102
RTVSPropertyOp13
 70
     0
102
RTVSPropertyOp14
 70
     2
102
RTVSPropertyOp15
 70
     0
102
RTVSPropertyOp16
 70
     0
102
RTVSPropertyOp17
 70
     0
102
RTVSPropertyOp18
 70
     0
102
RTVSPropertyOp19
 70
     0
102
RTVSPropertyOp20
 70
     0
102
RTVSPropertyOp21
 70
     0
102
RTVSPropertyOp22
 70
     0
102
RTVSPropertyOp23
 70
     0
102
RTVSPropertyOp24
 70
     0
102
RTVSPropertyOp25
 70
     0
102
RTVSPropertyOp26
 70
     0
102
RTVSPropertyOp27
 70
     0
102
RTVSPropertyOp28
 70
     1
102
RTVSPropertyOp29
 70
     1
102
RTVSPropertyOp30
 70
     1
102
RTVSPropertyOp31
 70
     1
102
RTVSPropertyOp32
 70
     1
102
RTVSPropertyOp33
 70
     1
102
RTVSPropertyOp34
 70
     1
102
RTVSPropertyOp35
 70
     1
102
RTVSPropertyOp36
 70
     1
102
RTVSPropertyOp37
 70
     0
102
RTVSPropertyOp38
 70
     0
102
RTVSPropertyOp39
 70
     0
102
RTVSPropertyOp40
 70
     0
102
RTVSPropertyOp41
 70
     0
102
RTVSPropertyOp42
 70
     0
102
RTVSPropertyOp43
 70
     0
102
RTVSPropertyOp44
 70
     0
102
RTVSPropertyOp45
 70
     1
102
RTVSPropertyOp46
 70
     0
102
RTVSPropertyOp47
 70
     0
102
RTVSPropertyOp48
 70
     0
102
RTVSPropertyOp49
 70
     1
102
RTVSPropertyOp50
 70
     0
102
RTVSPropertyOp51
 70
     0
102
RTVSPropertyOp52
 70
     0
102
RTVSPropertyOp53
 70
     0
102
RTVSPropertyOp54
 70
     0
102
RTVSPropertyOp55
 70
     1
102
RTVSPropertyOp56
 70
     0
102
RTVSPropertyOp57
 70
     0
102
RTVSPropertyOp58
 70
     0
102
RTVSPropertyOp59
 70
     0
102
RTVSPropertyOp60
 70
     0
102
RTVSPropertyOp61
 70
     0
102
RTVSPropertyOp62
 70
     0
  0
XRECORD
  5
1836
102
{ACAD_REACTORS
330
1835
102
}
330
1835
100
AcDbXrecord
280
     1
102
RTVSPost2010Prop28
280
     0
102
RTVSPost2010PropOp28
 70
     1
102
RTVSPost2010Prop29
280
     1
102
RTVSPost2010PropOp29
 70
     1
102
RTVSPost2010Prop30
280
     1
102
RTVSPost2010PropOp30
 70
     1
102
RTVSPost2010Prop31
280
     0
102
RTVSPost2010PropOp31
 70
     1
102
RTVSPost2010Prop32
280
     0
102
RTVSPost2010PropOp32
 70
     1
102
RTVSPost2010Prop33
280
     0
102
RTVSPost2010PropOp33
 70
     1
102
RTVSPost2010Prop34
280
     0
102
RTVSPost2010PropOp34
 70
     1
102
RTVSPost2010Prop35
280
     0
102
RTVSPost2010PropOp35
 70
     1
102
RTVSPost2010Prop36
280
     0
102
RTVSPost2010PropOp36
 70
     1
102
RTVSPost2010Prop37
 90
       50
102
RTVSPost2010PropOp37
 70
     1
102
RTVSPost2010Prop38
140
0.0
102
RTVSPost2010PropOp38
 70
     1
102
RTVSPost2010Prop39
140
1.0
102
RTVSPost2010PropOp39
 70
     1
102
RTVSPost2010Prop40
 90
        0
102
RTVSPost2010PropOp40
 70
     1
102
RTVSPost2010Prop41ColorIndex
 90
       18
102
RTVSPost2010Prop41ColorRGB
 90
        0
102
RTVSPost2010PropOp41
 70
     1
102
RTVSPost2010Prop42
 90
       50
102
RTVSPost2010PropOp42
 70
     1
102
RTVSPost2010Prop43
 90
        3
102
RTVSPost2010PropOp43
 70
     1
102
RTVSPost2010Prop44ColorIndex
 90
        5
102
RTVSPost2010Prop44ColorRGB
 90
      255
102
RTVSPost2010PropOp44
 70
     1
102
RTVSPost2010Prop45
280
     0
102
RTVSPost2010PropOp45
 70
     1
102
RTVSPost2010Prop46
 90
       50
102
RTVSPost2010PropOp46
 70
     1
102
RTVSPost2010Prop47
 90
       50
102
RTVSPost2010PropOp47
 70
     1
102
RTVSPost2010Prop48
 90
       50
102
RTVSPost2010PropOp48
 70
     1
102
RTVSPost2010Prop49
280
     0
102
RTVSPost2010PropOp49
 70
     1
102
RTVSPost2010Prop50
 90
       50
102
RTVSPost2010PropOp50
 70
     1
102
RTVSPost2010Prop51ColorIndex
 90
      256
102
RTVSPost2010Prop51ColorRGB
 90
-16777216
102
RTVSPost2010PropOp51
 70
     0
102
RTVSPost2010Prop52
140
1.0
102
RTVSPost2010PropOp52
 70
     0
102
RTVSPost2010Prop53
 90
        2
102
RTVSPost2010PropOp53
 70
     1
102
RTVSPost2010Prop54
  1
strokes_ogs.tif
102
RTVSPost2010PropOp54
 70
     1
102
RTVSPost2010Prop55
280
     0
102
RTVSPost2010PropOp55
 70
     1
102
RTVSPost2010Prop56
140
1.0
102
RTVSPost2010PropOp56
 70
     1
102
RTVSPost2010Prop57
140
1.0
102
RTVSPost2010PropOp57
 70
     1
102
RTVSPropertyOp0
 70
     1
102
RTVSPropertyOp1
 70
     1
102
RTVSPropertyOp2
 70
     1
102
RTVSPropertyOp3
 70
     1
102
RTVSPropertyOp4
 70
     1
102
RTVSPropertyOp5
 70
     1
102
RTVSPropertyOp6
 70
     1
102
RTVSPropertyOp7
 70
     1
102
RTVSPropertyOp8
 70
     1
102
RTVSPropertyOp9
 70
     1
102
RTVSPropertyOp10
 70
     1
102
RTVSPropertyOp11
 70
     1
102
RTVSPropertyOp12
 70
     1
102
RTVSPropertyOp13
 70
     1
102
RTVSPropertyOp14
 70
     1
102
RTVSPropertyOp15
 70
     1
102
RTVSPropertyOp16
 70
     1
102
RTVSPropertyOp17
 70
     1
102
RTVSPropertyOp18
 70
     1
102
RTVSPropertyOp19
 70
     1
102
RTVSPropertyOp20
 70
     1
102
RTVSPropertyOp21
 70
     1
102
RTVSPropertyOp22
 70
     1
102
RTVSPropertyOp23
 70
     1
102
RTVSPropertyOp24
 70
     1
102
RTVSPropertyOp25
 70
     1
102
RTVSPropertyOp26
 70
     1
102
RTVSPropertyOp27
 70
     1
102
RTVSPropertyOp28
 70
     1
102
RTVSPropertyOp29
 70
     1
102
RTVSPropertyOp30
 70
     1
102
RTVSPropertyOp31
 70
     1
102
RTVSPropertyOp32
 70
     1
102
RTVSPropertyOp33
 70
     1
102
RTVSPropertyOp34
 70
     1
102
RTVSPropertyOp35
 70
     1
102
RTVSPropertyOp36
 70
     1
102
RTVSPropertyOp37
 70
     1
102
RTVSPropertyOp38
 70
     1
102
RTVSPropertyOp39
 70
     1
102
RTVSPropertyOp40
 70
     1
102
RTVSPropertyOp41
 70
     1
102
RTVSPropertyOp42
 70
     1
102
RTVSPropertyOp43
 70
     1
102
RTVSPropertyOp44
 70
     1
102
RTVSPropertyOp45
 70
     1
102
RTVSPropertyOp46
 70
     1
102
RTVSPropertyOp47
 70
     1
102
RTVSPropertyOp48
 70
     1
102
RTVSPropertyOp49
 70
     1
102
RTVSPropertyOp50
 70
     1
102
RTVSPropertyOp51
 70
     0
102
RTVSPropertyOp52
 70
     0
102
RTVSPropertyOp53
 70
     1
102
RTVSPropertyOp54
 70
     1
102
RTVSPropertyOp55
 70
     1
102
RTVSPropertyOp56
 70
     1
102
RTVSPropertyOp57
 70
     1
102
RTVSPropertyOp58
 70
     1
102
RTVSPropertyOp59
 70
     1
102
RTVSPropertyOp60
 70
     1
102
RTVSPropertyOp61
 70
     1
102
RTVSPropertyOp62
 70
     1
  0
XRECORD
  5
184C
102
{ACAD_REACTORS
330
184B
102
}
330
184B
100
AcDbXrecord
280
     1
102
RTVSPost2010Prop28
280
     0
102
RTVSPost2010PropOp28
 70
     1
102
RTVSPost2010Prop29
280
     1
102
RTVSPost2010PropOp29
 70
     1
102
RTVSPost2010Prop30
280
     1
102
RTVSPost2010PropOp30
 70
     1
102
RTVSPost2010Prop31
280
     0
102
RTVSPost2010PropOp31
 70
     1
102
RTVSPost2010Prop32
280
     0
102
RTVSPost2010PropOp32
 70
     1
102
RTVSPost2010Prop33
280
     0
102
RTVSPost2010PropOp33
 70
     1
102
RTVSPost2010Prop34
280
     0
102
RTVSPost2010PropOp34
 70
     1
102
RTVSPost2010Prop35
280
     0
102
RTVSPost2010PropOp35
 70
     1
102
RTVSPost2010Prop36
280
     0
102
RTVSPost2010PropOp36
 70
     1
102
RTVSPost2010Prop37
 90
       50
102
RTVSPost2010PropOp37
 70
     0
102
RTVSPost2010Prop38
140
0.0
102
RTVSPost2010PropOp38
 70
     0
102
RTVSPost2010Prop39
140
1.0
102
RTVSPost2010PropOp39
 70
     0
102
RTVSPost2010Prop40
 90
        0
102
RTVSPost2010PropOp40
 70
     0
102
RTVSPost2010Prop41ColorIndex
 90
       18
102
RTVSPost2010Prop41ColorRGB
 90
        0
102
RTVSPost2010PropOp41
 70
     0
102
RTVSPost2010Prop42
 90
       50
102
RTVSPost2010PropOp42
 70
     0
102
RTVSPost2010Prop43
 90
        3
102
RTVSPost2010PropOp43
 70
     0
102
RTVSPost2010Prop44ColorIndex
 90
        5
102
RTVSPost2010Prop44ColorRGB
 90
      255
102
RTVSPost2010PropOp44
 70
     0
102
RTVSPost2010Prop45
280
     0
102
RTVSPost2010PropOp45
 70
     1
102
RTVSPost2010Prop46
 90
       50
102
RTVSPost2010PropOp46
 70
     0
102
RTVSPost2010Prop47
 90
       50
102
RTVSPost2010PropOp47
 70
     0
102
RTVSPost2010Prop48
 90
       50
102
RTVSPost2010PropOp48
 70
     0
102
RTVSPost2010Prop49
280
     0
102
RTVSPost2010PropOp49
 70
     1
102
RTVSPost2010Prop50
 90
       50
102
RTVSPost2010PropOp50
 70
     0
102
RTVSPost2010Prop51ColorIndex
 90
      256
102
RTVSPost2010Prop51ColorRGB
 90
-16777216
102
RTVSPost2010PropOp51
 70
     0
102
RTVSPost2010Prop52
140
1.0
102
RTVSPost2010PropOp52
 70
     0
102
RTVSPost2010Prop53
 90
        2
102
RTVSPost2010PropOp53
 70
     0
102
RTVSPost2010Prop54
  1
strokes_ogs.tif
102
RTVSPost2010PropOp54
 70
     0
102
RTVSPost2010Prop55
280
     0
102
RTVSPost2010PropOp55
 70
     1
102
RTVSPost2010Prop56
140
1.0
102
RTVSPost2010PropOp56
 70
     0
102
RTVSPost2010Prop57
140
1.0
102
RTVSPost2010PropOp57
 70
     0
102
RTVSPropertyOp0
 70
     0
102
RTVSPropertyOp1
 70
     0
102
RTVSPropertyOp2
 70
     0
102
RTVSPropertyOp3
 70
     0
102
RTVSPropertyOp4
 70
     0
102
RTVSPropertyOp5
 70
     0
102
RTVSPropertyOp6
 70
     0
102
RTVSPropertyOp7
 70
     0
102
RTVSPropertyOp8
 70
     0
102
RTVSPropertyOp9
 70
     0
102
RTVSPropertyOp10
 70
     0
102
RTVSPropertyOp11
 70
     0
102
RTVSPropertyOp12
 70
     0
102
RTVSPropertyOp13
 70
     0
102
RTVSPropertyOp14
 70
     2
102
RTVSPropertyOp15
 70
     0
102
RTVSPropertyOp16
 70
     0
102
RTVSPropertyOp17
 70
     0
102
RTVSPropertyOp18
 70
     0
102
RTVSPropertyOp19
 70
     0
102
RTVSPropertyOp20
 70
     0
102
RTVSPropertyOp21
 70
     0
102
RTVSPropertyOp22
 70
     0
102
RTVSPropertyOp23
 70
     0
102
RTVSPropertyOp24
 70
     0
102
RTVSPropertyOp25
 70
     0
102
RTVSPropertyOp26
 70
     0
102
RTVSPropertyOp27
 70
     0
102
RTVSPropertyOp28
 70
     1
102
RTVSPropertyOp29
 70
     1
102
RTVSPropertyOp30
 70
     1
102
RTVSPropertyOp31
 70
     1
102
RTVSPropertyOp32
 70
     1
102
RTVSPropertyOp33
 70
     1
102
RTVSPropertyOp34
 70
     1
102
RTVSPropertyOp35
 70
     1
102
RTVSPropertyOp36
 70
     1
102
RTVSPropertyOp37
 70
     0
102
RTVSPropertyOp38
 70
     0
102
RTVSPropertyOp39
 70
     0
102
RTVSPropertyOp40
 70
     0
102
RTVSPropertyOp41
 70
     0
102
RTVSPropertyOp42
 70
     0
102
RTVSPropertyOp43
 70
     0
102
RTVSPropertyOp44
 70
     0
102
RTVSPropertyOp45
 70
     1
102
RTVSPropertyOp46
 70
     0
102
RTVSPropertyOp47
 70
     0
102
RTVSPropertyOp48
 70
     0
102
RTVSPropertyOp49
 70
     1
102
RTVSPropertyOp50
 70
     0
102
RTVSPropertyOp51
 70
     0
102
RTVSPropertyOp52
 70
     0
102
RTVSPropertyOp53
 70
     0
102
RTVSPropertyOp54
 70
     0
102
RTVSPropertyOp55
 70
     1
102
RTVSPropertyOp56
 70
     0
102
RTVSPropertyOp57
 70
     0
102
RTVSPropertyOp58
 70
     0
102
RTVSPropertyOp59
 70
     0
102
RTVSPropertyOp60
 70
     0
102
RTVSPropertyOp61
 70
     0
102
RTVSPropertyOp62
 70
     0
  0
XRECORD
  5
182E
102
{ACAD_REACTORS
330
182D
102
}
330
182D
100
AcDbXrecord
280
     1
102
RTVSPost2010Prop28
280
     0
102
RTVSPost2010PropOp28
 70
     1
102
RTVSPost2010Prop29
280
     1
102
RTVSPost2010PropOp29
 70
     1
102
RTVSPost2010Prop30
280
     1
102
RTVSPost2010PropOp30
 70
     1
102
RTVSPost2010Prop31
280
     0
102
RTVSPost2010PropOp31
 70
     1
102
RTVSPost2010Prop32
280
     0
102
RTVSPost2010PropOp32
 70
     1
102
RTVSPost2010Prop33
280
     0
102
RTVSPost2010PropOp33
 70
     1
102
RTVSPost2010Prop34
280
     0
102
RTVSPost2010PropOp34
 70
     1
102
RTVSPost2010Prop35
280
     0
102
RTVSPost2010PropOp35
 70
     1
102
RTVSPost2010Prop36
280
     0
102
RTVSPost2010PropOp36
 70
     1
102
RTVSPost2010Prop37
 90
       50
102
RTVSPost2010PropOp37
 70
     1
102
RTVSPost2010Prop38
140
0.0
102
RTVSPost2010PropOp38
 70
     1
102
RTVSPost2010Prop39
140
1.0
102
RTVSPost2010PropOp39
 70
     1
102
RTVSPost2010Prop40
 90
        0
102
RTVSPost2010PropOp40
 70
     1
102
RTVSPost2010Prop41ColorIndex
 90
       18
102
RTVSPost2010Prop41ColorRGB
 90
        0
102
RTVSPost2010PropOp41
 70
     1
102
RTVSPost2010Prop42
 90
       50
102
RTVSPost2010PropOp42
 70
     1
102
RTVSPost2010Prop43
 90
        3
102
RTVSPost2010PropOp43
 70
     1
102
RTVSPost2010Prop44ColorIndex
 90
        5
102
RTVSPost2010Prop44ColorRGB
 90
      255
102
RTVSPost2010PropOp44
 70
     1
102
RTVSPost2010Prop45
280
     0
102
RTVSPost2010PropOp45
 70
     1
102
RTVSPost2010Prop46
 90
       50
102
RTVSPost2010PropOp46
 70
     1
102
RTVSPost2010Prop47
 90
       50
102
RTVSPost2010PropOp47
 70
     1
102
RTVSPost2010Prop48
 90
       50
102
RTVSPost2010PropOp48
 70
     1
102
RTVSPost2010Prop49
280
     0
102
RTVSPost2010PropOp49
 70
     1
102
RTVSPost2010Prop50
 90
       50
102
RTVSPost2010PropOp50
 70
     1
102
RTVSPost2010Prop51ColorIndex
 90
      256
102
RTVSPost2010Prop51ColorRGB
 90
-16777216
102
RTVSPost2010PropOp51
 70
     0
102
RTVSPost2010Prop52
140
1.0
102
RTVSPost2010PropOp52
 70
     0
102
RTVSPost2010Prop53
 90
        2
102
RTVSPost2010PropOp53
 70
     1
102
RTVSPost2010Prop54
  1
strokes_ogs.tif
102
RTVSPost2010PropOp54
 70
     1
102
RTVSPost2010Prop55
280
     0
102
RTVSPost2010PropOp55
 70
     1
102
RTVSPost2010Prop56
140
1.0
102
RTVSPost2010PropOp56
 70
     1
102
RTVSPost2010Prop57
140
1.0
102
RTVSPost2010PropOp57
 70
     1
102
RTVSPropertyOp0
 70
     1
102
RTVSPropertyOp1
 70
     1
102
RTVSPropertyOp2
 70
     1
102
RTVSPropertyOp3
 70
     1
102
RTVSPropertyOp4
 70
     1
102
RTVSPropertyOp5
 70
     1
102
RTVSPropertyOp6
 70
     1
102
RTVSPropertyOp7
 70
     1
102
RTVSPropertyOp8
 70
     1
102
RTVSPropertyOp9
 70
     1
102
RTVSPropertyOp10
 70
     1
102
RTVSPropertyOp11
 70
     1
102
RTVSPropertyOp12
 70
     1
102
RTVSPropertyOp13
 70
     1
102
RTVSPropertyOp14
 70
     1
102
RTVSPropertyOp15
 70
     1
102
RTVSPropertyOp16
 70
     1
102
RTVSPropertyOp17
 70
     1
102
RTVSPropertyOp18
 70
     1
102
RTVSPropertyOp19
 70
     1
102
RTVSPropertyOp20
 70
     1
102
RTVSPropertyOp21
 70
     1
102
RTVSPropertyOp22
 70
     1
102
RTVSPropertyOp23
 70
     1
102
RTVSPropertyOp24
 70
     1
102
RTVSPropertyOp25
 70
     1
102
RTVSPropertyOp26
 70
     1
102
RTVSPropertyOp27
 70
     1
102
RTVSPropertyOp28
 70
     1
102
RTVSPropertyOp29
 70
     1
102
RTVSPropertyOp30
 70
     1
102
RTVSPropertyOp31
 70
     1
102
RTVSPropertyOp32
 70
     1
102
RTVSPropertyOp33
 70
     1
102
RTVSPropertyOp34
 70
     1
102
RTVSPropertyOp35
 70
     1
102
RTVSPropertyOp36
 70
     1
102
RTVSPropertyOp37
 70
     1
102
RTVSPropertyOp38
 70
     1
102
RTVSPropertyOp39
 70
     1
102
RTVSPropertyOp40
 70
     1
102
RTVSPropertyOp41
 70
     1
102
RTVSPropertyOp42
 70
     1
102
RTVSPropertyOp43
 70
     1
102
RTVSPropertyOp44
 70
     1
102
RTVSPropertyOp45
 70
     1
102
RTVSPropertyOp46
 70
     1
102
RTVSPropertyOp47
 70
     1
102
RTVSPropertyOp48
 70
     1
102
RTVSPropertyOp49
 70
     1
102
RTVSPropertyOp50
 70
     1
102
RTVSPropertyOp51
 70
     0
102
RTVSPropertyOp52
 70
     0
102
RTVSPropertyOp53
 70
     1
102
RTVSPropertyOp54
 70
     1
102
RTVSPropertyOp55
 70
     1
102
RTVSPropertyOp56
 70
     1
102
RTVSPropertyOp57
 70
     1
102
RTVSPropertyOp58
 70
     1
102
RTVSPropertyOp59
 70
     1
102
RTVSPropertyOp60
 70
     1
102
RTVSPropertyOp61
 70
     1
102
RTVSPropertyOp62
 70
     1
  0
XRECORD
  5
1848
102
{ACAD_REACTORS
330
1847
102
}
330
1847
100
AcDbXrecord
280
     1
102
RTVSPost2010Prop28
280
     0
102
RTVSPost2010PropOp28
 70
     1
102
RTVSPost2010Prop29
280
     1
102
RTVSPost2010PropOp29
 70
     1
102
RTVSPost2010Prop30
280
     1
102
RTVSPost2010PropOp30
 70
     1
102
RTVSPost2010Prop31
280
     0
102
RTVSPost2010PropOp31
 70
     1
102
RTVSPost2010Prop32
280
     0
102
RTVSPost2010PropOp32
 70
     1
102
RTVSPost2010Prop33
280
     0
102
RTVSPost2010PropOp33
 70
     1
102
RTVSPost2010Prop34
280
     0
102
RTVSPost2010PropOp34
 70
     1
102
RTVSPost2010Prop35
280
     0
102
RTVSPost2010PropOp35
 70
     1
102
RTVSPost2010Prop36
280
     0
102
RTVSPost2010PropOp36
 70
     1
102
RTVSPost2010Prop37
 90
       50
102
RTVSPost2010PropOp37
 70
     1
102
RTVSPost2010Prop38
140
0.0
102
RTVSPost2010PropOp38
 70
     1
102
RTVSPost2010Prop39
140
1.0
102
RTVSPost2010PropOp39
 70
     1
102
RTVSPost2010Prop40
 90
        0
102
RTVSPost2010PropOp40
 70
     1
102
RTVSPost2010Prop41ColorIndex
 90
       18
102
RTVSPost2010Prop41ColorRGB
 90
        0
102
RTVSPost2010PropOp41
 70
     1
102
RTVSPost2010Prop42
 90
       50
102
RTVSPost2010PropOp42
 70
     1
102
RTVSPost2010Prop43
 90
        3
102
RTVSPost2010PropOp43
 70
     1
102
RTVSPost2010Prop44ColorIndex
 90
        5
102
RTVSPost2010Prop44ColorRGB
 90
      255
102
RTVSPost2010PropOp44
 70
     1
102
RTVSPost2010Prop45
280
     0
102
RTVSPost2010PropOp45
 70
     1
102
RTVSPost2010Prop46
 90
       50
102
RTVSPost2010PropOp46
 70
     1
102
RTVSPost2010Prop47
 90
       50
102
RTVSPost2010PropOp47
 70
     1
102
RTVSPost2010Prop48
 90
       50
102
RTVSPost2010PropOp48
 70
     1
102
RTVSPost2010Prop49
280
     0
102
RTVSPost2010PropOp49
 70
     1
102
RTVSPost2010Prop50
 90
       50
102
RTVSPost2010PropOp50
 70
     1
102
RTVSPost2010Prop51ColorIndex
 90
      256
102
RTVSPost2010Prop51ColorRGB
 90
-16777216
102
RTVSPost2010PropOp51
 70
     0
102
RTVSPost2010Prop52
140
1.0
102
RTVSPost2010PropOp52
 70
     0
102
RTVSPost2010Prop53
 90
        2
102
RTVSPost2010PropOp53
 70
     1
102
RTVSPost2010Prop54
  1
strokes_ogs.tif
102
RTVSPost2010PropOp54
 70
     1
102
RTVSPost2010Prop55
280
     0
102
RTVSPost2010PropOp55
 70
     1
102
RTVSPost2010Prop56
140
1.0
102
RTVSPost2010PropOp56
 70
     1
102
RTVSPost2010Prop57
140
1.0
102
RTVSPost2010PropOp57
 70
     1
102
RTVSPropertyOp0
 70
     1
102
RTVSPropertyOp1
 70
     1
102
RTVSPropertyOp2
 70
     1
102
RTVSPropertyOp3
 70
     1
102
RTVSPropertyOp4
 70
     1
102
RTVSPropertyOp5
 70
     1
102
RTVSPropertyOp6
 70
     1
102
RTVSPropertyOp7
 70
     1
102
RTVSPropertyOp8
 70
     1
102
RTVSPropertyOp9
 70
     1
102
RTVSPropertyOp10
 70
     1
102
RTVSPropertyOp11
 70
     1
102
RTVSPropertyOp12
 70
     1
102
RTVSPropertyOp13
 70
     1
102
RTVSPropertyOp14
 70
     1
102
RTVSPropertyOp15
 70
     1
102
RTVSPropertyOp16
 70
     1
102
RTVSPropertyOp17
 70
     1
102
RTVSPropertyOp18
 70
     1
102
RTVSPropertyOp19
 70
     1
102
RTVSPropertyOp20
 70
     1
102
RTVSPropertyOp21
 70
     1
102
RTVSPropertyOp22
 70
     1
102
RTVSPropertyOp23
 70
     1
102
RTVSPropertyOp24
 70
     1
102
RTVSPropertyOp25
 70
     1
102
RTVSPropertyOp26
 70
     1
102
RTVSPropertyOp27
 70
     1
102
RTVSPropertyOp28
 70
     1
102
RTVSPropertyOp29
 70
     1
102
RTVSPropertyOp30
 70
     1
102
RTVSPropertyOp31
 70
     1
102
RTVSPropertyOp32
 70
     1
102
RTVSPropertyOp33
 70
     1
102
RTVSPropertyOp34
 70
     1
102
RTVSPropertyOp35
 70
     1
102
RTVSPropertyOp36
 70
     1
102
RTVSPropertyOp37
 70
     1
102
RTVSPropertyOp38
 70
     1
102
RTVSPropertyOp39
 70
     1
102
RTVSPropertyOp40
 70
     1
102
RTVSPropertyOp41
 70
     1
102
RTVSPropertyOp42
 70
     1
102
RTVSPropertyOp43
 70
     1
102
RTVSPropertyOp44
 70
     1
102
RTVSPropertyOp45
 70
     1
102
RTVSPropertyOp46
 70
     1
102
RTVSPropertyOp47
 70
     1
102
RTVSPropertyOp48
 70
     1
102
RTVSPropertyOp49
 70
     1
102
RTVSPropertyOp50
 70
     1
102
RTVSPropertyOp51
 70
     0
102
RTVSPropertyOp52
 70
     0
102
RTVSPropertyOp53
 70
     1
102
RTVSPropertyOp54
 70
     1
102
RTVSPropertyOp55
 70
     1
102
RTVSPropertyOp56
 70
     1
102
RTVSPropertyOp57
 70
     1
102
RTVSPropertyOp58
 70
     1
102
RTVSPropertyOp59
 70
     1
102
RTVSPropertyOp60
 70
     1
102
RTVSPropertyOp61
 70
     1
102
RTVSPropertyOp62
 70
     1
  0
XRECORD
  5
1846
102
{ACAD_REACTORS
330
1845
102
}
330
1845
100
AcDbXrecord
280
     1
102
RTVSPost2010Prop28
280
     0
102
RTVSPost2010PropOp28
 70
     1
102
RTVSPost2010Prop29
280
     1
102
RTVSPost2010PropOp29
 70
     1
102
RTVSPost2010Prop30
280
     1
102
RTVSPost2010PropOp30
 70
     1
102
RTVSPost2010Prop31
280
     0
102
RTVSPost2010PropOp31
 70
     1
102
RTVSPost2010Prop32
280
     0
102
RTVSPost2010PropOp32
 70
     1
102
RTVSPost2010Prop33
280
     0
102
RTVSPost2010PropOp33
 70
     1
102
RTVSPost2010Prop34
280
     0
102
RTVSPost2010PropOp34
 70
     1
102
RTVSPost2010Prop35
280
     0
102
RTVSPost2010PropOp35
 70
     1
102
RTVSPost2010Prop36
280
     0
102
RTVSPost2010PropOp36
 70
     1
102
RTVSPost2010Prop37
 90
       50
102
RTVSPost2010PropOp37
 70
     1
102
RTVSPost2010Prop38
140
0.0
102
RTVSPost2010PropOp38
 70
     1
102
RTVSPost2010Prop39
140
1.0
102
RTVSPost2010PropOp39
 70
     1
102
RTVSPost2010Prop40
 90
        0
102
RTVSPost2010PropOp40
 70
     1
102
RTVSPost2010Prop41ColorIndex
 90
       18
102
RTVSPost2010Prop41ColorRGB
 90
        0
102
RTVSPost2010PropOp41
 70
     1
102
RTVSPost2010Prop42
 90
       50
102
RTVSPost2010PropOp42
 70
     1
102
RTVSPost2010Prop43
 90
        3
102
RTVSPost2010PropOp43
 70
     1
102
RTVSPost2010Prop44ColorIndex
 90
        5
102
RTVSPost2010Prop44ColorRGB
 90
      255
102
RTVSPost2010PropOp44
 70
     1
102
RTVSPost2010Prop45
280
     0
102
RTVSPost2010PropOp45
 70
     1
102
RTVSPost2010Prop46
 90
       50
102
RTVSPost2010PropOp46
 70
     1
102
RTVSPost2010Prop47
 90
       50
102
RTVSPost2010PropOp47
 70
     1
102
RTVSPost2010Prop48
 90
       50
102
RTVSPost2010PropOp48
 70
     1
102
RTVSPost2010Prop49
280
     0
102
RTVSPost2010PropOp49
 70
     1
102
RTVSPost2010Prop50
 90
       50
102
RTVSPost2010PropOp50
 70
     1
102
RTVSPost2010Prop51ColorIndex
 90
      256
102
RTVSPost2010Prop51ColorRGB
 90
-16777216
102
RTVSPost2010PropOp51
 70
     0
102
RTVSPost2010Prop52
140
1.0
102
RTVSPost2010PropOp52
 70
     0
102
RTVSPost2010Prop53
 90
        2
102
RTVSPost2010PropOp53
 70
     1
102
RTVSPost2010Prop54
  1
strokes_ogs.tif
102
RTVSPost2010PropOp54
 70
     1
102
RTVSPost2010Prop55
280
     0
102
RTVSPost2010PropOp55
 70
     1
102
RTVSPost2010Prop56
140
1.0
102
RTVSPost2010PropOp56
 70
     1
102
RTVSPost2010Prop57
140
1.0
102
RTVSPost2010PropOp57
 70
     1
102
RTVSPropertyOp0
 70
     1
102
RTVSPropertyOp1
 70
     1
102
RTVSPropertyOp2
 70
     1
102
RTVSPropertyOp3
 70
     1
102
RTVSPropertyOp4
 70
     1
102
RTVSPropertyOp5
 70
     1
102
RTVSPropertyOp6
 70
     1
102
RTVSPropertyOp7
 70
     1
102
RTVSPropertyOp8
 70
     1
102
RTVSPropertyOp9
 70
     1
102
RTVSPropertyOp10
 70
     1
102
RTVSPropertyOp11
 70
     1
102
RTVSPropertyOp12
 70
     1
102
RTVSPropertyOp13
 70
     1
102
RTVSPropertyOp14
 70
     1
102
RTVSPropertyOp15
 70
     1
102
RTVSPropertyOp16
 70
     1
102
RTVSPropertyOp17
 70
     1
102
RTVSPropertyOp18
 70
     1
102
RTVSPropertyOp19
 70
     1
102
RTVSPropertyOp20
 70
     1
102
RTVSPropertyOp21
 70
     1
102
RTVSPropertyOp22
 70
     1
102
RTVSPropertyOp23
 70
     1
102
RTVSPropertyOp24
 70
     1
102
RTVSPropertyOp25
 70
     1
102
RTVSPropertyOp26
 70
     1
102
RTVSPropertyOp27
 70
     1
102
RTVSPropertyOp28
 70
     1
102
RTVSPropertyOp29
 70
     1
102
RTVSPropertyOp30
 70
     1
102
RTVSPropertyOp31
 70
     1
102
RTVSPropertyOp32
 70
     1
102
RTVSPropertyOp33
 70
     1
102
RTVSPropertyOp34
 70
     1
102
RTVSPropertyOp35
 70
     1
102
RTVSPropertyOp36
 70
     1
102
RTVSPropertyOp37
 70
     1
102
RTVSPropertyOp38
 70
     1
102
RTVSPropertyOp39
 70
     1
102
RTVSPropertyOp40
 70
     1
102
RTVSPropertyOp41
 70
     1
102
RTVSPropertyOp42
 70
     1
102
RTVSPropertyOp43
 70
     1
102
RTVSPropertyOp44
 70
     1
102
RTVSPropertyOp45
 70
     1
102
RTVSPropertyOp46
 70
     1
102
RTVSPropertyOp47
 70
     1
102
RTVSPropertyOp48
 70
     1
102
RTVSPropertyOp49
 70
     1
102
RTVSPropertyOp50
 70
     1
102
RTVSPropertyOp51
 70
     0
102
RTVSPropertyOp52
 70
     0
102
RTVSPropertyOp53
 70
     1
102
RTVSPropertyOp54
 70
     1
102
RTVSPropertyOp55
 70
     1
102
RTVSPropertyOp56
 70
     1
102
RTVSPropertyOp57
 70
     1
102
RTVSPropertyOp58
 70
     1
102
RTVSPropertyOp59
 70
     1
102
RTVSPropertyOp60
 70
     1
102
RTVSPropertyOp61
 70
     1
102
RTVSPropertyOp62
 70
     1
  0
XRECORD
  5
1840
102
{ACAD_REACTORS
330
183F
102
}
330
183F
100
AcDbXrecord
280
     1
102
RTVSPost2010Prop28
280
     0
102
RTVSPost2010PropOp28
 70
     1
102
RTVSPost2010Prop29
280
     1
102
RTVSPost2010PropOp29
 70
     1
102
RTVSPost2010Prop30
280
     1
102
RTVSPost2010PropOp30
 70
     1
102
RTVSPost2010Prop31
280
     0
102
RTVSPost2010PropOp31
 70
     1
102
RTVSPost2010Prop32
280
     0
102
RTVSPost2010PropOp32
 70
     1
102
RTVSPost2010Prop33
280
     0
102
RTVSPost2010PropOp33
 70
     1
102
RTVSPost2010Prop34
280
     0
102
RTVSPost2010PropOp34
 70
     1
102
RTVSPost2010Prop35
280
     0
102
RTVSPost2010PropOp35
 70
     1
102
RTVSPost2010Prop36
280
     0
102
RTVSPost2010PropOp36
 70
     1
102
RTVSPost2010Prop37
 90
       50
102
RTVSPost2010PropOp37
 70
     1
102
RTVSPost2010Prop38
140
0.0
102
RTVSPost2010PropOp38
 70
     1
102
RTVSPost2010Prop39
140
1.0
102
RTVSPost2010PropOp39
 70
     1
102
RTVSPost2010Prop40
 90
        0
102
RTVSPost2010PropOp40
 70
     1
102
RTVSPost2010Prop41ColorIndex
 90
       18
102
RTVSPost2010Prop41ColorRGB
 90
        0
102
RTVSPost2010PropOp41
 70
     1
102
RTVSPost2010Prop42
 90
       50
102
RTVSPost2010PropOp42
 70
     1
102
RTVSPost2010Prop43
 90
        3
102
RTVSPost2010PropOp43
 70
     1
102
RTVSPost2010Prop44ColorIndex
 90
        5
102
RTVSPost2010Prop44ColorRGB
 90
      255
102
RTVSPost2010PropOp44
 70
     1
102
RTVSPost2010Prop45
280
     0
102
RTVSPost2010PropOp45
 70
     1
102
RTVSPost2010Prop46
 90
       50
102
RTVSPost2010PropOp46
 70
     1
102
RTVSPost2010Prop47
 90
       50
102
RTVSPost2010PropOp47
 70
     1
102
RTVSPost2010Prop48
 90
       50
102
RTVSPost2010PropOp48
 70
     1
102
RTVSPost2010Prop49
280
     0
102
RTVSPost2010PropOp49
 70
     1
102
RTVSPost2010Prop50
 90
       50
102
RTVSPost2010PropOp50
 70
     1
102
RTVSPost2010Prop51ColorIndex
 90
      256
102
RTVSPost2010Prop51ColorRGB
 90
-16777216
102
RTVSPost2010PropOp51
 70
     0
102
RTVSPost2010Prop52
140
1.0
102
RTVSPost2010PropOp52
 70
     0
102
RTVSPost2010Prop53
 90
        2
102
RTVSPost2010PropOp53
 70
     1
102
RTVSPost2010Prop54
  1
strokes_ogs.tif
102
RTVSPost2010PropOp54
 70
     1
102
RTVSPost2010Prop55
280
     0
102
RTVSPost2010PropOp55
 70
     1
102
RTVSPost2010Prop56
140
1.0
102
RTVSPost2010PropOp56
 70
     1
102
RTVSPost2010Prop57
140
1.0
102
RTVSPost2010PropOp57
 70
     1
102
RTVSPropertyOp0
 70
     1
102
RTVSPropertyOp1
 70
     1
102
RTVSPropertyOp2
 70
     1
102
RTVSPropertyOp3
 70
     1
102
RTVSPropertyOp4
 70
     1
102
RTVSPropertyOp5
 70
     1
102
RTVSPropertyOp6
 70
     1
102
RTVSPropertyOp7
 70
     1
102
RTVSPropertyOp8
 70
     1
102
RTVSPropertyOp9
 70
     1
102
RTVSPropertyOp10
 70
     1
102
RTVSPropertyOp11
 70
     1
102
RTVSPropertyOp12
 70
     1
102
RTVSPropertyOp13
 70
     1
102
RTVSPropertyOp14
 70
     1
102
RTVSPropertyOp15
 70
     1
102
RTVSPropertyOp16
 70
     1
102
RTVSPropertyOp17
 70
     1
102
RTVSPropertyOp18
 70
     1
102
RTVSPropertyOp19
 70
     1
102
RTVSPropertyOp20
 70
     1
102
RTVSPropertyOp21
 70
     1
102
RTVSPropertyOp22
 70
     1
102
RTVSPropertyOp23
 70
     1
102
RTVSPropertyOp24
 70
     1
102
RTVSPropertyOp25
 70
     1
102
RTVSPropertyOp26
 70
     1
102
RTVSPropertyOp27
 70
     1
102
RTVSPropertyOp28
 70
     1
102
RTVSPropertyOp29
 70
     1
102
RTVSPropertyOp30
 70
     1
102
RTVSPropertyOp31
 70
     1
102
RTVSPropertyOp32
 70
     1
102
RTVSPropertyOp33
 70
     1
102
RTVSPropertyOp34
 70
     1
102
RTVSPropertyOp35
 70
     1
102
RTVSPropertyOp36
 70
     1
102
RTVSPropertyOp37
 70
     1
102
RTVSPropertyOp38
 70
     1
102
RTVSPropertyOp39
 70
     1
102
RTVSPropertyOp40
 70
     1
102
RTVSPropertyOp41
 70
     1
102
RTVSPropertyOp42
 70
     1
102
RTVSPropertyOp43
 70
     1
102
RTVSPropertyOp44
 70
     1
102
RTVSPropertyOp45
 70
     1
102
RTVSPropertyOp46
 70
     1
102
RTVSPropertyOp47
 70
     1
102
RTVSPropertyOp48
 70
     1
102
RTVSPropertyOp49
 70
     1
102
RTVSPropertyOp50
 70
     1
102
RTVSPropertyOp51
 70
     0
102
RTVSPropertyOp52
 70
     0
102
RTVSPropertyOp53
 70
     1
102
RTVSPropertyOp54
 70
     1
102
RTVSPropertyOp55
 70
     1
102
RTVSPropertyOp56
 70
     1
102
RTVSPropertyOp57
 70
     1
102
RTVSPropertyOp58
 70
     1
102
RTVSPropertyOp59
 70
     1
102
RTVSPropertyOp60
 70
     1
102
RTVSPropertyOp61
 70
     1
102
RTVSPropertyOp62
 70
     1
  0
XRECORD
  5
1842
102
{ACAD_REACTORS
330
1841
102
}
330
1841
100
AcDbXrecord
280
     1
102
RTVSPost2010Prop28
280
     0
102
RTVSPost2010PropOp28
 70
     1
102
RTVSPost2010Prop29
280
     1
102
RTVSPost2010PropOp29
 70
     1
102
RTVSPost2010Prop30
280
     1
102
RTVSPost2010PropOp30
 70
     1
102
RTVSPost2010Prop31
280
     0
102
RTVSPost2010PropOp31
 70
     1
102
RTVSPost2010Prop32
280
     0
102
RTVSPost2010PropOp32
 70
     1
102
RTVSPost2010Prop33
280
     0
102
RTVSPost2010PropOp33
 70
     1
102
RTVSPost2010Prop34
280
     0
102
RTVSPost2010PropOp34
 70
     1
102
RTVSPost2010Prop35
280
     0
102
RTVSPost2010PropOp35
 70
     1
102
RTVSPost2010Prop36
280
     0
102
RTVSPost2010PropOp36
 70
     1
102
RTVSPost2010Prop37
 90
       50
102
RTVSPost2010PropOp37
 70
     1
102
RTVSPost2010Prop38
140
0.0
102
RTVSPost2010PropOp38
 70
     1
102
RTVSPost2010Prop39
140
1.0
102
RTVSPost2010PropOp39
 70
     1
102
RTVSPost2010Prop40
 90
        0
102
RTVSPost2010PropOp40
 70
     1
102
RTVSPost2010Prop41ColorIndex
 90
       18
102
RTVSPost2010Prop41ColorRGB
 90
        0
102
RTVSPost2010PropOp41
 70
     1
102
RTVSPost2010Prop42
 90
       50
102
RTVSPost2010PropOp42
 70
     1
102
RTVSPost2010Prop43
 90
        3
102
RTVSPost2010PropOp43
 70
     1
102
RTVSPost2010Prop44ColorIndex
 90
        5
102
RTVSPost2010Prop44ColorRGB
 90
      255
102
RTVSPost2010PropOp44
 70
     1
102
RTVSPost2010Prop45
280
     0
102
RTVSPost2010PropOp45
 70
     1
102
RTVSPost2010Prop46
 90
       50
102
RTVSPost2010PropOp46
 70
     1
102
RTVSPost2010Prop47
 90
       50
102
RTVSPost2010PropOp47
 70
     1
102
RTVSPost2010Prop48
 90
       50
102
RTVSPost2010PropOp48
 70
     1
102
RTVSPost2010Prop49
280
     0
102
RTVSPost2010PropOp49
 70
     1
102
RTVSPost2010Prop50
 90
       50
102
RTVSPost2010PropOp50
 70
     1
102
RTVSPost2010Prop51ColorIndex
 90
      256
102
RTVSPost2010Prop51ColorRGB
 90
-16777216
102
RTVSPost2010PropOp51
 70
     0
102
RTVSPost2010Prop52
140
1.0
102
RTVSPost2010PropOp52
 70
     0
102
RTVSPost2010Prop53
 90
        2
102
RTVSPost2010PropOp53
 70
     1
102
RTVSPost2010Prop54
  1
strokes_ogs.tif
102
RTVSPost2010PropOp54
 70
     1
102
RTVSPost2010Prop55
280
     0
102
RTVSPost2010PropOp55
 70
     1
102
RTVSPost2010Prop56
140
1.0
102
RTVSPost2010PropOp56
 70
     1
102
RTVSPost2010Prop57
140
1.0
102
RTVSPost2010PropOp57
 70
     1
102
RTVSPropertyOp0
 70
     1
102
RTVSPropertyOp1
 70
     1
102
RTVSPropertyOp2
 70
     1
102
RTVSPropertyOp3
 70
     1
102
RTVSPropertyOp4
 70
     1
102
RTVSPropertyOp5
 70
     1
102
RTVSPropertyOp6
 70
     1
102
RTVSPropertyOp7
 70
     1
102
RTVSPropertyOp8
 70
     1
102
RTVSPropertyOp9
 70
     1
102
RTVSPropertyOp10
 70
     1
102
RTVSPropertyOp11
 70
     1
102
RTVSPropertyOp12
 70
     1
102
RTVSPropertyOp13
 70
     1
102
RTVSPropertyOp14
 70
     1
102
RTVSPropertyOp15
 70
     1
102
RTVSPropertyOp16
 70
     1
102
RTVSPropertyOp17
 70
     1
102
RTVSPropertyOp18
 70
     1
102
RTVSPropertyOp19
 70
     1
102
RTVSPropertyOp20
 70
     1
102
RTVSPropertyOp21
 70
     1
102
RTVSPropertyOp22
 70
     1
102
RTVSPropertyOp23
 70
     1
102
RTVSPropertyOp24
 70
     1
102
RTVSPropertyOp25
 70
     1
102
RTVSPropertyOp26
 70
     1
102
RTVSPropertyOp27
 70
     1
102
RTVSPropertyOp28
 70
     1
102
RTVSPropertyOp29
 70
     1
102
RTVSPropertyOp30
 70
     1
102
RTVSPropertyOp31
 70
     1
102
RTVSPropertyOp32
 70
     1
102
RTVSPropertyOp33
 70
     1
102
RTVSPropertyOp34
 70
     1
102
RTVSPropertyOp35
 70
     1
102
RTVSPropertyOp36
 70
     1
102
RTVSPropertyOp37
 70
     1
102
RTVSPropertyOp38
 70
     1
102
RTVSPropertyOp39
 70
     1
102
RTVSPropertyOp40
 70
     1
102
RTVSPropertyOp41
 70
     1
102
RTVSPropertyOp42
 70
     1
102
RTVSPropertyOp43
 70
     1
102
RTVSPropertyOp44
 70
     1
102
RTVSPropertyOp45
 70
     1
102
RTVSPropertyOp46
 70
     1
102
RTVSPropertyOp47
 70
     1
102
RTVSPropertyOp48
 70
     1
102
RTVSPropertyOp49
 70
     1
102
RTVSPropertyOp50
 70
     1
102
RTVSPropertyOp51
 70
     0
102
RTVSPropertyOp52
 70
     0
102
RTVSPropertyOp53
 70
     1
102
RTVSPropertyOp54
 70
     1
102
RTVSPropertyOp55
 70
     1
102
RTVSPropertyOp56
 70
     1
102
RTVSPropertyOp57
 70
     1
102
RTVSPropertyOp58
 70
     1
102
RTVSPropertyOp59
 70
     1
102
RTVSPropertyOp60
 70
     1
102
RTVSPropertyOp61
 70
     1
102
RTVSPropertyOp62
 70
     1
  0
XRECORD
  5
1834
102
{ACAD_REACTORS
330
1833
102
}
330
1833
100
AcDbXrecord
280
     1
102
RTVSPost2010Prop28
280
     0
102
RTVSPost2010PropOp28
 70
     1
102
RTVSPost2010Prop29
280
     1
102
RTVSPost2010PropOp29
 70
     1
102
RTVSPost2010Prop30
280
     1
102
RTVSPost2010PropOp30
 70
     1
102
RTVSPost2010Prop31
280
     0
102
RTVSPost2010PropOp31
 70
     1
102
RTVSPost2010Prop32
280
     0
102
RTVSPost2010PropOp32
 70
     1
102
RTVSPost2010Prop33
280
     0
102
RTVSPost2010PropOp33
 70
     1
102
RTVSPost2010Prop34
280
     0
102
RTVSPost2010PropOp34
 70
     1
102
RTVSPost2010Prop35
280
     0
102
RTVSPost2010PropOp35
 70
     1
102
RTVSPost2010Prop36
280
     0
102
RTVSPost2010PropOp36
 70
     1
102
RTVSPost2010Prop37
 90
       50
102
RTVSPost2010PropOp37
 70
     1
102
RTVSPost2010Prop38
140
0.0
102
RTVSPost2010PropOp38
 70
     1
102
RTVSPost2010Prop39
140
1.0
102
RTVSPost2010PropOp39
 70
     1
102
RTVSPost2010Prop40
 90
        0
102
RTVSPost2010PropOp40
 70
     1
102
RTVSPost2010Prop41ColorIndex
 90
       18
102
RTVSPost2010Prop41ColorRGB
 90
        0
102
RTVSPost2010PropOp41
 70
     1
102
RTVSPost2010Prop42
 90
       50
102
RTVSPost2010PropOp42
 70
     1
102
RTVSPost2010Prop43
 90
        3
102
RTVSPost2010PropOp43
 70
     1
102
RTVSPost2010Prop44ColorIndex
 90
        5
102
RTVSPost2010Prop44ColorRGB
 90
      255
102
RTVSPost2010PropOp44
 70
     1
102
RTVSPost2010Prop45
280
     0
102
RTVSPost2010PropOp45
 70
     1
102
RTVSPost2010Prop46
 90
       50
102
RTVSPost2010PropOp46
 70
     1
102
RTVSPost2010Prop47
 90
       50
102
RTVSPost2010PropOp47
 70
     1
102
RTVSPost2010Prop48
 90
       50
102
RTVSPost2010PropOp48
 70
     1
102
RTVSPost2010Prop49
280
     0
102
RTVSPost2010PropOp49
 70
     1
102
RTVSPost2010Prop50
 90
       50
102
RTVSPost2010PropOp50
 70
     1
102
RTVSPost2010Prop51ColorIndex
 90
      256
102
RTVSPost2010Prop51ColorRGB
 90
-16777216
102
RTVSPost2010PropOp51
 70
     0
102
RTVSPost2010Prop52
140
1.0
102
RTVSPost2010PropOp52
 70
     0
102
RTVSPost2010Prop53
 90
        2
102
RTVSPost2010PropOp53
 70
     1
102
RTVSPost2010Prop54
  1
strokes_ogs.tif
102
RTVSPost2010PropOp54
 70
     1
102
RTVSPost2010Prop55
280
     0
102
RTVSPost2010PropOp55
 70
     1
102
RTVSPost2010Prop56
140
1.0
102
RTVSPost2010PropOp56
 70
     1
102
RTVSPost2010Prop57
140
1.0
102
RTVSPost2010PropOp57
 70
     1
102
RTVSPropertyOp0
 70
     1
102
RTVSPropertyOp1
 70
     1
102
RTVSPropertyOp2
 70
     1
102
RTVSPropertyOp3
 70
     1
102
RTVSPropertyOp4
 70
     1
102
RTVSPropertyOp5
 70
     1
102
RTVSPropertyOp6
 70
     1
102
RTVSPropertyOp7
 70
     1
102
RTVSPropertyOp8
 70
     1
102
RTVSPropertyOp9
 70
     1
102
RTVSPropertyOp10
 70
     1
102
RTVSPropertyOp11
 70
     1
102
RTVSPropertyOp12
 70
     1
102
RTVSPropertyOp13
 70
     1
102
RTVSPropertyOp14
 70
     1
102
RTVSPropertyOp15
 70
     1
102
RTVSPropertyOp16
 70
     1
102
RTVSPropertyOp17
 70
     1
102
RTVSPropertyOp18
 70
     1
102
RTVSPropertyOp19
 70
     1
102
RTVSPropertyOp20
 70
     1
102
RTVSPropertyOp21
 70
     1
102
RTVSPropertyOp22
 70
     1
102
RTVSPropertyOp23
 70
     1
102
RTVSPropertyOp24
 70
     1
102
RTVSPropertyOp25
 70
     1
102
RTVSPropertyOp26
 70
     1
102
RTVSPropertyOp27
 70
     1
102
RTVSPropertyOp28
 70
     1
102
RTVSPropertyOp29
 70
     1
102
RTVSPropertyOp30
 70
     1
102
RTVSPropertyOp31
 70
     1
102
RTVSPropertyOp32
 70
     1
102
RTVSPropertyOp33
 70
     1
102
RTVSPropertyOp34
 70
     1
102
RTVSPropertyOp35
 70
     1
102
RTVSPropertyOp36
 70
     1
102
RTVSPropertyOp37
 70
     1
102
RTVSPropertyOp38
 70
     1
102
RTVSPropertyOp39
 70
     1
102
RTVSPropertyOp40
 70
     1
102
RTVSPropertyOp41
 70
     1
102
RTVSPropertyOp42
 70
     1
102
RTVSPropertyOp43
 70
     1
102
RTVSPropertyOp44
 70
     1
102
RTVSPropertyOp45
 70
     1
102
RTVSPropertyOp46
 70
     1
102
RTVSPropertyOp47
 70
     1
102
RTVSPropertyOp48
 70
     1
102
RTVSPropertyOp49
 70
     1
102
RTVSPropertyOp50
 70
     1
102
RTVSPropertyOp51
 70
     0
102
RTVSPropertyOp52
 70
     0
102
RTVSPropertyOp53
 70
     1
102
RTVSPropertyOp54
 70
     1
102
RTVSPropertyOp55
 70
     1
102
RTVSPropertyOp56
 70
     1
102
RTVSPropertyOp57
 70
     1
102
RTVSPropertyOp58
 70
     1
102
RTVSPropertyOp59
 70
     1
102
RTVSPropertyOp60
 70
     1
102
RTVSPropertyOp61
 70
     1
102
RTVSPropertyOp62
 70
     1
  0
XRECORD
  5
183C
102
{ACAD_REACTORS
330
183B
102
}
330
183B
100
AcDbXrecord
280
     1
102
RTVSPost2010Prop28
280
     0
102
RTVSPost2010PropOp28
 70
     1
102
RTVSPost2010Prop29
280
     1
102
RTVSPost2010PropOp29
 70
     1
102
RTVSPost2010Prop30
280
     1
102
RTVSPost2010PropOp30
 70
     1
102
RTVSPost2010Prop31
280
     0
102
RTVSPost2010PropOp31
 70
     1
102
RTVSPost2010Prop32
280
     0
102
RTVSPost2010PropOp32
 70
     1
102
RTVSPost2010Prop33
280
     0
102
RTVSPost2010PropOp33
 70
     1
102
RTVSPost2010Prop34
280
     0
102
RTVSPost2010PropOp34
 70
     1
102
RTVSPost2010Prop35
280
     0
102
RTVSPost2010PropOp35
 70
     1
102
RTVSPost2010Prop36
280
     0
102
RTVSPost2010PropOp36
 70
     1
102
RTVSPost2010Prop37
 90
       50
102
RTVSPost2010PropOp37
 70
     1
102
RTVSPost2010Prop38
140
0.0
102
RTVSPost2010PropOp38
 70
     1
102
RTVSPost2010Prop39
140
1.0
102
RTVSPost2010PropOp39
 70
     1
102
RTVSPost2010Prop40
 90
        0
102
RTVSPost2010PropOp40
 70
     1
102
RTVSPost2010Prop41ColorIndex
 90
       18
102
RTVSPost2010Prop41ColorRGB
 90
        0
102
RTVSPost2010PropOp41
 70
     1
102
RTVSPost2010Prop42
 90
       50
102
RTVSPost2010PropOp42
 70
     1
102
RTVSPost2010Prop43
 90
        3
102
RTVSPost2010PropOp43
 70
     1
102
RTVSPost2010Prop44ColorIndex
 90
        5
102
RTVSPost2010Prop44ColorRGB
 90
      255
102
RTVSPost2010PropOp44
 70
     1
102
RTVSPost2010Prop45
280
     0
102
RTVSPost2010PropOp45
 70
     1
102
RTVSPost2010Prop46
 90
       50
102
RTVSPost2010PropOp46
 70
     1
102
RTVSPost2010Prop47
 90
       50
102
RTVSPost2010PropOp47
 70
     1
102
RTVSPost2010Prop48
 90
       50
102
RTVSPost2010PropOp48
 70
     1
102
RTVSPost2010Prop49
280
     0
102
RTVSPost2010PropOp49
 70
     1
102
RTVSPost2010Prop50
 90
       50
102
RTVSPost2010PropOp50
 70
     1
102
RTVSPost2010Prop51ColorIndex
 90
      256
102
RTVSPost2010Prop51ColorRGB
 90
-16777216
102
RTVSPost2010PropOp51
 70
     0
102
RTVSPost2010Prop52
140
1.0
102
RTVSPost2010PropOp52
 70
     0
102
RTVSPost2010Prop53
 90
        2
102
RTVSPost2010PropOp53
 70
     1
102
RTVSPost2010Prop54
  1
strokes_ogs.tif
102
RTVSPost2010PropOp54
 70
     1
102
RTVSPost2010Prop55
280
     0
102
RTVSPost2010PropOp55
 70
     1
102
RTVSPost2010Prop56
140
1.0
102
RTVSPost2010PropOp56
 70
     1
102
RTVSPost2010Prop57
140
1.0
102
RTVSPost2010PropOp57
 70
     1
102
RTVSPropertyOp0
 70
     1
102
RTVSPropertyOp1
 70
     1
102
RTVSPropertyOp2
 70
     1
102
RTVSPropertyOp3
 70
     1
102
RTVSPropertyOp4
 70
     1
102
RTVSPropertyOp5
 70
     1
102
RTVSPropertyOp6
 70
     1
102
RTVSPropertyOp7
 70
     1
102
RTVSPropertyOp8
 70
     1
102
RTVSPropertyOp9
 70
     1
102
RTVSPropertyOp10
 70
     1
102
RTVSPropertyOp11
 70
     1
102
RTVSPropertyOp12
 70
     1
102
RTVSPropertyOp13
 70
     1
102
RTVSPropertyOp14
 70
     1
102
RTVSPropertyOp15
 70
     1
102
RTVSPropertyOp16
 70
     1
102
RTVSPropertyOp17
 70
     1
102
RTVSPropertyOp18
 70
     1
102
RTVSPropertyOp19
 70
     1
102
RTVSPropertyOp20
 70
     1
102
RTVSPropertyOp21
 70
     1
102
RTVSPropertyOp22
 70
     1
102
RTVSPropertyOp23
 70
     1
102
RTVSPropertyOp24
 70
     1
102
RTVSPropertyOp25
 70
     1
102
RTVSPropertyOp26
 70
     1
102
RTVSPropertyOp27
 70
     1
102
RTVSPropertyOp28
 70
     1
102
RTVSPropertyOp29
 70
     1
102
RTVSPropertyOp30
 70
     1
102
RTVSPropertyOp31
 70
     1
102
RTVSPropertyOp32
 70
     1
102
RTVSPropertyOp33
 70
     1
102
RTVSPropertyOp34
 70
     1
102
RTVSPropertyOp35
 70
     1
102
RTVSPropertyOp36
 70
     1
102
RTVSPropertyOp37
 70
     1
102
RTVSPropertyOp38
 70
     1
102
RTVSPropertyOp39
 70
     1
102
RTVSPropertyOp40
 70
     1
102
RTVSPropertyOp41
 70
     1
102
RTVSPropertyOp42
 70
     1
102
RTVSPropertyOp43
 70
     1
102
RTVSPropertyOp44
 70
     1
102
RTVSPropertyOp45
 70
     1
102
RTVSPropertyOp46
 70
     1
102
RTVSPropertyOp47
 70
     1
102
RTVSPropertyOp48
 70
     1
102
RTVSPropertyOp49
 70
     1
102
RTVSPropertyOp50
 70
     1
102
RTVSPropertyOp51
 70
     0
102
RTVSPropertyOp52
 70
     0
102
RTVSPropertyOp53
 70
     1
102
RTVSPropertyOp54
 70
     1
102
RTVSPropertyOp55
 70
     1
102
RTVSPropertyOp56
 70
     1
102
RTVSPropertyOp57
 70
     1
102
RTVSPropertyOp58
 70
     1
102
RTVSPropertyOp59
 70
     1
102
RTVSPropertyOp60
 70
     1
102
RTVSPropertyOp61
 70
     1
102
RTVSPropertyOp62
 70
     1
  0
XRECORD
  5
1844
102
{ACAD_REACTORS
330
1843
102
}
330
1843
100
AcDbXrecord
280
     1
102
RTVSPost2010Prop28
280
     0
102
RTVSPost2010PropOp28
 70
     1
102
RTVSPost2010Prop29
280
     1
102
RTVSPost2010PropOp29
 70
     1
102
RTVSPost2010Prop30
280
     1
102
RTVSPost2010PropOp30
 70
     1
102
RTVSPost2010Prop31
280
     0
102
RTVSPost2010PropOp31
 70
     1
102
RTVSPost2010Prop32
280
     0
102
RTVSPost2010PropOp32
 70
     1
102
RTVSPost2010Prop33
280
     0
102
RTVSPost2010PropOp33
 70
     1
102
RTVSPost2010Prop34
280
     0
102
RTVSPost2010PropOp34
 70
     1
102
RTVSPost2010Prop35
280
     0
102
RTVSPost2010PropOp35
 70
     1
102
RTVSPost2010Prop36
280
     0
102
RTVSPost2010PropOp36
 70
     1
102
RTVSPost2010Prop37
 90
       50
102
RTVSPost2010PropOp37
 70
     1
102
RTVSPost2010Prop38
140
0.0
102
RTVSPost2010PropOp38
 70
     1
102
RTVSPost2010Prop39
140
1.0
102
RTVSPost2010PropOp39
 70
     1
102
RTVSPost2010Prop40
 90
        0
102
RTVSPost2010PropOp40
 70
     1
102
RTVSPost2010Prop41ColorIndex
 90
       18
102
RTVSPost2010Prop41ColorRGB
 90
        0
102
RTVSPost2010PropOp41
 70
     1
102
RTVSPost2010Prop42
 90
       50
102
RTVSPost2010PropOp42
 70
     1
102
RTVSPost2010Prop43
 90
        3
102
RTVSPost2010PropOp43
 70
     1
102
RTVSPost2010Prop44ColorIndex
 90
        5
102
RTVSPost2010Prop44ColorRGB
 90
      255
102
RTVSPost2010PropOp44
 70
     1
102
RTVSPost2010Prop45
280
     0
102
RTVSPost2010PropOp45
 70
     1
102
RTVSPost2010Prop46
 90
       50
102
RTVSPost2010PropOp46
 70
     1
102
RTVSPost2010Prop47
 90
       50
102
RTVSPost2010PropOp47
 70
     1
102
RTVSPost2010Prop48
 90
       50
102
RTVSPost2010PropOp48
 70
     1
102
RTVSPost2010Prop49
280
     0
102
RTVSPost2010PropOp49
 70
     1
102
RTVSPost2010Prop50
 90
       50
102
RTVSPost2010PropOp50
 70
     1
102
RTVSPost2010Prop51ColorIndex
 90
      256
102
RTVSPost2010Prop51ColorRGB
 90
-16777216
102
RTVSPost2010PropOp51
 70
     0
102
RTVSPost2010Prop52
140
1.0
102
RTVSPost2010PropOp52
 70
     0
102
RTVSPost2010Prop53
 90
        2
102
RTVSPost2010PropOp53
 70
     1
102
RTVSPost2010Prop54
  1
strokes_ogs.tif
102
RTVSPost2010PropOp54
 70
     1
102
RTVSPost2010Prop55
280
     0
102
RTVSPost2010PropOp55
 70
     1
102
RTVSPost2010Prop56
140
1.0
102
RTVSPost2010PropOp56
 70
     1
102
RTVSPost2010Prop57
140
1.0
102
RTVSPost2010PropOp57
 70
     1
102
RTVSPropertyOp0
 70
     1
102
RTVSPropertyOp1
 70
     1
102
RTVSPropertyOp2
 70
     1
102
RTVSPropertyOp3
 70
     1
102
RTVSPropertyOp4
 70
     1
102
RTVSPropertyOp5
 70
     1
102
RTVSPropertyOp6
 70
     1
102
RTVSPropertyOp7
 70
     1
102
RTVSPropertyOp8
 70
     1
102
RTVSPropertyOp9
 70
     1
102
RTVSPropertyOp10
 70
     1
102
RTVSPropertyOp11
 70
     1
102
RTVSPropertyOp12
 70
     1
102
RTVSPropertyOp13
 70
     1
102
RTVSPropertyOp14
 70
     1
102
RTVSPropertyOp15
 70
     1
102
RTVSPropertyOp16
 70
     1
102
RTVSPropertyOp17
 70
     1
102
RTVSPropertyOp18
 70
     1
102
RTVSPropertyOp19
 70
     1
102
RTVSPropertyOp20
 70
     1
102
RTVSPropertyOp21
 70
     1
102
RTVSPropertyOp22
 70
     1
102
RTVSPropertyOp23
 70
     1
102
RTVSPropertyOp24
 70
     1
102
RTVSPropertyOp25
 70
     1
102
RTVSPropertyOp26
 70
     1
102
RTVSPropertyOp27
 70
     1
102
RTVSPropertyOp28
 70
     1
102
RTVSPropertyOp29
 70
     1
102
RTVSPropertyOp30
 70
     1
102
RTVSPropertyOp31
 70
     1
102
RTVSPropertyOp32
 70
     1
102
RTVSPropertyOp33
 70
     1
102
RTVSPropertyOp34
 70
     1
102
RTVSPropertyOp35
 70
     1
102
RTVSPropertyOp36
 70
     1
102
RTVSPropertyOp37
 70
     1
102
RTVSPropertyOp38
 70
     1
102
RTVSPropertyOp39
 70
     1
102
RTVSPropertyOp40
 70
     1
102
RTVSPropertyOp41
 70
     1
102
RTVSPropertyOp42
 70
     1
102
RTVSPropertyOp43
 70
     1
102
RTVSPropertyOp44
 70
     1
102
RTVSPropertyOp45
 70
     1
102
RTVSPropertyOp46
 70
     1
102
RTVSPropertyOp47
 70
     1
102
RTVSPropertyOp48
 70
     1
102
RTVSPropertyOp49
 70
     1
102
RTVSPropertyOp50
 70
     1
102
RTVSPropertyOp51
 70
     0
102
RTVSPropertyOp52
 70
     0
102
RTVSPropertyOp53
 70
     1
102
RTVSPropertyOp54
 70
     1
102
RTVSPropertyOp55
 70
     1
102
RTVSPropertyOp56
 70
     1
102
RTVSPropertyOp57
 70
     1
102
RTVSPropertyOp58
 70
     1
102
RTVSPropertyOp59
 70
     1
102
RTVSPropertyOp60
 70
     1
102
RTVSPropertyOp61
 70
     1
102
RTVSPropertyOp62
 70
     1
  0
ENDSEC
  0
EOF
