  0
SECTION
  2
HEADER
  9
$ACADVER
  1
AC1014
  9
$ACADMAINTVER
 70
     9
  9
$DWGCODEPAGE
  3
ANSI_1252
  9
$INSBASE
 10
0.0
 20
0.0
 30
0.0
  9
$EXTMIN
 10
-24.89853548423286
 20
-35.31732058802595
 30
-0.0000000000000058
  9
$EXTMAX
 10
39.2602849243949
 20
35.01611118027369
 30
0.0000000000000104
  9
$LIMMIN
 10
0.0
 20
0.0
  9
$LIMMAX
 10
297.0
 20
210.0
  9
$ORTHOMODE
 70
     0
  9
$REGENMODE
 70
     1
  9
$FILLMODE
 70
     1
  9
$QTEXTMODE
 70
     0
  9
$MIRRTEXT
 70
     1
  9
$DRAGMODE
 70
     2
  9
$LTSCALE
 40
25.0
  9
$OSMODE
 70
   167
  9
$ATTMODE
 70
     1
  9
$TEXTSIZE
 40
0.2
  9
$TRACEWID
 40
0.05
  9
$TEXTSTYLE
  7
STANDARD
  9
$CLAYER
  8
0
  9
$CELTYPE
  6
BYLAYER
  9
$CECOLOR
 62
   256
  9
$CELTSCALE
 40
1.0
  9
$DELOBJ
 70
     1
  9
$DISPSILH
 70
     0
  9
$DIMSCALE
 40
1.0
  9
$DIMASZ
 40
3.5
  9
$DIMEXO
 40
0.625
  9
$DIMDLI
 40
3.75
  9
$DIMRND
 40
0.0
  9
$DIMDLE
 40
0.0
  9
$DIMEXE
 40
1.25
  9
$DIMTP
 40
0.0
  9
$DIMTM
 40
0.0
  9
$DIMTXT
 40
3.5
  9
$DIMCEN
 40
2.5
  9
$DIMTSZ
 40
0.0
  9
$DIMTOL
 70
     0
  9
$DIMLIM
 70
     0
  9
$DIMTIH
 70
     0
  9
$DIMTOH
 70
     0
  9
$DIMSE1
 70
     0
  9
$DIMSE2
 70
     0
  9
$DIMTAD
 70
     1
  9
$DIMZIN
 70
     8
  9
$DIMBLK
  1

  9
$DIMASO
 70
     1
  9
$DIMSHO
 70
     1
  9
$DIMPOST
  1

  9
$DIMAPOST
  1

  9
$DIMALT
 70
     0
  9
$DIMALTD
 70
     3
  9
$DIMALTF
 40
0.03937007874016
  9
$DIMLFAC
 40
1.0
  9
$DIMTOFL
 70
     1
  9
$DIMTVP
 40
0.0
  9
$DIMTIX
 70
     0
  9
$DIMSOXD
 70
     0
  9
$DIMSAH
 70
     0
  9
$DIMBLK1
  1

  9
$DIMBLK2
  1

  9
$DIMSTYLE
  2
ISO-25
  9
$DIMCLRD
 70
   256
  9
$DIMCLRE
 70
   256
  9
$DIMCLRT
 70
   256
  9
$DIMTFAC
 40
1.0
  9
$DIMGAP
 40
0.625
  9
$DIMJUST
 70
     0
  9
$DIMSD1
 70
     0
  9
$DIMSD2
 70
     0
  9
$DIMTOLJ
 70
     0
  9
$DIMTZIN
 70
     8
  9
$DIMALTZ
 70
     0
  9
$DIMALTTZ
 70
     0
  9
$DIMFIT
 70
     3
  9
$DIMUPT
 70
     0
  9
$DIMUNIT
 70
     2
  9
$DIMDEC
 70
     2
  9
$DIMTDEC
 70
     2
  9
$DIMALTU
 70
     2
  9
$DIMALTTD
 70
     3
  9
$DIMTXSTY
  7
STANDARD
  9
$DIMAUNIT
 70
     0
  9
$LUNITS
 70
     2
  9
$LUPREC
 70
     4
  9
$SKETCHINC
 40
0.1
  9
$FILLETRAD
 40
0.0
  9
$AUNITS
 70
     0
  9
$AUPREC
 70
     0
  9
$MENU
  1
.
  9
$ELEVATION
 40
0.0
  9
$PELEVATION
 40
0.0
  9
$THICKNESS
 40
0.0
  9
$LIMCHECK
 70
     0
  9
$BLIPMODE
 70
     0
  9
$CHAMFERA
 40
0.0
  9
$CHAMFERB
 40
0.0
  9
$CHAMFERC
 40
0.0
  9
$CHAMFERD
 40
0.0
  9
$SKPOLY
 70
     0
  9
$TDCREATE
 40
2454167.426010960
  9
$TDUPDATE
 40
2454187.549387025
  9
$TDINDWG
 40
0.2262259606
  9
$TDUSRTIMER
 40
0.2262259606
  9
$USRTIMER
 70
     1
  9
$ANGBASE
 50
0.0
  9
$ANGDIR
 70
     0
  9
$PDMODE
 70
     3
  9
$PDSIZE
 40
0.3125
  9
$PLINEWID
 40
0.0
  9
$COORDS
 70
     0
  9
$SPLFRAME
 70
     0
  9
$SPLINETYPE
 70
     6
  9
$SPLINESEGS
 70
     8
  9
$ATTDIA
 70
     0
  9
$ATTREQ
 70
     1
  9
$HANDLING
 70
-16383
  9
$HANDSEED
  5
22B6
  9
$SURFTAB1
 70
     6
  9
$SURFTAB2
 70
     6
  9
$SURFTYPE
 70
     6
  9
$SURFU
 70
     6
  9
$SURFV
 70
     6
  9
$UCSNAME
  2

  9
$UCSORG
 10
0.0
 20
0.0
 30
0.0
  9
$UCSXDIR
 10
1.0
 20
0.0
 30
0.0
  9
$UCSYDIR
 10
0.0
 20
1.0
 30
0.0
  9
$PUCSNAME
  2

  9
$PUCSORG
 10
0.0
 20
0.0
 30
0.0
  9
$PUCSXDIR
 10
1.0
 20
0.0
 30
0.0
  9
$PUCSYDIR
 10
0.0
 20
1.0
 30
0.0
  9
$USERI1
 70
     0
  9
$USERI2
 70
     0
  9
$USERI3
 70
     0
  9
$USERI4
 70
     0
  9
$USERI5
 70
     0
  9
$USERR1
 40
0.0
  9
$USERR2
 40
0.0
  9
$USERR3
 40
0.0
  9
$USERR4
 40
0.0
  9
$USERR5
 40
0.0
  9
$WORLDVIEW
 70
     1
  9
$SHADEDGE
 70
     3
  9
$SHADEDIF
 70
    70
  9
$TILEMODE
 70
     1
  9
$MAXACTVP
 70
    64
  9
$PINSBASE
 10
0.0
 20
0.0
 30
0.0
  9
$PLIMCHECK
 70
     0
  9
$PEXTMIN
 10
1.000000000000000E+20
 20
1.000000000000000E+20
 30
1.000000000000000E+20
  9
$PEXTMAX
 10
-1.000000000000000E+20
 20
-1.000000000000000E+20
 30
-1.000000000000000E+20
  9
$PLIMMIN
 10
0.0
 20
0.0
  9
$PLIMMAX
 10
12.0
 20
9.0
  9
$UNITMODE
 70
     0
  9
$VISRETAIN
 70
     1
  9
$PLINEGEN
 70
     0
  9
$PSLTSCALE
 70
     1
  9
$TREEDEPTH
 70
  3020
  9
$PICKSTYLE
 70
     1
  9
$CMLSTYLE
  2
STANDARD
  9
$CMLJUST
 70
     0
  9
$CMLSCALE
 40
1.0
  9
$PROXYGRAPHICS
 70
     1
  9
$MEASUREMENT
 70
     1
  0
ENDSEC
  0
SECTION
  2
CLASSES
  0
CLASS
  1
ACDBDICTIONARYWDFLT
  2
AcDbDictionaryWithDefault
  3
AutoCAD 2000
 90
        0
280
     0
281
     0
  0
CLASS
  1
ACDBPLACEHOLDER
  2
AcDbPlaceHolder
  3
AutoCAD 2000
 90
        0
280
     0
281
     0
  0
CLASS
  1
LAYOUT
  2
AcDbLayout
  3
AutoCAD 2000
 90
        0
280
     0
281
     0
  0
CLASS
  1
LONG_TRANSACTION
  2
AcDbLongTransaction
  3
AutoCAD 2000
 90
        0
280
     0
281
     0
  0
CLASS
  1
LWPOLYLINE
  2
AcDbPolyline
  3
AutoCAD 2000
 90
        0
280
     0
281
     1
  0
CLASS
  1
HATCH
  2
AcDbHatch
  3
AutoCAD 2000
 90
        0
280
     0
281
     1
  0
CLASS
  1
XRECORD
  2
AcDbXrecord
  3
AutoCAD 2000
 90
        0
280
     0
281
     0
  0
CLASS
  1
LONG_TRANSACTION
  2
AcDbLongTransaction
  3
AutoCAD 2000
 90
        0
280
     0
281
     0
  0
CLASS
  1
LWPOLYLINE
  2
AcDbPolyline
  3
AutoCAD 2000
 90
        0
280
     0
281
     1
  0
CLASS
  1
HATCH
  2
AcDbHatch
  3
AutoCAD 2000
 90
        0
280
     0
281
     1
  0
CLASS
  1
XRECORD
  2
AcDbXrecord
  3
AutoCAD 2000
 90
        0
280
     0
281
     0
  0
CLASS
  1
DICTIONARYVAR
  2
AcDbDictionaryVar
  3
AutoCAD 2000
 90
        0
280
     0
281
     0
  0
CLASS
  1
LONG_TRANSACTION
  2
AcDbLongTransaction
  3
AutoCAD 2000
 90
        0
280
     0
281
     0
  0
CLASS
  1
LWPOLYLINE
  2
AcDbPolyline
  3
AutoCAD 2000
 90
        0
280
     0
281
     1
  0
CLASS
  1
HATCH
  2
AcDbHatch
  3
AutoCAD 2000
 90
        0
280
     0
281
     1
  0
CLASS
  1
XRECORD
  2
AcDbXrecord
  3
AutoCAD 2000
 90
        0
280
     0
281
     0
  0
CLASS
  1
LONG_TRANSACTION
  2
AcDbLongTransaction
  3
AutoCAD 2000
 90
        0
280
     0
281
     0
  0
CLASS
  1
LWPOLYLINE
  2
AcDbPolyline
  3
AutoCAD 2000
 90
        0
280
     0
281
     1
  0
CLASS
  1
HATCH
  2
AcDbHatch
  3
AutoCAD 2000
 90
        0
280
     0
281
     1
  0
CLASS
  1
XRECORD
  2
AcDbXrecord
  3
AutoCAD 2000
 90
        0
280
     0
281
     0
  0
CLASS
  1
LONG_TRANSACTION
  2
AcDbLongTransaction
  3
AutoCAD 2000
 90
        0
280
     0
281
     0
  0
CLASS
  1
LWPOLYLINE
  2
AcDbPolyline
  3
AutoCAD 2000
 90
        0
280
     0
281
     1
  0
CLASS
  1
HATCH
  2
AcDbHatch
  3
AutoCAD 2000
 90
        0
280
     0
281
     1
  0
CLASS
  1
XRECORD
  2
AcDbXrecord
  3
AutoCAD 2000
 90
        0
280
     0
281
     0
  0
CLASS
  1
LONG_TRANSACTION
  2
AcDbLongTransaction
  3
AutoCAD 2000
 90
        0
280
     0
281
     0
  0
CLASS
  1
LWPOLYLINE
  2
AcDbPolyline
  3
AutoCAD 2000
 90
        0
280
     0
281
     1
  0
CLASS
  1
HATCH
  2
AcDbHatch
  3
AutoCAD 2000
 90
        0
280
     0
281
     1
  0
CLASS
  1
XRECORD
  2
AcDbXrecord
  3
AutoCAD 2000
 90
        0
280
     0
281
     0
  0
ENDSEC
  0
SECTION
  2
TABLES
  0
TABLE
  2
VPORT
  5
8
330
0
100
AcDbSymbolTable
 70
     2
  0
VPORT
  5
2288
330
8
100
AcDbSymbolTableRecord
100
AcDbViewportTableRecord
  2
*ACTIVE
 70
     0
 10
0.0
 20
0.0
 11
1.0
 21
1.0
 12
7.180874720081021
 22
-0.1506047038761267
 13
0.0
 23
0.0
 14
1.0
 24
1.0
 15
0.0
 25
0.0
 16
0.0
 26
0.0
 36
1.0
 17
0.0
 27
0.0
 37
0.0
 40
70.75166823074741
 41
1.297619047619047
 42
50.0
 43
0.0
 44
0.0
 50
0.0
 51
0.0
 71
     0
 72
 20000
 73
     1
 74
     1
 75
     0
 76
     0
 77
     0
 78
     0
  0
ENDTAB
  0
TABLE
  2
LTYPE
  5
5
330
0
100
AcDbSymbolTable
 70
     2
  0
LTYPE
  5
14
330
5
100
AcDbSymbolTableRecord
100
AcDbLinetypeTableRecord
  2
BYBLOCK
 70
     0
  3

 72
    65
 73
     0
 40
0.0
  0
LTYPE
  5
15
330
5
100
AcDbSymbolTableRecord
100
AcDbLinetypeTableRecord
  2
BYLAYER
 70
     0
  3

 72
    65
 73
     0
 40
0.0
  0
LTYPE
  5
16
330
5
100
AcDbSymbolTableRecord
100
AcDbLinetypeTableRecord
  2
CONTINUOUS
 70
     0
  3
Solid line
 72
    65
 73
     0
 40
0.0
  0
LTYPE
  5
1F5
330
5
100
AcDbSymbolTableRecord
100
AcDbLinetypeTableRecord
  2
CENTER
 70
     0
  3
____ _ ____ _ ____ _ ____ _ ____ _ ____ _ ____
 72
    65
 73
     4
 40
0.6
 49
0.375
 74
     0
 49
-0.075
 74
     0
 49
0.075
 74
     0
 49
-0.075
 74
     0
  0
ENDTAB
  0
TABLE
  2
LAYER
  5
2
330
0
100
AcDbSymbolTable
 70
    11
  0
LAYER
  5
10
330
2
100
AcDbSymbolTableRecord
100
AcDbLayerTableRecord
  2
0
 70
     0
 62
     7
  6
CONTINUOUS
  0
LAYER
  5
5AD
330
2
100
AcDbSymbolTableRecord
100
AcDbLayerTableRecord
  2
1
 70
     0
 62
     4
  6
CONTINUOUS
  0
LAYER
  5
5AE
330
2
100
AcDbSymbolTableRecord
100
AcDbLayerTableRecord
  2
2
 70
     0
 62
     7
  6
CONTINUOUS
  0
LAYER
  5
5AF
330
2
100
AcDbSymbolTableRecord
100
AcDbLayerTableRecord
  2
DEFPOINTS
 70
     0
 62
     7
  6
CONTINUOUS
  0
LAYER
  5
5B0
330
2
100
AcDbSymbolTableRecord
100
AcDbLayerTableRecord
  2
4
 70
     0
 62
     2
  6
CENTER
  0
LAYER
  5
5B1
330
2
100
AcDbSymbolTableRecord
100
AcDbLayerTableRecord
  2
6
 70
     0
 62
     5
  6
CONTINUOUS
  0
LAYER
  5
5B2
330
2
100
AcDbSymbolTableRecord
100
AcDbLayerTableRecord
  2
CUT
 70
     0
 62
     1
  6
CONTINUOUS
  0
LAYER
  5
5B3
330
2
100
AcDbSymbolTableRecord
100
AcDbLayerTableRecord
  2
NOCUT
 70
     0
 62
     7
  6
CONTINUOUS
  0
LAYER
  5
5B4
330
2
100
AcDbSymbolTableRecord
100
AcDbLayerTableRecord
  2
SK1
 70
     0
 62
     4
  6
CONTINUOUS
  0
LAYER
  5
5B5
330
2
100
AcDbSymbolTableRecord
100
AcDbLayerTableRecord
  2
SK4
 70
     0
 62
     2
  6
CENTER
  0
LAYER
  5
2247
330
2
100
AcDbSymbolTableRecord
100
AcDbLayerTableRecord
  2
SK2
 70
     0
 62
     7
  6
CONTINUOUS
  0
ENDTAB
  0
TABLE
  2
STYLE
  5
3
330
0
100
AcDbSymbolTable
 70
     1
  0
STYLE
  5
11
330
3
100
AcDbSymbolTableRecord
100
AcDbTextStyleTableRecord
  2
STANDARD
 70
     0
 40
0.0
 41
0.8
 50
0.0
 71
     0
 42
0.2
  3
isocp.shx
  4

  0
ENDTAB
  0
TABLE
  2
VIEW
  5
6
330
0
100
AcDbSymbolTable
 70
     0
  0
ENDTAB
  0
TABLE
  2
UCS
  5
7
330
0
100
AcDbSymbolTable
 70
     0
  0
ENDTAB
  0
TABLE
  2
APPID
  5
9
330
0
100
AcDbSymbolTable
 70
     1
  0
APPID
  5
20C
330
9
100
AcDbSymbolTableRecord
100
AcDbRegAppTableRecord
  2
ACAD
 70
     0
  0
ENDTAB
  0
TABLE
  2
DIMSTYLE
  5
A
330
0
100
AcDbSymbolTable
 70
     2
  0
DIMSTYLE
105
20D
330
A
100
AcDbSymbolTableRecord
100
AcDbDimStyleTableRecord
  2
STANDARD
 70
     0
  3

  4

  5

  6

  7

 40
1.0
 41
2.5
 42
0.0625
 43
0.38
 44
0.18
 45
0.0
 46
0.0
 47
0.005
 48
0.005
140
3.5
141
0.09
142
0.0
143
25.4
144
1.0
145
0.0
146
1.0
147
0.09
 71
     1
 72
     0
 73
     0
 74
     0
 75
     0
 76
     0
 77
     1
 78
     8
170
     0
171
     2
172
     0
173
     0
174
     0
175
     0
176
     0
177
     0
178
     5
270
     2
271
     3
272
     3
273
     2
274
     2
340
11
275
     0
280
     0
281
     0
282
     0
283
     1
284
     8
285
     0
286
     0
287
     3
288
     0
  0
DIMSTYLE
105
5B6
102
{ACAD_REACTORS
330
D2D
330
D2E
330
D2F
330
D30
330
D31
330
224D
102
}
330
A
100
AcDbSymbolTableRecord
100
AcDbDimStyleTableRecord
  2
ISO-25
 70
     0
  3

  4

  5

  6

  7

 40
1.0
 41
3.5
 42
0.625
 43
3.75
 44
1.25
 45
0.0
 46
0.0
 47
0.0
 48
0.0
140
3.5
141
2.5
142
0.0
143
0.03937007874016
144
1.0
145
0.0
146
1.0
147
0.625
 71
     0
 72
     0
 73
     0
 74
     0
 75
     0
 76
     0
 77
     1
 78
     8
170
     0
171
     3
172
     1
173
     0
174
     0
175
     0
176
   256
177
   256
178
   256
270
     2
271
     2
272
     2
273
     2
274
     3
340
11
275
     0
280
     0
281
     0
282
     0
283
     0
284
     8
285
     0
286
     0
287
     3
288
     0
  0
ENDTAB
  0
TABLE
  2
BLOCK_RECORD
  5
1
330
0
100
AcDbSymbolTable
 70
     9
  0
BLOCK_RECORD
  5
1F
102
{ACAD_XDICTIONARY
360
AF0
102
}
330
1
100
AcDbSymbolTableRecord
100
AcDbBlockTableRecord
  2
*MODEL_SPACE
  0
BLOCK_RECORD
  5
1B
102
{ACAD_XDICTIONARY
360
AEE
102
}
330
1
100
AcDbSymbolTableRecord
100
AcDbBlockTableRecord
  2
*PAPER_SPACE
  0
BLOCK_RECORD
  5
EB0
330
1
100
AcDbSymbolTableRecord
100
AcDbBlockTableRecord
  2
*D0
  0
BLOCK_RECORD
  5
EBE
330
1
100
AcDbSymbolTableRecord
100
AcDbBlockTableRecord
  2
*D1
  0
BLOCK_RECORD
  5
ECC
330
1
100
AcDbSymbolTableRecord
100
AcDbBlockTableRecord
  2
*D2
  0
BLOCK_RECORD
  5
EDA
330
1
100
AcDbSymbolTableRecord
100
AcDbBlockTableRecord
  2
*D3
  0
BLOCK_RECORD
  5
EE8
330
1
100
AcDbSymbolTableRecord
100
AcDbBlockTableRecord
  2
*D4
  0
BLOCK_RECORD
  5
2235
330
1
100
AcDbSymbolTableRecord
100
AcDbBlockTableRecord
  2
_ARROW_FILLED
  0
BLOCK_RECORD
  5
2239
330
1
100
AcDbSymbolTableRecord
100
AcDbBlockTableRecord
  2
*D6
  0
BLOCK_RECORD
  5
224E
330
1
100
AcDbSymbolTableRecord
100
AcDbBlockTableRecord
  2
*D8
  0
ENDTAB
  0
ENDSEC
  0
SECTION
  2
BLOCKS
  0
BLOCK
  5
20
330
1F
100
AcDbEntity
  8
0
100
AcDbBlockBegin
  2
*MODEL_SPACE
 70
     0
 10
0.0
 20
0.0
 30
0.0
  3
*MODEL_SPACE
  1

  0
ENDBLK
  5
21
330
1F
100
AcDbEntity
  8
0
100
AcDbBlockEnd
  0
BLOCK
  5
1C
330
1B
100
AcDbEntity
 67
     1
  8
0
100
AcDbBlockBegin
  2
*PAPER_SPACE
 70
     0
 10
0.0
 20
0.0
 30
0.0
  3
*PAPER_SPACE
  1

  0
ENDBLK
  5
1D
330
1B
100
AcDbEntity
 67
     1
  8
0
100
AcDbBlockEnd
  0
BLOCK
  5
EBC
330
EB0
100
AcDbEntity
  8
0
100
AcDbBlockBegin
  2
*D0
 70
     1
 10
0.0
 20
0.0
 30
0.0
  3
*D0
  1

  0
LINE
  5
212B
330
EB0
100
AcDbEntity
  8
2
100
AcDbLine
 10
12.32870058701154
 20
-8.249945210615576
 30
0.0
 11
33.49681253847605
 21
-8.249945210615582
 31
0.0
  0
LINE
  5
212C
330
EB0
100
AcDbEntity
  8
2
100
AcDbLine
 10
12.32873904023241
 20
8.249944065798018
 30
0.0
 11
33.49681253847605
 21
8.249944065798013
 31
0.0
  0
LINE
  5
212D
330
EB0
100
AcDbEntity
  8
2
100
AcDbLine
 10
32.24681253847605
 20
-4.749945210615582
 30
0.0
 11
32.24681253847605
 21
4.749944065798012
 31
0.0
  0
SOLID
  5
212E
330
EB0
100
AcDbEntity
  8
2
100
AcDbTrace
 10
31.66347920514273
 20
-4.749945210615582
 30
0.0
 11
32.83014587180939
 21
-4.749945210615582
 31
0.0
 12
32.24681253847605
 22
-8.249945210615582
 32
0.0
 13
32.24681253847605
 23
-8.249945210615582
 33
0.0
  0
SOLID
  5
212F
330
EB0
100
AcDbEntity
  8
2
100
AcDbTrace
 10
31.66347920514273
 20
4.749944065798012
 30
0.0
 11
32.83014587180939
 21
4.749944065798012
 31
0.0
 12
32.24681253847605
 22
8.249944065798013
 32
0.0
 13
32.24681253847605
 23
8.249944065798013
 33
0.0
  0
MTEXT
  5
2130
330
EB0
100
AcDbEntity
  8
2
100
AcDbMText
 10
29.87181253847605
 20
-0.1493990850146263
 30
0.0
 40
3.5
 41
0.0
 71
     5
 72
     1
  1
16.5
 11
0.0000000000000001
 21
1.0
 31
0.0
1001
ACAD
1000
MTEXTBEGIN
1070
    73
1070
     1
1070
    44
1040
1.0
1070
    74
1070
     0
1000
MTEXTEND
1000
MTEXTBEGIN
1070
    73
1070
     1
1070
    44
1040
1.0
1070
    74
1070
     0
1000
MTEXTEND
  0
POINT
  5
2131
330
EB0
100
AcDbEntity
  8
DEFPOINTS
 62
     0
100
AcDbPoint
 10
11.70370058701154
 20
-8.249945210615575
 30
0.0
  0
POINT
  5
2132
330
EB0
100
AcDbEntity
  8
DEFPOINTS
 62
     0
100
AcDbPoint
 10
11.70373904023241
 20
8.249944065798018
 30
0.0
  0
POINT
  5
2133
330
EB0
100
AcDbEntity
  8
DEFPOINTS
 62
     0
100
AcDbPoint
 10
32.24681253847605
 20
8.249944065798013
 30
0.0
  0
ENDBLK
  5
EBD
330
EB0
100
AcDbEntity
  8
0
100
AcDbBlockEnd
  0
BLOCK
  5
ECA
330
EBE
100
AcDbEntity
  8
0
100
AcDbBlockBegin
  2
*D1
 70
     1
 10
0.0
 20
0.0
 30
0.0
  3
*D1
  1

  0
LINE
  5
22AB
330
EBE
100
AcDbEntity
  8
2
100
AcDbLine
 10
14.83708827266547
 20
5.112911727314191
 30
0.0
 11
-9.848450296746293
 21
29.79845029688592
 31
0.0
  0
LINE
  5
22AC
330
EBE
100
AcDbEntity
  8
2
100
AcDbLine
 10
15.50689990447789
 20
-4.443100095522098
 30
0.0
 11
-9.848450296842765
 21
-29.79845029684287
 31
0.0
  0
ARC
  5
22AD
330
EBE
100
AcDbEntity
  8
2
100
AcDbCircle
 10
19.94999999997325
 20
-0.0000000000267137
 30
0.0
 40
40.89137254745788
100
AcDbArc
 50
139.9055945177189
 51
220.0944054820955
  0
SOLID
  5
22AE
330
EBE
100
AcDbEntity
  8
2
100
AcDbTrace
 10
-11.76101127623522
 20
26.73049351978548
 30
0.0
 11
-10.90150401895654
 21
25.94159657734218
 31
0.0
 12
-8.964566820265972
 22
28.91456682039986
 32
0.0
 13
-8.964566820265972
 23
28.91456682039986
 33
0.0
  0
SOLID
  5
22AF
330
EBE
100
AcDbEntity
  8
2
100
AcDbTrace
 10
-10.90150401904052
 20
-25.94159657729572
 30
0.0
 11
-11.76101127632175
 21
-26.73049351973624
 31
0.0
 12
-8.964566820359582
 22
-28.91456682035968
 32
0.0
 13
-8.964566820359582
 23
-28.91456682035968
 33
0.0
  0
MTEXT
  5
22B0
330
EBE
100
AcDbEntity
  8
2
100
AcDbMText
 10
-23.31637254748463
 20
0.0000000000308042
 30
0.0
 40
3.5
 41
0.0
 71
     5
 72
     1
  1
90°
 11
0.0000000000000001
 21
1.0
 31
0.0
  0
POINT
  5
22B1
330
EBE
100
AcDbEntity
  8
DEFPOINTS
 62
     0
100
AcDbPoint
 10
-19.54803281600128
 20
10.58346599572305
 30
0.0
  0
POINT
  5
22B2
330
EBE
100
AcDbEntity
  8
DEFPOINTS
 62
     0
100
AcDbPoint
 10
15.94884164271948
 20
-4.001158357280504
 30
0.0
  0
POINT
  5
22B3
330
EBE
100
AcDbEntity
  8
DEFPOINTS
 62
     0
100
AcDbPoint
 10
15.27903001090564
 20
4.670969989071167
 30
0.0
  0
POINT
  5
22B4
330
EBE
100
AcDbEntity
  8
DEFPOINTS
 62
     0
100
AcDbPoint
 10
18.85806002181127
 20
1.091939978142337
 30
0.0
  0
POINT
  5
22B5
330
EBE
100
AcDbEntity
  8
DEFPOINTS
 62
     0
100
AcDbPoint
 10
18.85806165855798
 20
-1.091938341441987
 30
0.0
  0
ENDBLK
  5
ECB
330
EBE
100
AcDbEntity
  8
0
100
AcDbBlockEnd
  0
BLOCK
  5
ED8
330
ECC
100
AcDbEntity
  8
0
100
AcDbBlockBegin
  2
*D2
 70
     1
 10
0.0
 20
0.0
 30
0.0
  3
*D2
  1

  0
LINE
  5
1DE4
330
ECC
100
AcDbEntity
  8
2
100
AcDbLine
 10
19.20000008868039
 20
-0.6250029893064464
 30
0.0
 11
19.20000008868039
 21
-26.83072008101603
 31
0.0
  0
LINE
  5
1DE5
330
ECC
100
AcDbEntity
  8
2
100
AcDbLine
 10
-0.0000057945548228
 20
-8.108998586345293
 30
0.0
 11
-0.000005794554824
 21
-26.83072008101603
 31
0.0
  0
LINE
  5
1DE6
330
ECC
100
AcDbEntity
  8
2
100
AcDbLine
 10
15.70000008868039
 20
-25.58072008101603
 30
0.0
 11
3.499994205445176
 21
-25.58072008101603
 31
0.0
  0
SOLID
  5
1DE7
330
ECC
100
AcDbEntity
  8
2
100
AcDbTrace
 10
15.70000008868039
 20
-24.9973867476827
 30
0.0
 11
15.70000008868039
 21
-26.16405341434937
 31
0.0
 12
19.20000008868039
 22
-25.58072008101603
 32
0.0
 13
19.20000008868039
 23
-25.58072008101603
 33
0.0
  0
SOLID
  5
1DE8
330
ECC
100
AcDbEntity
  8
2
100
AcDbTrace
 10
3.499994205445176
 20
-24.9973867476827
 30
0.0
 11
3.499994205445176
 21
-26.16405341434937
 31
0.0
 12
-0.0000057945548239
 22
-25.58072008101603
 32
0.0
 13
-0.0000057945548239
 23
-25.58072008101603
 33
0.0
  0
MTEXT
  5
1DE9
330
ECC
100
AcDbEntity
  8
2
100
AcDbMText
 10
8.243090557467551
 20
-23.2045297145426
 30
0.0
 40
3.5
 41
0.0
 71
     5
 72
     1
  1
19.2
1001
ACAD
1000
MTEXTBEGIN
1070
    73
1070
     1
1070
    44
1040
1.0
1070
    74
1070
     0
1000
MTEXTEND
1000
MTEXTBEGIN
1070
    73
1070
     1
1070
    44
1040
1.0
1070
    74
1070
     0
1000
MTEXTEND
  0
POINT
  5
1DEA
330
ECC
100
AcDbEntity
  8
DEFPOINTS
 62
     0
100
AcDbPoint
 10
19.20000008868039
 20
-0.0000029893064463
 30
0.0
  0
POINT
  5
1DEB
330
ECC
100
AcDbEntity
  8
DEFPOINTS
 62
     0
100
AcDbPoint
 10
-0.0000057945548228
 20
-7.483998586345293
 30
0.0
  0
POINT
  5
1DEC
330
ECC
100
AcDbEntity
  8
DEFPOINTS
 62
     0
100
AcDbPoint
 10
-0.0000057945548239
 20
-25.58072008101603
 30
0.0
  0
ENDBLK
  5
ED9
330
ECC
100
AcDbEntity
  8
0
100
AcDbBlockEnd
  0
BLOCK
  5
EE6
330
EDA
100
AcDbEntity
  8
0
100
AcDbBlockBegin
  2
*D3
 70
     1
 10
0.0
 20
0.0
 30
0.0
  3
*D3
  1

  0
LINE
  5
2120
330
EDA
100
AcDbEntity
  8
2
100
AcDbLine
 10
11.70373904023241
 20
8.874944065798018
 30
0.0
 11
11.70373904023241
 21
23.63755139644869
 31
0.0
  0
LINE
  5
2121
330
EDA
100
AcDbEntity
  8
2
100
AcDbLine
 10
19.2000000886803
 20
0.6249970106935538
 30
0.0
 11
19.2000000886803
 21
23.63755139644869
 31
0.0
  0
LINE
  5
2122
330
EDA
100
AcDbEntity
  8
2
100
AcDbLine
 10
8.203739040232415
 20
22.38755139644869
 30
0.0
 11
4.703739040232415
 21
22.38755139644869
 31
0.0
  0
LINE
  5
2123
330
EDA
100
AcDbEntity
  8
2
100
AcDbLine
 10
22.7000000886803
 20
22.38755139644869
 30
0.0
 11
26.2000000886803
 21
22.38755139644869
 31
0.0
  0
LINE
  5
2124
330
EDA
100
AcDbEntity
  8
2
100
AcDbLine
 10
11.70373904023241
 20
22.38755139644869
 30
0.0
 11
19.2000000886803
 21
22.38755139644869
 31
0.0
  0
SOLID
  5
2125
330
EDA
100
AcDbEntity
  8
2
100
AcDbTrace
 10
8.203739040232415
 20
22.97088472978203
 30
0.0
 11
8.203739040232415
 21
21.80421806311537
 31
0.0
 12
11.70373904023241
 22
22.38755139644869
 32
0.0
 13
11.70373904023241
 23
22.38755139644869
 33
0.0
  0
SOLID
  5
2126
330
EDA
100
AcDbEntity
  8
2
100
AcDbTrace
 10
22.7000000886803
 20
22.97088472978203
 30
0.0
 11
22.7000000886803
 21
21.80421806311537
 31
0.0
 12
19.2000000886803
 22
22.38755139644869
 32
0.0
 13
19.2000000886803
 23
22.38755139644869
 33
0.0
  0
MTEXT
  5
2127
330
EDA
100
AcDbEntity
  8
2
100
AcDbMText
 10
15.45186956445636
 20
24.76255139644869
 30
0.0
 40
3.5
 41
0.0
 71
     5
 72
     1
  1
7.5
1001
ACAD
1000
MTEXTBEGIN
1070
    73
1070
     1
1070
    44
1040
1.0
1070
    74
1070
     0
1000
MTEXTEND
1000
MTEXTBEGIN
1070
    73
1070
     1
1070
    44
1040
1.0
1070
    74
1070
     0
1000
MTEXTEND
  0
POINT
  5
2128
330
EDA
100
AcDbEntity
  8
DEFPOINTS
 62
     0
100
AcDbPoint
 10
11.70373904023241
 20
8.249944065798018
 30
0.0
  0
POINT
  5
2129
330
EDA
100
AcDbEntity
  8
DEFPOINTS
 62
     0
100
AcDbPoint
 10
19.2000000886803
 20
-0.0000029893064463
 30
0.0
  0
POINT
  5
212A
330
EDA
100
AcDbEntity
  8
DEFPOINTS
 62
     0
100
AcDbPoint
 10
19.2000000886803
 20
22.38755139644869
 30
0.0
  0
ENDBLK
  5
EE7
330
EDA
100
AcDbEntity
  8
0
100
AcDbBlockEnd
  0
BLOCK
  5
EF4
330
EE8
100
AcDbEntity
  8
0
100
AcDbBlockBegin
  2
*D4
 70
     1
 10
0.0
 20
0.0
 30
0.0
  3
*D4
  1

  0
LINE
  5
2134
330
EE8
100
AcDbEntity
  8
2
100
AcDbLine
 10
4.2
 20
8.987196309416559
 30
0.0
 11
4.200000000000001
 21
32.30313111797905
 31
0.0
  0
LINE
  5
2135
330
EE8
100
AcDbEntity
  8
2
100
AcDbLine
 10
19.2000000886803
 20
0.6249970106935538
 30
0.0
 11
19.2000000886803
 21
32.30313111797905
 31
0.0
  0
LINE
  5
2136
330
EE8
100
AcDbEntity
  8
2
100
AcDbLine
 10
7.700000000000001
 20
31.05313111797906
 30
0.0
 11
15.70000008868031
 21
31.05313111797906
 31
0.0
  0
SOLID
  5
2137
330
EE8
100
AcDbEntity
  8
2
100
AcDbTrace
 10
7.700000000000001
 20
31.63646445131238
 30
0.0
 11
7.700000000000001
 21
30.46979778464573
 31
0.0
 12
4.200000000000001
 22
31.05313111797906
 32
0.0
 13
4.200000000000001
 23
31.05313111797906
 33
0.0
  0
SOLID
  5
2138
330
EE8
100
AcDbEntity
  8
2
100
AcDbTrace
 10
15.70000008868031
 20
31.63646445131238
 30
0.0
 11
15.70000008868031
 21
30.46979778464573
 31
0.0
 12
19.2000000886803
 22
31.05313111797906
 32
0.0
 13
19.2000000886803
 23
31.05313111797906
 33
0.0
  0
MTEXT
  5
2139
330
EE8
100
AcDbEntity
  8
2
100
AcDbMText
 10
12.44975230633416
 20
33.42813111797905
 30
0.0
 40
3.5
 41
0.0
 71
     5
 72
     1
  1
15
1001
ACAD
1000
MTEXTBEGIN
1070
    73
1070
     1
1070
    44
1040
1.0
1070
    74
1070
     0
1000
MTEXTEND
1000
MTEXTBEGIN
1070
    73
1070
     1
1070
    44
1040
1.0
1070
    74
1070
     0
1000
MTEXTEND
  0
POINT
  5
213A
330
EE8
100
AcDbEntity
  8
DEFPOINTS
 62
     0
100
AcDbPoint
 10
4.2
 20
8.362196309416559
 30
0.0
  0
POINT
  5
213B
330
EE8
100
AcDbEntity
  8
DEFPOINTS
 62
     0
100
AcDbPoint
 10
19.2000000886803
 20
-0.0000029893064463
 30
0.0
  0
POINT
  5
213C
330
EE8
100
AcDbEntity
  8
DEFPOINTS
 62
     0
100
AcDbPoint
 10
19.2000000886803
 20
31.05313111797906
 30
0.0
  0
ENDBLK
  5
EF5
330
EE8
100
AcDbEntity
  8
0
100
AcDbBlockEnd
  0
BLOCK
  5
2237
330
2235
100
AcDbEntity
  8
0
100
AcDbBlockBegin
  2
_ARROW_FILLED
 70
     0
 10
0.0
 20
0.0
 30
0.0
  3
_ARROW_FILLED
  1

  0
SOLID
  5
2236
330
2235
100
AcDbEntity
  8
0
  6
BYBLOCK
 62
     0
100
AcDbTrace
 10
0.0
 20
0.0
 30
0.0
 11
-1.0
 21
0.132
 31
0.0
 12
-1.0
 22
-0.132
 32
0.0
 13
-1.0
 23
-0.132
 33
0.0
  0
ENDBLK
  5
2238
330
2235
100
AcDbEntity
  8
0
  6
BYBLOCK
 62
     0
100
AcDbBlockEnd
  0
BLOCK
  5
2245
330
2239
100
AcDbEntity
  8
0
100
AcDbBlockBegin
  2
*D6
 70
     1
 10
0.0
 20
0.0
 30
0.0
  3
*D6
  1

  0
LINE
  5
223A
330
2239
100
AcDbEntity
  8
SK2
100
AcDbLine
 10
-6.601886324057418
 20
2.650000887499999
 30
0.0
 11
-14.3152289181549
 21
2.650000887500001
 31
0.0
  0
LINE
  5
223B
330
2239
100
AcDbEntity
  8
SK2
100
AcDbLine
 10
-7.218414779224081
 20
-2.650000481916658
 30
0.0
 11
-14.3152289181549
 21
-2.650000481916657
 31
0.0
  0
LINE
  5
223C
330
2239
100
AcDbEntity
  8
SK2
100
AcDbLine
 10
-13.0652289181549
 20
6.1500008875
 30
0.0
 11
-13.0652289181549
 21
9.650000887500002
 31
0.0
  0
LINE
  5
223D
330
2239
100
AcDbEntity
  8
SK2
100
AcDbLine
 10
-13.0652289181549
 20
-6.150000481916657
 30
0.0
 11
-13.0652289181549
 21
-9.650000481916656
 31
0.0
  0
LINE
  5
223E
330
2239
100
AcDbEntity
  8
SK2
100
AcDbLine
 10
-13.0652289181549
 20
2.650000887500001
 30
0.0
 11
-13.0652289181549
 21
-2.650000481916657
 31
0.0
  0
SOLID
  5
223F
330
2239
100
AcDbEntity
  8
SK2
100
AcDbTrace
 10
-13.64856225148823
 20
6.1500008875
 30
0.0
 11
-12.48189558482156
 21
6.1500008875
 31
0.0
 12
-13.0652289181549
 22
2.650000887500001
 32
0.0
 13
-13.0652289181549
 23
2.650000887500001
 33
0.0
  0
SOLID
  5
2240
330
2239
100
AcDbEntity
  8
SK2
100
AcDbTrace
 10
-13.64856225148823
 20
-6.150000481916657
 30
0.0
 11
-12.48189558482156
 21
-6.150000481916657
 31
0.0
 12
-13.0652289181549
 22
-2.650000481916657
 32
0.0
 13
-13.0652289181549
 23
-2.650000481916657
 33
0.0
  0
MTEXT
  5
2241
330
2239
100
AcDbEntity
  8
SK2
100
AcDbMText
 10
-15.4402289181549
 20
0.0000002027916701
 30
0.0
 40
3.5
 41
0.0
 71
     5
 72
     1
  1
Ts5
 11
0.0000000000000001
 21
1.0
 31
0.0
1001
ACAD
1000
MTEXTBEGIN
1070
    73
1070
     1
1070
    44
1040
1.0
1070
    74
1070
     0
1000
MTEXTEND
  0
POINT
  5
2242
330
2239
100
AcDbEntity
  8
DEFPOINTS
 62
     0
100
AcDbPoint
 10
-5.976886324057418
 20
2.650000887499999
 30
0.0
  0
POINT
  5
2243
330
2239
100
AcDbEntity
  8
DEFPOINTS
 62
     0
100
AcDbPoint
 10
-6.593414779224081
 20
-2.650000481916659
 30
0.0
  0
POINT
  5
2244
330
2239
100
AcDbEntity
  8
DEFPOINTS
 62
     0
100
AcDbPoint
 10
-13.0652289181549
 20
-2.650000481916657
 30
0.0
  0
ENDBLK
  5
2246
330
2239
100
AcDbEntity
  8
0
100
AcDbBlockEnd
  0
BLOCK
  5
225A
330
224E
100
AcDbEntity
  8
0
100
AcDbBlockBegin
  2
*D8
 70
     1
 10
0.0
 20
0.0
 30
0.0
  3
*D8
  1

  0
LINE
  5
227D
330
224E
100
AcDbEntity
  8
SK2
100
AcDbLine
 10
-7.518882470374741
 20
5.137508746062481
 30
0.0
 11
-15.47451904906341
 21
5.137508746062484
 31
0.0
  0
LINE
  5
227E
330
224E
100
AcDbEntity
  8
SK2
100
AcDbLine
 10
-8.661813658499745
 20
-5.137503751062521
 30
0.0
 11
-15.47451904906341
 21
-5.137503751062518
 31
0.0
  0
LINE
  5
227F
330
224E
100
AcDbEntity
  8
SK2
100
AcDbLine
 10
-14.22451904906341
 20
8.637508746062483
 30
0.0
 11
-14.22451904906341
 21
12.13750874606248
 31
0.0
  0
LINE
  5
2280
330
224E
100
AcDbEntity
  8
SK2
100
AcDbLine
 10
-14.22451904906341
 20
-8.637503751062519
 30
0.0
 11
-14.22451904906342
 21
-12.13750375106251
 31
0.0
  0
LINE
  5
2281
330
224E
100
AcDbEntity
  8
SK2
100
AcDbLine
 10
-14.22451904906341
 20
5.137508746062484
 30
0.0
 11
-14.22451904906341
 21
-5.137503751062519
 31
0.0
  0
SOLID
  5
2282
330
224E
100
AcDbEntity
  8
SK2
100
AcDbTrace
 10
-14.80785238239675
 20
8.637508746062483
 30
0.0
 11
-13.64118571573008
 21
8.637508746062483
 31
0.0
 12
-14.22451904906341
 22
5.137508746062484
 32
0.0
 13
-14.22451904906341
 23
5.137508746062484
 33
0.0
  0
SOLID
  5
2283
330
224E
100
AcDbEntity
  8
SK2
100
AcDbTrace
 10
-14.80785238239675
 20
-8.637503751062519
 30
0.0
 11
-13.64118571573008
 21
-8.637503751062519
 31
0.0
 12
-14.22451904906341
 22
-5.137503751062519
 32
0.0
 13
-14.22451904906341
 23
-5.137503751062519
 33
0.0
  0
MTEXT
  5
2284
330
224E
100
AcDbEntity
  8
SK2
100
AcDbMText
 10
-16.59951904906341
 20
0.0000024974999827
 30
0.0
 40
3.5
 41
0.0
 71
     5
 72
     1
  1
Ts10
 11
0.0000000000000001
 21
1.0
 31
0.0
1001
ACAD
1000
MTEXTBEGIN
1070
    73
1070
     1
1070
    44
1040
1.0
1070
    74
1070
     0
1000
MTEXTEND
  0
POINT
  5
2285
330
224E
100
AcDbEntity
  8
DEFPOINTS
 62
     0
100
AcDbPoint
 10
-6.893882470374741
 20
5.137508746062481
 30
0.0
  0
POINT
  5
2286
330
224E
100
AcDbEntity
  8
DEFPOINTS
 62
     0
100
AcDbPoint
 10
-8.036813658499745
 20
-5.137503751062521
 30
0.0
  0
POINT
  5
2287
330
224E
100
AcDbEntity
  8
DEFPOINTS
 62
     0
100
AcDbPoint
 10
-14.22451904906341
 20
-5.137503751062519
 30
0.0
  0
ENDBLK
  5
225B
330
224E
100
AcDbEntity
  8
0
100
AcDbBlockEnd
  0
ENDSEC
  0
SECTION
  2
ENTITIES
  0
TEXT
  5
D2C
330
1F
100
AcDbEntity
  8
6
100
AcDbText
 10
-21.35109652912057
 20
-35.34352930287381
 30
0.0
 40
5.0
  1
45N16515TRRA45
 41
1.199999999999999
 72
     1
 11
9.373167539591321
 21
-35.34352930287381
 31
0.0
100
AcDbText
  0
DIMENSION
  5
D2D
330
1F
100
AcDbEntity
  8
2
100
AcDbDimension
  2
*D0
 10
32.24681253847605
 20
8.249944065798013
 30
0.0
 11
32.24681253847605
 21
-0.1493990850146265
 31
0.0
 70
   160
  3
ISO-25
100
AcDbAlignedDimension
 13
11.70370058701154
 23
-8.249945210615575
 33
0.0
 14
11.70373904023241
 24
8.249944065798018
 34
0.0
 50
90.0
100
AcDbRotatedDimension
  0
DIMENSION
  5
D2E
330
1F
100
AcDbEntity
  8
2
100
AcDbDimension
  2
*D1
 10
18.85806165855798
 20
-1.091938341441987
 30
0.0
 11
-20.94137254748463
 21
0.0000000000308073
 31
0.0
 70
   162
  3
ISO-25
100
AcDb2LineAngularDimension
 13
15.27903001090564
 23
4.670969989071167
 33
0.0
 14
18.85806002181127
 24
1.091939978142337
 34
0.0
 15
15.94884164271948
 25
-4.001158357280504
 35
0.0
 16
-19.54803281600128
 26
10.58346599572305
 36
0.0
1001
ACAD
1000
DSTYLE
1002
{
1070
   271
1070
     0
1070
   271
1070
     0
1070
   271
1070
     0
1070
   271
1070
     0
1070
   271
1070
     0
1070
   271
1070
     0
1002
}
  0
DIMENSION
  5
D2F
330
1F
100
AcDbEntity
  8
2
100
AcDbDimension
  2
*D2
 10
-0.0000057945548239
 20
-25.58072008101603
 30
0.0
 11
8.243090557467551
 21
-25.58072008101603
 31
0.0
 70
   160
  3
ISO-25
100
AcDbAlignedDimension
 13
19.20000008868039
 23
-0.0000029893064463
 33
0.0
 14
-0.0000057945548228
 24
-7.483998586345293
 34
0.0
 50
180.0
100
AcDbRotatedDimension
1001
ACAD
1000
DSTYLE
1002
{
1070
   271
1070
     2
1002
}
  0
DIMENSION
  5
D30
330
1F
100
AcDbEntity
  8
2
100
AcDbDimension
  2
*D3
 10
19.2000000886803
 20
22.38755139644869
 30
0.0
 11
15.45186956445636
 21
22.38755139644869
 31
0.0
 70
   160
  3
ISO-25
100
AcDbAlignedDimension
 13
11.70373904023241
 23
8.249944065798018
 33
0.0
 14
19.2000000886803
 24
-0.0000029893064463
 34
0.0
 50
180.0
100
AcDbRotatedDimension
1001
ACAD
1000
DSTYLE
1002
{
1070
   271
1070
     1
1002
}
  0
DIMENSION
  5
D31
330
1F
100
AcDbEntity
  8
2
100
AcDbDimension
  2
*D4
 10
19.2000000886803
 20
31.05313111797906
 30
0.0
 11
12.44975230633416
 21
31.05313111797906
 31
0.0
 70
   160
  3
ISO-25
100
AcDbAlignedDimension
 13
4.2
 23
8.362196309416559
 33
0.0
 14
19.2000000886803
 24
-0.0000029893064463
 34
0.0
 50
180.0
100
AcDbRotatedDimension
  0
LWPOLYLINE
  5
D36
330
1F
100
AcDbEntity
  8
1
100
AcDbPolyline
 90
        6
 70
     0
 43
0.0
 10
3.157629991682673
 20
8.377789651813854
 10
3.259645157336256
 20
8.017893845361477
 10
3.310335083114391
 20
7.866501943299494
 10
3.367895719613521
 20
7.717893811557344
 10
3.432273727034095
 20
7.571886526768918
 10
3.503498411206956
 20
7.428448004068812
  0
ARC
  5
D38
330
1F
100
AcDbEntity
  8
1
100
AcDbCircle
 10
1.735674032438893
 20
8.402292728266388
 30
0.0
 40
0.9240682727463127
100
AcDbArc
 50
299.3449749800142
 51
331.0629431557443
  0
LINE
  5
D3C
330
1F
100
AcDbEntity
  8
4
100
AcDbLine
 10
20.04764374881866
 20
-0.0000029893064463
 30
0.0
 11
0.0000000000002274
 21
0.0000000000000853
 31
0.0
  0
LWPOLYLINE
  5
D41
330
1F
100
AcDbEntity
  8
1
100
AcDbPolyline
 90
        7
 70
     0
 43
0.0
 10
3.058061694520009
 20
4.111145605975937
 10
3.165978562339458
 20
4.092271163797658
 10
3.269132808836938
 20
4.081132688205681
 10
3.366701619493491
 20
4.077153949745921
 10
3.460215788311998
 20
4.078484375207097
 10
3.551328857862673
 20
4.08361432879027
 10
3.639335577816366
 20
4.092386861434878
  0
LWPOLYLINE
  5
D42
330
1F
100
AcDbEntity
  8
1
100
AcDbPolyline
 90
        4
 70
     0
 43
0.0
 10
3.293591309131252
 20
-2.638672818914415
 10
3.207783635256892
 20
-2.474001113777319
 10
3.108479638598271
 20
-2.295777370862135
 10
3.002751419183613
 20
-2.115428357904055
  0
LINE
  5
D43
330
1F
100
AcDbEntity
  8
1
100
AcDbLine
 10
2.941827964993095
 20
-6.933845033923804
 30
0.0
 11
3.370312757174271
 21
-6.978321930797838
 31
0.0
  0
LINE
  5
D44
330
1F
100
AcDbEntity
  8
1
100
AcDbLine
 10
0.8944367445132868
 20
6.332559118863985
 30
0.0
 11
0.8944120952653713
 21
-5.791973051792434
 31
0.0
  0
LINE
  5
D45
330
1F
100
AcDbEntity
  8
1
100
AcDbLine
 10
0.0000000000002274
 20
7.484055802355592
 30
0.0
 11
0.0000000000002274
 21
-7.484055802355694
 31
0.0
  0
LINE
  5
D48
330
1F
100
AcDbEntity
  8
1
100
AcDbLine
 10
2.439876227773531
 20
-7.677703174024514
 30
0.0
 11
2.791846871475803
 21
-8.381890487851562
 31
0.0
  0
LINE
  5
D49
330
1F
100
AcDbEntity
  8
1
100
AcDbLine
 10
2.439876227773531
 20
-7.677703174024562
 30
0.0
 11
2.439876227773531
 21
-6.889635981033804
 31
0.0
  0
ARC
  5
D4A
330
1F
100
AcDbEntity
  8
1
100
AcDbCircle
 10
1.735701945887094
 20
-8.777432363644987
 30
0.0
 40
1.305858227287147
100
AcDbArc
 50
57.36791118991595
 51
82.08910784380885
  0
LINE
  5
D4D
330
1F
100
AcDbEntity
  8
1
100
AcDbLine
 10
2.440753849615765
 20
-6.879335957068724
 30
0.0
 11
2.439843275684836
 21
-6.889688807703233
 31
0.0
  0
LWPOLYLINE
  5
D4E
330
1F
100
AcDbEntity
  8
1
100
AcDbPolyline
 90
        4
 70
     0
 43
0.0
 10
0.8944120952653717
 20
-5.791973051792434
 10
0.8901012463606557
 20
-5.812889510114644
 10
0.887179250681255
 20
-5.832871356394034
 10
0.8856814562549404
 20
-5.851875333533798
  0
LWPOLYLINE
  5
D4F
330
1F
100
AcDbEntity
  8
1
100
AcDbPolyline
 90
       14
 70
     0
 43
0.0
 10
0.8856764148231366
 20
-5.851939298968659
 10
0.8855018185205249
 20
-5.870078905314806
 10
0.8865994156059302
 20
-5.887278647037524
 10
0.888894889741884
 20
-5.903549720589815
 10
0.8923205323467005
 20
-5.918887707309174
 10
0.8968004752609193
 20
-5.93332548343
 10
0.9022794920512174
 20
-5.946893806051653
 10
0.9086279491138911
 20
-5.959590282741137
 10
0.9157720607720795
 20
-5.971384361810677
 10
0.9234890558565432
 20
-5.982388462437222
 10
0.9315800633065132
 20
-5.992676868130387
 10
0.9398995971190799
 20
-6.002325578679628
 10
0.9482569850144672
 20
-6.011415885496681
 10
0.9565889149229308
 20
-6.019999723486684
  0
LINE
  5
D50
330
1F
100
AcDbEntity
  8
1
100
AcDbLine
 10
2.435975268169352
 20
-6.863902729743861
 30
0.0
 11
2.440753849615765
 21
-6.879335957068724
 31
0.0
  0
LWPOLYLINE
  5
D51
330
1F
100
AcDbEntity
  8
1
100
AcDbPolyline
 90
        4
 70
     0
 43
0.0
 10
0.9565889149229308
 20
-6.019999723486684
 10
0.964781851846774
 20
-6.028143569876437
 10
0.9727957926096577
 20
-6.035880622961521
 10
0.9825425140871104
 20
-6.043255014232876
  0
LWPOLYLINE
  5
D52
330
1F
100
AcDbEntity
  8
1
100
AcDbPolyline
 90
        9
 70
     0
 43
0.0
 10
2.043693955177334
 20
-6.432142521844137
 10
2.110286693351671
 20
-6.450138379342752
 10
2.175719505606764
 20
-6.479885095147935
 10
2.237942725526423
 20
-6.521543289756722
 10
2.295179671389913
 20
-6.574095185829983
 10
2.345768084094804
 20
-6.636774599698102
 10
2.387162998079193
 20
-6.707580443782275
 10
2.417533035052533
 20
-6.783683208356102
 10
2.436062122430689
 20
-6.863812419976308
  0
LINE
  5
D53
330
1F
100
AcDbEntity
  8
1
100
AcDbLine
 10
1.621451982496906
 20
-6.339621345184971
 30
0.0
 11
1.749131041979601
 21
-6.372372396334727
 31
0.0
  0
LINE
  5
D54
330
1F
100
AcDbEntity
  8
1
100
AcDbLine
 10
1.565270965415897
 20
-6.325526939227112
 30
0.0
 11
1.621451982496906
 21
-6.339621345184971
 31
0.0
  0
LWPOLYLINE
  5
D55
330
1F
100
AcDbEntity
  8
1
100
AcDbPolyline
 90
        3
 70
     0
 43
0.0
 10
1.7491310419796
 20
-6.372372396334724
 10
1.784898947912326
 20
-6.381306809674654
 10
1.822507046354096
 20
-6.390437600449727
  0
LWPOLYLINE
  5
D56
330
1F
100
AcDbEntity
  8
1
100
AcDbPolyline
 90
        3
 70
     0
 43
0.0
 10
1.822507046354096
 20
-6.390437600449727
 10
1.862109445660089
 20
-6.399576915572652
 10
1.903848437991679
 20
-6.408618762910792
  0
LWPOLYLINE
  5
D57
330
1F
100
AcDbEntity
  8
1
100
AcDbPolyline
 90
        5
 70
     0
 43
0.0
 10
0.9825425140871104
 20
-6.043255014232876
 10
1.489385867155524
 20
-6.299640512186892
 10
1.513627822296264
 20
-6.309784084750843
 10
1.538908000175144
 20
-6.319113029127803
 10
1.565270965415897
 20
-6.325526939227112
  0
LWPOLYLINE
  5
D58
330
1F
100
AcDbEntity
  8
1
100
AcDbPolyline
 90
        3
 70
     0
 43
0.0
 10
1.906001362650074
 20
-6.409094463826062
 10
1.991734532179756
 20
-6.42384176782646
 10
2.043633978777553
 20
-6.432137403602356
  0
LINE
  5
D59
330
1F
100
AcDbEntity
  8
1
100
AcDbLine
 10
2.585688078841285
 20
-6.894805941299829
 30
0.0
 11
2.732451697894775
 21
-6.911450610498416
 31
0.0
  0
LINE
  5
D5A
330
1F
100
AcDbEntity
  8
1
100
AcDbLine
 10
2.438116008950188
 20
-6.879010836040592
 30
0.0
 11
2.585688078841285
 21
-6.894805941299829
 31
0.0
  0
LINE
  5
D5B
330
1F
100
AcDbEntity
  8
1
100
AcDbLine
 10
2.732451628255581
 20
-6.91147005943512
 30
0.0
 11
2.941827964993095
 21
-6.933845033923804
 31
0.0
  0
LINE
  5
D5C
330
1F
100
AcDbEntity
  8
1
100
AcDbLine
 10
-0.0000057945548228
 20
-7.483998586345293
 30
0.0
 11
1.915436721123703
 21
-7.48400157565169
 31
0.0
  0
LWPOLYLINE
  5
DC6
330
1F
100
AcDbEntity
  8
1
100
AcDbPolyline
 90
       20
 70
     0
 43
0.0
 10
2.654668326760184
 20
-1.562988098793844
 10
2.442828807490311
 20
-1.252176357703415
 10
2.258233995011396
 20
-0.9395789198830227
 10
2.101659886861716
 20
-0.6301032246309191
 10
1.9707784529791
 20
-0.3252089794697919
 10
1.864134155746528
 20
-0.0268046120071595
 10
1.779885516959681
 20
0.2651338945155397
 10
1.715984965752601
 20
0.5508351013602362
 10
1.671595257472008
 20
0.8306181864789092
 10
1.645200789338977
 20
1.105155162224622
 10
1.63678908000161
 20
1.375084587841327
 10
1.645586470811586
 20
1.641225520997308
 10
1.672360902035521
 20
1.903981817083408
 10
1.717106067421571
 20
2.163677915077966
 10
1.781371057915209
 20
2.420576510923122
 10
1.866071591186971
 20
2.674703940983819
 10
1.973101489257349
 20
2.925101381405188
 10
2.104308739125952
 20
3.170768431182533
 10
2.260746562730124
 20
3.408885124824423
 10
2.444292827862359
 20
3.63682816558014
  0
LWPOLYLINE
  5
DF4
330
1F
100
AcDbEntity
  8
1
100
AcDbPolyline
 90
        4
 70
     0
 43
0.0
 10
3.002751419183613
 20
-2.115428357904055
 10
2.891041131412531
 20
-1.933245889750286
 10
2.774251368117433
 20
-1.749374821189351
 10
2.654675863569969
 20
-1.562991242597206
  0
LWPOLYLINE
  5
E0A
330
1F
100
AcDbEntity
  8
1
100
AcDbPolyline
 90
       10
 70
     0
 43
0.0
 10
2.407180221788948
 20
7.767484402579896
 10
2.40718022178886
 20
7.767484402579804
 10
2.383173933736094
 20
7.723245570125646
 10
2.359062968171417
 20
7.680747498278589
 10
2.333459008663479
 20
7.642195373594098
 10
2.306912278968535
 20
7.606752085916837
 10
2.2803472003809
 20
7.573391692432474
 10
2.253628567364351
 20
7.541999147753918
 10
2.226812099722238
 20
7.512432892763909
 10
2.200284907726106
 20
7.483489385255635
  0
ARC
  5
E0D
330
1F
100
AcDbEntity
  8
1
100
AcDbCircle
 10
1.915436605111325
 20
7.871103629074914
 30
0.0
 40
0.3871080321953413
100
AcDbArc
 50
269.9991595428999
 51
314.8676764860998
  0
LINE
  5
E0E
330
1F
100
AcDbEntity
  8
1
100
AcDbLine
 10
1.915436721123703
 20
7.483995597039068
 30
0.0
 11
0.0000000000002274
 21
7.484055802355592
 31
0.0
  0
LINE
  5
E0F
330
1F
100
AcDbEntity
  8
1
100
AcDbLine
 10
1.317196463108615
 20
7.151525097332759
 30
0.0
 11
1.16318253979275
 21
7.138377358329222
 31
0.0
  0
LWPOLYLINE
  5
E10
330
1F
100
AcDbEntity
  8
1
100
AcDbPolyline
 90
        5
 70
     0
 43
0.0
 10
1.16318253979275
 20
7.138377358329222
 10
1.13308791994638
 20
7.135285702762431
 10
1.104875024182852
 20
7.131666574421732
 10
1.07854385250235
 20
7.127513748169049
 10
1.054094404904601
 20
7.122820118734016
  0
LWPOLYLINE
  5
E11
330
1F
100
AcDbEntity
  8
1
100
AcDbPolyline
 90
       19
 70
     0
 43
0.0
 10
1.054094404904601
 20
7.122820118734016
 10
0.9674786308580179
 20
7.104465465751688
 10
0.8936089409906776
 20
7.083350263695469
 10
0.8324921306221682
 20
7.059024444476211
 10
0.7841078145906871
 20
7.032213943973037
 10
0.7486707609759078
 20
7.00381664935328
 10
0.7254823069665885
 20
6.973153285708612
 10
0.7142702976416098
 20
6.939842424178514
 10
0.7139699770915524
 20
6.903744162007427
 10
0.7243260092971953
 20
6.864518012923387
 10
0.7426379801450631
 20
6.822303865021699
 10
0.7672577679270545
 20
6.777410244644356
 10
0.7947731595673943
 20
6.729076424520513
 10
0.8217236186016243
 20
6.676782903572107
 10
0.8466059938035563
 20
6.619843341779152
 10
0.8668757847754326
 20
6.557406566011755
 10
0.8821965016112505
 20
6.489085888614369
 10
0.8912354062551164
 20
6.414228000377884
 10
0.8944367445132872
 20
6.332559118863985
  0
LWPOLYLINE
  5
E12
330
1F
100
AcDbEntity
  8
1
100
AcDbPolyline
 90
        5
 70
     0
 43
0.0
 10
2.827776171736226
 20
4.296382144609068
 10
2.884098351293484
 20
4.247300002870892
 10
2.941249029012403
 20
4.20004090295762
 10
2.999234708269701
 20
4.154643348970823
 10
3.058061694520009
 20
4.111145605975937
  0
LINE
  5
E13
330
1F
100
AcDbEntity
  8
1
100
AcDbLine
 10
2.167477051707941
 20
7.356084180559588
 30
0.0
 11
2.185048079828285
 21
7.288688811121645
 31
0.0
  0
LINE
  5
E14
330
1F
100
AcDbEntity
  8
1
100
AcDbLine
 10
2.149355127662484
 20
7.423285848173562
 30
0.0
 11
2.167477051707941
 21
7.356084180559588
 31
0.0
  0
LWPOLYLINE
  5
E15
330
1F
100
AcDbEntity
  8
1
100
AcDbPolyline
 90
        9
 70
     0
 43
0.0
 10
2.185048079828285
 20
7.288688811121645
 10
2.223267127086615
 20
7.133043058164249
 10
2.257560201680162
 20
6.978307899694826
 10
2.287558674018181
 20
6.824658181569835
 10
2.311589555621844
 20
6.675445715778215
 10
2.32804540554844
 20
6.53421720940215
 10
2.33638399038247
 20
6.399671296125982
 10
2.335890245768208
 20
6.270902221784456
 10
2.326474391004345
 20
6.147843157608226
  0
LWPOLYLINE
  5
E16
330
1F
100
AcDbEntity
  8
1
100
AcDbPolyline
 90
       13
 70
     0
 43
0.0
 10
2.260060763409833
 20
5.25424589031587
 10
2.283745801145546
 20
5.171673598306115
 10
2.312273842321275
 20
5.086307519087429
 10
2.345926034557925
 20
4.99778164704888
 10
2.38449591819342
 20
4.908318558748295
 10
2.428052640807541
 20
4.819580377993306
 10
2.475597537434556
 20
4.733082269648089
 10
2.525888253728386
 20
4.65087000081211
 10
2.579221761023306
 20
4.572600878591523
 10
2.635141842902339
 20
4.499006457489521
 10
2.694686375659916
 20
4.428842165222682
 10
2.759000733491709
 20
4.361005453152181
 10
2.827776171736226
 20
4.296382144609068
  0
LWPOLYLINE
  5
E17
330
1F
100
AcDbEntity
  8
1
100
AcDbPolyline
 90
        5
 70
     0
 43
0.0
 10
2.220042256357759
 20
5.564900004757643
 10
2.217357103267957
 20
5.494016965384794
 10
2.223047498605462
 20
5.418376756307827
 10
2.237251302482623
 20
5.338350227284693
 10
2.260060589550965
 20
5.254245891909476
  0
LWPOLYLINE
  5
E18
330
1F
100
AcDbEntity
  8
1
100
AcDbPolyline
 90
        3
 70
     0
 43
0.0
 10
2.254351654888667
 20
5.772501369998267
 10
2.236001705340732
 20
5.670680582490013
 10
2.220042256357759
 20
5.564900004757643
  0
LWPOLYLINE
  5
E19
330
1F
100
AcDbEntity
  8
1
100
AcDbPolyline
 90
        4
 70
     0
 43
0.0
 10
2.326484125990521
 20
6.147828236812877
 10
2.311434918678084
 20
6.056293389738012
 10
2.294046482778954
 20
5.963648277459181
 10
2.254351654888667
 20
5.772501369998267
  0
LWPOLYLINE
  5
E1A
330
1F
100
AcDbEntity
  8
1
100
AcDbPolyline
 90
        4
 70
     0
 43
0.0
 10
2.947379647974779
 20
4.056905263115693
 10
2.91126765492979
 20
4.040338843036638
 10
2.890648516457174
 20
4.031252954563902
 10
2.868057257762393
 20
4.021538085024968
  0
LWPOLYLINE
  5
E1B
330
1F
100
AcDbEntity
  8
1
100
AcDbPolyline
 90
        3
 70
     0
 43
0.0
 10
3.057774087346196
 20
4.111187536899651
 10
3.050212886300082
 20
4.107710786454656
 10
3.042254785018147
 20
4.103748821798446
  0
LWPOLYLINE
  5
E1C
330
1F
100
AcDbEntity
  8
1
100
AcDbPolyline
 90
        7
 70
     0
 43
0.0
 10
3.042254785018147
 20
4.103748821798446
 10
3.014122650325326
 20
4.089280300530201
 10
3.003002721547828
 20
4.083647703654186
 10
2.990868077324813
 20
4.077628968428014
 10
2.977629084042254
 20
4.071174139484042
 10
2.963167109814321
 20
4.064287256374028
 10
2.947379647974779
 20
4.056905263115693
  0
LWPOLYLINE
  5
E1D
330
1F
100
AcDbEntity
  8
1
100
AcDbPolyline
 90
        7
 70
     0
 43
0.0
 10
2.738244537908747
 20
3.933244503690361
 10
2.759482107667009
 20
3.94899469469563
 10
2.78088913062599
 20
3.964346559216082
 10
2.802470313726279
 20
3.979313980630263
 10
2.824211536624938
 20
3.993855309758572
 10
2.846098679297518
 20
4.007928897421241
 10
2.868136448205962
 20
4.02154862667831
  0
LINE
  5
E1E
330
1F
100
AcDbEntity
  8
1
100
AcDbLine
 10
2.709597055152289
 20
3.905171945569214
 30
0.0
 11
2.738156242737678
 21
3.93311315157595
 31
0.0
  0
LINE
  5
E1F
330
1F
100
AcDbEntity
  8
1
100
AcDbLine
 10
2.68164591193497
 20
3.877545268102221
 30
0.0
 11
2.709597055152289
 21
3.905171945569214
 31
0.0
  0
LINE
  5
E20
330
1F
100
AcDbEntity
  8
1
100
AcDbLine
 10
2.65431191972546
 20
3.850217638875555
 30
0.0
 11
2.68164591193497
 21
3.877545268102221
 31
0.0
  0
LINE
  5
E21
330
1F
100
AcDbEntity
  8
1
100
AcDbLine
 10
2.444292827862359
 20
3.636828165580141
 30
0.0
 11
2.654321570889493
 21
3.850227383423029
 31
0.0
  0
LWPOLYLINE
  5
E22
330
1F
100
AcDbEntity
  8
1
100
AcDbPolyline
 90
        7
 70
     0
 43
0.0
 10
2.149202384362904
 20
7.423185438969204
 10
2.13721708769188
 20
7.409376635627854
 10
2.123572036698817
 20
7.395450616132422
 10
2.108206884637265
 20
7.381539341820321
 10
2.091232986176069
 20
7.367982452297527
 10
2.072777474601616
 20
7.355128442980272
 10
2.052820233746813
 20
7.343152296931785
  0
LWPOLYLINE
  5
E23
330
1F
100
AcDbEntity
  8
1
100
AcDbPolyline
 90
        3
 70
     0
 43
0.0
 10
2.200284907726106
 20
7.483489385255635
 10
2.174577746434518
 20
7.453556253925812
 10
2.149355127662484
 20
7.423285848173561
  0
LWPOLYLINE
  5
E24
330
1F
100
AcDbEntity
  8
1
100
AcDbPolyline
 90
        9
 70
     0
 43
0.0
 10
2.043633978777553
 20
7.338269191194114
 10
1.968754834172386
 20
7.304082742178981
 10
1.887609382374603
 20
7.271922533400053
 10
1.799353397441581
 20
7.242546602016286
 10
1.706519557043395
 20
7.216445581984807
 10
1.61116995030409
 20
7.194056771765374
 10
1.513872115323735
 20
7.175657464122139
 10
1.416037815508266
 20
7.161380871826412
 10
1.317196463108615
 20
7.151525097332759
  0
LINE
  5
E25
330
1F
100
AcDbEntity
  8
1
100
AcDbLine
 10
2.052854310898978
 20
7.343175795300274
 30
0.0
 11
2.043645992893553
 21
7.338250727883102
 31
0.0
  0
LINE
  5
E26
330
1F
100
AcDbEntity
  8
1
100
AcDbLine
 10
13.83075878905319
 20
-5.49428990354774
 30
0.0
 11
14.741352742282
 21
-4.603996544125894
 31
0.0
  0
LINE
  5
E28
330
1F
100
AcDbEntity
  8
1
100
AcDbLine
 10
4.505642524962389
 20
-7.077837649418741
 30
0.0
 11
4.505642524962389
 21
-4.092576664101616
 31
0.0
  0
LINE
  5
E2A
330
1F
100
AcDbEntity
  8
1
100
AcDbLine
 10
12.73212881136083
 20
-6.588047650212955
 30
0.0
 11
13.83075878905319
 21
-5.49428990354774
 31
0.0
  0
LINE
  5
E2D
330
1F
100
AcDbEntity
  8
1
100
AcDbLine
 10
9.520869578738848
 20
-7.402239450599815
 30
0.0
 11
6.471952052552444
 21
-7.222928017372607
 31
0.0
  0
LWPOLYLINE
  5
E32
330
1F
100
AcDbEntity
  8
1
100
AcDbPolyline
 90
        3
 70
     0
 43
0.0
 10
4.041789944032471
 20
-7.038916274446856
 10
4.388722797396797
 20
-7.067720216080909
 10
4.505642524962389
 20
-7.077837649418741
  0
LWPOLYLINE
  5
E33
330
1F
100
AcDbEntity
  8
1
100
AcDbPolyline
 90
        5
 70
     0
 43
0.0
 10
3.370312688969522
 20
-6.978342903032383
 10
3.536293135853966
 20
-6.991916436801249
 10
3.703528973160333
 20
-7.006572781357706
 10
3.872024245539461
 20
-7.022261267413302
 10
4.041789818140253
 20
-7.038916275402975
  0
LINE
  5
E34
330
1F
100
AcDbEntity
  8
1
100
AcDbLine
 10
5.771675476105088
 20
-7.167063975605421
 30
0.0
 11
6.471952052552444
 21
-7.222928017372607
 31
0.0
  0
LWPOLYLINE
  5
E35
330
1F
100
AcDbEntity
  8
1
100
AcDbPolyline
 90
        3
 70
     0
 43
0.0
 10
4.505642524962389
 20
-7.077837649418741
 10
5.118154026281461
 20
-7.110219222400121
 10
5.77167547610509
 20
-7.167063975605421
  0
LWPOLYLINE
  5
E39
330
1F
100
AcDbEntity
  8
1
100
AcDbPolyline
 90
        3
 70
     0
 43
0.0
 10
11.78958932723681
 20
-7.542632110046534
 10
12.28109057648083
 20
-7.047436411535476
 10
12.73212881136084
 20
-6.588047650212955
  0
LINE
  5
E3A
330
1F
100
AcDbEntity
  8
1
100
AcDbLine
 10
10.33182087830109
 20
-7.456517259029011
 30
0.0
 11
9.520869578738848
 21
-7.402239450599815
 31
0.0
  0
LINE
  5
E3B
330
1F
100
AcDbEntity
  8
1
100
AcDbLine
 10
10.80879058615006
 20
-7.486308897853136
 30
0.0
 11
10.33182087686699
 21
-7.456517786820996
 31
0.0
  0
LINE
  5
E3C
330
1F
100
AcDbEntity
  8
1
100
AcDbLine
 10
11.78955095157735
 20
-7.542680930629487
 30
0.0
 11
10.80879058615006
 21
-7.486308897853136
 31
0.0
  0
LWPOLYLINE
  5
E3F
330
1F
100
AcDbEntity
  8
1
100
AcDbPolyline
 90
        9
 70
     0
 43
0.0
 10
13.72203228350201
 20
-1.69923446245535
 10
13.6009695108834
 20
-1.885516946446857
 10
13.47095737863204
 20
-2.057942972851366
 10
13.33440359759686
 20
-2.213710888576973
 10
13.18779566517485
 20
-2.357874390692948
 10
13.02827694342703
 20
-2.49302111749392
 10
12.85340344362688
 20
-2.62013389827853
 10
12.65889984783951
 20
-2.741200420896529
 10
12.44639019759041
 20
-2.852888206920468
  0
LWPOLYLINE
  5
E40
330
1F
100
AcDbEntity
  8
1
100
AcDbPolyline
 90
       11
 70
     0
 43
0.0
 10
11.21717888633319
 20
6.308941717520997
 10
11.60668870829252
 20
6.272759363390233
 10
12.00242914918834
 20
6.205613822578557
 10
12.4017194624824
 20
6.106427678228988
 10
12.81011867068161
 20
5.972021024223542
 10
13.23235651536724
 20
5.797882301771498
 10
13.66634577579201
 20
5.581725238353809
 10
14.11286499953108
 20
5.320438254581244
 10
14.56829246868585
 20
5.014216763617703
 10
15.02954863359508
 20
4.664694379430113
 10
16.4905913732023
 20
3.209408626766658
  0
LWPOLYLINE
  5
E41
330
1F
100
AcDbEntity
  8
1
100
AcDbPolyline
 90
        7
 70
     0
 43
0.0
 10
12.01336560848211
 20
1.672351500853898
 10
12.2359371893104
 20
1.5399577791459
 10
12.46329070605885
 20
1.401799341141908
 10
12.69538557070928
 20
1.257886437348777
 10
12.93238908083426
 20
1.108188316085335
 10
13.17446904984678
 20
0.9526742251925377
 10
13.42158596300081
 20
0.791354415496273
  0
LWPOLYLINE
  5
E42
330
1F
100
AcDbEntity
  8
1
100
AcDbPolyline
 90
        4
 70
     0
 43
0.0
 10
8.707445990004384
 20
-4.322757854301175
 10
8.193466577395728
 20
-4.329618544946006
 10
7.004205849009299
 20
-4.321328922203957
 10
6.436757811215741
 20
-4.295871794313212
  0
LINE
  5
E43
330
1F
100
AcDbEntity
  8
1
100
AcDbLine
 10
3.428771371356002
 20
-2.875176240776314
 30
0.0
 11
3.293591309131073
 21
-2.638672818914233
 31
0.0
  0
LINE
  5
E44
330
1F
100
AcDbEntity
  8
1
100
AcDbLine
 10
3.651489541737236
 20
-3.242606951250703
 30
0.0
 11
3.428771371356002
 21
-2.875176240776314
 31
0.0
  0
LWPOLYLINE
  5
E45
330
1F
100
AcDbEntity
  8
1
100
AcDbPolyline
 90
        3
 70
     0
 43
0.0
 10
3.876736057657018
 20
-3.565995611437688
 10
3.763261185306218
 20
-3.411401453696991
 10
3.651489541737237
 20
-3.242606951250703
  0
LWPOLYLINE
  5
E46
330
1F
100
AcDbEntity
  8
1
100
AcDbPolyline
 90
        4
 70
     0
 43
0.0
 10
4.240066108011435
 20
-3.934380049357182
 10
4.114297216159672
 20
-3.828260008746763
 10
3.993007132916133
 20
-3.705161358272741
 10
3.876736057657018
 20
-3.565995611437688
  0
LWPOLYLINE
  5
E47
330
1F
100
AcDbEntity
  8
1
100
AcDbPolyline
 90
        3
 70
     0
 43
0.0
 10
4.505642524962389
 20
-4.092576664101618
 10
4.370539636274735
 20
-4.022022640930388
 10
4.240066108011435
 20
-3.934380049357182
  0
LWPOLYLINE
  5
E48
330
1F
100
AcDbEntity
  8
1
100
AcDbPolyline
 90
        4
 70
     0
 43
0.0
 10
4.917113755096223
 20
-4.212812716190981
 10
4.77631510662217
 20
-4.181462020366886
 10
4.638734114128523
 20
-4.141408267435098
 10
4.505664976033731
 20
-4.092786239041362
  0
LWPOLYLINE
  5
E49
330
1F
100
AcDbEntity
  8
1
100
AcDbPolyline
 90
        3
 70
     0
 43
0.0
 10
5.211580434732556
 20
-4.250315133884797
 10
5.061919523429215
 20
-4.235709072493437
 10
4.917113755096223
 20
-4.212812716190981
  0
LWPOLYLINE
  5
E4A
330
1F
100
AcDbEntity
  8
1
100
AcDbPolyline
 90
        3
 70
     0
 43
0.0
 10
5.911480698649157
 20
-4.279198397910273
 10
5.640791213787503
 20
-4.268567318127638
 10
5.211580434732556
 20
-4.250315133884797
  0
LWPOLYLINE
  5
E4B
330
1F
100
AcDbEntity
  8
1
100
AcDbPolyline
 90
        3
 70
     0
 43
0.0
 10
6.436757811215741
 20
-4.295871794313212
 10
6.176802897632641
 20
-4.288299890025468
 10
5.911480698649157
 20
-4.279198397910273
  0
LINE
  5
E4C
330
1F
100
AcDbEntity
  8
1
100
AcDbLine
 10
11.87742471883072
 20
-3.328104098130852
 30
0.0
 11
11.62445675924584
 21
-3.51148931568828
 31
0.0
  0
LINE
  5
E4D
330
1F
100
AcDbEntity
  8
1
100
AcDbLine
 10
12.1195863680874
 20
-3.123483267724445
 30
0.0
 11
11.87742471883072
 21
-3.328104098130852
 31
0.0
  0
LINE
  5
E4E
330
1F
100
AcDbEntity
  8
1
100
AcDbLine
 10
12.34950030902491
 20
-2.898305094947541
 30
0.0
 11
12.1195863680874
 21
-3.123483267724445
 31
0.0
  0
LINE
  5
E4F
330
1F
100
AcDbEntity
  8
1
100
AcDbLine
 10
11.07028051814314
 20
-3.822558088201697
 30
0.0
 11
10.76323867011107
 21
-3.951866327531032
 31
0.0
  0
LINE
  5
E50
330
1F
100
AcDbEntity
  8
1
100
AcDbLine
 10
12.44652314359792
 20
-2.852941516283305
 30
0.0
 11
12.34944672588615
 21
-2.898307163088308
 31
0.0
  0
LINE
  5
E51
330
1F
100
AcDbEntity
  8
1
100
AcDbLine
 10
11.35635829519957
 20
-3.675673732310314
 30
0.0
 11
11.07028051814314
 21
-3.822558088201697
 31
0.0
  0
LINE
  5
E52
330
1F
100
AcDbEntity
  8
1
100
AcDbLine
 10
11.62445675924584
 20
-3.51148931568828
 30
0.0
 11
11.35635829519957
 21
-3.675673732310314
 31
0.0
  0
LINE
  5
E53
330
1F
100
AcDbEntity
  8
1
100
AcDbLine
 10
10.76323867011107
 20
-3.951866327531032
 30
0.0
 11
10.43080659594296
 21
-4.064000665263217
 31
0.0
  0
LINE
  5
E54
330
1F
100
AcDbEntity
  8
1
100
AcDbLine
 10
9.193112973632796
 20
-4.294695276098253
 30
0.0
 11
8.707445990004384
 21
-4.322757854301175
 31
0.0
  0
LINE
  5
E55
330
1F
100
AcDbEntity
  8
1
100
AcDbLine
 10
9.648573788329812
 20
-4.239379236325698
 30
0.0
 11
9.193112973632796
 21
-4.294695276098253
 31
0.0
  0
LINE
  5
E56
330
1F
100
AcDbEntity
  8
1
100
AcDbLine
 10
10.07445968074553
 20
-4.158826926427084
 30
0.0
 11
9.648573788329812
 21
-4.239379236325698
 31
0.0
  0
LINE
  5
E57
330
1F
100
AcDbEntity
  8
1
100
AcDbLine
 10
10.43080659594296
 20
-4.064000665263217
 30
0.0
 11
10.07445968074553
 21
-4.158827029690551
 31
0.0
  0
LWPOLYLINE
  5
E58
330
1F
100
AcDbEntity
  8
1
100
AcDbPolyline
 90
        7
 70
     0
 43
0.0
 10
11.21717866626058
 20
6.308941729632151
 10
10.20842210934252
 20
6.363231650022741
 10
9.203544782527409
 20
6.414534347188343
 10
8.202106233671971
 20
6.462913650153972
 10
6.556601657101852
 20
6.508299791280228
 10
5.566113443429217
 20
6.550640392489642
 10
4.581337304238077
 20
6.590016352059005
  0
LWPOLYLINE
  5
E59
330
1F
100
AcDbEntity
  8
1
100
AcDbPolyline
 90
       15
 70
     0
 43
0.0
 10
9.829302000737863
 20
3.201244939795069
 10
9.470950509946368
 20
3.378144956157484
 10
9.123205245234412
 20
3.526096158568236
 10
8.788166021844991
 20
3.647375288697908
 10
8.465854350640507
 20
3.746593174975816
 10
8.156405926544094
 20
3.82760688184293
 10
7.859829650943168
 20
3.893700526570783
 10
6.927105082875358
 20
3.947811827999231
 10
6.655517276119339
 20
3.992048738320833
 10
6.39570251548307
 20
4.028224803729504
 10
6.147259545333201
 20
4.058675946623021
 10
5.909816121533669
 20
4.085854602787503
 10
5.682415747007721
 20
4.109339968372551
 10
5.463672830257696
 20
4.129039241738835
 10
5.254434161606901
 20
4.14570991233291
  0
LWPOLYLINE
  5
E5A
330
1F
100
AcDbEntity
  8
1
100
AcDbPolyline
 90
        9
 70
     0
 43
0.0
 10
4.581337304238077
 20
6.590016352059005
 10
4.483258659922605
 20
6.59825911606735
 10
4.378985808887257
 20
6.622261217878946
 10
4.265522966906837
 20
6.662738923722907
 10
4.151878419370142
 20
6.717062090694818
 10
4.047500330759678
 20
6.782868891890022
 10
3.948063407535268
 20
6.860326142188014
 10
3.852242709318431
 20
6.948771483108637
 10
3.760482256743316
 20
7.048363059531415
  0
LWPOLYLINE
  5
E5B
330
1F
100
AcDbEntity
  8
1
100
AcDbPolyline
 90
        9
 70
     0
 43
0.0
 10
5.254434161606901
 20
4.14570991233291
 10
5.100560457212393
 20
4.156627851424798
 10
4.948224327480018
 20
4.164256353575598
 10
4.797905764796627
 20
4.168780917048041
 10
4.649715786790537
 20
4.170213499067703
 10
4.503551870699915
 20
4.168439871750556
 10
4.361016565673097
 20
4.163578839726161
 10
4.223584749581721
 20
4.155653463448544
 10
4.091571102036771
 20
4.144414943899796
  0
LWPOLYLINE
  5
E5C
330
1F
100
AcDbEntity
  8
1
100
AcDbPolyline
 90
        4
 70
     0
 43
0.0
 10
3.639335594070708
 20
4.092386861275544
 10
3.738182354424134
 20
4.104841738556181
 10
3.84634780134843
 20
4.117327737864791
 10
4.091569461292562
 20
4.144417109248564
  0
LWPOLYLINE
  5
E5D
330
1F
100
AcDbEntity
  8
1
100
AcDbPolyline
 90
        7
 70
     0
 43
0.0
 10
3.503498411206956
 20
7.428448004068812
 10
3.540646843779965
 20
7.362091075847754
 10
3.580064371575718
 20
7.296762871865134
 10
3.621747736531095
 20
7.232283055763602
 10
3.665707268832461
 20
7.169162689210645
 10
3.711953221377366
 20
7.107915073483066
 10
3.760482256743316
 20
7.048363059531415
  0
LWPOLYLINE
  5
E5E
330
1F
100
AcDbEntity
  8
1
100
AcDbPolyline
 90
        7
 70
     0
 43
0.0
 10
12.01340870367101
 20
1.672394383141418
 10
11.6391491518871
 20
1.982111584259669
 10
11.26844616567278
 20
2.270219691938826
 10
10.90191156377724
 20
2.536268186152665
 10
10.53968173337209
 20
2.7800376908415
 10
10.18192141020036
 20
3.001583325349957
 10
9.829324340099756
 20
3.201277247760999
  0
LWPOLYLINE
  5
E60
330
1F
100
AcDbEntity
  8
1
100
AcDbPolyline
 90
       13
 70
     0
 43
0.0
 10
17.31374632351887
 20
1.723617768751729
 10
17.45764107442909
 20
1.522087513150266
 10
17.60444035512544
 20
1.309519895679927
 10
17.75635590872948
 20
1.084098595575144
 10
17.90675250539969
 20
0.8512725751338965
 10
18.05112854905321
 20
0.6143841894374937
 10
18.18529488201526
 20
0.3779369404837546
 10
18.30364285500676
 20
0.1472831297721296
 10
18.40592934739298
 20
-0.0767812854823463
 10
18.48960612120692
 20
-0.2914785846463606
 10
18.55597987884722
 20
-0.4974017564761076
 10
18.60556507103632
 20
-0.6941762683038685
 10
18.63819021419967
 20
-0.8819269645647558
  0
LINE
  5
E61
330
1F
100
AcDbEntity
  8
1
100
AcDbLine
 10
11.69999999999999
 20
8.25
 30
0.0
 11
18.85806002181127
 21
1.091939978142337
 31
0.0
  0
LWPOLYLINE
  5
E63
330
1F
100
AcDbEntity
  8
1
100
AcDbPolyline
 90
        6
 70
     0
 43
0.0
 10
17.71459805803972
 20
-1.762929417080741
 10
17.79700162654587
 20
-1.695004737477866
 10
17.88253832386828
 20
-1.626976409412308
 10
17.96980884532436
 20
-1.559553881803004
 10
18.05935486657812
 20
-1.492701482807998
 10
18.15149735022538
 20
-1.426252115485272
  0
LWPOLYLINE
  5
E64
330
1F
100
AcDbEntity
  8
1
100
AcDbPolyline
 90
        9
 70
     0
 43
0.0
 10
17.82878832780355
 20
-1.171587240541168
 10
17.81268658506554
 20
-1.162585305545958
 10
17.78923343804664
 20
-1.148182832195447
 10
17.75733156439391
 20
-1.127696078951262
 10
17.7204649396588
 20
-1.103307186061335
 10
17.68163904783443
 20
-1.076927877282024
 10
17.64102731075872
 20
-1.04861121815916
 10
17.59827686534698
 20
-1.01768948353278
 10
17.55789378403227
 20
-0.9881988106563188
  0
LINE
  5
E65
330
1F
100
AcDbEntity
  8
1
100
AcDbLine
 10
16.76818118327532
 20
-2.647502387068878
 30
0.0
 11
17.50913524098057
 21
-1.944587217151604
 31
0.0
  0
LWPOLYLINE
  5
E66
330
1F
100
AcDbEntity
  8
1
100
AcDbPolyline
 90
        4
 70
     0
 43
0.0
 10
14.741352742282
 20
-4.603996544125894
 10
15.93282576661095
 20
-3.451944804603293
 10
16.35540375765856
 20
-3.044016950343537
 10
16.76818118327532
 20
-2.647502387068878
  0
LWPOLYLINE
  5
E68
330
1F
100
AcDbEntity
  8
1
100
AcDbPolyline
 90
        7
 70
     0
 43
0.0
 10
17.50913524098058
 20
-1.944587217151604
 10
17.54766561194156
 20
-1.909160290701499
 10
17.58448810853271
 20
-1.875904930814551
 10
17.61947278002907
 20
-1.844773174728956
 10
17.65278338786201
 20
-1.815659568462791
 10
17.68455055524514
 20
-1.78841817471223
 10
17.7145905553324
 20
-1.762917565190599
  0
LINE
  5
E69
330
1F
100
AcDbEntity
  8
1
100
AcDbLine
 10
14.19100155708679
 20
-0.754976726446225
 30
0.0
 11
14.17532815500869
 21
-0.7912949517493285
 31
0.0
  0
LINE
  5
E6A
330
1F
100
AcDbEntity
  8
1
100
AcDbLine
 10
14.17532815500869
 20
-0.7912949517493285
 30
0.0
 11
14.14486466287058
 21
-0.8630140853745535
 31
0.0
  0
LINE
  5
E6B
330
1F
100
AcDbEntity
  8
1
100
AcDbLine
 10
14.14486466287058
 20
-0.8630140853745535
 30
0.0
 11
14.11439290279068
 21
-0.936159505285093
 31
0.0
  0
LWPOLYLINE
  5
E6C
330
1F
100
AcDbEntity
  8
1
100
AcDbPolyline
 90
        5
 70
     0
 43
0.0
 10
14.23886460954752
 20
-0.6473296198399559
 10
14.25287688109243
 20
-0.6171808042846206
 10
14.26706059892183
 20
-0.5873530966592308
 10
14.28141492035359
 20
-0.5578728414560367
 10
14.31177477231571
 20
-0.4925471455999468
  0
LWPOLYLINE
  5
E6D
330
1F
100
AcDbEntity
  8
1
100
AcDbPolyline
 90
        7
 70
     0
 43
0.0
 10
14.11442301497078
 20
-0.93613722743513
 10
14.05645723419762
 20
-1.065625916106145
 10
13.99558421567747
 20
-1.194310503281534
 10
13.93179730464402
 20
-1.322230881226005
 10
13.86512434275235
 20
-1.449267372828195
 10
13.79559305437044
 20
-1.575300300658557
 10
13.72319660625243
 20
-1.700369556981309
  0
LWPOLYLINE
  5
E6E
330
1F
100
AcDbEntity
  8
1
100
AcDbPolyline
 90
        3
 70
     0
 43
0.0
 10
14.23857813827344
 20
-0.6471152127048926
 10
14.22262565081964
 20
-0.6828852006426577
 10
14.19100155708679
 20
-0.7549767264462251
  0
LWPOLYLINE
  5
E6F
330
1F
100
AcDbEntity
  8
1
100
AcDbPolyline
 90
       13
 70
     0
 43
0.0
 10
17.30843087294736
 20
-0.8055412838219531
 10
17.13958638071263
 20
-0.6752985714094235
 10
16.97960425552724
 20
-0.5530107912971755
 10
16.82840394109451
 20
-0.4385380735562443
 10
16.68497331853895
 20
-0.3312103055345743
 10
16.54870885187359
 20
-0.2305494987643226
 10
16.41880344177099
 20
-0.1361222408764128
 10
16.29440210422752
 20
-0.0474350667695687
 10
16.17525794661806
 20
0.0356602388741325
 10
16.06091604347891
 20
0.1133968092813009
 10
15.95126424271699
 20
0.1859597357160322
 10
15.84602165423313
 20
0.2535945008090215
 10
15.74532940018653
 20
0.3163158419352752
  0
LINE
  5
E70
330
1F
100
AcDbEntity
  8
1
100
AcDbLine
 10
17.46629350065352
 20
-0.9220095229454523
 30
0.0
 11
17.37136495879211
 21
-0.8513954872005832
 31
0.0
  0
LINE
  5
E71
330
1F
100
AcDbEntity
  8
1
100
AcDbLine
 10
16.04049232183538
 20
-1.019348603612617
 30
0.0
 11
15.85904415821642
 21
-0.8839660110829983
 31
0.0
  0
LWPOLYLINE
  5
E72
330
1F
100
AcDbEntity
  8
1
100
AcDbPolyline
 90
        3
 70
     0
 43
0.0
 10
17.37136495879213
 20
-0.8513954872005834
 10
17.33981748905123
 20
-0.8282822685431028
 10
17.30843087294736
 20
-0.8055412838219531
  0
LWPOLYLINE
  5
E73
330
1F
100
AcDbEntity
  8
1
100
AcDbPolyline
 90
        5
 70
     0
 43
0.0
 10
15.85904413192227
 20
-0.8839663334631026
 10
15.7869136427491
 20
-0.8318418341758595
 10
15.71716161149964
 20
-0.7825349109744403
 10
15.64973609546043
 20
-0.7359786711878576
 10
15.58458489838014
 20
-0.6921087191157546
  0
LWPOLYLINE
  5
E74
330
1F
100
AcDbEntity
  8
1
100
AcDbPolyline
 90
        3
 70
     0
 43
0.0
 10
17.55789378403227
 20
-0.9881988106563188
 10
17.49726860774827
 20
-0.944772410867243
 10
17.46629350065352
 20
-0.9220095229454523
  0
LWPOLYLINE
  5
E75
330
1F
100
AcDbEntity
  8
1
100
AcDbPolyline
 90
       14
 70
     0
 43
0.0
 10
13.92152946004323
 20
0.4836065091933073
 10
14.01280987561142
 20
0.4181984786120951
 10
14.09477418938619
 20
0.3489182140374972
 10
14.16665705559909
 20
0.2762425732960757
 10
14.22813376579875
 20
0.2002342211470131
 10
14.27858461415858
 20
0.1222987704365431
 10
14.3174745660763
 20
0.0437701343227892
 10
14.34549527534526
 20
-0.0348561042325729
 10
14.36310431180596
 20
-0.1125320918849636
 10
14.37098200116964
 20
-0.189653207803451
 10
14.36975115306668
 20
-0.2664466097888782
 10
14.35942649674555
 20
-0.3426360015395686
 10
14.33935828288259
 20
-0.4174652739625178
 10
14.31177477231571
 20
-0.4925471455999468
  0
LWPOLYLINE
  5
E76
330
1F
100
AcDbEntity
  8
1
100
AcDbPolyline
 90
       17
 70
     0
 43
0.0
 10
15.74532940018653
 20
0.3163158419352752
 10
15.6523654036511
 20
0.3723580859451244
 10
15.56324857880676
 20
0.4242232861532704
 10
15.47805050247728
 20
0.4719524310437066
 10
15.39676924739346
 20
0.5155968681304742
 10
15.31939941994411
 20
0.5552154622944938
 10
15.246029332033
 20
0.5907927976172595
 10
15.176673043925
 20
0.6223605728411778
 10
15.11152477615314
 20
0.6497640048911335
 10
15.05065326403872
 20
0.6728540560064347
 10
14.9943102311276
 20
0.691359072444581
 10
14.94274912887782
 20
0.7050101721677801
 10
14.89596083136793
 20
0.7135013135345388
 10
14.85420463927022
 20
0.7166403232771366
 10
14.81679373624564
 20
0.713599310385917
 10
14.78297571937688
 20
0.7109436001818164
 10
14.46107523559858
 20
0.6782404585613211
  0
LWPOLYLINE
  5
E77
330
1F
100
AcDbEntity
  8
1
100
AcDbPolyline
 90
        5
 70
     0
 43
0.0
 10
16.85833435314888
 20
-1.607046098210394
 10
16.70652475550347
 20
-1.504558560809576
 10
16.54800480517141
 20
-1.393636962120414
 10
16.38607544709141
 20
-1.275345590975865
 10
16.04049232183538
 20
-1.019348603612617
  0
LWPOLYLINE
  5
E78
330
1F
100
AcDbEntity
  8
1
100
AcDbPolyline
 90
        8
 70
     0
 43
0.0
 10
15.58458489838014
 20
-0.6921087191157546
 10
15.55674777253548
 20
-0.6736357282622522
 10
15.52881025884033
 20
-0.6553433113676746
 10
15.50072230153271
 20
-0.6371834822451045
 10
15.4726880953266
 20
-0.6193175093384272
 10
15.44488649136858
 20
-0.6018636897233161
 10
15.41730792741549
 20
-0.5848818482507196
 10
15.38967879664068
 20
-0.568353517146953
  0
LWPOLYLINE
  5
E79
330
1F
100
AcDbEntity
  8
1
100
AcDbPolyline
 90
        7
 70
     0
 43
0.0
 10
13.42158654019361
 20
0.7913487833266469
 10
13.48785710354007
 20
0.7486719105310935
 10
13.55428009545525
 20
0.7065544838246414
 10
13.62088403326992
 20
0.6650302261075229
 10
13.68756787752118
 20
0.6242136117899203
 10
13.75423073997622
 20
0.5842150057716557
 10
13.82090233410331
 20
0.5450642023145869
  0
LINE
  5
E7A
330
1F
100
AcDbEntity
  8
1
100
AcDbLine
 10
13.82091266556418
 20
0.5450577255505923
 30
0.0
 11
13.92152946004323
 21
0.4836065091933072
 31
0.0
  0
LWPOLYLINE
  5
E7B
330
1F
100
AcDbEntity
  8
1
100
AcDbPolyline
 90
       17
 70
     0
 43
0.0
 10
15.38967879664068
 20
-0.568353517146953
 10
15.3384271415006
 20
-0.5381549361787461
 10
15.3146768504034
 20
-0.5244770119787569
 10
15.29068703010977
 20
-0.5112681405969376
 10
15.26679087836036
 20
-0.4986111891713703
 10
15.24296655745044
 20
-0.4864656053795884
 10
15.21925488567027
 20
-0.4748835070690192
 10
15.19618596168484
 20
-0.4641260125429438
 10
15.1722615711616
 20
-0.453520619424991
 10
15.14538994210449
 20
-0.4420787569271477
 10
15.11813939629752
 20
-0.4311412868293087
 10
15.09222777528052
 20
-0.4216531277750561
 10
15.06773199594413
 20
-0.4136068497246307
 10
15.04498797721724
 20
-0.4073252381634818
 10
15.02482660188533
 20
-0.4027010237095073
 10
15.00830892685368
 20
-0.3997423393286087
 10
14.99498603953369
 20
-0.3983965690217937
  0
LINE
  5
E7C
330
1F
100
AcDbEntity
  8
1
100
AcDbLine
 10
14.34193452042801
 20
-0.6055436060709281
 30
0.0
 11
14.23857813827344
 21
-0.6471152127048926
 31
0.0
  0
LWPOLYLINE
  5
E7D
330
1F
100
AcDbEntity
  8
1
100
AcDbPolyline
 90
        3
 70
     0
 43
0.0
 10
14.53730958797624
 20
-0.5244793210680421
 10
14.44132409648843
 20
-0.5646861554556978
 10
14.34193452042801
 20
-0.605543606070928
  0
LWPOLYLINE
  5
E7E
330
1F
100
AcDbEntity
  8
1
100
AcDbPolyline
 90
        7
 70
     0
 43
0.0
 10
17.50913524098058
 20
-1.944587217151604
 10
17.40708303031004
 20
-1.905749847926826
 10
17.30115406881926
 20
-1.859383750875408
 10
17.19298876563533
 20
-1.805776898418571
 10
17.08291297403389
 20
-1.745518126457738
 10
16.9710125514951
 20
-1.679184150327978
 10
16.85833435314888
 20
-1.607046098210394
  0
LWPOLYLINE
  5
E7F
330
1F
100
AcDbEntity
  8
1
100
AcDbPolyline
 90
        5
 70
     0
 43
0.0
 10
14.99498603953369
 20
-0.3983965690217937
 10
14.90505724173386
 20
-0.4021569360115065
 10
14.81488022577369
 20
-0.4182871184732189
 10
14.72349079809049
 20
-0.4485999531411392
 10
14.53730958797624
 20
-0.5244793210680421
  0
LWPOLYLINE
  5
E80
330
1F
100
AcDbEntity
  8
1
100
AcDbPolyline
 90
        5
 70
     0
 43
0.0
 10
14.46107523559858
 20
0.6782404585613211
 10
14.39689248772132
 20
0.6722615212594856
 10
14.33171365503507
 20
0.6627633778247813
 10
14.26514530316855
 20
0.6506833634005517
 10
14.197218159103
 20
0.6361725456424661
  0
LWPOLYLINE
  5
E81
330
1F
100
AcDbEntity
  8
1
100
AcDbPolyline
 90
        4
 70
     0
 43
0.0
 10
14.197218159103
 20
0.6361725456424661
 10
14.05456394889257
 20
0.6033460338095221
 10
13.97930157835312
 20
0.5854303797897683
 10
13.90141777666076
 20
0.5659540673877082
  0
LINE
  5
E82
330
1F
100
AcDbEntity
  8
1
100
AcDbLine
 10
13.90141777666076
 20
0.5659540673877082
 30
0.0
 11
13.82093924957065
 21
0.5449987094387426
 31
0.0
  0
LINE
  5
E85
330
1F
100
AcDbEntity
  8
1
100
AcDbLine
 10
19.19999057926698
 20
0.1255271251971235
 30
0.0
 11
18.85806002181129
 21
1.09193997814233
 31
0.0
  0
LINE
  5
E86
330
1F
100
AcDbEntity
  8
1
100
AcDbLine
 10
19.1678201690628
 20
0.0400711546832692
 30
0.0
 11
19.20000017736498
 21
0.1255232819739984
 31
0.0
  0
LINE
  5
E88
330
1F
100
AcDbEntity
  8
1
100
AcDbLine
 10
19.20000017736498
 20
0.1255232819739984
 30
0.0
 11
19.19999999999999
 21
-0.1255232819740993
 31
0.0
  0
LINE
  5
E89
330
1F
100
AcDbEntity
  8
1
100
AcDbLine
 10
19.03314609815152
 20
-0.2296820373925422
 30
0.0
 11
19.06563305531642
 21
-0.1752900538267786
 31
0.0
  0
LINE
  5
E8A
330
1F
100
AcDbEntity
  8
1
100
AcDbLine
 10
19.06563305531642
 20
-0.1752900538267786
 30
0.0
 11
19.10044691222105
 21
-0.1101739885263757
 31
0.0
  0
LWPOLYLINE
  5
E8B
330
1F
100
AcDbEntity
  8
1
100
AcDbPolyline
 90
        7
 70
     0
 43
0.0
 10
18.63822537067967
 20
-0.8819240159742191
 10
18.61050397641528
 20
-0.9368991156253509
 10
18.58307487538907
 20
-0.9905992355237891
 10
18.55592958006505
 20
-1.043042863362685
 10
18.52909355241399
 20
-1.094174535744224
 10
18.50259225440644
 20
-1.143938788634192
 10
18.4764171986662
 20
-1.192354110044007
  0
LINE
  5
E8C
330
1F
100
AcDbEntity
  8
1
100
AcDbLine
 10
19.10044691222105
 20
-0.1101739885263757
 30
0.0
 11
19.13469897936725
 21
-0.0385484436073565
 31
0.0
  0
LINE
  5
E8D
330
1F
100
AcDbEntity
  8
1
100
AcDbLine
 10
19.13469897936725
 20
-0.0385484436073565
 30
0.0
 11
19.1678201690628
 21
0.0400711546832692
 31
0.0
  0
LINE
  5
E8E
330
1F
100
AcDbEntity
  8
1
100
AcDbLine
 10
18.63819021419967
 20
-0.8819269645647558
 30
0.0
 11
19.03314609815152
 21
-0.2296820373925422
 31
0.0
  0
LWPOLYLINE
  5
E8F
330
1F
100
AcDbEntity
  8
1
100
AcDbPolyline
 90
        9
 70
     0
 43
0.0
 10
18.15149735022538
 20
-1.426252115485272
 10
18.27192354473123
 20
-1.341878784768625
 10
18.29959688300994
 20
-1.322338483027885
 10
18.32783782695594
 20
-1.302140718427063
 10
18.35660059700453
 20
-1.281326196112386
 10
18.38584132492357
 20
-1.259931549966869
 10
18.41556912324887
 20
-1.237955684726846
 10
18.44577742916387
 20
-1.215411334803488
 10
18.47646904719934
 20
-1.19229386703949
  0
LWPOLYLINE
  5
E90
330
1F
100
AcDbEntity
  8
1
100
AcDbPolyline
 90
        7
 70
     0
 43
0.0
 10
18.24461414487903
 20
-1.360903107071419
 10
18.17523285343097
 20
-1.334570191383062
 10
18.10604910161238
 20
-1.306198986602367
 10
18.03701822153525
 20
-1.275837778189957
 10
17.9679163647743
 20
-1.243340083521206
 10
17.89852217366119
 20
-1.208566657668224
 10
17.82878832780355
 20
-1.171587240541168
  0
LWPOLYLINE
  5
E95
330
1F
100
AcDbEntity
  8
1
100
AcDbPolyline
 90
        4
 70
     0
 43
0.0
 10
16.4905913732023
 20
3.209408626766658
 10
16.50673693555147
 20
3.147925714750096
 10
16.53819187471953
 20
3.045592759952337
 10
16.57343726325738
 20
2.946274273560183
  0
LWPOLYLINE
  5
E96
330
1F
100
AcDbEntity
  8
1
100
AcDbPolyline
 90
        7
 70
     0
 43
0.0
 10
16.5728841862066
 20
2.946104395830893
 10
16.65752515390206
 20
2.748375570919736
 10
16.75990934195423
 20
2.55015785462492
 10
16.88236444338379
 20
2.351484861961659
 10
17.01815823162601
 20
2.148992748817898
 10
17.16089779750057
 20
1.939622953702721
 10
17.31387405630735
 20
1.723694437204855
  0
LINE
  5
E9C
330
1F
100
AcDbEntity
  8
1
100
AcDbLine
 10
2.791509346078138
 20
8.383266636512258
 30
0.0
 11
2.5443740209046
 21
7.955183679653054
 31
0.0
  0
LINE
  5
EA8
330
1F
100
AcDbEntity
  8
1
100
AcDbLine
 10
2.791509346078138
 20
8.383266636512258
 30
0.0
 11
11.69999999999999
 21
8.25
 31
0.0
  0
TEXT
  5
EAF
330
1F
100
AcDbEntity
  8
6
100
AcDbText
 10
39.41349228665803
 20
-4.851159876397815
 30
0.0
 40
3.5
  1
Z=2
 50
90.0
100
AcDbText
  0
LWPOLYLINE
  5
FFC
330
1F
100
AcDbEntity
  8
CUT
100
AcDbPolyline
 90
        6
 70
     1
 43
0.0
 10
18.85806002181129
 20
1.09193997814233
 10
11.70373904023241
 20
8.249944065798018
 10
4.2
 20
8.362196309416559
 10
4.2
 20
0.0
 10
19.2000000886803
 20
-0.0000029893064463
 10
19.200000177365
 20
0.1255232819739985
  0
LWPOLYLINE
  5
10BE
330
1F
100
AcDbEntity
  8
NOCUT
100
AcDbPolyline
 90
        9
 70
     1
 43
0.0
 10
2.791509346078139
 20
8.383266636512258
 10
4.2
 20
8.362196309416559
 10
4.2
 20
0.0
 10
0.0000000000002274
 20
0.0000000000000853
 10
0.0000000000002274
 20
7.484055802355772
 10
1.915436721123703
 20
7.483995597039066
 42
0.1983121443529956
 10
2.188530423656961
 20
7.596745478362546
 42
0.1392037222590473
 10
2.544374020904599
 20
7.955183679653054
 10
2.791509346078141
 20
8.383266636512258
  0
LINE
  5
1404
330
1F
100
AcDbEntity
  8
1
100
AcDbLine
 10
11.69999999999999
 20
-8.25
 30
0.0
 11
18.85806165855798
 21
-1.091938341441987
 31
0.0
  0
LINE
  5
1405
330
1F
100
AcDbEntity
  8
1
100
AcDbLine
 10
19.19999057926698
 20
-0.1255301145034843
 30
0.0
 11
18.858061658558
 21
-1.09193834144199
 31
0.0
  0
LINE
  5
17F0
330
1F
100
AcDbEntity
  8
1
100
AcDbLine
 10
2.791846871475804
 20
-8.381890487851562
 30
0.0
 11
11.69999999999999
 21
-8.25
 31
0.0
  0
LINE
  5
1F65
330
1F
100
AcDbEntity
  8
SK4
100
AcDbLine
 10
0.0000000000002274
 20
-0.0000000000000511
 30
0.0
 11
-11.29622160587626
 21
-0.0000000000000582
 31
0.0
  0
LINE
  5
1F66
330
1F
100
AcDbEntity
  8
SK1
100
AcDbLine
 10
0.0000105293752526
 20
-5.426249124437547
 30
0.0
 11
-1.87498990949976
 21
-5.327997055812514
 31
0.0
  0
LWPOLYLINE
  5
1F67
330
1F
100
AcDbEntity
  8
1
100
AcDbPolyline
 90
        3
 70
     1
 43
0.0
 10
0.0000000000001706
 20
-0.0000000000000582
 10
-2.213229040584308
 20
-0.0000000000000582
 42
0.4142135623730966
 10
0.0000000000001706
 20
-2.213229040584538
  0
HATCH
  5
1F68
330
1F
100
AcDbEntity
  8
1
100
AcDbHatch
 10
0.0
 20
0.0
 30
0.0
210
0.0
220
0.0
230
1.0
  2
SOLID
 70
     1
 71
     0
 91
        2
 92
        7
 72
     1
 73
     1
 93
        3
 10
-0.0000000000000568
 20
-0.0000000000000071
 42
0.0
 10
2.213229040584423
 20
-0.0000000000000071
 42
0.4142135623730966
 10
-0.0000000000000568
 20
2.21322904058443
 42
0.0
 97
        0
 92
        7
 72
     1
 73
     1
 93
        3
 10
-0.0000000000000568
 20
-2.213229040584443
 42
0.0
 10
-0.0000000000000568
 20
-0.0000000000000071
 42
0.0
 10
-2.213229040584536
 20
-0.0000000000000071
 42
0.4142135623730953
 97
        0
 75
     0
 76
     1
 47
0.1190009775223266
 98
        2
 10
0.5584147941089555
 20
0.6909183550323448
 10
-0.9595984513896953
 20
-1.272597692284769
  0
CIRCLE
  5
1F69
330
1F
100
AcDbEntity
  8
1
100
AcDbCircle
 10
0.0000000000001706
 20
-0.0000000000000582
 30
0.0
 40
2.213229040584451
  0
LINE
  5
1F6A
330
1F
100
AcDbEntity
  8
1
100
AcDbLine
 10
-2.213229040584391
 20
-0.0000000000000582
 30
0.0
 11
2.213229040584564
 21
-0.0000000000000582
 31
0.0
  0
LINE
  5
1F6B
330
1F
100
AcDbEntity
  8
SK1
100
AcDbLine
 10
-0.0000097806247581
 20
5.426254597687461
 30
0.0
 11
-1.875009587374754
 21
5.327990500687457
 31
0.0
  0
LWPOLYLINE
  5
1F6C
330
1F
100
AcDbEntity
  8
SK1
100
AcDbPolyline
 90
       14
 70
     0
 43
0.0
 10
-3.889893274999764
 20
-5.134291748062539
 10
-3.906845448749758
 20
-5.120337856187534
 10
-3.937145206999751
 20
-5.068195090812541
 10
-3.967473513999737
 20
-4.981426831312529
 10
-3.997738756749741
 20
-4.860624492937533
 10
-4.027936740499761
 20
-4.706619357687533
 10
-4.058022766999745
 20
-4.520484425312544
 10
-4.088026734749734
 20
-4.303473049937528
 10
-4.117950969374748
 20
-4.057027869437513
 10
-4.147833491499748
 20
-3.782865658812543
 10
-4.177705194999767
 20
-3.482911505187531
 10
-4.207589785124739
 20
-3.159172959687528
 10
-4.237518237624764
 20
-2.813804509062519
 10
-4.267499635249747
 20
-2.449218680687548
  0
LWPOLYLINE
  5
1F6D
330
1F
100
AcDbEntity
  8
SK1
100
AcDbPolyline
 90
       15
 70
     0
 43
0.0
 10
-5.755389768499751
 20
-2.067996372562519
 10
-5.725272290874736
 20
-2.449282114312531
 10
-5.695086934999747
 20
-2.813872434687537
 10
-5.664845206874747
 20
-3.159239734937515
 10
-5.634549091124744
 20
-3.482983371062542
 10
-5.604223316874768
 20
-3.782941839062546
 10
-5.573875803999755
 20
-4.057105785312526
 10
-5.543558965749755
 20
-4.303548997937522
 10
-5.513329888749754
 20
-4.520553907437538
 10
-5.483182471999763
 20
-4.706678707937528
 10
-5.453137366999744
 20
-4.860670540687538
 10
-5.423171402999751
 20
-4.98145903231253
 10
-5.393297426749745
 20
-5.068214207687541
 10
-5.363428037124737
 20
-5.120346282687546
 10
-5.333831970874761
 20
-5.137503751062521
  0
LWPOLYLINE
  5
1F6E
330
1F
100
AcDbEntity
  8
SK1
100
AcDbPolyline
 90
       14
 70
     0
 43
0.0
 10
-6.177442223124764
 20
-5.134199239937538
 10
-6.194194144249751
 20
-5.120341705062529
 10
-6.224466811624761
 20
-5.068202289562528
 10
-6.254818226249768
 20
-4.981436782312536
 10
-6.285231680999745
 20
-4.860634930812523
 10
-6.315668800374736
 20
-4.706627714062538
 10
-6.346099378249763
 20
-4.520487351812528
 10
-6.376482199624755
 20
-4.303468091062546
 10
-6.406767621499744
 20
-4.057014013437521
 10
-6.436950720624745
 20
-3.782843105937528
 10
-6.467001754999748
 20
-3.482882736312533
 10
-6.496945538249756
 20
-3.159140487562538
 10
-6.526760315749753
 20
-2.813770239562534
 10
-6.556556050874746
 20
-2.449187613312529
  0
LWPOLYLINE
  5
1F6F
330
1F
100
AcDbEntity
  8
SK1
100
AcDbPolyline
 90
       14
 70
     0
 43
0.0
 10
-8.465204411999746
 20
-5.134281287937541
 10
-8.481957089374748
 20
-5.120332178812518
 10
-8.511530199749747
 20
-5.06818738756254
 10
-8.541100301999746
 20
-4.981421440062542
 10
-8.571047632999741
 20
-4.860622718562521
 10
-8.60119297887474
 20
-4.706620174687531
 10
-8.631515840874738
 20
-4.520481226312528
 10
-8.661920311499752
 20
-4.303460568312513
 10
-8.692311958999749
 20
-4.057003099812531
 10
-8.722665857499766
 20
-3.782826707062522
 10
-8.75292538162475
 20
-3.482859134687541
 10
-8.783091198499754
 20
-3.159110007312535
 10
-8.813128943374747
 20
-2.813735186187519
 10
-8.843087085874742
 20
-2.449153749687523
  0
LWPOLYLINE
  5
1F70
330
1F
100
AcDbEntity
  8
SK1
100
AcDbPolyline
 90
       14
 70
     0
 43
0.0
 10
-9.426423085624763
 20
-4.523936251187526
 10
-9.442467955624746
 20
-4.515265687437523
 10
-9.474722701124759
 20
-4.47146166568754
 10
-9.507045608374763
 20
-4.392545205312523
 10
-9.539373352749739
 20
-4.278919667937538
 10
-9.571639439999747
 20
-4.131722626187532
 10
-9.603884405874744
 20
-3.952324647312547
 10
-9.636170535124756
 20
-3.741809147187536
 10
-9.668368677749748
 20
-3.502532383937518
 10
-9.700297420374738
 20
-3.238041898312538
 10
-9.732185343249748
 20
-2.949080662312533
 10
-9.764233208624734
 20
-2.636009264312523
 10
-9.796346555499743
 20
-2.301854594437516
 10
-9.828506234249751
 20
-1.949199856312521
  0
LWPOLYLINE
  5
1F71
330
1F
100
AcDbEntity
  8
SK1
100
AcDbPolyline
 90
       15
 70
     0
 43
0.0
 10
-8.041485766874762
 20
-2.067969417437524
 10
-8.011202360749742
 20
-2.449250472437527
 10
-7.980823338749767
 20
-2.813861706062525
 10
-7.95044837349975
 20
-3.159255186062517
 10
-7.920165112874731
 20
-3.483014757187529
 10
-7.889976407749749
 20
-3.782980776937531
 10
-7.859922252374737
 20
-4.057140020062531
 10
-7.829978863499749
 20
-4.303574741812536
 10
-7.800149201124765
 20
-4.520572113187514
 10
-7.77039302862475
 20
-4.706690613687531
 10
-7.74069949174976
 20
-4.860678249187527
 10
-7.710983403499743
 20
-4.981464144812536
 10
-7.681155782499761
 20
-5.068217747562528
 10
-7.651217158249751
 20
-5.120348522187545
 10
-7.621441671624753
 20
-5.137503751062521
  0
LINE
  5
1F72
330
1F
100
AcDbEntity
  8
SK1
100
AcDbLine
 10
-9.924999999999752
 20
-4.390895842562518
 30
0.0
 11
-9.924999999999752
 21
4.083359870437466
 31
0.0
  0
LINE
  5
1F73
330
1F
100
AcDbEntity
  8
SK1
100
AcDbLine
 10
-1.874999999999754
 20
-5.327882875812518
 30
0.0
 11
-1.874999999999754
 21
5.327882891937474
 31
0.0
  0
LINE
  5
1F74
330
1F
100
AcDbEntity
  8
SK1
100
AcDbLine
 10
-7.621406561249752
 20
-5.137503751062521
 30
0.0
 11
-8.452220755749737
 21
-5.137503751062521
 31
0.0
  0
LINE
  5
1F75
330
1F
100
AcDbEntity
  8
SK1
100
AcDbLine
 10
-8.45235698812475
 20
-5.137503751062521
 30
0.0
 11
-8.465204411999746
 21
-5.134281287937541
 31
0.0
  0
LINE
  5
1F76
330
1F
100
AcDbEntity
  8
SK1
100
AcDbLine
 10
-9.418867360249745
 20
-4.524980783187531
 30
0.0
 11
-9.426423085624763
 21
-4.523936251187526
 31
0.0
  0
LINE
  5
1F77
330
1F
100
AcDbEntity
  8
SK1
100
AcDbLine
 10
-8.726002563999736
 20
-4.627195411687528
 30
0.0
 11
-8.724936892874755
 21
-4.628816135812533
 31
0.0
  0
LWPOLYLINE
  5
1F78
330
1F
100
AcDbEntity
  8
SK1
100
AcDbPolyline
 90
        9
 70
     0
 43
0.0
 10
-8.649212066374746
 20
-4.868822420562525
 10
-8.639179619374745
 20
-4.899101163562532
 10
-8.625555637874743
 20
-4.935721506437542
 10
-8.610464427624741
 20
-4.970743726062535
 10
-8.593128213249755
 20
-5.004691748937522
 10
-8.57179204212475
 20
-5.038862864437523
 10
-8.543239856749737
 20
-5.074497647937534
 10
-8.506687874124757
 20
-5.107962280937514
 10
-8.465444659999745
 20
-5.13415841418752
  0
LINE
  5
1F79
330
1F
100
AcDbEntity
  8
SK1
100
AcDbLine
 10
-8.724966877685782
 20
-4.628770533463481
 30
0.0
 11
-8.649584873249732
 21
-4.867612178687523
 31
0.0
  0
LWPOLYLINE
  5
1F7A
330
1F
100
AcDbEntity
  8
SK1
100
AcDbPolyline
 90
       36
 70
     0
 43
0.0
 10
-9.41890283112475
 20
-4.525698718312517
 10
-8.932783311999747
 20
-4.525069603062523
 10
-8.924041294249752
 20
-4.525190901062523
 10
-8.916590155124756
 20
-4.525486013187518
 10
-8.909499872749757
 20
-4.525982258937521
 10
-8.901897001499751
 20
-4.526770948687528
 10
-8.893944554624745
 20
-4.527856479187525
 10
-8.885375139749761
 20
-4.529294172562523
 10
-8.876621327124766
 20
-4.531042601562541
 10
-8.868045813499762
 20
-4.533039218062532
 10
-8.85957515649974
 20
-4.535298653062534
 10
-8.851270708124751
 20
-4.537803897937534
 10
-8.843086449999761
 20
-4.540568129937523
 10
-8.834983639499757
 20
-4.543604903187526
 10
-8.827005181499746
 20
-4.546897560687531
 10
-8.819164472999755
 20
-4.550438248937537
 10
-8.811508190624747
 20
-4.554201450562521
 10
-8.804072290249751
 20
-4.558161375812521
 10
-8.796891541374755
 20
-4.562288102687514
 10
-8.790000569874758
 20
-4.566546757312531
 10
-8.783421596124744
 20
-4.570905487312519
 10
-8.777187754124755
 20
-4.575320750437534
 10
-8.771286428499735
 20
-4.579778062812533
 10
-8.765706059499757
 20
-4.584262085687532
 10
-8.760468090999737
 20
-4.58872975231254
 10
-8.755583061374762
 20
-4.593143341437523
 10
-8.751058681249762
 20
-4.597464964437532
 10
-8.746903589749756
 20
-4.601653111687534
 10
-8.743112656249753
 20
-4.605678126312544
 10
-8.739685130624744
 20
-4.609504957187523
 10
-8.736608121749757
 20
-4.613111645562519
 10
-8.733873513874732
 20
-4.616471373187533
 10
-8.731462518499759
 20
-4.619571401062523
 10
-8.729361503749743
 20
-4.622394426812523
 10
-8.727547903624749
 20
-4.62493733268753
 10
-8.726002563999736
 20
-4.627195411687528
  0
LINE
  5
1F7B
330
1F
100
AcDbEntity
  8
SK1
100
AcDbLine
 10
-9.924999999999752
 20
-4.390900855062533
 30
0.0
 11
-9.426423085624763
 21
-4.523936251187526
 31
0.0
  0
LINE
  5
1F7C
330
1F
100
AcDbEntity
  8
SK1
100
AcDbLine
 10
-4.85416251987475
 20
-4.525168752187541
 30
0.0
 11
-4.359068923624752
 21
-4.524828987312533
 31
0.0
  0
LWPOLYLINE
  5
1F7D
330
1F
100
AcDbEntity
  8
SK1
100
AcDbPolyline
 90
        4
 70
     0
 43
0.0
 10
-5.062783334923198
 20
-4.628922292716772
 10
-5.059544758749744
 20
-4.623929387437528
 10
-5.045507609999744
 20
-4.606660909437523
 10
-5.02350266549975
 20
-4.585623057562534
  0
LINE
  5
1F7E
330
1F
100
AcDbEntity
  8
SK1
100
AcDbLine
 10
-5.333831970874757
 20
-5.137503751062521
 30
0.0
 11
-5.320502623624751
 21
-5.134036008937514
 31
0.0
  0
LINE
  5
1F7F
330
1F
100
AcDbEntity
  8
SK1
100
AcDbLine
 10
-5.02350266549975
 20
-4.585623057562534
 30
0.0
 11
-4.993016393124744
 21
-4.563846756437528
 31
0.0
  0
LWPOLYLINE
  5
1F80
330
1F
100
AcDbEntity
  8
SK1
100
AcDbPolyline
 90
       10
 70
     0
 43
0.0
 10
-5.320491420999752
 20
-5.134036038062519
 10
-5.286586920124744
 20
-5.112948768187544
 10
-5.251312496624756
 20
-5.082470801812531
 10
-5.222890803124756
 20
-5.049319693187547
 10
-5.200709645374745
 20
-5.016155685812546
 10
-5.182395125249731
 20
-4.982436079187527
 10
-5.166585302749737
 20
-4.947612222937523
 10
-5.152371892624753
 20
-4.911033624437544
 10
-5.13906134324975
 20
-4.871746805062523
 10
-5.062783334874741
 20
-4.628922292562518
  0
LWPOLYLINE
  5
1F81
330
1F
100
AcDbEntity
  8
SK1
100
AcDbPolyline
 90
        4
 70
     0
 43
0.0
 10
-4.993016393124744
 20
-4.563846756437528
 10
-4.954072388374744
 20
-4.544464462562528
 10
-4.907493842749757
 20
-4.530664691312513
 10
-4.854164452706108
 20
-4.525168753513947
  0
LWPOLYLINE
  5
1F82
330
1F
100
AcDbEntity
  8
SK1
100
AcDbPolyline
 90
       24
 70
     0
 43
0.0
 10
-6.528385232249758
 20
-4.551966428562549
 10
-6.521193327249758
 20
-4.555617737687539
 10
-6.514273960999743
 20
-4.559400636687542
 10
-6.507646610374761
 20
-4.563286873687518
 10
-6.50133214274975
 20
-4.567244471687518
 10
-6.495339289249745
 20
-4.571246488187523
 10
-6.489687205124749
 20
-4.575256788437537
 10
-6.484355249499746
 20
-4.579266185187518
 10
-6.479326508499758
 20
-4.583263992937537
 10
-6.474604909249761
 20
-4.58722355243753
 10
-6.470187779999748
 20
-4.591122998562516
 10
-6.466073184874741
 20
-4.594939641187516
 10
-6.462258936624751
 20
-4.598650687312528
 10
-6.458738694124745
 20
-4.602237279812518
 10
-6.455508073999763
 20
-4.605678752562547
 10
-6.452556133749745
 20
-4.608961823812518
 10
-6.449874681499744
 20
-4.61207107293753
 10
-6.447450512874745
 20
-4.614997842937539
 10
-6.445272720874765
 20
-4.617732101562546
 10
-6.443327449499741
 20
-4.620268888187522
 10
-6.441604430124759
 20
-4.622600066687536
 10
-6.440084400999758
 20
-4.62473143368753
 10
-6.438749819499744
 20
-4.626668914687539
 10
-6.437589803499736
 20
-4.628410735437539
  0
LINE
  5
1F83
330
1F
100
AcDbEntity
  8
SK1
100
AcDbLine
 10
-6.164371854749735
 20
-5.137503751062521
 30
0.0
 11
-6.177442223124758
 21
-5.134199239937538
 31
0.0
  0
LWPOLYLINE
  5
1F84
330
1F
100
AcDbEntity
  8
SK1
100
AcDbPolyline
 90
        9
 70
     0
 43
0.0
 10
-6.362292900999764
 20
-4.867220883812533
 10
-6.352450482249754
 20
-4.897104527062521
 10
-6.339081490374757
 20
-4.933327956812516
 10
-6.324343961249747
 20
-4.967894974687526
 10
-6.307534207624741
 20
-5.001290997062538
 10
-6.287055419749754
 20
-5.034776878437541
 10
-6.260604144249754
 20
-5.068943566687527
 10
-6.22572952162475
 20
-5.102538755687544
 10
-6.177285155374757
 20
-5.134198840062543
  0
LINE
  5
1F85
330
1F
100
AcDbEntity
  8
SK1
100
AcDbLine
 10
-7.425122023999757
 20
-4.867008391687535
 30
0.0
 11
-7.350253632499761
 21
-4.628732271812521
 31
0.0
  0
LINE
  5
1F86
330
1F
100
AcDbEntity
  8
SK1
100
AcDbLine
 10
-7.141781224124753
 20
-4.525231206937516
 30
0.0
 11
-6.646683984499762
 21
-4.524880853687513
 31
0.0
  0
LINE
  5
1F87
330
1F
100
AcDbEntity
  8
SK1
100
AcDbLine
 10
-7.621441671624753
 20
-5.137503751062521
 30
0.0
 11
-7.607958584999753
 21
-5.134002479062532
 31
0.0
  0
LINE
  5
1F88
330
1F
100
AcDbEntity
  8
SK1
100
AcDbLine
 10
-7.306528070374742
 20
-4.581777890437527
 30
0.0
 11
-7.276113475499744
 21
-4.561052980187523
 31
0.0
  0
LWPOLYLINE
  5
1F89
330
1F
100
AcDbEntity
  8
SK1
100
AcDbPolyline
 90
        9
 70
     0
 43
0.0
 10
-7.608205591124745
 20
-5.134001830937529
 10
-7.56313770174975
 20
-5.104383701937523
 10
-7.529104907249755
 20
-5.072016248437543
 10
-7.50324325662474
 20
-5.039340123437542
 10
-7.483211866124737
 20
-5.007498580937519
 10
-7.466740022874758
 20
-4.975823959312521
 10
-7.452192193374751
 20
-4.942880393437528
 10
-7.438952016124746
 20
-4.908259204812518
 10
-7.425266825249734
 20
-4.867355161562536
  0
LWPOLYLINE
  5
1F8A
330
1F
100
AcDbEntity
  8
SK1
100
AcDbPolyline
 90
        6
 70
     0
 43
0.0
 10
-7.276113475499742
 20
-4.561052980187523
 10
-7.243352813874733
 20
-4.544999451437542
 10
-7.215741787999744
 20
-4.53548129456252
 10
-7.190359488874737
 20
-4.529583196187538
 10
-7.165307515874737
 20
-4.526222171812528
 10
-7.141781224124756
 20
-4.525231206937516
  0
LWPOLYLINE
  5
1F8B
330
1F
100
AcDbEntity
  8
SK1
100
AcDbPolyline
 90
       16
 70
     0
 43
0.0
 10
-6.646707177624748
 20
-4.524905657187533
 10
-6.643047150749751
 20
-4.524923672437519
 10
-6.634537849249737
 20
-4.525131275187531
 10
-6.626654348874763
 20
-4.525556511062523
 10
-6.618877310749732
 20
-4.526223358812537
 10
-6.610507446374746
 20
-4.52721579631254
 10
-6.601923220249742
 20
-4.528515155937521
 10
-6.593235262499758
 20
-4.530112186187521
 10
-6.584547943624754
 20
-4.531998642687527
 10
-6.575999106374763
 20
-4.534146738812538
 10
-6.567592355999746
 20
-4.536551823187537
 10
-6.559379047499746
 20
-4.539193657187526
 10
-6.551345764124736
 20
-4.542068135812535
 10
-6.543484149999766
 20
-4.545169083312523
 10
-6.535825206749736
 20
-4.548474632687544
 10
-6.528385232249758
 20
-4.551966428562549
  0
LWPOLYLINE
  5
1F8C
330
1F
100
AcDbEntity
  8
SK1
100
AcDbPolyline
 90
        4
 70
     0
 43
0.0
 10
-7.350253632397474
 20
-4.628732271486971
 10
-7.345877599249744
 20
-4.622126143937533
 10
-7.329950743374738
 20
-4.603187116062543
 10
-7.306528070374743
 20
-4.581777890437527
  0
LINE
  5
1F8D
330
1F
100
AcDbEntity
  8
SK1
100
AcDbLine
 10
-6.437633498901409
 20
-4.628345124655184
 30
0.0
 11
-6.362158153624744
 21
-4.867478589437532
 31
0.0
  0
LINE
  5
1F8E
330
1F
100
AcDbEntity
  8
SK1
100
AcDbLine
 10
-5.333774218999745
 20
-5.137503751062521
 30
0.0
 11
-6.164415487624753
 21
-5.137503751062521
 31
0.0
  0
LINE
  5
1F8F
330
1F
100
AcDbEntity
  8
SK1
100
AcDbLine
 10
-4.151967317749749
 20
-4.625758972937537
 30
0.0
 11
-4.150098286624751
 21
-4.628641034687538
 31
0.0
  0
LWPOLYLINE
  5
1F90
330
1F
100
AcDbEntity
  8
SK1
100
AcDbPolyline
 90
        6
 70
     0
 43
0.0
 10
-4.236818555999754
 20
-4.554188737937542
 10
-4.209298692999738
 20
-4.570430436312525
 10
-4.187467570999761
 20
-4.587081210937538
 10
-4.170880775999761
 20
-4.602769026812532
 10
-4.159429605374765
 20
-4.615790196062534
 10
-4.151967317749749
 20
-4.625758972937537
  0
LWPOLYLINE
  5
1F91
330
1F
100
AcDbEntity
  8
SK1
100
AcDbPolyline
 90
        9
 70
     0
 43
0.0
 10
-4.073987911999738
 20
-4.869932558562539
 10
-4.068653533874738
 20
-4.886287342812535
 10
-4.054817234374755
 20
-4.924948516187519
 10
-4.039655786999746
 20
-4.961530665312516
 10
-4.022480478874758
 20
-4.996557664687527
 10
-4.001689853874758
 20
-5.031387772312538
 10
-3.974995217999738
 20
-5.066645975062535
 10
-3.939788835874743
 20
-5.101213024062531
 10
-3.889656293124751
 20
-5.134291152687518
  0
LINE
  5
1F92
330
1F
100
AcDbEntity
  8
SK1
100
AcDbLine
 10
-4.150098286624751
 20
-4.628641034687538
 30
0.0
 11
-4.074766693749763
 21
-4.867370074812532
 31
0.0
  0
LINE
  5
1F93
330
1F
100
AcDbEntity
  8
SK1
100
AcDbLine
 10
-3.876993505249761
 20
-5.137503751062521
 30
0.0
 11
-3.889893274999761
 21
-5.134291748062539
 31
0.0
  0
LINE
  5
1F94
330
1F
100
AcDbEntity
  8
SK1
100
AcDbLine
 10
-1.999999999999764
 20
-5.137503751062521
 30
0.0
 11
-3.877055754124759
 21
-5.137503751062521
 31
0.0
  0
LWPOLYLINE
  5
1F95
330
1F
100
AcDbEntity
  8
SK1
100
AcDbPolyline
 90
        5
 70
     0
 43
0.0
 10
-4.359153376749741
 20
-4.52493577031254
 10
-4.340358710999743
 20
-4.525632153312534
 10
-4.304033996999765
 20
-4.53063769393753
 10
-4.268800830624751
 20
-4.540450829187538
 10
-4.236818555999754
 20
-4.554188737937542
  0
ARC
  5
1F96
330
1F
100
AcDbEntity
  8
SK1
100
AcDbCircle
 10
-1.999158848374736
 20
-5.26251496968753
 30
0.0
 40
0.125011353375
100
AcDbArc
 50
4.03913253360012
 51
90.21289997290072
  0
LWPOLYLINE
  5
1F97
330
1F
100
AcDbEntity
  8
SK1
100
AcDbPolyline
 90
       27
 70
     0
 43
0.0
 10
-7.669905391374745
 20
4.553065881062459
 10
-7.674003406499744
 20
4.551067486062454
 10
-7.678161012124749
 20
4.549129407937464
 10
-7.682373743124737
 20
4.547255124062465
 10
-7.686637360124745
 20
4.545447735937452
 10
-7.690947512624756
 20
4.543710133812476
 10
-7.695299472749754
 20
4.542045092812466
 10
-7.699681878999752
 20
4.540457445687462
 10
-7.704109756999745
 20
4.538942456687469
 10
-7.708588878624738
 20
4.537499473687465
 10
-7.713136872499758
 20
4.536123772687468
 10
-7.717781231999746
 20
4.534808722812464
 10
-7.722499522999764
 20
4.533562536187462
 10
-7.727282636624758
 20
4.532388621437466
 10
-7.732116574374733
 20
4.531290843062472
 10
-7.737002453624754
 20
4.530269111437459
 10
-7.741884407874747
 20
4.529333931687482
 10
-7.746777088499751
 20
4.528480398062478
 10
-7.751467057999745
 20
4.52774073831246
 10
-7.755697898124759
 20
4.527147202312467
 10
-7.759605324624755
 20
4.526669526937461
 10
-7.76317182137474
 20
4.526299114812472
 10
-7.766606409624739
 20
4.526007088062453
 10
-7.770012526124754
 20
4.525784775437469
 10
-7.773695331624745
 20
4.525614410812485
 10
-7.778014299124758
 20
4.525488385312458
 10
-7.782914913624756
 20
4.525416445812465
  0
LINE
  5
1F98
330
1F
100
AcDbEntity
  8
SK1
100
AcDbLine
 10
-9.071526109874742
 20
0.680386484937467
 30
0.0
 11
-9.15540356787476
 21
1.834070097562458
 31
0.0
  0
LWPOLYLINE
  5
1F99
330
1F
100
AcDbEntity
  8
SK1
100
AcDbPolyline
 90
        3
 70
     0
 43
0.0
 10
-8.27982218387474
 20
1.235142760062468
 10
-8.190656291124744
 20
-0.0173996253125401
 10
-8.101557349499749
 20
-1.268876970437529
  0
LINE
  5
1F9A
330
1F
100
AcDbEntity
  8
SK1
100
AcDbLine
 10
-8.101557349499746
 20
-1.268876970437529
 30
0.0
 11
-8.041485766874759
 21
-2.067969417437524
 31
0.0
  0
LINE
  5
1F9B
330
1F
100
AcDbEntity
  8
SK1
100
AcDbLine
 10
-8.902879143749746
 20
-1.67261189668752
 30
0.0
 11
-8.958954802749747
 21
-0.9036142973125343
 31
0.0
  0
LWPOLYLINE
  5
1F9C
330
1F
100
AcDbEntity
  8
SK1
100
AcDbPolyline
 90
        3
 70
     0
 43
0.0
 10
-9.828506234249751
 20
-1.949199856312521
 10
-9.89285187212474
 20
-1.200951102437533
 10
-9.925015622499754
 20
-0.8114461439375425
  0
LINE
  5
1F9D
330
1F
100
AcDbEntity
  8
SK1
100
AcDbLine
 10
-8.843087085874739
 20
-2.449153749687523
 30
0.0
 11
-8.902875606624736
 21
-1.672611445937524
 31
0.0
  0
LINE
  5
1F9E
330
1F
100
AcDbEntity
  8
SK1
100
AcDbLine
 10
-8.958954802749747
 20
-0.9036142973125343
 30
0.0
 11
-9.071526109874742
 21
0.680386484937467
 31
0.0
  0
LWPOLYLINE
  5
1F9F
330
1F
100
AcDbEntity
  8
SK1
100
AcDbPolyline
 90
        6
 70
     0
 43
0.0
 10
-9.210885401999751
 20
2.552096065562471
 10
-9.238580288749764
 20
2.889262905937458
 10
-9.266304897999763
 20
3.209108026187473
 10
-9.294180836749747
 20
3.509723482937458
 10
-9.322357978874759
 20
3.789309398812465
 10
-9.3713295440361
 20
4.231828719286634
  0
LWPOLYLINE
  5
1FA0
330
1F
100
AcDbEntity
  8
SK1
100
AcDbPolyline
 90
        8
 70
     0
 43
0.0
 10
-8.571370356979098
 20
4.446630066788957
 10
-8.520448547999762
 20
4.02209583943747
 10
-8.490492958124761
 20
3.746531485812484
 10
-8.460354905749753
 20
3.445790944062471
 10
-8.430140248374749
 20
3.121865454812458
 10
-8.399933686499764
 20
2.776877596312482
 10
-8.369763406124755
 20
2.413196641937473
 10
-8.339688085374758
 20
2.033324063187465
  0
LINE
  5
1FA1
330
1F
100
AcDbEntity
  8
SK1
100
AcDbLine
 10
-9.15540356787476
 20
1.834070097562458
 30
0.0
 11
-9.21088540199975
 21
2.552096065562471
 31
0.0
  0
LINE
  5
1FA2
330
1F
100
AcDbEntity
  8
SK1
100
AcDbLine
 10
-8.339688085374755
 20
2.033324063187465
 30
0.0
 11
-8.279822183874737
 21
1.235142760062468
 31
0.0
  0
LINE
  5
1FA3
330
1F
100
AcDbEntity
  8
SK1
100
AcDbLine
 10
-7.782914913624753
 20
4.525416445812465
 30
0.0
 11
-7.790231917374741
 21
4.525392301562453
 31
0.0
  0
LINE
  5
1FA4
330
1F
100
AcDbEntity
  8
SK1
100
AcDbLine
 10
-7.790534640374747
 20
4.525836116812476
 30
0.0
 11
-8.27507873733062
 21
4.526188924520536
 31
0.0
  0
LWPOLYLINE
  5
1FA5
330
1F
100
AcDbEntity
  8
SK1
100
AcDbPolyline
 90
        3
 70
     0
 43
0.0
 10
-8.275078737330625
 20
4.526188924520536
 10
-9.739608099874747
 20
4.132940261812472
 10
-9.92499999999975
 20
4.083346472187472
  0
LINE
  5
1FA6
330
1F
100
AcDbEntity
  8
SK1
100
AcDbLine
 10
-3.737459184624738
 20
1.66352606343746
 30
0.0
 11
-3.677296447624752
 21
0.8407102935624648
 31
0.0
  0
LWPOLYLINE
  5
1FA7
330
1F
100
AcDbEntity
  8
SK1
100
AcDbPolyline
 90
        3
 70
     0
 43
0.0
 10
-2.042159936499764
 20
-1.661358289812526
 10
-2.162163236624758
 20
0.0060140544374705
 10
-2.282899765124748
 20
1.672645504562483
  0
LINE
  5
1FA8
330
1F
100
AcDbEntity
  8
SK1
100
AcDbLine
 10
-6.676839918249742
 20
-0.8503414979375328
 30
0.0
 11
-6.858338599749753
 21
1.663703906812455
 31
0.0
  0
LWPOLYLINE
  5
1FA9
330
1F
100
AcDbEntity
  8
SK1
100
AcDbPolyline
 90
        3
 70
     0
 43
0.0
 10
-5.997673672124737
 20
1.256490986562462
 10
-5.906167759124747
 20
-0.0048649009375317
 10
-5.815455170874755
 20
-1.265885803687524
  0
LINE
  5
1FAA
330
1F
100
AcDbEntity
  8
SK1
100
AcDbLine
 10
-4.387867643874767
 20
-0.8503313735625233
 30
0.0
 11
-4.537078319374755
 21
1.256546120437457
 31
0.0
  0
LINE
  5
1FAB
330
1F
100
AcDbEntity
  8
SK1
100
AcDbLine
 10
-6.616409017499743
 20
-1.672609811062514
 30
0.0
 11
-6.676839918249742
 21
-0.8503414979375328
 31
0.0
  0
LINE
  5
1FAC
330
1F
100
AcDbEntity
  8
SK1
100
AcDbLine
 10
-5.815455170874752
 20
-1.265885803687524
 30
0.0
 11
-5.75538976849975
 21
-2.067996372562519
 31
0.0
  0
LINE
  5
1FAD
330
1F
100
AcDbEntity
  8
SK1
100
AcDbLine
 10
-6.556556050874749
 20
-2.449187613312529
 30
0.0
 11
-6.616398529374766
 21
-1.672611445937524
 31
0.0
  0
LINE
  5
1FAE
330
1F
100
AcDbEntity
  8
SK1
100
AcDbLine
 10
-4.327685703124761
 20
-1.672609811062514
 30
0.0
 11
-4.387867643874767
 21
-0.8503313735625233
 31
0.0
  0
LINE
  5
1FAF
330
1F
100
AcDbEntity
  8
SK1
100
AcDbLine
 10
-3.557641581749746
 20
-0.8504558911875164
 30
0.0
 11
-3.490207504499741
 21
-1.763962336187519
 31
0.0
  0
LINE
  5
1FB0
330
1F
100
AcDbEntity
  8
SK1
100
AcDbLine
 10
-4.267499635249746
 20
-2.449218680687548
 30
0.0
 11
-4.327679490499751
 21
-1.672611445937524
 31
0.0
  0
LWPOLYLINE
  5
1FB1
330
1F
100
AcDbEntity
  8
SK1
100
AcDbPolyline
 90
       13
 70
     0
 43
0.0
 10
-3.165926511999741
 20
-3.318621906312527
 10
-3.151902896749751
 20
-3.366448025312541
 10
-3.135664468374754
 20
-3.410921629562531
 10
-3.117250930124753
 20
-3.452171462812541
 10
-3.096543172124734
 20
-3.490131240062538
 10
-3.073422351124758
 20
-3.524847163437531
 10
-3.047927369999768
 20
-3.556107283687546
 10
-3.020066768124734
 20
-3.583943809812546
 10
-2.989812792874765
 20
-3.607677675062537
 10
-2.956994859999756
 20
-3.626666667687535
 10
-2.92205000462474
 20
-3.640858269937532
 10
-2.885405921749752
 20
-3.649902481562538
 10
-2.846920046499745
 20
-3.653972584187533
  0
LWPOLYLINE
  5
1FB2
330
1F
100
AcDbEntity
  8
SK1
100
AcDbPolyline
 90
        4
 70
     0
 43
0.0
 10
-3.409706722874761
 20
-2.185502838312527
 10
-3.354912808749743
 20
-2.421843014062549
 10
-3.32932126974976
 20
-2.543942947687513
 10
-3.304933342499743
 20
-2.668296905437537
  0
LWPOLYLINE
  5
1FB3
330
1F
100
AcDbEntity
  8
SK1
100
AcDbPolyline
 90
        7
 70
     0
 43
0.0
 10
-3.304933342499743
 20
-2.668296905437537
 10
-3.284517285499756
 20
-2.781514344812526
 10
-3.263002949249733
 20
-2.892906582437526
 10
-3.240392602499738
 20
-3.002399047687522
 10
-3.216679438999748
 20
-3.109903771312531
 10
-3.191856652624738
 20
-3.215334788062524
 10
-3.165926511999741
 20
-3.318621906312527
  0
LWPOLYLINE
  5
1FB4
330
1F
100
AcDbEntity
  8
SK1
100
AcDbPolyline
 90
        5
 70
     0
 43
0.0
 10
-3.490207504499738
 20
-1.763962336187514
 10
-3.476137552249751
 20
-1.861387132437539
 10
-3.458030771249734
 20
-1.964263642437526
 10
-3.435282320874758
 20
-2.072628354937529
 10
-3.409706722874761
 20
-2.185502838312527
  0
LWPOLYLINE
  5
1FB5
330
1F
100
AcDbEntity
  8
SK1
100
AcDbPolyline
 90
        3
 70
     0
 43
0.0
 10
-2.072486339499753
 20
-2.657212300562509
 10
-2.068739860249755
 20
-2.522136119062535
 10
-2.063081959499764
 20
-2.389341432562539
  0
LWPOLYLINE
  5
1FB6
330
1F
100
AcDbEntity
  8
SK1
100
AcDbPolyline
 90
        6
 70
     0
 43
0.0
 10
-2.063081959499764
 20
-2.389341432562539
 10
-2.046031893374745
 20
-2.131908884437536
 10
-2.039098186249753
 20
-2.009397242062544
 10
-2.034974422249738
 20
-1.892558703187536
 10
-2.03562829287476
 20
-1.782979431562545
 10
-2.040403900999748
 20
-1.68049892943753
  0
LWPOLYLINE
  5
1FB7
330
1F
100
AcDbEntity
  8
SK1
100
AcDbPolyline
 90
        7
 70
     0
 43
0.0
 10
-2.096400942499754
 20
-3.310077128312535
 10
-2.089307001499743
 20
-3.206460944562529
 10
-2.083457001874757
 20
-3.100664799937526
 10
-2.078851573499743
 20
-2.99275679006254
 10
-2.075488826749743
 20
-2.882822576937518
 10
-2.073366872124735
 20
-2.770950071062529
 10
-2.072486339499753
 20
-2.657212300562509
  0
LWPOLYLINE
  5
1FB8
330
1F
100
AcDbEntity
  8
SK1
100
AcDbPolyline
 90
       15
 70
     0
 43
0.0
 10
-2.352369128999749
 20
-3.650351745812537
 10
-2.322582784999752
 20
-3.647677756812516
 10
-2.293601808124742
 20
-3.641045215687523
 10
-2.265106109874754
 20
-3.630362733937518
 10
-2.238055955249758
 20
-3.615804240812541
 10
-2.213300439499745
 20
-3.597304554062526
 10
-2.190852982624742
 20
-3.575430256812511
 10
-2.171096974249739
 20
-3.550659194937524
 10
-2.153771601374735
 20
-3.523203215062537
 10
-2.138755641374745
 20
-3.493469845062536
 10
-2.12601371187475
 20
-3.461377919562527
 10
-2.115504502374732
 20
-3.426979743812528
 10
-2.10712457499975
 20
-3.390283587062516
 10
-2.100742070624745
 20
-3.351342908937521
 10
-2.096400942499754
 20
-3.310077128312535
  0
LINE
  5
1FB9
330
1F
100
AcDbEntity
  8
SK1
100
AcDbLine
 10
-2.846914273874756
 20
-3.654023164562531
 30
0.0
 11
-2.352375935499755
 21
-3.650336091562533
 31
0.0
  0
LINE
  5
1FBA
330
1F
100
AcDbEntity
  8
SK1
100
AcDbLine
 10
-3.677296447624752
 20
0.8407102935624648
 30
0.0
 11
-3.557641581749746
 21
-0.8504558911875164
 31
0.0
  0
LINE
  5
1FBB
330
1F
100
AcDbEntity
  8
SK1
100
AcDbLine
 10
-4.188623281749745
 20
5.137508746062481
 30
0.0
 11
-5.019706328749736
 21
5.137508746062481
 31
0.0
  0
LWPOLYLINE
  5
1FBC
330
1F
100
AcDbEntity
  8
SK1
100
AcDbPolyline
 90
       15
 70
     0
 43
0.0
 10
-4.596781388999747
 20
2.059335755687475
 10
-4.626939201499741
 20
2.440946501312482
 10
-4.657496165124737
 20
2.805918919437461
 10
-4.688240388999745
 20
3.151739002687457
 10
-4.719172716749755
 20
3.476048528937466
 10
-4.749826453249767
 20
3.776597138812481
 10
-4.779535117249749
 20
4.051294453312474
 10
-4.808898910624768
 20
4.298318306937462
 10
-4.838233105374762
 20
4.516016057187457
 10
-4.867726009124758
 20
4.702865176562458
 10
-4.897769306499743
 20
4.85757047468746
 10
-4.92806813799975
 20
4.979103845062476
 10
-4.95847193799975
 20
5.066644132312466
 10
-4.988939508374754
 20
5.119566436812478
 10
-5.019726524499736
 20
5.137508745937478
  0
LINE
  5
1FBD
330
1F
100
AcDbEntity
  8
SK1
100
AcDbLine
 10
-5.019726524499733
 20
5.137508745937478
 30
0.0
 11
-5.03286004999975
 21
5.134238787812476
 31
0.0
  0
LINE
  5
1FBE
330
1F
100
AcDbEntity
  8
SK1
100
AcDbLine
 10
-6.478328374999764
 20
5.137508746062481
 30
0.0
 11
-6.465185507124754
 21
5.134079153187473
 31
0.0
  0
LINE
  5
1FBF
330
1F
100
AcDbEntity
  8
SK1
100
AcDbLine
 10
-7.309440195999758
 20
5.137508745937478
 30
0.0
 11
-7.322361214749764
 21
5.134248717062485
 31
0.0
  0
LINE
  5
1FC0
330
1F
100
AcDbEntity
  8
SK1
100
AcDbLine
 10
-6.478358239374752
 20
5.137508746062481
 30
0.0
 11
-7.309406701374729
 21
5.137508746062481
 31
0.0
  0
LWPOLYLINE
  5
1FC1
330
1F
100
AcDbEntity
  8
SK1
100
AcDbPolyline
 90
        9
 70
     0
 43
0.0
 10
-6.283173422249748
 20
4.872155870937462
 10
-6.295935813249757
 20
4.909879650312476
 10
-6.309370111124744
 20
4.944702171562458
 10
-6.324202038999742
 20
4.977865276812472
 10
-6.341384228999746
 20
5.010307360812469
 10
-6.362309132249762
 20
5.042820983812473
 10
-6.388937970624745
 20
5.075579472812468
 10
-6.423202431249762
 20
5.107106560687467
 10
-6.464167062749734
 20
5.133547506937461
  0
LWPOLYLINE
  5
1FC2
330
1F
100
AcDbEntity
  8
SK1
100
AcDbPolyline
 90
        9
 70
     0
 43
0.0
 10
-7.322010961749737
 20
5.134247836562473
 10
-7.368368680874742
 20
5.103898292187463
 10
-7.403824840499757
 20
5.069915719437462
 10
-7.431001809874741
 20
5.034777965937469
 10
-7.452101622624756
 20
5.000021044937467
 10
-7.469545852499737
 20
4.964916424312478
 10
-7.484945765374747
 20
4.928135504187464
 10
-7.498958008499754
 20
4.889273224187475
 10
-7.50564970724975
 20
4.868745789812465
  0
LWPOLYLINE
  5
1FC3
330
1F
100
AcDbEntity
  8
SK1
100
AcDbPolyline
 90
        9
 70
     0
 43
0.0
 10
-5.033698397249736
 20
5.133727440437472
 10
-5.080344401374736
 20
5.103447313312456
 10
-5.116796958374758
 20
5.068521758312462
 10
-5.14504127562475
 20
5.031654013437461
 10
-5.166881087124741
 20
4.995056863437466
 10
-5.184861983624744
 20
4.958021833562481
 10
-5.200474463749761
 20
4.919713371937473
 10
-5.214645456499733
 20
4.879283821062466
 10
-5.217522141874761
 20
4.870371416812464
  0
LINE
  5
1FC4
330
1F
100
AcDbEntity
  8
SK1
100
AcDbLine
 10
-6.117328817374744
 20
2.805893320687462
 30
0.0
 11
-6.058033654749745
 21
2.059303070562469
 31
0.0
  0
LINE
  5
1FC5
330
1F
100
AcDbEntity
  8
SK1
100
AcDbLine
 10
-6.858338599749753
 20
1.663703906812455
 30
0.0
 11
-6.91827980712475
 21
2.440994085312458
 31
0.0
  0
LINE
  5
1FC6
330
1F
100
AcDbEntity
  8
SK1
100
AcDbLine
 10
-6.058033654749745
 20
2.059303070562469
 30
0.0
 11
-5.997673672124737
 21
1.256490986562462
 31
0.0
  0
LWPOLYLINE
  5
1FC7
330
1F
100
AcDbEntity
  8
SK1
100
AcDbPolyline
 90
        3
 70
     0
 43
0.0
 10
-5.294141101436184
 20
4.627835792742685
 10
-5.301975954499733
 20
4.616935987937486
 10
-5.317655555624744
 20
4.599289276312473
  0
LWPOLYLINE
  5
1FC8
330
1F
100
AcDbEntity
  8
SK1
100
AcDbPolyline
 90
        3
 70
     0
 43
0.0
 10
-5.317655555624744
 20
4.599289276312473
 10
-5.342046601249761
 20
4.57799409968746
 10
-5.379079711749741
 20
4.554719293562458
  0
LWPOLYLINE
  5
1FC9
330
1F
100
AcDbEntity
  8
SK1
100
AcDbPolyline
 90
        2
 70
     0
 43
0.0
 10
-5.290034562374759
 20
4.634394648187474
 10
-5.290040576374742
 20
4.634466966312457
  0
LWPOLYLINE
  5
1FCA
330
1F
100
AcDbEntity
  8
SK1
100
AcDbPolyline
 90
        4
 70
     0
 43
0.0
 10
-5.379079711749741
 20
4.554719293562458
 10
-5.422921254124752
 20
4.536723912687476
 10
-5.469755704124763
 20
4.526943307812463
 10
-5.501061477874745
 20
4.523474021562469
  0
LWPOLYLINE
  5
1FCB
330
1F
100
AcDbEntity
  8
SK1
100
AcDbPolyline
 90
       34
 70
     0
 43
0.0
 10
-6.115675554499731
 20
4.552273449437483
 10
-6.119321759249757
 20
4.554083765687473
 10
-6.122968784624735
 20
4.55596443206246
 10
-6.126611379999754
 20
4.557914786687481
 10
-6.130244941999746
 20
4.559934307187465
 10
-6.133863299124763
 20
4.562021367812463
 10
-6.137461034249745
 20
4.564174476187468
 10
-6.141031427999749
 20
4.566391040062474
 10
-6.144568495499742
 20
4.568668536812475
 10
-6.148065023874754
 20
4.571003241562466
 10
-6.151511994249736
 20
4.573389644437455
 10
-6.154909555499749
 20
4.575828201062476
 10
-6.158254335874747
 20
4.578316828312474
 10
-6.161547734624744
 20
4.580856498062478
 10
-6.164793746624756
 20
4.583450374812472
 10
-6.167980591249746
 20
4.586088978312468
 10
-6.171101086249745
 20
4.588765647437464
 10
-6.174146801249753
 20
4.591471884437468
 10
-6.177110234499763
 20
4.594199143937482
 10
-6.179983262499748
 20
4.596937416312462
 10
-6.182758943124738
 20
4.599676868937472
 10
-6.185428486374746
 20
4.60240482831247
 10
-6.187984096999753
 20
4.605108441187452
 10
-6.19041877524973
 20
4.607774558187458
 10
-6.192725432999745
 20
4.610388759062467
 10
-6.194899651124751
 20
4.612938529812455
 10
-6.196936562999746
 20
4.615409867187463
 10
-6.198833202624741
 20
4.617790106937457
 10
-6.200585703249752
 20
4.62006455756247
 10
-6.202194395249737
 20
4.62222319143746
 10
-6.203656295124738
 20
4.62425093393745
 10
-6.204979094499754
 20
4.62614710743748
 10
-6.206169852999751
 20
4.627910578687449
 10
-6.206391441499744
 20
4.628249524937467
  0
LWPOLYLINE
  5
1FCC
330
1F
100
AcDbEntity
  8
SK1
100
AcDbPolyline
 90
       29
 70
     0
 43
0.0
 10
-6.018483435374764
 20
4.52590957356246
 10
-6.030175283124742
 20
4.52722529018746
 10
-6.033674786374751
 20
4.527640649687463
 10
-6.036818440124742
 20
4.528038801437468
 10
-6.039570350499749
 20
4.528414313062463
 10
-6.042138690374749
 20
4.528793666062481
 10
-6.044721868374749
 20
4.529206946187483
 10
-6.047306416124737
 20
4.529652255187468
 10
-6.049944331499742
 20
4.530139221062471
 10
-6.052635854624744
 20
4.53066953143748
 10
-6.055399531124749
 20
4.531248849937459
 10
-6.058231449249745
 20
4.531878665687465
 10
-6.061133147874749
 20
4.532561612437462
 10
-6.064106200124756
 20
4.533300440187464
 10
-6.067151900249731
 20
4.534097937187459
 10
-6.070271880249757
 20
4.534957088937487
 10
-6.073466945499749
 20
4.535880760562467
 10
-6.076739963874741
 20
4.536872539562461
 10
-6.080101913874732
 20
4.537938847312487
 10
-6.083528064124748
 20
4.539074698062476
 10
-6.087000473374736
 20
4.540276559437466
 10
-6.090510665624758
 20
4.541544118937478
 10
-6.094043607249751
 20
4.542874236312457
 10
-6.097601603624752
 20
4.544269904562479
 10
-6.101182888999741
 20
4.545732703687454
 10
-6.104784132999744
 20
4.547263566812463
 10
-6.108402642874753
 20
4.548863645937466
 10
-6.11203430899975
 20
4.55053340606246
 10
-6.115675554499731
 20
4.552273449437483
  0
LINE
  5
1FCD
330
1F
100
AcDbEntity
  8
SK1
100
AcDbLine
 10
-6.007508780249754
 20
4.524634919187485
 30
0.0
 11
-6.018483435374764
 21
4.52590957356246
 31
0.0
  0
LWPOLYLINE
  5
1FCE
330
1F
100
AcDbEntity
  8
SK1
100
AcDbPolyline
 90
       10
 70
     0
 43
0.0
 10
-5.998202653749747
 20
4.52389917781246
 10
-6.000129321249742
 20
4.524029225062478
 10
-6.000920753124748
 20
4.524052405437466
 10
-6.001547312374758
 20
4.524078833062461
 10
-6.002088043749761
 20
4.524108545187471
 10
-6.002635279249751
 20
4.524145736937471
 10
-6.00322599512474
 20
4.524192579437483
 10
-6.004106008999755
 20
4.524272132812463
 10
-6.005427701874758
 20
4.524406301187469
 10
-6.007508780249754
 20
4.524634919187485
  0
LINE
  5
1FCF
330
1F
100
AcDbEntity
  8
SK1
100
AcDbLine
 10
-7.576957140624752
 20
4.635434561812481
 30
0.0
 11
-7.576936662874746
 21
4.635476510937455
 31
0.0
  0
LWPOLYLINE
  5
1FD0
330
1F
100
AcDbEntity
  8
SK1
100
AcDbPolyline
 90
       39
 70
     0
 43
0.0
 10
-7.576880242874753
 20
4.635590889437461
 10
-7.57691719862475
 20
4.635518612937477
 10
-7.576992258749744
 20
4.635374311312461
 10
-7.577108688999737
 20
4.63515435081246
 10
-7.577267887999749
 20
4.634858907437469
 10
-7.577471390249749
 20
4.634488031062471
 10
-7.577720742749749
 20
4.634041881812465
 10
-7.578017568874763
 20
4.633520619812466
 10
-7.578363522499743
 20
4.632924490937473
 10
-7.578760338749754
 20
4.632253743687464
 10
-7.579209784749743
 20
4.631508719312453
 10
-7.57971371524974
 20
4.630689764687469
 10
-7.580274017749762
 20
4.629797327562487
 10
-7.580892674624755
 20
4.628831863187461
 10
-7.581571701749757
 20
4.627793938062449
 10
-7.582313218249744
 20
4.626684127312466
 10
-7.58311873912474
 20
4.625504052687461
 10
-7.583992442749762
 20
4.624251650187479
 10
-7.584937009874744
 20
4.622927347312473
 10
-7.585959201249771
 20
4.621526124062474
 10
-7.587066548499755
 20
4.620042515312452
 10
-7.588260652249767
 20
4.618479516437468
 10
-7.589544999124753
 20
4.616837793937478
 10
-7.590921908624733
 20
4.615119733937453
 10
-7.592394261249748
 20
4.613327183062463
 10
-7.593964009624728
 20
4.611463275562457
 10
-7.595633514624753
 20
4.609530765562468
 10
-7.597404351499737
 20
4.607533415937468
 10
-7.599278486249743
 20
4.605474607687471
 10
-7.601256856874754
 20
4.60335889493748
 10
-7.603340831374763
 20
4.601190362562476
 10
-7.605530615874746
 20
4.59897428081246
 10
-7.607826845249745
 20
4.596715402937471
 10
-7.610228900624744
 20
4.594419617687476
 10
-7.612736566999736
 20
4.592092268312461
 10
-7.615348340999743
 20
4.589739719312462
 10
-7.618063076374748
 20
4.587367778187474
 10
-7.620878353499735
 20
4.584983116062483
 10
-7.623791932749742
 20
4.582591940062487
  0
LWPOLYLINE
  5
1FD1
330
1F
100
AcDbEntity
  8
SK1
100
AcDbPolyline
 90
       14
 70
     0
 43
0.0
 10
-7.623791932749742
 20
4.582591940062487
 10
-7.626800819624754
 20
4.580200763687465
 10
-7.629899764499763
 20
4.57781746143746
 10
-7.633091937874747
 20
4.575443195312456
 10
-7.636378855624744
 20
4.573080495062468
 10
-7.639759747374752
 20
4.570733359687466
 10
-7.643235591624756
 20
4.568404527062466
 10
-7.646802017374751
 20
4.566100221312487
 10
-7.650455807999744
 20
4.563825557187464
 10
-7.654193399499738
 20
4.561585576562461
 10
-7.658011100624746
 20
4.559385098687455
 10
-7.661905041874759
 20
4.557228749562453
 10
-7.665871164999737
 20
4.555120961187467
 10
-7.669905391374745
 20
4.553065881062459
  0
LINE
  5
1FD2
330
1F
100
AcDbEntity
  8
SK1
100
AcDbLine
 10
-5.500671456607777
 20
4.523517243475124
 30
0.0
 11
-5.998202653749745
 21
4.52389917781246
 31
0.0
  0
LWPOLYLINE
  5
1FD3
330
1F
100
AcDbEntity
  8
SK1
100
AcDbPolyline
 90
       13
 70
     0
 43
0.0
 10
-6.465185507124754
 20
5.134079153187473
 10
-6.44825860074974
 20
5.119564856562466
 10
-6.418550526999757
 20
5.066644747812472
 10
-6.388791100124749
 20
4.979109340312455
 10
-6.358930509499763
 20
4.85758265393746
 10
-6.328853289124742
 20
4.702878843687472
 10
-6.298349317874766
 20
4.516010005937467
 10
-6.267652750374745
 20
4.298278152312468
 10
-6.236802178249763
 20
4.051209472437461
 10
-6.206174170374742
 20
3.776479543687467
 10
-6.176303369374737
 20
3.47596352206247
 10
-6.146754146874758
 20
3.151704443687477
 10
-6.117328817374741
 20
2.805893320687462
  0
LWPOLYLINE
  5
1FD4
330
1F
100
AcDbEntity
  8
SK1
100
AcDbPolyline
 90
       14
 70
     0
 43
0.0
 10
-6.918279807124749
 20
2.440994085312458
 10
-6.948091361874753
 20
2.80596675618747
 10
-6.97785461199974
 20
3.151778044437468
 10
-7.007602219624758
 20
3.476051127312474
 10
-7.037409382499755
 20
3.776574004187474
 10
-7.067368184624744
 20
4.051285998812457
 10
-7.097460629624737
 20
4.298333254562484
 10
-7.127736373124754
 20
4.516049552812469
 10
-7.158084544499756
 20
4.702909066562466
 10
-7.18841661587474
 20
4.857612740562473
 10
-7.218715214249746
 20
4.979137583687473
 10
-7.248931975499745
 20
5.066665185562471
 10
-7.279071344999763
 20
5.119575561937471
 10
-7.309440195999759
 20
5.137508745937478
  0
LINE
  5
1FD5
330
1F
100
AcDbEntity
  8
SK1
100
AcDbLine
 10
-5.218321059624745
 20
4.868173212937485
 30
0.0
 11
-5.294141101374736
 21
4.627835792937464
 31
0.0
  0
LINE
  5
1FD6
330
1F
100
AcDbEntity
  8
SK1
100
AcDbLine
 10
-6.206391441499742
 20
4.628249524937467
 30
0.0
 11
-6.283173422249748
 21
4.872155870937462
 31
0.0
  0
LINE
  5
1FD7
330
1F
100
AcDbEntity
  8
SK1
100
AcDbLine
 10
-7.505970998999752
 20
4.867820236437474
 30
0.0
 11
-7.58180753262474
 21
4.627440975437473
 31
0.0
  0
LINE
  5
1FD8
330
1F
100
AcDbEntity
  8
SK1
100
AcDbLine
 10
-4.188600605374763
 20
5.137508746062481
 30
0.0
 11
-4.174783208374752
 21
5.133873124812471
 31
0.0
  0
LINE
  5
1FD9
330
1F
100
AcDbEntity
  8
SK1
100
AcDbLine
 10
-1.999999999999764
 20
5.137508746062481
 30
0.0
 11
-2.734696520124747
 21
5.137508746062481
 31
0.0
  0
LINE
  5
1FDA
330
1F
100
AcDbEntity
  8
SK1
100
AcDbLine
 10
-2.734720857624748
 20
5.137508745937478
 30
0.0
 11
-2.747711901749744
 21
5.134174363437467
 31
0.0
  0
ARC
  5
1FDB
330
1F
100
AcDbEntity
  8
SK1
100
AcDbCircle
 10
-1.999067762124745
 20
5.262521333437473
 30
0.0
 40
0.125012753125
100
AcDbArc
 50
269.7640915652003
 51
355.5312699432001
  0
LWPOLYLINE
  5
1FDC
330
1F
100
AcDbEntity
  8
SK1
100
AcDbPolyline
 90
        9
 70
     0
 43
0.0
 10
-2.747568341374758
 20
5.134174000562458
 10
-2.789647982499769
 20
5.107110386937486
 10
-2.826222634624734
 20
5.073088728062463
 10
-2.854619042999736
 20
5.037073305312463
 10
-2.875835942124748
 20
5.002568799062471
 10
-2.89309624912477
 20
4.968272104687454
 10
-2.908184512374758
 20
4.932755103312474
 10
-2.921843638249745
 20
4.895519598937465
 10
-2.931191674999758
 20
4.867010125687454
  0
LWPOLYLINE
  5
1FDD
330
1F
100
AcDbEntity
  8
SK1
100
AcDbPolyline
 90
        9
 70
     0
 43
0.0
 10
-3.995913045874763
 20
4.874353312187455
 10
-4.00844268437476
 20
4.911281457062463
 10
-4.021709610499757
 20
4.945670838187468
 10
-4.03632265149975
 20
4.978473331062462
 10
-4.05283674699975
 20
5.009950174187481
 10
-4.072915260499761
 20
5.04156442206248
 10
-4.098938271499737
 20
5.074096354937467
 10
-4.133031427749751
 20
5.106170306937454
 10
-4.175087369124741
 20
5.133872307437468
  0
LINE
  5
1FDE
330
1F
100
AcDbEntity
  8
SK1
100
AcDbLine
 10
-3.797985500249741
 20
2.440861927687456
 30
0.0
 11
-3.737459184624738
 21
1.66352606343746
 31
0.0
  0
LINE
  5
1FDF
330
1F
100
AcDbEntity
  8
SK1
100
AcDbLine
 10
-2.282899765124751
 20
1.672645504562483
 30
0.0
 11
-2.342803157374758
 21
2.448802665937475
 31
0.0
  0
LINE
  5
1FE0
330
1F
100
AcDbEntity
  8
SK1
100
AcDbLine
 10
-4.537078319374755
 20
1.256546120437457
 30
0.0
 11
-4.596781388999747
 21
2.059335755687475
 31
0.0
  0
LWPOLYLINE
  5
1FE1
330
1F
100
AcDbEntity
  8
SK1
100
AcDbPolyline
 90
        4
 70
     0
 43
0.0
 10
-3.006369703445415
 20
4.628843814963407
 10
-3.012832969124731
 20
4.619671791312457
 10
-3.025688094499748
 20
4.604564806437471
 10
-3.045041624124761
 20
4.586254684687472
  0
LINE
  5
1FE2
330
1F
100
AcDbEntity
  8
SK1
100
AcDbLine
 10
-3.045041624124761
 20
4.586254684687472
 30
0.0
 11
-3.072463759249761
 21
4.566232819312462
 31
0.0
  0
LWPOLYLINE
  5
1FE3
330
1F
100
AcDbEntity
  8
SK1
100
AcDbPolyline
 90
        5
 70
     0
 43
0.0
 10
-3.072463759249759
 20
4.566232819312462
 10
-3.106944848999761
 20
4.547962770562458
 10
-3.148276061124752
 20
4.533780670312465
 10
-3.191174430999751
 20
4.526444519562471
 10
-3.215282086124758
 20
4.525454385312468
  0
LINE
  5
1FE4
330
1F
100
AcDbEntity
  8
SK1
100
AcDbLine
 10
-3.910469285249758
 20
4.617469597562451
 30
0.0
 11
-3.918364803624752
 21
4.628254209437472
 31
0.0
  0
LWPOLYLINE
  5
1FE5
330
1F
100
AcDbEntity
  8
SK1
100
AcDbPolyline
 90
        3
 70
     0
 43
0.0
 10
-3.860477501624743
 20
4.571557361437465
 10
-3.890111478374741
 20
4.595381871687458
 10
-3.910469285249754
 20
4.617469597562451
  0
LINE
  5
1FE6
330
1F
100
AcDbEntity
  8
SK1
100
AcDbLine
 10
-3.215282086124756
 20
4.525454385312468
 30
0.0
 11
-3.710387257874754
 21
4.525793452562479
 31
0.0
  0
LWPOLYLINE
  5
1FE7
330
1F
100
AcDbEntity
  8
SK1
100
AcDbPolyline
 90
        5
 70
     0
 43
0.0
 10
-3.71148545787474
 20
4.525707570312457
 10
-3.742283435124741
 20
4.52763298868747
 10
-3.779016506499745
 20
4.534633166187458
 10
-3.821332609874751
 20
4.549600556312463
 10
-3.860477501624743
 20
4.571557361437465
  0
LINE
  5
1FE8
330
1F
100
AcDbEntity
  8
SK1
100
AcDbLine
 10
-3.710387257874754
 20
4.525793452562479
 30
0.0
 11
-3.711485457874741
 21
4.525707570312457
 31
0.0
  0
LWPOLYLINE
  5
1FE9
330
1F
100
AcDbEntity
  8
SK1
100
AcDbPolyline
 90
       14
 70
     0
 43
0.0
 10
-2.342803157374755
 20
2.448802665937475
 10
-2.37267026837474
 20
2.813136394562463
 10
-2.402567041499746
 20
3.158283751562448
 10
-2.432577342749751
 20
3.481886835937449
 10
-2.46270773174974
 20
3.781737667062482
 10
-2.493025525499741
 20
4.055784513062453
 10
-2.523432317499756
 20
4.302174911937471
 10
-2.553870052249751
 20
4.519245673687469
 10
-2.584284994624753
 20
4.705480952562476
 10
-2.614605659874735
 20
4.859589195687459
 10
-2.644827240874739
 20
4.980553989812483
 10
-2.674913827499738
 20
5.067562701187473
 10
-2.70488724437474
 20
5.120000287312463
 10
-2.734720857624746
 20
5.137508745937478
  0
LWPOLYLINE
  5
1FEA
330
1F
100
AcDbEntity
  8
SK1
100
AcDbPolyline
 90
       14
 70
     0
 43
0.0
 10
-4.17478320837475
 20
5.133873124812471
 10
-4.157929152749738
 20
5.119561056187463
 10
-4.127730374999764
 20
5.066636102562481
 10
-4.097633564499754
 20
4.97909543243748
 10
-4.06764717687475
 20
4.857560913562466
 10
-4.03775076487474
 20
4.702851361812474
 10
-4.007945264749753
 20
4.515989924562452
 10
-3.978174980499746
 20
4.298273470062467
 10
-3.94840224512475
 20
4.051222333187473
 10
-3.918573908499766
 20
3.776505978187478
 10
-3.888624033499754
 20
3.475986063437459
 10
-3.858553315624748
 20
3.151710475812463
 10
-3.828301015624761
 20
2.805870764937483
 10
-3.797985500249743
 20
2.440861927687456
  0
LINE
  5
1FEB
330
1F
100
AcDbEntity
  8
SK1
100
AcDbLine
 10
-2.930892355749753
 20
4.868099180062473
 30
0.0
 11
-3.006369703374735
 21
4.628843815187456
 31
0.0
  0
LINE
  5
1FEC
330
1F
100
AcDbEntity
  8
SK1
100
AcDbLine
 10
-3.918364803624752
 20
4.628254209437472
 30
0.0
 11
-3.995913045874763
 21
4.874353312187455
 31
0.0
  0
LWPOLYLINE
  5
1FED
330
1F
100
AcDbEntity
  8
1
100
AcDbPolyline
 90
        3
 70
     1
 43
0.0
 10
0.0000000000001706
 20
2.213229040584378
 10
0.0000000000001706
 20
-0.0000000000000582
 10
2.213229040584649
 20
-0.0000000000000582
 42
0.4142135623730966
  0
LINE
  5
1FEE
330
1F
100
AcDbEntity
  8
1
100
AcDbLine
 10
0.0000000000001706
 20
2.213229040584378
 30
0.0
 11
0.0000000000001706
 21
-2.213229040584538
 31
0.0
  0
DIMENSION
  5
224D
330
1F
100
AcDbEntity
  8
SK2
100
AcDbDimension
  2
*D8
 10
-14.22451904906341
 20
-5.137503751062519
 30
0.0
 11
-14.22451904906341
 21
0.0000024974999824
 31
0.0
 70
   160
  1
Ts<>
  3
ISO-25
100
AcDbAlignedDimension
 13
-6.893882470374741
 23
5.137508746062481
 33
0.0
 14
-8.036813658499745
 24
-5.137503751062521
 34
0.0
 50
90.0
100
AcDbRotatedDimension
1001
ACAD
1000
DSTYLE
1002
{
1070
   271
1070
     0
1002
}
  0
ENDSEC
  0
SECTION
  2
OBJECTS
  0
DICTIONARY
  5
56C
330
0
100
AcDbDictionary
  3
ACAD_GROUP
350
56D
  3
ACAD_LAYOUT
350
574
  3
ACAD_MLINESTYLE
350
56E
  3
ACAD_PLOTSETTINGS
350
575
  3
ACAD_PLOTSTYLENAME
350
572
  3
ACDBHEADERROUNDTRIPXREC
350
2289
  3
ACDBVARIABLEDICTIONARY
350
10BC
  0
DICTIONARY
  5
AF0
330
1F
100
AcDbDictionary
280
     1
  3
ACAD_LAYOUTSELFREF
360
22AA
  0
DICTIONARY
  5
AEE
330
1B
100
AcDbDictionary
280
     1
  3
ACAD_LAYOUTSELFREF
360
22A9
  0
DICTIONARY
  5
56D
102
{ACAD_REACTORS
330
56C
102
}
330
56C
100
AcDbDictionary
  0
DICTIONARY
  5
574
102
{ACAD_REACTORS
330
56C
102
}
330
56C
100
AcDbDictionary
  0
DICTIONARY
  5
56E
102
{ACAD_REACTORS
330
56C
102
}
330
56C
100
AcDbDictionary
  3
STANDARD
350
56F
  0
DICTIONARY
  5
575
102
{ACAD_REACTORS
330
56C
102
}
330
56C
100
AcDbDictionary
  0
ACDBDICTIONARYWDFLT
  5
572
102
{ACAD_REACTORS
330
56C
102
}
330
56C
100
AcDbDictionary
281
     1
  3
Normal
350
573
100
AcDbDictionaryWithDefault
340
573
  0
DICTIONARY
  5
2289
102
{ACAD_REACTORS
330
56C
102
}
330
56C
100
AcDbDictionary
  3
CEPSNTYPE
350
2293
  3
FINGERPRINTGUID
350
2294
  3
HYPERLINKBASE
350
228C
  3
INSUNITS
350
2292
  3
LAYOUTDICT
350
228E
  3
LWETCUNION
350
2291
  3
PLOTSETDICT
350
228F
  3
PLOTSTYLNAMDICT
350
2290
  3
PSVPSCALE
350
2296
  3
PUCSBASE
350
2299
  3
PUCSORGBACK
350
229F
  3
PUCSORGBOTTOM
350
229B
  3
PUCSORGFRONT
350
229E
  3
PUCSORGLEFT
350
229C
  3
PUCSORGRIGHT
350
229D
  3
PUCSORGTOP
350
229A
  3
PUCSORTHOREF
350
2297
  3
PUCSORTHOVIEW
350
2298
  3
STYLESHEET
350
228D
  3
TSTACKALIGN
350
228A
  3
TSTACKSIZE
350
228B
  3
UCSBASE
350
22A2
  3
UCSORGBACK
350
22A8
  3
UCSORGBOTTOM
350
22A4
  3
UCSORGFRONT
350
22A7
  3
UCSORGLEFT
350
22A5
  3
UCSORGRIGHT
350
22A6
  3
UCSORGTOP
350
22A3
  3
UCSORTHOREF
350
22A0
  3
UCSORTHOVIEW
350
22A1
  3
VERSIONGUID
350
2295
  0
DICTIONARY
  5
10BC
102
{ACAD_REACTORS
330
56C
102
}
330
56C
100
AcDbDictionary
  3
SORTENTS
350
10BD
  0
XRECORD
  5
22AA
102
{ACAD_REACTORS
330
AF0
102
}
330
AF0
100
AcDbXrecord
340
1F
  0
XRECORD
  5
22A9
102
{ACAD_REACTORS
330
AEE
102
}
330
AEE
100
AcDbXrecord
340
1B
  0
MLINESTYLE
  5
56F
102
{ACAD_REACTORS
330
56E
102
}
330
56E
100
AcDbMlineStyle
  2
STANDARD
 70
     0
  3

 62
   256
 51
90.0
 52
90.0
 71
     2
 49
0.5
 62
   256
  6
BYLAYER
 49
-0.5
 62
   256
  6
BYLAYER
  0
ACDBPLACEHOLDER
  5
573
102
{ACAD_REACTORS
330
572
102
}
330
572
100
AcDbPlaceHolder
280
     0
  0
XRECORD
  5
2293
102
{ACAD_REACTORS
330
2289
102
}
330
2289
100
AcDbXrecord
 90
        0
  0
XRECORD
  5
2294
102
{ACAD_REACTORS
330
2289
102
}
330
2289
100
AcDbXrecord
  1
{91885192-BF09-408E-931E-B83B272C8839}
  0
XRECORD
  5
228C
102
{ACAD_REACTORS
330
2289
102
}
330
2289
100
AcDbXrecord
  1

  0
XRECORD
  5
2292
102
{ACAD_REACTORS
330
2289
102
}
330
2289
100
AcDbXrecord
 90
        0
  0
XRECORD
  5
228E
102
{ACAD_REACTORS
330
2289
102
}
330
2289
100
AcDbXrecord
340
574
  0
XRECORD
  5
2291
102
{ACAD_REACTORS
330
2289
102
}
330
2289
100
AcDbXrecord
 90
    10781
  0
XRECORD
  5
228F
102
{ACAD_REACTORS
330
2289
102
}
330
2289
100
AcDbXrecord
340
575
  0
XRECORD
  5
2290
102
{ACAD_REACTORS
330
2289
102
}
330
2289
100
AcDbXrecord
340
572
  0
XRECORD
  5
2296
102
{ACAD_REACTORS
330
2289
102
}
330
2289
100
AcDbXrecord
 40
0.0
  0
XRECORD
  5
2299
102
{ACAD_REACTORS
330
2289
102
}
330
2289
100
AcDbXrecord
340
0
  0
XRECORD
  5
229F
102
{ACAD_REACTORS
330
2289
102
}
330
2289
100
AcDbXrecord
 10
0.0
 20
0.0
 30
0.0
  0
XRECORD
  5
229B
102
{ACAD_REACTORS
330
2289
102
}
330
2289
100
AcDbXrecord
 10
0.0
 20
0.0
 30
0.0
  0
XRECORD
  5
229E
102
{ACAD_REACTORS
330
2289
102
}
330
2289
100
AcDbXrecord
 10
0.0
 20
0.0
 30
0.0
  0
XRECORD
  5
229C
102
{ACAD_REACTORS
330
2289
102
}
330
2289
100
AcDbXrecord
 10
0.0
 20
0.0
 30
0.0
  0
XRECORD
  5
229D
102
{ACAD_REACTORS
330
2289
102
}
330
2289
100
AcDbXrecord
 10
0.0
 20
0.0
 30
0.0
  0
XRECORD
  5
229A
102
{ACAD_REACTORS
330
2289
102
}
330
2289
100
AcDbXrecord
 10
0.0
 20
0.0
 30
0.0
  0
XRECORD
  5
2297
102
{ACAD_REACTORS
330
2289
102
}
330
2289
100
AcDbXrecord
340
0
  0
XRECORD
  5
2298
102
{ACAD_REACTORS
330
2289
102
}
330
2289
100
AcDbXrecord
 70
     0
  0
XRECORD
  5
228D
102
{ACAD_REACTORS
330
2289
102
}
330
2289
100
AcDbXrecord
  1

  0
XRECORD
  5
228A
102
{ACAD_REACTORS
330
2289
102
}
330
2289
100
AcDbXrecord
 90
        1
  0
XRECORD
  5
228B
102
{ACAD_REACTORS
330
2289
102
}
330
2289
100
AcDbXrecord
 90
       70
  0
XRECORD
  5
22A2
102
{ACAD_REACTORS
330
2289
102
}
330
2289
100
AcDbXrecord
340
0
  0
XRECORD
  5
22A8
102
{ACAD_REACTORS
330
2289
102
}
330
2289
100
AcDbXrecord
 10
0.0
 20
0.0
 30
0.0
  0
XRECORD
  5
22A4
102
{ACAD_REACTORS
330
2289
102
}
330
2289
100
AcDbXrecord
 10
0.0
 20
0.0
 30
0.0
  0
XRECORD
  5
22A7
102
{ACAD_REACTORS
330
2289
102
}
330
2289
100
AcDbXrecord
 10
0.0
 20
0.0
 30
0.0
  0
XRECORD
  5
22A5
102
{ACAD_REACTORS
330
2289
102
}
330
2289
100
AcDbXrecord
 10
0.0
 20
0.0
 30
0.0
  0
XRECORD
  5
22A6
102
{ACAD_REACTORS
330
2289
102
}
330
2289
100
AcDbXrecord
 10
0.0
 20
0.0
 30
0.0
  0
XRECORD
  5
22A3
102
{ACAD_REACTORS
330
2289
102
}
330
2289
100
AcDbXrecord
 10
0.0
 20
0.0
 30
0.0
  0
XRECORD
  5
22A0
102
{ACAD_REACTORS
330
2289
102
}
330
2289
100
AcDbXrecord
340
0
  0
XRECORD
  5
22A1
102
{ACAD_REACTORS
330
2289
102
}
330
2289
100
AcDbXrecord
 70
     0
  0
XRECORD
  5
2295
102
{ACAD_REACTORS
330
2289
102
}
330
2289
100
AcDbXrecord
  1
{0102CEAA-A56A-4685-869C-95C06A8EF38F}
  0
DICTIONARYVAR
  5
10BD
102
{ACAD_REACTORS
330
10BC
102
}
330
10BC
100
DictionaryVariables
280
     0
  1
96
  0
ENDSEC
  0
EOF
