  0
SECTION
  2
HEADER
  9
$ACADVER
  1
AC1021
  9
$ACADMAINTVER
 70
    50
  9
$DWGCODEPAGE
  3
ANSI_1252
  9
$LASTSAVEDBY
  1
kamerka
  9
$INSBASE
 10
0.0
 20
0.0
 30
0.0
  9
$EXTMIN
 10
-35.52762790177076
 20
-30.12148795397661
 30
-0.0000000000000057
  9
$EXTMAX
 10
44.10997547374063
 20
39.13846549181471
 30
0.0000000000000104
  9
$LIMMIN
 10
0.0
 20
0.0
  9
$LIMMAX
 10
420.0
 20
297.0
  9
$ORTHOMODE
 70
     0
  9
$REGENMODE
 70
     1
  9
$FILLMODE
 70
     1
  9
$QTEXTMODE
 70
     0
  9
$MIRRTEXT
 70
     0
  9
$LTSCALE
 40
23.1
  9
$ATTMODE
 70
     1
  9
$TEXTSIZE
 40
3.5
  9
$TRACEWID
 40
0.05
  9
$TEXTSTYLE
  7
STANDARD
  9
$CLAYER
  8
0
  9
$CELTYPE
  6
BYLAYER
  9
$CECOLOR
 62
   256
  9
$CELTSCALE
 40
1.0
  9
$DISPSILH
 70
     0
  9
$DIMSCALE
 40
1.0
  9
$DIMASZ
 40
4.57
  9
$DIMEXO
 40
0.0625
  9
$DIMDLI
 40
0.38
  9
$DIMRND
 40
0.0
  9
$DIMDLE
 40
0.0
  9
$DIMEXE
 40
0.18
  9
$DIMTP
 40
0.01
  9
$DIMTM
 40
0.01
  9
$DIMTXT
 40
3.5
  9
$DIMCEN
 40
0.09
  9
$DIMTSZ
 40
0.0
  9
$DIMTOL
 70
     0
  9
$DIMLIM
 70
     0
  9
$DIMTIH
 70
     0
  9
$DIMTOH
 70
     0
  9
$DIMSE1
 70
     0
  9
$DIMSE2
 70
     0
  9
$DIMTAD
 70
     1
  9
$DIMZIN
 70
     8
  9
$DIMBLK
  1

  9
$DIMASO
 70
     1
  9
$DIMSHO
 70
     1
  9
$DIMPOST
  1

  9
$DIMAPOST
  1

  9
$DIMALT
 70
     0
  9
$DIMALTD
 70
     2
  9
$DIMALTF
 40
25.4
  9
$DIMLFAC
 40
1.0
  9
$DIMTOFL
 70
     0
  9
$DIMTVP
 40
0.0
  9
$DIMTIX
 70
     0
  9
$DIMSOXD
 70
     0
  9
$DIMSAH
 70
     0
  9
$DIMBLK1
  1

  9
$DIMBLK2
  1

  9
$DIMSTYLE
  2
STANDARD
  9
$DIMCLRD
 70
     0
  9
$DIMCLRE
 70
     0
  9
$DIMCLRT
 70
     0
  9
$DIMTFAC
 40
1.0
  9
$DIMGAP
 40
0.09
  9
$DIMJUST
 70
     0
  9
$DIMSD1
 70
     0
  9
$DIMSD2
 70
     0
  9
$DIMTOLJ
 70
     1
  9
$DIMTZIN
 70
     8
  9
$DIMALTZ
 70
     0
  9
$DIMALTTZ
 70
     0
  9
$DIMUPT
 70
     0
  9
$DIMDEC
 70
     3
  9
$DIMTDEC
 70
     3
  9
$DIMALTU
 70
     2
  9
$DIMALTTD
 70
     2
  9
$DIMTXSTY
  7
STANDARD
  9
$DIMAUNIT
 70
     0
  9
$DIMADEC
 70
     0
  9
$DIMALTRND
 40
0.0
  9
$DIMAZIN
 70
     0
  9
$DIMDSEP
 70
    46
  9
$DIMATFIT
 70
     0
  9
$DIMFRAC
 70
     0
  9
$DIMLDRBLK
  1

  9
$DIMLUNIT
 70
     2
  9
$DIMLWD
 70
    -2
  9
$DIMLWE
 70
    -2
  9
$DIMTMOVE
 70
     0
  9
$DIMFXL
 40
1.0
  9
$DIMFXLON
 70
     0
  9
$DIMJOGANG
 40
0.7853981633974483
  9
$DIMTFILL
 70
     0
  9
$DIMTFILLCLR
 70
     0
  9
$DIMARCSYM
 70
     0
  9
$DIMLTYPE
  6

  9
$DIMLTEX1
  6

  9
$DIMLTEX2
  6

  9
$LUNITS
 70
     2
  9
$LUPREC
 70
     4
  9
$SKETCHINC
 40
0.1
  9
$FILLETRAD
 40
0.0
  9
$AUNITS
 70
     0
  9
$AUPREC
 70
     0
  9
$MENU
  1
.
  9
$ELEVATION
 40
0.0
  9
$PELEVATION
 40
0.0
  9
$THICKNESS
 40
0.0
  9
$LIMCHECK
 70
     0
  9
$CHAMFERA
 40
0.0
  9
$CHAMFERB
 40
0.0
  9
$CHAMFERC
 40
0.0
  9
$CHAMFERD
 40
0.0
  9
$SKPOLY
 70
     0
  9
$TDCREATE
 40
2458446.405227107
  9
$TDUCREATE
 40
2458446.321893773
  9
$TDUPDATE
 40
2458641.478606759
  9
$TDUUPDATE
 40
2458641.395273426
  9
$TDINDWG
 40
0.0362733681
  9
$TDUSRTIMER
 40
0.0362723148
  9
$USRTIMER
 70
     1
  9
$ANGBASE
 50
0.0
  9
$ANGDIR
 70
     0
  9
$PDMODE
 70
     3
  9
$PDSIZE
 40
0.3125
  9
$PLINEWID
 40
0.0
  9
$SPLFRAME
 70
     0
  9
$SPLINETYPE
 70
     6
  9
$SPLINESEGS
 70
     8
  9
$HANDSEED
  5
22AA5
  9
$SURFTAB1
 70
     6
  9
$SURFTAB2
 70
     6
  9
$SURFTYPE
 70
     6
  9
$SURFU
 70
     6
  9
$SURFV
 70
     6
  9
$UCSBASE
  2

  9
$UCSNAME
  2

  9
$UCSORG
 10
0.0
 20
0.0
 30
0.0
  9
$UCSXDIR
 10
1.0
 20
0.0
 30
0.0
  9
$UCSYDIR
 10
0.0
 20
1.0
 30
0.0
  9
$UCSORTHOREF
  2

  9
$UCSORTHOVIEW
 70
     0
  9
$UCSORGTOP
 10
0.0
 20
0.0
 30
0.0
  9
$UCSORGBOTTOM
 10
0.0
 20
0.0
 30
0.0
  9
$UCSORGLEFT
 10
0.0
 20
0.0
 30
0.0
  9
$UCSORGRIGHT
 10
0.0
 20
0.0
 30
0.0
  9
$UCSORGFRONT
 10
0.0
 20
0.0
 30
0.0
  9
$UCSORGBACK
 10
0.0
 20
0.0
 30
0.0
  9
$PUCSBASE
  2

  9
$PUCSNAME
  2

  9
$PUCSORG
 10
0.0
 20
0.0
 30
0.0
  9
$PUCSXDIR
 10
1.0
 20
0.0
 30
0.0
  9
$PUCSYDIR
 10
0.0
 20
1.0
 30
0.0
  9
$PUCSORTHOREF
  2

  9
$PUCSORTHOVIEW
 70
     0
  9
$PUCSORGTOP
 10
0.0
 20
0.0
 30
0.0
  9
$PUCSORGBOTTOM
 10
0.0
 20
0.0
 30
0.0
  9
$PUCSORGLEFT
 10
0.0
 20
0.0
 30
0.0
  9
$PUCSORGRIGHT
 10
0.0
 20
0.0
 30
0.0
  9
$PUCSORGFRONT
 10
0.0
 20
0.0
 30
0.0
  9
$PUCSORGBACK
 10
0.0
 20
0.0
 30
0.0
  9
$USERI1
 70
     0
  9
$USERI2
 70
     0
  9
$USERI3
 70
     0
  9
$USERI4
 70
     0
  9
$USERI5
 70
     0
  9
$USERR1
 40
0.0
  9
$USERR2
 40
0.0
  9
$USERR3
 40
0.0
  9
$USERR4
 40
0.0
  9
$USERR5
 40
0.0
  9
$WORLDVIEW
 70
     1
  9
$SHADEDGE
 70
     3
  9
$SHADEDIF
 70
    70
  9
$TILEMODE
 70
     1
  9
$MAXACTVP
 70
    64
  9
$PINSBASE
 10
0.0
 20
0.0
 30
0.0
  9
$PLIMCHECK
 70
     0
  9
$PEXTMIN
 10
28.69141678810127
 20
19.6363175392151
 30
0.0
  9
$PEXTMAX
 10
258.2227510929107
 20
176.7268578529358
 30
0.0
  9
$PLIMMIN
 10
-5.027069091796875
 20
-6.805083274841307
  9
$PLIMMAX
 10
291.9412536621094
 20
203.1682443618775
  9
$UNITMODE
 70
     0
  9
$VISRETAIN
 70
     1
  9
$PLINEGEN
 70
     0
  9
$PSLTSCALE
 70
     1
  9
$TREEDEPTH
 70
  3020
  9
$CMLSTYLE
  2
STANDARD
  9
$CMLJUST
 70
     0
  9
$CMLSCALE
 40
1.0
  9
$PROXYGRAPHICS
 70
     1
  9
$MEASUREMENT
 70
     1
  9
$CELWEIGHT
370
    -1
  9
$ENDCAPS
280
     0
  9
$JOINSTYLE
280
     0
  9
$LWDISPLAY
290
     0
  9
$INSUNITS
 70
     0
  9
$HYPERLINKBASE
  1

  9
$STYLESHEET
  1
A1-A2.CTB
  9
$XEDIT
290
     1
  9
$CEPSNTYPE
380
     0
  9
$PSTYLEMODE
290
     1
  9
$FINGERPRINTGUID
  2
{6D3BC7B5-ACA7-406D-8A0D-A7DBBE093430}
  9
$VERSIONGUID
  2
{04653D6B-2A91-4989-9507-D75353C92C66}
  9
$EXTNAMES
290
     1
  9
$PSVPSCALE
 40
0.0
  9
$OLESTARTUP
290
     0
  9
$SORTENTS
280
   127
  9
$INDEXCTL
280
     0
  9
$HIDETEXT
280
     0
  9
$XCLIPFRAME
290
     0
  9
$HALOGAP
280
     0
  9
$OBSCOLOR
 70
   257
  9
$OBSLTYPE
280
     0
  9
$INTERSECTIONDISPLAY
280
     0
  9
$INTERSECTIONCOLOR
 70
   257
  9
$DIMASSOC
280
     1
  9
$PROJECTNAME
  1

  9
$CAMERADISPLAY
290
     0
  9
$LENSLENGTH
 40
50.0
  9
$CAMERAHEIGHT
 40
0.0
  9
$STEPSPERSEC
 40
2.0
  9
$STEPSIZE
 40
6.0
  9
$3DDWFPREC
 40
2.0
  9
$PSOLWIDTH
 40
0.25
  9
$PSOLHEIGHT
 40
4.0
  9
$LOFTANG1
 40
1.570796326794896
  9
$LOFTANG2
 40
1.570796326794896
  9
$LOFTMAG1
 40
0.0
  9
$LOFTMAG2
 40
0.0
  9
$LOFTPARAM
 70
     7
  9
$LOFTNORMALS
280
     1
  9
$LATITUDE
 40
37.795
  9
$LONGITUDE
 40
-122.394
  9
$NORTHDIRECTION
 40
0.0
  9
$TIMEZONE
 70
 -8000
  9
$LIGHTGLYPHDISPLAY
280
     1
  9
$TILEMODELIGHTSYNCH
280
     1
  9
$CMATERIAL
347
318C
  9
$SOLIDHIST
280
     0
  9
$SHOWHIST
280
     1
  9
$DWFFRAME
280
     2
  9
$DGNFRAME
280
     0
  9
$REALWORLDSCALE
290
     1
  9
$INTERFERECOLOR
 62
     1
  9
$INTERFEREOBJVS
345
3199
  9
$INTERFEREVPVS
346
1B2E3
  9
$CSHADOW
280
     0
  9
$SHADOWPLANELOCATION
 40
0.0
  0
ENDSEC
  0
SECTION
  2
CLASSES
  0
CLASS
  1
ACDBDICTIONARYWDFLT
  2
AcDbDictionaryWithDefault
  3
ObjectDBX Classes
 90
        0
 91
        1
280
     0
281
     0
  0
CLASS
  1
MATERIAL
  2
AcDbMaterial
  3
ObjectDBX Classes
 90
     1153
 91
        3
280
     0
281
     0
  0
CLASS
  1
VISUALSTYLE
  2
AcDbVisualStyle
  3
ObjectDBX Classes
 90
     4095
 91
       26
280
     0
281
     0
  0
CLASS
  1
TABLESTYLE
  2
AcDbTableStyle
  3
ObjectDBX Classes
 90
     4095
 91
        1
280
     0
281
     0
  0
CLASS
  1
SORTENTSTABLE
  2
AcDbSortentsTable
  3
ObjectDBX Classes
 90
        0
 91
        3
280
     0
281
     0
  0
CLASS
  1
DICTIONARYVAR
  2
AcDbDictionaryVar
  3
ObjectDBX Classes
 90
        0
 91
       14
280
     0
281
     0
  0
CLASS
  1
EXACXREFPANELOBJECT
  2
ExAcXREFPanelObject
  3
EXAC_ESW
 90
     1025
 91
        0
280
     1
281
     0
  0
CLASS
  1
NPOCOLLECTION
  2
AcDbImpNonPersistentObjectsCollection
  3
ObjectDBX Classes
 90
     1153
 91
        0
280
     1
281
     0
  0
CLASS
  1
SCALE
  2
AcDbScale
  3
ObjectDBX Classes
 90
     1153
 91
       33
280
     0
281
     0
  0
CLASS
  1
MLEADERSTYLE
  2
AcDbMLeaderStyle
  3
ACDB_MLEADERSTYLE_CLASS
 90
     4095
 91
        1
280
     0
281
     0
  0
CLASS
  1
ACDBSECTIONVIEWSTYLE
  2
AcDbSectionViewStyle
  3
ObjectDBX Classes
 90
     1025
 91
        2
280
     0
281
     0
  0
CLASS
  1
ACDBDETAILVIEWSTYLE
  2
AcDbDetailViewStyle
  3
ObjectDBX Classes
 90
     1025
 91
        2
280
     0
281
     0
  0
CLASS
  1
CELLSTYLEMAP
  2
AcDbCellStyleMap
  3
ObjectDBX Classes
 90
     1152
 91
        2
280
     0
281
     0
  0
CLASS
  1
ACAD_EVALUATION_GRAPH
  2
AcDbEvalGraph
  3
ObjectDBX Classes
 90
     1153
 91
        0
280
     0
281
     0
  0
CLASS
  1
ACAECUSTOBJ
  2
AcAeEditorObj
  3
AcAeEditorObj
 90
     1024
 91
        0
280
     0
281
     0
  0
CLASS
  1
ACDB_DYNAMICBLOCKPURGEPREVENTER_VERSION
  2
AcDbDynamicBlockPurgePreventer
  3
ObjectDBX Classes
 90
     1153
 91
        0
280
     0
281
     0
  0
CLASS
  1
FIELD
  2
AcDbField
  3
ObjectDBX Classes
 90
     1152
 91
        0
280
     0
281
     0
  0
CLASS
  1
FIELDLIST
  2
AcDbFieldList
  3
ObjectDBX Classes
 90
     1152
 91
        1
280
     0
281
     0
  0
CLASS
  1
ACDB_ALDIMOBJECTCONTEXTDATA_CLASS
  2
AcDbAlignedDimensionObjectContextData
  3
ObjectDBX Classes
 90
     1153
 91
        0
280
     0
281
     0
  0
ENDSEC
  0
SECTION
  2
TABLES
  0
TABLE
  2
VPORT
  5
8
330
0
100
AcDbSymbolTable
 70
     1
  0
VPORT
  5
1F4
330
8
100
AcDbSymbolTableRecord
100
AcDbViewportTableRecord
  2
*ACTIVE
 70
     0
 10
0.0
 20
0.0
 11
1.0
 21
1.0
 12
4.291173785984945
 22
4.50848876891905
 13
0.0
 23
0.0
 14
1.0
 24
1.0
 15
0.0
 25
0.0
 16
0.0
 26
0.0
 36
1.0
 17
0.0
 27
0.0
 37
0.0
 40
69.85191885985791
 41
2.690442225392296
 42
50.0
 43
0.0
 44
0.0
 50
0.0
 51
0.0
 71
     0
 72
  2000
 73
     1
 74
     1
 75
     0
 76
     0
 77
     0
 78
     0
281
     0
 65
     1
110
0.0
120
0.0
130
0.0
111
1.0
121
0.0
131
0.0
112
0.0
122
1.0
132
0.0
 79
     0
146
0.0
348
3195
 60
     3
 61
     5
292
     1
282
     1
141
0.0
142
0.0
 63
   250
421
  3355443
1001
ACAD_NAV_VCDISPLAY
1070
     3
  0
ENDTAB
  0
TABLE
  2
LTYPE
  5
5
330
0
100
AcDbSymbolTable
 70
     5
  0
LTYPE
  5
14
330
5
100
AcDbSymbolTableRecord
100
AcDbLinetypeTableRecord
  2
BYBLOCK
 70
     0
  3

 72
    65
 73
     0
 40
0.0
  0
LTYPE
  5
15
330
5
100
AcDbSymbolTableRecord
100
AcDbLinetypeTableRecord
  2
BYLAYER
 70
     0
  3

 72
    65
 73
     0
 40
0.0
  0
LTYPE
  5
16
330
5
100
AcDbSymbolTableRecord
100
AcDbLinetypeTableRecord
  2
CONTINUOUS
 70
     0
  3
Solid line
 72
    65
 73
     0
 40
0.0
  0
LTYPE
  5
9C48
330
5
100
AcDbSymbolTableRecord
100
AcDbLinetypeTableRecord
  2
CENTER
 70
     0
  3
____ _ ____ _ ____ _ ____ _ ____ _ ____ _ ____
 72
    65
 73
     4
 40
0.6
 49
0.375
 74
     0
 49
-0.075
 74
     0
 49
0.075
 74
     0
 49
-0.075
 74
     0
  0
ENDTAB
  0
TABLE
  2
LAYER
  5
2
102
{ACAD_XDICTIONARY
360
422A
102
}
330
0
100
AcDbSymbolTable
 70
    16
  0
LAYER
  5
10
102
{ACAD_XDICTIONARY
360
1B2F5
102
}
330
2
100
AcDbSymbolTableRecord
100
AcDbLayerTableRecord
  2
0
 70
     0
 62
     7
  6
CONTINUOUS
370
    -3
390
318A
347
318E
  0
LAYER
  5
3F8C
102
{ACAD_XDICTIONARY
360
1B2F7
102
}
330
2
100
AcDbSymbolTableRecord
100
AcDbLayerTableRecord
  2
1
 70
     0
 62
     4
  6
BYBLOCK
370
    50
390
318A
347
318E
  0
LAYER
  5
3FA7
330
2
100
AcDbSymbolTableRecord
100
AcDbLayerTableRecord
  2
Defpoints
 70
     0
 62
     7
  6
CONTINUOUS
290
     0
370
    -3
390
318A
347
318E
  0
LAYER
  5
9C4A
102
{ACAD_XDICTIONARY
360
1B2F9
102
}
330
2
100
AcDbSymbolTableRecord
100
AcDbLayerTableRecord
  2
2
 70
     0
 62
     7
  6
BYBLOCK
370
    25
390
318A
347
318E
  0
LAYER
  5
9C4B
102
{ACAD_XDICTIONARY
360
1B2FB
102
}
330
2
100
AcDbSymbolTableRecord
100
AcDbLayerTableRecord
  2
4
 70
     0
 62
     2
  6
CENTER
370
    25
390
318A
347
318E
  0
LAYER
  5
9C4D
102
{ACAD_XDICTIONARY
360
1B2FD
102
}
330
2
100
AcDbSymbolTableRecord
100
AcDbLayerTableRecord
  2
CUT
 70
     0
 62
     1
  6
BYBLOCK
370
    25
390
318A
347
318E
  0
LAYER
  5
9C4E
102
{ACAD_XDICTIONARY
360
1B2FF
102
}
330
2
100
AcDbSymbolTableRecord
100
AcDbLayerTableRecord
  2
NOCUT
 70
     0
 62
     7
  6
BYBLOCK
370
    25
390
318A
347
318E
  0
LAYER
  5
9C4F
102
{ACAD_XDICTIONARY
360
1B301
102
}
330
2
100
AcDbSymbolTableRecord
100
AcDbLayerTableRecord
  2
SK2
 70
     0
 62
     7
  6
BYBLOCK
370
    25
390
318A
347
318E
  0
LAYER
  5
9C50
102
{ACAD_XDICTIONARY
360
1B303
102
}
330
2
100
AcDbSymbolTableRecord
100
AcDbLayerTableRecord
  2
SK1
 70
     0
 62
     4
  6
BYBLOCK
370
    50
390
318A
347
318E
  0
LAYER
  5
9C51
102
{ACAD_XDICTIONARY
360
1B305
102
}
330
2
100
AcDbSymbolTableRecord
100
AcDbLayerTableRecord
  2
SK4
 70
     0
 62
     2
  6
CENTER
370
    25
390
318A
347
318E
  0
LAYER
  5
13335
102
{ACAD_XDICTIONARY
360
1B307
102
}
330
2
100
AcDbSymbolTableRecord
100
AcDbLayerTableRecord
  2
INFTOTAL
 70
     0
 62
     9
  6
BYBLOCK
370
    18
390
318A
347
318E
1001
AcAecLayerStandard
1000

1000

  0
LAYER
  5
1686E
102
{ACAD_XDICTIONARY
360
1B309
102
}
330
2
100
AcDbSymbolTableRecord
100
AcDbLayerTableRecord
  2
SK6
 70
     0
 62
     5
  6
BYBLOCK
370
    -3
390
318A
347
318E
  0
ENDTAB
  0
TABLE
  2
STYLE
  5
3
330
0
100
AcDbSymbolTable
 70
     2
  0
STYLE
  5
11
330
3
100
AcDbSymbolTableRecord
100
AcDbTextStyleTableRecord
  2
STANDARD
 70
     0
 40
3.5
 41
0.8
 50
0.0
 71
     0
 42
3.5
  3
monos.ttf
  4

1001
ACAD
1000
Monospac821 BT
1071
       49
  0
ENDTAB
  0
TABLE
  2
VIEW
  5
6
330
0
100
AcDbSymbolTable
 70
     0
  0
ENDTAB
  0
TABLE
  2
UCS
  5
7
330
0
100
AcDbSymbolTable
 70
     0
  0
ENDTAB
  0
TABLE
  2
APPID
  5
9
330
0
100
AcDbSymbolTable
 70
    13
  0
APPID
  5
23B
330
9
100
AcDbSymbolTableRecord
100
AcDbRegAppTableRecord
  2
ACAD
 70
     0
  0
APPID
  5
3395
330
9
100
AcDbSymbolTableRecord
100
AcDbRegAppTableRecord
  2
ACAD_EXEMPT_FROM_CAD_STANDARDS
 70
     0
  0
APPID
  5
4229
330
9
100
AcDbSymbolTableRecord
100
AcDbRegAppTableRecord
  2
AcAecLayerStandard
 70
     0
  0
APPID
  5
9A1B
330
9
100
AcDbSymbolTableRecord
100
AcDbRegAppTableRecord
  2
ACAD_PSEXT
 70
     0
  0
APPID
  5
1B313
330
9
100
AcDbSymbolTableRecord
100
AcDbRegAppTableRecord
  2
ACAD_NAV_VCDISPLAY
 70
     0
  0
APPID
  5
1B355
330
9
100
AcDbSymbolTableRecord
100
AcDbRegAppTableRecord
  2
ACAD_MLEADERVER
 70
     0
  0
APPID
  5
1EC7F
330
9
100
AcDbSymbolTableRecord
100
AcDbRegAppTableRecord
  2
ACAUTHENVIRON
 70
     0
  0
APPID
  5
1EC82
330
9
100
AcDbSymbolTableRecord
100
AcDbRegAppTableRecord
  2
AcDbDynamicBlockTrueName
 70
     0
  0
APPID
  5
1EC83
330
9
100
AcDbSymbolTableRecord
100
AcDbRegAppTableRecord
  2
AcDbDynamicBlockGUID
 70
     0
  0
APPID
  5
20A85
330
9
100
AcDbSymbolTableRecord
100
AcDbRegAppTableRecord
  2
AcCmTransparency
 70
     0
  0
APPID
  5
20AE2
330
9
100
AcDbSymbolTableRecord
100
AcDbRegAppTableRecord
  2
ACAD_DSTYLE_DIMRADIAL_EXTENSION
 70
     0
  0
APPID
  5
20CB0
330
9
100
AcDbSymbolTableRecord
100
AcDbRegAppTableRecord
  2
AcadAnnotative
 70
     0
  0
APPID
  5
21667
330
9
100
AcDbSymbolTableRecord
100
AcDbRegAppTableRecord
  2
AcadAnnoMonitorAlertIconDisabled
 70
     0
  0
ENDTAB
  0
TABLE
  2
DIMSTYLE
  5
A
330
0
100
AcDbSymbolTable
 70
     7
100
AcDbDimStyleTable
 71
     1
340
243
  0
DIMSTYLE
105
243
102
{ACAD_REACTORS
330
229C7
330
2284A
330
2284B
330
2284C
330
2284D
102
}
330
A
100
AcDbSymbolTableRecord
100
AcDbDimStyleTableRecord
  2
STANDARD
 70
     0
 41
4.57
 47
0.01
 48
0.01
 73
     0
 74
     0
 77
     1
 78
     8
140
3.5
271
     3
272
     3
284
     8
289
     0
340
11
  0
ENDTAB
  0
TABLE
  2
BLOCK_RECORD
  5
1
330
0
100
AcDbSymbolTable
 70
    41
  0
BLOCK_RECORD
  5
1F
102
{ACAD_XDICTIONARY
360
339C
102
}
330
1
100
AcDbSymbolTableRecord
100
AcDbBlockTableRecord
  2
*MODEL_SPACE
340
31A6
 70
     0
280
     1
281
     0
  0
BLOCK_RECORD
  5
1B
330
1
100
AcDbSymbolTableRecord
100
AcDbBlockTableRecord
  2
*PAPER_SPACE
340
31A7
 70
     0
280
     1
281
     0
  0
BLOCK_RECORD
  5
1B3D7
102
{ACAD_XDICTIONARY
360
1DE81
102
}
330
1
100
AcDbSymbolTableRecord
100
AcDbBlockTableRecord
  2
cero_point
340
0
310
28000000200000002000000001002000000000000010000001000000010000000000000000000000302821FF302821FF302821FF302821FF302821FF302821FF302821FF302821FF302821FF302821FF302821FF302821FF302821FF302821FF302821FF302821FF302821FF302821FF302821FF302821FF302821FF302821
310
FF302821FF302821FF302821FF302821FF302821FF302821FF302821FF302821FF302821FF302821FF302821FF302821FF302821FF302821FF302821FF302821FF302821FF302821FF302821FF302821FF302821FF302821FF302821FF302821FF302821FFFFFF00FFFFFF00FFFFFF00FF302821FF302821FF302821FF3028
310
21FF302821FF302821FF302821FF302821FF302821FF302821FF302821FF302821FF302821FF302821FF302821FF302821FF302821FF302821FF302821FF302821FF302821FF302821FF302821FF302821FFFFFF00FFFFFF00FFFFFF00FFFFFF00FFFFFF00FFFFFF00FFFFFF00FF302821FFFFFF00FFFFFF00FFFFFF00FF30
310
2821FF302821FF302821FF302821FF302821FF302821FF302821FF302821FF302821FF302821FF302821FF302821FF302821FF302821FF302821FF302821FF302821FF302821FF302821FFFFFF00FFFFFF00FFFFFF00FFFFFF00FFFFFF00FFFFFF00FFFFFF00FFFFFF00FFFFFF00FF302821FF302821FF302821FF302821FF
310
FFFF00FFFFFF00FF302821FF302821FF302821FF302821FF302821FF302821FF302821FF302821FF302821FF302821FF302821FF302821FF302821FF302821FF302821FF302821FFFFFF00FFFFFF00FFFFFF00FFFFFF00FFFFFF00FFFFFF00FFFFFF00FFFFFF00FFFFFF00FFFFFF00FF302821FF302821FF302821FF302821
310
FF302821FF302821FFFFFF00FFFFFF00FF302821FF302821FF302821FF302821FF302821FF302821FF302821FF302821FF302821FF302821FF302821FF302821FF302821FFFFFF00FFFFFF00FFFFFF00FFFFFF00FFFFFF00FFFFFF00FFFFFF00FFFFFF00FFFFFF00FFFFFF00FFFFFF00FF302821FF302821FF302821FF3028
310
21FF302821FF302821FF302821FF302821FFFFFF00FF302821FF302821FF302821FF302821FF302821FF302821FF302821FF302821FF302821FF302821FF302821FFFFFF00FFFFFF00FFFFFF00FFFFFF00FFFFFF00FFFFFF00FFFFFF00FFFFFF00FFFFFF00FFFFFF00FFFFFF00FFFFFF00FF302821FF302821FF302821FF30
310
2821FF302821FF302821FF302821FF302821FF302821FFFFFF00FF302821FF302821FF302821FF302821FF302821FF302821FF302821FF302821FF302821FFFFFF00FFFFFF00FFFFFF00FFFFFF00FFFFFF00FFFFFF00FFFFFF00FFFFFF00FFFFFF00FFFFFF00FFFFFF00FFFFFF00FFFFFF00FF302821FF302821FF302821FF
310
302821FF302821FF302821FF302821FF302821FF302821FF302821FFFFFF00FF302821FF302821FF302821FF302821FF302821FF302821FF302821FFFFFF00FFFFFF00FFFFFF00FFFFFF00FFFFFF00FFFFFF00FFFFFF00FFFFFF00FFFFFF00FFFFFF00FFFFFF00FFFFFF00FFFFFF00FFFFFF00FF302821FF302821FF302821
310
FF302821FF302821FF302821FF302821FF302821FF302821FF302821FFFFFF00FF302821FF302821FF302821FF302821FF302821FF302821FF302821FFFFFF00FFFFFF00FFFFFF00FFFFFF00FFFFFF00FFFFFF00FFFFFF00FFFFFF00FFFFFF00FFFFFF00FFFFFF00FFFFFF00FFFFFF00FFFFFF00FF302821FF302821FF3028
310
21FF302821FF302821FF302821FF302821FF302821FF302821FF302821FF302821FFFFFF00FF302821FF302821FF302821FF302821FF302821FFFFFF00FFFFFF00FFFFFF00FFFFFF00FFFFFF00FFFFFF00FFFFFF00FFFFFF00FFFFFF00FFFFFF00FFFFFF00FFFFFF00FFFFFF00FFFFFF00FFFFFF00FF302821FF302821FF30
310
2821FF302821FF302821FF302821FF302821FF302821FF302821FF302821FF302821FF302821FFFFFF00FF302821FF302821FF302821FF302821FFFFFF00FFFFFF00FFFFFF00FFFFFF00FFFFFF00FFFFFF00FFFFFF00FFFFFF00FFFFFF00FFFFFF00FFFFFF00FFFFFF00FFFFFF00FFFFFF00FFFFFF00FF302821FF302821FF
310
302821FF302821FF302821FF302821FF302821FF302821FF302821FF302821FF302821FF302821FFFFFF00FF302821FF302821FF302821FF302821FFFFFF00FFFFFF00FFFFFF00FFFFFF00FFFFFF00FFFFFF00FFFFFF00FFFFFF00FFFFFF00FFFFFF00FFFFFF00FFFFFF00FFFFFF00FFFFFF00FFFFFF00FF302821FF302821
310
FF302821FF302821FF302821FF302821FF302821FF302821FF302821FF302821FF302821FF302821FFFFFF00FF302821FF302821FF302821FF302821FFFFFF00FFFFFF00FFFFFF00FFFFFF00FFFFFF00FFFFFF00FFFFFF00FFFFFF00FFFFFF00FFFFFF00FFFFFF00FFFFFF00FFFFFF00FFFFFF00FFFFFF00FF302821FF3028
310
21FF302821FF302821FF302821FF302821FF302821FF302821FF302821FF302821FF302821FF302821FFFFFF00FF302821FF302821FF302821FFFFFF00FFFFFF00FFFFFF00FFFFFF00FFFFFF00FFFFFF00FFFFFF00FFFFFF00FFFFFF00FFFFFF00FFFFFF00FFFFFF00FFFFFF00FFFFFF00FFFFFF00FFFFFF00FF302821FF30
310
2821FF302821FF302821FF302821FF302821FF302821FF302821FF302821FF302821FF302821FF302821FF302821FFFFFF00FF302821FF302821FFFFFF00FFFFFF00FFFFFF00FFFFFF00FFFFFF00FFFFFF00FFFFFF00FFFFFF00FFFFFF00FFFFFF00FFFFFF00FFFFFF00FFFFFF00FFFFFF00FFFFFF00FFFFFF00FFFFFF00FF
310
FFFF00FFFFFF00FFFFFF00FFFFFF00FFFFFF00FFFFFF00FFFFFF00FFFFFF00FFFFFF00FFFFFF00FFFFFF00FFFFFF00FFFFFF00FF302821FF302821FFFFFF00FF302821FF302821FF302821FF302821FF302821FF302821FF302821FF302821FF302821FF302821FF302821FF302821FF302821FF302821FFFFFF00FFFFFF00
310
FFFFFF00FFFFFF00FFFFFF00FFFFFF00FFFFFF00FFFFFF00FFFFFF00FFFFFF00FFFFFF00FFFFFF00FFFFFF00FFFFFF00FFFFFF00FF302821FF302821FFFFFF00FF302821FF302821FF302821FF302821FF302821FF302821FF302821FF302821FF302821FF302821FF302821FF302821FF302821FF302821FFFFFF00FFFFFF
310
00FFFFFF00FFFFFF00FFFFFF00FFFFFF00FFFFFF00FFFFFF00FFFFFF00FFFFFF00FFFFFF00FFFFFF00FFFFFF00FFFFFF00FF302821FF302821FF302821FF302821FFFFFF00FF302821FF302821FF302821FF302821FF302821FF302821FF302821FF302821FF302821FF302821FF302821FF302821FF302821FFFFFF00FFFF
310
FF00FFFFFF00FFFFFF00FFFFFF00FFFFFF00FFFFFF00FFFFFF00FFFFFF00FFFFFF00FFFFFF00FFFFFF00FFFFFF00FFFFFF00FF302821FF302821FF302821FF302821FFFFFF00FF302821FF302821FF302821FF302821FF302821FF302821FF302821FF302821FF302821FF302821FF302821FF302821FF302821FFFFFF00FF
310
FFFF00FFFFFF00FFFFFF00FFFFFF00FFFFFF00FFFFFF00FFFFFF00FFFFFF00FFFFFF00FFFFFF00FFFFFF00FFFFFF00FFFFFF00FF302821FF302821FF302821FF302821FFFFFF00FF302821FF302821FF302821FF302821FF302821FF302821FF302821FF302821FF302821FF302821FF302821FF302821FF302821FFFFFF00
310
FFFFFF00FFFFFF00FFFFFF00FFFFFF00FFFFFF00FFFFFF00FFFFFF00FFFFFF00FFFFFF00FFFFFF00FFFFFF00FFFFFF00FFFFFF00FF302821FF302821FF302821FF302821FF302821FFFFFF00FF302821FF302821FF302821FF302821FF302821FF302821FF302821FF302821FF302821FF302821FF302821FF302821FFFFFF
310
00FFFFFF00FFFFFF00FFFFFF00FFFFFF00FFFFFF00FFFFFF00FFFFFF00FFFFFF00FFFFFF00FFFFFF00FFFFFF00FFFFFF00FFFFFF00FF302821FF302821FF302821FF302821FF302821FFFFFF00FF302821FF302821FF302821FF302821FF302821FF302821FF302821FF302821FF302821FF302821FF302821FF302821FFFF
310
FF00FFFFFF00FFFFFF00FFFFFF00FFFFFF00FFFFFF00FFFFFF00FFFFFF00FFFFFF00FFFFFF00FFFFFF00FFFFFF00FFFFFF00FF302821FF302821FF302821FF302821FF302821FF302821FF302821FFFFFF00FF302821FF302821FF302821FF302821FF302821FF302821FF302821FF302821FF302821FF302821FF302821FF
310
FFFF00FFFFFF00FFFFFF00FFFFFF00FFFFFF00FFFFFF00FFFFFF00FFFFFF00FFFFFF00FFFFFF00FFFFFF00FFFFFF00FFFFFF00FF302821FF302821FF302821FF302821FF302821FF302821FF302821FFFFFF00FF302821FF302821FF302821FF302821FF302821FF302821FF302821FF302821FF302821FF302821FF302821
310
FFFFFF00FFFFFF00FFFFFF00FFFFFF00FFFFFF00FFFFFF00FFFFFF00FFFFFF00FFFFFF00FFFFFF00FFFFFF00FFFFFF00FF302821FF302821FF302821FF302821FF302821FF302821FF302821FF302821FF302821FFFFFF00FF302821FF302821FF302821FF302821FF302821FF302821FF302821FF302821FF302821FF3028
310
21FFFFFF00FFFFFF00FFFFFF00FFFFFF00FFFFFF00FFFFFF00FFFFFF00FFFFFF00FFFFFF00FFFFFF00FFFFFF00FF302821FF302821FF302821FF302821FF302821FF302821FF302821FF302821FF302821FF302821FF302821FFFFFF00FF302821FF302821FF302821FF302821FF302821FF302821FF302821FF302821FF30
310
2821FFFFFF00FFFFFF00FFFFFF00FFFFFF00FFFFFF00FFFFFF00FFFFFF00FFFFFF00FFFFFF00FFFFFF00FF302821FF302821FF302821FF302821FF302821FF302821FF302821FF302821FF302821FF302821FF302821FF302821FF302821FFFFFF00FF302821FF302821FF302821FF302821FF302821FF302821FF302821FF
310
302821FFFFFF00FFFFFF00FFFFFF00FFFFFF00FFFFFF00FFFFFF00FFFFFF00FFFFFF00FFFFFF00FF302821FF302821FF302821FF302821FF302821FF302821FF302821FF302821FF302821FF302821FF302821FF302821FF302821FF302821FF302821FFFFFF00FFFFFF00FF302821FF302821FF302821FF302821FF302821
310
FF302821FFFFFF00FFFFFF00FFFFFF00FFFFFF00FFFFFF00FFFFFF00FFFFFF00FFFFFF00FF302821FF302821FF302821FF302821FF302821FF302821FF302821FF302821FF302821FF302821FF302821FF302821FF302821FF302821FF302821FF302821FF302821FF302821FFFFFF00FFFFFF00FFFFFF00FFFFFF00FFFFFF
310
00FF302821FFFFFF00FFFFFF00FFFFFF00FFFFFF00FFFFFF00FFFFFF00FF302821FF302821FF302821FF302821FF302821FF302821FF302821FF302821FF302821FF302821FF302821FF302821FF302821FF302821FF302821FF302821FF302821FF302821FF302821FF302821FF302821FF302821FF302821FF302821FF30
310
2821FFFFFF00FFFFFF00FFFFFF00FF302821FF302821FF302821FF302821FF302821FF302821FF302821FF302821FF302821FF302821FF302821FF302821FF302821FF302821FF302821FF302821FF302821FF302821FF302821FF302821FF302821FF302821FF302821FF302821FF302821FF302821FF302821FF302821FF
310
302821FF302821FF302821FF302821FF302821FF302821FF302821FF302821FF302821FF302821FF302821FF302821FF302821FF302821FF302821FF302821FF302821FF302821FF
102
{BLKREFS
331
20A18
102
}
 70
     0
280
     1
281
     1
  0
BLOCK_RECORD
  5
229CA
330
1
100
AcDbSymbolTableRecord
100
AcDbBlockTableRecord
  2
*D36
340
0
 70
     0
280
     1
281
     0
  0
BLOCK_RECORD
  5
229D6
330
1
100
AcDbSymbolTableRecord
100
AcDbBlockTableRecord
  2
*D37
340
0
 70
     0
280
     1
281
     0
  0
BLOCK_RECORD
  5
229E2
330
1
100
AcDbSymbolTableRecord
100
AcDbBlockTableRecord
  2
*D38
340
0
 70
     0
280
     1
281
     0
  0
BLOCK_RECORD
  5
229EE
330
1
100
AcDbSymbolTableRecord
100
AcDbBlockTableRecord
  2
*D39
340
0
 70
     0
280
     1
281
     0
  0
BLOCK_RECORD
  5
229FA
330
1
100
AcDbSymbolTableRecord
100
AcDbBlockTableRecord
  2
*D40
340
0
 70
     0
280
     1
281
     0
  0
ENDTAB
  0
ENDSEC
  0
SECTION
  2
BLOCKS
  0
BLOCK
  5
20
330
1F
100
AcDbEntity
  8
0
100
AcDbBlockBegin
  2
*MODEL_SPACE
 70
     0
 10
0.0
 20
0.0
 30
0.0
  3
*MODEL_SPACE
  1

  0
ENDBLK
  5
21
330
1F
100
AcDbEntity
  8
0
100
AcDbBlockEnd
  0
BLOCK
  5
1C
330
1B
100
AcDbEntity
 67
     1
  8
0
100
AcDbBlockBegin
  2
*PAPER_SPACE
 70
     0
 10
0.0
 20
0.0
 30
0.0
  3
*PAPER_SPACE
  1

  0
ENDBLK
  5
1D
330
1B
100
AcDbEntity
 67
     1
  8
0
100
AcDbBlockEnd
  0
BLOCK
  5
1B3D8
330
1B3D7
100
AcDbEntity
  8
0
100
AcDbBlockBegin
  2
cero_point
 70
     0
 10
0.0
 20
0.0
 30
0.0
  3
cero_point
  1

  0
HATCH
  5
1B3DA
330
1B3D7
100
AcDbEntity
  8
1
  6
ByBlock
370
    50
100
AcDbHatch
 10
0.0
 20
0.0
 30
0.0
210
0.0
220
0.0
230
1.0
  2
SOLID
 70
     1
 71
     0
 91
        2
 92
        7
 72
     1
 73
     1
 93
        3
 10
-0.0000000000001137
 20
0.0
 42
0.0
 10
-2.950972054112752
 20
0.0
 42
0.4142135623730968
 10
-0.0000000000001137
 20
-2.950972054112583
 42
0.0
 97
        0
 92
        7
 72
     1
 73
     1
 93
        3
 10
-0.0000000000001137
 20
2.950972054112638
 42
0.0
 10
-0.0000000000001137
 20
0.0
 42
0.0
 10
2.950972054112526
 20
0.0
 42
0.4142135623730966
 97
        0
 75
     0
 76
     1
 47
0.1190009775223266
 98
        2
 10
-0.7445530588121301
 20
-0.9212244733764125
 10
1.279464601852737
 20
1.696796923046345
450
        0
451
        0
460
0.0
461
0.0
452
        0
462
0.0
453
        0
470

  0
LWPOLYLINE
  5
1B3DB
330
1B3D7
100
AcDbEntity
  8
1
  6
ByBlock
370
    50
100
AcDbPolyline
 90
        3
 70
     1
 43
0.0
 10
-0.0000000000001137
 20
0.0
 10
2.950972054112526
 20
0.0
 42
0.4142135623730966
 10
-0.0000000000001137
 20
2.950972054112638
  0
LINE
  5
1B3DC
330
1B3D7
100
AcDbEntity
  8
1
  6
ByBlock
370
    50
100
AcDbLine
 10
-0.0000000000001137
 20
-2.950972054112583
 30
0.0
 11
-0.0000000000001137
 21
2.950972054112638
 31
0.0
  0
LWPOLYLINE
  5
1B3DD
330
1B3D7
100
AcDbEntity
  8
1
  6
ByBlock
370
    50
100
AcDbPolyline
 90
        3
 70
     1
 43
0.0
 10
-0.0000000000001137
 20
-2.950972054112583
 10
-0.0000000000001137
 20
0.0
 10
-2.950972054112752
 20
0.0
 42
0.4142135623730966
  0
LINE
  5
1B3DE
330
1B3D7
100
AcDbEntity
  8
1
  6
ByBlock
370
    50
100
AcDbLine
 10
2.950972054112638
 20
0.0
 30
0.0
 11
-2.950972054112638
 21
0.0
 31
0.0
  0
CIRCLE
  5
1B3DF
330
1B3D7
100
AcDbEntity
  8
1
  6
ByBlock
370
    50
100
AcDbCircle
 10
-0.0000000000001137
 20
0.0
 30
0.0
 40
2.950972054112601
  0
ENDBLK
  5
1B3D9
330
1B3D7
100
AcDbEntity
  8
0
100
AcDbBlockEnd
  0
BLOCK
  5
229CB
330
229CA
100
AcDbEntity
  8
0
100
AcDbBlockBegin
  2
*D36
 70
     1
 10
0.0
 20
0.0
 30
0.0
  3
*D36
  1

  0
LINE
  5
22A5D
330
229CA
100
AcDbEntity
  8
SK2
 62
     0
440
 16777216
370
    -2
100
AcDbLine
 10
18.79740697093335
 20
0.1083656893999887
 30
0.0
 11
18.79740697093335
 21
28.16141597709029
 31
0.0
  0
LINE
  5
22A5E
330
229CA
100
AcDbEntity
  8
SK2
 62
     0
440
 16777216
370
    -2
100
AcDbLine
 10
-12.00000028433332
 20
3.562491931766658
 30
0.0
 11
-12.00000028433332
 21
28.16141597709029
 31
0.0
  0
LINE
  5
22A5F
330
229CA
100
AcDbEntity
  8
SK2
 62
     0
440
 16777216
370
    -2
100
AcDbLine
 10
16.29740697093335
 20
27.9814159770903
 30
0.0
 11
-9.500000284333323
 21
27.9814159770903
 31
0.0
  0
SOLID
  5
22A60
330
229CA
100
AcDbEntity
  8
SK2
 62
     0
440
 16777216
100
AcDbTrace
 10
16.29740697093335
 20
28.39808264375696
 30
0.0
 11
16.29740697093335
 21
27.56474931042363
 31
0.0
 12
18.79740697093335
 22
27.9814159770903
 32
0.0
 13
18.79740697093335
 23
27.9814159770903
 33
0.0
  0
SOLID
  5
22A61
330
229CA
100
AcDbEntity
  8
SK2
 62
     0
440
 16777216
100
AcDbTrace
 10
-9.500000284333323
 20
28.39808264375696
 30
0.0
 11
-9.500000284333323
 21
27.56474931042363
 31
0.0
 12
-12.00000028433332
 22
27.9814159770903
 32
0.0
 13
-12.00000028433332
 23
27.9814159770903
 33
0.0
  0
MTEXT
  5
22A62
330
229CA
100
AcDbEntity
  8
SK2
 62
     0
440
 16777216
100
AcDbMText
 10
3.398703343300014
 20
29.88290578735031
 30
0.0
 40
3.5
 41
0.0
 46
0.0
 71
     5
 72
     1
  1
\A1;30.797
 73
     1
 44
1.0
  0
POINT
  5
22A63
330
229CA
100
AcDbEntity
  8
Defpoints
 62
     0
440
 16777216
100
AcDbPoint
 10
18.79740697093335
 20
0.0458656893999887
 30
0.0
  0
POINT
  5
22A64
330
229CA
100
AcDbEntity
  8
Defpoints
 62
     0
440
 16777216
100
AcDbPoint
 10
-12.00000028433332
 20
3.499991931766658
 30
0.0
  0
POINT
  5
22A65
330
229CA
100
AcDbEntity
  8
Defpoints
 62
     0
440
 16777216
100
AcDbPoint
 10
-12.00000028433332
 20
27.9814159770903
 30
0.0
  0
ENDBLK
  5
229CC
330
229CA
100
AcDbEntity
  8
0
100
AcDbBlockEnd
  0
BLOCK
  5
229D7
330
229D6
100
AcDbEntity
  8
0
100
AcDbBlockBegin
  2
*D37
 70
     1
 10
0.0
 20
0.0
 30
0.0
  3
*D37
  1

  0
LINE
  5
22A37
330
229D6
100
AcDbEntity
  8
SK2
 62
     0
440
 16777216
370
    -2
100
AcDbLine
 10
-11.19651758206664
 20
4.999999999999985
 30
0.0
 11
-21.41451797799997
 21
4.999999999999988
 31
0.0
  0
LINE
  5
22A38
330
229D6
100
AcDbEntity
  8
SK2
 62
     0
440
 16777216
370
    -2
100
AcDbLine
 10
-9.755688976433319
 20
-5.000000000000007
 30
0.0
 11
-21.41451797799997
 21
-5.000000000000003
 31
0.0
  0
LINE
  5
22A39
330
229D6
100
AcDbEntity
  8
SK2
 62
     0
440
 16777216
370
    -2
100
AcDbLine
 10
-21.23451797799997
 20
2.499999999999988
 30
0.0
 11
-21.23451797799997
 21
-2.500000000000003
 31
0.0
  0
SOLID
  5
22A3A
330
229D6
100
AcDbEntity
  8
SK2
 62
     0
440
 16777216
100
AcDbTrace
 10
-21.65118464466664
 20
2.499999999999988
 30
0.0
 11
-20.8178513113333
 21
2.499999999999988
 31
0.0
 12
-21.23451797799997
 22
4.999999999999988
 32
0.0
 13
-21.23451797799997
 23
4.999999999999988
 33
0.0
  0
SOLID
  5
22A3B
330
229D6
100
AcDbEntity
  8
SK2
 62
     0
440
 16777216
100
AcDbTrace
 10
-21.65118464466664
 20
-2.500000000000003
 30
0.0
 11
-20.8178513113333
 21
-2.500000000000003
 31
0.0
 12
-21.23451797799997
 22
-5.000000000000003
 32
0.0
 13
-21.23451797799997
 23
-5.000000000000003
 33
0.0
  0
MTEXT
  5
22A3C
330
229D6
100
AcDbEntity
  8
SK2
 62
     0
440
 16777216
100
AcDbMText
 10
-23.1679824895952
 20
0.0000000000000287
 30
0.0
 40
3.5
 41
0.0
 46
0.0
 71
     5
 72
     1
  1
\A1;TS10
 11
0.0000000000000001
 21
1.0
 31
0.0
 73
     1
 44
1.0
  0
POINT
  5
22A3D
330
229D6
100
AcDbEntity
  8
Defpoints
 62
     0
440
 16777216
100
AcDbPoint
 10
-11.13401758206665
 20
4.999999999999985
 30
0.0
  0
POINT
  5
22A3E
330
229D6
100
AcDbEntity
  8
Defpoints
 62
     0
440
 16777216
100
AcDbPoint
 10
-9.693188976433319
 20
-5.000000000000007
 30
0.0
  0
POINT
  5
22A3F
330
229D6
100
AcDbEntity
  8
Defpoints
 62
     0
440
 16777216
100
AcDbPoint
 10
-21.23451797799997
 20
-5.000000000000003
 30
0.0
  0
ENDBLK
  5
229D8
330
229D6
100
AcDbEntity
  8
0
100
AcDbBlockEnd
  0
BLOCK
  5
229E3
330
229E2
100
AcDbEntity
  8
0
100
AcDbBlockBegin
  2
*D38
 70
     1
 10
0.0
 20
0.0
 30
0.0
  3
*D38
  1

  0
LINE
  5
22A40
330
229E2
100
AcDbEntity
  8
2
 62
     0
440
 16777216
370
    -2
100
AcDbLine
 10
11.46992725726669
 20
7.999999999999985
 30
0.0
 11
31.91403310616671
 21
7.99999999999998
 31
0.0
  0
LINE
  5
22A41
330
229E2
100
AcDbEntity
  8
2
 62
     0
440
 16777216
370
    -2
100
AcDbLine
 10
11.63250231440004
 20
-8.000000000000007
 30
0.0
 11
31.9140331061667
 21
-8.000000000000014
 31
0.0
  0
LINE
  5
22A42
330
229E2
100
AcDbEntity
  8
2
 62
     0
440
 16777216
370
    -2
100
AcDbLine
 10
31.73403310616671
 20
5.49999999999998
 30
0.0
 11
31.73403310616671
 21
-5.500000000000014
 31
0.0
  0
SOLID
  5
22A43
330
229E2
100
AcDbEntity
  8
2
 62
     0
440
 16777216
100
AcDbTrace
 10
31.31736643950004
 20
5.49999999999998
 30
0.0
 11
32.15069977283337
 21
5.49999999999998
 31
0.0
 12
31.73403310616671
 22
7.99999999999998
 32
0.0
 13
31.73403310616671
 23
7.99999999999998
 33
0.0
  0
SOLID
  5
22A44
330
229E2
100
AcDbEntity
  8
2
 62
     0
440
 16777216
100
AcDbTrace
 10
31.31736643950004
 20
-5.500000000000014
 30
0.0
 11
32.15069977283337
 21
-5.500000000000014
 31
0.0
 12
31.73403310616671
 22
-8.000000000000014
 32
0.0
 13
31.73403310616671
 23
-8.000000000000014
 33
0.0
  0
MTEXT
  5
22A45
330
229E2
100
AcDbEntity
  8
2
 62
     0
440
 16777216
100
AcDbMText
 10
29.83254329590669
 20
0.0000000000000287
 30
0.0
 40
3.5
 41
0.0
 46
0.0
 71
     5
 72
     1
  1
\A1;16
 11
0.0000000000000001
 21
1.0
 31
0.0
 73
     1
 44
1.0
  0
POINT
  5
22A46
330
229E2
100
AcDbEntity
  8
Defpoints
 62
     0
440
 16777216
100
AcDbPoint
 10
11.40742725726669
 20
7.999999999999985
 30
0.0
  0
POINT
  5
22A47
330
229E2
100
AcDbEntity
  8
Defpoints
 62
     0
440
 16777216
100
AcDbPoint
 10
11.57000231440004
 20
-8.000000000000007
 30
0.0
  0
POINT
  5
22A48
330
229E2
100
AcDbEntity
  8
Defpoints
 62
     0
440
 16777216
100
AcDbPoint
 10
31.73403310616671
 20
-8.000000000000014
 30
0.0
  0
ENDBLK
  5
229E4
330
229E2
100
AcDbEntity
  8
0
100
AcDbBlockEnd
  0
BLOCK
  5
229EF
330
229EE
100
AcDbEntity
  8
0
100
AcDbBlockBegin
  2
*D39
 70
     1
 10
0.0
 20
0.0
 30
0.0
  3
*D39
  1

  0
LINE
  5
22A49
330
229EE
100
AcDbEntity
  8
2
 62
     0
440
 16777216
370
    -2
100
AcDbLine
 10
0.0000000000000142
 20
7.788559418933317
 30
0.0
 11
0.0000000000000149
 21
19.1667448083351
 31
0.0
  0
LINE
  5
22A4A
330
229EE
100
AcDbEntity
  8
2
 62
     0
440
 16777216
370
    -2
100
AcDbLine
 10
18.80000000000002
 20
0.059967958833326
 30
0.0
 11
18.80000000000002
 21
19.1667448083351
 31
0.0
  0
LINE
  5
22A4B
330
229EE
100
AcDbEntity
  8
2
 62
     0
440
 16777216
370
    -2
100
AcDbLine
 10
2.500000000000015
 20
18.9867448083351
 30
0.0
 11
16.30000000000002
 21
18.9867448083351
 31
0.0
  0
SOLID
  5
22A4C
330
229EE
100
AcDbEntity
  8
2
 62
     0
440
 16777216
100
AcDbTrace
 10
2.500000000000015
 20
19.40341147500177
 30
0.0
 11
2.500000000000015
 21
18.57007814166843
 31
0.0
 12
0.0000000000000149
 22
18.9867448083351
 32
0.0
 13
0.0000000000000149
 23
18.9867448083351
 33
0.0
  0
SOLID
  5
22A4D
330
229EE
100
AcDbEntity
  8
2
 62
     0
440
 16777216
100
AcDbTrace
 10
16.30000000000002
 20
19.40341147500177
 30
0.0
 11
16.30000000000002
 21
18.57007814166843
 31
0.0
 12
18.80000000000002
 22
18.9867448083351
 32
0.0
 13
18.80000000000002
 23
18.9867448083351
 33
0.0
  0
MTEXT
  5
22A4E
330
229EE
100
AcDbEntity
  8
2
 62
     0
440
 16777216
100
AcDbMText
 10
9.400000000000019
 20
20.88823461859512
 30
0.0
 40
3.5
 41
0.0
 46
0.0
 71
     5
 72
     1
  1
\A1;18.8
 73
     1
 44
1.0
  0
POINT
  5
22A4F
330
229EE
100
AcDbEntity
  8
Defpoints
 62
     0
440
 16777216
100
AcDbPoint
 10
0.0000000000000142
 20
7.726059418933317
 30
0.0
  0
POINT
  5
22A50
330
229EE
100
AcDbEntity
  8
Defpoints
 62
     0
440
 16777216
100
AcDbPoint
 10
18.80000000000002
 20
-0.002532041166674
 30
0.0
  0
POINT
  5
22A51
330
229EE
100
AcDbEntity
  8
Defpoints
 62
     0
440
 16777216
100
AcDbPoint
 10
18.80000000000002
 20
18.9867448083351
 30
0.0
  0
ENDBLK
  5
229F0
330
229EE
100
AcDbEntity
  8
0
100
AcDbBlockEnd
  0
BLOCK
  5
229FB
330
229FA
100
AcDbEntity
  8
0
100
AcDbBlockBegin
  2
*D40
 70
     1
 10
0.0
 20
0.0
 30
0.0
  3
*D40
  1

  0
LINE
  5
22A52
330
229FA
100
AcDbEntity
  8
2
 62
     0
440
 16777216
370
    -2
100
AcDbLine
 10
18.63247081193334
 20
0.7499999999999929
 30
0.0
 11
25.63888000000004
 21
0.749999999999991
 31
0.0
  0
LINE
  5
22A53
330
229FA
100
AcDbEntity
  8
2
 62
     0
440
 16777216
370
    -2
100
AcDbLine
 10
18.63247081193334
 20
-0.7500000000000071
 30
0.0
 11
25.63888000000004
 21
-0.7500000000000091
 31
0.0
  0
LINE
  5
22A54
330
229FA
100
AcDbEntity
  8
2
 62
     0
440
 16777216
370
    -2
100
AcDbLine
 10
25.45888000000004
 20
3.24999999999999
 30
0.0
 11
25.45888000000004
 21
5.749999999999991
 31
0.0
  0
LINE
  5
22A55
330
229FA
100
AcDbEntity
  8
2
 62
     0
440
 16777216
370
    -2
100
AcDbLine
 10
25.45888000000004
 20
-3.250000000000009
 30
0.0
 11
25.45888000000004
 21
-5.750000000000008
 31
0.0
  0
LINE
  5
22A56
330
229FA
100
AcDbEntity
  8
2
 62
     0
440
 16777216
370
    -2
100
AcDbLine
 10
25.45888000000004
 20
0.749999999999991
 30
0.0
 11
25.45888000000004
 21
-0.7500000000000091
 31
0.0
  0
SOLID
  5
22A57
330
229FA
100
AcDbEntity
  8
2
 62
     0
440
 16777216
100
AcDbTrace
 10
25.04221333333337
 20
3.24999999999999
 30
0.0
 11
25.87554666666671
 21
3.24999999999999
 31
0.0
 12
25.45888000000004
 22
0.749999999999991
 32
0.0
 13
25.45888000000004
 23
0.749999999999991
 33
0.0
  0
SOLID
  5
22A58
330
229FA
100
AcDbEntity
  8
2
 62
     0
440
 16777216
100
AcDbTrace
 10
25.04221333333337
 20
-3.250000000000009
 30
0.0
 11
25.87554666666671
 21
-3.250000000000009
 31
0.0
 12
25.45888000000004
 22
-0.7500000000000091
 32
0.0
 13
25.45888000000004
 23
-0.7500000000000091
 33
0.0
  0
MTEXT
  5
22A59
330
229FA
100
AcDbEntity
  8
2
 62
     0
440
 16777216
100
AcDbMText
 10
23.50573874912161
 20
-0.0000000000000048
 30
0.0
 40
3.5
 41
0.0
 46
0.0
 71
     5
 72
     1
  1
\A1;%%c1.5
 11
0.0000000000000001
 21
1.0
 31
0.0
 73
     1
 44
1.0
  0
POINT
  5
22A5A
330
229FA
100
AcDbEntity
  8
Defpoints
 62
     0
440
 16777216
100
AcDbPoint
 10
18.56997081193334
 20
0.7499999999999929
 30
0.0
  0
POINT
  5
22A5B
330
229FA
100
AcDbEntity
  8
Defpoints
 62
     0
440
 16777216
100
AcDbPoint
 10
18.56997081193334
 20
-0.7500000000000071
 30
0.0
  0
POINT
  5
22A5C
330
229FA
100
AcDbEntity
  8
Defpoints
 62
     0
440
 16777216
100
AcDbPoint
 10
25.45888000000004
 20
-0.7500000000000091
 30
0.0
  0
ENDBLK
  5
229FC
330
229FA
100
AcDbEntity
  8
0
100
AcDbBlockEnd
  0
ENDSEC
  0
SECTION
  2
ENTITIES
  0
INSERT
  5
20A18
330
1F
100
AcDbEntity
  8
1
100
AcDbBlockReference
  2
cero_point
 10
0.0000000000000711
 20
-0.0000000000000071
 30
0.0
 41
0.5
 42
0.5
 43
0.5
  0
LINE
  5
20B14
330
1F
100
AcDbEntity
  8
INFTOTAL
370
    18
100
AcDbLine
 10
43.93403812713877
 20
-30.05098308508481
 30
0.0
 11
43.93403812713877
 21
-4.728803015526708
 31
0.0
  0
LINE
  5
20B15
330
1F
100
AcDbEntity
  8
INFTOTAL
370
    18
100
AcDbLine
 10
-35.16494381078614
 20
38.95551237149367
 30
0.0
 11
-6.849229783780216
 21
38.95551237149367
 31
0.0
  0
LINE
  5
20B16
330
1F
100
AcDbEntity
  8
INFTOTAL
370
    18
100
AcDbLine
 10
17.78644245782739
 20
-30.05098308508481
 30
0.0
 11
43.93403812713877
 21
-30.05098308508481
 31
0.0
  0
LINE
  5
20B17
330
1F
100
AcDbEntity
  8
INFTOTAL
370
    18
100
AcDbLine
 10
-35.16494381078614
 20
13.03644673126503
 30
0.0
 11
-35.16494381078614
 21
38.95551237149361
 31
0.0
  0
MTEXT
  5
22849
330
1F
100
AcDbEntity
  8
SK6
100
AcDbMText
 10
5.612304308934156
 20
-15.1461400414383
 30
0.0
 40
3.5
 41
41.87058589293636
 46
0.0
 71
     2
 72
     1
  1
45N16016TRRA45
 73
     1
 44
1.0
1001
ACAD
1000
MTEXTBEGIN
1070
    73
1070
     1
1070
    44
1040
1.0
1070
    74
1070
     0
1000
MTEXTEND
  0
DIMENSION
  5
2284A
330
1F
100
AcDbEntity
  8
SK2
100
AcDbDimension
  2
*D37
 10
-21.23451797799997
 20
-5.000000000000003
 30
0.0
 11
-21.23451797799997
 21
0.0000000000000284
 31
0.0
 70
   160
  1
TS<>
 71
     5
 42
9.999999999999992
 73
     0
 74
     0
 75
     0
  3
STANDARD
100
AcDbAlignedDimension
 13
-11.13401758206665
 23
4.999999999999985
 33
0.0
 14
-9.693188976433319
 24
-5.000000000000007
 34
0.0
 50
270.0
100
AcDbRotatedDimension
1001
ACAD
1000
DSTYLE
1002
{
1070
    41
1040
2.5
1002
}
  0
DIMENSION
  5
2284B
330
1F
100
AcDbEntity
  8
2
100
AcDbDimension
  2
*D38
 10
31.73403310616671
 20
-8.000000000000014
 30
0.0
 11
31.73403310616671
 21
0.0000000000000284
 31
0.0
 70
   160
 71
     5
 42
15.99999999999999
 73
     0
 74
     0
 75
     0
  3
STANDARD
100
AcDbAlignedDimension
 13
11.40742725726669
 23
7.999999999999985
 33
0.0
 14
11.57000231440004
 24
-8.000000000000007
 34
0.0
 50
270.0
100
AcDbRotatedDimension
1001
ACAD
1000
DSTYLE
1002
{
1070
    41
1040
2.5
1002
}
  0
DIMENSION
  5
2284C
330
1F
100
AcDbEntity
  8
2
100
AcDbDimension
  2
*D39
 10
18.80000000000002
 20
18.9867448083351
 30
0.0
 11
9.400000000000019
 21
18.9867448083351
 31
0.0
 70
   160
 71
     5
 42
18.80000000000001
 73
     0
 74
     0
 75
     0
  3
STANDARD
100
AcDbAlignedDimension
 13
0.0000000000000142
 23
7.726059418933317
 33
0.0
 14
18.80000000000002
 24
-0.002532041166674
 34
0.0
100
AcDbRotatedDimension
1001
ACAD
1000
DSTYLE
1002
{
1070
    41
1040
2.5
1002
}
  0
DIMENSION
  5
2284D
330
1F
100
AcDbEntity
  8
2
100
AcDbDimension
  2
*D40
 10
25.45888000000004
 20
-0.7500000000000091
 30
0.0
 11
25.45888000000004
 21
-0.000000000000005
 31
0.0
 70
   160
  1
%%c<>
 71
     5
 42
1.5
 73
     0
 74
     0
 75
     0
  3
STANDARD
100
AcDbAlignedDimension
 13
18.56997081193334
 23
0.7499999999999929
 33
0.0
 14
18.56997081193334
 24
-0.7500000000000071
 34
0.0
 50
270.0
100
AcDbRotatedDimension
1001
ACAD
1000
DSTYLE
1002
{
1070
    41
1040
2.5
1070
   172
1070
     1
1002
}
  0
LWPOLYLINE
  5
2284E
330
1F
100
AcDbEntity
  8
1
100
AcDbPolyline
 90
        7
 70
     0
 43
0.0
 10
18.66096337050002
 20
0.0868240888333247
 10
18.6608839526
 20
0.0723784611666645
 10
18.66064914090002
 20
0.0579228120000011
 10
18.66025893550001
 20
0.0434571412666571
 10
18.65971333633335
 20
0.0289814490333242
 10
18.65901234340002
 20
0.0144957352999882
 10
18.65815595673335
 20
-0.0000000000000071
  0
LINE
  5
2284F
330
1F
100
AcDbEntity
  8
1
100
AcDbLine
 10
18.80000000000002
 20
0.1178626911333254
 30
0.0
 11
18.80000000000002
 21
-0.1178626911333396
 31
0.0
  0
LINE
  5
22850
330
1F
100
AcDbEntity
  8
1
100
AcDbLine
 10
18.56997081193334
 20
-0.7406232590000031
 30
0.0
 11
18.56997081193334
 21
-0.4637001813000055
 31
0.0
  0
LWPOLYLINE
  5
22851
330
1F
100
AcDbEntity
  8
1
100
AcDbPolyline
 90
        7
 70
     0
 43
0.0
 10
18.65815595673335
 20
-0.0000000000000071
 10
18.65901258573335
 20
-0.014503209833336
 10
18.65971372403335
 20
-0.028993408333335
 10
18.6602593716667
 20
-0.0434705955000041
 10
18.66064952863336
 20
-0.0579347712999976
 10
18.66088419490002
 20
-0.0723859357333367
 10
18.66096337050002
 20
-0.0868240888333389
  0
LINE
  5
22852
330
1F
100
AcDbEntity
  8
1
100
AcDbLine
 10
18.79594847730003
 20
0.0345427888333276
 30
0.0
 11
18.79376730106669
 21
0.0234640710333309
 31
0.0
  0
LWPOLYLINE
  5
22853
330
1F
100
AcDbEntity
  8
1
100
AcDbPolyline
 90
       10
 70
     0
 43
0.0
 10
18.64928397106668
 20
-0.0923962654666753
 10
18.64410149283334
 20
-0.1297253149666702
 10
18.63801367506669
 20
-0.167936705200006
 10
18.63102051776668
 20
-0.2070304361666757
 10
18.62312493323334
 20
-0.2468739818333319
 10
18.61432400913334
 20
-0.2875998682000116
 10
18.60460900863337
 20
-0.329605673500005
 10
18.59397701946669
 20
-0.3730239238333368
 10
18.58243095390004
 20
-0.4177220931000037
 10
18.56997081193334
 20
-0.4637001813000055
  0
LWPOLYLINE
  5
22854
330
1F
100
AcDbEntity
  8
1
100
AcDbPolyline
 90
       16
 70
     0
 43
0.0
 10
18.75111941460001
 20
0.2504882297333211
 10
18.75738652713336
 20
0.2322594077999938
 10
18.76336191583336
 20
0.2145659829666613
 10
18.76902768593335
 20
0.1974212315000017
 10
18.77429587253336
 20
0.180842011299994
 10
18.77918773513336
 20
0.1648219949999969
 10
18.78368201423338
 20
0.149367509966666
 10
18.78762696656669
 20
0.1345143958999913
 10
18.79102069800002
 20
0.1202991701666605
 10
18.79386510263335
 20
0.1066853154666631
 10
18.7960141194667
 20
0.0935991195666617
 10
18.79742815970003
 20
0.0811105037999909
 10
18.79814681213334
 20
0.0691495468999932
 10
18.79814278196669
 20
0.0574327727666599
 10
18.79740697093335
 20
0.0458656893999887
 10
18.79594847730003
 20
0.0345427888333276
  0
LINE
  5
22855
330
1F
100
AcDbEntity
  8
1
100
AcDbLine
 10
18.73769061410003
 20
0.2886148648999978
 30
0.0
 11
18.75111941460001
 21
0.2504882297333211
 31
0.0
  0
LINE
  5
22856
330
1F
100
AcDbEntity
  8
1
100
AcDbLine
 10
18.72317032350001
 20
0.3290384660999948
 30
0.0
 11
18.73769061410003
 21
0.2886148648999978
 31
0.0
  0
LINE
  5
22857
330
1F
100
AcDbEntity
  8
1
100
AcDbLine
 10
18.69945186200003
 20
0.3939958615999899
 30
0.0
 11
18.72317032350001
 21
0.3290384660999948
 31
0.0
  0
LINE
  5
22858
330
1F
100
AcDbEntity
  8
1
100
AcDbLine
 10
18.64520366943334
 20
0.5401538001666637
 30
0.0
 11
18.69945186200003
 21
0.3939958615999899
 31
0.0
  0
LINE
  5
22859
330
1F
100
AcDbEntity
  8
1
100
AcDbLine
 10
18.56997111870002
 20
0.7406222661333289
 30
0.0
 11
18.64520366943334
 21
0.5401538001666637
 31
0.0
  0
LINE
  5
2285A
330
1F
100
AcDbEntity
  8
1
100
AcDbLine
 10
18.56997111870002
 20
-0.740622266133336
 30
0.0
 11
18.67346715816667
 21
-0.4642862972333433
 31
0.0
  0
LINE
  5
2285B
330
1F
100
AcDbEntity
  8
1
100
AcDbLine
 10
18.67346715816667
 20
-0.4642862972333433
 30
0.0
 11
18.7076121855667
 21
-0.3717659753000078
 31
0.0
  0
LINE
  5
2285C
330
1F
100
AcDbEntity
  8
1
100
AcDbLine
 10
18.7076121855667
 20
-0.3717659753000078
 30
0.0
 11
18.80000000000002
 21
-0.1180000000000021
 31
0.0
  0
LINE
  5
2285D
330
1F
100
AcDbEntity
  8
1
100
AcDbLine
 10
15.2993560716667
 20
-0.0432484968000111
 30
0.0
 11
15.30066711886668
 21
-0.0868240888333389
 31
0.0
  0
LWPOLYLINE
  5
2285E
330
1F
100
AcDbEntity
  8
1
100
AcDbPolyline
 90
       34
 70
     0
 43
0.0
 10
15.32217138466667
 20
-0.0923962654666753
 10
15.33148808480003
 20
-0.3538728913666773
 10
15.32754627373335
 20
-0.6159924095000023
 10
15.3103459513667
 20
-0.8787548198666712
 10
15.27991729103336
 20
-1.143158554200006
 10
15.2362301194667
 20
-1.408205180800003
 10
15.17919391680003
 20
-1.670899404400003
 10
15.10852888133335
 20
-1.93117464323334
 10
15.0245148147667
 20
-2.189097479099999
 10
14.92790060256671
 20
-2.441872362200008
 10
14.81850539186668
 20
-2.689297774233338
 10
14.69651003553336
 20
-2.931575233533337
 10
14.56320597733334
 20
-3.166513745200006
 10
14.41865780173334
 20
-3.393781435500002
 10
14.26280092430001
 20
-3.61371017816667
 10
14.09673303563336
 20
-3.825104599666673
 10
13.92055622590003
 20
-4.027865534233342
 10
13.73416840493336
 20
-4.222092147666671
 10
13.53836099290002
 20
-4.406886563600011
 10
13.33293798416669
 20
-4.582404867433332
 10
13.11809538436669
 20
-4.748490973800002
 10
12.89521263016668
 20
-4.903778750433339
 10
12.66394045630001
 20
-5.048293418966672
 10
12.42462812803337
 20
-5.182009757766678
 10
12.1797028779667
 20
-5.303485969600004
 10
11.92904512320002
 20
-5.412488848900011
 10
11.67277444660003
 20
-5.509251601233337
 10
11.41367682940002
 20
-5.593032046333334
 10
11.1517151654
 20
-5.66356721586667
 10
10.88692656076669
 20
-5.721120078133338
 10
10.62220831526669
 20
-5.765737358133335
 10
10.35852619550003
 20
-5.797434630799997
 10
10.09491443486668
 20
-5.816196321166671
 10
9.831373033400026
 20
-5.822022429233342
  0
LINE
  5
2285F
330
1F
100
AcDbEntity
  8
1
100
AcDbLine
 10
15.29778408580002
 20
0.0003135693666536
 30
0.0
 11
15.2993560716667
 21
-0.0432484968000111
 31
0.0
  0
LINE
  5
22860
330
1F
100
AcDbEntity
  8
1
100
AcDbLine
 10
15.31364543553336
 20
0.0289529978333292
 30
0.0
 11
15.31593233103335
 21
-0.0000000000000071
 31
0.0
  0
LINE
  5
22861
330
1F
100
AcDbEntity
  8
1
100
AcDbLine
 10
15.31120086136668
 20
0.0578943607666531
 30
0.0
 11
15.31364543553336
 21
0.0289529978333292
 31
0.0
  0
LINE
  5
22862
330
1F
100
AcDbEntity
  8
1
100
AcDbLine
 10
15.30859860843334
 20
0.0868240888333247
 30
0.0
 11
15.31120086136668
 21
0.0578943607666531
 31
0.0
  0
LINE
  5
22863
330
1F
100
AcDbEntity
  8
1
100
AcDbLine
 10
18.56997111870002
 20
0.7406222661333289
 30
0.0
 11
18.50837009513334
 21
0.8045462670333307
 31
0.0
  0
LWPOLYLINE
  5
22864
330
1F
100
AcDbEntity
  8
1
100
AcDbPolyline
 90
        3
 70
     0
 43
0.0
 10
18.56997111870002
 20
-0.740622266133336
 10
18.50837009513334
 20
-0.8045462670000063
 10
18.37591904476669
 20
-0.9406282026000098
  0
LWPOLYLINE
  5
22865
330
1F
100
AcDbEntity
  8
1
100
AcDbPolyline
 90
       12
 70
     0
 43
0.0
 10
18.56997081193334
 20
-0.4637001813000055
 10
18.5194213706667
 20
-0.5283749516000072
 10
18.46634820140003
 20
-0.5941527484000062
 10
18.41075130403335
 20
-0.6610335716666782
 10
18.35289074856668
 20
-0.7285554840999993
 10
18.29250646503335
 20
-0.7971804230000004
 10
18.22881824376669
 20
-0.8682942005000029
 10
18.16161606463335
 20
-0.9422324767333378
 10
18.0911099477667
 20
-1.018659591566667
 10
18.01714974386668
 20
-1.097954376466674
 10
17.93970929566667
 20
-1.180171828200009
 10
17.77439446080002
 20
-1.353423583333338
  0
LWPOLYLINE
  5
22866
330
1F
100
AcDbEntity
  8
1
100
AcDbPolyline
 90
       31
 70
     0
 43
0.0
 10
13.8248731451667
 20
-0.3695850618000094
 10
13.80843489746668
 20
-0.5663692443666691
 10
13.7818885025667
 20
-0.7628163815666725
 10
13.74519029213336
 20
-0.9584147261333413
 10
13.69826216830002
 20
-1.152873578799997
 10
13.64115277996667
 20
-1.345433566966676
 10
13.57415523183336
 20
-1.534901709966675
 10
13.49746747256669
 20
-1.720723467033344
 10
13.41126419700002
 20
-1.902480126266667
 10
13.31601767263335
 20
-2.079258850966681
 10
13.21216943760002
 20
-2.250435716133338
 10
13.09994108086668
 20
-2.415823695966679
 10
12.97954746103336
 20
-2.575208758666668
 10
12.85141722036668
 20
-2.72810884396668
 10
12.71582840203335
 20
-2.87427211606667
 10
12.57269988160003
 20
-3.01377780933334
 10
12.42222634333335
 20
-3.146345159833344
 10
12.26487507016669
 20
-3.271475526966675
 10
12.10092638373335
 20
-3.388868665900005
 10
11.93056026936669
 20
-3.498289409000008
 10
11.75436588370003
 20
-3.599256452266672
 10
11.57330407396669
 20
-3.691191737966676
 10
11.38783504056668
 20
-3.773883696466675
 10
11.19846649010002
 20
-3.847127513000003
 10
11.00632782956667
 20
-3.910562331400008
 10
10.81197360073336
 20
-3.964133392033346
 10
10.61590931230002
 20
-4.007827198300006
 10
10.41924103773335
 20
-4.041563982233334
 10
10.22269034363337
 20
-4.065442856366672
 10
10.02657131270002
 20
-4.079645298966667
 10
9.831373033400026
 20
-4.084338533233335
  0
LINE
  5
22867
330
1F
100
AcDbEntity
  8
1
100
AcDbLine
 10
13.80000000000002
 20
-0.3472963553333415
 30
0.0
 11
13.80000000000002
 21
-0.5077133059333363
 31
0.0
  0
LWPOLYLINE
  5
22868
330
1F
100
AcDbEntity
  8
1
100
AcDbPolyline
 90
       19
 70
     0
 43
0.0
 10
13.79204047413334
 20
-0.4526776314000074
 10
13.78981419863335
 20
-0.4170580212666693
 10
13.78737189856669
 20
-0.3815062462000043
 10
13.78470980543336
 20
-0.3460237316666692
 10
13.78181816326669
 20
-0.3105422159000071
 10
13.77869831450003
 20
-0.2751330213000074
 10
13.77536687233335
 20
-0.2400066939666772
 10
13.77182403166669
 20
-0.2051685085000088
 10
13.76806953200004
 20
-0.1706156849333382
 10
13.76412669330001
 20
-0.1365459864333403
 10
13.75999965063336
 20
-0.1029660949333362
 10
13.75569145753336
 20
-0.0698709498666759
 10
13.7512307238667
 20
-0.0374398611666749
 10
13.74662460276669
 20
-0.0056767864000022
 10
13.74187945683336
 20
0.0254217335666596
 10
13.73702896730002
 20
0.055688442033329
 10
13.7320919992667
 20
0.0850680415666574
 10
13.72706920100002
 20
0.1136167161999921
 10
13.72196973476669
 20
0.1413349738666625
  0
LINE
  5
22869
330
1F
100
AcDbEntity
  8
1
100
AcDbLine
 10
11.14449072696671
 20
7.821852986333325
 30
0.0
 11
12.01669158330001
 21
6.641978893800001
 31
0.0
  0
LINE
  5
2286A
330
1F
100
AcDbEntity
  8
1
100
AcDbLine
 10
12.01669158330001
 20
6.641978893800001
 30
0.0
 11
18.26623058853336
 21
0.092396265466661
 31
0.0
  0
LINE
  5
2286B
330
1F
100
AcDbEntity
  8
1
100
AcDbLine
 10
18.50837009513334
 20
0.8045462670333307
 30
0.0
 11
18.37591904476669
 21
0.9406282025999956
 31
0.0
  0
LINE
  5
2286C
330
1F
100
AcDbEntity
  8
1
100
AcDbLine
 10
18.37591904476669
 20
0.9406282025999956
 30
0.0
 11
18.23121563163336
 21
1.087569987666654
 31
0.0
  0
LINE
  5
2286D
330
1F
100
AcDbEntity
  8
1
100
AcDbLine
 10
18.23121563163336
 20
1.087569987666654
 30
0.0
 11
17.98378876803336
 21
1.336178382633327
 31
0.0
  0
LINE
  5
2286E
330
1F
100
AcDbEntity
  8
1
100
AcDbLine
 10
17.98378876803336
 20
1.336178382633327
 30
0.0
 11
11.31997081193334
 21
7.999999999999985
 31
0.0
  0
LINE
  5
2286F
330
1F
100
AcDbEntity
  8
1
100
AcDbLine
 10
17.62322444513334
 20
1.694871611899991
 30
0.0
 11
16.96968507023335
 21
2.339496656299985
 31
0.0
  0
LINE
  5
22870
330
1F
100
AcDbEntity
  8
1
100
AcDbLine
 10
16.96968507023335
 20
2.339496656299985
 30
0.0
 11
15.89030799240002
 21
3.397470747433331
 31
0.0
  0
LINE
  5
22871
330
1F
100
AcDbEntity
  8
1
100
AcDbLine
 10
15.89030799240002
 20
3.397470747433331
 30
0.0
 11
13.94395423150003
 21
5.297928199933338
 31
0.0
  0
LINE
  5
22872
330
1F
100
AcDbEntity
  8
1
100
AcDbLine
 10
13.94395423150003
 20
5.297928199933338
 30
0.0
 11
11.31997081193334
 21
7.855307673699989
 31
0.0
  0
LINE
  5
22873
330
1F
100
AcDbEntity
  8
1
100
AcDbLine
 10
16.07144134190004
 20
-3.074231423300005
 30
0.0
 11
12.75623198973336
 21
-6.358414802833337
 31
0.0
  0
LINE
  5
22874
330
1F
100
AcDbEntity
  8
1
100
AcDbLine
 10
17.98065671616668
 20
-1.339314095766674
 30
0.0
 11
11.31997081193334
 21
-8.000000000000007
 31
0.0
  0
LINE
  5
22875
330
1F
100
AcDbEntity
  8
1
100
AcDbLine
 10
16.85350310320002
 20
-2.2917390335
 30
0.0
 11
16.07144134190004
 21
-3.074231423300005
 31
0.0
  0
LINE
  5
22876
330
1F
100
AcDbEntity
  8
1
100
AcDbLine
 10
18.23121563163336
 20
-1.087569987666668
 30
0.0
 11
17.98378876803336
 21
-1.336178382633342
 31
0.0
  0
LINE
  5
22877
330
1F
100
AcDbEntity
  8
1
100
AcDbLine
 10
17.29905110153335
 20
-1.84151482326667
 30
0.0
 11
16.85350310320002
 21
-2.2917390335
 31
0.0
  0
LINE
  5
22878
330
1F
100
AcDbEntity
  8
1
100
AcDbLine
 10
18.37591904476669
 20
-0.9406282026000098
 30
0.0
 11
18.23121563163336
 21
-1.087569987666668
 31
0.0
  0
LINE
  5
22879
330
1F
100
AcDbEntity
  8
1
100
AcDbLine
 10
17.59496701446669
 20
-1.53904043446667
 30
0.0
 11
17.29905110153335
 21
-1.84151482326667
 31
0.0
  0
LWPOLYLINE
  5
2287A
330
1F
100
AcDbEntity
  8
1
100
AcDbPolyline
 90
        3
 70
     0
 43
0.0
 10
12.75623198973336
 20
-6.358414802833337
 10
12.52795305266669
 20
-6.593769597466668
 10
11.31997081193334
 20
-7.832417984166667
  0
LINE
  5
2287B
330
1F
100
AcDbEntity
  8
1
100
AcDbLine
 10
17.77439446080002
 20
-1.353423583333338
 30
0.0
 11
17.59496701446669
 21
-1.53904043446667
 31
0.0
  0
LWPOLYLINE
  5
2287C
330
1F
100
AcDbEntity
  8
1
100
AcDbPolyline
 90
       10
 70
     0
 43
0.0
 10
13.78315306600002
 20
-0.5118136560000011
 10
13.75072836820003
 20
-0.688957500066671
 10
13.71030324686667
 20
-0.8638710020333419
 10
13.66187770203335
 20
-1.036554161900006
 10
13.60532033990002
 20
-1.207386471166671
 10
13.54076255426669
 20
-1.375988438300005
 10
13.46859852640001
 20
-1.541221589100004
 10
13.38895965000002
 20
-1.702706432133339
 10
13.3017145313667
 20
-1.860822458800001
 10
13.20686317046669
 20
-2.015569669100003
  0
LINE
  5
2287D
330
1F
100
AcDbEntity
  8
1
100
AcDbLine
 10
13.78315306600002
 20
-0.5118136560000011
 30
0.0
 11
13.78622726083337
 21
-0.492125402666666
 31
0.0
  0
LINE
  5
2287E
330
1F
100
AcDbEntity
  8
1
100
AcDbLine
 10
13.78622726083337
 20
-0.492125402666666
 30
0.0
 11
13.78918936396668
 21
-0.472413172166668
 31
0.0
  0
LINE
  5
2287F
330
1F
100
AcDbEntity
  8
1
100
AcDbLine
 10
13.78918936396668
 20
-0.472413172166668
 30
0.0
 11
13.79204047413334
 21
-0.4526776314000074
 31
0.0
  0
LWPOLYLINE
  5
22880
330
1F
100
AcDbEntity
  8
1
100
AcDbPolyline
 90
        7
 70
     0
 43
0.0
 10
13.79204047413334
 20
-0.4526776314000074
 10
13.79366184180002
 20
-0.460558375900007
 10
13.79515823643335
 20
-0.4689548305333418
 10
13.79653520740002
 20
-0.4778678273000097
 10
13.79779796613336
 20
-0.4872981241666708
 10
13.79895138573336
 20
-0.4972464095000078
 10
13.80000000000002
 20
-0.5077133059333363
  0
LWPOLYLINE
  5
22881
330
1F
100
AcDbEntity
  8
1
100
AcDbPolyline
 90
       46
 70
     0
 43
0.0
 10
10.18476045120003
 20
6.231296072033323
 10
10.16703721250003
 20
6.247016265999995
 10
10.15002537440001
 20
6.262451331066664
 10
10.1337249368667
 20
6.277601267266661
 10
10.11814314896669
 20
6.292431249033334
 10
10.10327276163336
 20
6.306976101933329
 10
10.08909202773334
 20
6.321340302433327
 10
10.07559040193335
 20
6.335506541466656
 10
10.06277842956667
 20
6.349492128133327
 10
10.05066599946669
 20
6.363453466399988
 10
10.0391894788667
 20
6.377405038866662
 10
10.02841250053338
 20
6.391332362900001
 10
10.01853585156671
 20
6.40534839466666
 10
10.00945863310001
 20
6.419527973233321
 10
10.00128174403336
 20
6.433796259499999
 10
9.994508668333352
 20
6.448041692066666
 10
9.989122083300017
 20
6.462321566733322
 10
9.985139311633375
 20
6.476578587666665
 10
9.983115805566697
 20
6.49052930596666
 10
9.983183105100025
 20
6.504203872600001
 10
9.985209670233373
 20
6.517572136633326
 10
9.989356332966693
 20
6.530260196333323
 10
9.995906540000035
 20
6.542241005433325
 10
10.00457684460004
 20
6.553541610233331
 10
10.01467773880001
 20
6.563869248066666
 10
10.02621396130003
 20
6.573064631633329
 10
10.03918077340002
 20
6.581287048266659
 10
10.05287445096668
 20
6.588721597166653
 10
10.06708179570002
 20
6.595332794033332
 10
10.08201600590003
 20
6.601156123199999
 10
10.09761295206668
 20
6.606483136733316
 10
10.11384461203336
 20
6.61137129139999
 10
10.13073900793337
 20
6.615763130433322
 10
10.14831607696671
 20
6.61977783559999
 10
10.16658724933337
 20
6.62344045813333
 10
10.18554109483337
 20
6.626725946833332
 10
10.2051632601
 20
6.62967832973333
 10
10.22547553260001
 20
6.632306623899992
 10
10.24645612486669
 20
6.634601812266652
 10
10.26802532103336
 20
6.636580872066666
 10
10.29015925233337
 20
6.638244706333324
 10
10.31288178750002
 20
6.639592411999998
 10
10.33618481680004
 20
6.640638256799995
 10
10.36006563693335
 20
6.641386996666653
 10
10.38452695120001
 20
6.641833875666655
 10
10.40956875956668
 20
6.641978893800001
  0
LWPOLYLINE
  5
22882
330
1F
100
AcDbEntity
  8
1
100
AcDbPolyline
 90
       25
 70
     0
 43
0.0
 10
13.8248731451667
 20
-0.3695850618000094
 10
13.83017822836668
 20
-0.3511305312333448
 10
13.84155314330003
 20
-0.3329200647666681
 10
13.85899788996669
 20
-0.3149536624000078
 10
13.88263154606669
 20
-0.2971542770666815
 10
13.91233503386668
 20
-0.2795989558333431
 10
13.94775112033336
 20
-0.2625188399333354
 10
13.9889859053667
 20
-0.2459141029666654
 10
14.0359332890667
 20
-0.2297845713000015
 10
14.0879177383667
 20
-0.2143608654666664
 10
14.14498745363336
 20
-0.1996653913666719
 10
14.20709423450002
 20
-0.1856757431000062
 10
14.27341794696669
 20
-0.1725553231000063
 10
14.34396152216671
 20
-0.1603220123333386
 10
14.41872202896668
 20
-0.1489579298666754
 10
14.49687053973336
 20
-0.1385728356000087
 10
14.57837013003338
 20
-0.1291768868333349
 10
14.66325772433335
 20
-0.1207599262666648
 10
14.75081516830001
 20
-0.1134012419666774
 10
14.84112229880001
 20
-0.107098939133337
 10
14.93409927896668
 20
-0.1018549125333408
 10
15.02878844410001
 20
-0.0977541346333411
 10
15.12487057266669
 20
-0.0948249295333383
 10
15.2226648861667
 20
-0.0930389731666779
 10
15.32217138466667
 20
-0.0923962654666753
  0
LWPOLYLINE
  5
22883
330
1F
100
AcDbEntity
  8
1
100
AcDbPolyline
 90
       25
 70
     0
 43
0.0
 10
10.40956875956668
 20
6.641978893800001
 10
10.75177856390003
 20
6.507376955199987
 10
11.08510345363335
 20
6.357524297766659
 10
11.40954342880003
 20
6.192420921499994
 10
11.72588980660002
 20
6.011469815633333
 10
12.03335126983335
 20
5.81526799089999
 10
12.32955386676669
 20
5.605606479799995
 10
12.61410339543336
 20
5.382682218666666
 10
12.88739405776668
 20
5.146298271133325
 10
13.14823450793336
 20
4.89765486056666
 10
13.39669263960003
 20
4.636717484766649
 10
13.63270055910003
 20
4.363520645966659
 10
13.85486323920004
 20
4.079368074066664
 10
14.06335819990001
 20
3.783800542966666
 10
14.25800792116668
 20
3.477277278766663
 10
14.43688481610003
 20
3.162479690166655
 10
14.59977789543335
 20
2.83915403893333
 10
14.74689814840003
 20
2.507554063233321
 10
14.8769509557667
 20
2.171122386099995
 10
14.98960336190002
 20
1.829730828999998
 10
15.08518832243335
 20
1.483507570433332
 10
15.16341008520003
 20
1.136279768933334
 10
15.22417006613337
 20
0.7893231440333182
 10
15.26756684926668
 20
0.4413619761999926
 10
15.29360043463334
 20
0.092396265466661
  0
LINE
  5
22884
330
1F
100
AcDbEntity
  8
1
100
AcDbLine
 10
11.31997081193334
 20
-8.000000000000007
 30
0.0
 11
3.519615242266709
 21
-8.000000000000007
 31
0.0
  0
LINE
  5
22885
330
1F
100
AcDbEntity
  8
1
100
AcDbLine
 10
11.31997081193334
 20
7.999999999999985
 30
0.0
 11
11.31997081193334
 21
7.855307673699989
 31
0.0
  0
LINE
  5
22886
330
1F
100
AcDbEntity
  8
1
100
AcDbLine
 10
11.31997081193334
 20
-7.832417984166667
 30
0.0
 11
11.31997081193334
 21
-8.000000000000007
 31
0.0
  0
LWPOLYLINE
  5
22887
330
1F
100
AcDbEntity
  8
1
100
AcDbPolyline
 90
       19
 70
     0
 43
0.0
 10
3.000000000000014
 20
-7.409459236766679
 10
2.937543142966674
 20
-7.404899758266665
 10
2.876191214066707
 20
-7.399691436333341
 10
2.815944213266689
 20
-7.393811224300009
 10
2.756686373800008
 20
-7.387217962633343
 10
2.69853346243336
 20
-7.379898444833344
 10
2.641832779533345
 20
-7.371870037133341
 10
2.586602169466701
 20
-7.36309812826667
 10
2.532823787866689
 20
-7.353553691533342
 10
2.480791402166701
 20
-7.343265164333338
 10
2.43052520060003
 20
-7.3321966747
 10
2.382004994966692
 20
-7.32031609963333
 10
2.335463988133355
 20
-7.307663268033337
 10
2.290915008133353
 20
-7.294200009566679
 10
2.248345226933352
 20
-7.279897071033339
 10
2.207949363600036
 20
-7.264816879500003
 10
2.169792324533361
 20
-7.24896293750001
 10
2.133809203333342
 20
-7.232272789000006
 10
2.100000000000036
 20
-7.214715115466674
  0
LINE
  5
22888
330
1F
100
AcDbEntity
  8
1
100
AcDbLine
 10
11.31997081193334
 20
-7.832417984166667
 30
0.0
 11
3.519615242266709
 21
-7.832417984166667
 31
0.0
  0
LINE
  5
22889
330
1F
100
AcDbEntity
  8
1
100
AcDbLine
 10
0.0000000000000142
 20
-7.600000000000001
 30
0.0
 11
3.000000000000014
 21
-7.600000000000001
 31
0.0
  0
LINE
  5
2288A
330
1F
100
AcDbEntity
  8
1
100
AcDbLine
 10
9.839054993466689
 20
-3.958390236700012
 30
0.0
 11
9.839054993466689
 21
-2.015569669100003
 31
0.0
  0
LINE
  5
2288B
330
1F
100
AcDbEntity
  8
1
100
AcDbLine
 10
9.839054993466689
 20
0.8511750564999971
 30
0.0
 11
9.839054993466689
 21
4.649432290733322
 31
0.0
  0
LINE
  5
2288C
330
1F
100
AcDbEntity
  8
1
100
AcDbLine
 10
9.831373033400026
 20
-5.822022429233342
 30
0.0
 11
9.831373033400026
 21
-3.958939549600003
 31
0.0
  0
LINE
  5
2288D
330
1F
100
AcDbEntity
  8
1
100
AcDbLine
 10
9.300538512766692
 20
4.830371964233322
 30
0.0
 11
9.300538512766692
 21
0.6979661678666603
 31
0.0
  0
LINE
  5
2288E
330
1F
100
AcDbEntity
  8
1
100
AcDbLine
 10
9.300538512766692
 20
-1.727631144933333
 30
0.0
 11
9.300538512766692
 21
-3.976877220500007
 31
0.0
  0
LINE
  5
2288F
330
1F
100
AcDbEntity
  8
1
100
AcDbLine
 10
18.79376730106669
 20
0.0234640710333309
 30
0.0
 11
18.66096337050002
 21
0.0868240888333247
 31
0.0
  0
LWPOLYLINE
  5
22890
330
1F
100
AcDbEntity
  8
1
100
AcDbPolyline
 90
       19
 70
     0
 43
0.0
 10
9.839054993466689
 20
4.649432290733322
 10
10.12683939850002
 20
4.538769261866654
 10
10.40705876473335
 20
4.414516968200004
 10
10.67971309216669
 20
4.276675409699997
 10
10.94547495390004
 20
4.124809534366661
 10
11.20367177680002
 20
3.959354394199998
 10
11.45228584166669
 20
3.781615145366657
 10
11.6912408701
 20
3.591497006199993
 10
11.92061314050001
 20
3.389094758333328
 10
12.13861376880003
 20
3.175997902666658
 10
12.34515383650002
 20
2.952123640033327
 10
12.54032226213336
 20
2.717554769633323
 10
12.72259691736669
 20
2.474129189833334
 10
12.89189512000003
 20
2.221721961333329
 10
13.04829955220002
 20
1.960458023399993
 10
13.19053613236669
 20
1.692550092333327
 10
13.31818016660001
 20
1.418735740199991
 10
13.43165634876668
 20
1.138277394933325
 10
13.53096467883337
 20
0.8511750564999971
  0
LINE
  5
22891
330
1F
100
AcDbEntity
  8
1
100
AcDbLine
 10
9.831373033400026
 20
-5.822022429233342
 30
0.0
 11
3.800000000000025
 21
-5.822022429233342
 31
0.0
  0
LWPOLYLINE
  5
22892
330
1F
100
AcDbEntity
  8
1
100
AcDbPolyline
 90
        9
 70
     0
 43
0.0
 10
12.75623198973336
 20
-6.358414802833337
 10
3.314882833066704
 20
-6.358420160199997
 10
3.313011226366697
 20
-6.358439225166662
 10
3.311142942933358
 20
-6.358471475066671
 10
3.309278095000038
 20
-6.358516998633334
 10
3.307416570366697
 20
-6.358575707133333
 10
3.305558032200011
 20
-6.358647334066667
 10
3.303702368300022
 20
-6.358731790700012
 10
3.301849690900027
 20
-6.358829165766664
  0
LWPOLYLINE
  5
22893
330
1F
100
AcDbEntity
  8
1
100
AcDbPolyline
 90
       25
 70
     0
 43
0.0
 10
3.800000000000025
 20
-5.822022429233342
 10
3.767123686966684
 20
-5.823105030600004
 10
3.734647800833343
 20
-5.826251011966668
 10
3.702572341566693
 20
-5.831460373433344
 10
3.670758741266709
 20
-5.838772970500002
 10
3.639345567833359
 20
-5.848148947633347
 10
3.60874852513335
 20
-5.859468738000003
 10
3.578982921100035
 20
-5.872756994733336
 10
3.550033447766693
 20
-5.887989064700008
 10
3.522269884966689
 20
-5.904971421633334
 10
3.495707388333372
 20
-5.923726678166673
 10
3.470330802233362
 20
-5.944232221700005
 10
3.446464439566696
 20
-5.966226688133339
 10
3.424127366466692
 20
-5.989729707066672
 10
3.403300516766691
 20
-6.014721648933345
 10
3.38425100480002
 20
-6.040882260766672
 10
3.367002163300028
 20
-6.068226372900006
 10
3.351530659566677
 20
-6.09673915503334
 10
3.338033609633342
 20
-6.126055863400011
 10
3.326536314166688
 20
-6.156191315633336
 10
3.317013472533361
 20
-6.187130694100005
 10
3.309586298866705
 20
-6.218464802033345
 10
3.304295197900032
 20
-6.250057240466674
 10
3.301099764966707
 20
-6.282044408366672
 10
3.300000000000025
 20
-6.314426305733334
  0
LWPOLYLINE
  5
22894
330
1F
100
AcDbEntity
  8
1
100
AcDbPolyline
 90
       13
 70
     0
 43
0.0
 10
3.301849690900027
 20
-6.358829165766664
 10
3.183917911933363
 20
-6.365970140266668
 10
3.068590508533375
 20
-6.372078129333331
 10
2.954707220433348
 20
-6.377279794500005
 10
2.842950946066693
 20
-6.381661915000002
 10
2.73398222720003
 20
-6.385197880566671
 10
2.628436398233375
 20
-6.387746941266669
 10
2.526939824833348
 20
-6.389369279800007
 10
2.430091528433351
 20
-6.390115494333329
 10
2.338450803633364
 20
-6.389841671566671
 10
2.252555260266703
 20
-6.388551512433338
 10
2.17291548910002
 20
-6.386396452399999
 10
2.100000000000036
 20
-6.383464064200012
  0
LINE
  5
22895
330
1F
100
AcDbEntity
  8
1
100
AcDbLine
 10
18.66096337050002
 20
-0.0868240888333389
 30
0.0
 11
18.64928397106668
 21
-0.0923962654666753
 31
0.0
  0
LINE
  5
22896
330
1F
100
AcDbEntity
  8
SK1
100
AcDbLine
 10
0.0000000000000142
 20
-5.500000000000007
 30
0.0
 11
-1.999999999999985
 21
-5.500000000000007
 31
0.0
  0
LINE
  5
22897
330
1F
100
AcDbEntity
  8
SK1
100
AcDbLine
 10
-1.999999999999985
 20
-5.000000000000007
 30
0.0
 11
-2.06944444446664
 21
-5.000000000000007
 31
0.0
  0
LINE
  5
22898
330
1F
100
AcDbEntity
  8
SK1
100
AcDbLine
 10
-3.269444444466657
 20
-5.000000000000007
 30
0.0
 11
-4.569444444433301
 21
-5.000000000000007
 31
0.0
  0
LINE
  5
22899
330
1F
100
AcDbEntity
  8
SK1
100
AcDbLine
 10
-5.76944444443329
 20
-5.000000000000007
 30
0.0
 11
-7.06944444446664
 21
-5.000000000000007
 31
0.0
  0
LINE
  5
2289A
330
1F
100
AcDbEntity
  8
SK1
100
AcDbLine
 10
-8.269444444466657
 20
-5.000000000000007
 30
0.0
 11
-9.56944444446664
 21
-5.000000000000007
 31
0.0
  0
LINE
  5
2289B
330
1F
100
AcDbEntity
  8
SK1
100
AcDbLine
 10
-1.999999999999985
 20
-4.924038765066669
 30
0.0
 11
-3.199999999999974
 21
-4.924038765066669
 31
0.0
  0
LINE
  5
2289C
330
1F
100
AcDbEntity
  8
1
100
AcDbLine
 10
7.803334259766685
 20
5.831296072033325
 30
0.0
 11
7.803334259766685
 21
5.01729225679999
 31
0.0
  0
LWPOLYLINE
  5
2289D
330
1F
100
AcDbEntity
  8
1
100
AcDbPolyline
 90
       13
 70
     0
 43
0.0
 10
2.507312609833363
 20
5.831296072033325
 10
2.598870131366695
 20
5.759346855066659
 10
2.694547926266707
 20
5.692799385833318
 10
2.794017840900025
 20
5.631881976433326
 10
2.896939483133351
 20
5.576803244700002
 10
3.002959114600017
 20
5.527752643900001
 10
3.111710645500025
 20
5.484899361666656
 10
3.22282704520002
 20
5.448388199566664
 10
3.335921132600006
 20
5.418346549799991
 10
3.450583344800023
 20
5.394880842666665
 10
3.566412430433345
 20
5.3780682923
 10
3.683017918300024
 20
5.367960724899994
 10
3.800000000000025
 20
5.364588612133331
  0
LWPOLYLINE
  5
2289E
330
1F
100
AcDbEntity
  8
1
100
AcDbPolyline
 90
       19
 70
     0
 43
0.0
 10
3.000000000000014
 20
5.058966708999989
 10
2.937361419400033
 20
5.093535119100003
 10
2.876872892066685
 20
5.130028878766658
 10
2.818546048966695
 20
5.168300504966666
 10
2.762320541600033
 20
5.20827396696665
 10
2.708260161366709
 20
5.249745982
 10
2.656540546933356
 20
5.292366201066663
 10
2.607173487033364
 20
5.33595573496666
 10
2.560083536600032
 20
5.380401805966656
 10
2.51529062720003
 20
5.425438842600001
 10
2.472804869333359
 20
5.470867336066667
 10
2.432511606000034
 20
5.516622132733331
 10
2.394241617866683
 20
5.562653159166657
 10
2.358032830266679
 20
5.608727129366656
 10
2.323737539933361
 20
5.654867196233333
 10
2.290942621233355
 20
5.701453173433336
 10
2.259504255266691
 20
5.748581712633324
 10
2.229514881566686
 20
5.79603562456667
 10
2.200943039366691
 20
5.843755469566666
  0
LWPOLYLINE
  5
2289F
330
1F
100
AcDbEntity
  8
1
100
AcDbPolyline
 90
        3
 70
     0
 43
0.0
 10
3.057926995166681
 20
5.02886724839999
 10
3.029302459266673
 20
5.043628667533326
 10
3.000000000000014
 20
5.058966708999989
  0
LINE
  5
228A0
330
1F
100
AcDbEntity
  8
1
100
AcDbLine
 10
3.113048337700021
 20
5.000914813099988
 30
0.0
 11
3.057926995166681
 21
5.02886724839999
 31
0.0
  0
LINE
  5
228A1
330
1F
100
AcDbEntity
  8
1
100
AcDbLine
 10
3.165203443233352
 20
4.974857480366658
 30
0.0
 11
3.113048337700021
 21
5.000914813099988
 31
0.0
  0
LINE
  5
228A2
330
1F
100
AcDbEntity
  8
1
100
AcDbLine
 10
3.237617091933358
 20
4.938990942766665
 30
0.0
 11
3.165203443233352
 21
4.974857480366658
 31
0.0
  0
LWPOLYLINE
  5
228A3
330
1F
100
AcDbEntity
  8
1
100
AcDbPolyline
 90
       19
 70
     0
 43
0.0
 10
13.90212432703335
 20
0.2531798162666519
 10
13.94282949560001
 20
0.2368717758333219
 10
13.98888727990003
 20
0.2212673290999874
 10
14.04029767993337
 20
0.2063664759999924
 10
14.09730260113336
 20
0.1921352171333268
 10
14.15966013803337
 20
0.1786075518999937
 10
14.22664457440002
 20
0.1658854789333333
 10
14.29812129523334
 20
0.1539756244999921
 10
14.37422491550002
 20
0.1428713622999993
 10
14.45463356386669
 20
0.1326548118999966
 10
14.53977578880001
 20
0.1232886568333242
 10
14.62922304180002
 20
0.1148102135333247
 10
14.72136780603337
 20
0.1074135507666583
 10
14.81638055673336
 20
0.1011379881999943
 10
14.9140908186667
 20
0.0959442060999933
 10
15.01237964910002
 20
0.091908314166659
 10
15.11054073373334
 20
0.0890556822666611
 10
15.20928038683335
 20
0.0873609404666525
 10
15.30859860843334
 20
0.0868240888333247
  0
LWPOLYLINE
  5
228A4
330
1F
100
AcDbEntity
  8
1
100
AcDbPolyline
 90
       19
 70
     0
 43
0.0
 10
13.90212432703335
 20
0.2531798162666519
 10
13.94911977886669
 20
0.2373186435666668
 10
14.00051689546667
 20
0.2221439857333252
 10
14.05631567690001
 20
0.207655842733331
 10
14.11676448413335
 20
0.1938116177999944
 10
14.18161495616671
 20
0.1806539077333227
 10
14.25012200993335
 20
0.1683105028999989
 10
14.32226750636668
 20
0.1567924365333226
 10
14.39806958453336
 20
0.1460886754333259
 10
14.47683757853336
 20
0.1362939101666569
 10
14.55853176380002
 20
0.1274126531999897
 10
14.64319186490003
 20
0.1194403920999889
 10
14.73024638963336
 20
0.1124582801333247
 10
14.81980532263334
 20
0.1064609529999956
 10
14.91175867923336
 20
0.1014537750333346
 10
15.00520501336668
 20
0.097533992666655
 10
15.09984384293337
 20
0.0947340213333234
 10
15.19597565003336
 20
0.0930214456000016
 10
15.29360043463334
 20
0.092396265466661
  0
LWPOLYLINE
  5
228A5
330
1F
100
AcDbEntity
  8
1
100
AcDbPolyline
 90
        3
 70
     0
 43
0.0
 10
3.663961823733373
 20
-3.905086552666666
 10
3.685019570700021
 20
-3.908553708566671
 10
3.706725863633366
 20
-3.911998049966669
  0
LINE
  5
228A6
330
1F
100
AcDbEntity
  8
1
100
AcDbLine
 10
3.706725863633366
 20
-3.911998049966669
 30
0.0
 11
3.752077703266692
 21
-3.918901032900009
 31
0.0
  0
LINE
  5
228A7
330
1F
100
AcDbEntity
  8
1
100
AcDbLine
 10
3.752077703266692
 20
-3.918901032900009
 30
0.0
 11
3.800000000000025
 21
-3.925966841266671
 31
0.0
  0
LINE
  5
228A8
330
1F
100
AcDbEntity
  8
1
100
AcDbLine
 10
3.663961823733373
 20
-3.905086552666666
 30
0.0
 11
3.624700835866704
 21
-3.901128295966671
 31
0.0
  0
LINE
  5
228A9
330
1F
100
AcDbEntity
  8
1
100
AcDbLine
 10
3.624700835866704
 20
-3.901128295966671
 30
0.0
 11
3.586825059266701
 21
-3.897518649766666
 31
0.0
  0
LINE
  5
228AA
330
1F
100
AcDbEntity
  8
1
100
AcDbLine
 10
3.586825059266701
 20
-3.897518649766666
 30
0.0
 11
3.550394822533363
 21
-3.894249493200007
 31
0.0
  0
LINE
  5
228AB
330
1F
100
AcDbEntity
  8
SK1
100
AcDbLine
 10
-4.669444444433324
 20
-4.400000000000005
 30
0.0
 11
-5.571461940499986
 21
-4.400000000000005
 31
0.0
  0
LINE
  5
228AC
330
1F
100
AcDbEntity
  8
SK1
100
AcDbLine
 10
-7.169444444466634
 20
-4.400000000000005
 30
0.0
 11
-8.071461940499986
 21
-4.400000000000005
 31
0.0
  0
LINE
  5
228AD
330
1F
100
AcDbEntity
  8
SK1
100
AcDbLine
 10
-9.669444444466634
 20
-4.400000000000005
 30
0.0
 11
-10.57146194049998
 21
-4.400000000000005
 31
0.0
  0
LINE
  5
228AE
330
1F
100
AcDbEntity
  8
1
100
AcDbLine
 10
9.831373033400026
 20
-4.084338533233335
 30
0.0
 11
3.800000000000025
 21
-4.084338533233335
 31
0.0
  0
LINE
  5
228AF
330
1F
100
AcDbEntity
  8
1
100
AcDbLine
 10
9.300538512766692
 20
-3.976877220500007
 30
0.0
 11
4.699461487233364
 21
-3.976877220500007
 31
0.0
  0
LWPOLYLINE
  5
228B0
330
1F
100
AcDbEntity
  8
1
100
AcDbPolyline
 90
       23
 70
     0
 43
0.0
 10
3.800000000000025
 20
-4.084338533233335
 10
3.669287945900023
 20
-4.088549552733333
 10
3.539106158866687
 20
-4.101168317733339
 10
3.410012094400045
 20
-4.12214639696667
 10
3.282549863333358
 20
-4.151401966866671
 10
3.157276129366678
 20
-4.18881394393334
 10
3.034755925300046
 20
-4.234216502400002
 10
2.915522781866698
 20
-4.287410939833343
 10
2.800078325633378
 20
-4.348172443333339
 10
2.688917083866684
 20
-4.416240730033344
 10
2.582515226766687
 20
-4.491324219633334
 10
2.481328522066704
 20
-4.573101292033342
 10
2.385790399500038
 20
-4.661221656933335
 10
2.296310100333371
 20
-4.75530784736668
 10
2.213270917266711
 20
-4.85495684126667
 10
2.137028547200017
 20
-4.959741795200002
 10
2.067909574300031
 20
-5.069213867400009
 10
2.006210079666701
 20
-5.182904123366668
 10
1.952194364500044
 20
-5.30032554946667
 10
1.906090846100042
 20
-5.420983753300006
 10
1.868101109333352
 20
-5.544353683066674
 10
1.838393296466691
 20
-5.669880100433331
 10
1.817090548333354
 20
-5.797015249600008
  0
LWPOLYLINE
  5
228B1
330
1F
100
AcDbEntity
  8
SK1
100
AcDbPolyline
 90
        5
 70
     0
 43
0.0
 10
-9.569440403966652
 20
-4.999999999733333
 10
-9.566386660433309
 20
-4.999852350766673
 10
-9.544233604533289
 20
-4.989966578533341
 10
-9.522104717733313
 20
-4.964652488133339
 10
-9.499999999999985
 20
-4.924038765066669
  0
LINE
  5
228B2
330
1F
100
AcDbEntity
  8
1
100
AcDbLine
 10
9.839054993466689
 20
-3.958390236700012
 30
0.0
 11
9.831373033400026
 21
-3.958939549600003
 31
0.0
  0
LWPOLYLINE
  5
228B3
330
1F
100
AcDbEntity
  8
SK1
100
AcDbPolyline
 90
       18
 70
     0
 43
0.0
 10
-4.669444444433324
 20
-4.400000000000005
 10
-4.66038647343332
 20
-4.398859893300006
 10
-4.636231884066646
 20
-4.384680135200007
 10
-4.612077294699972
 20
-4.354346247099996
 10
-4.587922705333298
 20
-4.307969985799999
 10
-4.563768115933314
 20
-4.245722211666674
 10
-4.53961352656664
 20
-4.167832259266674
 10
-4.515458937199966
 20
-4.074587092366677
 10
-4.491304347833292
 20
-3.966330246733335
 10
-4.467149758466618
 20
-3.843460564533337
 10
-4.442995169099972
 20
-3.7064307248
 10
-4.41884057969996
 20
-3.55574557573334
 10
-4.394685990333314
 20
-3.391960274666672
 10
-4.37053140096664
 20
-3.215678242833334
 10
-4.346376811599995
 20
-3.027548942199999
 10
-4.322222222233321
 20
-2.828265482633341
 10
-4.298067632866647
 20
-2.618562068433341
 10
-4.273913043499973
 20
-2.399211293233335
  0
LWPOLYLINE
  5
228B4
330
1F
100
AcDbEntity
  8
SK1
100
AcDbPolyline
 90
        4
 70
     0
 43
0.0
 10
-2.069444322899968
 20
-5.000000000000007
 10
-2.046220041033322
 20
-4.991484982300008
 10
-2.023064951133321
 20
-4.966070306800006
 10
-1.999999999999985
 20
-4.924038765066669
  0
LINE
  5
228B5
330
1F
100
AcDbEntity
  8
1
100
AcDbLine
 10
4.699461487233364
 20
5.01729225679999
 30
0.0
 11
4.699461487233364
 21
0.6979661678666603
 31
0.0
  0
LINE
  5
228B6
330
1F
100
AcDbEntity
  8
1
100
AcDbLine
 10
4.699461487233364
 20
-1.727631144933333
 30
0.0
 11
4.699461487233364
 21
-3.976877220500007
 31
0.0
  0
LWPOLYLINE
  5
228B7
330
1F
100
AcDbEntity
  8
1
100
AcDbPolyline
 90
        7
 70
     0
 43
0.0
 10
4.300000000000025
 20
0.7809561742999947
 10
4.264914736800008
 20
0.7949005463333308
 10
4.230358065700031
 20
0.8071838376999949
 10
4.196343932566676
 20
0.8178105777999959
 10
4.162885235600029
 20
0.8267852983999972
 10
4.129993845000015
 20
0.8341125275333283
 10
4.097680623933356
 20
0.8397967838999917
  0
LWPOLYLINE
  5
228B8
330
1F
100
AcDbEntity
  8
SK1
100
AcDbPolyline
 90
        9
 70
     0
 43
0.0
 10
-9.519444414133303
 20
4.999999999999985
 10
-9.501070950633319
 20
4.994670014233321
 10
-9.477842156399972
 20
4.972693975866661
 10
-9.454611953399975
 20
4.93377163176666
 10
-9.431379433633296
 20
4.87803004389999
 10
-9.408145505099966
 20
4.805657352033321
 10
-9.384911265866648
 20
4.716901836866661
 10
-9.361676944566639
 20
4.612066515199998
 10
-9.342202348466642
 20
4.512067162633329
  0
LINE
  5
228B9
330
1F
100
AcDbEntity
  8
1
100
AcDbLine
 10
9.839054993466689
 20
-2.015569669100003
 30
0.0
 11
13.20686317046669
 21
-2.015569669100003
 31
0.0
  0
LINE
  5
228BA
330
1F
100
AcDbEntity
  8
1
100
AcDbLine
 10
9.300538512766692
 20
-1.727631144933333
 30
0.0
 11
4.699461487233364
 21
-1.727631144933333
 31
0.0
  0
LINE
  5
228BB
330
1F
100
AcDbEntity
  8
1
100
AcDbLine
 10
4.097680623933356
 20
-2.015569669100003
 30
0.0
 11
3.663961823733373
 21
-2.015569669100003
 31
0.0
  0
LWPOLYLINE
  5
228BC
330
1F
100
AcDbEntity
  8
SK1
100
AcDbPolyline
 90
        4
 70
     0
 43
0.0
 10
-7.169444444466634
 20
-4.400000000000005
 10
-7.147618931133294
 20
-4.393382065933344
 10
-7.123809465566623
 20
-4.371091738300009
 10
-7.09999999999998
 20
-4.333154113266672
  0
LWPOLYLINE
  5
228BD
330
1F
100
AcDbEntity
  8
SK1
100
AcDbPolyline
 90
        4
 70
     0
 43
0.0
 10
-7.069444322899968
 20
-5.000000000000007
 10
-7.046220041033322
 20
-4.991484982300008
 10
-7.023064951133321
 20
-4.966070306800006
 10
-6.999999999999985
 20
-4.924038765066669
  0
LWPOLYLINE
  5
228BE
330
1F
100
AcDbEntity
  8
SK1
100
AcDbPolyline
 90
        4
 70
     0
 43
0.0
 10
-4.569444145466647
 20
-5.000000000000007
 10
-4.546136825266657
 20
-4.99142386983334
 10
-4.523057004933306
 20
-4.966058692600007
 10
-4.499999999999985
 20
-4.924038765066669
  0
LWPOLYLINE
  5
228BF
330
1F
100
AcDbEntity
  8
1
100
AcDbPolyline
 90
        7
 70
     0
 43
0.0
 10
4.097680623933356
 20
-2.015569669100003
 10
4.129848001933353
 20
-1.998582679366677
 10
4.162649695366681
 20
-1.979585605666677
 10
4.196076611533342
 20
-1.958583666466672
 10
4.2301184860667
 20
-1.935582116000006
 10
4.26476385043334
 20
-1.910586237900005
 10
4.300000000000025
 20
-1.883601338200008
  0
LWPOLYLINE
  5
228C0
330
1F
100
AcDbEntity
  8
1
100
AcDbPolyline
 90
       19
 70
     0
 43
0.0
 10
3.500000000000014
 20
-0.3728951138666687
 10
3.503044241533373
 20
-0.3280770086333362
 10
3.512153797566682
 20
-0.2835999962333417
 10
3.527259338966686
 20
-0.2398025736000093
 10
3.548245903366691
 20
-0.1970180655666667
 10
3.57495377036669
 20
-0.1555720880666698
 10
3.60717967696668
 20
-0.1157800700000067
 10
3.644678364566701
 20
-0.0779448526666684
 10
3.687164445500016
 20
-0.0423543849333399
 10
3.734314575033366
 20
-0.0092795317333412
 10
3.785769912233362
 20
0.0210279873333263
 10
3.841138850900037
 20
0.0483375137333297
 10
3.900000000000019
 20
0.0724412054999988
 10
3.961905390600023
 20
0.0931556189666623
 10
4.026383885333373
 20
0.1103231049666533
 10
4.092944763900035
 20
0.1238130085333324
 10
4.161081457866671
 20
0.1335226633666622
 10
4.230275405800014
 20
0.1393781731333306
 10
4.300000000000025
 20
0.1413349738666625
  0
LINE
  5
228C1
330
1F
100
AcDbEntity
  8
1
100
AcDbLine
 10
4.300000000000025
 20
-1.883601338200008
 30
0.0
 11
4.300000000000025
 21
0.7809561742999947
 31
0.0
  0
LINE
  5
228C2
330
1F
100
AcDbEntity
  8
1
100
AcDbLine
 10
4.097680623933356
 20
-3.953592271733342
 30
0.0
 11
4.097680623933356
 21
-2.015569669100003
 31
0.0
  0
LINE
  5
228C3
330
1F
100
AcDbEntity
  8
1
100
AcDbLine
 10
4.097680623933356
 20
0.8397967838999917
 30
0.0
 11
4.097680623933356
 21
4.995411562266653
 31
0.0
  0
LINE
  5
228C4
330
1F
100
AcDbEntity
  8
1
100
AcDbLine
 10
3.800000000000025
 20
5.831296072033325
 30
0.0
 11
3.800000000000025
 21
4.969452149099993
 31
0.0
  0
LINE
  5
228C5
330
1F
100
AcDbEntity
  8
1
100
AcDbLine
 10
3.800000000000025
 20
-5.822022429233342
 30
0.0
 11
3.800000000000025
 21
-3.925966841266671
 31
0.0
  0
LINE
  5
228C6
330
1F
100
AcDbEntity
  8
1
100
AcDbLine
 10
3.663961823733373
 20
-3.905086552666666
 30
0.0
 11
3.663961823733373
 21
-2.015569669100003
 31
0.0
  0
LINE
  5
228C7
330
1F
100
AcDbEntity
  8
1
100
AcDbLine
 10
3.663961823733373
 20
0.7134580869666678
 30
0.0
 11
3.663961823733373
 21
4.949831095999996
 31
0.0
  0
LINE
  5
228C8
330
1F
100
AcDbEntity
  8
1
100
AcDbLine
 10
3.550394822533363
 20
4.939647591166661
 30
0.0
 11
3.550394822533363
 21
0.4936037246999945
 31
0.0
  0
LINE
  5
228C9
330
1F
100
AcDbEntity
  8
1
100
AcDbLine
 10
3.550394822533363
 20
-1.771594127733337
 30
0.0
 11
3.550394822533363
 21
-3.894249493200007
 31
0.0
  0
LINE
  5
228CA
330
1F
100
AcDbEntity
  8
1
100
AcDbLine
 10
3.519615242266709
 20
7.999999999999985
 30
0.0
 11
3.519615242266709
 21
7.821852986333325
 31
0.0
  0
LINE
  5
228CB
330
1F
100
AcDbEntity
  8
1
100
AcDbLine
 10
3.519615242266709
 20
-7.832417984166667
 30
0.0
 11
3.519615242266709
 21
-8.000000000000007
 31
0.0
  0
LINE
  5
228CC
330
1F
100
AcDbEntity
  8
1
100
AcDbLine
 10
3.500000000000014
 20
0.0352099802333257
 30
0.0
 11
3.500000000000014
 21
-1.139881804733342
 31
0.0
  0
LINE
  5
228CD
330
1F
100
AcDbEntity
  8
1
100
AcDbLine
 10
3.433012701900011
 20
7.849999999999987
 30
0.0
 11
3.433012701900011
 21
7.668369066466667
 31
0.0
  0
LINE
  5
228CE
330
1F
100
AcDbEntity
  8
1
100
AcDbLine
 10
3.433012701900011
 20
-7.679117640700013
 30
0.0
 11
3.433012701900011
 21
-7.850000000000001
 31
0.0
  0
LINE
  5
228CF
330
1F
100
AcDbEntity
  8
1
100
AcDbLine
 10
3.400000000000019
 20
7.617176914033329
 30
0.0
 11
3.400000000000019
 21
5.831296072033325
 31
0.0
  0
LINE
  5
228D0
330
1F
100
AcDbEntity
  8
1
100
AcDbLine
 10
3.300000000000025
 20
-6.314426305733334
 30
0.0
 11
3.300000000000025
 21
-6.358939459333335
 31
0.0
  0
LINE
  5
228D1
330
1F
100
AcDbEntity
  8
1
100
AcDbLine
 10
1.900000000000019
 20
6.631597578466653
 30
0.0
 11
1.891348709666701
 21
6.671748889699998
 31
0.0
  0
LWPOLYLINE
  5
228D2
330
1F
100
AcDbEntity
  8
1
100
AcDbPolyline
 90
        6
 70
     0
 43
0.0
 10
1.855497661066706
 20
6.873433361733326
 10
1.862025876133358
 20
6.847489554199995
 10
1.868911316766698
 20
6.821634153533324
 10
1.876152765566686
 20
6.795871934733327
 10
1.883748939200032
 20
6.770207656733326
 10
1.89169848883337
 20
6.744646061566662
  0
LINE
  5
228D3
330
1F
100
AcDbEntity
  8
1
100
AcDbLine
 10
1.89169848883337
 20
6.744646061566662
 30
0.0
 11
1.900000000000019
 21
6.719191873533326
 31
0.0
  0
LWPOLYLINE
  5
228D4
330
1F
100
AcDbEntity
  8
1
100
AcDbPolyline
 90
        6
 70
     0
 43
0.0
 10
15.31291911503335
 20
0.0000085652666542
 10
15.30990130240003
 20
0.0000346090666596
 10
15.30687889316668
 20
0.0000781313666636
 10
15.30385188733335
 20
0.0001391321666659
 10
15.3008202848667
 20
0.0002176115333299
 10
15.02441363753336
 20
0.009722520633332
  0
LWPOLYLINE
  5
228D5
330
1F
100
AcDbEntity
  8
1
100
AcDbPolyline
 90
       19
 70
     0
 43
0.0
 10
4.300000000000025
 20
-0.5118136560000011
 10
4.230232916466704
 20
-0.5112843833000014
 10
4.160988625033368
 20
-0.5097003278000046
 10
4.092795201433361
 20
-0.507073159800008
 10
4.026169668500031
 20
-0.5034222976999985
 10
3.961624394233368
 20
-0.498775305600006
 10
3.899661997366692
 20
-0.4931681946000026
 10
3.840759713866688
 20
-0.4866443940666727
 10
3.785361189100015
 20
-0.479253296500005
 10
3.733883796933369
 20
-0.4710504962000073
 10
3.68671388343337
 20
-0.4620969065333398
 10
3.644220880066697
 20
-0.4524619416666696
 10
3.606743409000031
 20
-0.4422230041666709
 10
3.574553530433362
 20
-0.4314553505333408
 10
3.547903963866687
 20
-0.4202445978666703
 10
3.527015977233375
 20
-0.4086917920000133
 10
3.512025530766678
 20
-0.396891404599998
 10
3.503007183966687
 20
-0.3849288840000113
 10
3.500000000000014
 20
-0.3728951138666687
  0
LINE
  5
228D6
330
1F
100
AcDbEntity
  8
1
100
AcDbLine
 10
13.78315306600002
 20
-0.5118136560000011
 30
0.0
 11
4.300000000000025
 21
-0.5118136560000011
 31
0.0
  0
LINE
  5
228D7
330
1F
100
AcDbEntity
  8
1
100
AcDbLine
 10
18.64928397106668
 20
-0.0923962654666753
 30
0.0
 11
15.32217138466667
 21
-0.0923962654666753
 31
0.0
  0
LINE
  5
228D8
330
1F
100
AcDbEntity
  8
1
100
AcDbLine
 10
18.66096337050002
 20
-0.0868240888333389
 30
0.0
 11
15.30066711886668
 21
-0.0868240888333389
 31
0.0
  0
LINE
  5
228D9
330
1F
100
AcDbEntity
  8
1
100
AcDbLine
 10
15.31291911503335
 20
0.0000085652666542
 30
0.0
 11
18.65815595673335
 21
-0.0000000000000071
 31
0.0
  0
LINE
  5
228DA
330
1F
100
AcDbEntity
  8
4
100
AcDbLine
 10
19.27941473980003
 20
-0.0000000000000071
 30
0.0
 11
0.0000000000000142
 21
-0.0000000000000071
 31
0.0
  0
LINE
  5
228DB
330
1F
100
AcDbEntity
  8
SK4
100
AcDbLine
 10
0.0000000000000142
 20
-0.0000000000000071
 30
0.0
 11
-13.24998992089995
 21
-0.0000000000000071
 31
0.0
  0
LINE
  5
228DC
330
1F
100
AcDbEntity
  8
1
100
AcDbLine
 10
15.30859860843334
 20
0.0868240888333247
 30
0.0
 11
18.30887434530002
 21
0.0868240888333247
 31
0.0
  0
LINE
  5
228DD
330
1F
100
AcDbEntity
  8
1
100
AcDbLine
 10
18.30887434530002
 20
0.0868240888333247
 30
0.0
 11
18.66096337050002
 21
0.0868240888333247
 31
0.0
  0
LINE
  5
228DE
330
1F
100
AcDbEntity
  8
1
100
AcDbLine
 10
15.29360043463334
 20
0.092396265466661
 30
0.0
 11
18.26623058853336
 21
0.092396265466661
 31
0.0
  0
LINE
  5
228DF
330
1F
100
AcDbEntity
  8
1
100
AcDbLine
 10
13.72196973476669
 20
0.1413349738666625
 30
0.0
 11
4.300000000000025
 21
0.1413349738666625
 31
0.0
  0
LWPOLYLINE
  5
228E0
330
1F
100
AcDbEntity
  8
1
100
AcDbPolyline
 90
       22
 70
     0
 43
0.0
 10
15.30066711886668
 20
-0.0868240888333389
 10
15.18969096720003
 20
-0.0874987966666723
 10
15.07968283433335
 20
-0.0896247141333362
 10
14.97064272023336
 20
-0.0932018411666746
 10
14.86159371550003
 20
-0.0982753388666709
 10
14.75351272953334
 20
-0.1048000462000118
 10
14.6493304906
 20
-0.1126404798000067
 10
14.54939503186669
 20
-0.1218433116666659
 10
14.45335832016668
 20
-0.1323618698333462
 10
14.36310698396669
 20
-0.1439206550333409
 10
14.27920175960001
 20
-0.1564394422333422
 10
14.20108191080003
 20
-0.1699984564666721
 10
14.12895185700002
 20
-0.1845628733666729
 10
14.0623479211667
 20
-0.2002309292000035
 10
14.0017337803667
 20
-0.216904387700005
 10
13.94870488550002
 20
-0.2342537158666715
 10
13.90353426026668
 20
-0.2523389778333467
 10
13.86594888096668
 20
-0.2711001094666727
 10
13.83672512733336
 20
-0.2900273855333424
 10
13.81612179256668
 20
-0.3089508977000008
 10
13.80388008346669
 20
-0.3280405542666713
 10
13.80000000000002
 20
-0.3472963553333415
  0
LWPOLYLINE
  5
228E1
330
1F
100
AcDbEntity
  8
SK1
100
AcDbPolyline
 90
       17
 70
     0
 43
0.0
 10
-9.669444444466634
 20
-4.400000000000005
 10
-9.647612815166652
 20
-4.393378357400003
 10
-9.623803349599981
 20
-4.371083997766675
 10
-9.59999388403331
 20
-4.333142368433342
 10
-9.576184418499977
 20
-4.279689289900005
 10
-9.552374952933305
 20
-4.210916109366664
 10
-9.528565487366634
 20
-4.127069015766672
 10
-9.504756021799963
 20
-4.028448158466673
 10
-9.48094655623332
 20
-3.915406572833333
 10
-9.457137090666648
 20
-3.788348916433342
 10
-9.433327625099977
 20
-3.647730020433336
 10
-9.409518159566644
 20
-3.494053261533345
 10
-9.385708693999973
 20
-3.327868760000008
 10
-9.361899228433301
 20
-3.149771410266666
 10
-9.33808976286663
 20
-2.960398751500008
 10
-9.314280297299987
 20
-2.760428685366676
 10
-9.290470831733316
 20
-2.550577049300002
  0
LWPOLYLINE
  5
228E2
330
1F
100
AcDbEntity
  8
SK1
100
AcDbPolyline
 90
        4
 70
     0
 43
0.0
 10
-8.269444438799993
 20
-5.000000000000007
 10
-8.24646677219998
 20
-4.991664894733339
 10
-8.223233214266642
 20
-4.966315775300003
 10
-8.199999999999974
 20
-4.924038765066669
  0
LINE
  5
228E3
330
1F
100
AcDbEntity
  8
1
100
AcDbLine
 10
3.000000000000014
 20
-7.600000000000001
 30
0.0
 11
3.000000000000014
 21
-7.409459236766679
 31
0.0
  0
LINE
  5
228E4
330
1F
100
AcDbEntity
  8
1
100
AcDbLine
 10
3.000000000000014
 20
4.564427904066654
 30
0.0
 11
3.000000000000014
 21
5.058966708999989
 31
0.0
  0
LINE
  5
228E5
330
1F
100
AcDbEntity
  8
1
100
AcDbLine
 10
3.000000000000014
 20
7.39973322943333
 30
0.0
 11
3.000000000000014
 21
7.599999999999987
 31
0.0
  0
LINE
  5
228E6
330
1F
100
AcDbEntity
  8
1
100
AcDbLine
 10
2.100000000000036
 20
-6.383464064200012
 30
0.0
 11
2.100000000000036
 21
-7.214715115466674
 31
0.0
  0
LWPOLYLINE
  5
228E7
330
1F
100
AcDbEntity
  8
1
100
AcDbPolyline
 90
       13
 70
     0
 43
0.0
 10
1.855497661066706
 20
6.873433361733326
 10
1.852676766433361
 20
6.908297881666655
 10
1.854636842466689
 20
6.942150368366661
 10
1.861377889200028
 20
6.975001009400003
 10
1.872944188233375
 20
7.006970111799994
 10
1.889291457933339
 20
7.037952592499991
 10
1.910286853466701
 20
7.067645898466651
 10
1.935979488833353
 20
7.096073289999985
 10
1.966320250000038
 20
7.123283062166663
 10
2.001028950033358
 20
7.149056227000002
 10
2.04001219326669
 20
7.173365580766663
 10
2.083363375333377
 20
7.196352038500002
 10
2.131082496233361
 20
7.218068333566662
  0
LINE
  5
228E8
330
1F
100
AcDbEntity
  8
1
100
AcDbLine
 10
3.434658537066681
 20
-7.467853594066667
 30
0.0
 11
3.456265300466682
 21
-7.720311350733339
 31
0.0
  0
LINE
  5
228E9
330
1F
100
AcDbEntity
  8
1
100
AcDbLine
 10
3.412290251366684
 20
-7.225891287166668
 30
0.0
 11
3.434658537066681
 21
-7.467853594066667
 31
0.0
  0
LINE
  5
228EA
330
1F
100
AcDbEntity
  8
1
100
AcDbLine
 10
3.389198096233357
 20
-6.994300463000008
 30
0.0
 11
3.412290251366684
 21
-7.225891287166668
 31
0.0
  0
LINE
  5
228EB
330
1F
100
AcDbEntity
  8
1
100
AcDbLine
 10
3.365506684433356
 20
-6.772630874900002
 30
0.0
 11
3.389198096233357
 21
-6.994300463000008
 31
0.0
  0
LINE
  5
228EC
330
1F
100
AcDbEntity
  8
1
100
AcDbLine
 10
3.341346906066704
 20
-6.560691439533343
 30
0.0
 11
3.365506684433356
 21
-6.772630874900002
 31
0.0
  0
LINE
  5
228ED
330
1F
100
AcDbEntity
  8
1
100
AcDbLine
 10
3.316757759133352
 20
-6.358413724866672
 30
0.0
 11
3.341346906066704
 21
-6.560691439533343
 31
0.0
  0
LWPOLYLINE
  5
228EE
330
1F
100
AcDbEntity
  8
1
100
AcDbPolyline
 90
        4
 70
     0
 43
0.0
 10
1.87557839800003
 20
6.752267552999988
 10
1.868425143700008
 20
6.79261403489999
 10
1.861737175066693
 20
6.833005651
 10
1.855497661066706
 20
6.873433361733326
  0
LWPOLYLINE
  5
228EF
330
1F
100
AcDbEntity
  8
1
100
AcDbPolyline
 90
        3
 70
     0
 43
0.0
 10
1.891348709666701
 20
6.671748889699998
 10
1.88321389673338
 20
6.711975789366661
 10
1.87557839800003
 20
6.752267552999988
  0
LWPOLYLINE
  5
228F0
330
1F
100
AcDbEntity
  8
1
100
AcDbPolyline
 90
       10
 70
     0
 43
0.0
 10
3.550394822533363
 20
-1.771594127733337
 10
3.558609434433364
 20
-1.804974122533337
 10
3.567860186333362
 20
-1.836934545766673
 10
3.578177460800034
 20
-1.867480238866676
 10
3.58961233953336
 20
-1.896832139033342
 10
3.602182674766694
 20
-1.924780877900005
 10
3.615870466533365
 20
-1.950686418866673
 10
3.630694227366703
 20
-1.974340109433342
 10
3.646711233000033
 20
-1.99596509980001
 10
3.663961823733373
 20
-2.015569669100003
  0
LWPOLYLINE
  5
228F1
330
1F
100
AcDbEntity
  8
1
100
AcDbPolyline
 90
       17
 70
     0
 43
0.0
 10
14.83862480373337
 20
0.0168886714666599
 10
14.74783922016668
 20
0.0211820680333261
 10
14.65946426873337
 20
0.0259230319999944
 10
14.57389143723334
 20
0.0312765129999946
 10
14.49292572273335
 20
0.0376796481666588
 10
14.41707022933336
 20
0.0448994403333245
 10
14.34601953796668
 20
0.0530361130999992
 10
14.28008649293336
 20
0.0628804232999869
 10
14.21919569826669
 20
0.0741904117999894
 10
14.1632914820667
 20
0.0869882255999954
 10
14.11252165536668
 20
0.1023484180333227
 10
14.06661136283334
 20
0.1201207969999913
 10
14.02533172153336
 20
0.1401777915333184
 10
13.98865862623337
 20
0.163534201666657
 10
13.95624327116668
 20
0.1904194070666705
 10
13.92754616603336
 20
0.2203340942999929
 10
13.90212432703335
 20
0.2531798162666519
  0
LINE
  5
228F2
330
1F
100
AcDbEntity
  8
1
100
AcDbLine
 10
15.02441363753336
 20
0.009722520633332
 30
0.0
 11
14.83862480373337
 21
0.0168886714666599
 31
0.0
  0
LINE
  5
228F3
330
1F
100
AcDbEntity
  8
1
100
AcDbLine
 10
9.300538512766692
 20
0.6979661678666603
 30
0.0
 11
4.699461487233364
 21
0.6979661678666603
 31
0.0
  0
LINE
  5
228F4
330
1F
100
AcDbEntity
  8
1
100
AcDbLine
 10
9.839054993466689
 20
0.8511750564999971
 30
0.0
 11
13.53096467883337
 21
0.8511750564999971
 31
0.0
  0
LWPOLYLINE
  5
228F5
330
1F
100
AcDbEntity
  8
1
100
AcDbPolyline
 90
       10
 70
     0
 43
0.0
 10
4.097680623933356
 20
0.8397967838999917
 10
4.040709894133343
 20
0.8323370050666625
 10
3.985298987933347
 20
0.8230021469666652
 10
3.931742192833368
 20
0.8118858275333238
 10
3.88031927106671
 20
0.7991359425666645
 10
3.831296982100028
 20
0.7848302385999944
 10
3.784927397833357
 20
0.7689758860333243
 10
3.741443075133375
 20
0.7516731652333278
 10
3.701056509133351
 20
0.7331140874666602
 10
3.663961823733373
 20
0.7134580869666678
  0
LWPOLYLINE
  5
228F6
330
1F
100
AcDbEntity
  8
1
100
AcDbPolyline
 90
       10
 70
     0
 43
0.0
 10
3.663961823733373
 20
0.7134580869666678
 10
3.647333037266676
 20
0.6936207875666583
 10
3.631754924266672
 20
0.6725456050666594
 10
3.617195406133376
 20
0.6502392874999928
 10
3.603590098866689
 20
0.6266070440666596
 10
3.590942721633368
 20
0.6017555931333263
 10
3.579320807466686
 20
0.5759938898666519
 10
3.568724657633353
 20
0.5494286757333243
 10
3.559091909400038
 20
0.5219637914333291
 10
3.550394822533363
 20
0.4936037246999945
  0
LWPOLYLINE
  5
228F7
330
1F
100
AcDbEntity
  8
1
100
AcDbPolyline
 90
       10
 70
     0
 43
0.0
 10
1.800000000000025
 20
-5.717376337600008
 10
1.801076898466689
 20
-5.634315138000005
 10
1.804331615366677
 20
-5.551481565199999
 10
1.809798507300016
 20
-5.468948211400004
 10
1.817518324866696
 20
-5.386724914500007
 10
1.827516262266684
 20
-5.304954621766668
 10
1.839779837066672
 20
-5.223910073300004
 10
1.854298177700016
 20
-5.143732687833342
 10
1.871083951733353
 20
-5.064435730733336
 10
1.890136100933361
 20
-4.98609786096668
  0
LINE
  5
228F8
330
1F
100
AcDbEntity
  8
1
100
AcDbLine
 10
1.900000000000019
 20
6.231296072033323
 30
0.0
 11
1.900000000000019
 21
6.727206140666652
 31
0.0
  0
LINE
  5
228F9
330
1F
100
AcDbEntity
  8
1
100
AcDbLine
 10
1.800000000000025
 20
-6.87343336173334
 30
0.0
 11
1.800000000000025
 21
-5.717376337600008
 31
0.0
  0
LINE
  5
228FA
330
1F
100
AcDbEntity
  8
1
100
AcDbLine
 10
18.26623058853336
 20
0.092396265466661
 30
0.0
 11
18.30887434530002
 21
0.0868240888333247
 31
0.0
  0
LWPOLYLINE
  5
228FB
330
1F
100
AcDbEntity
  8
1
100
AcDbPolyline
 90
       14
 70
     0
 43
0.0
 10
2.131082496233361
 20
7.218068333566662
 10
2.126510046800021
 20
7.189268675833318
 10
2.120308734933374
 20
7.161318455533333
 10
2.112543259366688
 20
7.134217672600001
 10
2.103172026233366
 20
7.10795365989999
 10
2.092427442766691
 20
7.082539084599993
 10
2.080785626600018
 20
7.058011948133326
 10
2.06836692226669
 20
7.034410281399992
 10
2.055275679433364
 20
7.011696053499996
 10
2.041921224033345
 20
6.989793173033334
 10
2.028451668300036
 20
6.968732254566667
 10
2.014933045633355
 20
6.948482683566666
 10
2.001608023233373
 20
6.92887652483332
 10
1.976065394866694
 20
6.891644421866658
  0
LINE
  5
228FC
330
1F
100
AcDbEntity
  8
1
100
AcDbLine
 10
0.0000000000000142
 20
-7.599983121200011
 30
0.0
 11
0.0000000000000142
 21
7.599983121199983
 31
0.0
  0
LWPOLYLINE
  5
228FD
330
1F
100
AcDbEntity
  8
1
100
AcDbPolyline
 90
       22
 70
     0
 43
0.0
 10
1.800000000000025
 20
-6.053954039233339
 10
1.80419391040003
 20
-6.073418243533339
 10
1.81675220093335
 20
-6.092773619166678
 10
1.837604663733358
 20
-6.111911932733342
 10
1.866634740900011
 20
-6.130726181400007
 10
1.903680099600038
 20
-6.149111139033337
 10
1.948533466333358
 20
-6.166963948866666
 10
2.00094372460002
 20
-6.18418470746667
 10
2.060617943633374
 20
-6.200677205433336
 10
2.127223145133356
 20
-6.216349388733341
 10
2.200388312000043
 20
-6.23111383303334
 10
2.279703415333372
 20
-6.24488768303334
 10
2.364721665466689
 20
-6.257593415166674
 10
2.454962663566689
 20
-6.269159547300006
 10
2.549925402766703
 20
-6.279522159700007
 10
2.649089352066695
 20
-6.288624330366673
 10
2.75190673140004
 20
-6.296415263700005
 10
2.857797847800028
 20
-6.302850536666667
 10
2.966164421900018
 20
-6.307893574766673
 10
3.076398126766676
 20
-6.311516038666674
 10
3.187884531566695
 20
-6.313697707900004
 10
3.300000000000025
 20
-6.314426305733334
  0
LWPOLYLINE
  5
228FE
330
1F
100
AcDbEntity
  8
1
100
AcDbPolyline
 90
       13
 70
     0
 43
0.0
 10
3.000000000000014
 20
4.564427904066654
 10
3.021523197100023
 20
4.593089715799997
 10
3.042736343366712
 20
4.622257983666656
 10
3.063639438833362
 20
4.651932707566658
 10
3.084232466000017
 20
4.682140652433332
 10
3.104515442333351
 20
4.712855053366659
 10
3.124488420233362
 20
4.743995615866666
 10
3.144158799833363
 20
4.775559162200003
 10
3.16351918100004
 20
4.807548870099992
 10
3.182547415600041
 20
4.839893978199995
 10
3.201236120933359
 20
4.872570899499997
 10
3.219592679700028
 20
4.905603220999999
 10
3.237617091933358
 20
4.938990942766665
  0
LWPOLYLINE
  5
228FF
330
1F
100
AcDbEntity
  8
SK1
100
AcDbPolyline
 90
        4
 70
     0
 43
0.0
 10
-3.199999999999974
 20
-4.924038765066669
 10
-3.223064951133309
 20
-4.966070306800006
 10
-3.246220041033311
 20
-4.991484982300008
 10
-3.269444322899957
 20
-5.000000000000007
  0
LWPOLYLINE
  5
22900
330
1F
100
AcDbEntity
  8
SK1
100
AcDbPolyline
 90
        4
 70
     0
 43
0.0
 10
-4.449999999999974
 20
4.924038765066654
 10
-4.472949422033295
 20
4.965901254399994
 10
-4.495919772466649
 20
4.991263441966651
 10
-4.519443717633308
 20
4.999999999999985
  0
LINE
  5
22901
330
1F
100
AcDbEntity
  8
1
100
AcDbLine
 10
3.519615242266709
 20
-7.832417984166667
 30
0.0
 11
3.433012701900011
 21
-7.679117640700013
 31
0.0
  0
LINE
  5
22902
330
1F
100
AcDbEntity
  8
1
100
AcDbLine
 10
3.433012701900011
 20
-7.850000000000001
 30
0.0
 11
3.519615242266709
 21
-8.000000000000007
 31
0.0
  0
LWPOLYLINE
  5
22903
330
1F
100
AcDbEntity
  8
1
100
AcDbPolyline
 90
       22
 70
     0
 43
0.0
 10
3.433012701900011
 20
-7.679117640700013
 10
3.419921318566693
 20
-7.65718978993334
 10
3.405772651533354
 20
-7.635928593033334
 10
3.390602540266698
 20
-7.615384757699999
 10
3.374446469200009
 20
-7.595607428333337
 10
3.357347898300034
 20
-7.57664346426668
 10
3.33935977640003
 20
-7.558535829100009
 10
3.320528745633353
 20
-7.541325609933338
 10
3.300903760466681
 20
-7.525051442433337
 10
3.280546958166681
 20
-7.509745965266674
 10
3.259514238533355
 20
-7.495441934733335
 10
3.237858223500026
 20
-7.482166948100008
 10
3.215639928400022
 20
-7.469939330499997
 10
3.19291883770002
 20
-7.4587812424
 10
3.169751508633353
 20
-7.448712003400011
 10
3.146196225800011
 20
-7.439740543733343
 10
3.122315084766697
 20
-7.431879479700008
 10
3.098165742533367
 20
-7.425139666800006
 10
3.073800126866686
 20
-7.419524089800006
 10
3.049275685800026
 20
-7.415036901766669
 10
3.024655545900046
 20
-7.411682129966671
 10
3.000000000000014
 20
-7.409459236766679
  0
LINE
  5
22904
330
1F
100
AcDbEntity
  8
SK1
100
AcDbLine
 10
-11.09999021446664
 20
4.399999999999991
 30
0.0
 11
-10.98886230229997
 21
4.399999999999991
 31
0.0
  0
LINE
  5
22905
330
1F
100
AcDbEntity
  8
SK1
100
AcDbLine
 10
-9.419444444466634
 20
4.399999999999991
 30
0.0
 11
-8.517425444199986
 21
4.399999999999991
 31
0.0
  0
LINE
  5
22906
330
1F
100
AcDbEntity
  8
SK1
100
AcDbLine
 10
-6.919444444466634
 20
4.399999999999991
 30
0.0
 11
-6.017425444233296
 21
4.399999999999991
 31
0.0
  0
LINE
  5
22907
330
1F
100
AcDbEntity
  8
SK1
100
AcDbLine
 10
-4.419444444433324
 20
4.399999999999991
 30
0.0
 11
-3.517425444199986
 21
4.399999999999991
 31
0.0
  0
LWPOLYLINE
  5
22908
330
1F
100
AcDbEntity
  8
1
100
AcDbPolyline
 90
        7
 70
     0
 43
0.0
 10
3.400000000000019
 20
7.617176914033329
 10
3.405926675433349
 20
7.625441085766667
 10
3.411683527500045
 20
7.633812398999992
 10
3.417270556166684
 20
7.642290853666665
 10
3.42268776146669
 20
7.650876449799994
 10
3.427935143366696
 20
7.659569187399988
 10
3.433012701900011
 20
7.668369066466667
  0
LINE
  5
22909
330
1F
100
AcDbEntity
  8
1
100
AcDbLine
 10
3.433012701900011
 20
7.849999999999987
 30
0.0
 11
3.519615242266709
 21
7.999999999999985
 31
0.0
  0
LINE
  5
2290A
330
1F
100
AcDbEntity
  8
1
100
AcDbLine
 10
3.433012701900011
 20
7.668369066466667
 30
0.0
 11
3.519615242266709
 21
7.821852986333325
 31
0.0
  0
LINE
  5
2290B
330
1F
100
AcDbEntity
  8
SK1
100
AcDbLine
 10
-1.999999999999985
 20
-5.500000000000007
 30
0.0
 11
-1.999999999999985
 21
5.499999999999985
 31
0.0
  0
LWPOLYLINE
  5
2290C
330
1F
100
AcDbEntity
  8
1
100
AcDbPolyline
 90
       31
 70
     0
 43
0.0
 10
7.803334259766685
 20
5.364588612133331
 10
8.102748747733372
 20
5.357226770633324
 10
8.403366465933359
 20
5.334966959599988
 10
8.704406335133356
 20
5.297575624799996
 10
9.005379382400022
 20
5.244794187433335
 10
9.305128698500041
 20
5.1765015597
 10
9.601868930133363
 20
5.092876043733326
 10
9.894796297966692
 20
4.993986616633321
 10
10.18305710156669
 20
4.879960853599996
 10
10.46488193400002
 20
4.751422876033323
 10
10.73940701563334
 20
4.608788234766649
 10
11.00602099423336
 20
4.452396709899993
 10
11.2634760459667
 20
4.283050193833325
 10
11.51078943163334
 20
4.101569526966656
 10
11.74776092346668
 20
3.908282009666656
 10
11.97434938823336
 20
3.703293716199986
 10
12.18995498363337
 20
3.48715083093333
 10
12.39401817746669
 20
3.260417982999989
 10
12.58644746466667
 20
3.023115993499992
 10
12.76690300380001
 20
2.775433253033327
 10
12.93452129393337
 20
2.51830731166666
 10
13.08846251103337
 20
2.252911539799995
 10
13.22836146926668
 20
1.979825647299996
 10
13.35375863656669
 20
1.699891706366656
 10
13.46395850406669
 20
1.414824779666659
 10
13.55879960090003
 20
1.125454149066655
 10
13.63817768780002
 20
0.8325731305666579
 10
13.70184453253337
 20
0.5379452511333227
 10
13.74988057423336
 20
0.2427180644666578
 10
13.78252976853336
 20
-0.0526217263333422
 10
13.80000000000002
 20
-0.3472963553333415
  0
LWPOLYLINE
  5
2290D
330
1F
100
AcDbEntity
  8
1
100
AcDbPolyline
 90
       10
 70
     0
 43
0.0
 10
7.803334259766685
 20
5.01729225679999
 10
7.971919644233381
 20
5.014937335599988
 10
8.140016183966693
 20
5.007968214166652
 10
8.307623878966708
 20
4.996384892566652
 10
8.474834055100032
 20
4.980173103899993
 10
8.64155538650003
 20
4.959347114999985
 10
8.80751389573335
 20
4.933949726566652
 10
8.972618256933358
 20
4.903995205366655
 10
9.13695979593335
 20
4.869469284599993
 10
9.300538512766692
 20
4.830371964233322
  0
LINE
  5
2290E
330
1F
100
AcDbEntity
  8
SK1
100
AcDbLine
 10
-1.999999999999985
 20
4.999999999999985
 30
0.0
 11
-3.319444444433301
 21
4.999999999999985
 31
0.0
  0
LINE
  5
2290F
330
1F
100
AcDbEntity
  8
SK1
100
AcDbLine
 10
-4.51944444443329
 20
4.999999999999985
 30
0.0
 11
-5.81944444446664
 21
4.999999999999985
 31
0.0
  0
LINE
  5
22910
330
1F
100
AcDbEntity
  8
SK1
100
AcDbLine
 10
-7.019444444466657
 20
4.999999999999985
 30
0.0
 11
-8.31944444446664
 21
4.999999999999985
 31
0.0
  0
LINE
  5
22911
330
1F
100
AcDbEntity
  8
SK1
100
AcDbLine
 10
-9.519444444466657
 20
4.999999999999985
 30
0.0
 11
-10.49998888009996
 21
4.999999999999985
 31
0.0
  0
LINE
  5
22912
330
1F
100
AcDbEntity
  8
1
100
AcDbLine
 10
7.803334259766685
 20
5.01729225679999
 30
0.0
 11
4.699461487233364
 21
5.01729225679999
 31
0.0
  0
LINE
  5
22913
330
1F
100
AcDbEntity
  8
1
100
AcDbLine
 10
3.800000000000025
 20
5.364588612133331
 30
0.0
 11
7.803334259766685
 21
5.364588612133331
 31
0.0
  0
LINE
  5
22914
330
1F
100
AcDbEntity
  8
SK1
100
AcDbLine
 10
0.0000000000000142
 20
5.499999999999985
 30
0.0
 11
-1.999999999999985
 21
5.499999999999985
 31
0.0
  0
LINE
  5
22915
330
1F
100
AcDbEntity
  8
1
100
AcDbLine
 10
2.300000000000025
 20
5.831296072033325
 30
0.0
 11
8.701680564366697
 21
5.831602532699996
 31
0.0
  0
LWPOLYLINE
  5
22916
330
1F
100
AcDbEntity
  8
1
100
AcDbPolyline
 90
       67
 70
     0
 43
0.0
 10
8.701680564366697
 20
5.831602532699996
 10
8.810982799100017
 20
5.83258954026666
 10
8.862546047300028
 20
5.833371110533335
 10
8.912370231066702
 20
5.834350933500004
 10
8.960449920266697
 20
5.835534436866666
 10
9.006790545000015
 20
5.836930407733333
 10
9.051695959066691
 20
5.838537720933331
 10
9.095185234833351
 20
5.840359236333327
 10
9.137239299933369
 20
5.842400277033327
 10
9.178104790933346
 20
5.844658666599997
 10
9.217831459166703
 20
5.847138086933327
 10
9.256369553266679
 20
5.849839573633317
 10
9.293816455700024
 20
5.85275253526666
 10
9.3301798676667
 20
5.855875764866667
 10
9.365452087933348
 20
5.85920888519999
 10
9.399707395233363
 20
5.862737475599992
 10
9.432943252666703
 20
5.866456709466653
 10
9.465162197100042
 20
5.870364570333322
 10
9.496446117866682
 20
5.874446975833322
 10
9.526793586266691
 20
5.878697310033331
 10
9.556206030966691
 20
5.883112085333323
 10
9.584769627466684
 20
5.887679605033326
 10
9.612484022433378
 20
5.892392412433331
 10
9.639349569166697
 20
5.897246313366665
 10
9.665453503200026
 20
5.902233549599991
 10
9.690796704733358
 20
5.907346639166654
 10
9.715378293533362
 20
5.912581245366652
 10
9.739282864433349
 20
5.917934437933325
 10
9.762506746633349
 20
5.923397720366658
 10
9.78505361093336
 20
5.92896849343333
 10
9.807019064300007
 20
5.934653911333327
 10
9.828392088666689
 20
5.940443287999997
 10
9.849183702100006
 20
5.946338142799987
 10
9.869522566133369
 20
5.952366991833329
 10
9.889447632000027
 20
5.958536361933326
 10
9.908919948466703
 20
5.964835257266656
 10
9.927951323300035
 20
5.971268315999992
 10
9.946568314800018
 20
5.977841772566662
 10
9.964744364666685
 20
5.98454517606666
 10
9.982411605733361
 20
5.991357471366669
 10
9.999555810133372
 20
5.998268894566663
 10
10.01619120570002
 20
6.005282225666654
 10
10.03229260860003
 20
6.012394240599988
 10
10.04784979710003
 20
6.019592720433323
 10
10.06287299293335
 20
6.026882693533323
 10
10.07736767773336
 20
6.034287808166652
 10
10.09133483093335
 20
6.04179525746666
 10
10.10477347313336
 20
6.049412365099996
 10
10.1176861474667
 20
6.057195845433327
 10
10.13008835983335
 20
6.065127443133334
 10
10.14196460433335
 20
6.073222776899996
 10
10.15327090656667
 20
6.081594294299989
 10
10.16408307030004
 20
6.090242463033334
 10
10.17432529180003
 20
6.099168860899986
 10
10.18372618500002
 20
6.108493156566652
 10
10.19241342846671
 20
6.118288397733337
 10
10.20025934370001
 20
6.128486268933322
 10
10.20660950933337
 20
6.138993893166656
 10
10.21141002953335
 20
6.149917978699988
 10
10.21471480013336
 20
6.161146256733324
 10
10.21603108736669
 20
6.17224684766667
 10
10.2150622295667
 20
6.183191979633328
 10
10.21210488840002
 20
6.193987534766662
 10
10.20755631486669
 20
6.204243121366673
 10
10.20154892600003
 20
6.213821289833326
 10
10.19395030476669
 20
6.222840895299995
 10
10.18476045120003
 20
6.231296072033323
  0
LWPOLYLINE
  5
22917
330
1F
100
AcDbEntity
  8
1
100
AcDbPolyline
 90
        7
 70
     0
 43
0.0
 10
4.097680623933356
 20
4.995411562266653
 10
4.194339417700021
 20
5.002064263366662
 10
4.292453418166687
 20
5.007514597033321
 10
4.392022625366692
 20
5.011762563199994
 10
4.493047039266699
 20
5.014808161866653
 10
4.595526659900016
 20
5.016651393066659
 10
4.699461487233364
 20
5.01729225679999
  0
LINE
  5
22918
330
1F
100
AcDbEntity
  8
1
100
AcDbLine
 10
3.550394822533363
 20
4.939647591166661
 30
0.0
 11
3.587095173433354
 21
4.942742326866657
 31
0.0
  0
LINE
  5
22919
330
1F
100
AcDbEntity
  8
1
100
AcDbLine
 10
3.587095173433354
 20
4.942742326866657
 30
0.0
 11
3.624981785866694
 21
4.946137769466659
 31
0.0
  0
LINE
  5
2291A
330
1F
100
AcDbEntity
  8
1
100
AcDbLine
 10
3.624981785866694
 20
4.946137769466659
 30
0.0
 11
3.663961823733373
 21
4.949831095999996
 31
0.0
  0
LWPOLYLINE
  5
2291B
330
1F
100
AcDbEntity
  8
1
100
AcDbPolyline
 90
        7
 70
     0
 43
0.0
 10
3.800000000000025
 20
4.969452149099993
 10
3.845181478866678
 20
4.97528463366666
 10
3.892135741133373
 20
4.980514751933327
 10
3.940862786766686
 20
4.985142503933325
 10
3.991362615800042
 20
4.98916788966666
 10
4.043635228166706
 20
4.992590909100002
 10
4.097680623933356
 20
4.995411562266653
  0
LWPOLYLINE
  5
2291C
330
1F
100
AcDbEntity
  8
1
100
AcDbPolyline
 90
        5
 70
     0
 43
0.0
 10
3.800000000000025
 20
4.969452149099993
 10
3.7290740628667
 20
4.959559530866663
 10
3.706721285433346
 20
4.956326889666655
 10
3.685016710966706
 20
4.953090935899993
 10
3.663961823733373
 20
4.949831095999996
  0
LWPOLYLINE
  5
2291D
330
1F
100
AcDbEntity
  8
1
100
AcDbPolyline
 90
       11
 70
     0
 43
0.0
 10
1.976065394866694
 20
6.891644421866658
 10
1.963964147800041
 20
6.873750587266655
 10
1.952466049233365
 20
6.856209841266654
 10
1.941708676300024
 20
6.839069606033319
 10
1.931803168500024
 20
6.822229246699997
 10
1.922912001400035
 20
6.805658072833324
 10
1.915212162933372
 20
6.789386774866663
 10
1.908871122466692
 20
6.773406789066655
 10
1.904082974000019
 20
6.757715260799997
 10
1.901056231133352
 20
6.742315044666661
 10
1.900000000000019
 20
6.727206140666652
  0
LWPOLYLINE
  5
2291E
330
1F
100
AcDbEntity
  8
SK1
100
AcDbPolyline
 90
        4
 70
     0
 43
0.0
 10
-5.699999999999974
 20
-4.924038765066669
 10
-5.723057004933295
 20
-4.966058692600007
 10
-5.746136825266646
 20
-4.99142386983334
 10
-5.769444145466636
 20
-5.000000000000007
  0
LWPOLYLINE
  5
2291F
330
1F
100
AcDbEntity
  8
SK1
100
AcDbPolyline
 90
       13
 70
     0
 43
0.0
 10
-4.499999999999985
 20
-4.924038765066669
 10
-4.47694056159996
 20
-4.86548131326667
 10
-4.453855839499979
 20
-4.790495520300005
 10
-4.430745833633309
 20
-4.69928037266667
 10
-4.40758176179996
 20
-4.591947905166662
 10
-4.384392406266627
 20
-4.46891387076667
 10
-4.361264113699959
 20
-4.33108804236668
 10
-4.338247914599961
 20
-4.179405671566669
 10
-4.315292778466627
 20
-4.014199764000011
 10
-4.292331960766645
 20
-3.835590776766679
 10
-4.269379973533304
 20
-3.644288492766669
 10
-4.246422304699976
 20
-3.440811336233345
 10
-4.223348673566633
 20
-3.224768823366673
  0
LINE
  5
22920
330
1F
100
AcDbEntity
  8
SK1
100
AcDbLine
 10
-4.342202348466642
 20
4.512067162633329
 30
0.0
 11
-4.321461940499986
 21
4.399999999999991
 31
0.0
  0
LWPOLYLINE
  5
22921
330
1F
100
AcDbEntity
  8
SK1
100
AcDbPolyline
 90
        6
 70
     0
 43
0.0
 10
-4.342202348466642
 20
4.512067162633329
 10
-4.357165321299973
 20
4.589874753033335
 10
-4.380540043199957
 20
4.698396429033337
 10
-4.403783933266637
 20
4.790236617600001
 10
-4.426937252199977
 20
4.865471731399992
 10
-4.449999999999974
 20
4.924038765066654
  0
LWPOLYLINE
  5
22922
330
1F
100
AcDbEntity
  8
SK1
100
AcDbPolyline
 90
        4
 70
     0
 43
0.0
 10
-6.949999999999974
 20
4.924038765066654
 10
-6.973062857366628
 20
4.966067246733324
 10
-6.996215835366641
 20
4.991481898966661
 10
-7.019444359866653
 20
4.999999999999985
  0
LWPOLYLINE
  5
22923
330
1F
100
AcDbEntity
  8
1
100
AcDbPolyline
 90
       13
 70
     0
 43
0.0
 10
9.300538512766692
 20
4.830371964233322
 10
9.346909406866686
 20
4.818261391333322
 10
9.393147118566687
 20
4.805575937399993
 10
9.439208000233364
 20
4.792317386166665
 10
9.485048278000036
 20
4.778471350766665
 10
9.530626241300026
 20
4.764056468133325
 10
9.575902248033358
 20
4.749124355933325
 10
9.620832635466697
 20
4.733675309633326
 10
9.66537959796669
 20
4.717714518299992
 10
9.709513118066709
 20
4.701301059899989
 10
9.753197254966678
 20
4.684456675033331
 10
9.796390407166697
 20
4.667165933333322
 10
9.839054993466689
 20
4.649432290733322
  0
LINE
  5
22924
330
1F
100
AcDbEntity
  8
1
100
AcDbLine
 10
1.900000000000019
 20
6.231296072033323
 30
0.0
 11
10.18476045120003
 21
6.231296072033323
 31
0.0
  0
LINE
  5
22925
330
1F
100
AcDbEntity
  8
1
100
AcDbLine
 10
10.40956875956668
 20
6.641978893800001
 30
0.0
 11
12.01669158330001
 21
6.641978893800001
 31
0.0
  0
LWPOLYLINE
  5
22926
330
1F
100
AcDbEntity
  8
1
100
AcDbPolyline
 90
       16
 70
     0
 43
0.0
 10
2.131082496233361
 20
7.218068333566662
 10
2.172023600766706
 20
7.238007633566667
 10
2.215811450533365
 20
7.256726020166667
 10
2.26231443183336
 20
7.274223493399993
 10
2.311294329666694
 20
7.290445130899989
 10
2.362701858500017
 20
7.305445855033326
 10
2.416728111800026
 20
7.319390432799984
 10
2.47339121420002
 20
7.332316307566657
 10
2.532461953466693
 20
7.344186035966657
 10
2.593791651966697
 20
7.355052054999987
 10
2.657279335900014
 20
7.364914877566654
 10
2.722754778133364
 20
7.373773990766665
 10
2.789942148700006
 20
7.381680292733328
 10
2.85863581910003
 20
7.388650749533319
 10
2.9287117510667
 20
7.394668395099998
 10
3.000000000000014
 20
7.39973322943333
  0
LWPOLYLINE
  5
22927
330
1F
100
AcDbEntity
  8
SK1
100
AcDbPolyline
 90
        9
 70
     0
 43
0.0
 10
-3.665140164266645
 20
3.228609079866657
 10
-3.642103009133322
 20
3.444124837033328
 10
-3.619033070166651
 20
3.648379942199994
 10
-3.595939185199981
 20
3.84056602493333
 10
-3.572802377866636
 20
4.020138418933321
 10
-3.54964162456666
 20
4.18628580899999
 10
-3.526522692333301
 20
4.337991397666669
 10
-3.503497444866624
 20
4.474530373433331
 10
-3.496686527966645
 20
4.512067230133325
  0
LINE
  5
22928
330
1F
100
AcDbEntity
  8
SK1
100
AcDbLine
 10
-4.273913043499973
 20
-2.399211293233335
 30
0.0
 11
-4.225603864733315
 21
-1.934832772466677
 31
0.0
  0
LINE
  5
22929
330
1F
100
AcDbEntity
  8
SK1
100
AcDbLine
 10
-3.863285024166643
 20
1.934832772399992
 30
0.0
 11
-3.814975845399985
 21
2.399211293199996
 31
0.0
  0
LINE
  5
2292A
330
1F
100
AcDbEntity
  8
SK1
100
AcDbLine
 10
-4.223348673566633
 20
-3.224768823366673
 30
0.0
 11
-4.176733139699976
 21
-2.756014207500001
 31
0.0
  0
LINE
  5
2292B
330
1F
100
AcDbEntity
  8
SK1
100
AcDbLine
 10
-3.711061897499988
 20
2.767472834066659
 30
0.0
 11
-3.665140164266645
 21
3.228609079866657
 31
0.0
  0
LINE
  5
2292C
330
1F
100
AcDbEntity
  8
SK1
100
AcDbLine
 10
-4.225603864733315
 20
-1.934832772466677
 30
0.0
 11
-4.177294685999967
 21
-1.441967109133344
 31
0.0
  0
LINE
  5
2292D
330
1F
100
AcDbEntity
  8
SK1
100
AcDbLine
 10
-3.911594202899991
 20
1.441967109066659
 30
0.0
 11
-3.863285024166643
 21
1.934832772399992
 31
0.0
  0
LINE
  5
2292E
330
1F
100
AcDbEntity
  8
SK1
100
AcDbLine
 10
-4.177294685999967
 20
-1.441967109133344
 30
0.0
 11
-4.104830917866635
 21
-0.6652175599000003
 31
0.0
  0
LINE
  5
2292F
330
1F
100
AcDbEntity
  8
SK1
100
AcDbLine
 10
-3.757070170733285
 20
2.268544663699998
 30
0.0
 11
-3.711061897499988
 21
2.767472834066659
 31
0.0
  0
LINE
  5
22930
330
1F
100
AcDbEntity
  8
SK1
100
AcDbLine
 10
-4.176733139699976
 20
-2.756014207500001
 30
0.0
 11
-4.129848561666662
 21
-2.24645410636667
 31
0.0
  0
LINE
  5
22931
330
1F
100
AcDbEntity
  8
SK1
100
AcDbLine
 10
-4.104830917866635
 20
-0.6652175599000003
 30
0.0
 11
-3.911594202899991
 21
1.441967109066659
 31
0.0
  0
LINE
  5
22932
330
1F
100
AcDbEntity
  8
SK1
100
AcDbLine
 10
-4.129848561666662
 20
-2.24645410636667
 30
0.0
 11
-4.082883784966654
 21
-1.704791122633345
 31
0.0
  0
LINE
  5
22933
330
1F
100
AcDbEntity
  8
SK1
100
AcDbLine
 10
-3.826658151566633
 20
1.458622384299985
 30
0.0
 11
-3.757070170733285
 21
2.268544663699998
 31
0.0
  0
LINE
  5
22934
330
1F
100
AcDbEntity
  8
SK1
100
AcDbLine
 10
-4.082883784966654
 20
-1.704791122633345
 30
0.0
 11
-4.013101792666631
 21
-0.8584985188666749
 31
0.0
  0
LINE
  5
22935
330
1F
100
AcDbEntity
  8
SK1
100
AcDbLine
 10
-4.013101792666631
 20
-0.8584985188666749
 30
0.0
 11
-3.826658151566633
 21
1.458622384299985
 31
0.0
  0
LWPOLYLINE
  5
22936
330
1F
100
AcDbEntity
  8
SK1
100
AcDbPolyline
 90
        4
 70
     0
 43
0.0
 10
-2.138725904233311
 20
-4.924038765066669
 10
-2.116306833799981
 20
-4.965360908466671
 10
-2.092840982366638
 20
-4.991358327900009
 10
-2.069444322899968
 20
-5.000000000000007
  0
LWPOLYLINE
  5
22937
330
1F
100
AcDbEntity
  8
1
100
AcDbPolyline
 90
       13
 70
     0
 43
0.0
 10
2.100000000000036
 20
-7.214715115466674
 10
2.056782541966711
 20
-7.195269957700006
 10
2.016226344266684
 20
-7.174305146600005
 10
1.978533415100017
 20
-7.151837385700005
 10
1.943980242366691
 20
-7.127998489466676
 10
1.912673464633357
 20
-7.102699038799997
 10
1.884632439833367
 20
-7.075622019666674
 10
1.860127377666699
 20
-7.046795206100007
 10
1.839430382000031
 20
-7.0162399206
 10
1.822719669966701
 20
-6.983626150000006
 10
1.810325797366672
 20
-6.948866401766679
 10
1.802637815133365
 20
-6.912120147833334
 10
1.800000000000025
 20
-6.87343336173334
  0
LINE
  5
22938
330
1F
100
AcDbEntity
  8
1
100
AcDbLine
 10
0.0000000000000142
 20
7.599999999999987
 30
0.0
 11
3.000000000000014
 21
7.599999999999987
 31
0.0
  0
LINE
  5
22939
330
1F
100
AcDbEntity
  8
1
100
AcDbLine
 10
11.14449072696671
 20
7.821852986333325
 30
0.0
 11
3.519615242266709
 21
7.821852986333325
 31
0.0
  0
LINE
  5
2293A
330
1F
100
AcDbEntity
  8
1
100
AcDbLine
 10
11.31997081193334
 20
7.999999999999985
 30
0.0
 11
3.519615242266709
 21
7.999999999999985
 31
0.0
  0
LWPOLYLINE
  5
2293B
330
1F
100
AcDbEntity
  8
1
100
AcDbPolyline
 90
       19
 70
     0
 43
0.0
 10
3.000000000000014
 20
7.39973322943333
 10
3.025698790733358
 20
7.402012395733322
 10
3.051248662866683
 20
7.405512423766651
 10
3.07663826653335
 20
7.410233313533325
 10
3.101919172466708
 20
7.416187500066655
 10
3.127018986333368
 20
7.423362548333322
 10
3.151739276600025
 20
7.431721153266664
 10
3.176063356066677
 20
7.441273369566658
 10
3.199986726300025
 20
7.452009142499989
 10
3.223327403933367
 20
7.463861003200001
 10
3.246068745333346
 20
7.476835851266656
 10
3.268209324233353
 20
7.490926787033316
 10
3.289589643766689
 20
7.506045642733333
 10
3.31019883103336
 20
7.522199764133333
 10
3.330034531100025
 20
7.539381805433322
 10
3.348950608966688
 20
7.55748156156666
 10
3.366895609500019
 20
7.576462297533332
 10
3.383912980233347
 20
7.596360748366663
 10
3.400000000000019
 20
7.617176914033329
  0
LWPOLYLINE
  5
2293C
330
1F
100
AcDbEntity
  8
SK1
100
AcDbPolyline
 90
       16
 70
     0
 43
0.0
 10
-4.519443717633308
 20
4.999999999999985
 10
-4.541916430199975
 20
4.992027634799995
 10
-4.564942737499976
 20
4.967345980133323
 10
-4.588010458499965
 20
4.925943610399997
 10
-4.61115622719997
 20
4.867765020599989
 10
-4.634343409633302
 20
4.792970662733338
 10
-4.657482588999968
 20
4.702108819299994
 10
-4.680514018466638
 20
4.595882297333325
 10
-4.703497444866641
 20
4.474530373433331
 10
-4.726522692333318
 20
4.337991397666669
 10
-4.749641624566649
 20
4.18628580899999
 10
-4.772802377866625
 20
4.020138418933321
 10
-4.795939185199969
 20
3.84056602493333
 10
-4.819033070166639
 20
3.648379942199994
 10
-4.84210300913331
 20
3.444124837033328
 10
-4.865140164266634
 20
3.228609079866657
  0
LWPOLYLINE
  5
2293D
330
1F
100
AcDbEntity
  8
SK1
100
AcDbPolyline
 90
        5
 70
     0
 43
0.0
 10
-10.67142703733331
 20
-4.755205514066666
 10
-10.6889884203333
 20
-4.774630145033341
 10
-10.70659109629996
 20
-4.781176075466675
 10
-10.72423506516664
 20
-4.774828408366673
 10
-10.73093463309997
 20
-4.769054755200002
  0
LWPOLYLINE
  5
2293E
330
1F
100
AcDbEntity
  8
SK1
100
AcDbPolyline
 90
       14
 70
     0
 43
0.0
 10
-7.09999999999998
 20
-4.333154113266672
 10
-7.075845410633306
 20
-4.278817066066672
 10
-7.051690821266632
 20
-4.208715911833337
 10
-7.027536231899986
 20
-4.123108918700012
 10
-7.003381642533312
 20
-4.022311481733339
 10
-6.9792270531333
 20
-3.906694960966675
 10
-6.955072463766654
 20
-3.776685313166673
 10
-6.93091787439998
 20
-3.632761522600006
 10
-6.906763285033306
 20
-3.475453836333343
 10
-6.882608695666633
 20
-3.305341810566673
 10
-6.858454106299959
 20
-3.123052175566677
 10
-6.834299516933313
 20
-2.929256526666677
 10
-6.810144927533301
 20
-2.724668849800004
 10
-6.785990338166627
 20
-2.510042891133338
  0
LWPOLYLINE
  5
2293F
330
1F
100
AcDbEntity
  8
SK1
100
AcDbPolyline
 90
       13
 70
     0
 43
0.0
 10
-6.999999999999985
 20
-4.924038765066669
 10
-6.976940487733301
 20
-4.865481099333337
 10
-6.953790366099966
 20
-4.790259785733333
 10
-6.930549635099978
 20
-4.69843765760001
 10
-6.907178073033307
 20
-4.589938309200007
 10
-6.883715901599984
 20
-4.465094620200005
 10
-6.860283786066631
 20
-4.324919425433336
 10
-6.836892244666628
 20
-4.170030273566666
 10
-6.813530759199963
 20
-4.000959393200005
 10
-6.790288440233311
 20
-3.819066625533338
 10
-6.767228457799987
 20
-3.625724186533346
 10
-6.744287641866648
 20
-3.421298875400005
 10
-6.721365592999958
 20
-3.205684352033337
  0
LWPOLYLINE
  5
22940
330
1F
100
AcDbEntity
  8
SK1
100
AcDbPolyline
 90
        9
 70
     0
 43
0.0
 10
-3.496686527966645
 20
4.512067230133325
 10
-3.480514018466621
 20
4.595882297333325
 10
-3.45748258899998
 20
4.702108819299994
 10
-3.434343409633314
 20
4.792970662733338
 10
-3.411156227199981
 20
4.867765020599989
 10
-3.388010458499977
 20
4.925943610399997
 10
-3.364942737499987
 20
4.967345980133323
 10
-3.341916430199987
 20
4.992027634799995
 10
-3.319443717633291
 20
4.999999999999985
  0
LWPOLYLINE
  5
22941
330
1F
100
AcDbEntity
  8
SK1
100
AcDbPolyline
 90
        6
 70
     0
 43
0.0
 10
-5.592202348466642
 20
-4.512067162600011
 10
-5.607581761799977
 20
-4.591947905166662
 10
-5.630745833633326
 20
-4.69928037266667
 10
-5.653855839499968
 20
-4.790495520300005
 10
-5.676940561599977
 20
-4.86548131326667
 10
-5.699999999999974
 20
-4.924038765066669
  0
LINE
  5
22942
330
1F
100
AcDbEntity
  8
SK1
100
AcDbLine
 10
-5.467149758466618
 20
-3.843460564533337
 30
0.0
 11
-5.589522746133312
 21
-4.497562164800008
 31
0.0
  0
LINE
  5
22943
330
1F
100
AcDbEntity
  8
SK1
100
AcDbLine
 10
-3.621739130433311
 20
3.843460564499991
 30
0.0
 11
-3.496686527966645
 21
4.512067230133325
 31
0.0
  0
LWPOLYLINE
  5
22944
330
1F
100
AcDbEntity
  8
SK1
100
AcDbPolyline
 90
        9
 70
     0
 43
0.0
 10
-5.467149758466618
 20
-3.843460564533337
 10
-5.442995169099972
 20
-3.7064307248
 10
-5.41884057969996
 20
-3.55574557573334
 10
-5.394685990333314
 20
-3.391960274666672
 10
-5.37053140096664
 20
-3.215678242833334
 10
-5.346376811599995
 20
-3.027548942199999
 10
-5.322222222233321
 20
-2.828265482633341
 10
-5.298067632866647
 20
-2.618562068433341
 10
-5.273913043466635
 20
-2.399211293233335
  0
LWPOLYLINE
  5
22945
330
1F
100
AcDbEntity
  8
SK1
100
AcDbPolyline
 90
        9
 70
     0
 43
0.0
 10
-3.814975845399985
 20
2.399211293199996
 10
-3.790821256033311
 20
2.618562068366657
 10
-3.766666666666637
 20
2.828265482600002
 10
-3.742512077299963
 20
3.02754894216666
 10
-3.718357487933289
 20
3.215678242799995
 10
-3.694202898566643
 20
3.391960274633326
 10
-3.67004830919997
 20
3.555745575666662
 10
-3.645893719799957
 20
3.706430724766661
 10
-3.621739130433311
 20
3.843460564499991
  0
LWPOLYLINE
  5
22946
330
1F
100
AcDbEntity
  8
SK1
100
AcDbPolyline
 90
        9
 70
     0
 43
0.0
 10
-5.42334867356665
 20
-3.224768823366673
 10
-5.446422304699964
 20
-3.440811336233345
 10
-5.469379973533293
 20
-3.644288492766669
 10
-5.492331960766634
 20
-3.835590776766679
 10
-5.515292778466644
 20
-4.014199764000011
 10
-5.538247914599978
 20
-4.179405671566669
 10
-5.561264113699976
 20
-4.33108804236668
 10
-5.584392406266644
 20
-4.46891387076667
 10
-5.592202348466642
 20
-4.512067162600011
  0
LINE
  5
22947
330
1F
100
AcDbEntity
  8
SK1
100
AcDbLine
 10
-5.273913043466635
 20
-2.399211293233335
 30
0.0
 11
-5.225603864733315
 21
-1.934832772466677
 31
0.0
  0
LINE
  5
22948
330
1F
100
AcDbEntity
  8
SK1
100
AcDbLine
 10
-4.863285024166643
 20
1.934832772399992
 30
0.0
 11
-4.814975845399985
 21
2.399211293199996
 31
0.0
  0
LINE
  5
22949
330
1F
100
AcDbEntity
  8
SK1
100
AcDbLine
 10
-5.376733139699965
 20
-2.756014207500001
 30
0.0
 11
-5.42334867356665
 21
-3.224768823366673
 31
0.0
  0
LINE
  5
2294A
330
1F
100
AcDbEntity
  8
SK1
100
AcDbLine
 10
-4.865140164266634
 20
3.228609079866657
 30
0.0
 11
-4.911061897499976
 21
2.767472834066659
 31
0.0
  0
LINE
  5
2294B
330
1F
100
AcDbEntity
  8
SK1
100
AcDbLine
 10
-5.225603864733315
 20
-1.934832772466677
 30
0.0
 11
-5.177294685999967
 21
-1.441967109133344
 31
0.0
  0
LINE
  5
2294C
330
1F
100
AcDbEntity
  8
SK1
100
AcDbLine
 10
-4.911594202899991
 20
1.441967109066659
 30
0.0
 11
-4.863285024166643
 21
1.934832772399992
 31
0.0
  0
LINE
  5
2294D
330
1F
100
AcDbEntity
  8
SK1
100
AcDbLine
 10
-5.177294685999967
 20
-1.441967109133344
 30
0.0
 11
-5.104830917866635
 21
-0.6652175599000003
 31
0.0
  0
LINE
  5
2294E
330
1F
100
AcDbEntity
  8
SK1
100
AcDbLine
 10
-4.911061897499976
 20
2.767472834066659
 30
0.0
 11
-4.957070170733302
 21
2.268544663699998
 31
0.0
  0
LINE
  5
2294F
330
1F
100
AcDbEntity
  8
SK1
100
AcDbLine
 10
-5.104830917866635
 20
-0.6652175599000003
 30
0.0
 11
-4.911594202899991
 21
1.441967109066659
 31
0.0
  0
LINE
  5
22950
330
1F
100
AcDbEntity
  8
SK1
100
AcDbLine
 10
-5.329848561666651
 20
-2.24645410636667
 30
0.0
 11
-5.376733139699965
 21
-2.756014207500001
 31
0.0
  0
LINE
  5
22951
330
1F
100
AcDbEntity
  8
SK1
100
AcDbLine
 10
-4.957070170733302
 20
2.268544663699998
 30
0.0
 11
-5.003309460499977
 21
1.736596399499994
 31
0.0
  0
LINE
  5
22952
330
1F
100
AcDbEntity
  8
SK1
100
AcDbLine
 10
-5.259555302466637
 20
-1.426431557400007
 30
0.0
 11
-5.329848561666651
 21
-2.24645410636667
 31
0.0
  0
LINE
  5
22953
330
1F
100
AcDbEntity
  8
SK1
100
AcDbLine
 10
-5.003309460499977
 20
1.736596399499994
 30
0.0
 11
-5.073578066499962
 21
0.8858323864333357
 31
0.0
  0
LINE
  5
22954
330
1F
100
AcDbEntity
  8
SK1
100
AcDbLine
 10
-5.073578066499962
 20
0.8858323864333357
 30
0.0
 11
-5.259555302466637
 21
-1.426431557400007
 31
0.0
  0
LINE
  5
22955
330
1F
100
AcDbEntity
  8
SK1
100
AcDbLine
 10
-4.746686527966645
 20
-4.512067230133339
 30
0.0
 11
-4.767425444199986
 21
-4.400000000000005
 31
0.0
  0
LINE
  5
22956
330
1F
100
AcDbEntity
  8
SK1
100
AcDbLine
 10
-6.842202348466642
 20
4.512067162599997
 30
0.0
 11
-6.821461940499986
 21
4.399999999999991
 31
0.0
  0
LWPOLYLINE
  5
22957
330
1F
100
AcDbEntity
  8
SK1
100
AcDbPolyline
 90
        9
 70
     0
 43
0.0
 10
-4.746686527966645
 20
-4.512067230133339
 10
-4.730551750233317
 20
-4.59569553406667
 10
-4.707600084133318
 20
-4.701606593733345
 10
-4.684642527899981
 20
-4.7918988841
 10
-4.661692781866619
 20
-4.866220184766675
 10
-4.638684260733313
 20
-4.924484638600006
 10
-4.615567572433306
 20
-4.966443947800009
 10
-4.592392109033298
 20
-4.991686644933338
 10
-4.569444145466647
 20
-5.000000000000007
  0
LWPOLYLINE
  5
22958
330
1F
100
AcDbEntity
  8
SK1
100
AcDbPolyline
 90
        6
 70
     0
 43
0.0
 10
-6.842202348466642
 20
4.512067162599997
 10
-6.85809015726663
 20
4.594472014366658
 10
-6.881086533299978
 20
4.700741036366665
 10
-6.904074541599968
 20
4.79128200883332
 10
-6.927045697166633
 20
4.865785540099999
 10
-6.949999999999974
 20
4.924038765066654
  0
LWPOLYLINE
  5
22959
330
1F
100
AcDbEntity
  8
SK1
100
AcDbPolyline
 90
       16
 70
     0
 43
0.0
 10
-7.019444359866653
 20
4.999999999999985
 10
-7.04283245213331
 20
4.991364626366667
 10
-7.066296090866657
 20
4.965376769899989
 10
-7.089728953899978
 20
4.922194662766656
 10
-7.113116973066652
 20
4.862076776833333
 10
-7.136474216533301
 20
4.785276666533334
 10
-7.159721992333302
 20
4.692466111333331
 10
-7.182768059933309
 20
4.584652876399999
 10
-7.20570465986664
 20
4.462083969633333
 10
-7.228729821899989
 20
4.324132759466657
 10
-7.251923563133303
 20
4.170536915633327
 10
-7.275205866399957
 20
4.002106648766662
 10
-7.298534710299961
 20
3.819599764499997
 10
-7.321935482866635
 20
3.623343254199994
 10
-7.34538279603332
 20
3.414130259066659
 10
-7.368758463966642
 20
3.19375725253333
  0
LWPOLYLINE
  5
2295A
330
1F
100
AcDbEntity
  8
SK1
100
AcDbPolyline
 90
       18
 70
     0
 43
0.0
 10
-4.814975845399985
 20
2.399211293199996
 10
-4.790821256033311
 20
2.618562068366657
 10
-4.766666666666637
 20
2.828265482600002
 10
-4.742512077299963
 20
3.02754894216666
 10
-4.718357487933289
 20
3.215678242799995
 10
-4.694202898566643
 20
3.391960274633326
 10
-4.670048309166631
 20
3.555745575666662
 10
-4.645893719799957
 20
3.706430724766661
 10
-4.621739130433311
 20
3.843460564499991
 10
-4.597584541066638
 20
3.966330246699996
 10
-4.573429951699964
 20
4.074587092333324
 10
-4.549275362333318
 20
4.167832259233321
 10
-4.525120772966644
 20
4.245722211666659
 10
-4.50096618356666
 20
4.307969985799999
 10
-4.476811594199986
 20
4.354346247099996
 10
-4.452657004833312
 20
4.384680135166661
 10
-4.428502415466638
 20
4.398859893299992
 10
-4.419444444433324
 20
4.399999999999991
  0
LWPOLYLINE
  5
2295B
330
1F
100
AcDbEntity
  8
SK1
100
AcDbPolyline
 90
        9
 70
     0
 43
0.0
 10
-6.168758463966625
 20
3.19375725253333
 10
-6.145382796033302
 20
3.414130259066659
 10
-6.121935482866646
 20
3.623343254199994
 10
-6.098534710299972
 20
3.819599764499997
 10
-6.075205866399969
 20
4.002106648766662
 10
-6.051923563133314
 20
4.170536915633327
 10
-6.028729821899972
 20
4.324132759466657
 10
-6.005704659866651
 20
4.462083969633333
 10
-5.996686527966645
 20
4.512067230133325
  0
LINE
  5
2295C
330
1F
100
AcDbEntity
  8
SK1
100
AcDbLine
 10
-6.785990338166627
 20
-2.510042891133338
 30
0.0
 11
-6.737681159433307
 21
-2.053873116266665
 31
0.0
  0
LINE
  5
2295D
330
1F
100
AcDbEntity
  8
SK1
100
AcDbLine
 10
-6.351207729466651
 20
2.053873116266657
 30
0.0
 11
-6.302898550733303
 21
2.510042891133331
 31
0.0
  0
LINE
  5
2295E
330
1F
100
AcDbEntity
  8
SK1
100
AcDbLine
 10
-6.737681159433307
 20
-2.053873116266665
 30
0.0
 11
-6.689371980699988
 21
-1.567463531000001
 31
0.0
  0
LINE
  5
2295F
330
1F
100
AcDbEntity
  8
SK1
100
AcDbLine
 10
-6.399516908233309
 20
1.567463530999987
 30
0.0
 11
-6.351207729466651
 21
2.053873116266657
 31
0.0
  0
LINE
  5
22960
330
1F
100
AcDbEntity
  8
SK1
100
AcDbLine
 10
-6.721365592999958
 20
-3.205684352033337
 30
0.0
 11
-6.675558564933325
 21
-2.743686778433342
 31
0.0
  0
LINE
  5
22961
330
1F
100
AcDbEntity
  8
SK1
100
AcDbLine
 10
-6.215228959366626
 20
2.723709653966665
 30
0.0
 11
-6.168758463966625
 21
3.19375725253333
 31
0.0
  0
LINE
  5
22962
330
1F
100
AcDbEntity
  8
SK1
100
AcDbLine
 10
-6.689371980699988
 20
-1.567463531000001
 30
0.0
 11
-6.616908212566627
 21
-0.7969113227333367
 31
0.0
  0
LINE
  5
22963
330
1F
100
AcDbEntity
  8
SK1
100
AcDbLine
 10
-6.496135265699976
 20
0.5329109537666597
 30
0.0
 11
-6.399516908233309
 21
1.567463530999987
 31
0.0
  0
LINE
  5
22964
330
1F
100
AcDbEntity
  8
SK1
100
AcDbLine
 10
-6.616908212566627
 20
-0.7969113227333367
 30
0.0
 11
-6.496135265699976
 21
0.5329109537666597
 31
0.0
  0
LINE
  5
22965
330
1F
100
AcDbEntity
  8
SK1
100
AcDbLine
 10
-6.675558564933325
 20
-2.743686778433342
 30
0.0
 11
-6.629569768333325
 21
-2.243323649800011
 31
0.0
  0
LINE
  5
22966
330
1F
100
AcDbEntity
  8
SK1
100
AcDbLine
 10
-6.261315455366641
 20
2.220875535600001
 30
0.0
 11
-6.215228959366626
 21
2.723709653966665
 31
0.0
  0
LINE
  5
22967
330
1F
100
AcDbEntity
  8
SK1
100
AcDbLine
 10
-6.629569768333325
 20
-2.243323649800011
 30
0.0
 11
-6.560301623199976
 21
-1.435417835566667
 31
0.0
  0
LINE
  5
22968
330
1F
100
AcDbEntity
  8
SK1
100
AcDbLine
 10
-6.330018980699989
 20
1.418174459533325
 30
0.0
 11
-6.261315455366641
 21
2.220875535600001
 31
0.0
  0
LINE
  5
22969
330
1F
100
AcDbEntity
  8
SK1
100
AcDbLine
 10
-6.560301623199976
 20
-1.435417835566667
 30
0.0
 11
-6.468227317466627
 21
-0.2986864645333469
 31
0.0
  0
LINE
  5
2296A
330
1F
100
AcDbEntity
  8
SK1
100
AcDbLine
 10
-6.468227317466627
 20
-0.2986864645333469
 30
0.0
 11
-6.330018980699989
 21
1.418174459533325
 31
0.0
  0
LWPOLYLINE
  5
2296B
330
1F
100
AcDbEntity
  8
SK1
100
AcDbPolyline
 90
       13
 70
     0
 43
0.0
 10
-9.499999999999985
 20
-4.924038765066669
 10
-9.47694056159996
 20
-4.86548131326667
 10
-9.453855839499979
 20
-4.790495520300005
 10
-9.430745833633309
 20
-4.69928037266667
 10
-9.40758176179996
 20
-4.591947905166662
 10
-9.384392406266627
 20
-4.46891387076667
 10
-9.361264113699959
 20
-4.33108804236668
 10
-9.338247914599961
 20
-4.179405671566669
 10
-9.315292778466627
 20
-4.014199764000011
 10
-9.292331960766645
 20
-3.835590776766679
 10
-9.269379973533304
 20
-3.644288492766669
 10
-9.246422304699976
 20
-3.440811336200006
 10
-9.223348673566633
 20
-3.224768823366673
  0
LWPOLYLINE
  5
2296C
330
1F
100
AcDbEntity
  8
SK1
100
AcDbPolyline
 90
        6
 70
     0
 43
0.0
 10
-8.092202348466642
 20
-4.512067162600011
 10
-8.107178073033296
 20
-4.589938309200007
 10
-8.130549635099967
 20
-4.69843765760001
 10
-8.153790366099983
 20
-4.790259785733333
 10
-8.176940487733318
 20
-4.865481099333337
 10
-8.199999999999974
 20
-4.924038765066669
  0
LWPOLYLINE
  5
2296D
330
1F
100
AcDbEntity
  8
SK1
100
AcDbPolyline
 90
        9
 70
     0
 43
0.0
 10
-5.996686527966645
 20
4.512067230133325
 10
-5.98276805993332
 20
4.584652876399999
 10
-5.959721992333285
 20
4.692466111333331
 10
-5.936474216533312
 20
4.785276666533334
 10
-5.913116973066635
 20
4.862076776833333
 10
-5.889728953899961
 20
4.922194662766656
 10
-5.86629609086664
 20
4.965376769899989
 10
-5.842832452133322
 20
4.991364626366667
 10
-5.819444359866636
 20
4.999999999999985
  0
LINE
  5
2296E
330
1F
100
AcDbEntity
  8
SK1
100
AcDbLine
 10
-7.971645780699972
 20
-3.867417781600011
 30
0.0
 11
-8.089522746133312
 21
-4.497562164699999
 31
0.0
  0
LINE
  5
2296F
330
1F
100
AcDbEntity
  8
SK1
100
AcDbLine
 10
-6.11724309299997
 20
3.867417861799992
 30
0.0
 11
-5.996686527966645
 21
4.512067230133325
 31
0.0
  0
LWPOLYLINE
  5
22970
330
1F
100
AcDbEntity
  8
SK1
100
AcDbPolyline
 90
        9
 70
     0
 43
0.0
 10
-7.971645780699972
 20
-3.867417781600011
 10
-7.955072463766654
 20
-3.776685313166673
 10
-7.93091787439998
 20
-3.632761522600006
 10
-7.906763285033306
 20
-3.475453836333343
 10
-7.882608695666633
 20
-3.305341810566673
 10
-7.858454106299959
 20
-3.123052175566677
 10
-7.834299516899974
 20
-2.929256526666677
 10
-7.810144927533301
 20
-2.724668849800004
 10
-7.785990338166627
 20
-2.510042891133338
  0
LWPOLYLINE
  5
22971
330
1F
100
AcDbEntity
  8
SK1
100
AcDbPolyline
 90
        9
 70
     0
 43
0.0
 10
-6.302898550733303
 20
2.510042891133331
 10
-6.278743961366657
 20
2.724668849799996
 10
-6.254589371999983
 20
2.929256526666662
 10
-6.230434782633309
 20
3.123052175566662
 10
-6.206280193233297
 20
3.305341810566659
 10
-6.182125603866651
 20
3.475453836333329
 10
-6.157971014499977
 20
3.632761522599992
 10
-6.133816425133304
 20
3.776685313166659
 10
-6.11724309299997
 20
3.867417861799992
  0
LWPOLYLINE
  5
22972
330
1F
100
AcDbEntity
  8
SK1
100
AcDbPolyline
 90
        9
 70
     0
 43
0.0
 10
-7.921365592999976
 20
-3.205684352033337
 10
-7.944287641866637
 20
-3.421298875400005
 10
-7.967228457799976
 20
-3.625724186533346
 10
-7.9902884402333
 20
-3.819066625533338
 10
-8.01353075919998
 20
-4.000959393200005
 10
-8.036892244666645
 20
-4.170030273566666
 10
-8.060283786066648
 20
-4.324919425433336
 10
-8.083715901599973
 20
-4.465094620200005
 10
-8.092202348466642
 20
-4.512067162600011
  0
LINE
  5
22973
330
1F
100
AcDbEntity
  8
SK1
100
AcDbLine
 10
-7.785990338166627
 20
-2.510042891133338
 30
0.0
 11
-7.737681159433307
 21
-2.053873116266665
 31
0.0
  0
LINE
  5
22974
330
1F
100
AcDbEntity
  8
SK1
100
AcDbLine
 10
-7.351207729466651
 20
2.053873116266657
 30
0.0
 11
-7.302898550733303
 21
2.510042891133331
 31
0.0
  0
LINE
  5
22975
330
1F
100
AcDbEntity
  8
SK1
100
AcDbLine
 10
-7.737681159433307
 20
-2.053873116266665
 30
0.0
 11
-7.689371980699988
 21
-1.567463531000001
 31
0.0
  0
LINE
  5
22976
330
1F
100
AcDbEntity
  8
SK1
100
AcDbLine
 10
-7.399516908233309
 20
1.567463530999987
 30
0.0
 11
-7.351207729466651
 21
2.053873116266657
 31
0.0
  0
LINE
  5
22977
330
1F
100
AcDbEntity
  8
SK1
100
AcDbLine
 10
-7.875558564933314
 20
-2.743686778433342
 30
0.0
 11
-7.921365592999976
 21
-3.205684352033337
 31
0.0
  0
LINE
  5
22978
330
1F
100
AcDbEntity
  8
SK1
100
AcDbLine
 10
-7.368758463966642
 20
3.19375725253333
 30
0.0
 11
-7.415228959366643
 21
2.723709653966665
 31
0.0
  0
LINE
  5
22979
330
1F
100
AcDbEntity
  8
SK1
100
AcDbLine
 10
-7.689371980699988
 20
-1.567463531000001
 30
0.0
 11
-7.616908212566627
 21
-0.7969113227333367
 31
0.0
  0
LINE
  5
2297A
330
1F
100
AcDbEntity
  8
SK1
100
AcDbLine
 10
-7.496135265699976
 20
0.5329109537666597
 30
0.0
 11
-7.399516908233309
 21
1.567463530999987
 31
0.0
  0
LINE
  5
2297B
330
1F
100
AcDbEntity
  8
SK1
100
AcDbLine
 10
-7.616908212566627
 20
-0.7969113227333367
 30
0.0
 11
-7.496135265699976
 21
0.5329109537666597
 31
0.0
  0
LINE
  5
2297C
330
1F
100
AcDbEntity
  8
SK1
100
AcDbLine
 10
-7.829569768333314
 20
-2.243323649800011
 30
0.0
 11
-7.875558564933314
 21
-2.743686778433342
 31
0.0
  0
LINE
  5
2297D
330
1F
100
AcDbEntity
  8
SK1
100
AcDbLine
 10
-7.415228959366643
 20
2.723709653966665
 30
0.0
 11
-7.46131545536663
 21
2.220875535600001
 31
0.0
  0
LINE
  5
2297E
330
1F
100
AcDbEntity
  8
SK1
100
AcDbLine
 10
-7.760301623199993
 20
-1.435417835566667
 30
0.0
 11
-7.829569768333314
 21
-2.243323649800011
 31
0.0
  0
LINE
  5
2297F
330
1F
100
AcDbEntity
  8
SK1
100
AcDbLine
 10
-7.46131545536663
 20
2.220875535600001
 30
0.0
 11
-7.530018980699978
 21
1.418174459533325
 31
0.0
  0
LWPOLYLINE
  5
22980
330
1F
100
AcDbEntity
  8
SK1
100
AcDbPolyline
 90
        3
 70
     0
 43
0.0
 10
-7.530018980699978
 20
1.418174459533325
 10
-7.645229451333293
 20
-0.0098646808333456
 10
-7.760301623199993
 20
-1.435417835566667
  0
LINE
  5
22981
330
1F
100
AcDbEntity
  8
SK1
100
AcDbLine
 10
-7.246686527966645
 20
-4.512067230133339
 30
0.0
 11
-7.267425444233296
 21
-4.400000000000005
 31
0.0
  0
LINE
  5
22982
330
1F
100
AcDbEntity
  8
SK1
100
AcDbLine
 10
-9.342202348466642
 20
4.512067162633329
 30
0.0
 11
-9.321461940499986
 21
4.399999999999991
 31
0.0
  0
LWPOLYLINE
  5
22983
330
1F
100
AcDbEntity
  8
SK1
100
AcDbPolyline
 90
        9
 70
     0
 43
0.0
 10
-7.246686527966645
 20
-4.512067230133339
 10
-7.232800527499975
 20
-4.584490050300004
 10
-7.209740233866639
 20
-4.692386953933336
 10
-7.186497297499997
 20
-4.785192573233338
 10
-7.163134991366646
 20
-4.862023957000005
 10
-7.139741788233308
 20
-4.922166318800009
 10
-7.116306833799981
 20
-4.965360908466671
 10
-7.092840982366638
 20
-4.991358327900009
 10
-7.069444322899968
 20
-5.000000000000007
  0
LWPOLYLINE
  5
22984
330
1F
100
AcDbEntity
  8
SK1
100
AcDbPolyline
 90
       17
 70
     0
 43
0.0
 10
-7.302898550733303
 20
2.510042891133331
 10
-7.278743961366657
 20
2.724668849799996
 10
-7.254589371999983
 20
2.929256526666662
 10
-7.230434782599971
 20
3.123052175566662
 10
-7.206280193233297
 20
3.305341810566659
 10
-7.182125603866651
 20
3.475453836333329
 10
-7.157971014499977
 20
3.632761522599992
 10
-7.133816425133304
 20
3.776685313166659
 10
-7.10966183576663
 20
3.906694960966653
 10
-7.085507246399956
 20
4.022311481733325
 10
-7.061352656999972
 20
4.123108918699983
 10
-7.037198067633298
 20
4.20871591183333
 10
-7.013043478266652
 20
4.278817066066665
 10
-6.988888888899978
 20
4.333154113266672
 10
-6.964734299533304
 20
4.371526863733336
 10
-6.940579710166659
 20
4.393793943799998
 10
-6.919444444466634
 20
4.399999999999991
  0
LWPOLYLINE
  5
22985
330
1F
100
AcDbEntity
  8
SK1
100
AcDbPolyline
 90
        9
 70
     0
 43
0.0
 10
-8.665140164266645
 20
3.228609079866657
 10
-8.642103009133322
 20
3.444124837033328
 10
-8.619033070166651
 20
3.648379942199994
 10
-8.595939185199981
 20
3.84056602493333
 10
-8.572802377899975
 20
4.020138418933321
 10
-8.549641624599971
 20
4.18628580899999
 10
-8.52652269236664
 20
4.337991397666669
 10
-8.503497444866624
 20
4.474530373433331
 10
-8.496686527966645
 20
4.512067230133325
  0
LINE
  5
22986
330
1F
100
AcDbEntity
  8
SK1
100
AcDbLine
 10
-9.290470831733316
 20
-2.550577049300002
 30
0.0
 11
-9.242851900599973
 21
-2.10426659443334
 31
0.0
  0
LINE
  5
22987
330
1F
100
AcDbEntity
  8
SK1
100
AcDbLine
 10
-8.861900451633303
 20
1.948572412133323
 30
0.0
 11
-8.814281520499989
 21
2.405643880966657
 31
0.0
  0
LINE
  5
22988
330
1F
100
AcDbEntity
  8
SK1
100
AcDbLine
 10
-9.242851900599973
 20
-2.10426659443334
 30
0.0
 11
-9.195232969499969
 21
-1.627852338766672
 31
0.0
  0
LINE
  5
22989
330
1F
100
AcDbEntity
  8
SK1
100
AcDbLine
 10
-9.223348673566633
 20
-3.224768823366673
 30
0.0
 11
-9.176733139699976
 21
-2.756014207500001
 31
0.0
  0
LINE
  5
2298A
330
1F
100
AcDbEntity
  8
SK1
100
AcDbLine
 10
-8.711061897499988
 20
2.767472834066659
 30
0.0
 11
-8.665140164266645
 21
3.228609079866657
 31
0.0
  0
LINE
  5
2298B
330
1F
100
AcDbEntity
  8
SK1
100
AcDbLine
 10
-8.909519382733307
 20
1.463624515499986
 30
0.0
 11
-8.861900451633303
 21
1.948572412133323
 31
0.0
  0
LINE
  5
2298C
330
1F
100
AcDbEntity
  8
SK1
100
AcDbLine
 10
-9.195232969499969
 20
-1.627852338766672
 30
0.0
 11
-9.123804572799983
 21
-0.8717893652666717
 31
0.0
  0
LINE
  5
2298D
330
1F
100
AcDbEntity
  8
SK1
100
AcDbLine
 10
-8.757070170733285
 20
2.268544663699998
 30
0.0
 11
-8.711061897499988
 21
2.767472834066659
 31
0.0
  0
LINE
  5
2298E
330
1F
100
AcDbEntity
  8
SK1
100
AcDbLine
 10
-9.176733139699976
 20
-2.756014207500001
 30
0.0
 11
-9.129848561666662
 21
-2.24645410636667
 31
0.0
  0
LWPOLYLINE
  5
2298F
330
1F
100
AcDbEntity
  8
SK1
100
AcDbPolyline
 90
        3
 70
     0
 43
0.0
 10
-9.123804572799983
 20
-0.8717893652666717
 10
-9.028566710566636
 20
0.1755358336666575
 10
-8.909519382733307
 20
1.463624515499986
  0
LINE
  5
22990
330
1F
100
AcDbEntity
  8
SK1
100
AcDbLine
 10
-9.129848561666662
 20
-2.24645410636667
 30
0.0
 11
-9.082883784966654
 21
-1.704791122633345
 31
0.0
  0
LINE
  5
22991
330
1F
100
AcDbEntity
  8
SK1
100
AcDbLine
 10
-8.826658151566633
 20
1.458622384299985
 30
0.0
 11
-8.757070170733285
 21
2.268544663699998
 31
0.0
  0
LINE
  5
22992
330
1F
100
AcDbEntity
  8
SK1
100
AcDbLine
 10
-9.082883784966654
 20
-1.704791122633345
 30
0.0
 11
-9.01310179269997
 21
-0.8584985188666749
 31
0.0
  0
LINE
  5
22993
330
1F
100
AcDbEntity
  8
SK1
100
AcDbLine
 10
-9.01310179269997
 20
-0.8584985188666749
 30
0.0
 11
-8.826658151566633
 21
1.458622384299985
 31
0.0
  0
LWPOLYLINE
  5
22994
330
1F
100
AcDbEntity
  8
SK1
100
AcDbPolyline
 90
        9
 70
     0
 43
0.0
 10
-8.496686527966645
 20
4.512067230133325
 10
-8.480514018466621
 20
4.595882297333325
 10
-8.45748258903329
 20
4.702108819299994
 10
-8.434343409633314
 20
4.792970662733338
 10
-8.411156227199981
 20
4.867765020599989
 10
-8.388010458499977
 20
4.925943610399997
 10
-8.364942737499987
 20
4.967345980133323
 10
-8.341916430199987
 20
4.992027634799995
 10
-8.319443717633291
 20
4.999999999999985
  0
LINE
  5
22995
330
1F
100
AcDbEntity
  8
SK1
100
AcDbLine
 10
-8.623805795999984
 20
3.832283441233329
 30
0.0
 11
-8.496686527966645
 21
4.512067230133325
 31
0.0
  0
LWPOLYLINE
  5
22996
330
1F
100
AcDbEntity
  8
SK1
100
AcDbPolyline
 90
        9
 70
     0
 43
0.0
 10
-8.814281520499989
 20
2.405643880966657
 10
-8.790472054933317
 20
2.621664367666653
 10
-8.766662589366646
 20
2.82830002226666
 10
-8.742853123799974
 20
3.02481114633332
 10
-8.719043658233303
 20
3.210494284533325
 10
-8.695234192666632
 20
3.384684742599993
 10
-8.671424727133327
 20
3.546758967033326
 10
-8.647615261566627
 20
3.696136776966653
 10
-8.623805795999984
 20
3.832283441233329
  0
LWPOLYLINE
  5
22997
330
1F
100
AcDbEntity
  8
SK1
100
AcDbPolyline
 90
       17
 70
     0
 43
0.0
 10
-9.872759918066648
 20
3.154907418499988
 10
-9.84952890129999
 20
3.375881230166662
 10
-9.826297863033303
 20
3.585350406899991
 10
-9.803066827233308
 20
3.7826008583
 10
-9.779835763566651
 20
3.966960600299984
 10
-9.756604702299981
 20
4.137801080599984
 10
-9.733373758399963
 20
4.294539346599997
 10
-9.710143002133307
 20
4.436641056366667
 10
-9.686912363233304
 20
4.563622666833332
 10
-9.663681745733285
 20
4.675052105299982
 10
-9.640451056133301
 20
4.770550034866658
 10
-9.617220387933301
 20
4.849790576966654
 10
-9.593989925966624
 20
4.912503304999987
 10
-9.570759728099986
 20
4.958474856633323
 10
-9.547529736499981
 20
4.987549199033331
 10
-9.524299962099959
 20
4.999627706533331
 10
-9.519444414133303
 20
4.999999999999985
  0
LINE
  5
22998
330
1F
100
AcDbEntity
  8
SK1
100
AcDbLine
 10
-10.29046904549999
 20
-2.550560953566673
 30
0.0
 11
-10.24285015319996
 21
-2.104249623866678
 31
0.0
  0
LINE
  5
22999
330
1F
100
AcDbEntity
  8
SK1
100
AcDbLine
 10
-9.861899014866637
 20
1.948586657466663
 30
0.0
 11
-9.814280122566643
 21
2.405656824766666
 31
0.0
  0
LINE
  5
2299A
330
1F
100
AcDbEntity
  8
SK1
100
AcDbLine
 10
-10.24285015319996
 20
-2.104249623866678
 30
0.0
 11
-10.19523126089997
 21
-1.627834785166669
 31
0.0
  0
LINE
  5
2299B
330
1F
100
AcDbEntity
  8
SK1
100
AcDbLine
 10
-9.909517907133292
 20
1.46363990399999
 30
0.0
 11
-9.861899014866637
 21
1.948586657466663
 31
0.0
  0
LINE
  5
2299C
330
1F
100
AcDbEntity
  8
SK1
100
AcDbLine
 10
-9.919221794066643
 20
2.681495906699993
 30
0.0
 11
-9.872759918066648
 21
3.154907418499988
 31
0.0
  0
LINE
  5
2299D
330
1F
100
AcDbEntity
  8
SK1
100
AcDbLine
 10
-10.40707299256662
 20
-3.065811511433338
 30
0.0
 11
-10.36061232763329
 21
-2.584771677066676
 31
0.0
  0
LINE
  5
2299E
330
1F
100
AcDbEntity
  8
SK1
100
AcDbLine
 10
-10.19523126089997
 20
-1.627834785166669
 30
0.0
 11
-10.12380292246665
 21
-0.8717714769666713
 31
0.0
  0
LWPOLYLINE
  5
2299F
330
1F
100
AcDbEntity
  8
SK1
100
AcDbPolyline
 90
        3
 70
     0
 43
0.0
 10
-10.12380292246665
 20
-0.8717714769666713
 10
-10.02856513786663
 20
0.1755532110999951
 10
-9.909517907133292
 20
1.46363990399999
  0
LINE
  5
229A0
330
1F
100
AcDbEntity
  8
SK1
100
AcDbLine
 10
-9.965683964166643
 20
2.171558877033326
 30
0.0
 11
-9.919221794066643
 21
2.681495906699993
 31
0.0
  0
LINE
  5
229A1
330
1F
100
AcDbEntity
  8
SK1
100
AcDbLine
 10
-10.36061232763329
 20
-2.584771677066676
 30
0.0
 11
-10.31415056953331
 21
-2.068516372500006
 31
0.0
  0
LINE
  5
229A2
330
1F
100
AcDbEntity
  8
SK1
100
AcDbLine
 10
-10.03537810993332
 20
1.353468665199997
 30
0.0
 11
-9.965683964166643
 21
2.171558877033326
 31
0.0
  0
LINE
  5
229A3
330
1F
100
AcDbEntity
  8
SK1
100
AcDbLine
 10
-10.31415056953331
 20
-2.068516372500006
 30
0.0
 11
-10.2444579769333
 21
-1.243614146800013
 31
0.0
  0
LWPOLYLINE
  5
229A4
330
1F
100
AcDbEntity
  8
SK1
100
AcDbPolyline
 90
        3
 70
     0
 43
0.0
 10
-10.2444579769333
 20
-1.243614146800013
 10
-10.15153512546665
 20
-0.0890994091333397
 10
-10.03537810993332
 20
1.353468665199997
  0
LINE
  5
229A5
330
1F
100
AcDbEntity
  8
SK1
100
AcDbLine
 10
-10.49998888009996
 20
-3.896602263366673
 30
0.0
 11
-10.49998888009996
 21
4.999999999999985
 31
0.0
  0
LWPOLYLINE
  5
229A6
330
1F
100
AcDbEntity
  8
SK1
100
AcDbPolyline
 90
       10
 70
     0
 43
0.0
 10
-9.767425444199986
 20
-4.400000000000005
 10
-9.743077742899984
 20
-4.531421096133335
 10
-9.721086729366632
 20
-4.641245658133342
 10
-9.699093028033317
 20
-4.736906974033338
 10
-9.677079350599981
 20
-4.818165640733333
 10
-9.655062985333316
 20
-4.884686822366674
 10
-9.632990842633304
 20
-4.936367603833339
 10
-9.610818577166625
 20
-4.972992388900003
 10
-9.588590534233318
 20
-4.994212431966673
 10
-9.569440403966652
 20
-4.999999999733333
  0
LINE
  5
229A7
330
1F
100
AcDbEntity
  8
SK1
100
AcDbLine
 10
-12.00000028433332
 20
-3.499991931766672
 30
0.0
 11
-10.73095086576664
 21
-4.769038527966671
 31
0.0
  0
LINE
  5
229A8
330
1F
100
AcDbEntity
  8
SK1
100
AcDbLine
 10
-12.00000028433332
 20
3.499991931766658
 30
0.0
 11
-11.09999021446664
 21
4.399999999999991
 31
0.0
  0
LINE
  5
229A9
330
1F
100
AcDbEntity
  8
SK1
100
AcDbLine
 10
-10.88333538679997
 20
4.616654345833318
 30
0.0
 11
-10.49998888009996
 21
4.999999999999985
 31
0.0
  0
LWPOLYLINE
  5
229AA
330
1F
100
AcDbEntity
  8
SK1
100
AcDbPolyline
 90
        6
 70
     0
 43
0.0
 10
-10.88331743866665
 20
4.616672290666656
 10
-10.8979460392333
 20
4.599889239833316
 10
-10.92308625549996
 20
4.56105091949999
 10
-10.9482595245333
 20
4.509715072999995
 10
-10.97346584533331
 20
4.446114912966663
 10
-10.99870521889998
 20
4.370518850966661
  0
LWPOLYLINE
  5
229AB
330
1F
100
AcDbEntity
  8
SK1
100
AcDbPolyline
 90
        8
 70
     0
 43
0.0
 10
-10.57696169089995
 20
-4.429666399000012
 10
-10.58537441736665
 20
-4.473643120133345
 10
-10.59972299346664
 20
-4.541963537200004
 10
-10.61409910379997
 20
-4.601899097400007
 10
-10.62846167106663
 20
-4.653207503300002
 10
-10.64279700286663
 20
-4.69583376846667
 10
-10.65711879159998
 20
-4.72982860383334
 10
-10.67142703733331
 20
-4.755205514066666
  0
LINE
  5
229AC
330
1F
100
AcDbEntity
  8
SK1
100
AcDbLine
 10
-10.47164578069997
 20
-3.867417781600011
 30
0.0
 11
-10.57696169089995
 21
-4.429666399000012
 31
0.0
  0
LWPOLYLINE
  5
229AD
330
1F
100
AcDbEntity
  8
SK1
100
AcDbPolyline
 90
        9
 70
     0
 43
0.0
 10
-10.47164578069997
 20
-3.867417781600011
 10
-10.4571351685333
 20
-3.788338105066671
 10
-10.43332572236663
 20
-3.647718254000011
 10
-10.4095162762333
 20
-3.494040603466672
 10
-10.38570683006664
 20
-3.327855275966676
 10
-10.36189738393331
 20
-3.149757167966669
 10
-10.33808793779998
 20
-2.960383820300002
 10
-10.31427849163331
 20
-2.760413136033335
 10
-10.29046904549999
 20
-2.550560953566673
  0
LWPOLYLINE
  5
229AE
330
1F
100
AcDbEntity
  8
SK1
100
AcDbPolyline
 90
        6
 70
     0
 43
0.0
 10
-10.51413831566664
 20
-4.011814859400004
 10
-10.52832034619997
 20
-4.119665079433339
 10
-10.54253497163329
 20
-4.219953359566673
 10
-10.55678387886665
 20
-4.312503234466674
 10
-10.57106538099997
 20
-4.39712845066667
 10
-10.57696169089995
 20
-4.429666399000012
  0
LWPOLYLINE
  5
229AF
330
1F
100
AcDbEntity
  8
SK1
100
AcDbPolyline
 90
        5
 70
     0
 43
0.0
 10
-10.51413831566664
 20
-4.011814859400004
 10
-10.47676063269996
 20
-3.707159287133336
 10
-10.45353191409997
 20
-3.505081298433339
 10
-10.43030272429998
 20
-3.291056084633339
 10
-10.40707299256662
 20
-3.065811511433338
  0
LWPOLYLINE
  5
229B0
330
1F
100
AcDbEntity
  8
SK1
100
AcDbPolyline
 90
       18
 70
     0
 43
0.0
 10
-9.814280122566643
 20
2.405656824766666
 10
-9.790470676399976
 20
2.621676610400001
 10
-9.766661230266649
 20
2.82831153539999
 10
-9.742851784133321
 20
3.024821905199999
 10
-9.719042337966627
 20
3.210504268233329
 10
-9.695232891833299
 20
3.384693934166662
 10
-9.671423445666633
 20
3.546767353266659
 10
-9.647613999533305
 20
3.696144348599993
 10
-9.623804553399949
 20
3.832290192699986
 10
-9.599995107233311
 20
3.954717521999995
 10
-9.576185661099984
 20
4.062988081299998
 10
-9.552376214933318
 20
4.156714292633324
 10
-9.528566768799962
 20
4.23556064263333
 10
-9.504757322666634
 20
4.299244883666659
 10
-9.480947876499968
 20
4.347539044233329
 10
-9.45713843036664
 20
4.380270244866665
 10
-9.433328984199974
 20
4.397321317099986
 10
-9.419444444466634
 20
4.399999999999991
  0
LINE
  5
229B1
330
1F
100
AcDbEntity
  8
SK1
100
AcDbLine
 10
-11.09999021446664
 20
4.399999999999991
 30
0.0
 11
-11.09999021446664
 21
3.954741239699998
 31
0.0
  0
LWPOLYLINE
  5
229B2
330
1F
100
AcDbEntity
  8
SK1
100
AcDbPolyline
 90
        5
 70
     0
 43
0.0
 10
-10.99870521889998
 20
4.370518850966661
 10
-11.02397737013329
 20
4.283230682799988
 10
-11.04928220726664
 20
4.184587358366655
 10
-11.07461982206665
 20
4.074957503533326
 10
-11.09999021446664
 20
3.954741239699998
  0
LINE
  5
229B3
330
1F
100
AcDbEntity
  8
SK1
100
AcDbLine
 10
-11.99999999999998
 20
-3.499991645966673
 30
0.0
 11
-11.99999999999998
 21
3.499991645966659
 31
0.0
  0
ARC
  5
229B4
330
1F
100
AcDbEntity
  8
1
100
AcDbCircle
 10
3.000000000000014
 20
-8.100000000000001
 30
0.0
 40
0.5
100
AcDbArc
 50
29.99999999999756
 51
90.0
  0
ARC
  5
229B5
330
1F
100
AcDbEntity
  8
1
100
AcDbCircle
 10
3.000000000000014
 20
8.099999999999987
 30
0.0
 40
0.5
100
AcDbArc
 50
270.0
 51
330.0000000000025
  0
ARC
  5
229B6
330
1F
100
AcDbEntity
  8
1
100
AcDbCircle
 10
2.300000000000025
 20
6.231296072033323
 30
0.0
 40
0.4
100
AcDbArc
 50
180.0
 51
270.0
  0
ELLIPSE
  5
229B7
330
1F
100
AcDbEntity
  8
1
100
AcDbEllipse
 10
4.300000000000025
 20
1.605332360133324
 30
0.0
 11
0.6251538293666667
 21
3.582563777299999
 31
0.0
210
0.0
220
0.0
230
-1.0
 40
0.1393365343
 41
-2.8246069979
 42
-2.4677702504
  0
ELLIPSE
  5
229B8
330
1F
100
AcDbEntity
  8
1
100
AcDbEllipse
 10
18.97333736970004
 20
-0.0000000000000142
 30
0.0
 11
-11.03094544236666
 21
5.750662960899997
 31
0.0
210
0.0
220
0.0
230
-1.0
 40
0.5041692447
 41
0.5572434262
 42
0.5781942946000001
  0
ELLIPSE
  5
229B9
330
1F
100
AcDbEntity
  8
1
100
AcDbEllipse
 10
9.300538512766721
 20
2.996099497233323
 30
0.0
 11
0.0
 21
2.298133329366665
 31
0.0
210
0.0
220
0.0
230
-1.0
 40
0.6527036447
 41
-3.5088006741
 42
-3.1415926536
  0
ELLIPSE
  5
229BA
330
1F
100
AcDbEntity
  8
1
100
AcDbEllipse
 10
9.300538512766721
 20
-6.046709007300009
 30
0.0
 11
0.0
 21
4.319077862366665
 31
0.0
210
0.0
220
0.0
230
-1.0
 40
0.3472963553
 41
0.0
 42
0.3672080206
  0
ELLIPSE
  5
229BB
330
1F
100
AcDbEntity
  8
1
100
AcDbEllipse
 10
9.300538512766721
 20
-3.699688424166666
 30
0.0
 11
-1.499999999999999
 21
0.0
 31
0.0
210
0.0
220
0.0
230
-1.0
 40
0.1847925309
 41
-1.9325229841
 42
-1.5707963268
  0
ELLIPSE
  5
229BC
330
1F
100
AcDbEntity
  8
1
100
AcDbEllipse
 10
4.300000000000025
 20
-3.810563942699999
 30
0.0
 11
-0.7999999999999999
 21
0.0
 31
0.0
210
0.0
220
0.0
230
-1.0
 40
0.1847925309
 41
-1.315120607199999
 42
-0.8956647938999999
  0
ELLIPSE
  5
229BD
330
1F
100
AcDbEntity
  8
1
100
AcDbEllipse
 10
9.831373033400055
 20
0.2336441162333287
 30
0.0
 11
0.0
 21
4.192042083666665
 31
0.0
210
0.0
220
0.0
230
-1.0
 40
0.9541888940999999
 41
-4.146052985799999
 42
-3.143513144799999
  0
ELLIPSE
  5
229BE
330
1F
100
AcDbEntity
  8
1
100
AcDbEllipse
 10
9.831373033400055
 20
-0.2538566529666753
 30
0.0
 11
-3.999999999999999
 21
0.0
 31
0.0
210
0.0
220
0.0
230
-1.0
 40
0.5077133059000002
 41
-3.084576649999999
 42
-3.0162648224
  0
ELLIPSE
  5
229BF
330
1F
100
AcDbEntity
  8
1
100
AcDbEllipse
 10
7.356398524700026
 20
-0.0000000000000142
 30
0.0
 11
2.966270042299999
 21
7.239449545066665
 31
0.0
210
0.0
220
0.0
230
-1.0
 40
0.7797964145999998
 41
-2.5956495824
 42
-1.235826422699999
  0
ELLIPSE
  5
229C0
330
1F
100
AcDbEntity
  8
1
100
AcDbEllipse
 10
3.800000000000025
 20
-6.02885282983334
 30
0.0
 11
-1.336174786166665
 21
1.853875218466665
 31
0.0
210
0.0
220
0.0
230
-1.0
 40
0.8027323601
 41
-0.5377950457000001
 42
0.6065065277000001
  0
ELLIPSE
  5
229C1
330
1F
100
AcDbEntity
  8
1
100
AcDbEllipse
 10
4.300000000000025
 20
-1.425487967266676
 30
0.0
 11
-0.5832472869333331
 21
2.143418976766665
 31
0.0
210
0.0
220
0.0
230
-1.0
 40
0.2554612972000001
 41
-0.7538500506999999
 42
-0.3970133033
  0
ELLIPSE
  5
229C2
330
1F
100
AcDbEntity
  8
1
100
AcDbEllipse
 10
3.800000000000025
 20
6.945518594899994
 30
0.0
 11
-1.533782503633333
 21
-1.581463976899999
 31
0.0
210
0.0
220
0.0
230
-0.9999999999999998
 40
0.8116240136999998
 41
-0.7488542008
 42
-0.5889476305
  0
ELLIPSE
  5
229C3
330
1F
100
AcDbEntity
  8
1
100
AcDbEllipse
 10
7.803334259766714
 20
-0.7297372194000005
 30
0.0
 11
-5.999999999999998
 21
0.0
 31
0.0
210
0.0
220
0.0
230
-1.0
 40
0.8845519309
 41
2.839127451199999
 42
2.976719887499999
  0
ELLIPSE
  5
229C4
330
1F
100
AcDbEntity
  8
1
100
AcDbEllipse
 10
4.699461487233364
 20
-6.046709007300009
 30
0.0
 11
0.0
 21
4.319077862366665
 31
0.0
210
0.0
220
0.0
230
-1.0
 40
0.3472963553
 41
-0.2695603179
 42
0.0
  0
ELLIPSE
  5
229C5
330
1F
100
AcDbEntity
  8
1
100
AcDbEllipse
 10
4.699461487233364
 20
-3.699688424166666
 30
0.0
 11
-1.499999999999999
 21
0.0
 31
0.0
210
0.0
220
0.0
230
-1.0
 40
0.1847925309
 41
-1.5707963268
 42
-1.157983726599999
  0
ELLIPSE
  5
229C6
330
1F
100
AcDbEntity
  8
1
100
AcDbEllipse
 10
4.699461487233364
 20
2.996099497233323
 30
0.0
 11
0.0
 21
2.298133329366665
 31
0.0
210
0.0
220
0.0
230
-1.0
 40
0.6527036447
 41
-3.1415926536
 42
-2.8720323356
  0
DIMENSION
  5
229C7
330
1F
100
AcDbEntity
  8
SK2
100
AcDbDimension
  2
*D36
 10
-12.00000028433332
 20
27.9814159770903
 30
0.0
 11
3.398703343300014
 21
29.88290578735031
 31
0.0
 70
    32
 71
     5
 42
30.79740725526668
 73
     0
 74
     0
 75
     0
  3
STANDARD
100
AcDbAlignedDimension
 13
18.79740697093335
 23
0.0458656893999887
 33
0.0
 14
-12.00000028433332
 24
3.499991931766658
 34
0.0
 50
180.0
100
AcDbRotatedDimension
1001
ACAD
1000
DSTYLE
1002
{
1070
    41
1040
2.5
1002
}
  0
LWPOLYLINE
  5
229C8
330
1F
100
AcDbEntity
  8
CUT
100
AcDbPolyline
 90
       28
 70
     1
 43
0.0
 10
18.80000000000002
 20
-0.0000000000000071
 10
18.79939151202826
 20
0.0574327727666599
 10
18.79939554219494
 20
0.0691495468999932
 10
18.79867688976164
 20
0.0811105037999909
 10
18.79726284952831
 20
0.0935991195666617
 10
18.79511383269495
 20
0.1066853154666631
 10
18.79226942806163
 20
0.1202991701666605
 10
18.78887569662829
 20
0.1345143958999913
 10
18.78493074429498
 20
0.149367509966666
 10
18.78043646519497
 20
0.1648219949999969
 10
18.77554460259496
 20
0.180842011299994
 10
18.77027641599496
 20
0.1974212315000017
 10
18.76461064589496
 20
0.2145659829666613
 10
18.75863525719497
 20
0.2322594077999938
 10
18.75236814466162
 20
0.2504882297333211
 10
18.73893934416163
 20
0.2886148648999978
 10
18.72441905356165
 20
0.3290384660999948
 10
18.70070059206161
 20
0.3939958615999899
 10
18.64645239949495
 20
0.5401538001666637
 10
18.57121984876165
 20
0.7406222661333289
 10
18.50961882519495
 20
0.8045462670333307
 10
18.37716777482832
 20
0.9406282025999956
 10
18.23246436169496
 20
1.087569987666654
 10
17.98503749809494
 20
1.336178382633327
 10
11.32121954199495
 20
7.999999999999985
 10
3.520863972328314
 20
7.999999999999985
 10
3.434261431961616
 20
7.849999999999987
 10
3.434261431961559
 20
-0.0000000000000071
  0
LWPOLYLINE
  5
229C9
330
1F
100
AcDbEntity
  8
NOCUT
100
AcDbPolyline
 90
        6
 70
     0
 43
0.0
 10
0.0000000000000142
 20
7.599983121199976
 10
0.0000000000000142
 20
-0.0000000000000071
 10
3.433012701900011
 20
-0.0000000000000142
 10
3.433012701892224
 20
7.849999999999987
 42
-0.2679491924311327
 10
3.000000000000014
 20
7.599999999999972
 10
0.0000000000000142
 20
7.599999999999972
  0
VIEWPORT
  5
9C00
330
1B
100
AcDbEntity
 67
     1
  8
0
100
AcDbViewport
 10
108.2280559557949
 20
71.69854161746989
 30
0.0
 40
251.8950231529317
 41
201.8884082081047
 68
     1
 69
     1
 12
108.2280559557949
 22
71.69854161746989
 13
0.0
 23
0.0
 14
10.0
 24
10.0
 15
10.0
 25
10.0
 16
0.0
 26
0.0
 36
1.0
 17
0.0
 27
0.0
 37
0.0
 42
50.0
 43
0.0
 44
0.0
 45
201.8884082081047
 50
0.0
 51
0.0
 72
   100
 90
   557088
  1

281
     0
 71
     1
 74
     0
110
0.0
120
0.0
130
0.0
111
1.0
121
0.0
131
0.0
112
0.0
122
1.0
132
0.0
 79
     0
146
0.0
170
     0
 61
     5
292
     1
282
     1
141
0.0
142
0.0
 63
   250
421
  3355443
  0
VIEWPORT
  5
9C02
330
1B
100
AcDbEntity
 67
     1
  8
1
100
AcDbViewport
 10
143.457083940506
 20
98.18158769607544
 30
0.0
 40
229.5313343048095
 41
157.0905403137207
 68
     2
 69
     2
 12
-44.37697124786255
 22
-35.12342998133886
 13
0.0
 23
0.0
 14
10.0
 24
10.0
 15
10.0
 25
10.0
 16
0.0
 26
0.0
 36
1.0
 17
0.0
 27
0.0
 37
0.0
 42
50.0
 43
0.0
 44
0.0
 45
300.3886240724386
 50
0.0
 51
0.0
 72
   100
 90
   557088
  1

281
     0
 71
     1
 74
     0
110
0.0
120
0.0
130
0.0
111
1.0
121
0.0
131
0.0
112
0.0
122
1.0
132
0.0
 79
     0
146
0.0
170
     0
 61
     5
348
3195
292
     1
282
     1
141
0.0
142
0.0
 63
   250
421
  3355443
  0
ENDSEC
  0
SECTION
  2
OBJECTS
  0
DICTIONARY
  5
3182
330
0
100
AcDbDictionary
281
     1
  3
ACAD_CIP_PREVIOUS_PRODUCT_INFO
350
1B2F4
  3
ACAD_COLOR
350
31A0
  3
ACAD_DETAILVIEWSTYLE
350
1B2F0
  3
ACAD_FIELDLIST
350
20CBF
  3
ACAD_GROUP
350
3183
  3
ACAD_LAYOUT
350
31A5
  3
ACAD_MATERIAL
350
318B
  3
ACAD_MLEADERSTYLE
350
1B221
  3
ACAD_MLINESTYLE
350
3184
  3
ACAD_PLOTSETTINGS
350
31A4
  3
ACAD_PLOTSTYLENAME
350
3189
  3
ACAD_SCALELIST
350
1B1FC
  3
ACAD_SECTIONVIEWSTYLE
350
1B2EE
  3
ACAD_TABLESTYLE
350
31A1
  3
ACAD_VISUALSTYLE
350
318F
  3
ACDB_RECOMPOSE_DATA
350
22A68
  3
AcDbVariableDictionary
350
33A3
  0
DICTIONARY
  5
422A
330
2
100
AcDbDictionary
280
     1
281
     1
  3
ACAD_LAYERFILTERS
360
1B063
  3
ACAD_LAYERSTATES
360
9A1C
  3
ACLYDICTIONARY
360
1B062
  0
DICTIONARY
  5
1B2F5
330
10
100
AcDbDictionary
280
     1
281
     1
  3
ADSK_XREC_LAYER_RECONCILED
360
21B8E
  0
DICTIONARY
  5
1B2F7
330
3F8C
100
AcDbDictionary
280
     1
281
     1
  3
ADSK_XREC_LAYER_RECONCILED
360
21B8F
  0
DICTIONARY
  5
1B2F9
330
9C4A
100
AcDbDictionary
280
     1
281
     1
  3
ADSK_XREC_LAYER_RECONCILED
360
21B90
  0
DICTIONARY
  5
1B2FB
330
9C4B
100
AcDbDictionary
280
     1
281
     1
  3
ADSK_XREC_LAYER_RECONCILED
360
21B91
  0
DICTIONARY
  5
1B2FD
330
9C4D
100
AcDbDictionary
280
     1
281
     1
  3
ADSK_XREC_LAYER_RECONCILED
360
21B92
  0
DICTIONARY
  5
1B2FF
330
9C4E
100
AcDbDictionary
280
     1
281
     1
  3
ADSK_XREC_LAYER_RECONCILED
360
21B93
  0
DICTIONARY
  5
1B301
330
9C4F
100
AcDbDictionary
280
     1
281
     1
  3
ADSK_XREC_LAYER_RECONCILED
360
21B94
  0
DICTIONARY
  5
1B303
330
9C50
100
AcDbDictionary
280
     1
281
     1
  3
ADSK_XREC_LAYER_RECONCILED
360
21B95
  0
DICTIONARY
  5
1B305
330
9C51
100
AcDbDictionary
280
     1
281
     1
  3
ADSK_XREC_LAYER_RECONCILED
360
21B96
  0
DICTIONARY
  5
1B307
330
13335
100
AcDbDictionary
280
     1
281
     1
  3
ADSK_XREC_LAYER_RECONCILED
360
21B97
  0
DICTIONARY
  5
1B309
330
1686E
100
AcDbDictionary
280
     1
281
     1
  3
ADSK_XREC_LAYER_RECONCILED
360
21B98
  0
DICTIONARY
  5
339C
330
1F
100
AcDbDictionary
280
     1
281
     1
  3
ACAD_SORTENTS
360
339D
  0
DICTIONARY
  5
1DE81
330
1B3D7
100
AcDbDictionary
280
     1
281
     1
  0
XRECORD
  5
1B2F4
102
{ACAD_REACTORS
330
3182
102
}
330
3182
100
AcDbXrecord
280
     1
300
ACDLT
300
2015
300
ACDLT_F_S
  0
DICTIONARY
  5
31A0
102
{ACAD_REACTORS
330
3182
102
}
330
3182
100
AcDbDictionary
281
     1
  0
DICTIONARY
  5
1B2F0
102
{ACAD_REACTORS
330
3182
102
}
330
3182
100
AcDbDictionary
281
     1
  3
Imperial24
350
20CB3
  3
Metric50
350
1B2F1
  0
FIELDLIST
  5
20CBF
102
{ACAD_REACTORS
330
3182
102
}
330
3182
100
AcDbIdSet
 90
        0
100
AcDbFieldList
  0
DICTIONARY
  5
3183
102
{ACAD_REACTORS
330
3182
102
}
330
3182
100
AcDbDictionary
281
     1
  0
DICTIONARY
  5
31A5
102
{ACAD_REACTORS
330
3182
102
}
330
3182
100
AcDbDictionary
281
     1
  3
Layout1
350
31A7
  3
Model
350
31A6
  0
DICTIONARY
  5
318B
102
{ACAD_REACTORS
330
3182
102
}
330
3182
100
AcDbDictionary
281
     1
  3
ByBlock
350
318D
  3
ByLayer
350
318C
  3
Global
350
318E
  0
DICTIONARY
  5
1B221
102
{ACAD_REACTORS
330
3182
102
}
330
3182
100
AcDbDictionary
281
     1
  3
Standard
350
1B2ED
  0
DICTIONARY
  5
3184
102
{ACAD_REACTORS
330
3182
102
}
330
3182
100
AcDbDictionary
281
     1
  3
STANDARD
350
3185
  0
DICTIONARY
  5
31A4
102
{ACAD_REACTORS
330
3182
102
}
330
3182
100
AcDbDictionary
281
     1
  0
ACDBDICTIONARYWDFLT
  5
3189
102
{ACAD_REACTORS
330
3182
102
}
330
3182
100
AcDbDictionary
281
     1
  3
Normal
350
318A
100
AcDbDictionaryWithDefault
340
318A
  0
DICTIONARY
  5
1B1FC
102
{ACAD_REACTORS
330
3182
102
}
330
3182
100
AcDbDictionary
281
     1
  3
A0
350
1B1FD
  3
A1
350
1B1FE
  3
A2
350
1B1FF
  3
A3
350
1B200
  3
A4
350
1B201
  3
A5
350
1B202
  3
A6
350
1B203
  3
A7
350
1B204
  3
A8
350
1B205
  3
A9
350
1B206
  3
B0
350
1B207
  3
B1
350
1B208
  3
B2
350
1B209
  3
B3
350
1B20A
  3
B4
350
1B20B
  3
B5
350
1B20C
  3
B6
350
1B20D
  3
B7
350
1B20E
  3
B8
350
1B20F
  3
B9
350
1B210
  3
C0
350
1B211
  3
C1
350
1B212
  3
C2
350
1B213
  3
C3
350
1B214
  3
C4
350
1B215
  3
C5
350
1B216
  3
C6
350
1B217
  3
C7
350
1B218
  3
C8
350
1B219
  3
C9
350
1B21A
  3
D0
350
1B21B
  3
D1
350
1B21C
  3
D2
350
1B21D
  0
DICTIONARY
  5
1B2EE
102
{ACAD_REACTORS
330
3182
102
}
330
3182
100
AcDbDictionary
281
     1
  3
Imperial24
350
20CB1
  3
Metric50
350
1B2EF
  0
DICTIONARY
  5
31A1
102
{ACAD_REACTORS
330
3182
102
}
330
3182
100
AcDbDictionary
281
     1
  3
Standard
350
31A2
  0
DICTIONARY
  5
318F
102
{ACAD_REACTORS
330
3182
102
}
330
3182
100
AcDbDictionary
281
     1
  3
2dWireframe
350
3195
  3
3D Hidden
350
3197
  3
3dWireframe
350
3196
  3
Basic
350
3194
  3
Brighten
350
319B
  3
ColorChange
350
319F
  3
Conceptual
350
3198
  3
Dim
350
319A
  3
EdgeColorOff
350
1B2EC
  3
Facepattern
350
319E
  3
Flat
350
3190
  3
FlatWithEdges
350
3191
  3
Gouraud
350
3192
  3
GouraudWithEdges
350
3193
  3
Hidden
350
1B2E4
  3
JitterOff
350
1B2EA
  3
Linepattern
350
319D
  3
OverhangOff
350
1B2EB
  3
Realistic
350
3199
  3
Shaded
350
1B2E9
  3
Shaded with edges
350
1B2E8
  3
Shades of Gray
350
1B2E5
  3
Sketchy
350
1B2E6
  3
Thicken
350
319C
  3
Wireframe
350
1B2E3
  3
X-Ray
350
1B2E7
  0
XRECORD
  5
22A68
102
{ACAD_REACTORS
330
3182
102
}
330
3182
100
AcDbXrecord
280
     1
 90
        1
330
31A2
  0
DICTIONARY
  5
33A3
102
{ACAD_REACTORS
330
3182
102
}
330
3182
100
AcDbDictionary
281
     1
  3
CANNOSCALE
350
1B222
  3
CMLEADERSTYLE
350
1B30F
  3
CTABLESTYLE
350
33A4
  3
CVIEWDETAILSTYLE
350
1B310
  3
CVIEWSECTIONSTYLE
350
1B311
  3
DIMASSOC
350
9BE8
  3
INDEXCTL
350
9BE7
  3
LAYEREVAL
350
20993
  3
LAYERNOTIFY
350
20994
  3
LIGHTINGUNITS
350
20992
  3
MSLTSCALE
350
20991
  3
SORTENTS
350
9BE6
  3
XCLIPFRAME
350
22A66
  0
DICTIONARY
  5
1B063
102
{ACAD_REACTORS
330
422A
102
}
330
422A
100
AcDbDictionary
281
     1
  0
DICTIONARY
  5
9A1C
102
{ACAD_REACTORS
330
422A
102
}
330
422A
100
AcDbDictionary
281
     1
  0
DICTIONARY
  5
1B062
102
{ACAD_REACTORS
330
422A
102
}
330
422A
100
AcDbDictionary
281
     1
1001
ACAD
1000
<All
  0
XRECORD
  5
21B8E
102
{ACAD_REACTORS
330
1B2F5
102
}
330
1B2F5
100
AcDbXrecord
280
     1
290
     1
  0
XRECORD
  5
21B8F
102
{ACAD_REACTORS
330
1B2F7
102
}
330
1B2F7
100
AcDbXrecord
280
     1
290
     1
  0
XRECORD
  5
21B90
102
{ACAD_REACTORS
330
1B2F9
102
}
330
1B2F9
100
AcDbXrecord
280
     1
290
     1
  0
XRECORD
  5
21B91
102
{ACAD_REACTORS
330
1B2FB
102
}
330
1B2FB
100
AcDbXrecord
280
     1
290
     1
  0
XRECORD
  5
21B92
102
{ACAD_REACTORS
330
1B2FD
102
}
330
1B2FD
100
AcDbXrecord
280
     1
290
     1
  0
XRECORD
  5
21B93
102
{ACAD_REACTORS
330
1B2FF
102
}
330
1B2FF
100
AcDbXrecord
280
     1
290
     1
  0
XRECORD
  5
21B94
102
{ACAD_REACTORS
330
1B301
102
}
330
1B301
100
AcDbXrecord
280
     1
290
     1
  0
XRECORD
  5
21B95
102
{ACAD_REACTORS
330
1B303
102
}
330
1B303
100
AcDbXrecord
280
     1
290
     1
  0
XRECORD
  5
21B96
102
{ACAD_REACTORS
330
1B305
102
}
330
1B305
100
AcDbXrecord
280
     1
290
     1
  0
XRECORD
  5
21B97
102
{ACAD_REACTORS
330
1B307
102
}
330
1B307
100
AcDbXrecord
280
     1
290
     1
  0
XRECORD
  5
21B98
102
{ACAD_REACTORS
330
1B309
102
}
330
1B309
100
AcDbXrecord
280
     1
290
     1
  0
SORTENTSTABLE
  5
339D
102
{ACAD_REACTORS
330
339C
102
}
330
339C
100
AcDbSortentsTable
330
1F
331
20B16
  5
20B16
331
20A18
  5
20A18
331
20B14
  5
20B14
331
20B17
  5
20B17
331
20B15
  5
20B15
  0
ACDBDETAILVIEWSTYLE
  5
20CB3
102
{ACAD_XDICTIONARY
360
22AA3
102
}
102
{ACAD_REACTORS
330
1B2F0
102
}
330
1B2F0
100
AcDbModelDocViewStyle
 70
     0
  3
Imperial24
290
     0
100
AcDbDetailViewStyle
 70
     0
 71
     0
 90
        3
 71
     1
340
11
 62
   256
 40
0.24
340
0
 62
   256
 40
0.24
300

 40
0.36
280
     3
 71
     2
340
16
 90
       25
 62
   256
 71
     3
340
11
 62
   256
 40
0.24
 90
        1
 40
0.75
 90
        1
300
%<\AcVar ViewType \f "%tc1">% %<\AcVar ViewDetailId>%\PVARIA %<\AcVar ViewScale \f "%sn">%
 71
     4
340
16
 90
       25
 62
   256
340
16
 90
       25
 62
   256
280
     0
  0
ACDBDETAILVIEWSTYLE
  5
1B2F1
102
{ACAD_XDICTIONARY
360
22A9F
102
}
102
{ACAD_REACTORS
330
1B2F0
102
}
330
1B2F0
100
AcDbModelDocViewStyle
 70
     0
  3
Metric50
290
     0
100
AcDbDetailViewStyle
 70
     0
 71
     0
 90
        3
 71
     1
340
11
 62
   256
 40
5.0
340
0
 62
   256
 40
5.0
300

 40
0.0
280
     1
 71
     2
340
16
 90
       25
 62
   256
 71
     3
340
11
 62
   256
 40
5.0
 90
        0
 40
15.0
 90
        1
300
%<\AcVar ViewDetailId>% (%<\AcVar ViewScale \f "%sn">%)
 71
     4
340
16
 90
       25
 62
   256
340
16
 90
       25
 62
   256
280
     0
  0
LAYOUT
  5
31A7
102
{ACAD_REACTORS
330
31A5
102
}
330
31A5
100
AcDbPlotSettings
  1

  2
\\ingdc01\ITB3
  4
A4
  6

 40
6.805083274841307
 41
5.027085781097412
 42
6.805068969726562
 43
5.027069091796875
 44
209.9733276367186
 45
296.9683227539062
 46
0.0
 47
0.0
 48
0.0
 49
0.0
140
0.0
141
0.0
142
1.0
143
1.0
 70
   688
 72
     1
 73
     1
 74
     5
  7

 75
    16
147
1.0
 76
     0
 77
     2
 78
   300
148
0.0
149
0.0
100
AcDbLayout
  1
Layout1
 70
     1
 71
     1
 10
-5.027069091796875
 20
-6.805083274841307
 11
291.9412536621094
 21
203.1682443618775
 12
0.0
 22
0.0
 32
0.0
 14
28.69141678810127
 24
19.6363175392151
 34
0.0
 15
258.2227510929107
 25
176.7268578529358
 35
0.0
146
0.0
 13
0.0
 23
0.0
 33
0.0
 16
1.0
 26
0.0
 36
0.0
 17
0.0
 27
1.0
 37
0.0
 76
     0
330
1B
331
9C00
1001
ACAD_PSEXT
1000
\\ingdc01\ITB3
1000
HP LaserJet 5000 Series PCL
1000
TB
1000

1070
     0
  0
LAYOUT
  5
31A6
102
{ACAD_REACTORS
330
31A5
102
}
330
31A5
100
AcDbPlotSettings
  1

  2
\\ingdc01\ITB3
  4
A4
  6

 40
6.805083274841307
 41
5.027085781097412
 42
6.805068969726562
 43
5.027069091796875
 44
209.9733276367186
 45
296.9683227539062
 46
0.0
 47
0.0
 48
0.0
 49
0.0
140
0.0
141
0.0
142
1.0
143
1.500313223655698
 70
 11952
 72
     1
 73
     1
 74
     0
  7

 75
     0
147
0.6665274852163048
 76
     0
 77
     2
 78
   300
148
239.0155119930048
149
102.2558208723354
100
AcDbLayout
  1
Model
 70
     1
 71
     0
 10
0.0
 20
0.0
 11
12.0
 21
9.0
 12
0.0
 22
0.0
 32
0.0
 14
0.0
 24
0.0
 34
0.0
 15
0.0
 25
0.0
 35
0.0
146
0.0
 13
0.0
 23
0.0
 33
0.0
 16
1.0
 26
0.0
 36
0.0
 17
0.0
 27
1.0
 37
0.0
 76
     0
330
1F
331
1F4
1001
ACAD_PSEXT
1000
\\ingdc01\ITB3
1000
HP LaserJet 5000 Series PCL
1000
TB
1000

1070
     0
  0
MATERIAL
  5
318D
102
{ACAD_XDICTIONARY
360
1B22B
102
}
102
{ACAD_REACTORS
330
318B
102
}
330
318B
100
AcDbMaterial
  1
ByBlock
  0
MATERIAL
  5
318C
102
{ACAD_XDICTIONARY
360
1B22D
102
}
102
{ACAD_REACTORS
330
318B
102
}
330
318B
100
AcDbMaterial
  1
ByLayer
  0
MATERIAL
  5
318E
102
{ACAD_XDICTIONARY
360
1B22F
102
}
102
{ACAD_REACTORS
330
318B
102
}
330
318B
100
AcDbMaterial
  1
Global
  0
MLEADERSTYLE
  5
1B2ED
102
{ACAD_REACTORS
330
1B221
102
}
330
1B221
100
AcDbMLeaderStyle
170
     2
171
     1
172
     0
 90
        2
 40
0.0
 41
0.0
173
     1
 91
-1056964608
340
14
 92
       -2
290
     1
 42
2.0
291
     1
 43
0.36
  3
Standard
 44
4.0
300

342
11
174
     1
178
     6
175
     1
176
     0
 93
-1056964608
 45
4.0
292
     0
297
     0
 46
4.0
 94
-1056964608
 47
1.0
 49
1.0
140
1.0
293
     1
141
0.0
294
     1
177
     0
142
1.0
295
     0
296
     0
143
0.125
1001
ACAD_MLEADERVER
1070
     2
  0
MLINESTYLE
  5
3185
102
{ACAD_REACTORS
330
3184
102
}
330
3184
100
AcDbMlineStyle
  2
STANDARD
 70
     0
  3

 62
   256
 51
90.0
 52
90.0
 71
     2
 49
0.5
 62
   256
  6
BYLAYER
 49
-0.5
 62
   256
  6
BYLAYER
  0
ACDBPLACEHOLDER
  5
318A
102
{ACAD_REACTORS
330
3189
102
}
330
3189
  0
SCALE
  5
1B1FD
102
{ACAD_REACTORS
330
1B1FC
102
}
330
1B1FC
100
AcDbScale
 70
     0
300
1:1
140
1.0
141
1.0
290
     1
1001
ACAD
1000
AcRTDxfName
1000
SCALE
  0
SCALE
  5
1B1FE
102
{ACAD_REACTORS
330
1B1FC
102
}
330
1B1FC
100
AcDbScale
 70
     0
300
1:2
140
1.0
141
2.0
290
     0
1001
ACAD
1000
AcRTDxfName
1000
SCALE
  0
SCALE
  5
1B1FF
102
{ACAD_REACTORS
330
1B1FC
102
}
330
1B1FC
100
AcDbScale
 70
     0
300
1:4
140
1.0
141
4.0
290
     0
1001
ACAD
1000
AcRTDxfName
1000
SCALE
  0
SCALE
  5
1B200
102
{ACAD_REACTORS
330
1B1FC
102
}
330
1B1FC
100
AcDbScale
 70
     0
300
1:5
140
1.0
141
5.0
290
     0
1001
ACAD
1000
AcRTDxfName
1000
SCALE
  0
SCALE
  5
1B201
102
{ACAD_REACTORS
330
1B1FC
102
}
330
1B1FC
100
AcDbScale
 70
     0
300
1:8
140
1.0
141
8.0
290
     0
1001
ACAD
1000
AcRTDxfName
1000
SCALE
  0
SCALE
  5
1B202
102
{ACAD_REACTORS
330
1B1FC
102
}
330
1B1FC
100
AcDbScale
 70
     0
300
1:10
140
1.0
141
10.0
290
     0
1001
ACAD
1000
AcRTDxfName
1000
SCALE
  0
SCALE
  5
1B203
102
{ACAD_REACTORS
330
1B1FC
102
}
330
1B1FC
100
AcDbScale
 70
     0
300
1:16
140
1.0
141
16.0
290
     0
1001
ACAD
1000
AcRTDxfName
1000
SCALE
  0
SCALE
  5
1B204
102
{ACAD_REACTORS
330
1B1FC
102
}
330
1B1FC
100
AcDbScale
 70
     0
300
1:20
140
1.0
141
20.0
290
     0
1001
ACAD
1000
AcRTDxfName
1000
SCALE
  0
SCALE
  5
1B205
102
{ACAD_REACTORS
330
1B1FC
102
}
330
1B1FC
100
AcDbScale
 70
     0
300
1:30
140
1.0
141
30.0
290
     0
1001
ACAD
1000
AcRTDxfName
1000
SCALE
  0
SCALE
  5
1B206
102
{ACAD_REACTORS
330
1B1FC
102
}
330
1B1FC
100
AcDbScale
 70
     0
300
1:40
140
1.0
141
40.0
290
     0
1001
ACAD
1000
AcRTDxfName
1000
SCALE
  0
SCALE
  5
1B207
102
{ACAD_REACTORS
330
1B1FC
102
}
330
1B1FC
100
AcDbScale
 70
     0
300
1:50
140
1.0
141
50.0
290
     0
1001
ACAD
1000
AcRTDxfName
1000
SCALE
  0
SCALE
  5
1B208
102
{ACAD_REACTORS
330
1B1FC
102
}
330
1B1FC
100
AcDbScale
 70
     0
300
1:100
140
1.0
141
100.0
290
     0
1001
ACAD
1000
AcRTDxfName
1000
SCALE
  0
SCALE
  5
1B209
102
{ACAD_REACTORS
330
1B1FC
102
}
330
1B1FC
100
AcDbScale
 70
     0
300
2:1
140
2.0
141
1.0
290
     0
1001
ACAD
1000
AcRTDxfName
1000
SCALE
  0
SCALE
  5
1B20A
102
{ACAD_REACTORS
330
1B1FC
102
}
330
1B1FC
100
AcDbScale
 70
     0
300
4:1
140
4.0
141
1.0
290
     0
1001
ACAD
1000
AcRTDxfName
1000
SCALE
  0
SCALE
  5
1B20B
102
{ACAD_REACTORS
330
1B1FC
102
}
330
1B1FC
100
AcDbScale
 70
     0
300
8:1
140
8.0
141
1.0
290
     0
1001
ACAD
1000
AcRTDxfName
1000
SCALE
  0
SCALE
  5
1B20C
102
{ACAD_REACTORS
330
1B1FC
102
}
330
1B1FC
100
AcDbScale
 70
     0
300
10:1
140
10.0
141
1.0
290
     0
1001
ACAD
1000
AcRTDxfName
1000
SCALE
  0
SCALE
  5
1B20D
102
{ACAD_REACTORS
330
1B1FC
102
}
330
1B1FC
100
AcDbScale
 70
     0
300
100:1
140
100.0
141
1.0
290
     0
1001
ACAD
1000
AcRTDxfName
1000
SCALE
  0
SCALE
  5
1B20E
102
{ACAD_REACTORS
330
1B1FC
102
}
330
1B1FC
100
AcDbScale
 70
     0
300
1/128" = 1'-0"
140
0.0078125
141
12.0
290
     0
1001
ACAD
1000
AcRTDxfName
1000
SCALE
  0
SCALE
  5
1B20F
102
{ACAD_REACTORS
330
1B1FC
102
}
330
1B1FC
100
AcDbScale
 70
     0
300
1/64" = 1'-0"
140
0.015625
141
12.0
290
     0
1001
ACAD
1000
AcRTDxfName
1000
SCALE
  0
SCALE
  5
1B210
102
{ACAD_REACTORS
330
1B1FC
102
}
330
1B1FC
100
AcDbScale
 70
     0
300
1/32" = 1'-0"
140
0.03125
141
12.0
290
     0
1001
ACAD
1000
AcRTDxfName
1000
SCALE
  0
SCALE
  5
1B211
102
{ACAD_REACTORS
330
1B1FC
102
}
330
1B1FC
100
AcDbScale
 70
     0
300
1/16" = 1'-0"
140
0.0625
141
12.0
290
     0
1001
ACAD
1000
AcRTDxfName
1000
SCALE
  0
SCALE
  5
1B212
102
{ACAD_REACTORS
330
1B1FC
102
}
330
1B1FC
100
AcDbScale
 70
     0
300
3/32" = 1'-0"
140
0.09375
141
12.0
290
     0
1001
ACAD
1000
AcRTDxfName
1000
SCALE
  0
SCALE
  5
1B213
102
{ACAD_REACTORS
330
1B1FC
102
}
330
1B1FC
100
AcDbScale
 70
     0
300
1/8" = 1'-0"
140
0.125
141
12.0
290
     0
1001
ACAD
1000
AcRTDxfName
1000
SCALE
  0
SCALE
  5
1B214
102
{ACAD_REACTORS
330
1B1FC
102
}
330
1B1FC
100
AcDbScale
 70
     0
300
3/16" = 1'-0"
140
0.1875
141
12.0
290
     0
1001
ACAD
1000
AcRTDxfName
1000
SCALE
  0
SCALE
  5
1B215
102
{ACAD_REACTORS
330
1B1FC
102
}
330
1B1FC
100
AcDbScale
 70
     0
300
1/4" = 1'-0"
140
0.25
141
12.0
290
     0
1001
ACAD
1000
AcRTDxfName
1000
SCALE
  0
SCALE
  5
1B216
102
{ACAD_REACTORS
330
1B1FC
102
}
330
1B1FC
100
AcDbScale
 70
     0
300
3/8" = 1'-0"
140
0.375
141
12.0
290
     0
1001
ACAD
1000
AcRTDxfName
1000
SCALE
  0
SCALE
  5
1B217
102
{ACAD_REACTORS
330
1B1FC
102
}
330
1B1FC
100
AcDbScale
 70
     0
300
1/2" = 1'-0"
140
0.5
141
12.0
290
     0
1001
ACAD
1000
AcRTDxfName
1000
SCALE
  0
SCALE
  5
1B218
102
{ACAD_REACTORS
330
1B1FC
102
}
330
1B1FC
100
AcDbScale
 70
     0
300
3/4" = 1'-0"
140
0.75
141
12.0
290
     0
1001
ACAD
1000
AcRTDxfName
1000
SCALE
  0
SCALE
  5
1B219
102
{ACAD_REACTORS
330
1B1FC
102
}
330
1B1FC
100
AcDbScale
 70
     0
300
1" = 1'-0"
140
1.0
141
12.0
290
     0
1001
ACAD
1000
AcRTDxfName
1000
SCALE
  0
SCALE
  5
1B21A
102
{ACAD_REACTORS
330
1B1FC
102
}
330
1B1FC
100
AcDbScale
 70
     0
300
1-1/2" = 1'-0"
140
1.5
141
12.0
290
     0
1001
ACAD
1000
AcRTDxfName
1000
SCALE
  0
SCALE
  5
1B21B
102
{ACAD_REACTORS
330
1B1FC
102
}
330
1B1FC
100
AcDbScale
 70
     0
300
3" = 1'-0"
140
3.0
141
12.0
290
     0
1001
ACAD
1000
AcRTDxfName
1000
SCALE
  0
SCALE
  5
1B21C
102
{ACAD_REACTORS
330
1B1FC
102
}
330
1B1FC
100
AcDbScale
 70
     0
300
6" = 1'-0"
140
6.0
141
12.0
290
     0
1001
ACAD
1000
AcRTDxfName
1000
SCALE
  0
SCALE
  5
1B21D
102
{ACAD_REACTORS
330
1B1FC
102
}
330
1B1FC
100
AcDbScale
 70
     0
300
1'-0" = 1'-0"
140
12.0
141
12.0
290
     0
1001
ACAD
1000
AcRTDxfName
1000
SCALE
  0
ACDBSECTIONVIEWSTYLE
  5
20CB1
102
{ACAD_XDICTIONARY
360
22AA1
102
}
102
{ACAD_REACTORS
330
1B2EE
102
}
330
1B2EE
100
AcDbModelDocViewStyle
 70
     0
  3
Imperial24
290
     0
100
AcDbSectionViewStyle
 70
     0
 71
     0
 90
       78
 71
     1
340
11
 62
   256
 40
0.24
340
0
340
0
 62
   256
 40
0.24
300
I, O, Q, S, X, Z
 40
0.48
 90
        3
 40
0.18
 90
        1
 71
     2
340
16
 90
       25
 62
   256
340
16
 90
       50
 62
   256
 40
0.24
 40
0.0
 40
0.24
 71
     3
340
11
 62
   256
 40
0.24
 90
        1
 40
0.75
 90
        1
300
%<\AcVar ViewType \f "%tc1">% %<\AcVar ViewSectionStartId>%-%<\AcVar ViewSectionEndId>%\PVARIA %<\AcVar ViewScale \f "%sn">%
 71
     4
 62
   256
 62
   257
300
ANSI31
 40
1.0
 90
        0
290
     0
290
     0
 90
        6
 40
0.0
 40
1.570796326794896
 40
0.2617993877991494
 40
1.308996938995747
 40
-0.2617993877991494
 40
1.832595714594044
  0
ACDBSECTIONVIEWSTYLE
  5
1B2EF
102
{ACAD_XDICTIONARY
360
22A9D
102
}
102
{ACAD_REACTORS
330
1B2EE
102
}
330
1B2EE
100
AcDbModelDocViewStyle
 70
     0
  3
Metric50
290
     0
100
AcDbSectionViewStyle
 70
     0
 71
     0
 90
      102
 71
     1
340
11
 62
   256
 40
5.0
340
0
340
0
 62
   256
 40
5.0
300
I, O, Q, S, X, Z
 40
10.0
 90
        0
 40
2.5
 90
        0
 71
     2
340
16
 90
       25
 62
   256
340
16
 90
       50
 62
   256
 40
5.0
 40
2.5
 40
5.0
 71
     3
340
11
 62
   256
 40
5.0
 90
        0
 40
15.0
 90
        1
300
%<\AcVar ViewSectionStartId>%-%<\AcVar ViewSectionEndId>% (%<\AcVar ViewScale \f "%sn">%)
 71
     4
 62
   256
 62
   257
300
ANSI31
 40
1.0
 90
        0
290
     0
290
     0
 90
        6
 40
0.0
 40
1.570796326794896
 40
0.2617993877991494
 40
1.308996938995747
 40
-0.2617993877991494
 40
1.832595714594044
  0
TABLESTYLE
  5
31A2
102
{ACAD_XDICTIONARY
360
1B314
102
}
102
{ACAD_REACTORS
330
31A1
102
}
330
31A1
100
AcDbTableStyle
  3
Standard
 70
     0
 71
     0
 40
1.5
 41
1.5
280
     0
281
     0
  7
STANDARD
140
4.5
170
     2
 62
     0
 63
     7
283
     0
 90
        4
 91
        0
  1

274
    -2
284
     1
 64
     0
275
    -2
285
     1
 65
     0
276
    -2
286
     1
 66
     0
277
    -2
287
     1
 67
     0
278
    -2
288
     1
 68
     0
279
    -2
289
     1
 69
     0
  7
STANDARD
140
6.0
170
     5
 62
     0
 63
     7
283
     0
 90
        4
 91
        0
  1

274
    -2
284
     1
 64
     0
275
    -2
285
     1
 65
     0
276
    -2
286
     1
 66
     0
277
    -2
287
     1
 67
     0
278
    -2
288
     1
 68
     0
279
    -2
289
     1
 69
     0
  7
STANDARD
140
4.5
170
     5
 62
     0
 63
     7
283
     0
 90
        4
 91
        0
  1

274
    -2
284
     1
 64
     0
275
    -2
285
     1
 65
     0
276
    -2
286
     1
 66
     0
277
    -2
287
     1
 67
     0
278
    -2
288
     1
 68
     0
279
    -2
289
     1
 69
     0
  0
VISUALSTYLE
  5
3195
102
{ACAD_XDICTIONARY
360
22A73
102
}
102
{ACAD_REACTORS
330
318F
102
}
330
318F
100
AcDbVisualStyle
  2

 70
     4
 71
     0
 72
     2
 73
     0
 90
        0
 40
-0.6
 41
-30.0
 62
     5
 63
     7
 74
     1
 91
        4
 64
     7
 65
   257
 75
     1
175
     1
 42
1.0
 92
        0
 66
   257
 43
1.0
 76
     1
 77
     6
 78
     2
 67
     7
 79
     5
170
     0
171
     0
290
     0
174
     0
 93
        1
 44
0.0
173
     0
291
     0
 45
0.0
1001
ACAD
1000
AcDbSavedByObjectVersion
1070
     0
  0
VISUALSTYLE
  5
3197
102
{ACAD_XDICTIONARY
360
22A77
102
}
102
{ACAD_REACTORS
330
318F
102
}
330
318F
100
AcDbVisualStyle
  2

 70
     6
 71
     1
 72
     2
 73
     2
 90
        0
 40
-0.6
 41
-30.0
 62
     5
 63
     7
 74
     2
 91
        2
 64
     7
 65
   257
 75
     2
175
     1
 42
40.0
 92
        0
 66
   257
 43
1.0
 76
     1
 77
     6
 78
     2
 67
     7
 79
     3
170
     0
171
     0
290
     0
174
     0
 93
        1
 44
0.0
173
     0
291
     0
 45
0.0
1001
ACAD
1000
AcDbSavedByObjectVersion
1070
     0
  0
VISUALSTYLE
  5
3196
102
{ACAD_XDICTIONARY
360
22A75
102
}
102
{ACAD_REACTORS
330
318F
102
}
330
318F
100
AcDbVisualStyle
  2

 70
     5
 71
     0
 72
     2
 73
     0
 90
        0
 40
-0.6
 41
-30.0
 62
     5
 63
     7
 74
     1
 91
        4
 64
     7
 65
   257
 75
     1
175
     1
 42
1.0
 92
        0
 66
   257
 43
1.0
 76
     1
 77
     6
 78
     2
 67
     7
 79
     5
170
     0
171
     0
290
     0
174
     0
 93
        1
 44
0.0
173
     0
291
     0
 45
0.0
1001
ACAD
1000
AcDbSavedByObjectVersion
1070
     0
  0
VISUALSTYLE
  5
3194
102
{ACAD_XDICTIONARY
360
22A71
102
}
102
{ACAD_REACTORS
330
318F
102
}
330
318F
100
AcDbVisualStyle
  2

 70
     7
 71
     1
 72
     0
 73
     1
 90
        0
 40
-0.6
 41
-30.0
 62
     5
 63
     7
 74
     0
 91
        4
 64
     7
 65
   257
 75
     1
175
     1
 42
1.0
 92
        8
 66
     7
 43
1.0
 76
     1
 77
     6
 78
     2
 67
     7
 79
     5
170
     0
171
     0
290
     0
174
     0
 93
        1
 44
0.0
173
     0
291
     1
 45
0.0
1001
ACAD
1000
AcDbSavedByObjectVersion
1070
     0
  0
VISUALSTYLE
  5
319B
102
{ACAD_XDICTIONARY
360
22A7F
102
}
102
{ACAD_REACTORS
330
318F
102
}
330
318F
100
AcDbVisualStyle
  2

 70
    12
 71
     2
 72
     2
 73
     0
 90
        0
 40
-0.6
 41
-30.0
 62
     5
 63
     7
 74
     1
 91
        4
 64
     7
 65
   257
 75
     1
175
     1
 42
1.0
 92
        8
 66
     7
 43
1.0
 76
     1
 77
     6
 78
     2
 67
     7
 79
     5
170
     0
171
     0
290
     0
174
     0
 93
        1
 44
50.0
173
     0
291
     1
 45
0.0
1001
ACAD
1000
AcDbSavedByObjectVersion
1070
     0
  0
VISUALSTYLE
  5
319F
102
{ACAD_XDICTIONARY
360
22A87
102
}
102
{ACAD_REACTORS
330
318F
102
}
330
318F
100
AcDbVisualStyle
  2

 70
    16
 71
     2
 72
     2
 73
     3
 90
        0
 40
-0.6
 41
-30.0
 62
     5
 63
     8
 74
     1
 91
        4
 64
     7
 65
   257
 75
     1
175
     1
 42
1.0
 92
        8
 66
     8
 43
1.0
 76
     1
 77
     6
 78
     2
 67
     7
 79
     5
170
     0
171
     0
290
     0
174
     0
 93
        1
 44
0.0
173
     0
291
     1
 45
0.0
1001
ACAD
1000
AcDbSavedByObjectVersion
1070
     0
  0
VISUALSTYLE
  5
3198
102
{ACAD_XDICTIONARY
360
22A79
102
}
102
{ACAD_REACTORS
330
318F
102
}
330
318F
100
AcDbVisualStyle
  2

 70
     9
 71
     3
 72
     2
 73
     0
 90
        0
 40
-0.6
 41
-30.0
 62
     5
 63
     7
 74
     2
 91
        2
 64
     7
 65
   257
 75
     1
175
     1
 42
40.0
 92
        8
 66
     7
 43
1.0
 76
     1
 77
     6
 78
     2
 67
     7
 79
     3
170
     0
171
     0
290
     0
174
     0
 93
        1
 44
0.0
173
     0
291
     0
 45
0.0
1001
ACAD
1000
AcDbSavedByObjectVersion
1070
     0
  0
VISUALSTYLE
  5
319A
102
{ACAD_XDICTIONARY
360
22A7D
102
}
102
{ACAD_REACTORS
330
318F
102
}
330
318F
100
AcDbVisualStyle
  2

 70
    11
 71
     2
 72
     2
 73
     0
 90
        0
 40
-0.6
 41
-30.0
 62
     5
 63
     7
 74
     1
 91
        4
 64
     7
 65
   257
 75
     1
175
     1
 42
1.0
 92
        8
 66
     7
 43
1.0
 76
     1
 77
     6
 78
     2
 67
     7
 79
     5
170
     0
171
     0
290
     0
174
     0
 93
        1
 44
-50.0
173
     0
291
     1
 45
0.0
1001
ACAD
1000
AcDbSavedByObjectVersion
1070
     0
  0
VISUALSTYLE
  5
1B2EC
102
{ACAD_XDICTIONARY
360
22A9B
102
}
102
{ACAD_REACTORS
330
318F
102
}
330
318F
100
AcDbVisualStyle
  2

 70
    22
 71
     2
 72
     2
 73
     0
 90
        0
 40
-0.6
 41
-30.0
 62
     5
 63
     7
 74
     1
 91
        4
 64
     7
 65
   257
 75
     1
175
     1
 42
1.0
 92
        8
 66
     7
 43
1.0
 76
     1
 77
     6
 78
     2
 67
     7
 79
     5
170
     0
171
     0
290
     0
174
     0
 93
        1
 44
0.0
173
     0
291
     1
 45
0.0
1001
ACAD
1000
AcDbSavedByObjectVersion
1070
     0
  0
VISUALSTYLE
  5
319E
102
{ACAD_XDICTIONARY
360
22A85
102
}
102
{ACAD_REACTORS
330
318F
102
}
330
318F
100
AcDbVisualStyle
  2

 70
    15
 71
     2
 72
     2
 73
     0
 90
        0
 40
-0.6
 41
-30.0
 62
     5
 63
     7
 74
     1
 91
        4
 64
     7
 65
   257
 75
     1
175
     1
 42
1.0
 92
        8
 66
     7
 43
1.0
 76
     1
 77
     6
 78
     2
 67
     7
 79
     5
170
     0
171
     0
290
     0
174
     0
 93
        1
 44
0.0
173
     0
291
     1
 45
0.0
1001
ACAD
1000
AcDbSavedByObjectVersion
1070
     0
  0
VISUALSTYLE
  5
3190
102
{ACAD_XDICTIONARY
360
22A69
102
}
102
{ACAD_REACTORS
330
318F
102
}
330
318F
100
AcDbVisualStyle
  2

 70
     0
 71
     2
 72
     1
 73
     1
 90
        2
 40
-0.6
 41
30.0
 62
     5
 63
     7
 74
     0
 91
        4
 64
     7
 65
   257
 75
     1
175
     1
 42
1.0
 92
        8
 66
     7
 43
1.0
 76
     1
 77
     6
 78
     2
 67
     7
 79
     5
170
     0
171
     0
290
     0
174
     0
 93
       13
 44
0.0
173
     0
291
     1
 45
0.0
1001
ACAD
1000
AcDbSavedByObjectVersion
1070
     0
  0
VISUALSTYLE
  5
3191
102
{ACAD_XDICTIONARY
360
22A6B
102
}
102
{ACAD_REACTORS
330
318F
102
}
330
318F
100
AcDbVisualStyle
  2

 70
     1
 71
     2
 72
     1
 73
     1
 90
        2
 40
-0.6
 41
30.0
 62
     5
 63
     7
 74
     1
 91
        4
 64
     7
 65
   257
 75
     1
175
     1
 42
1.0
 92
        0
 66
   257
 43
1.0
 76
     1
 77
     6
 78
     2
 67
     7
 79
     5
170
     0
171
     0
290
     0
174
     0
 93
       13
 44
0.0
173
     0
291
     1
 45
0.0
1001
ACAD
1000
AcDbSavedByObjectVersion
1070
     0
  0
VISUALSTYLE
  5
3192
102
{ACAD_XDICTIONARY
360
22A6D
102
}
102
{ACAD_REACTORS
330
318F
102
}
330
318F
100
AcDbVisualStyle
  2

 70
     2
 71
     2
 72
     2
 73
     1
 90
        2
 40
-0.6
 41
30.0
 62
     5
 63
     7
 74
     0
 91
        4
 64
     7
 65
   257
 75
     1
175
     1
 42
1.0
 92
        0
 66
     7
 43
1.0
 76
     1
 77
     6
 78
     2
 67
     7
 79
     5
170
     0
171
     0
290
     0
174
     0
 93
       13
 44
0.0
173
     0
291
     1
 45
0.0
1001
ACAD
1000
AcDbSavedByObjectVersion
1070
     0
  0
VISUALSTYLE
  5
3193
102
{ACAD_XDICTIONARY
360
22A6F
102
}
102
{ACAD_REACTORS
330
318F
102
}
330
318F
100
AcDbVisualStyle
  2

 70
     3
 71
     2
 72
     2
 73
     1
 90
        2
 40
-0.6
 41
30.0
 62
     5
 63
     7
 74
     1
 91
        4
 64
     7
 65
   257
 75
     1
175
     1
 42
1.0
 92
        0
 66
   257
 43
1.0
 76
     1
 77
     6
 78
     2
 67
     7
 79
     5
170
     0
171
     0
290
     0
174
     0
 93
       13
 44
0.0
173
     0
291
     1
 45
0.0
1001
ACAD
1000
AcDbSavedByObjectVersion
1070
     0
  0
VISUALSTYLE
  5
1B2E4
102
{ACAD_XDICTIONARY
360
22A8B
102
}
102
{ACAD_REACTORS
330
318F
102
}
330
318F
100
AcDbVisualStyle
  2

 70
     6
 71
     1
 72
     2
 73
     2
 90
        0
 40
-0.6
 41
-30.0
 62
     5
 63
     7
 74
     2
 91
        2
 64
     7
 65
   257
 75
     2
175
     1
 42
40.0
 92
        0
 66
   257
 43
1.0
 76
     1
 77
     6
 78
     2
 67
     7
 79
     3
170
     0
171
     0
290
     0
174
     0
 93
        1
 44
0.0
173
     0
291
     0
 45
0.0
1001
ACAD
1000
AcDbSavedByObjectVersion
1070
     0
  0
VISUALSTYLE
  5
1B2EA
102
{ACAD_XDICTIONARY
360
22A97
102
}
102
{ACAD_REACTORS
330
318F
102
}
330
318F
100
AcDbVisualStyle
  2

 70
    20
 71
     2
 72
     2
 73
     0
 90
        0
 40
-0.6
 41
-30.0
 62
     5
 63
     7
 74
     1
 91
        4
 64
     7
 65
   257
 75
     1
175
     1
 42
1.0
 92
       10
 66
     7
 43
1.0
 76
     1
 77
     6
 78
     2
 67
     7
 79
     5
170
     0
171
     0
290
     0
174
     0
 93
        1
 44
0.0
173
     0
291
     1
 45
0.0
1001
ACAD
1000
AcDbSavedByObjectVersion
1070
     0
  0
VISUALSTYLE
  5
319D
102
{ACAD_XDICTIONARY
360
22A83
102
}
102
{ACAD_REACTORS
330
318F
102
}
330
318F
100
AcDbVisualStyle
  2

 70
    14
 71
     2
 72
     2
 73
     0
 90
        0
 40
-0.6
 41
-30.0
 62
     5
 63
     7
 74
     1
 91
        4
 64
     7
 65
   257
 75
     7
175
     7
 42
1.0
 92
        8
 66
     7
 43
1.0
 76
     1
 77
     6
 78
     2
 67
     7
 79
     5
170
     0
171
     0
290
     0
174
     0
 93
        1
 44
0.0
173
     0
291
     1
 45
0.0
1001
ACAD
1000
AcDbSavedByObjectVersion
1070
     0
  0
VISUALSTYLE
  5
1B2EB
102
{ACAD_XDICTIONARY
360
22A99
102
}
102
{ACAD_REACTORS
330
318F
102
}
330
318F
100
AcDbVisualStyle
  2

 70
    21
 71
     2
 72
     2
 73
     0
 90
        0
 40
-0.6
 41
-30.0
 62
     5
 63
     7
 74
     1
 91
        4
 64
     7
 65
   257
 75
     1
175
     1
 42
1.0
 92
        9
 66
     7
 43
1.0
 76
     1
 77
     6
 78
     2
 67
     7
 79
     5
170
     0
171
     0
290
     0
174
     0
 93
        1
 44
0.0
173
     0
291
     1
 45
0.0
1001
ACAD
1000
AcDbSavedByObjectVersion
1070
     0
  0
VISUALSTYLE
  5
3199
102
{ACAD_XDICTIONARY
360
22A7B
102
}
102
{ACAD_REACTORS
330
318F
102
}
330
318F
100
AcDbVisualStyle
  2

 70
     8
 71
     2
 72
     2
 73
     0
 90
        0
 40
-0.6
 41
-30.0
 62
     5
 63
     7
 74
     1
 91
        0
 64
     7
 65
   257
 75
     1
175
     1
 42
1.0
 92
        8
 66
     8
 43
1.0
 76
     1
 77
     6
 78
     2
 67
     7
 79
     5
170
     0
171
     0
290
     0
174
     0
 93
       13
 44
0.0
173
     0
291
     0
 45
0.0
1001
ACAD
1000
AcDbSavedByObjectVersion
1070
     0
  0
VISUALSTYLE
  5
1B2E9
102
{ACAD_XDICTIONARY
360
22A95
102
}
102
{ACAD_REACTORS
330
318F
102
}
330
318F
100
AcDbVisualStyle
  2

 70
    27
 71
     2
 72
     2
 73
     1
 90
        2
 40
-0.6
 41
30.0
 62
     5
 63
     7
 74
     0
 91
        4
 64
     7
 65
   257
 75
     1
175
     1
 42
1.0
 92
        8
 66
   257
 43
1.0
 76
     1
 77
     6
 78
     2
 67
     8
 79
     3
170
     0
171
     0
290
     0
174
     0
 93
        5
 44
0.0
173
     0
291
     0
 45
0.0
1001
ACAD
1000
AcDbSavedByObjectVersion
1070
     0
  0
VISUALSTYLE
  5
1B2E8
102
{ACAD_XDICTIONARY
360
22A93
102
}
102
{ACAD_REACTORS
330
318F
102
}
330
318F
100
AcDbVisualStyle
  2

 70
    26
 71
     2
 72
     2
 73
     1
 90
        2
 40
-0.6
 41
30.0
 62
     5
 63
     7
 74
     1
 91
       10
 64
     7
 65
   257
 75
     2
175
     1
 42
1.0
 92
        8
 66
   257
 43
1.0
 76
     1
 77
     6
 78
     2
 67
     7
 79
     3
170
     0
171
     0
290
     0
174
     0
 93
        5
 44
0.0
173
     0
291
     0
 45
0.0
1001
ACAD
1000
AcDbSavedByObjectVersion
1070
     0
  0
VISUALSTYLE
  5
1B2E5
102
{ACAD_XDICTIONARY
360
22A8D
102
}
102
{ACAD_REACTORS
330
318F
102
}
330
318F
100
AcDbVisualStyle
  2

 70
    23
 71
     2
 72
     2
 73
     3
 90
        0
 40
-0.6
 41
-30.0
 62
     5
 63
     7
 74
     2
 91
        2
 64
     7
 65
     7
 75
     1
175
     1
 42
40.0
 92
        8
 66
     7
 43
1.0
 76
     1
 77
     6
 78
     2
 67
     7
 79
     3
170
     0
171
     0
290
     0
174
     0
 93
        1
 44
0.0
173
     0
291
     0
 45
0.0
1001
ACAD
1000
AcDbSavedByObjectVersion
1070
     0
  0
VISUALSTYLE
  5
1B2E6
102
{ACAD_XDICTIONARY
360
22A8F
102
}
102
{ACAD_REACTORS
330
318F
102
}
330
318F
100
AcDbVisualStyle
  2

 70
    24
 71
     1
 72
     2
 73
     2
 90
        0
 40
-0.6
 41
-30.0
 62
     5
 63
     7
 74
     2
 91
        2
 64
     7
 65
     7
 75
     1
175
     1
 42
40.0
 92
       11
 66
     7
 43
1.0
 76
     1
 77
     6
 78
     2
 67
     7
 79
     6
170
     0
171
     0
290
     0
174
     0
 93
        1
 44
0.0
173
     0
291
     0
 45
0.0
1001
ACAD
1000
AcDbSavedByObjectVersion
1070
     0
  0
VISUALSTYLE
  5
319C
102
{ACAD_XDICTIONARY
360
22A81
102
}
102
{ACAD_REACTORS
330
318F
102
}
330
318F
100
AcDbVisualStyle
  2

 70
    13
 71
     2
 72
     2
 73
     0
 90
        0
 40
-0.6
 41
-30.0
 62
     5
 63
     7
 74
     1
 91
        4
 64
     7
 65
   257
 75
     1
175
     1
 42
1.0
 92
       12
 66
     7
 43
1.0
 76
     1
 77
     6
 78
     2
 67
     7
 79
     5
170
     0
171
     0
290
     0
174
     0
 93
        1
 44
0.0
173
     0
291
     1
 45
0.0
1001
ACAD
1000
AcDbSavedByObjectVersion
1070
     0
  0
VISUALSTYLE
  5
1B2E3
102
{ACAD_XDICTIONARY
360
22A89
102
}
102
{ACAD_REACTORS
330
318F
102
}
330
318F
100
AcDbVisualStyle
  2

 70
     5
 71
     0
 72
     2
 73
     0
 90
        0
 40
-0.6
 41
-30.0
 62
     5
 63
     7
 74
     1
 91
        4
 64
     7
 65
   257
 75
     1
175
     1
 42
1.0
 92
        0
 66
   257
 43
1.0
 76
     1
 77
     6
 78
     2
 67
     7
 79
     3
170
     0
171
     0
290
     0
174
     0
 93
        1
 44
0.0
173
     0
291
     0
 45
0.0
1001
ACAD
1000
AcDbSavedByObjectVersion
1070
     0
  0
VISUALSTYLE
  5
1B2E7
102
{ACAD_XDICTIONARY
360
22A91
102
}
102
{ACAD_REACTORS
330
318F
102
}
330
318F
100
AcDbVisualStyle
  2

 70
    25
 71
     2
 72
     2
 73
     1
 90
        1
 40
0.5
 41
-30.0
 62
     5
 63
     7
 74
     1
 91
        0
 64
     7
 65
   257
 75
     1
175
     1
 42
1.0
 92
        8
 66
     7
 43
1.0
 76
     1
 77
     6
 78
     2
 67
     7
 79
     3
170
     0
171
     0
290
     0
174
     0
 93
       13
 44
0.0
173
     0
291
     0
 45
0.0
1001
ACAD
1000
AcDbSavedByObjectVersion
1070
     0
  0
DICTIONARYVAR
  5
1B222
102
{ACAD_REACTORS
330
33A3
102
}
330
33A3
100
DictionaryVariables
280
     0
  1
1:1
  0
DICTIONARYVAR
  5
1B30F
102
{ACAD_REACTORS
330
33A3
102
}
330
33A3
100
DictionaryVariables
280
     0
  1
STANDARD
  0
DICTIONARYVAR
  5
33A4
102
{ACAD_REACTORS
330
33A3
102
}
330
33A3
100
DictionaryVariables
280
     0
  1
STANDARD
  0
DICTIONARYVAR
  5
1B310
102
{ACAD_REACTORS
330
33A3
102
}
330
33A3
100
DictionaryVariables
280
     0
  1
Metric50
  0
DICTIONARYVAR
  5
1B311
102
{ACAD_REACTORS
330
33A3
102
}
330
33A3
100
DictionaryVariables
280
     0
  1
Metric50
  0
DICTIONARYVAR
  5
9BE8
102
{ACAD_REACTORS
330
33A3
102
}
330
33A3
100
DictionaryVariables
280
     0
  1
1
  0
DICTIONARYVAR
  5
9BE7
102
{ACAD_REACTORS
330
33A3
102
}
330
33A3
100
DictionaryVariables
280
     0
  1
0
  0
DICTIONARYVAR
  5
20993
102
{ACAD_REACTORS
330
33A3
102
}
330
33A3
100
DictionaryVariables
280
     0
  1
1
  0
DICTIONARYVAR
  5
20994
102
{ACAD_REACTORS
330
33A3
102
}
330
33A3
100
DictionaryVariables
280
     0
  1
15
  0
DICTIONARYVAR
  5
20992
102
{ACAD_REACTORS
330
33A3
102
}
330
33A3
100
DictionaryVariables
280
     0
  1
0
  0
DICTIONARYVAR
  5
20991
102
{ACAD_REACTORS
330
33A3
102
}
330
33A3
100
DictionaryVariables
280
     0
  1
0
  0
DICTIONARYVAR
  5
9BE6
102
{ACAD_REACTORS
330
33A3
102
}
330
33A3
100
DictionaryVariables
280
     0
  1
127
  0
DICTIONARYVAR
  5
22A66
102
{ACAD_REACTORS
330
33A3
102
}
330
33A3
100
DictionaryVariables
280
     0
  1
2
  0
DICTIONARY
  5
22AA3
330
20CB3
100
AcDbDictionary
280
     1
281
     1
  3
ACAD_XREC_ROUNDTRIP
360
22AA4
  0
DICTIONARY
  5
22A9F
330
1B2F1
100
AcDbDictionary
280
     1
281
     1
  3
ACAD_XREC_ROUNDTRIP
360
22AA0
  0
DICTIONARY
  5
1B22B
330
318D
100
AcDbDictionary
280
     1
281
     1
  3
ACAD_XREC_ROUNDTRIP
360
1B22C
  0
DICTIONARY
  5
1B22D
330
318C
100
AcDbDictionary
280
     1
281
     1
  3
ACAD_XREC_ROUNDTRIP
360
1B22E
  0
DICTIONARY
  5
1B22F
330
318E
100
AcDbDictionary
280
     1
281
     1
  3
ACAD_XREC_ROUNDTRIP
360
1B230
  0
DICTIONARY
  5
22AA1
330
20CB1
100
AcDbDictionary
280
     1
281
     1
  3
ACAD_XREC_ROUNDTRIP
360
22AA2
  0
DICTIONARY
  5
22A9D
330
1B2EF
100
AcDbDictionary
280
     1
281
     1
  3
ACAD_XREC_ROUNDTRIP
360
22A9E
  0
DICTIONARY
  5
1B314
330
31A2
100
AcDbDictionary
280
     1
281
     1
  3
ACAD_ROUNDTRIP_2008_TABLESTYLE_CELLSTYLEMAP
360
22A67
  0
DICTIONARY
  5
22A73
330
3195
100
AcDbDictionary
280
     1
281
     1
  3
ACAD_XREC_ROUNDTRIP
360
22A74
  0
DICTIONARY
  5
22A77
330
3197
100
AcDbDictionary
280
     1
281
     1
  3
ACAD_XREC_ROUNDTRIP
360
22A78
  0
DICTIONARY
  5
22A75
330
3196
100
AcDbDictionary
280
     1
281
     1
  3
ACAD_XREC_ROUNDTRIP
360
22A76
  0
DICTIONARY
  5
22A71
330
3194
100
AcDbDictionary
280
     1
281
     1
  3
ACAD_XREC_ROUNDTRIP
360
22A72
  0
DICTIONARY
  5
22A7F
330
319B
100
AcDbDictionary
280
     1
281
     1
  3
ACAD_XREC_ROUNDTRIP
360
22A80
  0
DICTIONARY
  5
22A87
330
319F
100
AcDbDictionary
280
     1
281
     1
  3
ACAD_XREC_ROUNDTRIP
360
22A88
  0
DICTIONARY
  5
22A79
330
3198
100
AcDbDictionary
280
     1
281
     1
  3
ACAD_XREC_ROUNDTRIP
360
22A7A
  0
DICTIONARY
  5
22A7D
330
319A
100
AcDbDictionary
280
     1
281
     1
  3
ACAD_XREC_ROUNDTRIP
360
22A7E
  0
DICTIONARY
  5
22A9B
330
1B2EC
100
AcDbDictionary
280
     1
281
     1
  3
ACAD_XREC_ROUNDTRIP
360
22A9C
  0
DICTIONARY
  5
22A85
330
319E
100
AcDbDictionary
280
     1
281
     1
  3
ACAD_XREC_ROUNDTRIP
360
22A86
  0
DICTIONARY
  5
22A69
330
3190
100
AcDbDictionary
280
     1
281
     1
  3
ACAD_XREC_ROUNDTRIP
360
22A6A
  0
DICTIONARY
  5
22A6B
330
3191
100
AcDbDictionary
280
     1
281
     1
  3
ACAD_XREC_ROUNDTRIP
360
22A6C
  0
DICTIONARY
  5
22A6D
330
3192
100
AcDbDictionary
280
     1
281
     1
  3
ACAD_XREC_ROUNDTRIP
360
22A6E
  0
DICTIONARY
  5
22A6F
330
3193
100
AcDbDictionary
280
     1
281
     1
  3
ACAD_XREC_ROUNDTRIP
360
22A70
  0
DICTIONARY
  5
22A8B
330
1B2E4
100
AcDbDictionary
280
     1
281
     1
  3
ACAD_XREC_ROUNDTRIP
360
22A8C
  0
DICTIONARY
  5
22A97
330
1B2EA
100
AcDbDictionary
280
     1
281
     1
  3
ACAD_XREC_ROUNDTRIP
360
22A98
  0
DICTIONARY
  5
22A83
330
319D
100
AcDbDictionary
280
     1
281
     1
  3
ACAD_XREC_ROUNDTRIP
360
22A84
  0
DICTIONARY
  5
22A99
330
1B2EB
100
AcDbDictionary
280
     1
281
     1
  3
ACAD_XREC_ROUNDTRIP
360
22A9A
  0
DICTIONARY
  5
22A7B
330
3199
100
AcDbDictionary
280
     1
281
     1
  3
ACAD_XREC_ROUNDTRIP
360
22A7C
  0
DICTIONARY
  5
22A95
330
1B2E9
100
AcDbDictionary
280
     1
281
     1
  3
ACAD_XREC_ROUNDTRIP
360
22A96
  0
DICTIONARY
  5
22A93
330
1B2E8
100
AcDbDictionary
280
     1
281
     1
  3
ACAD_XREC_ROUNDTRIP
360
22A94
  0
DICTIONARY
  5
22A8D
330
1B2E5
100
AcDbDictionary
280
     1
281
     1
  3
ACAD_XREC_ROUNDTRIP
360
22A8E
  0
DICTIONARY
  5
22A8F
330
1B2E6
100
AcDbDictionary
280
     1
281
     1
  3
ACAD_XREC_ROUNDTRIP
360
22A90
  0
DICTIONARY
  5
22A81
330
319C
100
AcDbDictionary
280
     1
281
     1
  3
ACAD_XREC_ROUNDTRIP
360
22A82
  0
DICTIONARY
  5
22A89
330
1B2E3
100
AcDbDictionary
280
     1
281
     1
  3
ACAD_XREC_ROUNDTRIP
360
22A8A
  0
DICTIONARY
  5
22A91
330
1B2E7
100
AcDbDictionary
280
     1
281
     1
  3
ACAD_XREC_ROUNDTRIP
360
22A92
  0
XRECORD
  5
22AA4
102
{ACAD_REACTORS
330
22AA3
102
}
330
22AA3
100
AcDbXrecord
280
     1
102
DISPLAYNAME
  1
Imperial24
102
FLAGS
 90
        0
  0
XRECORD
  5
22AA0
102
{ACAD_REACTORS
330
22A9F
102
}
330
22A9F
100
AcDbXrecord
280
     1
102
DISPLAYNAME
  1
Metric50
102
FLAGS
 90
        0
  0
XRECORD
  5
1B22C
102
{ACAD_REACTORS
330
1B22B
102
}
330
1B22B
100
AcDbXrecord
280
     1
102
MATERIAL
148
0.0
149
0.0
149
0.0
 93
        0
 94
      127
282
     0
 72
     1
 77
     1
171
     1
175
     1
179
     1
273
     0
  0
XRECORD
  5
1B22E
102
{ACAD_REACTORS
330
1B22D
102
}
330
1B22D
100
AcDbXrecord
280
     1
102
MATERIAL
148
0.0
149
0.0
149
0.0
 93
        0
 94
      127
282
     0
 72
     1
 77
     1
171
     1
175
     1
179
     1
273
     0
  0
XRECORD
  5
1B230
102
{ACAD_REACTORS
330
1B22F
102
}
330
1B22F
100
AcDbXrecord
280
     1
102
MATERIAL
148
0.0
149
0.0
149
0.0
 93
        0
 94
      127
282
     0
 72
     1
 77
     1
171
     1
175
     1
179
     1
273
     0
  0
XRECORD
  5
22AA2
102
{ACAD_REACTORS
330
22AA1
102
}
330
22AA1
100
AcDbXrecord
280
     1
102
DISPLAYNAME
  1
Imperial24
102
FLAGS
 90
        0
  0
XRECORD
  5
22A9E
102
{ACAD_REACTORS
330
22A9D
102
}
330
22A9D
100
AcDbXrecord
280
     1
102
DISPLAYNAME
  1
Metric50
102
FLAGS
 90
        0
  0
CELLSTYLEMAP
  5
22A67
102
{ACAD_REACTORS
330
1B314
102
}
330
1B314
100
AcDbCellStyleMap
 90
        3
300
CELLSTYLE
  1
TABLEFORMAT_BEGIN
 90
        5
170
     1
 91
        0
 92
    32768
 62
   257
 93
        1
300
CONTENTFORMAT
  1
CONTENTFORMAT_BEGIN
 90
        0
 91
        0
 92
        4
 93
        0
300

 40
0.0
140
1.0
 94
        5
 62
     0
340
11
144
6.0
309
CONTENTFORMAT_END
171
     1
301
MARGIN
  1
CELLMARGIN_BEGIN
 40
1.5
 40
1.5
 40
1.5
 40
1.5
 40
0.18
 40
0.18
309
CELLMARGIN_END
 94
        6
 95
        1
302
GRIDFORMAT
  1
GRIDFORMAT_BEGIN
 90
        0
 91
        1
 62
     0
 92
       -2
340
0
 93
        0
 40
0.045
309
GRIDFORMAT_END
 95
        2
302
GRIDFORMAT
  1
GRIDFORMAT_BEGIN
 90
        0
 91
        1
 62
     0
 92
       -2
340
0
 93
        0
 40
0.045
309
GRIDFORMAT_END
 95
        4
302
GRIDFORMAT
  1
GRIDFORMAT_BEGIN
 90
        0
 91
        1
 62
     0
 92
       -2
340
0
 93
        0
 40
0.045
309
GRIDFORMAT_END
 95
        8
302
GRIDFORMAT
  1
GRIDFORMAT_BEGIN
 90
        0
 91
        1
 62
     0
 92
       -2
340
0
 93
        0
 40
0.045
309
GRIDFORMAT_END
 95
       16
302
GRIDFORMAT
  1
GRIDFORMAT_BEGIN
 90
        0
 91
        1
 62
     0
 92
       -2
340
0
 93
        0
 40
0.045
309
GRIDFORMAT_END
 95
       32
302
GRIDFORMAT
  1
GRIDFORMAT_BEGIN
 90
        0
 91
        1
 62
     0
 92
       -2
340
0
 93
        0
 40
0.045
309
GRIDFORMAT_END
309
TABLEFORMAT_END
  1
CELLSTYLE_BEGIN
 90
        1
 91
        1
300
_TITLE
309
CELLSTYLE_END
300
CELLSTYLE
  1
TABLEFORMAT_BEGIN
 90
        5
170
     1
 91
        0
 92
        0
 62
   257
 93
        1
300
CONTENTFORMAT
  1
CONTENTFORMAT_BEGIN
 90
        0
 91
        0
 92
        4
 93
        0
300

 40
0.0
140
1.0
 94
        5
 62
     0
340
11
144
4.5
309
CONTENTFORMAT_END
171
     1
301
MARGIN
  1
CELLMARGIN_BEGIN
 40
1.5
 40
1.5
 40
1.5
 40
1.5
 40
0.18
 40
0.18
309
CELLMARGIN_END
 94
        6
 95
        1
302
GRIDFORMAT
  1
GRIDFORMAT_BEGIN
 90
        0
 91
        1
 62
     0
 92
       -2
340
0
 93
        0
 40
0.045
309
GRIDFORMAT_END
 95
        2
302
GRIDFORMAT
  1
GRIDFORMAT_BEGIN
 90
        0
 91
        1
 62
     0
 92
       -2
340
0
 93
        0
 40
0.045
309
GRIDFORMAT_END
 95
        4
302
GRIDFORMAT
  1
GRIDFORMAT_BEGIN
 90
        0
 91
        1
 62
     0
 92
       -2
340
0
 93
        0
 40
0.045
309
GRIDFORMAT_END
 95
        8
302
GRIDFORMAT
  1
GRIDFORMAT_BEGIN
 90
        0
 91
        1
 62
     0
 92
       -2
340
0
 93
        0
 40
0.045
309
GRIDFORMAT_END
 95
       16
302
GRIDFORMAT
  1
GRIDFORMAT_BEGIN
 90
        0
 91
        1
 62
     0
 92
       -2
340
0
 93
        0
 40
0.045
309
GRIDFORMAT_END
 95
       32
302
GRIDFORMAT
  1
GRIDFORMAT_BEGIN
 90
        0
 91
        1
 62
     0
 92
       -2
340
0
 93
        0
 40
0.045
309
GRIDFORMAT_END
309
TABLEFORMAT_END
  1
CELLSTYLE_BEGIN
 90
        2
 91
        1
300
_HEADER
309
CELLSTYLE_END
300
CELLSTYLE
  1
TABLEFORMAT_BEGIN
 90
        5
170
     1
 91
        0
 92
        0
 62
   257
 93
        1
300
CONTENTFORMAT
  1
CONTENTFORMAT_BEGIN
 90
        0
 91
        0
 92
        4
 93
        0
300

 40
0.0
140
1.0
 94
        2
 62
     0
340
11
144
4.5
309
CONTENTFORMAT_END
171
     1
301
MARGIN
  1
CELLMARGIN_BEGIN
 40
1.5
 40
1.5
 40
1.5
 40
1.5
 40
0.18
 40
0.18
309
CELLMARGIN_END
 94
        6
 95
        1
302
GRIDFORMAT
  1
GRIDFORMAT_BEGIN
 90
        0
 91
        1
 62
     0
 92
       -2
340
0
 93
        0
 40
0.045
309
GRIDFORMAT_END
 95
        2
302
GRIDFORMAT
  1
GRIDFORMAT_BEGIN
 90
        0
 91
        1
 62
     0
 92
       -2
340
0
 93
        0
 40
0.045
309
GRIDFORMAT_END
 95
        4
302
GRIDFORMAT
  1
GRIDFORMAT_BEGIN
 90
        0
 91
        1
 62
     0
 92
       -2
340
0
 93
        0
 40
0.045
309
GRIDFORMAT_END
 95
        8
302
GRIDFORMAT
  1
GRIDFORMAT_BEGIN
 90
        0
 91
        1
 62
     0
 92
       -2
340
0
 93
        0
 40
0.045
309
GRIDFORMAT_END
 95
       16
302
GRIDFORMAT
  1
GRIDFORMAT_BEGIN
 90
        0
 91
        1
 62
     0
 92
       -2
340
0
 93
        0
 40
0.045
309
GRIDFORMAT_END
 95
       32
302
GRIDFORMAT
  1
GRIDFORMAT_BEGIN
 90
        0
 91
        1
 62
     0
 92
       -2
340
0
 93
        0
 40
0.045
309
GRIDFORMAT_END
309
TABLEFORMAT_END
  1
CELLSTYLE_BEGIN
 90
        3
 91
        2
300
_DATA
309
CELLSTYLE_END
  0
XRECORD
  5
22A74
102
{ACAD_REACTORS
330
22A73
102
}
330
22A73
100
AcDbXrecord
280
     1
102
RTVSPost2010Prop28
280
     1
102
RTVSPost2010PropOp28
 70
     1
102
RTVSPost2010Prop29
280
     1
102
RTVSPost2010PropOp29
 70
     1
102
RTVSPost2010Prop30
280
     0
102
RTVSPost2010PropOp30
 70
     1
102
RTVSPost2010Prop31
280
     0
102
RTVSPost2010PropOp31
 70
     1
102
RTVSPost2010Prop32
280
     0
102
RTVSPost2010PropOp32
 70
     1
102
RTVSPost2010Prop33
280
     0
102
RTVSPost2010PropOp33
 70
     1
102
RTVSPost2010Prop34
280
     0
102
RTVSPost2010PropOp34
 70
     1
102
RTVSPost2010Prop35
280
     0
102
RTVSPost2010PropOp35
 70
     1
102
RTVSPost2010Prop36
280
     0
102
RTVSPost2010PropOp36
 70
     1
102
RTVSPost2010Prop37
 90
       50
102
RTVSPost2010PropOp37
 70
     1
102
RTVSPost2010Prop38
140
0.0
102
RTVSPost2010PropOp38
 70
     1
102
RTVSPost2010Prop39
140
1.0
102
RTVSPost2010PropOp39
 70
     1
102
RTVSPost2010Prop40
 90
        0
102
RTVSPost2010PropOp40
 70
     1
102
RTVSPost2010Prop41ColorIndex
 90
       18
102
RTVSPost2010Prop41ColorRGB
 90
        0
102
RTVSPost2010PropOp41
 70
     1
102
RTVSPost2010Prop42
 90
       50
102
RTVSPost2010PropOp42
 70
     1
102
RTVSPost2010Prop43
 90
        3
102
RTVSPost2010PropOp43
 70
     1
102
RTVSPost2010Prop44ColorIndex
 90
        5
102
RTVSPost2010Prop44ColorRGB
 90
      255
102
RTVSPost2010PropOp44
 70
     1
102
RTVSPost2010Prop45
280
     0
102
RTVSPost2010PropOp45
 70
     1
102
RTVSPost2010Prop46
 90
       50
102
RTVSPost2010PropOp46
 70
     1
102
RTVSPost2010Prop47
 90
       50
102
RTVSPost2010PropOp47
 70
     1
102
RTVSPost2010Prop48
 90
       50
102
RTVSPost2010PropOp48
 70
     1
102
RTVSPost2010Prop49
280
     0
102
RTVSPost2010PropOp49
 70
     1
102
RTVSPost2010Prop50
 90
       50
102
RTVSPost2010PropOp50
 70
     1
102
RTVSPost2010Prop51ColorIndex
 90
      256
102
RTVSPost2010Prop51ColorRGB
 90
-16777216
102
RTVSPost2010PropOp51
 70
     0
102
RTVSPost2010Prop52
140
1.0
102
RTVSPost2010PropOp52
 70
     0
102
RTVSPost2010Prop53
 90
        2
102
RTVSPost2010PropOp53
 70
     1
102
RTVSPost2010Prop54
  1
strokes_ogs.tif
102
RTVSPost2010PropOp54
 70
     1
102
RTVSPost2010Prop55
280
     0
102
RTVSPost2010PropOp55
 70
     1
102
RTVSPost2010Prop56
140
1.0
102
RTVSPost2010PropOp56
 70
     1
102
RTVSPost2010Prop57
140
1.0
102
RTVSPost2010PropOp57
 70
     1
102
RTVSPropertyOp0
 70
     1
102
RTVSPropertyOp1
 70
     1
102
RTVSPropertyOp2
 70
     1
102
RTVSPropertyOp3
 70
     1
102
RTVSPropertyOp4
 70
     1
102
RTVSPropertyOp5
 70
     1
102
RTVSPropertyOp6
 70
     1
102
RTVSPropertyOp7
 70
     1
102
RTVSPropertyOp8
 70
     1
102
RTVSPropertyOp9
 70
     1
102
RTVSPropertyOp10
 70
     1
102
RTVSPropertyOp11
 70
     1
102
RTVSPropertyOp12
 70
     1
102
RTVSPropertyOp13
 70
     1
102
RTVSPropertyOp14
 70
     1
102
RTVSPropertyOp15
 70
     1
102
RTVSPropertyOp16
 70
     1
102
RTVSPropertyOp17
 70
     1
102
RTVSPropertyOp18
 70
     1
102
RTVSPropertyOp19
 70
     1
102
RTVSPropertyOp20
 70
     1
102
RTVSPropertyOp21
 70
     1
102
RTVSPropertyOp22
 70
     1
102
RTVSPropertyOp23
 70
     1
102
RTVSPropertyOp24
 70
     1
102
RTVSPropertyOp25
 70
     1
102
RTVSPropertyOp26
 70
     1
102
RTVSPropertyOp27
 70
     1
102
RTVSPropertyOp28
 70
     1
102
RTVSPropertyOp29
 70
     1
102
RTVSPropertyOp30
 70
     1
102
RTVSPropertyOp31
 70
     1
102
RTVSPropertyOp32
 70
     1
102
RTVSPropertyOp33
 70
     1
102
RTVSPropertyOp34
 70
     1
102
RTVSPropertyOp35
 70
     1
102
RTVSPropertyOp36
 70
     1
102
RTVSPropertyOp37
 70
     1
102
RTVSPropertyOp38
 70
     1
102
RTVSPropertyOp39
 70
     1
102
RTVSPropertyOp40
 70
     1
102
RTVSPropertyOp41
 70
     1
102
RTVSPropertyOp42
 70
     1
102
RTVSPropertyOp43
 70
     1
102
RTVSPropertyOp44
 70
     1
102
RTVSPropertyOp45
 70
     1
102
RTVSPropertyOp46
 70
     1
102
RTVSPropertyOp47
 70
     1
102
RTVSPropertyOp48
 70
     1
102
RTVSPropertyOp49
 70
     1
102
RTVSPropertyOp50
 70
     1
102
RTVSPropertyOp51
 70
     0
102
RTVSPropertyOp52
 70
     0
102
RTVSPropertyOp53
 70
     1
102
RTVSPropertyOp54
 70
     1
102
RTVSPropertyOp55
 70
     1
102
RTVSPropertyOp56
 70
     1
102
RTVSPropertyOp57
 70
     1
102
RTVSPropertyOp58
 70
     1
102
RTVSPropertyOp59
 70
     1
102
RTVSPropertyOp60
 70
     1
102
RTVSPropertyOp61
 70
     1
102
RTVSPropertyOp62
 70
     1
  0
XRECORD
  5
22A78
102
{ACAD_REACTORS
330
22A77
102
}
330
22A77
100
AcDbXrecord
280
     1
102
RTVSPost2010Prop28
280
     0
102
RTVSPost2010PropOp28
 70
     1
102
RTVSPost2010Prop29
280
     1
102
RTVSPost2010PropOp29
 70
     1
102
RTVSPost2010Prop30
280
     1
102
RTVSPost2010PropOp30
 70
     1
102
RTVSPost2010Prop31
280
     0
102
RTVSPost2010PropOp31
 70
     1
102
RTVSPost2010Prop32
280
     0
102
RTVSPost2010PropOp32
 70
     1
102
RTVSPost2010Prop33
280
     0
102
RTVSPost2010PropOp33
 70
     1
102
RTVSPost2010Prop34
280
     0
102
RTVSPost2010PropOp34
 70
     1
102
RTVSPost2010Prop35
280
     0
102
RTVSPost2010PropOp35
 70
     1
102
RTVSPost2010Prop36
280
     0
102
RTVSPost2010PropOp36
 70
     1
102
RTVSPost2010Prop37
 90
       50
102
RTVSPost2010PropOp37
 70
     1
102
RTVSPost2010Prop38
140
0.0
102
RTVSPost2010PropOp38
 70
     1
102
RTVSPost2010Prop39
140
1.0
102
RTVSPost2010PropOp39
 70
     1
102
RTVSPost2010Prop40
 90
        0
102
RTVSPost2010PropOp40
 70
     1
102
RTVSPost2010Prop41ColorIndex
 90
       18
102
RTVSPost2010Prop41ColorRGB
 90
        0
102
RTVSPost2010PropOp41
 70
     1
102
RTVSPost2010Prop42
 90
       50
102
RTVSPost2010PropOp42
 70
     1
102
RTVSPost2010Prop43
 90
        3
102
RTVSPost2010PropOp43
 70
     1
102
RTVSPost2010Prop44ColorIndex
 90
        5
102
RTVSPost2010Prop44ColorRGB
 90
      255
102
RTVSPost2010PropOp44
 70
     1
102
RTVSPost2010Prop45
280
     0
102
RTVSPost2010PropOp45
 70
     1
102
RTVSPost2010Prop46
 90
       50
102
RTVSPost2010PropOp46
 70
     1
102
RTVSPost2010Prop47
 90
       50
102
RTVSPost2010PropOp47
 70
     1
102
RTVSPost2010Prop48
 90
       50
102
RTVSPost2010PropOp48
 70
     1
102
RTVSPost2010Prop49
280
     0
102
RTVSPost2010PropOp49
 70
     1
102
RTVSPost2010Prop50
 90
       50
102
RTVSPost2010PropOp50
 70
     1
102
RTVSPost2010Prop51ColorIndex
 90
      256
102
RTVSPost2010Prop51ColorRGB
 90
-16777216
102
RTVSPost2010PropOp51
 70
     0
102
RTVSPost2010Prop52
140
1.0
102
RTVSPost2010PropOp52
 70
     0
102
RTVSPost2010Prop53
 90
        2
102
RTVSPost2010PropOp53
 70
     1
102
RTVSPost2010Prop54
  1
strokes_ogs.tif
102
RTVSPost2010PropOp54
 70
     1
102
RTVSPost2010Prop55
280
     0
102
RTVSPost2010PropOp55
 70
     1
102
RTVSPost2010Prop56
140
1.0
102
RTVSPost2010PropOp56
 70
     1
102
RTVSPost2010Prop57
140
1.0
102
RTVSPost2010PropOp57
 70
     1
102
RTVSPropertyOp0
 70
     1
102
RTVSPropertyOp1
 70
     1
102
RTVSPropertyOp2
 70
     1
102
RTVSPropertyOp3
 70
     1
102
RTVSPropertyOp4
 70
     1
102
RTVSPropertyOp5
 70
     1
102
RTVSPropertyOp6
 70
     1
102
RTVSPropertyOp7
 70
     1
102
RTVSPropertyOp8
 70
     1
102
RTVSPropertyOp9
 70
     1
102
RTVSPropertyOp10
 70
     1
102
RTVSPropertyOp11
 70
     1
102
RTVSPropertyOp12
 70
     1
102
RTVSPropertyOp13
 70
     1
102
RTVSPropertyOp14
 70
     1
102
RTVSPropertyOp15
 70
     1
102
RTVSPropertyOp16
 70
     1
102
RTVSPropertyOp17
 70
     1
102
RTVSPropertyOp18
 70
     1
102
RTVSPropertyOp19
 70
     1
102
RTVSPropertyOp20
 70
     1
102
RTVSPropertyOp21
 70
     1
102
RTVSPropertyOp22
 70
     1
102
RTVSPropertyOp23
 70
     1
102
RTVSPropertyOp24
 70
     1
102
RTVSPropertyOp25
 70
     1
102
RTVSPropertyOp26
 70
     1
102
RTVSPropertyOp27
 70
     1
102
RTVSPropertyOp28
 70
     1
102
RTVSPropertyOp29
 70
     1
102
RTVSPropertyOp30
 70
     1
102
RTVSPropertyOp31
 70
     1
102
RTVSPropertyOp32
 70
     1
102
RTVSPropertyOp33
 70
     1
102
RTVSPropertyOp34
 70
     1
102
RTVSPropertyOp35
 70
     1
102
RTVSPropertyOp36
 70
     1
102
RTVSPropertyOp37
 70
     1
102
RTVSPropertyOp38
 70
     1
102
RTVSPropertyOp39
 70
     1
102
RTVSPropertyOp40
 70
     1
102
RTVSPropertyOp41
 70
     1
102
RTVSPropertyOp42
 70
     1
102
RTVSPropertyOp43
 70
     1
102
RTVSPropertyOp44
 70
     1
102
RTVSPropertyOp45
 70
     1
102
RTVSPropertyOp46
 70
     1
102
RTVSPropertyOp47
 70
     1
102
RTVSPropertyOp48
 70
     1
102
RTVSPropertyOp49
 70
     1
102
RTVSPropertyOp50
 70
     1
102
RTVSPropertyOp51
 70
     0
102
RTVSPropertyOp52
 70
     0
102
RTVSPropertyOp53
 70
     1
102
RTVSPropertyOp54
 70
     1
102
RTVSPropertyOp55
 70
     1
102
RTVSPropertyOp56
 70
     1
102
RTVSPropertyOp57
 70
     1
102
RTVSPropertyOp58
 70
     1
102
RTVSPropertyOp59
 70
     1
102
RTVSPropertyOp60
 70
     1
102
RTVSPropertyOp61
 70
     1
102
RTVSPropertyOp62
 70
     1
  0
XRECORD
  5
22A76
102
{ACAD_REACTORS
330
22A75
102
}
330
22A75
100
AcDbXrecord
280
     1
102
RTVSPost2010Prop28
280
     0
102
RTVSPost2010PropOp28
 70
     1
102
RTVSPost2010Prop29
280
     1
102
RTVSPost2010PropOp29
 70
     1
102
RTVSPost2010Prop30
280
     1
102
RTVSPost2010PropOp30
 70
     1
102
RTVSPost2010Prop31
280
     0
102
RTVSPost2010PropOp31
 70
     1
102
RTVSPost2010Prop32
280
     0
102
RTVSPost2010PropOp32
 70
     1
102
RTVSPost2010Prop33
280
     0
102
RTVSPost2010PropOp33
 70
     1
102
RTVSPost2010Prop34
280
     0
102
RTVSPost2010PropOp34
 70
     1
102
RTVSPost2010Prop35
280
     0
102
RTVSPost2010PropOp35
 70
     1
102
RTVSPost2010Prop36
280
     0
102
RTVSPost2010PropOp36
 70
     1
102
RTVSPost2010Prop37
 90
       50
102
RTVSPost2010PropOp37
 70
     1
102
RTVSPost2010Prop38
140
0.0
102
RTVSPost2010PropOp38
 70
     1
102
RTVSPost2010Prop39
140
1.0
102
RTVSPost2010PropOp39
 70
     1
102
RTVSPost2010Prop40
 90
        0
102
RTVSPost2010PropOp40
 70
     1
102
RTVSPost2010Prop41ColorIndex
 90
       18
102
RTVSPost2010Prop41ColorRGB
 90
        0
102
RTVSPost2010PropOp41
 70
     1
102
RTVSPost2010Prop42
 90
       50
102
RTVSPost2010PropOp42
 70
     1
102
RTVSPost2010Prop43
 90
        3
102
RTVSPost2010PropOp43
 70
     1
102
RTVSPost2010Prop44ColorIndex
 90
        5
102
RTVSPost2010Prop44ColorRGB
 90
      255
102
RTVSPost2010PropOp44
 70
     1
102
RTVSPost2010Prop45
280
     0
102
RTVSPost2010PropOp45
 70
     1
102
RTVSPost2010Prop46
 90
       50
102
RTVSPost2010PropOp46
 70
     1
102
RTVSPost2010Prop47
 90
       50
102
RTVSPost2010PropOp47
 70
     1
102
RTVSPost2010Prop48
 90
       50
102
RTVSPost2010PropOp48
 70
     1
102
RTVSPost2010Prop49
280
     0
102
RTVSPost2010PropOp49
 70
     1
102
RTVSPost2010Prop50
 90
       50
102
RTVSPost2010PropOp50
 70
     1
102
RTVSPost2010Prop51ColorIndex
 90
      256
102
RTVSPost2010Prop51ColorRGB
 90
-16777216
102
RTVSPost2010PropOp51
 70
     0
102
RTVSPost2010Prop52
140
1.0
102
RTVSPost2010PropOp52
 70
     0
102
RTVSPost2010Prop53
 90
        2
102
RTVSPost2010PropOp53
 70
     1
102
RTVSPost2010Prop54
  1
strokes_ogs.tif
102
RTVSPost2010PropOp54
 70
     1
102
RTVSPost2010Prop55
280
     0
102
RTVSPost2010PropOp55
 70
     1
102
RTVSPost2010Prop56
140
1.0
102
RTVSPost2010PropOp56
 70
     1
102
RTVSPost2010Prop57
140
1.0
102
RTVSPost2010PropOp57
 70
     1
102
RTVSPropertyOp0
 70
     1
102
RTVSPropertyOp1
 70
     1
102
RTVSPropertyOp2
 70
     1
102
RTVSPropertyOp3
 70
     1
102
RTVSPropertyOp4
 70
     1
102
RTVSPropertyOp5
 70
     1
102
RTVSPropertyOp6
 70
     1
102
RTVSPropertyOp7
 70
     1
102
RTVSPropertyOp8
 70
     1
102
RTVSPropertyOp9
 70
     1
102
RTVSPropertyOp10
 70
     1
102
RTVSPropertyOp11
 70
     1
102
RTVSPropertyOp12
 70
     1
102
RTVSPropertyOp13
 70
     1
102
RTVSPropertyOp14
 70
     1
102
RTVSPropertyOp15
 70
     1
102
RTVSPropertyOp16
 70
     1
102
RTVSPropertyOp17
 70
     1
102
RTVSPropertyOp18
 70
     1
102
RTVSPropertyOp19
 70
     1
102
RTVSPropertyOp20
 70
     1
102
RTVSPropertyOp21
 70
     1
102
RTVSPropertyOp22
 70
     1
102
RTVSPropertyOp23
 70
     1
102
RTVSPropertyOp24
 70
     1
102
RTVSPropertyOp25
 70
     1
102
RTVSPropertyOp26
 70
     1
102
RTVSPropertyOp27
 70
     1
102
RTVSPropertyOp28
 70
     1
102
RTVSPropertyOp29
 70
     1
102
RTVSPropertyOp30
 70
     1
102
RTVSPropertyOp31
 70
     1
102
RTVSPropertyOp32
 70
     1
102
RTVSPropertyOp33
 70
     1
102
RTVSPropertyOp34
 70
     1
102
RTVSPropertyOp35
 70
     1
102
RTVSPropertyOp36
 70
     1
102
RTVSPropertyOp37
 70
     1
102
RTVSPropertyOp38
 70
     1
102
RTVSPropertyOp39
 70
     1
102
RTVSPropertyOp40
 70
     1
102
RTVSPropertyOp41
 70
     1
102
RTVSPropertyOp42
 70
     1
102
RTVSPropertyOp43
 70
     1
102
RTVSPropertyOp44
 70
     1
102
RTVSPropertyOp45
 70
     1
102
RTVSPropertyOp46
 70
     1
102
RTVSPropertyOp47
 70
     1
102
RTVSPropertyOp48
 70
     1
102
RTVSPropertyOp49
 70
     1
102
RTVSPropertyOp50
 70
     1
102
RTVSPropertyOp51
 70
     0
102
RTVSPropertyOp52
 70
     0
102
RTVSPropertyOp53
 70
     1
102
RTVSPropertyOp54
 70
     1
102
RTVSPropertyOp55
 70
     1
102
RTVSPropertyOp56
 70
     1
102
RTVSPropertyOp57
 70
     1
102
RTVSPropertyOp58
 70
     1
102
RTVSPropertyOp59
 70
     1
102
RTVSPropertyOp60
 70
     1
102
RTVSPropertyOp61
 70
     1
102
RTVSPropertyOp62
 70
     1
  0
XRECORD
  5
22A72
102
{ACAD_REACTORS
330
22A71
102
}
330
22A71
100
AcDbXrecord
280
     1
102
RTVSPost2010Prop28
280
     0
102
RTVSPost2010PropOp28
 70
     1
102
RTVSPost2010Prop29
280
     1
102
RTVSPost2010PropOp29
 70
     1
102
RTVSPost2010Prop30
280
     1
102
RTVSPost2010PropOp30
 70
     1
102
RTVSPost2010Prop31
280
     0
102
RTVSPost2010PropOp31
 70
     1
102
RTVSPost2010Prop32
280
     0
102
RTVSPost2010PropOp32
 70
     1
102
RTVSPost2010Prop33
280
     0
102
RTVSPost2010PropOp33
 70
     1
102
RTVSPost2010Prop34
280
     0
102
RTVSPost2010PropOp34
 70
     1
102
RTVSPost2010Prop35
280
     0
102
RTVSPost2010PropOp35
 70
     1
102
RTVSPost2010Prop36
280
     0
102
RTVSPost2010PropOp36
 70
     1
102
RTVSPost2010Prop37
 90
       50
102
RTVSPost2010PropOp37
 70
     1
102
RTVSPost2010Prop38
140
0.0
102
RTVSPost2010PropOp38
 70
     1
102
RTVSPost2010Prop39
140
1.0
102
RTVSPost2010PropOp39
 70
     1
102
RTVSPost2010Prop40
 90
        0
102
RTVSPost2010PropOp40
 70
     1
102
RTVSPost2010Prop41ColorIndex
 90
       18
102
RTVSPost2010Prop41ColorRGB
 90
        0
102
RTVSPost2010PropOp41
 70
     1
102
RTVSPost2010Prop42
 90
       50
102
RTVSPost2010PropOp42
 70
     1
102
RTVSPost2010Prop43
 90
        3
102
RTVSPost2010PropOp43
 70
     1
102
RTVSPost2010Prop44ColorIndex
 90
        5
102
RTVSPost2010Prop44ColorRGB
 90
      255
102
RTVSPost2010PropOp44
 70
     1
102
RTVSPost2010Prop45
280
     0
102
RTVSPost2010PropOp45
 70
     1
102
RTVSPost2010Prop46
 90
       50
102
RTVSPost2010PropOp46
 70
     1
102
RTVSPost2010Prop47
 90
       50
102
RTVSPost2010PropOp47
 70
     1
102
RTVSPost2010Prop48
 90
       50
102
RTVSPost2010PropOp48
 70
     1
102
RTVSPost2010Prop49
280
     0
102
RTVSPost2010PropOp49
 70
     1
102
RTVSPost2010Prop50
 90
       50
102
RTVSPost2010PropOp50
 70
     1
102
RTVSPost2010Prop51ColorIndex
 90
      256
102
RTVSPost2010Prop51ColorRGB
 90
-16777216
102
RTVSPost2010PropOp51
 70
     0
102
RTVSPost2010Prop52
140
1.0
102
RTVSPost2010PropOp52
 70
     0
102
RTVSPost2010Prop53
 90
        2
102
RTVSPost2010PropOp53
 70
     1
102
RTVSPost2010Prop54
  1
strokes_ogs.tif
102
RTVSPost2010PropOp54
 70
     1
102
RTVSPost2010Prop55
280
     0
102
RTVSPost2010PropOp55
 70
     1
102
RTVSPost2010Prop56
140
1.0
102
RTVSPost2010PropOp56
 70
     1
102
RTVSPost2010Prop57
140
1.0
102
RTVSPost2010PropOp57
 70
     1
102
RTVSPropertyOp0
 70
     1
102
RTVSPropertyOp1
 70
     1
102
RTVSPropertyOp2
 70
     1
102
RTVSPropertyOp3
 70
     1
102
RTVSPropertyOp4
 70
     1
102
RTVSPropertyOp5
 70
     1
102
RTVSPropertyOp6
 70
     1
102
RTVSPropertyOp7
 70
     1
102
RTVSPropertyOp8
 70
     1
102
RTVSPropertyOp9
 70
     1
102
RTVSPropertyOp10
 70
     1
102
RTVSPropertyOp11
 70
     1
102
RTVSPropertyOp12
 70
     1
102
RTVSPropertyOp13
 70
     1
102
RTVSPropertyOp14
 70
     1
102
RTVSPropertyOp15
 70
     1
102
RTVSPropertyOp16
 70
     1
102
RTVSPropertyOp17
 70
     1
102
RTVSPropertyOp18
 70
     1
102
RTVSPropertyOp19
 70
     1
102
RTVSPropertyOp20
 70
     1
102
RTVSPropertyOp21
 70
     1
102
RTVSPropertyOp22
 70
     1
102
RTVSPropertyOp23
 70
     1
102
RTVSPropertyOp24
 70
     1
102
RTVSPropertyOp25
 70
     1
102
RTVSPropertyOp26
 70
     1
102
RTVSPropertyOp27
 70
     1
102
RTVSPropertyOp28
 70
     1
102
RTVSPropertyOp29
 70
     1
102
RTVSPropertyOp30
 70
     1
102
RTVSPropertyOp31
 70
     1
102
RTVSPropertyOp32
 70
     1
102
RTVSPropertyOp33
 70
     1
102
RTVSPropertyOp34
 70
     1
102
RTVSPropertyOp35
 70
     1
102
RTVSPropertyOp36
 70
     1
102
RTVSPropertyOp37
 70
     1
102
RTVSPropertyOp38
 70
     1
102
RTVSPropertyOp39
 70
     1
102
RTVSPropertyOp40
 70
     1
102
RTVSPropertyOp41
 70
     1
102
RTVSPropertyOp42
 70
     1
102
RTVSPropertyOp43
 70
     1
102
RTVSPropertyOp44
 70
     1
102
RTVSPropertyOp45
 70
     1
102
RTVSPropertyOp46
 70
     1
102
RTVSPropertyOp47
 70
     1
102
RTVSPropertyOp48
 70
     1
102
RTVSPropertyOp49
 70
     1
102
RTVSPropertyOp50
 70
     1
102
RTVSPropertyOp51
 70
     0
102
RTVSPropertyOp52
 70
     0
102
RTVSPropertyOp53
 70
     1
102
RTVSPropertyOp54
 70
     1
102
RTVSPropertyOp55
 70
     1
102
RTVSPropertyOp56
 70
     1
102
RTVSPropertyOp57
 70
     1
102
RTVSPropertyOp58
 70
     1
102
RTVSPropertyOp59
 70
     1
102
RTVSPropertyOp60
 70
     1
102
RTVSPropertyOp61
 70
     1
102
RTVSPropertyOp62
 70
     1
  0
XRECORD
  5
22A80
102
{ACAD_REACTORS
330
22A7F
102
}
330
22A7F
100
AcDbXrecord
280
     1
102
RTVSPost2010Prop28
280
     0
102
RTVSPost2010PropOp28
 70
     1
102
RTVSPost2010Prop29
280
     1
102
RTVSPost2010PropOp29
 70
     1
102
RTVSPost2010Prop30
280
     1
102
RTVSPost2010PropOp30
 70
     1
102
RTVSPost2010Prop31
280
     0
102
RTVSPost2010PropOp31
 70
     1
102
RTVSPost2010Prop32
280
     0
102
RTVSPost2010PropOp32
 70
     1
102
RTVSPost2010Prop33
280
     0
102
RTVSPost2010PropOp33
 70
     1
102
RTVSPost2010Prop34
280
     0
102
RTVSPost2010PropOp34
 70
     1
102
RTVSPost2010Prop35
280
     0
102
RTVSPost2010PropOp35
 70
     1
102
RTVSPost2010Prop36
280
     0
102
RTVSPost2010PropOp36
 70
     1
102
RTVSPost2010Prop37
 90
       50
102
RTVSPost2010PropOp37
 70
     1
102
RTVSPost2010Prop38
140
0.0
102
RTVSPost2010PropOp38
 70
     1
102
RTVSPost2010Prop39
140
1.0
102
RTVSPost2010PropOp39
 70
     1
102
RTVSPost2010Prop40
 90
        0
102
RTVSPost2010PropOp40
 70
     1
102
RTVSPost2010Prop41ColorIndex
 90
       18
102
RTVSPost2010Prop41ColorRGB
 90
        0
102
RTVSPost2010PropOp41
 70
     1
102
RTVSPost2010Prop42
 90
       50
102
RTVSPost2010PropOp42
 70
     1
102
RTVSPost2010Prop43
 90
        3
102
RTVSPost2010PropOp43
 70
     1
102
RTVSPost2010Prop44ColorIndex
 90
        5
102
RTVSPost2010Prop44ColorRGB
 90
      255
102
RTVSPost2010PropOp44
 70
     1
102
RTVSPost2010Prop45
280
     0
102
RTVSPost2010PropOp45
 70
     1
102
RTVSPost2010Prop46
 90
       50
102
RTVSPost2010PropOp46
 70
     1
102
RTVSPost2010Prop47
 90
       50
102
RTVSPost2010PropOp47
 70
     1
102
RTVSPost2010Prop48
 90
       50
102
RTVSPost2010PropOp48
 70
     1
102
RTVSPost2010Prop49
280
     0
102
RTVSPost2010PropOp49
 70
     1
102
RTVSPost2010Prop50
 90
       50
102
RTVSPost2010PropOp50
 70
     1
102
RTVSPost2010Prop51ColorIndex
 90
      256
102
RTVSPost2010Prop51ColorRGB
 90
-16777216
102
RTVSPost2010PropOp51
 70
     0
102
RTVSPost2010Prop52
140
1.0
102
RTVSPost2010PropOp52
 70
     0
102
RTVSPost2010Prop53
 90
        2
102
RTVSPost2010PropOp53
 70
     1
102
RTVSPost2010Prop54
  1
strokes_ogs.tif
102
RTVSPost2010PropOp54
 70
     1
102
RTVSPost2010Prop55
280
     0
102
RTVSPost2010PropOp55
 70
     1
102
RTVSPost2010Prop56
140
1.0
102
RTVSPost2010PropOp56
 70
     1
102
RTVSPost2010Prop57
140
1.0
102
RTVSPost2010PropOp57
 70
     1
102
RTVSPropertyOp0
 70
     1
102
RTVSPropertyOp1
 70
     1
102
RTVSPropertyOp2
 70
     1
102
RTVSPropertyOp3
 70
     1
102
RTVSPropertyOp4
 70
     1
102
RTVSPropertyOp5
 70
     1
102
RTVSPropertyOp6
 70
     1
102
RTVSPropertyOp7
 70
     1
102
RTVSPropertyOp8
 70
     1
102
RTVSPropertyOp9
 70
     1
102
RTVSPropertyOp10
 70
     1
102
RTVSPropertyOp11
 70
     1
102
RTVSPropertyOp12
 70
     1
102
RTVSPropertyOp13
 70
     1
102
RTVSPropertyOp14
 70
     1
102
RTVSPropertyOp15
 70
     1
102
RTVSPropertyOp16
 70
     1
102
RTVSPropertyOp17
 70
     1
102
RTVSPropertyOp18
 70
     1
102
RTVSPropertyOp19
 70
     1
102
RTVSPropertyOp20
 70
     1
102
RTVSPropertyOp21
 70
     1
102
RTVSPropertyOp22
 70
     1
102
RTVSPropertyOp23
 70
     1
102
RTVSPropertyOp24
 70
     1
102
RTVSPropertyOp25
 70
     1
102
RTVSPropertyOp26
 70
     1
102
RTVSPropertyOp27
 70
     1
102
RTVSPropertyOp28
 70
     1
102
RTVSPropertyOp29
 70
     1
102
RTVSPropertyOp30
 70
     1
102
RTVSPropertyOp31
 70
     1
102
RTVSPropertyOp32
 70
     1
102
RTVSPropertyOp33
 70
     1
102
RTVSPropertyOp34
 70
     1
102
RTVSPropertyOp35
 70
     1
102
RTVSPropertyOp36
 70
     1
102
RTVSPropertyOp37
 70
     1
102
RTVSPropertyOp38
 70
     1
102
RTVSPropertyOp39
 70
     1
102
RTVSPropertyOp40
 70
     1
102
RTVSPropertyOp41
 70
     1
102
RTVSPropertyOp42
 70
     1
102
RTVSPropertyOp43
 70
     1
102
RTVSPropertyOp44
 70
     1
102
RTVSPropertyOp45
 70
     1
102
RTVSPropertyOp46
 70
     1
102
RTVSPropertyOp47
 70
     1
102
RTVSPropertyOp48
 70
     1
102
RTVSPropertyOp49
 70
     1
102
RTVSPropertyOp50
 70
     1
102
RTVSPropertyOp51
 70
     0
102
RTVSPropertyOp52
 70
     0
102
RTVSPropertyOp53
 70
     1
102
RTVSPropertyOp54
 70
     1
102
RTVSPropertyOp55
 70
     1
102
RTVSPropertyOp56
 70
     1
102
RTVSPropertyOp57
 70
     1
102
RTVSPropertyOp58
 70
     1
102
RTVSPropertyOp59
 70
     1
102
RTVSPropertyOp60
 70
     1
102
RTVSPropertyOp61
 70
     1
102
RTVSPropertyOp62
 70
     1
  0
XRECORD
  5
22A88
102
{ACAD_REACTORS
330
22A87
102
}
330
22A87
100
AcDbXrecord
280
     1
102
RTVSPost2010Prop28
280
     0
102
RTVSPost2010PropOp28
 70
     1
102
RTVSPost2010Prop29
280
     1
102
RTVSPost2010PropOp29
 70
     1
102
RTVSPost2010Prop30
280
     1
102
RTVSPost2010PropOp30
 70
     1
102
RTVSPost2010Prop31
280
     0
102
RTVSPost2010PropOp31
 70
     1
102
RTVSPost2010Prop32
280
     0
102
RTVSPost2010PropOp32
 70
     1
102
RTVSPost2010Prop33
280
     0
102
RTVSPost2010PropOp33
 70
     1
102
RTVSPost2010Prop34
280
     0
102
RTVSPost2010PropOp34
 70
     1
102
RTVSPost2010Prop35
280
     0
102
RTVSPost2010PropOp35
 70
     1
102
RTVSPost2010Prop36
280
     0
102
RTVSPost2010PropOp36
 70
     1
102
RTVSPost2010Prop37
 90
       50
102
RTVSPost2010PropOp37
 70
     1
102
RTVSPost2010Prop38
140
0.0
102
RTVSPost2010PropOp38
 70
     1
102
RTVSPost2010Prop39
140
1.0
102
RTVSPost2010PropOp39
 70
     1
102
RTVSPost2010Prop40
 90
        0
102
RTVSPost2010PropOp40
 70
     1
102
RTVSPost2010Prop41ColorIndex
 90
       18
102
RTVSPost2010Prop41ColorRGB
 90
        0
102
RTVSPost2010PropOp41
 70
     1
102
RTVSPost2010Prop42
 90
       50
102
RTVSPost2010PropOp42
 70
     1
102
RTVSPost2010Prop43
 90
        3
102
RTVSPost2010PropOp43
 70
     1
102
RTVSPost2010Prop44ColorIndex
 90
        5
102
RTVSPost2010Prop44ColorRGB
 90
      255
102
RTVSPost2010PropOp44
 70
     1
102
RTVSPost2010Prop45
280
     0
102
RTVSPost2010PropOp45
 70
     1
102
RTVSPost2010Prop46
 90
       50
102
RTVSPost2010PropOp46
 70
     1
102
RTVSPost2010Prop47
 90
       50
102
RTVSPost2010PropOp47
 70
     1
102
RTVSPost2010Prop48
 90
       50
102
RTVSPost2010PropOp48
 70
     1
102
RTVSPost2010Prop49
280
     0
102
RTVSPost2010PropOp49
 70
     1
102
RTVSPost2010Prop50
 90
       50
102
RTVSPost2010PropOp50
 70
     1
102
RTVSPost2010Prop51ColorIndex
 90
      256
102
RTVSPost2010Prop51ColorRGB
 90
-16777216
102
RTVSPost2010PropOp51
 70
     0
102
RTVSPost2010Prop52
140
1.0
102
RTVSPost2010PropOp52
 70
     0
102
RTVSPost2010Prop53
 90
        2
102
RTVSPost2010PropOp53
 70
     1
102
RTVSPost2010Prop54
  1
strokes_ogs.tif
102
RTVSPost2010PropOp54
 70
     1
102
RTVSPost2010Prop55
280
     0
102
RTVSPost2010PropOp55
 70
     1
102
RTVSPost2010Prop56
140
1.0
102
RTVSPost2010PropOp56
 70
     1
102
RTVSPost2010Prop57
140
1.0
102
RTVSPost2010PropOp57
 70
     1
102
RTVSPropertyOp0
 70
     1
102
RTVSPropertyOp1
 70
     1
102
RTVSPropertyOp2
 70
     1
102
RTVSPropertyOp3
 70
     1
102
RTVSPropertyOp4
 70
     1
102
RTVSPropertyOp5
 70
     1
102
RTVSPropertyOp6
 70
     1
102
RTVSPropertyOp7
 70
     1
102
RTVSPropertyOp8
 70
     1
102
RTVSPropertyOp9
 70
     1
102
RTVSPropertyOp10
 70
     1
102
RTVSPropertyOp11
 70
     1
102
RTVSPropertyOp12
 70
     1
102
RTVSPropertyOp13
 70
     1
102
RTVSPropertyOp14
 70
     1
102
RTVSPropertyOp15
 70
     1
102
RTVSPropertyOp16
 70
     1
102
RTVSPropertyOp17
 70
     1
102
RTVSPropertyOp18
 70
     1
102
RTVSPropertyOp19
 70
     1
102
RTVSPropertyOp20
 70
     1
102
RTVSPropertyOp21
 70
     1
102
RTVSPropertyOp22
 70
     1
102
RTVSPropertyOp23
 70
     1
102
RTVSPropertyOp24
 70
     1
102
RTVSPropertyOp25
 70
     1
102
RTVSPropertyOp26
 70
     1
102
RTVSPropertyOp27
 70
     1
102
RTVSPropertyOp28
 70
     1
102
RTVSPropertyOp29
 70
     1
102
RTVSPropertyOp30
 70
     1
102
RTVSPropertyOp31
 70
     1
102
RTVSPropertyOp32
 70
     1
102
RTVSPropertyOp33
 70
     1
102
RTVSPropertyOp34
 70
     1
102
RTVSPropertyOp35
 70
     1
102
RTVSPropertyOp36
 70
     1
102
RTVSPropertyOp37
 70
     1
102
RTVSPropertyOp38
 70
     1
102
RTVSPropertyOp39
 70
     1
102
RTVSPropertyOp40
 70
     1
102
RTVSPropertyOp41
 70
     1
102
RTVSPropertyOp42
 70
     1
102
RTVSPropertyOp43
 70
     1
102
RTVSPropertyOp44
 70
     1
102
RTVSPropertyOp45
 70
     1
102
RTVSPropertyOp46
 70
     1
102
RTVSPropertyOp47
 70
     1
102
RTVSPropertyOp48
 70
     1
102
RTVSPropertyOp49
 70
     1
102
RTVSPropertyOp50
 70
     1
102
RTVSPropertyOp51
 70
     0
102
RTVSPropertyOp52
 70
     0
102
RTVSPropertyOp53
 70
     1
102
RTVSPropertyOp54
 70
     1
102
RTVSPropertyOp55
 70
     1
102
RTVSPropertyOp56
 70
     1
102
RTVSPropertyOp57
 70
     1
102
RTVSPropertyOp58
 70
     1
102
RTVSPropertyOp59
 70
     1
102
RTVSPropertyOp60
 70
     1
102
RTVSPropertyOp61
 70
     1
102
RTVSPropertyOp62
 70
     1
  0
XRECORD
  5
22A7A
102
{ACAD_REACTORS
330
22A79
102
}
330
22A79
100
AcDbXrecord
280
     1
102
RTVSPost2010Prop28
280
     0
102
RTVSPost2010PropOp28
 70
     1
102
RTVSPost2010Prop29
280
     1
102
RTVSPost2010PropOp29
 70
     1
102
RTVSPost2010Prop30
280
     1
102
RTVSPost2010PropOp30
 70
     1
102
RTVSPost2010Prop31
280
     0
102
RTVSPost2010PropOp31
 70
     1
102
RTVSPost2010Prop32
280
     0
102
RTVSPost2010PropOp32
 70
     1
102
RTVSPost2010Prop33
280
     0
102
RTVSPost2010PropOp33
 70
     1
102
RTVSPost2010Prop34
280
     0
102
RTVSPost2010PropOp34
 70
     1
102
RTVSPost2010Prop35
280
     0
102
RTVSPost2010PropOp35
 70
     1
102
RTVSPost2010Prop36
280
     0
102
RTVSPost2010PropOp36
 70
     1
102
RTVSPost2010Prop37
 90
       50
102
RTVSPost2010PropOp37
 70
     1
102
RTVSPost2010Prop38
140
0.0
102
RTVSPost2010PropOp38
 70
     1
102
RTVSPost2010Prop39
140
1.0
102
RTVSPost2010PropOp39
 70
     1
102
RTVSPost2010Prop40
 90
        0
102
RTVSPost2010PropOp40
 70
     1
102
RTVSPost2010Prop41ColorIndex
 90
       18
102
RTVSPost2010Prop41ColorRGB
 90
        0
102
RTVSPost2010PropOp41
 70
     1
102
RTVSPost2010Prop42
 90
       50
102
RTVSPost2010PropOp42
 70
     1
102
RTVSPost2010Prop43
 90
        3
102
RTVSPost2010PropOp43
 70
     1
102
RTVSPost2010Prop44ColorIndex
 90
        5
102
RTVSPost2010Prop44ColorRGB
 90
      255
102
RTVSPost2010PropOp44
 70
     1
102
RTVSPost2010Prop45
280
     0
102
RTVSPost2010PropOp45
 70
     1
102
RTVSPost2010Prop46
 90
       50
102
RTVSPost2010PropOp46
 70
     1
102
RTVSPost2010Prop47
 90
       50
102
RTVSPost2010PropOp47
 70
     1
102
RTVSPost2010Prop48
 90
       50
102
RTVSPost2010PropOp48
 70
     1
102
RTVSPost2010Prop49
280
     0
102
RTVSPost2010PropOp49
 70
     1
102
RTVSPost2010Prop50
 90
       50
102
RTVSPost2010PropOp50
 70
     1
102
RTVSPost2010Prop51ColorIndex
 90
      256
102
RTVSPost2010Prop51ColorRGB
 90
-16777216
102
RTVSPost2010PropOp51
 70
     0
102
RTVSPost2010Prop52
140
1.0
102
RTVSPost2010PropOp52
 70
     0
102
RTVSPost2010Prop53
 90
        2
102
RTVSPost2010PropOp53
 70
     1
102
RTVSPost2010Prop54
  1
strokes_ogs.tif
102
RTVSPost2010PropOp54
 70
     1
102
RTVSPost2010Prop55
280
     0
102
RTVSPost2010PropOp55
 70
     1
102
RTVSPost2010Prop56
140
1.0
102
RTVSPost2010PropOp56
 70
     1
102
RTVSPost2010Prop57
140
1.0
102
RTVSPost2010PropOp57
 70
     1
102
RTVSPropertyOp0
 70
     1
102
RTVSPropertyOp1
 70
     1
102
RTVSPropertyOp2
 70
     1
102
RTVSPropertyOp3
 70
     1
102
RTVSPropertyOp4
 70
     1
102
RTVSPropertyOp5
 70
     1
102
RTVSPropertyOp6
 70
     1
102
RTVSPropertyOp7
 70
     1
102
RTVSPropertyOp8
 70
     1
102
RTVSPropertyOp9
 70
     1
102
RTVSPropertyOp10
 70
     1
102
RTVSPropertyOp11
 70
     1
102
RTVSPropertyOp12
 70
     1
102
RTVSPropertyOp13
 70
     1
102
RTVSPropertyOp14
 70
     1
102
RTVSPropertyOp15
 70
     1
102
RTVSPropertyOp16
 70
     1
102
RTVSPropertyOp17
 70
     1
102
RTVSPropertyOp18
 70
     1
102
RTVSPropertyOp19
 70
     1
102
RTVSPropertyOp20
 70
     1
102
RTVSPropertyOp21
 70
     1
102
RTVSPropertyOp22
 70
     1
102
RTVSPropertyOp23
 70
     1
102
RTVSPropertyOp24
 70
     1
102
RTVSPropertyOp25
 70
     1
102
RTVSPropertyOp26
 70
     1
102
RTVSPropertyOp27
 70
     1
102
RTVSPropertyOp28
 70
     1
102
RTVSPropertyOp29
 70
     1
102
RTVSPropertyOp30
 70
     1
102
RTVSPropertyOp31
 70
     1
102
RTVSPropertyOp32
 70
     1
102
RTVSPropertyOp33
 70
     1
102
RTVSPropertyOp34
 70
     1
102
RTVSPropertyOp35
 70
     1
102
RTVSPropertyOp36
 70
     1
102
RTVSPropertyOp37
 70
     1
102
RTVSPropertyOp38
 70
     1
102
RTVSPropertyOp39
 70
     1
102
RTVSPropertyOp40
 70
     1
102
RTVSPropertyOp41
 70
     1
102
RTVSPropertyOp42
 70
     1
102
RTVSPropertyOp43
 70
     1
102
RTVSPropertyOp44
 70
     1
102
RTVSPropertyOp45
 70
     1
102
RTVSPropertyOp46
 70
     1
102
RTVSPropertyOp47
 70
     1
102
RTVSPropertyOp48
 70
     1
102
RTVSPropertyOp49
 70
     1
102
RTVSPropertyOp50
 70
     1
102
RTVSPropertyOp51
 70
     0
102
RTVSPropertyOp52
 70
     0
102
RTVSPropertyOp53
 70
     1
102
RTVSPropertyOp54
 70
     1
102
RTVSPropertyOp55
 70
     1
102
RTVSPropertyOp56
 70
     1
102
RTVSPropertyOp57
 70
     1
102
RTVSPropertyOp58
 70
     1
102
RTVSPropertyOp59
 70
     1
102
RTVSPropertyOp60
 70
     1
102
RTVSPropertyOp61
 70
     1
102
RTVSPropertyOp62
 70
     1
  0
XRECORD
  5
22A7E
102
{ACAD_REACTORS
330
22A7D
102
}
330
22A7D
100
AcDbXrecord
280
     1
102
RTVSPost2010Prop28
280
     0
102
RTVSPost2010PropOp28
 70
     1
102
RTVSPost2010Prop29
280
     1
102
RTVSPost2010PropOp29
 70
     1
102
RTVSPost2010Prop30
280
     1
102
RTVSPost2010PropOp30
 70
     1
102
RTVSPost2010Prop31
280
     0
102
RTVSPost2010PropOp31
 70
     1
102
RTVSPost2010Prop32
280
     0
102
RTVSPost2010PropOp32
 70
     1
102
RTVSPost2010Prop33
280
     0
102
RTVSPost2010PropOp33
 70
     1
102
RTVSPost2010Prop34
280
     0
102
RTVSPost2010PropOp34
 70
     1
102
RTVSPost2010Prop35
280
     0
102
RTVSPost2010PropOp35
 70
     1
102
RTVSPost2010Prop36
280
     0
102
RTVSPost2010PropOp36
 70
     1
102
RTVSPost2010Prop37
 90
       50
102
RTVSPost2010PropOp37
 70
     1
102
RTVSPost2010Prop38
140
0.0
102
RTVSPost2010PropOp38
 70
     1
102
RTVSPost2010Prop39
140
1.0
102
RTVSPost2010PropOp39
 70
     1
102
RTVSPost2010Prop40
 90
        0
102
RTVSPost2010PropOp40
 70
     1
102
RTVSPost2010Prop41ColorIndex
 90
       18
102
RTVSPost2010Prop41ColorRGB
 90
        0
102
RTVSPost2010PropOp41
 70
     1
102
RTVSPost2010Prop42
 90
       50
102
RTVSPost2010PropOp42
 70
     1
102
RTVSPost2010Prop43
 90
        3
102
RTVSPost2010PropOp43
 70
     1
102
RTVSPost2010Prop44ColorIndex
 90
        5
102
RTVSPost2010Prop44ColorRGB
 90
      255
102
RTVSPost2010PropOp44
 70
     1
102
RTVSPost2010Prop45
280
     0
102
RTVSPost2010PropOp45
 70
     1
102
RTVSPost2010Prop46
 90
       50
102
RTVSPost2010PropOp46
 70
     1
102
RTVSPost2010Prop47
 90
       50
102
RTVSPost2010PropOp47
 70
     1
102
RTVSPost2010Prop48
 90
       50
102
RTVSPost2010PropOp48
 70
     1
102
RTVSPost2010Prop49
280
     0
102
RTVSPost2010PropOp49
 70
     1
102
RTVSPost2010Prop50
 90
       50
102
RTVSPost2010PropOp50
 70
     1
102
RTVSPost2010Prop51ColorIndex
 90
      256
102
RTVSPost2010Prop51ColorRGB
 90
-16777216
102
RTVSPost2010PropOp51
 70
     0
102
RTVSPost2010Prop52
140
1.0
102
RTVSPost2010PropOp52
 70
     0
102
RTVSPost2010Prop53
 90
        2
102
RTVSPost2010PropOp53
 70
     1
102
RTVSPost2010Prop54
  1
strokes_ogs.tif
102
RTVSPost2010PropOp54
 70
     1
102
RTVSPost2010Prop55
280
     0
102
RTVSPost2010PropOp55
 70
     1
102
RTVSPost2010Prop56
140
1.0
102
RTVSPost2010PropOp56
 70
     1
102
RTVSPost2010Prop57
140
1.0
102
RTVSPost2010PropOp57
 70
     1
102
RTVSPropertyOp0
 70
     1
102
RTVSPropertyOp1
 70
     1
102
RTVSPropertyOp2
 70
     1
102
RTVSPropertyOp3
 70
     1
102
RTVSPropertyOp4
 70
     1
102
RTVSPropertyOp5
 70
     1
102
RTVSPropertyOp6
 70
     1
102
RTVSPropertyOp7
 70
     1
102
RTVSPropertyOp8
 70
     1
102
RTVSPropertyOp9
 70
     1
102
RTVSPropertyOp10
 70
     1
102
RTVSPropertyOp11
 70
     1
102
RTVSPropertyOp12
 70
     1
102
RTVSPropertyOp13
 70
     1
102
RTVSPropertyOp14
 70
     1
102
RTVSPropertyOp15
 70
     1
102
RTVSPropertyOp16
 70
     1
102
RTVSPropertyOp17
 70
     1
102
RTVSPropertyOp18
 70
     1
102
RTVSPropertyOp19
 70
     1
102
RTVSPropertyOp20
 70
     1
102
RTVSPropertyOp21
 70
     1
102
RTVSPropertyOp22
 70
     1
102
RTVSPropertyOp23
 70
     1
102
RTVSPropertyOp24
 70
     1
102
RTVSPropertyOp25
 70
     1
102
RTVSPropertyOp26
 70
     1
102
RTVSPropertyOp27
 70
     1
102
RTVSPropertyOp28
 70
     1
102
RTVSPropertyOp29
 70
     1
102
RTVSPropertyOp30
 70
     1
102
RTVSPropertyOp31
 70
     1
102
RTVSPropertyOp32
 70
     1
102
RTVSPropertyOp33
 70
     1
102
RTVSPropertyOp34
 70
     1
102
RTVSPropertyOp35
 70
     1
102
RTVSPropertyOp36
 70
     1
102
RTVSPropertyOp37
 70
     1
102
RTVSPropertyOp38
 70
     1
102
RTVSPropertyOp39
 70
     1
102
RTVSPropertyOp40
 70
     1
102
RTVSPropertyOp41
 70
     1
102
RTVSPropertyOp42
 70
     1
102
RTVSPropertyOp43
 70
     1
102
RTVSPropertyOp44
 70
     1
102
RTVSPropertyOp45
 70
     1
102
RTVSPropertyOp46
 70
     1
102
RTVSPropertyOp47
 70
     1
102
RTVSPropertyOp48
 70
     1
102
RTVSPropertyOp49
 70
     1
102
RTVSPropertyOp50
 70
     1
102
RTVSPropertyOp51
 70
     0
102
RTVSPropertyOp52
 70
     0
102
RTVSPropertyOp53
 70
     1
102
RTVSPropertyOp54
 70
     1
102
RTVSPropertyOp55
 70
     1
102
RTVSPropertyOp56
 70
     1
102
RTVSPropertyOp57
 70
     1
102
RTVSPropertyOp58
 70
     1
102
RTVSPropertyOp59
 70
     1
102
RTVSPropertyOp60
 70
     1
102
RTVSPropertyOp61
 70
     1
102
RTVSPropertyOp62
 70
     1
  0
XRECORD
  5
22A9C
102
{ACAD_REACTORS
330
22A9B
102
}
330
22A9B
100
AcDbXrecord
280
     1
102
RTVSPost2010Prop28
280
     0
102
RTVSPost2010PropOp28
 70
     1
102
RTVSPost2010Prop29
280
     1
102
RTVSPost2010PropOp29
 70
     1
102
RTVSPost2010Prop30
280
     1
102
RTVSPost2010PropOp30
 70
     1
102
RTVSPost2010Prop31
280
     0
102
RTVSPost2010PropOp31
 70
     1
102
RTVSPost2010Prop32
280
     0
102
RTVSPost2010PropOp32
 70
     1
102
RTVSPost2010Prop33
280
     0
102
RTVSPost2010PropOp33
 70
     1
102
RTVSPost2010Prop34
280
     0
102
RTVSPost2010PropOp34
 70
     1
102
RTVSPost2010Prop35
280
     0
102
RTVSPost2010PropOp35
 70
     1
102
RTVSPost2010Prop36
280
     0
102
RTVSPost2010PropOp36
 70
     1
102
RTVSPost2010Prop37
 90
       50
102
RTVSPost2010PropOp37
 70
     0
102
RTVSPost2010Prop38
140
0.0
102
RTVSPost2010PropOp38
 70
     0
102
RTVSPost2010Prop39
140
1.0
102
RTVSPost2010PropOp39
 70
     0
102
RTVSPost2010Prop40
 90
        0
102
RTVSPost2010PropOp40
 70
     0
102
RTVSPost2010Prop41ColorIndex
 90
       18
102
RTVSPost2010Prop41ColorRGB
 90
        0
102
RTVSPost2010PropOp41
 70
     0
102
RTVSPost2010Prop42
 90
       50
102
RTVSPost2010PropOp42
 70
     0
102
RTVSPost2010Prop43
 90
        3
102
RTVSPost2010PropOp43
 70
     0
102
RTVSPost2010Prop44ColorIndex
 90
        5
102
RTVSPost2010Prop44ColorRGB
 90
      255
102
RTVSPost2010PropOp44
 70
     0
102
RTVSPost2010Prop45
280
     0
102
RTVSPost2010PropOp45
 70
     1
102
RTVSPost2010Prop46
 90
       50
102
RTVSPost2010PropOp46
 70
     0
102
RTVSPost2010Prop47
 90
       50
102
RTVSPost2010PropOp47
 70
     0
102
RTVSPost2010Prop48
 90
       50
102
RTVSPost2010PropOp48
 70
     0
102
RTVSPost2010Prop49
280
     0
102
RTVSPost2010PropOp49
 70
     1
102
RTVSPost2010Prop50
 90
       50
102
RTVSPost2010PropOp50
 70
     0
102
RTVSPost2010Prop51ColorIndex
 90
      256
102
RTVSPost2010Prop51ColorRGB
 90
-16777216
102
RTVSPost2010PropOp51
 70
     0
102
RTVSPost2010Prop52
140
1.0
102
RTVSPost2010PropOp52
 70
     0
102
RTVSPost2010Prop53
 90
        2
102
RTVSPost2010PropOp53
 70
     0
102
RTVSPost2010Prop54
  1
strokes_ogs.tif
102
RTVSPost2010PropOp54
 70
     0
102
RTVSPost2010Prop55
280
     0
102
RTVSPost2010PropOp55
 70
     1
102
RTVSPost2010Prop56
140
1.0
102
RTVSPost2010PropOp56
 70
     0
102
RTVSPost2010Prop57
140
1.0
102
RTVSPost2010PropOp57
 70
     0
102
RTVSPropertyOp0
 70
     0
102
RTVSPropertyOp1
 70
     0
102
RTVSPropertyOp2
 70
     0
102
RTVSPropertyOp3
 70
     0
102
RTVSPropertyOp4
 70
     0
102
RTVSPropertyOp5
 70
     0
102
RTVSPropertyOp6
 70
     0
102
RTVSPropertyOp7
 70
     0
102
RTVSPropertyOp8
 70
     0
102
RTVSPropertyOp9
 70
     0
102
RTVSPropertyOp10
 70
     0
102
RTVSPropertyOp11
 70
     0
102
RTVSPropertyOp12
 70
     0
102
RTVSPropertyOp13
 70
     0
102
RTVSPropertyOp14
 70
     2
102
RTVSPropertyOp15
 70
     0
102
RTVSPropertyOp16
 70
     0
102
RTVSPropertyOp17
 70
     0
102
RTVSPropertyOp18
 70
     0
102
RTVSPropertyOp19
 70
     0
102
RTVSPropertyOp20
 70
     0
102
RTVSPropertyOp21
 70
     0
102
RTVSPropertyOp22
 70
     0
102
RTVSPropertyOp23
 70
     0
102
RTVSPropertyOp24
 70
     0
102
RTVSPropertyOp25
 70
     0
102
RTVSPropertyOp26
 70
     0
102
RTVSPropertyOp27
 70
     0
102
RTVSPropertyOp28
 70
     1
102
RTVSPropertyOp29
 70
     1
102
RTVSPropertyOp30
 70
     1
102
RTVSPropertyOp31
 70
     1
102
RTVSPropertyOp32
 70
     1
102
RTVSPropertyOp33
 70
     1
102
RTVSPropertyOp34
 70
     1
102
RTVSPropertyOp35
 70
     1
102
RTVSPropertyOp36
 70
     1
102
RTVSPropertyOp37
 70
     0
102
RTVSPropertyOp38
 70
     0
102
RTVSPropertyOp39
 70
     0
102
RTVSPropertyOp40
 70
     0
102
RTVSPropertyOp41
 70
     0
102
RTVSPropertyOp42
 70
     0
102
RTVSPropertyOp43
 70
     0
102
RTVSPropertyOp44
 70
     0
102
RTVSPropertyOp45
 70
     1
102
RTVSPropertyOp46
 70
     0
102
RTVSPropertyOp47
 70
     0
102
RTVSPropertyOp48
 70
     0
102
RTVSPropertyOp49
 70
     1
102
RTVSPropertyOp50
 70
     0
102
RTVSPropertyOp51
 70
     0
102
RTVSPropertyOp52
 70
     0
102
RTVSPropertyOp53
 70
     0
102
RTVSPropertyOp54
 70
     0
102
RTVSPropertyOp55
 70
     1
102
RTVSPropertyOp56
 70
     0
102
RTVSPropertyOp57
 70
     0
102
RTVSPropertyOp58
 70
     1
102
RTVSPropertyOp59
 70
     1
102
RTVSPropertyOp60
 70
     1
102
RTVSPropertyOp61
 70
     1
102
RTVSPropertyOp62
 70
     1
  0
XRECORD
  5
22A86
102
{ACAD_REACTORS
330
22A85
102
}
330
22A85
100
AcDbXrecord
280
     1
102
RTVSPost2010Prop28
280
     0
102
RTVSPost2010PropOp28
 70
     1
102
RTVSPost2010Prop29
280
     1
102
RTVSPost2010PropOp29
 70
     1
102
RTVSPost2010Prop30
280
     1
102
RTVSPost2010PropOp30
 70
     1
102
RTVSPost2010Prop31
280
     0
102
RTVSPost2010PropOp31
 70
     1
102
RTVSPost2010Prop32
280
     0
102
RTVSPost2010PropOp32
 70
     1
102
RTVSPost2010Prop33
280
     0
102
RTVSPost2010PropOp33
 70
     1
102
RTVSPost2010Prop34
280
     0
102
RTVSPost2010PropOp34
 70
     1
102
RTVSPost2010Prop35
280
     0
102
RTVSPost2010PropOp35
 70
     1
102
RTVSPost2010Prop36
280
     0
102
RTVSPost2010PropOp36
 70
     1
102
RTVSPost2010Prop37
 90
       50
102
RTVSPost2010PropOp37
 70
     1
102
RTVSPost2010Prop38
140
0.0
102
RTVSPost2010PropOp38
 70
     1
102
RTVSPost2010Prop39
140
1.0
102
RTVSPost2010PropOp39
 70
     1
102
RTVSPost2010Prop40
 90
        0
102
RTVSPost2010PropOp40
 70
     1
102
RTVSPost2010Prop41ColorIndex
 90
       18
102
RTVSPost2010Prop41ColorRGB
 90
        0
102
RTVSPost2010PropOp41
 70
     1
102
RTVSPost2010Prop42
 90
       50
102
RTVSPost2010PropOp42
 70
     1
102
RTVSPost2010Prop43
 90
        3
102
RTVSPost2010PropOp43
 70
     1
102
RTVSPost2010Prop44ColorIndex
 90
        5
102
RTVSPost2010Prop44ColorRGB
 90
      255
102
RTVSPost2010PropOp44
 70
     1
102
RTVSPost2010Prop45
280
     0
102
RTVSPost2010PropOp45
 70
     1
102
RTVSPost2010Prop46
 90
       50
102
RTVSPost2010PropOp46
 70
     1
102
RTVSPost2010Prop47
 90
       50
102
RTVSPost2010PropOp47
 70
     1
102
RTVSPost2010Prop48
 90
       50
102
RTVSPost2010PropOp48
 70
     1
102
RTVSPost2010Prop49
280
     0
102
RTVSPost2010PropOp49
 70
     1
102
RTVSPost2010Prop50
 90
       50
102
RTVSPost2010PropOp50
 70
     1
102
RTVSPost2010Prop51ColorIndex
 90
      256
102
RTVSPost2010Prop51ColorRGB
 90
-16777216
102
RTVSPost2010PropOp51
 70
     0
102
RTVSPost2010Prop52
140
1.0
102
RTVSPost2010PropOp52
 70
     0
102
RTVSPost2010Prop53
 90
        2
102
RTVSPost2010PropOp53
 70
     1
102
RTVSPost2010Prop54
  1
strokes_ogs.tif
102
RTVSPost2010PropOp54
 70
     1
102
RTVSPost2010Prop55
280
     0
102
RTVSPost2010PropOp55
 70
     1
102
RTVSPost2010Prop56
140
1.0
102
RTVSPost2010PropOp56
 70
     1
102
RTVSPost2010Prop57
140
1.0
102
RTVSPost2010PropOp57
 70
     1
102
RTVSPropertyOp0
 70
     1
102
RTVSPropertyOp1
 70
     1
102
RTVSPropertyOp2
 70
     1
102
RTVSPropertyOp3
 70
     1
102
RTVSPropertyOp4
 70
     1
102
RTVSPropertyOp5
 70
     1
102
RTVSPropertyOp6
 70
     1
102
RTVSPropertyOp7
 70
     1
102
RTVSPropertyOp8
 70
     1
102
RTVSPropertyOp9
 70
     1
102
RTVSPropertyOp10
 70
     1
102
RTVSPropertyOp11
 70
     1
102
RTVSPropertyOp12
 70
     1
102
RTVSPropertyOp13
 70
     1
102
RTVSPropertyOp14
 70
     1
102
RTVSPropertyOp15
 70
     1
102
RTVSPropertyOp16
 70
     1
102
RTVSPropertyOp17
 70
     1
102
RTVSPropertyOp18
 70
     1
102
RTVSPropertyOp19
 70
     1
102
RTVSPropertyOp20
 70
     1
102
RTVSPropertyOp21
 70
     1
102
RTVSPropertyOp22
 70
     1
102
RTVSPropertyOp23
 70
     1
102
RTVSPropertyOp24
 70
     1
102
RTVSPropertyOp25
 70
     1
102
RTVSPropertyOp26
 70
     1
102
RTVSPropertyOp27
 70
     1
102
RTVSPropertyOp28
 70
     1
102
RTVSPropertyOp29
 70
     1
102
RTVSPropertyOp30
 70
     1
102
RTVSPropertyOp31
 70
     1
102
RTVSPropertyOp32
 70
     1
102
RTVSPropertyOp33
 70
     1
102
RTVSPropertyOp34
 70
     1
102
RTVSPropertyOp35
 70
     1
102
RTVSPropertyOp36
 70
     1
102
RTVSPropertyOp37
 70
     1
102
RTVSPropertyOp38
 70
     1
102
RTVSPropertyOp39
 70
     1
102
RTVSPropertyOp40
 70
     1
102
RTVSPropertyOp41
 70
     1
102
RTVSPropertyOp42
 70
     1
102
RTVSPropertyOp43
 70
     1
102
RTVSPropertyOp44
 70
     1
102
RTVSPropertyOp45
 70
     1
102
RTVSPropertyOp46
 70
     1
102
RTVSPropertyOp47
 70
     1
102
RTVSPropertyOp48
 70
     1
102
RTVSPropertyOp49
 70
     1
102
RTVSPropertyOp50
 70
     1
102
RTVSPropertyOp51
 70
     0
102
RTVSPropertyOp52
 70
     0
102
RTVSPropertyOp53
 70
     1
102
RTVSPropertyOp54
 70
     1
102
RTVSPropertyOp55
 70
     1
102
RTVSPropertyOp56
 70
     1
102
RTVSPropertyOp57
 70
     1
102
RTVSPropertyOp58
 70
     1
102
RTVSPropertyOp59
 70
     1
102
RTVSPropertyOp60
 70
     1
102
RTVSPropertyOp61
 70
     1
102
RTVSPropertyOp62
 70
     1
  0
XRECORD
  5
22A6A
102
{ACAD_REACTORS
330
22A69
102
}
330
22A69
100
AcDbXrecord
280
     1
102
RTVSPost2010Prop28
280
     0
102
RTVSPost2010PropOp28
 70
     1
102
RTVSPost2010Prop29
280
     1
102
RTVSPost2010PropOp29
 70
     1
102
RTVSPost2010Prop30
280
     1
102
RTVSPost2010PropOp30
 70
     1
102
RTVSPost2010Prop31
280
     0
102
RTVSPost2010PropOp31
 70
     1
102
RTVSPost2010Prop32
280
     0
102
RTVSPost2010PropOp32
 70
     1
102
RTVSPost2010Prop33
280
     0
102
RTVSPost2010PropOp33
 70
     1
102
RTVSPost2010Prop34
280
     0
102
RTVSPost2010PropOp34
 70
     1
102
RTVSPost2010Prop35
280
     0
102
RTVSPost2010PropOp35
 70
     1
102
RTVSPost2010Prop36
280
     0
102
RTVSPost2010PropOp36
 70
     1
102
RTVSPost2010Prop37
 90
       50
102
RTVSPost2010PropOp37
 70
     1
102
RTVSPost2010Prop38
140
0.0
102
RTVSPost2010PropOp38
 70
     1
102
RTVSPost2010Prop39
140
1.0
102
RTVSPost2010PropOp39
 70
     1
102
RTVSPost2010Prop40
 90
        0
102
RTVSPost2010PropOp40
 70
     1
102
RTVSPost2010Prop41ColorIndex
 90
       18
102
RTVSPost2010Prop41ColorRGB
 90
        0
102
RTVSPost2010PropOp41
 70
     1
102
RTVSPost2010Prop42
 90
       50
102
RTVSPost2010PropOp42
 70
     1
102
RTVSPost2010Prop43
 90
        3
102
RTVSPost2010PropOp43
 70
     1
102
RTVSPost2010Prop44ColorIndex
 90
        5
102
RTVSPost2010Prop44ColorRGB
 90
      255
102
RTVSPost2010PropOp44
 70
     1
102
RTVSPost2010Prop45
280
     0
102
RTVSPost2010PropOp45
 70
     1
102
RTVSPost2010Prop46
 90
       50
102
RTVSPost2010PropOp46
 70
     1
102
RTVSPost2010Prop47
 90
       50
102
RTVSPost2010PropOp47
 70
     1
102
RTVSPost2010Prop48
 90
       50
102
RTVSPost2010PropOp48
 70
     1
102
RTVSPost2010Prop49
280
     0
102
RTVSPost2010PropOp49
 70
     1
102
RTVSPost2010Prop50
 90
       50
102
RTVSPost2010PropOp50
 70
     1
102
RTVSPost2010Prop51ColorIndex
 90
      256
102
RTVSPost2010Prop51ColorRGB
 90
-16777216
102
RTVSPost2010PropOp51
 70
     0
102
RTVSPost2010Prop52
140
1.0
102
RTVSPost2010PropOp52
 70
     0
102
RTVSPost2010Prop53
 90
        2
102
RTVSPost2010PropOp53
 70
     1
102
RTVSPost2010Prop54
  1
strokes_ogs.tif
102
RTVSPost2010PropOp54
 70
     1
102
RTVSPost2010Prop55
280
     0
102
RTVSPost2010PropOp55
 70
     1
102
RTVSPost2010Prop56
140
1.0
102
RTVSPost2010PropOp56
 70
     1
102
RTVSPost2010Prop57
140
1.0
102
RTVSPost2010PropOp57
 70
     1
102
RTVSPropertyOp0
 70
     1
102
RTVSPropertyOp1
 70
     1
102
RTVSPropertyOp2
 70
     1
102
RTVSPropertyOp3
 70
     1
102
RTVSPropertyOp4
 70
     1
102
RTVSPropertyOp5
 70
     1
102
RTVSPropertyOp6
 70
     1
102
RTVSPropertyOp7
 70
     1
102
RTVSPropertyOp8
 70
     1
102
RTVSPropertyOp9
 70
     1
102
RTVSPropertyOp10
 70
     1
102
RTVSPropertyOp11
 70
     1
102
RTVSPropertyOp12
 70
     1
102
RTVSPropertyOp13
 70
     1
102
RTVSPropertyOp14
 70
     1
102
RTVSPropertyOp15
 70
     1
102
RTVSPropertyOp16
 70
     1
102
RTVSPropertyOp17
 70
     1
102
RTVSPropertyOp18
 70
     1
102
RTVSPropertyOp19
 70
     1
102
RTVSPropertyOp20
 70
     1
102
RTVSPropertyOp21
 70
     1
102
RTVSPropertyOp22
 70
     1
102
RTVSPropertyOp23
 70
     1
102
RTVSPropertyOp24
 70
     1
102
RTVSPropertyOp25
 70
     1
102
RTVSPropertyOp26
 70
     1
102
RTVSPropertyOp27
 70
     1
102
RTVSPropertyOp28
 70
     1
102
RTVSPropertyOp29
 70
     1
102
RTVSPropertyOp30
 70
     1
102
RTVSPropertyOp31
 70
     1
102
RTVSPropertyOp32
 70
     1
102
RTVSPropertyOp33
 70
     1
102
RTVSPropertyOp34
 70
     1
102
RTVSPropertyOp35
 70
     1
102
RTVSPropertyOp36
 70
     1
102
RTVSPropertyOp37
 70
     1
102
RTVSPropertyOp38
 70
     1
102
RTVSPropertyOp39
 70
     1
102
RTVSPropertyOp40
 70
     1
102
RTVSPropertyOp41
 70
     1
102
RTVSPropertyOp42
 70
     1
102
RTVSPropertyOp43
 70
     1
102
RTVSPropertyOp44
 70
     1
102
RTVSPropertyOp45
 70
     1
102
RTVSPropertyOp46
 70
     1
102
RTVSPropertyOp47
 70
     1
102
RTVSPropertyOp48
 70
     1
102
RTVSPropertyOp49
 70
     1
102
RTVSPropertyOp50
 70
     1
102
RTVSPropertyOp51
 70
     0
102
RTVSPropertyOp52
 70
     0
102
RTVSPropertyOp53
 70
     1
102
RTVSPropertyOp54
 70
     1
102
RTVSPropertyOp55
 70
     1
102
RTVSPropertyOp56
 70
     1
102
RTVSPropertyOp57
 70
     1
102
RTVSPropertyOp58
 70
     1
102
RTVSPropertyOp59
 70
     1
102
RTVSPropertyOp60
 70
     1
102
RTVSPropertyOp61
 70
     1
102
RTVSPropertyOp62
 70
     1
  0
XRECORD
  5
22A6C
102
{ACAD_REACTORS
330
22A6B
102
}
330
22A6B
100
AcDbXrecord
280
     1
102
RTVSPost2010Prop28
280
     0
102
RTVSPost2010PropOp28
 70
     1
102
RTVSPost2010Prop29
280
     1
102
RTVSPost2010PropOp29
 70
     1
102
RTVSPost2010Prop30
280
     1
102
RTVSPost2010PropOp30
 70
     1
102
RTVSPost2010Prop31
280
     0
102
RTVSPost2010PropOp31
 70
     1
102
RTVSPost2010Prop32
280
     0
102
RTVSPost2010PropOp32
 70
     1
102
RTVSPost2010Prop33
280
     0
102
RTVSPost2010PropOp33
 70
     1
102
RTVSPost2010Prop34
280
     0
102
RTVSPost2010PropOp34
 70
     1
102
RTVSPost2010Prop35
280
     0
102
RTVSPost2010PropOp35
 70
     1
102
RTVSPost2010Prop36
280
     0
102
RTVSPost2010PropOp36
 70
     1
102
RTVSPost2010Prop37
 90
       50
102
RTVSPost2010PropOp37
 70
     1
102
RTVSPost2010Prop38
140
0.0
102
RTVSPost2010PropOp38
 70
     1
102
RTVSPost2010Prop39
140
1.0
102
RTVSPost2010PropOp39
 70
     1
102
RTVSPost2010Prop40
 90
        0
102
RTVSPost2010PropOp40
 70
     1
102
RTVSPost2010Prop41ColorIndex
 90
       18
102
RTVSPost2010Prop41ColorRGB
 90
        0
102
RTVSPost2010PropOp41
 70
     1
102
RTVSPost2010Prop42
 90
       50
102
RTVSPost2010PropOp42
 70
     1
102
RTVSPost2010Prop43
 90
        3
102
RTVSPost2010PropOp43
 70
     1
102
RTVSPost2010Prop44ColorIndex
 90
        5
102
RTVSPost2010Prop44ColorRGB
 90
      255
102
RTVSPost2010PropOp44
 70
     1
102
RTVSPost2010Prop45
280
     0
102
RTVSPost2010PropOp45
 70
     1
102
RTVSPost2010Prop46
 90
       50
102
RTVSPost2010PropOp46
 70
     1
102
RTVSPost2010Prop47
 90
       50
102
RTVSPost2010PropOp47
 70
     1
102
RTVSPost2010Prop48
 90
       50
102
RTVSPost2010PropOp48
 70
     1
102
RTVSPost2010Prop49
280
     0
102
RTVSPost2010PropOp49
 70
     1
102
RTVSPost2010Prop50
 90
       50
102
RTVSPost2010PropOp50
 70
     1
102
RTVSPost2010Prop51ColorIndex
 90
      256
102
RTVSPost2010Prop51ColorRGB
 90
-16777216
102
RTVSPost2010PropOp51
 70
     0
102
RTVSPost2010Prop52
140
1.0
102
RTVSPost2010PropOp52
 70
     0
102
RTVSPost2010Prop53
 90
        2
102
RTVSPost2010PropOp53
 70
     1
102
RTVSPost2010Prop54
  1
strokes_ogs.tif
102
RTVSPost2010PropOp54
 70
     1
102
RTVSPost2010Prop55
280
     0
102
RTVSPost2010PropOp55
 70
     1
102
RTVSPost2010Prop56
140
1.0
102
RTVSPost2010PropOp56
 70
     1
102
RTVSPost2010Prop57
140
1.0
102
RTVSPost2010PropOp57
 70
     1
102
RTVSPropertyOp0
 70
     1
102
RTVSPropertyOp1
 70
     1
102
RTVSPropertyOp2
 70
     1
102
RTVSPropertyOp3
 70
     1
102
RTVSPropertyOp4
 70
     1
102
RTVSPropertyOp5
 70
     1
102
RTVSPropertyOp6
 70
     1
102
RTVSPropertyOp7
 70
     1
102
RTVSPropertyOp8
 70
     1
102
RTVSPropertyOp9
 70
     1
102
RTVSPropertyOp10
 70
     1
102
RTVSPropertyOp11
 70
     1
102
RTVSPropertyOp12
 70
     1
102
RTVSPropertyOp13
 70
     1
102
RTVSPropertyOp14
 70
     1
102
RTVSPropertyOp15
 70
     1
102
RTVSPropertyOp16
 70
     1
102
RTVSPropertyOp17
 70
     1
102
RTVSPropertyOp18
 70
     1
102
RTVSPropertyOp19
 70
     1
102
RTVSPropertyOp20
 70
     1
102
RTVSPropertyOp21
 70
     1
102
RTVSPropertyOp22
 70
     1
102
RTVSPropertyOp23
 70
     1
102
RTVSPropertyOp24
 70
     1
102
RTVSPropertyOp25
 70
     1
102
RTVSPropertyOp26
 70
     1
102
RTVSPropertyOp27
 70
     1
102
RTVSPropertyOp28
 70
     1
102
RTVSPropertyOp29
 70
     1
102
RTVSPropertyOp30
 70
     1
102
RTVSPropertyOp31
 70
     1
102
RTVSPropertyOp32
 70
     1
102
RTVSPropertyOp33
 70
     1
102
RTVSPropertyOp34
 70
     1
102
RTVSPropertyOp35
 70
     1
102
RTVSPropertyOp36
 70
     1
102
RTVSPropertyOp37
 70
     1
102
RTVSPropertyOp38
 70
     1
102
RTVSPropertyOp39
 70
     1
102
RTVSPropertyOp40
 70
     1
102
RTVSPropertyOp41
 70
     1
102
RTVSPropertyOp42
 70
     1
102
RTVSPropertyOp43
 70
     1
102
RTVSPropertyOp44
 70
     1
102
RTVSPropertyOp45
 70
     1
102
RTVSPropertyOp46
 70
     1
102
RTVSPropertyOp47
 70
     1
102
RTVSPropertyOp48
 70
     1
102
RTVSPropertyOp49
 70
     1
102
RTVSPropertyOp50
 70
     1
102
RTVSPropertyOp51
 70
     0
102
RTVSPropertyOp52
 70
     0
102
RTVSPropertyOp53
 70
     1
102
RTVSPropertyOp54
 70
     1
102
RTVSPropertyOp55
 70
     1
102
RTVSPropertyOp56
 70
     1
102
RTVSPropertyOp57
 70
     1
102
RTVSPropertyOp58
 70
     1
102
RTVSPropertyOp59
 70
     1
102
RTVSPropertyOp60
 70
     1
102
RTVSPropertyOp61
 70
     1
102
RTVSPropertyOp62
 70
     1
  0
XRECORD
  5
22A6E
102
{ACAD_REACTORS
330
22A6D
102
}
330
22A6D
100
AcDbXrecord
280
     1
102
RTVSPost2010Prop28
280
     0
102
RTVSPost2010PropOp28
 70
     1
102
RTVSPost2010Prop29
280
     1
102
RTVSPost2010PropOp29
 70
     1
102
RTVSPost2010Prop30
280
     1
102
RTVSPost2010PropOp30
 70
     1
102
RTVSPost2010Prop31
280
     0
102
RTVSPost2010PropOp31
 70
     1
102
RTVSPost2010Prop32
280
     0
102
RTVSPost2010PropOp32
 70
     1
102
RTVSPost2010Prop33
280
     0
102
RTVSPost2010PropOp33
 70
     1
102
RTVSPost2010Prop34
280
     0
102
RTVSPost2010PropOp34
 70
     1
102
RTVSPost2010Prop35
280
     0
102
RTVSPost2010PropOp35
 70
     1
102
RTVSPost2010Prop36
280
     0
102
RTVSPost2010PropOp36
 70
     1
102
RTVSPost2010Prop37
 90
       50
102
RTVSPost2010PropOp37
 70
     1
102
RTVSPost2010Prop38
140
0.0
102
RTVSPost2010PropOp38
 70
     1
102
RTVSPost2010Prop39
140
1.0
102
RTVSPost2010PropOp39
 70
     1
102
RTVSPost2010Prop40
 90
        0
102
RTVSPost2010PropOp40
 70
     1
102
RTVSPost2010Prop41ColorIndex
 90
       18
102
RTVSPost2010Prop41ColorRGB
 90
        0
102
RTVSPost2010PropOp41
 70
     1
102
RTVSPost2010Prop42
 90
       50
102
RTVSPost2010PropOp42
 70
     1
102
RTVSPost2010Prop43
 90
        3
102
RTVSPost2010PropOp43
 70
     1
102
RTVSPost2010Prop44ColorIndex
 90
        5
102
RTVSPost2010Prop44ColorRGB
 90
      255
102
RTVSPost2010PropOp44
 70
     1
102
RTVSPost2010Prop45
280
     0
102
RTVSPost2010PropOp45
 70
     1
102
RTVSPost2010Prop46
 90
       50
102
RTVSPost2010PropOp46
 70
     1
102
RTVSPost2010Prop47
 90
       50
102
RTVSPost2010PropOp47
 70
     1
102
RTVSPost2010Prop48
 90
       50
102
RTVSPost2010PropOp48
 70
     1
102
RTVSPost2010Prop49
280
     0
102
RTVSPost2010PropOp49
 70
     1
102
RTVSPost2010Prop50
 90
       50
102
RTVSPost2010PropOp50
 70
     1
102
RTVSPost2010Prop51ColorIndex
 90
      256
102
RTVSPost2010Prop51ColorRGB
 90
-16777216
102
RTVSPost2010PropOp51
 70
     0
102
RTVSPost2010Prop52
140
1.0
102
RTVSPost2010PropOp52
 70
     0
102
RTVSPost2010Prop53
 90
        2
102
RTVSPost2010PropOp53
 70
     1
102
RTVSPost2010Prop54
  1
strokes_ogs.tif
102
RTVSPost2010PropOp54
 70
     1
102
RTVSPost2010Prop55
280
     0
102
RTVSPost2010PropOp55
 70
     1
102
RTVSPost2010Prop56
140
1.0
102
RTVSPost2010PropOp56
 70
     1
102
RTVSPost2010Prop57
140
1.0
102
RTVSPost2010PropOp57
 70
     1
102
RTVSPropertyOp0
 70
     1
102
RTVSPropertyOp1
 70
     1
102
RTVSPropertyOp2
 70
     1
102
RTVSPropertyOp3
 70
     1
102
RTVSPropertyOp4
 70
     1
102
RTVSPropertyOp5
 70
     1
102
RTVSPropertyOp6
 70
     1
102
RTVSPropertyOp7
 70
     1
102
RTVSPropertyOp8
 70
     1
102
RTVSPropertyOp9
 70
     1
102
RTVSPropertyOp10
 70
     1
102
RTVSPropertyOp11
 70
     1
102
RTVSPropertyOp12
 70
     1
102
RTVSPropertyOp13
 70
     1
102
RTVSPropertyOp14
 70
     1
102
RTVSPropertyOp15
 70
     1
102
RTVSPropertyOp16
 70
     1
102
RTVSPropertyOp17
 70
     1
102
RTVSPropertyOp18
 70
     1
102
RTVSPropertyOp19
 70
     1
102
RTVSPropertyOp20
 70
     1
102
RTVSPropertyOp21
 70
     1
102
RTVSPropertyOp22
 70
     1
102
RTVSPropertyOp23
 70
     1
102
RTVSPropertyOp24
 70
     1
102
RTVSPropertyOp25
 70
     1
102
RTVSPropertyOp26
 70
     1
102
RTVSPropertyOp27
 70
     1
102
RTVSPropertyOp28
 70
     1
102
RTVSPropertyOp29
 70
     1
102
RTVSPropertyOp30
 70
     1
102
RTVSPropertyOp31
 70
     1
102
RTVSPropertyOp32
 70
     1
102
RTVSPropertyOp33
 70
     1
102
RTVSPropertyOp34
 70
     1
102
RTVSPropertyOp35
 70
     1
102
RTVSPropertyOp36
 70
     1
102
RTVSPropertyOp37
 70
     1
102
RTVSPropertyOp38
 70
     1
102
RTVSPropertyOp39
 70
     1
102
RTVSPropertyOp40
 70
     1
102
RTVSPropertyOp41
 70
     1
102
RTVSPropertyOp42
 70
     1
102
RTVSPropertyOp43
 70
     1
102
RTVSPropertyOp44
 70
     1
102
RTVSPropertyOp45
 70
     1
102
RTVSPropertyOp46
 70
     1
102
RTVSPropertyOp47
 70
     1
102
RTVSPropertyOp48
 70
     1
102
RTVSPropertyOp49
 70
     1
102
RTVSPropertyOp50
 70
     1
102
RTVSPropertyOp51
 70
     0
102
RTVSPropertyOp52
 70
     0
102
RTVSPropertyOp53
 70
     1
102
RTVSPropertyOp54
 70
     1
102
RTVSPropertyOp55
 70
     1
102
RTVSPropertyOp56
 70
     1
102
RTVSPropertyOp57
 70
     1
102
RTVSPropertyOp58
 70
     1
102
RTVSPropertyOp59
 70
     1
102
RTVSPropertyOp60
 70
     1
102
RTVSPropertyOp61
 70
     1
102
RTVSPropertyOp62
 70
     1
  0
XRECORD
  5
22A70
102
{ACAD_REACTORS
330
22A6F
102
}
330
22A6F
100
AcDbXrecord
280
     1
102
RTVSPost2010Prop28
280
     0
102
RTVSPost2010PropOp28
 70
     1
102
RTVSPost2010Prop29
280
     1
102
RTVSPost2010PropOp29
 70
     1
102
RTVSPost2010Prop30
280
     1
102
RTVSPost2010PropOp30
 70
     1
102
RTVSPost2010Prop31
280
     0
102
RTVSPost2010PropOp31
 70
     1
102
RTVSPost2010Prop32
280
     0
102
RTVSPost2010PropOp32
 70
     1
102
RTVSPost2010Prop33
280
     0
102
RTVSPost2010PropOp33
 70
     1
102
RTVSPost2010Prop34
280
     0
102
RTVSPost2010PropOp34
 70
     1
102
RTVSPost2010Prop35
280
     0
102
RTVSPost2010PropOp35
 70
     1
102
RTVSPost2010Prop36
280
     0
102
RTVSPost2010PropOp36
 70
     1
102
RTVSPost2010Prop37
 90
       50
102
RTVSPost2010PropOp37
 70
     1
102
RTVSPost2010Prop38
140
0.0
102
RTVSPost2010PropOp38
 70
     1
102
RTVSPost2010Prop39
140
1.0
102
RTVSPost2010PropOp39
 70
     1
102
RTVSPost2010Prop40
 90
        0
102
RTVSPost2010PropOp40
 70
     1
102
RTVSPost2010Prop41ColorIndex
 90
       18
102
RTVSPost2010Prop41ColorRGB
 90
        0
102
RTVSPost2010PropOp41
 70
     1
102
RTVSPost2010Prop42
 90
       50
102
RTVSPost2010PropOp42
 70
     1
102
RTVSPost2010Prop43
 90
        3
102
RTVSPost2010PropOp43
 70
     1
102
RTVSPost2010Prop44ColorIndex
 90
        5
102
RTVSPost2010Prop44ColorRGB
 90
      255
102
RTVSPost2010PropOp44
 70
     1
102
RTVSPost2010Prop45
280
     0
102
RTVSPost2010PropOp45
 70
     1
102
RTVSPost2010Prop46
 90
       50
102
RTVSPost2010PropOp46
 70
     1
102
RTVSPost2010Prop47
 90
       50
102
RTVSPost2010PropOp47
 70
     1
102
RTVSPost2010Prop48
 90
       50
102
RTVSPost2010PropOp48
 70
     1
102
RTVSPost2010Prop49
280
     0
102
RTVSPost2010PropOp49
 70
     1
102
RTVSPost2010Prop50
 90
       50
102
RTVSPost2010PropOp50
 70
     1
102
RTVSPost2010Prop51ColorIndex
 90
      256
102
RTVSPost2010Prop51ColorRGB
 90
-16777216
102
RTVSPost2010PropOp51
 70
     0
102
RTVSPost2010Prop52
140
1.0
102
RTVSPost2010PropOp52
 70
     0
102
RTVSPost2010Prop53
 90
        2
102
RTVSPost2010PropOp53
 70
     1
102
RTVSPost2010Prop54
  1
strokes_ogs.tif
102
RTVSPost2010PropOp54
 70
     1
102
RTVSPost2010Prop55
280
     0
102
RTVSPost2010PropOp55
 70
     1
102
RTVSPost2010Prop56
140
1.0
102
RTVSPost2010PropOp56
 70
     1
102
RTVSPost2010Prop57
140
1.0
102
RTVSPost2010PropOp57
 70
     1
102
RTVSPropertyOp0
 70
     1
102
RTVSPropertyOp1
 70
     1
102
RTVSPropertyOp2
 70
     1
102
RTVSPropertyOp3
 70
     1
102
RTVSPropertyOp4
 70
     1
102
RTVSPropertyOp5
 70
     1
102
RTVSPropertyOp6
 70
     1
102
RTVSPropertyOp7
 70
     1
102
RTVSPropertyOp8
 70
     1
102
RTVSPropertyOp9
 70
     1
102
RTVSPropertyOp10
 70
     1
102
RTVSPropertyOp11
 70
     1
102
RTVSPropertyOp12
 70
     1
102
RTVSPropertyOp13
 70
     1
102
RTVSPropertyOp14
 70
     1
102
RTVSPropertyOp15
 70
     1
102
RTVSPropertyOp16
 70
     1
102
RTVSPropertyOp17
 70
     1
102
RTVSPropertyOp18
 70
     1
102
RTVSPropertyOp19
 70
     1
102
RTVSPropertyOp20
 70
     1
102
RTVSPropertyOp21
 70
     1
102
RTVSPropertyOp22
 70
     1
102
RTVSPropertyOp23
 70
     1
102
RTVSPropertyOp24
 70
     1
102
RTVSPropertyOp25
 70
     1
102
RTVSPropertyOp26
 70
     1
102
RTVSPropertyOp27
 70
     1
102
RTVSPropertyOp28
 70
     1
102
RTVSPropertyOp29
 70
     1
102
RTVSPropertyOp30
 70
     1
102
RTVSPropertyOp31
 70
     1
102
RTVSPropertyOp32
 70
     1
102
RTVSPropertyOp33
 70
     1
102
RTVSPropertyOp34
 70
     1
102
RTVSPropertyOp35
 70
     1
102
RTVSPropertyOp36
 70
     1
102
RTVSPropertyOp37
 70
     1
102
RTVSPropertyOp38
 70
     1
102
RTVSPropertyOp39
 70
     1
102
RTVSPropertyOp40
 70
     1
102
RTVSPropertyOp41
 70
     1
102
RTVSPropertyOp42
 70
     1
102
RTVSPropertyOp43
 70
     1
102
RTVSPropertyOp44
 70
     1
102
RTVSPropertyOp45
 70
     1
102
RTVSPropertyOp46
 70
     1
102
RTVSPropertyOp47
 70
     1
102
RTVSPropertyOp48
 70
     1
102
RTVSPropertyOp49
 70
     1
102
RTVSPropertyOp50
 70
     1
102
RTVSPropertyOp51
 70
     0
102
RTVSPropertyOp52
 70
     0
102
RTVSPropertyOp53
 70
     1
102
RTVSPropertyOp54
 70
     1
102
RTVSPropertyOp55
 70
     1
102
RTVSPropertyOp56
 70
     1
102
RTVSPropertyOp57
 70
     1
102
RTVSPropertyOp58
 70
     1
102
RTVSPropertyOp59
 70
     1
102
RTVSPropertyOp60
 70
     1
102
RTVSPropertyOp61
 70
     1
102
RTVSPropertyOp62
 70
     1
  0
XRECORD
  5
22A8C
102
{ACAD_REACTORS
330
22A8B
102
}
330
22A8B
100
AcDbXrecord
280
     1
102
RTVSPost2010Prop28
280
     0
102
RTVSPost2010PropOp28
 70
     1
102
RTVSPost2010Prop29
280
     1
102
RTVSPost2010PropOp29
 70
     1
102
RTVSPost2010Prop30
280
     1
102
RTVSPost2010PropOp30
 70
     1
102
RTVSPost2010Prop31
280
     0
102
RTVSPost2010PropOp31
 70
     1
102
RTVSPost2010Prop32
280
     0
102
RTVSPost2010PropOp32
 70
     1
102
RTVSPost2010Prop33
280
     0
102
RTVSPost2010PropOp33
 70
     1
102
RTVSPost2010Prop34
280
     0
102
RTVSPost2010PropOp34
 70
     1
102
RTVSPost2010Prop35
280
     0
102
RTVSPost2010PropOp35
 70
     1
102
RTVSPost2010Prop36
280
     0
102
RTVSPost2010PropOp36
 70
     1
102
RTVSPost2010Prop37
 90
       50
102
RTVSPost2010PropOp37
 70
     1
102
RTVSPost2010Prop38
140
0.0
102
RTVSPost2010PropOp38
 70
     1
102
RTVSPost2010Prop39
140
1.0
102
RTVSPost2010PropOp39
 70
     1
102
RTVSPost2010Prop40
 90
        0
102
RTVSPost2010PropOp40
 70
     1
102
RTVSPost2010Prop41ColorIndex
 90
       18
102
RTVSPost2010Prop41ColorRGB
 90
        0
102
RTVSPost2010PropOp41
 70
     1
102
RTVSPost2010Prop42
 90
       50
102
RTVSPost2010PropOp42
 70
     1
102
RTVSPost2010Prop43
 90
        3
102
RTVSPost2010PropOp43
 70
     1
102
RTVSPost2010Prop44ColorIndex
 90
        5
102
RTVSPost2010Prop44ColorRGB
 90
      255
102
RTVSPost2010PropOp44
 70
     1
102
RTVSPost2010Prop45
280
     0
102
RTVSPost2010PropOp45
 70
     1
102
RTVSPost2010Prop46
 90
       50
102
RTVSPost2010PropOp46
 70
     1
102
RTVSPost2010Prop47
 90
       50
102
RTVSPost2010PropOp47
 70
     1
102
RTVSPost2010Prop48
 90
       50
102
RTVSPost2010PropOp48
 70
     1
102
RTVSPost2010Prop49
280
     0
102
RTVSPost2010PropOp49
 70
     1
102
RTVSPost2010Prop50
 90
       50
102
RTVSPost2010PropOp50
 70
     1
102
RTVSPost2010Prop51ColorIndex
 90
      256
102
RTVSPost2010Prop51ColorRGB
 90
-16777216
102
RTVSPost2010PropOp51
 70
     0
102
RTVSPost2010Prop52
140
1.0
102
RTVSPost2010PropOp52
 70
     0
102
RTVSPost2010Prop53
 90
        2
102
RTVSPost2010PropOp53
 70
     1
102
RTVSPost2010Prop54
  1
strokes_ogs.tif
102
RTVSPost2010PropOp54
 70
     1
102
RTVSPost2010Prop55
280
     0
102
RTVSPost2010PropOp55
 70
     1
102
RTVSPost2010Prop56
140
1.0
102
RTVSPost2010PropOp56
 70
     1
102
RTVSPost2010Prop57
140
1.0
102
RTVSPost2010PropOp57
 70
     1
102
RTVSPropertyOp0
 70
     1
102
RTVSPropertyOp1
 70
     1
102
RTVSPropertyOp2
 70
     1
102
RTVSPropertyOp3
 70
     1
102
RTVSPropertyOp4
 70
     1
102
RTVSPropertyOp5
 70
     1
102
RTVSPropertyOp6
 70
     1
102
RTVSPropertyOp7
 70
     1
102
RTVSPropertyOp8
 70
     1
102
RTVSPropertyOp9
 70
     1
102
RTVSPropertyOp10
 70
     1
102
RTVSPropertyOp11
 70
     1
102
RTVSPropertyOp12
 70
     1
102
RTVSPropertyOp13
 70
     1
102
RTVSPropertyOp14
 70
     1
102
RTVSPropertyOp15
 70
     1
102
RTVSPropertyOp16
 70
     1
102
RTVSPropertyOp17
 70
     1
102
RTVSPropertyOp18
 70
     1
102
RTVSPropertyOp19
 70
     1
102
RTVSPropertyOp20
 70
     1
102
RTVSPropertyOp21
 70
     1
102
RTVSPropertyOp22
 70
     1
102
RTVSPropertyOp23
 70
     1
102
RTVSPropertyOp24
 70
     1
102
RTVSPropertyOp25
 70
     1
102
RTVSPropertyOp26
 70
     1
102
RTVSPropertyOp27
 70
     1
102
RTVSPropertyOp28
 70
     1
102
RTVSPropertyOp29
 70
     1
102
RTVSPropertyOp30
 70
     1
102
RTVSPropertyOp31
 70
     1
102
RTVSPropertyOp32
 70
     1
102
RTVSPropertyOp33
 70
     1
102
RTVSPropertyOp34
 70
     1
102
RTVSPropertyOp35
 70
     1
102
RTVSPropertyOp36
 70
     1
102
RTVSPropertyOp37
 70
     1
102
RTVSPropertyOp38
 70
     1
102
RTVSPropertyOp39
 70
     1
102
RTVSPropertyOp40
 70
     1
102
RTVSPropertyOp41
 70
     1
102
RTVSPropertyOp42
 70
     1
102
RTVSPropertyOp43
 70
     1
102
RTVSPropertyOp44
 70
     1
102
RTVSPropertyOp45
 70
     1
102
RTVSPropertyOp46
 70
     1
102
RTVSPropertyOp47
 70
     1
102
RTVSPropertyOp48
 70
     1
102
RTVSPropertyOp49
 70
     1
102
RTVSPropertyOp50
 70
     1
102
RTVSPropertyOp51
 70
     0
102
RTVSPropertyOp52
 70
     0
102
RTVSPropertyOp53
 70
     1
102
RTVSPropertyOp54
 70
     1
102
RTVSPropertyOp55
 70
     1
102
RTVSPropertyOp56
 70
     1
102
RTVSPropertyOp57
 70
     1
102
RTVSPropertyOp58
 70
     1
102
RTVSPropertyOp59
 70
     1
102
RTVSPropertyOp60
 70
     1
102
RTVSPropertyOp61
 70
     1
102
RTVSPropertyOp62
 70
     1
  0
XRECORD
  5
22A98
102
{ACAD_REACTORS
330
22A97
102
}
330
22A97
100
AcDbXrecord
280
     1
102
RTVSPost2010Prop28
280
     0
102
RTVSPost2010PropOp28
 70
     1
102
RTVSPost2010Prop29
280
     1
102
RTVSPost2010PropOp29
 70
     1
102
RTVSPost2010Prop30
280
     1
102
RTVSPost2010PropOp30
 70
     1
102
RTVSPost2010Prop31
280
     0
102
RTVSPost2010PropOp31
 70
     1
102
RTVSPost2010Prop32
280
     0
102
RTVSPost2010PropOp32
 70
     1
102
RTVSPost2010Prop33
280
     0
102
RTVSPost2010PropOp33
 70
     1
102
RTVSPost2010Prop34
280
     0
102
RTVSPost2010PropOp34
 70
     1
102
RTVSPost2010Prop35
280
     0
102
RTVSPost2010PropOp35
 70
     1
102
RTVSPost2010Prop36
280
     0
102
RTVSPost2010PropOp36
 70
     1
102
RTVSPost2010Prop37
 90
       50
102
RTVSPost2010PropOp37
 70
     0
102
RTVSPost2010Prop38
140
0.0
102
RTVSPost2010PropOp38
 70
     0
102
RTVSPost2010Prop39
140
1.0
102
RTVSPost2010PropOp39
 70
     0
102
RTVSPost2010Prop40
 90
        0
102
RTVSPost2010PropOp40
 70
     0
102
RTVSPost2010Prop41ColorIndex
 90
       18
102
RTVSPost2010Prop41ColorRGB
 90
        0
102
RTVSPost2010PropOp41
 70
     0
102
RTVSPost2010Prop42
 90
       50
102
RTVSPost2010PropOp42
 70
     0
102
RTVSPost2010Prop43
 90
        3
102
RTVSPost2010PropOp43
 70
     0
102
RTVSPost2010Prop44ColorIndex
 90
        5
102
RTVSPost2010Prop44ColorRGB
 90
      255
102
RTVSPost2010PropOp44
 70
     0
102
RTVSPost2010Prop45
280
     0
102
RTVSPost2010PropOp45
 70
     1
102
RTVSPost2010Prop46
 90
       50
102
RTVSPost2010PropOp46
 70
     0
102
RTVSPost2010Prop47
 90
       50
102
RTVSPost2010PropOp47
 70
     0
102
RTVSPost2010Prop48
 90
       50
102
RTVSPost2010PropOp48
 70
     0
102
RTVSPost2010Prop49
280
     0
102
RTVSPost2010PropOp49
 70
     1
102
RTVSPost2010Prop50
 90
       50
102
RTVSPost2010PropOp50
 70
     0
102
RTVSPost2010Prop51ColorIndex
 90
      256
102
RTVSPost2010Prop51ColorRGB
 90
-16777216
102
RTVSPost2010PropOp51
 70
     0
102
RTVSPost2010Prop52
140
1.0
102
RTVSPost2010PropOp52
 70
     0
102
RTVSPost2010Prop53
 90
        2
102
RTVSPost2010PropOp53
 70
     0
102
RTVSPost2010Prop54
  1
strokes_ogs.tif
102
RTVSPost2010PropOp54
 70
     0
102
RTVSPost2010Prop55
280
     0
102
RTVSPost2010PropOp55
 70
     1
102
RTVSPost2010Prop56
140
1.0
102
RTVSPost2010PropOp56
 70
     0
102
RTVSPost2010Prop57
140
1.0
102
RTVSPost2010PropOp57
 70
     0
102
RTVSPropertyOp0
 70
     0
102
RTVSPropertyOp1
 70
     0
102
RTVSPropertyOp2
 70
     0
102
RTVSPropertyOp3
 70
     0
102
RTVSPropertyOp4
 70
     0
102
RTVSPropertyOp5
 70
     0
102
RTVSPropertyOp6
 70
     0
102
RTVSPropertyOp7
 70
     0
102
RTVSPropertyOp8
 70
     0
102
RTVSPropertyOp9
 70
     0
102
RTVSPropertyOp10
 70
     0
102
RTVSPropertyOp11
 70
     0
102
RTVSPropertyOp12
 70
     0
102
RTVSPropertyOp13
 70
     0
102
RTVSPropertyOp14
 70
     2
102
RTVSPropertyOp15
 70
     0
102
RTVSPropertyOp16
 70
     0
102
RTVSPropertyOp17
 70
     0
102
RTVSPropertyOp18
 70
     0
102
RTVSPropertyOp19
 70
     0
102
RTVSPropertyOp20
 70
     0
102
RTVSPropertyOp21
 70
     0
102
RTVSPropertyOp22
 70
     0
102
RTVSPropertyOp23
 70
     0
102
RTVSPropertyOp24
 70
     0
102
RTVSPropertyOp25
 70
     0
102
RTVSPropertyOp26
 70
     0
102
RTVSPropertyOp27
 70
     0
102
RTVSPropertyOp28
 70
     1
102
RTVSPropertyOp29
 70
     1
102
RTVSPropertyOp30
 70
     1
102
RTVSPropertyOp31
 70
     1
102
RTVSPropertyOp32
 70
     1
102
RTVSPropertyOp33
 70
     1
102
RTVSPropertyOp34
 70
     1
102
RTVSPropertyOp35
 70
     1
102
RTVSPropertyOp36
 70
     1
102
RTVSPropertyOp37
 70
     0
102
RTVSPropertyOp38
 70
     0
102
RTVSPropertyOp39
 70
     0
102
RTVSPropertyOp40
 70
     0
102
RTVSPropertyOp41
 70
     0
102
RTVSPropertyOp42
 70
     0
102
RTVSPropertyOp43
 70
     0
102
RTVSPropertyOp44
 70
     0
102
RTVSPropertyOp45
 70
     1
102
RTVSPropertyOp46
 70
     0
102
RTVSPropertyOp47
 70
     0
102
RTVSPropertyOp48
 70
     0
102
RTVSPropertyOp49
 70
     1
102
RTVSPropertyOp50
 70
     0
102
RTVSPropertyOp51
 70
     0
102
RTVSPropertyOp52
 70
     0
102
RTVSPropertyOp53
 70
     0
102
RTVSPropertyOp54
 70
     0
102
RTVSPropertyOp55
 70
     1
102
RTVSPropertyOp56
 70
     0
102
RTVSPropertyOp57
 70
     0
102
RTVSPropertyOp58
 70
     1
102
RTVSPropertyOp59
 70
     1
102
RTVSPropertyOp60
 70
     1
102
RTVSPropertyOp61
 70
     1
102
RTVSPropertyOp62
 70
     1
  0
XRECORD
  5
22A84
102
{ACAD_REACTORS
330
22A83
102
}
330
22A83
100
AcDbXrecord
280
     1
102
RTVSPost2010Prop28
280
     0
102
RTVSPost2010PropOp28
 70
     1
102
RTVSPost2010Prop29
280
     1
102
RTVSPost2010PropOp29
 70
     1
102
RTVSPost2010Prop30
280
     1
102
RTVSPost2010PropOp30
 70
     1
102
RTVSPost2010Prop31
280
     0
102
RTVSPost2010PropOp31
 70
     1
102
RTVSPost2010Prop32
280
     0
102
RTVSPost2010PropOp32
 70
     1
102
RTVSPost2010Prop33
280
     0
102
RTVSPost2010PropOp33
 70
     1
102
RTVSPost2010Prop34
280
     0
102
RTVSPost2010PropOp34
 70
     1
102
RTVSPost2010Prop35
280
     0
102
RTVSPost2010PropOp35
 70
     1
102
RTVSPost2010Prop36
280
     0
102
RTVSPost2010PropOp36
 70
     1
102
RTVSPost2010Prop37
 90
       50
102
RTVSPost2010PropOp37
 70
     1
102
RTVSPost2010Prop38
140
0.0
102
RTVSPost2010PropOp38
 70
     1
102
RTVSPost2010Prop39
140
1.0
102
RTVSPost2010PropOp39
 70
     1
102
RTVSPost2010Prop40
 90
        0
102
RTVSPost2010PropOp40
 70
     1
102
RTVSPost2010Prop41ColorIndex
 90
       18
102
RTVSPost2010Prop41ColorRGB
 90
        0
102
RTVSPost2010PropOp41
 70
     1
102
RTVSPost2010Prop42
 90
       50
102
RTVSPost2010PropOp42
 70
     1
102
RTVSPost2010Prop43
 90
        3
102
RTVSPost2010PropOp43
 70
     1
102
RTVSPost2010Prop44ColorIndex
 90
        5
102
RTVSPost2010Prop44ColorRGB
 90
      255
102
RTVSPost2010PropOp44
 70
     1
102
RTVSPost2010Prop45
280
     0
102
RTVSPost2010PropOp45
 70
     1
102
RTVSPost2010Prop46
 90
       50
102
RTVSPost2010PropOp46
 70
     1
102
RTVSPost2010Prop47
 90
       50
102
RTVSPost2010PropOp47
 70
     1
102
RTVSPost2010Prop48
 90
       50
102
RTVSPost2010PropOp48
 70
     1
102
RTVSPost2010Prop49
280
     0
102
RTVSPost2010PropOp49
 70
     1
102
RTVSPost2010Prop50
 90
       50
102
RTVSPost2010PropOp50
 70
     1
102
RTVSPost2010Prop51ColorIndex
 90
      256
102
RTVSPost2010Prop51ColorRGB
 90
-16777216
102
RTVSPost2010PropOp51
 70
     0
102
RTVSPost2010Prop52
140
1.0
102
RTVSPost2010PropOp52
 70
     0
102
RTVSPost2010Prop53
 90
        2
102
RTVSPost2010PropOp53
 70
     1
102
RTVSPost2010Prop54
  1
strokes_ogs.tif
102
RTVSPost2010PropOp54
 70
     1
102
RTVSPost2010Prop55
280
     0
102
RTVSPost2010PropOp55
 70
     1
102
RTVSPost2010Prop56
140
1.0
102
RTVSPost2010PropOp56
 70
     1
102
RTVSPost2010Prop57
140
1.0
102
RTVSPost2010PropOp57
 70
     1
102
RTVSPropertyOp0
 70
     1
102
RTVSPropertyOp1
 70
     1
102
RTVSPropertyOp2
 70
     1
102
RTVSPropertyOp3
 70
     1
102
RTVSPropertyOp4
 70
     1
102
RTVSPropertyOp5
 70
     1
102
RTVSPropertyOp6
 70
     1
102
RTVSPropertyOp7
 70
     1
102
RTVSPropertyOp8
 70
     1
102
RTVSPropertyOp9
 70
     1
102
RTVSPropertyOp10
 70
     1
102
RTVSPropertyOp11
 70
     1
102
RTVSPropertyOp12
 70
     1
102
RTVSPropertyOp13
 70
     1
102
RTVSPropertyOp14
 70
     1
102
RTVSPropertyOp15
 70
     1
102
RTVSPropertyOp16
 70
     1
102
RTVSPropertyOp17
 70
     1
102
RTVSPropertyOp18
 70
     1
102
RTVSPropertyOp19
 70
     1
102
RTVSPropertyOp20
 70
     1
102
RTVSPropertyOp21
 70
     1
102
RTVSPropertyOp22
 70
     1
102
RTVSPropertyOp23
 70
     1
102
RTVSPropertyOp24
 70
     1
102
RTVSPropertyOp25
 70
     1
102
RTVSPropertyOp26
 70
     1
102
RTVSPropertyOp27
 70
     1
102
RTVSPropertyOp28
 70
     1
102
RTVSPropertyOp29
 70
     1
102
RTVSPropertyOp30
 70
     1
102
RTVSPropertyOp31
 70
     1
102
RTVSPropertyOp32
 70
     1
102
RTVSPropertyOp33
 70
     1
102
RTVSPropertyOp34
 70
     1
102
RTVSPropertyOp35
 70
     1
102
RTVSPropertyOp36
 70
     1
102
RTVSPropertyOp37
 70
     1
102
RTVSPropertyOp38
 70
     1
102
RTVSPropertyOp39
 70
     1
102
RTVSPropertyOp40
 70
     1
102
RTVSPropertyOp41
 70
     1
102
RTVSPropertyOp42
 70
     1
102
RTVSPropertyOp43
 70
     1
102
RTVSPropertyOp44
 70
     1
102
RTVSPropertyOp45
 70
     1
102
RTVSPropertyOp46
 70
     1
102
RTVSPropertyOp47
 70
     1
102
RTVSPropertyOp48
 70
     1
102
RTVSPropertyOp49
 70
     1
102
RTVSPropertyOp50
 70
     1
102
RTVSPropertyOp51
 70
     0
102
RTVSPropertyOp52
 70
     0
102
RTVSPropertyOp53
 70
     1
102
RTVSPropertyOp54
 70
     1
102
RTVSPropertyOp55
 70
     1
102
RTVSPropertyOp56
 70
     1
102
RTVSPropertyOp57
 70
     1
102
RTVSPropertyOp58
 70
     1
102
RTVSPropertyOp59
 70
     1
102
RTVSPropertyOp60
 70
     1
102
RTVSPropertyOp61
 70
     1
102
RTVSPropertyOp62
 70
     1
  0
XRECORD
  5
22A9A
102
{ACAD_REACTORS
330
22A99
102
}
330
22A99
100
AcDbXrecord
280
     1
102
RTVSPost2010Prop28
280
     0
102
RTVSPost2010PropOp28
 70
     1
102
RTVSPost2010Prop29
280
     1
102
RTVSPost2010PropOp29
 70
     1
102
RTVSPost2010Prop30
280
     1
102
RTVSPost2010PropOp30
 70
     1
102
RTVSPost2010Prop31
280
     0
102
RTVSPost2010PropOp31
 70
     1
102
RTVSPost2010Prop32
280
     0
102
RTVSPost2010PropOp32
 70
     1
102
RTVSPost2010Prop33
280
     0
102
RTVSPost2010PropOp33
 70
     1
102
RTVSPost2010Prop34
280
     0
102
RTVSPost2010PropOp34
 70
     1
102
RTVSPost2010Prop35
280
     0
102
RTVSPost2010PropOp35
 70
     1
102
RTVSPost2010Prop36
280
     0
102
RTVSPost2010PropOp36
 70
     1
102
RTVSPost2010Prop37
 90
       50
102
RTVSPost2010PropOp37
 70
     0
102
RTVSPost2010Prop38
140
0.0
102
RTVSPost2010PropOp38
 70
     0
102
RTVSPost2010Prop39
140
1.0
102
RTVSPost2010PropOp39
 70
     0
102
RTVSPost2010Prop40
 90
        0
102
RTVSPost2010PropOp40
 70
     0
102
RTVSPost2010Prop41ColorIndex
 90
       18
102
RTVSPost2010Prop41ColorRGB
 90
        0
102
RTVSPost2010PropOp41
 70
     0
102
RTVSPost2010Prop42
 90
       50
102
RTVSPost2010PropOp42
 70
     0
102
RTVSPost2010Prop43
 90
        3
102
RTVSPost2010PropOp43
 70
     0
102
RTVSPost2010Prop44ColorIndex
 90
        5
102
RTVSPost2010Prop44ColorRGB
 90
      255
102
RTVSPost2010PropOp44
 70
     0
102
RTVSPost2010Prop45
280
     0
102
RTVSPost2010PropOp45
 70
     1
102
RTVSPost2010Prop46
 90
       50
102
RTVSPost2010PropOp46
 70
     0
102
RTVSPost2010Prop47
 90
       50
102
RTVSPost2010PropOp47
 70
     0
102
RTVSPost2010Prop48
 90
       50
102
RTVSPost2010PropOp48
 70
     0
102
RTVSPost2010Prop49
280
     0
102
RTVSPost2010PropOp49
 70
     1
102
RTVSPost2010Prop50
 90
       50
102
RTVSPost2010PropOp50
 70
     0
102
RTVSPost2010Prop51ColorIndex
 90
      256
102
RTVSPost2010Prop51ColorRGB
 90
-16777216
102
RTVSPost2010PropOp51
 70
     0
102
RTVSPost2010Prop52
140
1.0
102
RTVSPost2010PropOp52
 70
     0
102
RTVSPost2010Prop53
 90
        2
102
RTVSPost2010PropOp53
 70
     0
102
RTVSPost2010Prop54
  1
strokes_ogs.tif
102
RTVSPost2010PropOp54
 70
     0
102
RTVSPost2010Prop55
280
     0
102
RTVSPost2010PropOp55
 70
     1
102
RTVSPost2010Prop56
140
1.0
102
RTVSPost2010PropOp56
 70
     0
102
RTVSPost2010Prop57
140
1.0
102
RTVSPost2010PropOp57
 70
     0
102
RTVSPropertyOp0
 70
     0
102
RTVSPropertyOp1
 70
     0
102
RTVSPropertyOp2
 70
     0
102
RTVSPropertyOp3
 70
     0
102
RTVSPropertyOp4
 70
     0
102
RTVSPropertyOp5
 70
     0
102
RTVSPropertyOp6
 70
     0
102
RTVSPropertyOp7
 70
     0
102
RTVSPropertyOp8
 70
     0
102
RTVSPropertyOp9
 70
     0
102
RTVSPropertyOp10
 70
     0
102
RTVSPropertyOp11
 70
     0
102
RTVSPropertyOp12
 70
     0
102
RTVSPropertyOp13
 70
     0
102
RTVSPropertyOp14
 70
     2
102
RTVSPropertyOp15
 70
     0
102
RTVSPropertyOp16
 70
     0
102
RTVSPropertyOp17
 70
     0
102
RTVSPropertyOp18
 70
     0
102
RTVSPropertyOp19
 70
     0
102
RTVSPropertyOp20
 70
     0
102
RTVSPropertyOp21
 70
     0
102
RTVSPropertyOp22
 70
     0
102
RTVSPropertyOp23
 70
     0
102
RTVSPropertyOp24
 70
     0
102
RTVSPropertyOp25
 70
     0
102
RTVSPropertyOp26
 70
     0
102
RTVSPropertyOp27
 70
     0
102
RTVSPropertyOp28
 70
     1
102
RTVSPropertyOp29
 70
     1
102
RTVSPropertyOp30
 70
     1
102
RTVSPropertyOp31
 70
     1
102
RTVSPropertyOp32
 70
     1
102
RTVSPropertyOp33
 70
     1
102
RTVSPropertyOp34
 70
     1
102
RTVSPropertyOp35
 70
     1
102
RTVSPropertyOp36
 70
     1
102
RTVSPropertyOp37
 70
     0
102
RTVSPropertyOp38
 70
     0
102
RTVSPropertyOp39
 70
     0
102
RTVSPropertyOp40
 70
     0
102
RTVSPropertyOp41
 70
     0
102
RTVSPropertyOp42
 70
     0
102
RTVSPropertyOp43
 70
     0
102
RTVSPropertyOp44
 70
     0
102
RTVSPropertyOp45
 70
     1
102
RTVSPropertyOp46
 70
     0
102
RTVSPropertyOp47
 70
     0
102
RTVSPropertyOp48
 70
     0
102
RTVSPropertyOp49
 70
     1
102
RTVSPropertyOp50
 70
     0
102
RTVSPropertyOp51
 70
     0
102
RTVSPropertyOp52
 70
     0
102
RTVSPropertyOp53
 70
     0
102
RTVSPropertyOp54
 70
     0
102
RTVSPropertyOp55
 70
     1
102
RTVSPropertyOp56
 70
     0
102
RTVSPropertyOp57
 70
     0
102
RTVSPropertyOp58
 70
     1
102
RTVSPropertyOp59
 70
     1
102
RTVSPropertyOp60
 70
     1
102
RTVSPropertyOp61
 70
     1
102
RTVSPropertyOp62
 70
     1
  0
XRECORD
  5
22A7C
102
{ACAD_REACTORS
330
22A7B
102
}
330
22A7B
100
AcDbXrecord
280
     1
102
RTVSPost2010Prop28
280
     0
102
RTVSPost2010PropOp28
 70
     1
102
RTVSPost2010Prop29
280
     1
102
RTVSPost2010PropOp29
 70
     1
102
RTVSPost2010Prop30
280
     1
102
RTVSPost2010PropOp30
 70
     1
102
RTVSPost2010Prop31
280
     0
102
RTVSPost2010PropOp31
 70
     1
102
RTVSPost2010Prop32
280
     0
102
RTVSPost2010PropOp32
 70
     1
102
RTVSPost2010Prop33
280
     0
102
RTVSPost2010PropOp33
 70
     1
102
RTVSPost2010Prop34
280
     0
102
RTVSPost2010PropOp34
 70
     1
102
RTVSPost2010Prop35
280
     0
102
RTVSPost2010PropOp35
 70
     1
102
RTVSPost2010Prop36
280
     0
102
RTVSPost2010PropOp36
 70
     1
102
RTVSPost2010Prop37
 90
       50
102
RTVSPost2010PropOp37
 70
     1
102
RTVSPost2010Prop38
140
0.0
102
RTVSPost2010PropOp38
 70
     1
102
RTVSPost2010Prop39
140
1.0
102
RTVSPost2010PropOp39
 70
     1
102
RTVSPost2010Prop40
 90
        0
102
RTVSPost2010PropOp40
 70
     1
102
RTVSPost2010Prop41ColorIndex
 90
       18
102
RTVSPost2010Prop41ColorRGB
 90
        0
102
RTVSPost2010PropOp41
 70
     1
102
RTVSPost2010Prop42
 90
       50
102
RTVSPost2010PropOp42
 70
     1
102
RTVSPost2010Prop43
 90
        3
102
RTVSPost2010PropOp43
 70
     1
102
RTVSPost2010Prop44ColorIndex
 90
        5
102
RTVSPost2010Prop44ColorRGB
 90
      255
102
RTVSPost2010PropOp44
 70
     1
102
RTVSPost2010Prop45
280
     0
102
RTVSPost2010PropOp45
 70
     1
102
RTVSPost2010Prop46
 90
       50
102
RTVSPost2010PropOp46
 70
     1
102
RTVSPost2010Prop47
 90
       50
102
RTVSPost2010PropOp47
 70
     1
102
RTVSPost2010Prop48
 90
       50
102
RTVSPost2010PropOp48
 70
     1
102
RTVSPost2010Prop49
280
     0
102
RTVSPost2010PropOp49
 70
     1
102
RTVSPost2010Prop50
 90
       50
102
RTVSPost2010PropOp50
 70
     1
102
RTVSPost2010Prop51ColorIndex
 90
      256
102
RTVSPost2010Prop51ColorRGB
 90
-16777216
102
RTVSPost2010PropOp51
 70
     0
102
RTVSPost2010Prop52
140
1.0
102
RTVSPost2010PropOp52
 70
     0
102
RTVSPost2010Prop53
 90
        2
102
RTVSPost2010PropOp53
 70
     1
102
RTVSPost2010Prop54
  1
strokes_ogs.tif
102
RTVSPost2010PropOp54
 70
     1
102
RTVSPost2010Prop55
280
     0
102
RTVSPost2010PropOp55
 70
     1
102
RTVSPost2010Prop56
140
1.0
102
RTVSPost2010PropOp56
 70
     1
102
RTVSPost2010Prop57
140
1.0
102
RTVSPost2010PropOp57
 70
     1
102
RTVSPropertyOp0
 70
     1
102
RTVSPropertyOp1
 70
     1
102
RTVSPropertyOp2
 70
     1
102
RTVSPropertyOp3
 70
     1
102
RTVSPropertyOp4
 70
     1
102
RTVSPropertyOp5
 70
     1
102
RTVSPropertyOp6
 70
     1
102
RTVSPropertyOp7
 70
     1
102
RTVSPropertyOp8
 70
     1
102
RTVSPropertyOp9
 70
     1
102
RTVSPropertyOp10
 70
     1
102
RTVSPropertyOp11
 70
     1
102
RTVSPropertyOp12
 70
     1
102
RTVSPropertyOp13
 70
     1
102
RTVSPropertyOp14
 70
     1
102
RTVSPropertyOp15
 70
     1
102
RTVSPropertyOp16
 70
     1
102
RTVSPropertyOp17
 70
     1
102
RTVSPropertyOp18
 70
     1
102
RTVSPropertyOp19
 70
     1
102
RTVSPropertyOp20
 70
     1
102
RTVSPropertyOp21
 70
     1
102
RTVSPropertyOp22
 70
     1
102
RTVSPropertyOp23
 70
     1
102
RTVSPropertyOp24
 70
     1
102
RTVSPropertyOp25
 70
     1
102
RTVSPropertyOp26
 70
     1
102
RTVSPropertyOp27
 70
     1
102
RTVSPropertyOp28
 70
     1
102
RTVSPropertyOp29
 70
     1
102
RTVSPropertyOp30
 70
     1
102
RTVSPropertyOp31
 70
     1
102
RTVSPropertyOp32
 70
     1
102
RTVSPropertyOp33
 70
     1
102
RTVSPropertyOp34
 70
     1
102
RTVSPropertyOp35
 70
     1
102
RTVSPropertyOp36
 70
     1
102
RTVSPropertyOp37
 70
     1
102
RTVSPropertyOp38
 70
     1
102
RTVSPropertyOp39
 70
     1
102
RTVSPropertyOp40
 70
     1
102
RTVSPropertyOp41
 70
     1
102
RTVSPropertyOp42
 70
     1
102
RTVSPropertyOp43
 70
     1
102
RTVSPropertyOp44
 70
     1
102
RTVSPropertyOp45
 70
     1
102
RTVSPropertyOp46
 70
     1
102
RTVSPropertyOp47
 70
     1
102
RTVSPropertyOp48
 70
     1
102
RTVSPropertyOp49
 70
     1
102
RTVSPropertyOp50
 70
     1
102
RTVSPropertyOp51
 70
     0
102
RTVSPropertyOp52
 70
     0
102
RTVSPropertyOp53
 70
     1
102
RTVSPropertyOp54
 70
     1
102
RTVSPropertyOp55
 70
     1
102
RTVSPropertyOp56
 70
     1
102
RTVSPropertyOp57
 70
     1
102
RTVSPropertyOp58
 70
     1
102
RTVSPropertyOp59
 70
     1
102
RTVSPropertyOp60
 70
     1
102
RTVSPropertyOp61
 70
     1
102
RTVSPropertyOp62
 70
     1
  0
XRECORD
  5
22A96
102
{ACAD_REACTORS
330
22A95
102
}
330
22A95
100
AcDbXrecord
280
     1
102
RTVSPost2010Prop28
280
     0
102
RTVSPost2010PropOp28
 70
     1
102
RTVSPost2010Prop29
280
     1
102
RTVSPost2010PropOp29
 70
     1
102
RTVSPost2010Prop30
280
     1
102
RTVSPost2010PropOp30
 70
     1
102
RTVSPost2010Prop31
280
     0
102
RTVSPost2010PropOp31
 70
     1
102
RTVSPost2010Prop32
280
     0
102
RTVSPost2010PropOp32
 70
     1
102
RTVSPost2010Prop33
280
     0
102
RTVSPost2010PropOp33
 70
     1
102
RTVSPost2010Prop34
280
     0
102
RTVSPost2010PropOp34
 70
     1
102
RTVSPost2010Prop35
280
     0
102
RTVSPost2010PropOp35
 70
     1
102
RTVSPost2010Prop36
280
     0
102
RTVSPost2010PropOp36
 70
     1
102
RTVSPost2010Prop37
 90
       50
102
RTVSPost2010PropOp37
 70
     1
102
RTVSPost2010Prop38
140
0.0
102
RTVSPost2010PropOp38
 70
     1
102
RTVSPost2010Prop39
140
1.0
102
RTVSPost2010PropOp39
 70
     1
102
RTVSPost2010Prop40
 90
        0
102
RTVSPost2010PropOp40
 70
     1
102
RTVSPost2010Prop41ColorIndex
 90
       18
102
RTVSPost2010Prop41ColorRGB
 90
        0
102
RTVSPost2010PropOp41
 70
     1
102
RTVSPost2010Prop42
 90
       50
102
RTVSPost2010PropOp42
 70
     1
102
RTVSPost2010Prop43
 90
        3
102
RTVSPost2010PropOp43
 70
     1
102
RTVSPost2010Prop44ColorIndex
 90
        5
102
RTVSPost2010Prop44ColorRGB
 90
      255
102
RTVSPost2010PropOp44
 70
     1
102
RTVSPost2010Prop45
280
     0
102
RTVSPost2010PropOp45
 70
     1
102
RTVSPost2010Prop46
 90
       50
102
RTVSPost2010PropOp46
 70
     1
102
RTVSPost2010Prop47
 90
       50
102
RTVSPost2010PropOp47
 70
     1
102
RTVSPost2010Prop48
 90
       50
102
RTVSPost2010PropOp48
 70
     1
102
RTVSPost2010Prop49
280
     0
102
RTVSPost2010PropOp49
 70
     1
102
RTVSPost2010Prop50
 90
       50
102
RTVSPost2010PropOp50
 70
     1
102
RTVSPost2010Prop51ColorIndex
 90
      256
102
RTVSPost2010Prop51ColorRGB
 90
-16777216
102
RTVSPost2010PropOp51
 70
     0
102
RTVSPost2010Prop52
140
1.0
102
RTVSPost2010PropOp52
 70
     0
102
RTVSPost2010Prop53
 90
        2
102
RTVSPost2010PropOp53
 70
     1
102
RTVSPost2010Prop54
  1
strokes_ogs.tif
102
RTVSPost2010PropOp54
 70
     1
102
RTVSPost2010Prop55
280
     0
102
RTVSPost2010PropOp55
 70
     1
102
RTVSPost2010Prop56
140
1.0
102
RTVSPost2010PropOp56
 70
     1
102
RTVSPost2010Prop57
140
1.0
102
RTVSPost2010PropOp57
 70
     1
102
RTVSPropertyOp0
 70
     1
102
RTVSPropertyOp1
 70
     1
102
RTVSPropertyOp2
 70
     1
102
RTVSPropertyOp3
 70
     1
102
RTVSPropertyOp4
 70
     1
102
RTVSPropertyOp5
 70
     1
102
RTVSPropertyOp6
 70
     1
102
RTVSPropertyOp7
 70
     1
102
RTVSPropertyOp8
 70
     1
102
RTVSPropertyOp9
 70
     1
102
RTVSPropertyOp10
 70
     1
102
RTVSPropertyOp11
 70
     1
102
RTVSPropertyOp12
 70
     1
102
RTVSPropertyOp13
 70
     1
102
RTVSPropertyOp14
 70
     1
102
RTVSPropertyOp15
 70
     1
102
RTVSPropertyOp16
 70
     1
102
RTVSPropertyOp17
 70
     1
102
RTVSPropertyOp18
 70
     1
102
RTVSPropertyOp19
 70
     1
102
RTVSPropertyOp20
 70
     1
102
RTVSPropertyOp21
 70
     1
102
RTVSPropertyOp22
 70
     1
102
RTVSPropertyOp23
 70
     1
102
RTVSPropertyOp24
 70
     1
102
RTVSPropertyOp25
 70
     1
102
RTVSPropertyOp26
 70
     1
102
RTVSPropertyOp27
 70
     1
102
RTVSPropertyOp28
 70
     1
102
RTVSPropertyOp29
 70
     1
102
RTVSPropertyOp30
 70
     1
102
RTVSPropertyOp31
 70
     1
102
RTVSPropertyOp32
 70
     1
102
RTVSPropertyOp33
 70
     1
102
RTVSPropertyOp34
 70
     1
102
RTVSPropertyOp35
 70
     1
102
RTVSPropertyOp36
 70
     1
102
RTVSPropertyOp37
 70
     1
102
RTVSPropertyOp38
 70
     1
102
RTVSPropertyOp39
 70
     1
102
RTVSPropertyOp40
 70
     1
102
RTVSPropertyOp41
 70
     1
102
RTVSPropertyOp42
 70
     1
102
RTVSPropertyOp43
 70
     1
102
RTVSPropertyOp44
 70
     1
102
RTVSPropertyOp45
 70
     1
102
RTVSPropertyOp46
 70
     1
102
RTVSPropertyOp47
 70
     1
102
RTVSPropertyOp48
 70
     1
102
RTVSPropertyOp49
 70
     1
102
RTVSPropertyOp50
 70
     1
102
RTVSPropertyOp51
 70
     0
102
RTVSPropertyOp52
 70
     0
102
RTVSPropertyOp53
 70
     1
102
RTVSPropertyOp54
 70
     1
102
RTVSPropertyOp55
 70
     1
102
RTVSPropertyOp56
 70
     1
102
RTVSPropertyOp57
 70
     1
102
RTVSPropertyOp58
 70
     1
102
RTVSPropertyOp59
 70
     1
102
RTVSPropertyOp60
 70
     1
102
RTVSPropertyOp61
 70
     1
102
RTVSPropertyOp62
 70
     1
  0
XRECORD
  5
22A94
102
{ACAD_REACTORS
330
22A93
102
}
330
22A93
100
AcDbXrecord
280
     1
102
RTVSPost2010Prop28
280
     0
102
RTVSPost2010PropOp28
 70
     1
102
RTVSPost2010Prop29
280
     1
102
RTVSPost2010PropOp29
 70
     1
102
RTVSPost2010Prop30
280
     1
102
RTVSPost2010PropOp30
 70
     1
102
RTVSPost2010Prop31
280
     0
102
RTVSPost2010PropOp31
 70
     1
102
RTVSPost2010Prop32
280
     0
102
RTVSPost2010PropOp32
 70
     1
102
RTVSPost2010Prop33
280
     0
102
RTVSPost2010PropOp33
 70
     1
102
RTVSPost2010Prop34
280
     0
102
RTVSPost2010PropOp34
 70
     1
102
RTVSPost2010Prop35
280
     0
102
RTVSPost2010PropOp35
 70
     1
102
RTVSPost2010Prop36
280
     0
102
RTVSPost2010PropOp36
 70
     1
102
RTVSPost2010Prop37
 90
       50
102
RTVSPost2010PropOp37
 70
     1
102
RTVSPost2010Prop38
140
0.0
102
RTVSPost2010PropOp38
 70
     1
102
RTVSPost2010Prop39
140
1.0
102
RTVSPost2010PropOp39
 70
     1
102
RTVSPost2010Prop40
 90
        0
102
RTVSPost2010PropOp40
 70
     1
102
RTVSPost2010Prop41ColorIndex
 90
       18
102
RTVSPost2010Prop41ColorRGB
 90
        0
102
RTVSPost2010PropOp41
 70
     1
102
RTVSPost2010Prop42
 90
       50
102
RTVSPost2010PropOp42
 70
     1
102
RTVSPost2010Prop43
 90
        3
102
RTVSPost2010PropOp43
 70
     1
102
RTVSPost2010Prop44ColorIndex
 90
        5
102
RTVSPost2010Prop44ColorRGB
 90
      255
102
RTVSPost2010PropOp44
 70
     1
102
RTVSPost2010Prop45
280
     0
102
RTVSPost2010PropOp45
 70
     1
102
RTVSPost2010Prop46
 90
       50
102
RTVSPost2010PropOp46
 70
     1
102
RTVSPost2010Prop47
 90
       50
102
RTVSPost2010PropOp47
 70
     1
102
RTVSPost2010Prop48
 90
       50
102
RTVSPost2010PropOp48
 70
     1
102
RTVSPost2010Prop49
280
     0
102
RTVSPost2010PropOp49
 70
     1
102
RTVSPost2010Prop50
 90
       50
102
RTVSPost2010PropOp50
 70
     1
102
RTVSPost2010Prop51ColorIndex
 90
      256
102
RTVSPost2010Prop51ColorRGB
 90
-16777216
102
RTVSPost2010PropOp51
 70
     0
102
RTVSPost2010Prop52
140
1.0
102
RTVSPost2010PropOp52
 70
     0
102
RTVSPost2010Prop53
 90
        2
102
RTVSPost2010PropOp53
 70
     1
102
RTVSPost2010Prop54
  1
strokes_ogs.tif
102
RTVSPost2010PropOp54
 70
     1
102
RTVSPost2010Prop55
280
     0
102
RTVSPost2010PropOp55
 70
     1
102
RTVSPost2010Prop56
140
1.0
102
RTVSPost2010PropOp56
 70
     1
102
RTVSPost2010Prop57
140
1.0
102
RTVSPost2010PropOp57
 70
     1
102
RTVSPropertyOp0
 70
     1
102
RTVSPropertyOp1
 70
     1
102
RTVSPropertyOp2
 70
     1
102
RTVSPropertyOp3
 70
     1
102
RTVSPropertyOp4
 70
     1
102
RTVSPropertyOp5
 70
     1
102
RTVSPropertyOp6
 70
     1
102
RTVSPropertyOp7
 70
     1
102
RTVSPropertyOp8
 70
     1
102
RTVSPropertyOp9
 70
     1
102
RTVSPropertyOp10
 70
     1
102
RTVSPropertyOp11
 70
     1
102
RTVSPropertyOp12
 70
     1
102
RTVSPropertyOp13
 70
     1
102
RTVSPropertyOp14
 70
     1
102
RTVSPropertyOp15
 70
     1
102
RTVSPropertyOp16
 70
     1
102
RTVSPropertyOp17
 70
     1
102
RTVSPropertyOp18
 70
     1
102
RTVSPropertyOp19
 70
     1
102
RTVSPropertyOp20
 70
     1
102
RTVSPropertyOp21
 70
     1
102
RTVSPropertyOp22
 70
     1
102
RTVSPropertyOp23
 70
     1
102
RTVSPropertyOp24
 70
     1
102
RTVSPropertyOp25
 70
     1
102
RTVSPropertyOp26
 70
     1
102
RTVSPropertyOp27
 70
     1
102
RTVSPropertyOp28
 70
     1
102
RTVSPropertyOp29
 70
     1
102
RTVSPropertyOp30
 70
     1
102
RTVSPropertyOp31
 70
     1
102
RTVSPropertyOp32
 70
     1
102
RTVSPropertyOp33
 70
     1
102
RTVSPropertyOp34
 70
     1
102
RTVSPropertyOp35
 70
     1
102
RTVSPropertyOp36
 70
     1
102
RTVSPropertyOp37
 70
     1
102
RTVSPropertyOp38
 70
     1
102
RTVSPropertyOp39
 70
     1
102
RTVSPropertyOp40
 70
     1
102
RTVSPropertyOp41
 70
     1
102
RTVSPropertyOp42
 70
     1
102
RTVSPropertyOp43
 70
     1
102
RTVSPropertyOp44
 70
     1
102
RTVSPropertyOp45
 70
     1
102
RTVSPropertyOp46
 70
     1
102
RTVSPropertyOp47
 70
     1
102
RTVSPropertyOp48
 70
     1
102
RTVSPropertyOp49
 70
     1
102
RTVSPropertyOp50
 70
     1
102
RTVSPropertyOp51
 70
     0
102
RTVSPropertyOp52
 70
     0
102
RTVSPropertyOp53
 70
     1
102
RTVSPropertyOp54
 70
     1
102
RTVSPropertyOp55
 70
     1
102
RTVSPropertyOp56
 70
     1
102
RTVSPropertyOp57
 70
     1
102
RTVSPropertyOp58
 70
     1
102
RTVSPropertyOp59
 70
     1
102
RTVSPropertyOp60
 70
     1
102
RTVSPropertyOp61
 70
     1
102
RTVSPropertyOp62
 70
     1
  0
XRECORD
  5
22A8E
102
{ACAD_REACTORS
330
22A8D
102
}
330
22A8D
100
AcDbXrecord
280
     1
102
RTVSPost2010Prop28
280
     0
102
RTVSPost2010PropOp28
 70
     1
102
RTVSPost2010Prop29
280
     1
102
RTVSPost2010PropOp29
 70
     1
102
RTVSPost2010Prop30
280
     1
102
RTVSPost2010PropOp30
 70
     1
102
RTVSPost2010Prop31
280
     0
102
RTVSPost2010PropOp31
 70
     1
102
RTVSPost2010Prop32
280
     0
102
RTVSPost2010PropOp32
 70
     1
102
RTVSPost2010Prop33
280
     0
102
RTVSPost2010PropOp33
 70
     1
102
RTVSPost2010Prop34
280
     0
102
RTVSPost2010PropOp34
 70
     1
102
RTVSPost2010Prop35
280
     0
102
RTVSPost2010PropOp35
 70
     1
102
RTVSPost2010Prop36
280
     0
102
RTVSPost2010PropOp36
 70
     1
102
RTVSPost2010Prop37
 90
       50
102
RTVSPost2010PropOp37
 70
     1
102
RTVSPost2010Prop38
140
0.0
102
RTVSPost2010PropOp38
 70
     1
102
RTVSPost2010Prop39
140
1.0
102
RTVSPost2010PropOp39
 70
     1
102
RTVSPost2010Prop40
 90
        0
102
RTVSPost2010PropOp40
 70
     1
102
RTVSPost2010Prop41ColorIndex
 90
       18
102
RTVSPost2010Prop41ColorRGB
 90
        0
102
RTVSPost2010PropOp41
 70
     1
102
RTVSPost2010Prop42
 90
       50
102
RTVSPost2010PropOp42
 70
     1
102
RTVSPost2010Prop43
 90
        3
102
RTVSPost2010PropOp43
 70
     1
102
RTVSPost2010Prop44ColorIndex
 90
        5
102
RTVSPost2010Prop44ColorRGB
 90
      255
102
RTVSPost2010PropOp44
 70
     1
102
RTVSPost2010Prop45
280
     0
102
RTVSPost2010PropOp45
 70
     1
102
RTVSPost2010Prop46
 90
       50
102
RTVSPost2010PropOp46
 70
     1
102
RTVSPost2010Prop47
 90
       50
102
RTVSPost2010PropOp47
 70
     1
102
RTVSPost2010Prop48
 90
       50
102
RTVSPost2010PropOp48
 70
     1
102
RTVSPost2010Prop49
280
     0
102
RTVSPost2010PropOp49
 70
     1
102
RTVSPost2010Prop50
 90
       50
102
RTVSPost2010PropOp50
 70
     1
102
RTVSPost2010Prop51ColorIndex
 90
      256
102
RTVSPost2010Prop51ColorRGB
 90
-16777216
102
RTVSPost2010PropOp51
 70
     0
102
RTVSPost2010Prop52
140
1.0
102
RTVSPost2010PropOp52
 70
     0
102
RTVSPost2010Prop53
 90
        2
102
RTVSPost2010PropOp53
 70
     1
102
RTVSPost2010Prop54
  1
strokes_ogs.tif
102
RTVSPost2010PropOp54
 70
     1
102
RTVSPost2010Prop55
280
     0
102
RTVSPost2010PropOp55
 70
     1
102
RTVSPost2010Prop56
140
1.0
102
RTVSPost2010PropOp56
 70
     1
102
RTVSPost2010Prop57
140
1.0
102
RTVSPost2010PropOp57
 70
     1
102
RTVSPropertyOp0
 70
     1
102
RTVSPropertyOp1
 70
     1
102
RTVSPropertyOp2
 70
     1
102
RTVSPropertyOp3
 70
     1
102
RTVSPropertyOp4
 70
     1
102
RTVSPropertyOp5
 70
     1
102
RTVSPropertyOp6
 70
     1
102
RTVSPropertyOp7
 70
     1
102
RTVSPropertyOp8
 70
     1
102
RTVSPropertyOp9
 70
     1
102
RTVSPropertyOp10
 70
     1
102
RTVSPropertyOp11
 70
     1
102
RTVSPropertyOp12
 70
     1
102
RTVSPropertyOp13
 70
     1
102
RTVSPropertyOp14
 70
     1
102
RTVSPropertyOp15
 70
     1
102
RTVSPropertyOp16
 70
     1
102
RTVSPropertyOp17
 70
     1
102
RTVSPropertyOp18
 70
     1
102
RTVSPropertyOp19
 70
     1
102
RTVSPropertyOp20
 70
     1
102
RTVSPropertyOp21
 70
     1
102
RTVSPropertyOp22
 70
     1
102
RTVSPropertyOp23
 70
     1
102
RTVSPropertyOp24
 70
     1
102
RTVSPropertyOp25
 70
     1
102
RTVSPropertyOp26
 70
     1
102
RTVSPropertyOp27
 70
     1
102
RTVSPropertyOp28
 70
     1
102
RTVSPropertyOp29
 70
     1
102
RTVSPropertyOp30
 70
     1
102
RTVSPropertyOp31
 70
     1
102
RTVSPropertyOp32
 70
     1
102
RTVSPropertyOp33
 70
     1
102
RTVSPropertyOp34
 70
     1
102
RTVSPropertyOp35
 70
     1
102
RTVSPropertyOp36
 70
     1
102
RTVSPropertyOp37
 70
     1
102
RTVSPropertyOp38
 70
     1
102
RTVSPropertyOp39
 70
     1
102
RTVSPropertyOp40
 70
     1
102
RTVSPropertyOp41
 70
     1
102
RTVSPropertyOp42
 70
     1
102
RTVSPropertyOp43
 70
     1
102
RTVSPropertyOp44
 70
     1
102
RTVSPropertyOp45
 70
     1
102
RTVSPropertyOp46
 70
     1
102
RTVSPropertyOp47
 70
     1
102
RTVSPropertyOp48
 70
     1
102
RTVSPropertyOp49
 70
     1
102
RTVSPropertyOp50
 70
     1
102
RTVSPropertyOp51
 70
     0
102
RTVSPropertyOp52
 70
     0
102
RTVSPropertyOp53
 70
     1
102
RTVSPropertyOp54
 70
     1
102
RTVSPropertyOp55
 70
     1
102
RTVSPropertyOp56
 70
     1
102
RTVSPropertyOp57
 70
     1
102
RTVSPropertyOp58
 70
     1
102
RTVSPropertyOp59
 70
     1
102
RTVSPropertyOp60
 70
     1
102
RTVSPropertyOp61
 70
     1
102
RTVSPropertyOp62
 70
     1
  0
XRECORD
  5
22A90
102
{ACAD_REACTORS
330
22A8F
102
}
330
22A8F
100
AcDbXrecord
280
     1
102
RTVSPost2010Prop28
280
     0
102
RTVSPost2010PropOp28
 70
     1
102
RTVSPost2010Prop29
280
     1
102
RTVSPost2010PropOp29
 70
     1
102
RTVSPost2010Prop30
280
     1
102
RTVSPost2010PropOp30
 70
     1
102
RTVSPost2010Prop31
280
     0
102
RTVSPost2010PropOp31
 70
     1
102
RTVSPost2010Prop32
280
     0
102
RTVSPost2010PropOp32
 70
     1
102
RTVSPost2010Prop33
280
     0
102
RTVSPost2010PropOp33
 70
     1
102
RTVSPost2010Prop34
280
     0
102
RTVSPost2010PropOp34
 70
     1
102
RTVSPost2010Prop35
280
     0
102
RTVSPost2010PropOp35
 70
     1
102
RTVSPost2010Prop36
280
     0
102
RTVSPost2010PropOp36
 70
     1
102
RTVSPost2010Prop37
 90
       50
102
RTVSPost2010PropOp37
 70
     1
102
RTVSPost2010Prop38
140
0.0
102
RTVSPost2010PropOp38
 70
     1
102
RTVSPost2010Prop39
140
1.0
102
RTVSPost2010PropOp39
 70
     1
102
RTVSPost2010Prop40
 90
        0
102
RTVSPost2010PropOp40
 70
     1
102
RTVSPost2010Prop41ColorIndex
 90
       18
102
RTVSPost2010Prop41ColorRGB
 90
        0
102
RTVSPost2010PropOp41
 70
     1
102
RTVSPost2010Prop42
 90
       50
102
RTVSPost2010PropOp42
 70
     1
102
RTVSPost2010Prop43
 90
        3
102
RTVSPost2010PropOp43
 70
     1
102
RTVSPost2010Prop44ColorIndex
 90
        5
102
RTVSPost2010Prop44ColorRGB
 90
      255
102
RTVSPost2010PropOp44
 70
     1
102
RTVSPost2010Prop45
280
     0
102
RTVSPost2010PropOp45
 70
     1
102
RTVSPost2010Prop46
 90
       50
102
RTVSPost2010PropOp46
 70
     1
102
RTVSPost2010Prop47
 90
       50
102
RTVSPost2010PropOp47
 70
     1
102
RTVSPost2010Prop48
 90
       50
102
RTVSPost2010PropOp48
 70
     1
102
RTVSPost2010Prop49
280
     0
102
RTVSPost2010PropOp49
 70
     1
102
RTVSPost2010Prop50
 90
       50
102
RTVSPost2010PropOp50
 70
     1
102
RTVSPost2010Prop51ColorIndex
 90
      256
102
RTVSPost2010Prop51ColorRGB
 90
-16777216
102
RTVSPost2010PropOp51
 70
     0
102
RTVSPost2010Prop52
140
1.0
102
RTVSPost2010PropOp52
 70
     0
102
RTVSPost2010Prop53
 90
        2
102
RTVSPost2010PropOp53
 70
     1
102
RTVSPost2010Prop54
  1
strokes_ogs.tif
102
RTVSPost2010PropOp54
 70
     1
102
RTVSPost2010Prop55
280
     0
102
RTVSPost2010PropOp55
 70
     1
102
RTVSPost2010Prop56
140
1.0
102
RTVSPost2010PropOp56
 70
     1
102
RTVSPost2010Prop57
140
1.0
102
RTVSPost2010PropOp57
 70
     1
102
RTVSPropertyOp0
 70
     1
102
RTVSPropertyOp1
 70
     1
102
RTVSPropertyOp2
 70
     1
102
RTVSPropertyOp3
 70
     1
102
RTVSPropertyOp4
 70
     1
102
RTVSPropertyOp5
 70
     1
102
RTVSPropertyOp6
 70
     1
102
RTVSPropertyOp7
 70
     1
102
RTVSPropertyOp8
 70
     1
102
RTVSPropertyOp9
 70
     1
102
RTVSPropertyOp10
 70
     1
102
RTVSPropertyOp11
 70
     1
102
RTVSPropertyOp12
 70
     1
102
RTVSPropertyOp13
 70
     1
102
RTVSPropertyOp14
 70
     1
102
RTVSPropertyOp15
 70
     1
102
RTVSPropertyOp16
 70
     1
102
RTVSPropertyOp17
 70
     1
102
RTVSPropertyOp18
 70
     1
102
RTVSPropertyOp19
 70
     1
102
RTVSPropertyOp20
 70
     1
102
RTVSPropertyOp21
 70
     1
102
RTVSPropertyOp22
 70
     1
102
RTVSPropertyOp23
 70
     1
102
RTVSPropertyOp24
 70
     1
102
RTVSPropertyOp25
 70
     1
102
RTVSPropertyOp26
 70
     1
102
RTVSPropertyOp27
 70
     1
102
RTVSPropertyOp28
 70
     1
102
RTVSPropertyOp29
 70
     1
102
RTVSPropertyOp30
 70
     1
102
RTVSPropertyOp31
 70
     1
102
RTVSPropertyOp32
 70
     1
102
RTVSPropertyOp33
 70
     1
102
RTVSPropertyOp34
 70
     1
102
RTVSPropertyOp35
 70
     1
102
RTVSPropertyOp36
 70
     1
102
RTVSPropertyOp37
 70
     1
102
RTVSPropertyOp38
 70
     1
102
RTVSPropertyOp39
 70
     1
102
RTVSPropertyOp40
 70
     1
102
RTVSPropertyOp41
 70
     1
102
RTVSPropertyOp42
 70
     1
102
RTVSPropertyOp43
 70
     1
102
RTVSPropertyOp44
 70
     1
102
RTVSPropertyOp45
 70
     1
102
RTVSPropertyOp46
 70
     1
102
RTVSPropertyOp47
 70
     1
102
RTVSPropertyOp48
 70
     1
102
RTVSPropertyOp49
 70
     1
102
RTVSPropertyOp50
 70
     1
102
RTVSPropertyOp51
 70
     0
102
RTVSPropertyOp52
 70
     0
102
RTVSPropertyOp53
 70
     1
102
RTVSPropertyOp54
 70
     1
102
RTVSPropertyOp55
 70
     1
102
RTVSPropertyOp56
 70
     1
102
RTVSPropertyOp57
 70
     1
102
RTVSPropertyOp58
 70
     1
102
RTVSPropertyOp59
 70
     1
102
RTVSPropertyOp60
 70
     1
102
RTVSPropertyOp61
 70
     1
102
RTVSPropertyOp62
 70
     1
  0
XRECORD
  5
22A82
102
{ACAD_REACTORS
330
22A81
102
}
330
22A81
100
AcDbXrecord
280
     1
102
RTVSPost2010Prop28
280
     0
102
RTVSPost2010PropOp28
 70
     1
102
RTVSPost2010Prop29
280
     1
102
RTVSPost2010PropOp29
 70
     1
102
RTVSPost2010Prop30
280
     1
102
RTVSPost2010PropOp30
 70
     1
102
RTVSPost2010Prop31
280
     0
102
RTVSPost2010PropOp31
 70
     1
102
RTVSPost2010Prop32
280
     0
102
RTVSPost2010PropOp32
 70
     1
102
RTVSPost2010Prop33
280
     0
102
RTVSPost2010PropOp33
 70
     1
102
RTVSPost2010Prop34
280
     0
102
RTVSPost2010PropOp34
 70
     1
102
RTVSPost2010Prop35
280
     0
102
RTVSPost2010PropOp35
 70
     1
102
RTVSPost2010Prop36
280
     0
102
RTVSPost2010PropOp36
 70
     1
102
RTVSPost2010Prop37
 90
       50
102
RTVSPost2010PropOp37
 70
     1
102
RTVSPost2010Prop38
140
0.0
102
RTVSPost2010PropOp38
 70
     1
102
RTVSPost2010Prop39
140
1.0
102
RTVSPost2010PropOp39
 70
     1
102
RTVSPost2010Prop40
 90
        0
102
RTVSPost2010PropOp40
 70
     1
102
RTVSPost2010Prop41ColorIndex
 90
       18
102
RTVSPost2010Prop41ColorRGB
 90
        0
102
RTVSPost2010PropOp41
 70
     1
102
RTVSPost2010Prop42
 90
       50
102
RTVSPost2010PropOp42
 70
     1
102
RTVSPost2010Prop43
 90
        3
102
RTVSPost2010PropOp43
 70
     1
102
RTVSPost2010Prop44ColorIndex
 90
        5
102
RTVSPost2010Prop44ColorRGB
 90
      255
102
RTVSPost2010PropOp44
 70
     1
102
RTVSPost2010Prop45
280
     0
102
RTVSPost2010PropOp45
 70
     1
102
RTVSPost2010Prop46
 90
       50
102
RTVSPost2010PropOp46
 70
     1
102
RTVSPost2010Prop47
 90
       50
102
RTVSPost2010PropOp47
 70
     1
102
RTVSPost2010Prop48
 90
       50
102
RTVSPost2010PropOp48
 70
     1
102
RTVSPost2010Prop49
280
     0
102
RTVSPost2010PropOp49
 70
     1
102
RTVSPost2010Prop50
 90
       50
102
RTVSPost2010PropOp50
 70
     1
102
RTVSPost2010Prop51ColorIndex
 90
      256
102
RTVSPost2010Prop51ColorRGB
 90
-16777216
102
RTVSPost2010PropOp51
 70
     0
102
RTVSPost2010Prop52
140
1.0
102
RTVSPost2010PropOp52
 70
     0
102
RTVSPost2010Prop53
 90
        2
102
RTVSPost2010PropOp53
 70
     1
102
RTVSPost2010Prop54
  1
strokes_ogs.tif
102
RTVSPost2010PropOp54
 70
     1
102
RTVSPost2010Prop55
280
     0
102
RTVSPost2010PropOp55
 70
     1
102
RTVSPost2010Prop56
140
1.0
102
RTVSPost2010PropOp56
 70
     1
102
RTVSPost2010Prop57
140
1.0
102
RTVSPost2010PropOp57
 70
     1
102
RTVSPropertyOp0
 70
     1
102
RTVSPropertyOp1
 70
     1
102
RTVSPropertyOp2
 70
     1
102
RTVSPropertyOp3
 70
     1
102
RTVSPropertyOp4
 70
     1
102
RTVSPropertyOp5
 70
     1
102
RTVSPropertyOp6
 70
     1
102
RTVSPropertyOp7
 70
     1
102
RTVSPropertyOp8
 70
     1
102
RTVSPropertyOp9
 70
     1
102
RTVSPropertyOp10
 70
     1
102
RTVSPropertyOp11
 70
     1
102
RTVSPropertyOp12
 70
     1
102
RTVSPropertyOp13
 70
     1
102
RTVSPropertyOp14
 70
     1
102
RTVSPropertyOp15
 70
     1
102
RTVSPropertyOp16
 70
     1
102
RTVSPropertyOp17
 70
     1
102
RTVSPropertyOp18
 70
     1
102
RTVSPropertyOp19
 70
     1
102
RTVSPropertyOp20
 70
     1
102
RTVSPropertyOp21
 70
     1
102
RTVSPropertyOp22
 70
     1
102
RTVSPropertyOp23
 70
     1
102
RTVSPropertyOp24
 70
     1
102
RTVSPropertyOp25
 70
     1
102
RTVSPropertyOp26
 70
     1
102
RTVSPropertyOp27
 70
     1
102
RTVSPropertyOp28
 70
     1
102
RTVSPropertyOp29
 70
     1
102
RTVSPropertyOp30
 70
     1
102
RTVSPropertyOp31
 70
     1
102
RTVSPropertyOp32
 70
     1
102
RTVSPropertyOp33
 70
     1
102
RTVSPropertyOp34
 70
     1
102
RTVSPropertyOp35
 70
     1
102
RTVSPropertyOp36
 70
     1
102
RTVSPropertyOp37
 70
     1
102
RTVSPropertyOp38
 70
     1
102
RTVSPropertyOp39
 70
     1
102
RTVSPropertyOp40
 70
     1
102
RTVSPropertyOp41
 70
     1
102
RTVSPropertyOp42
 70
     1
102
RTVSPropertyOp43
 70
     1
102
RTVSPropertyOp44
 70
     1
102
RTVSPropertyOp45
 70
     1
102
RTVSPropertyOp46
 70
     1
102
RTVSPropertyOp47
 70
     1
102
RTVSPropertyOp48
 70
     1
102
RTVSPropertyOp49
 70
     1
102
RTVSPropertyOp50
 70
     1
102
RTVSPropertyOp51
 70
     0
102
RTVSPropertyOp52
 70
     0
102
RTVSPropertyOp53
 70
     1
102
RTVSPropertyOp54
 70
     1
102
RTVSPropertyOp55
 70
     1
102
RTVSPropertyOp56
 70
     1
102
RTVSPropertyOp57
 70
     1
102
RTVSPropertyOp58
 70
     1
102
RTVSPropertyOp59
 70
     1
102
RTVSPropertyOp60
 70
     1
102
RTVSPropertyOp61
 70
     1
102
RTVSPropertyOp62
 70
     1
  0
XRECORD
  5
22A8A
102
{ACAD_REACTORS
330
22A89
102
}
330
22A89
100
AcDbXrecord
280
     1
102
RTVSPost2010Prop28
280
     0
102
RTVSPost2010PropOp28
 70
     1
102
RTVSPost2010Prop29
280
     1
102
RTVSPost2010PropOp29
 70
     1
102
RTVSPost2010Prop30
280
     1
102
RTVSPost2010PropOp30
 70
     1
102
RTVSPost2010Prop31
280
     0
102
RTVSPost2010PropOp31
 70
     1
102
RTVSPost2010Prop32
280
     0
102
RTVSPost2010PropOp32
 70
     1
102
RTVSPost2010Prop33
280
     0
102
RTVSPost2010PropOp33
 70
     1
102
RTVSPost2010Prop34
280
     0
102
RTVSPost2010PropOp34
 70
     1
102
RTVSPost2010Prop35
280
     0
102
RTVSPost2010PropOp35
 70
     1
102
RTVSPost2010Prop36
280
     0
102
RTVSPost2010PropOp36
 70
     1
102
RTVSPost2010Prop37
 90
       50
102
RTVSPost2010PropOp37
 70
     1
102
RTVSPost2010Prop38
140
0.0
102
RTVSPost2010PropOp38
 70
     1
102
RTVSPost2010Prop39
140
1.0
102
RTVSPost2010PropOp39
 70
     1
102
RTVSPost2010Prop40
 90
        0
102
RTVSPost2010PropOp40
 70
     1
102
RTVSPost2010Prop41ColorIndex
 90
       18
102
RTVSPost2010Prop41ColorRGB
 90
        0
102
RTVSPost2010PropOp41
 70
     1
102
RTVSPost2010Prop42
 90
       50
102
RTVSPost2010PropOp42
 70
     1
102
RTVSPost2010Prop43
 90
        3
102
RTVSPost2010PropOp43
 70
     1
102
RTVSPost2010Prop44ColorIndex
 90
        5
102
RTVSPost2010Prop44ColorRGB
 90
      255
102
RTVSPost2010PropOp44
 70
     1
102
RTVSPost2010Prop45
280
     0
102
RTVSPost2010PropOp45
 70
     1
102
RTVSPost2010Prop46
 90
       50
102
RTVSPost2010PropOp46
 70
     1
102
RTVSPost2010Prop47
 90
       50
102
RTVSPost2010PropOp47
 70
     1
102
RTVSPost2010Prop48
 90
       50
102
RTVSPost2010PropOp48
 70
     1
102
RTVSPost2010Prop49
280
     0
102
RTVSPost2010PropOp49
 70
     1
102
RTVSPost2010Prop50
 90
       50
102
RTVSPost2010PropOp50
 70
     1
102
RTVSPost2010Prop51ColorIndex
 90
      256
102
RTVSPost2010Prop51ColorRGB
 90
-16777216
102
RTVSPost2010PropOp51
 70
     0
102
RTVSPost2010Prop52
140
1.0
102
RTVSPost2010PropOp52
 70
     0
102
RTVSPost2010Prop53
 90
        2
102
RTVSPost2010PropOp53
 70
     1
102
RTVSPost2010Prop54
  1
strokes_ogs.tif
102
RTVSPost2010PropOp54
 70
     1
102
RTVSPost2010Prop55
280
     0
102
RTVSPost2010PropOp55
 70
     1
102
RTVSPost2010Prop56
140
1.0
102
RTVSPost2010PropOp56
 70
     1
102
RTVSPost2010Prop57
140
1.0
102
RTVSPost2010PropOp57
 70
     1
102
RTVSPropertyOp0
 70
     1
102
RTVSPropertyOp1
 70
     1
102
RTVSPropertyOp2
 70
     1
102
RTVSPropertyOp3
 70
     1
102
RTVSPropertyOp4
 70
     1
102
RTVSPropertyOp5
 70
     1
102
RTVSPropertyOp6
 70
     1
102
RTVSPropertyOp7
 70
     1
102
RTVSPropertyOp8
 70
     1
102
RTVSPropertyOp9
 70
     1
102
RTVSPropertyOp10
 70
     1
102
RTVSPropertyOp11
 70
     1
102
RTVSPropertyOp12
 70
     1
102
RTVSPropertyOp13
 70
     1
102
RTVSPropertyOp14
 70
     1
102
RTVSPropertyOp15
 70
     1
102
RTVSPropertyOp16
 70
     1
102
RTVSPropertyOp17
 70
     1
102
RTVSPropertyOp18
 70
     1
102
RTVSPropertyOp19
 70
     1
102
RTVSPropertyOp20
 70
     1
102
RTVSPropertyOp21
 70
     1
102
RTVSPropertyOp22
 70
     1
102
RTVSPropertyOp23
 70
     1
102
RTVSPropertyOp24
 70
     1
102
RTVSPropertyOp25
 70
     1
102
RTVSPropertyOp26
 70
     1
102
RTVSPropertyOp27
 70
     1
102
RTVSPropertyOp28
 70
     1
102
RTVSPropertyOp29
 70
     1
102
RTVSPropertyOp30
 70
     1
102
RTVSPropertyOp31
 70
     1
102
RTVSPropertyOp32
 70
     1
102
RTVSPropertyOp33
 70
     1
102
RTVSPropertyOp34
 70
     1
102
RTVSPropertyOp35
 70
     1
102
RTVSPropertyOp36
 70
     1
102
RTVSPropertyOp37
 70
     1
102
RTVSPropertyOp38
 70
     1
102
RTVSPropertyOp39
 70
     1
102
RTVSPropertyOp40
 70
     1
102
RTVSPropertyOp41
 70
     1
102
RTVSPropertyOp42
 70
     1
102
RTVSPropertyOp43
 70
     1
102
RTVSPropertyOp44
 70
     1
102
RTVSPropertyOp45
 70
     1
102
RTVSPropertyOp46
 70
     1
102
RTVSPropertyOp47
 70
     1
102
RTVSPropertyOp48
 70
     1
102
RTVSPropertyOp49
 70
     1
102
RTVSPropertyOp50
 70
     1
102
RTVSPropertyOp51
 70
     0
102
RTVSPropertyOp52
 70
     0
102
RTVSPropertyOp53
 70
     1
102
RTVSPropertyOp54
 70
     1
102
RTVSPropertyOp55
 70
     1
102
RTVSPropertyOp56
 70
     1
102
RTVSPropertyOp57
 70
     1
102
RTVSPropertyOp58
 70
     1
102
RTVSPropertyOp59
 70
     1
102
RTVSPropertyOp60
 70
     1
102
RTVSPropertyOp61
 70
     1
102
RTVSPropertyOp62
 70
     1
  0
XRECORD
  5
22A92
102
{ACAD_REACTORS
330
22A91
102
}
330
22A91
100
AcDbXrecord
280
     1
102
RTVSPost2010Prop28
280
     0
102
RTVSPost2010PropOp28
 70
     1
102
RTVSPost2010Prop29
280
     1
102
RTVSPost2010PropOp29
 70
     1
102
RTVSPost2010Prop30
280
     1
102
RTVSPost2010PropOp30
 70
     1
102
RTVSPost2010Prop31
280
     0
102
RTVSPost2010PropOp31
 70
     1
102
RTVSPost2010Prop32
280
     0
102
RTVSPost2010PropOp32
 70
     1
102
RTVSPost2010Prop33
280
     0
102
RTVSPost2010PropOp33
 70
     1
102
RTVSPost2010Prop34
280
     0
102
RTVSPost2010PropOp34
 70
     1
102
RTVSPost2010Prop35
280
     0
102
RTVSPost2010PropOp35
 70
     1
102
RTVSPost2010Prop36
280
     0
102
RTVSPost2010PropOp36
 70
     1
102
RTVSPost2010Prop37
 90
       50
102
RTVSPost2010PropOp37
 70
     1
102
RTVSPost2010Prop38
140
0.0
102
RTVSPost2010PropOp38
 70
     1
102
RTVSPost2010Prop39
140
1.0
102
RTVSPost2010PropOp39
 70
     1
102
RTVSPost2010Prop40
 90
        0
102
RTVSPost2010PropOp40
 70
     1
102
RTVSPost2010Prop41ColorIndex
 90
       18
102
RTVSPost2010Prop41ColorRGB
 90
        0
102
RTVSPost2010PropOp41
 70
     1
102
RTVSPost2010Prop42
 90
       50
102
RTVSPost2010PropOp42
 70
     1
102
RTVSPost2010Prop43
 90
        3
102
RTVSPost2010PropOp43
 70
     1
102
RTVSPost2010Prop44ColorIndex
 90
        5
102
RTVSPost2010Prop44ColorRGB
 90
      255
102
RTVSPost2010PropOp44
 70
     1
102
RTVSPost2010Prop45
280
     0
102
RTVSPost2010PropOp45
 70
     1
102
RTVSPost2010Prop46
 90
       50
102
RTVSPost2010PropOp46
 70
     1
102
RTVSPost2010Prop47
 90
       50
102
RTVSPost2010PropOp47
 70
     1
102
RTVSPost2010Prop48
 90
       50
102
RTVSPost2010PropOp48
 70
     1
102
RTVSPost2010Prop49
280
     0
102
RTVSPost2010PropOp49
 70
     1
102
RTVSPost2010Prop50
 90
       50
102
RTVSPost2010PropOp50
 70
     1
102
RTVSPost2010Prop51ColorIndex
 90
      256
102
RTVSPost2010Prop51ColorRGB
 90
-16777216
102
RTVSPost2010PropOp51
 70
     0
102
RTVSPost2010Prop52
140
1.0
102
RTVSPost2010PropOp52
 70
     0
102
RTVSPost2010Prop53
 90
        2
102
RTVSPost2010PropOp53
 70
     1
102
RTVSPost2010Prop54
  1
strokes_ogs.tif
102
RTVSPost2010PropOp54
 70
     1
102
RTVSPost2010Prop55
280
     0
102
RTVSPost2010PropOp55
 70
     1
102
RTVSPost2010Prop56
140
1.0
102
RTVSPost2010PropOp56
 70
     1
102
RTVSPost2010Prop57
140
1.0
102
RTVSPost2010PropOp57
 70
     1
102
RTVSPropertyOp0
 70
     1
102
RTVSPropertyOp1
 70
     1
102
RTVSPropertyOp2
 70
     1
102
RTVSPropertyOp3
 70
     1
102
RTVSPropertyOp4
 70
     1
102
RTVSPropertyOp5
 70
     1
102
RTVSPropertyOp6
 70
     1
102
RTVSPropertyOp7
 70
     1
102
RTVSPropertyOp8
 70
     1
102
RTVSPropertyOp9
 70
     1
102
RTVSPropertyOp10
 70
     1
102
RTVSPropertyOp11
 70
     1
102
RTVSPropertyOp12
 70
     1
102
RTVSPropertyOp13
 70
     1
102
RTVSPropertyOp14
 70
     1
102
RTVSPropertyOp15
 70
     1
102
RTVSPropertyOp16
 70
     1
102
RTVSPropertyOp17
 70
     1
102
RTVSPropertyOp18
 70
     1
102
RTVSPropertyOp19
 70
     1
102
RTVSPropertyOp20
 70
     1
102
RTVSPropertyOp21
 70
     1
102
RTVSPropertyOp22
 70
     1
102
RTVSPropertyOp23
 70
     1
102
RTVSPropertyOp24
 70
     1
102
RTVSPropertyOp25
 70
     1
102
RTVSPropertyOp26
 70
     1
102
RTVSPropertyOp27
 70
     1
102
RTVSPropertyOp28
 70
     1
102
RTVSPropertyOp29
 70
     1
102
RTVSPropertyOp30
 70
     1
102
RTVSPropertyOp31
 70
     1
102
RTVSPropertyOp32
 70
     1
102
RTVSPropertyOp33
 70
     1
102
RTVSPropertyOp34
 70
     1
102
RTVSPropertyOp35
 70
     1
102
RTVSPropertyOp36
 70
     1
102
RTVSPropertyOp37
 70
     1
102
RTVSPropertyOp38
 70
     1
102
RTVSPropertyOp39
 70
     1
102
RTVSPropertyOp40
 70
     1
102
RTVSPropertyOp41
 70
     1
102
RTVSPropertyOp42
 70
     1
102
RTVSPropertyOp43
 70
     1
102
RTVSPropertyOp44
 70
     1
102
RTVSPropertyOp45
 70
     1
102
RTVSPropertyOp46
 70
     1
102
RTVSPropertyOp47
 70
     1
102
RTVSPropertyOp48
 70
     1
102
RTVSPropertyOp49
 70
     1
102
RTVSPropertyOp50
 70
     1
102
RTVSPropertyOp51
 70
     0
102
RTVSPropertyOp52
 70
     0
102
RTVSPropertyOp53
 70
     1
102
RTVSPropertyOp54
 70
     1
102
RTVSPropertyOp55
 70
     1
102
RTVSPropertyOp56
 70
     1
102
RTVSPropertyOp57
 70
     1
102
RTVSPropertyOp58
 70
     1
102
RTVSPropertyOp59
 70
     1
102
RTVSPropertyOp60
 70
     1
102
RTVSPropertyOp61
 70
     1
102
RTVSPropertyOp62
 70
     1
  0
ENDSEC
  0
EOF
