  0
SECTION
  2
HEADER
  9
$ACADVER
  1
AC1014
  9
$ACADMAINTVER
 70
     9
  9
$DWGCODEPAGE
  3
ANSI_1252
  9
$INSBASE
 10
0.0
 20
0.0
 30
0.0
  9
$EXTMIN
 10
-20.97896775818708
 20
-35.30609028109427
 30
-0.000000000000013
  9
$EXTMAX
 10
39.25698205519904
 20
27.43069986669513
 30
0.0000000000000023
  9
$LIMMIN
 10
0.0
 20
0.0
  9
$LIMMAX
 10
297.0
 20
210.0
  9
$ORTHOMODE
 70
     0
  9
$REGENMODE
 70
     1
  9
$FILLMODE
 70
     1
  9
$QTEXTMODE
 70
     0
  9
$MIRRTEXT
 70
     1
  9
$DRAGMODE
 70
     2
  9
$LTSCALE
 40
25.0
  9
$OSMODE
 70
   167
  9
$ATTMODE
 70
     1
  9
$TEXTSIZE
 40
0.2
  9
$TRACEWID
 40
0.05
  9
$TEXTSTYLE
  7
STANDARD
  9
$CLAYER
  8
0
  9
$CELTYPE
  6
BYLAYER
  9
$CECOLOR
 62
   256
  9
$CELTSCALE
 40
1.0
  9
$DELOBJ
 70
     1
  9
$DISPSILH
 70
     0
  9
$DIMSCALE
 40
1.0
  9
$DIMASZ
 40
3.5
  9
$DIMEXO
 40
0.625
  9
$DIMDLI
 40
3.75
  9
$DIMRND
 40
0.0
  9
$DIMDLE
 40
0.0
  9
$DIMEXE
 40
1.25
  9
$DIMTP
 40
0.0
  9
$DIMTM
 40
0.0
  9
$DIMTXT
 40
3.5
  9
$DIMCEN
 40
2.5
  9
$DIMTSZ
 40
0.0
  9
$DIMTOL
 70
     0
  9
$DIMLIM
 70
     0
  9
$DIMTIH
 70
     0
  9
$DIMTOH
 70
     0
  9
$DIMSE1
 70
     0
  9
$DIMSE2
 70
     0
  9
$DIMTAD
 70
     1
  9
$DIMZIN
 70
     8
  9
$DIMBLK
  1

  9
$DIMASO
 70
     1
  9
$DIMSHO
 70
     1
  9
$DIMPOST
  1

  9
$DIMAPOST
  1

  9
$DIMALT
 70
     0
  9
$DIMALTD
 70
     3
  9
$DIMALTF
 40
0.03937007874016
  9
$DIMLFAC
 40
1.0
  9
$DIMTOFL
 70
     1
  9
$DIMTVP
 40
0.0
  9
$DIMTIX
 70
     0
  9
$DIMSOXD
 70
     0
  9
$DIMSAH
 70
     0
  9
$DIMBLK1
  1

  9
$DIMBLK2
  1

  9
$DIMSTYLE
  2
ISO-25
  9
$DIMCLRD
 70
   256
  9
$DIMCLRE
 70
   256
  9
$DIMCLRT
 70
   256
  9
$DIMTFAC
 40
1.0
  9
$DIMGAP
 40
0.625
  9
$DIMJUST
 70
     0
  9
$DIMSD1
 70
     0
  9
$DIMSD2
 70
     0
  9
$DIMTOLJ
 70
     0
  9
$DIMTZIN
 70
     8
  9
$DIMALTZ
 70
     0
  9
$DIMALTTZ
 70
     0
  9
$DIMFIT
 70
     3
  9
$DIMUPT
 70
     0
  9
$DIMUNIT
 70
     2
  9
$DIMDEC
 70
     2
  9
$DIMTDEC
 70
     2
  9
$DIMALTU
 70
     2
  9
$DIMALTTD
 70
     3
  9
$DIMTXSTY
  7
STANDARD
  9
$DIMAUNIT
 70
     0
  9
$LUNITS
 70
     2
  9
$LUPREC
 70
     4
  9
$SKETCHINC
 40
0.1
  9
$FILLETRAD
 40
0.0
  9
$AUNITS
 70
     0
  9
$AUPREC
 70
     0
  9
$MENU
  1
.
  9
$ELEVATION
 40
0.0
  9
$PELEVATION
 40
0.0
  9
$THICKNESS
 40
0.0
  9
$LIMCHECK
 70
     0
  9
$BLIPMODE
 70
     0
  9
$CHAMFERA
 40
0.0
  9
$CHAMFERB
 40
0.0
  9
$CHAMFERC
 40
0.0
  9
$CHAMFERD
 40
0.0
  9
$SKPOLY
 70
     0
  9
$TDCREATE
 40
2454167.426010960
  9
$TDUPDATE
 40
2454187.549772407
  9
$TDINDWG
 40
0.2140298958
  9
$TDUSRTIMER
 40
0.2140298958
  9
$USRTIMER
 70
     1
  9
$ANGBASE
 50
0.0
  9
$ANGDIR
 70
     0
  9
$PDMODE
 70
     3
  9
$PDSIZE
 40
0.3125
  9
$PLINEWID
 40
0.0
  9
$COORDS
 70
     0
  9
$SPLFRAME
 70
     0
  9
$SPLINETYPE
 70
     6
  9
$SPLINESEGS
 70
     8
  9
$ATTDIA
 70
     0
  9
$ATTREQ
 70
     1
  9
$HANDLING
 70
-16383
  9
$HANDSEED
  5
1C39
  9
$SURFTAB1
 70
     6
  9
$SURFTAB2
 70
     6
  9
$SURFTYPE
 70
     6
  9
$SURFU
 70
     6
  9
$SURFV
 70
     6
  9
$UCSNAME
  2

  9
$UCSORG
 10
0.0
 20
0.0
 30
0.0
  9
$UCSXDIR
 10
1.0
 20
0.0
 30
0.0
  9
$UCSYDIR
 10
0.0
 20
1.0
 30
0.0
  9
$PUCSNAME
  2

  9
$PUCSORG
 10
0.0
 20
0.0
 30
0.0
  9
$PUCSXDIR
 10
1.0
 20
0.0
 30
0.0
  9
$PUCSYDIR
 10
0.0
 20
1.0
 30
0.0
  9
$USERI1
 70
     0
  9
$USERI2
 70
     0
  9
$USERI3
 70
     0
  9
$USERI4
 70
     0
  9
$USERI5
 70
     0
  9
$USERR1
 40
0.0
  9
$USERR2
 40
0.0
  9
$USERR3
 40
0.0
  9
$USERR4
 40
0.0
  9
$USERR5
 40
0.0
  9
$WORLDVIEW
 70
     1
  9
$SHADEDGE
 70
     3
  9
$SHADEDIF
 70
    70
  9
$TILEMODE
 70
     1
  9
$MAXACTVP
 70
    64
  9
$PINSBASE
 10
0.0
 20
0.0
 30
0.0
  9
$PLIMCHECK
 70
     0
  9
$PEXTMIN
 10
1.000000000000000E+20
 20
1.000000000000000E+20
 30
1.000000000000000E+20
  9
$PEXTMAX
 10
-1.000000000000000E+20
 20
-1.000000000000000E+20
 30
-1.000000000000000E+20
  9
$PLIMMIN
 10
0.0
 20
0.0
  9
$PLIMMAX
 10
12.0
 20
9.0
  9
$UNITMODE
 70
     0
  9
$VISRETAIN
 70
     1
  9
$PLINEGEN
 70
     0
  9
$PSLTSCALE
 70
     1
  9
$TREEDEPTH
 70
  3020
  9
$PICKSTYLE
 70
     1
  9
$CMLSTYLE
  2
STANDARD
  9
$CMLJUST
 70
     0
  9
$CMLSCALE
 40
1.0
  9
$PROXYGRAPHICS
 70
     1
  9
$MEASUREMENT
 70
     1
  0
ENDSEC
  0
SECTION
  2
CLASSES
  0
CLASS
  1
ACDBDICTIONARYWDFLT
  2
AcDbDictionaryWithDefault
  3
AutoCAD 2000
 90
        0
280
     0
281
     0
  0
CLASS
  1
ACDBPLACEHOLDER
  2
AcDbPlaceHolder
  3
AutoCAD 2000
 90
        0
280
     0
281
     0
  0
CLASS
  1
LAYOUT
  2
AcDbLayout
  3
AutoCAD 2000
 90
        0
280
     0
281
     0
  0
CLASS
  1
LONG_TRANSACTION
  2
AcDbLongTransaction
  3
AutoCAD 2000
 90
        0
280
     0
281
     0
  0
CLASS
  1
LWPOLYLINE
  2
AcDbPolyline
  3
AutoCAD 2000
 90
        0
280
     0
281
     1
  0
CLASS
  1
HATCH
  2
AcDbHatch
  3
AutoCAD 2000
 90
        0
280
     0
281
     1
  0
CLASS
  1
XRECORD
  2
AcDbXrecord
  3
AutoCAD 2000
 90
        0
280
     0
281
     0
  0
CLASS
  1
LONG_TRANSACTION
  2
AcDbLongTransaction
  3
AutoCAD 2000
 90
        0
280
     0
281
     0
  0
CLASS
  1
LWPOLYLINE
  2
AcDbPolyline
  3
AutoCAD 2000
 90
        0
280
     0
281
     1
  0
CLASS
  1
HATCH
  2
AcDbHatch
  3
AutoCAD 2000
 90
        0
280
     0
281
     1
  0
CLASS
  1
XRECORD
  2
AcDbXrecord
  3
AutoCAD 2000
 90
        0
280
     0
281
     0
  0
CLASS
  1
DICTIONARYVAR
  2
AcDbDictionaryVar
  3
AutoCAD 2000
 90
        0
280
     0
281
     0
  0
CLASS
  1
LONG_TRANSACTION
  2
AcDbLongTransaction
  3
AutoCAD 2000
 90
        0
280
     0
281
     0
  0
CLASS
  1
LWPOLYLINE
  2
AcDbPolyline
  3
AutoCAD 2000
 90
        0
280
     0
281
     1
  0
CLASS
  1
HATCH
  2
AcDbHatch
  3
AutoCAD 2000
 90
        0
280
     0
281
     1
  0
CLASS
  1
XRECORD
  2
AcDbXrecord
  3
AutoCAD 2000
 90
        0
280
     0
281
     0
  0
CLASS
  1
LONG_TRANSACTION
  2
AcDbLongTransaction
  3
AutoCAD 2000
 90
        0
280
     0
281
     0
  0
CLASS
  1
LWPOLYLINE
  2
AcDbPolyline
  3
AutoCAD 2000
 90
        0
280
     0
281
     1
  0
CLASS
  1
HATCH
  2
AcDbHatch
  3
AutoCAD 2000
 90
        0
280
     0
281
     1
  0
CLASS
  1
XRECORD
  2
AcDbXrecord
  3
AutoCAD 2000
 90
        0
280
     0
281
     0
  0
CLASS
  1
LONG_TRANSACTION
  2
AcDbLongTransaction
  3
AutoCAD 2000
 90
        0
280
     0
281
     0
  0
CLASS
  1
LWPOLYLINE
  2
AcDbPolyline
  3
AutoCAD 2000
 90
        0
280
     0
281
     1
  0
CLASS
  1
HATCH
  2
AcDbHatch
  3
AutoCAD 2000
 90
        0
280
     0
281
     1
  0
CLASS
  1
XRECORD
  2
AcDbXrecord
  3
AutoCAD 2000
 90
        0
280
     0
281
     0
  0
CLASS
  1
LONG_TRANSACTION
  2
AcDbLongTransaction
  3
AutoCAD 2000
 90
        0
280
     0
281
     0
  0
CLASS
  1
LWPOLYLINE
  2
AcDbPolyline
  3
AutoCAD 2000
 90
        0
280
     0
281
     1
  0
CLASS
  1
HATCH
  2
AcDbHatch
  3
AutoCAD 2000
 90
        0
280
     0
281
     1
  0
CLASS
  1
XRECORD
  2
AcDbXrecord
  3
AutoCAD 2000
 90
        0
280
     0
281
     0
  0
CLASS
  1
LONG_TRANSACTION
  2
AcDbLongTransaction
  3
AutoCAD 2000
 90
        0
280
     0
281
     0
  0
CLASS
  1
LWPOLYLINE
  2
AcDbPolyline
  3
AutoCAD 2000
 90
        0
280
     0
281
     1
  0
CLASS
  1
HATCH
  2
AcDbHatch
  3
AutoCAD 2000
 90
        0
280
     0
281
     1
  0
CLASS
  1
XRECORD
  2
AcDbXrecord
  3
AutoCAD 2000
 90
        0
280
     0
281
     0
  0
ENDSEC
  0
SECTION
  2
TABLES
  0
TABLE
  2
VPORT
  5
8
330
0
100
AcDbSymbolTable
 70
     2
  0
VPORT
  5
1C0B
330
8
100
AcDbSymbolTableRecord
100
AcDbViewportTableRecord
  2
*ACTIVE
 70
     0
 10
0.0
 20
0.0
 11
1.0
 21
1.0
 12
9.139007148505987
 22
-3.937695207199567
 13
0.0
 23
0.0
 14
1.0
 24
1.0
 15
0.0
 25
0.0
 16
0.0
 26
0.0
 36
1.0
 17
0.0
 27
0.0
 37
0.0
 40
63.10985332012513
 41
1.297619047619047
 42
50.0
 43
0.0
 44
0.0
 50
0.0
 51
0.0
 71
     0
 72
 20000
 73
     1
 74
     1
 75
     0
 76
     0
 77
     0
 78
     0
  0
ENDTAB
  0
TABLE
  2
LTYPE
  5
5
330
0
100
AcDbSymbolTable
 70
     2
  0
LTYPE
  5
14
330
5
100
AcDbSymbolTableRecord
100
AcDbLinetypeTableRecord
  2
BYBLOCK
 70
     0
  3

 72
    65
 73
     0
 40
0.0
  0
LTYPE
  5
15
330
5
100
AcDbSymbolTableRecord
100
AcDbLinetypeTableRecord
  2
BYLAYER
 70
     0
  3

 72
    65
 73
     0
 40
0.0
  0
LTYPE
  5
16
330
5
100
AcDbSymbolTableRecord
100
AcDbLinetypeTableRecord
  2
CONTINUOUS
 70
     0
  3
Solid line
 72
    65
 73
     0
 40
0.0
  0
LTYPE
  5
1F5
330
5
100
AcDbSymbolTableRecord
100
AcDbLinetypeTableRecord
  2
CENTER
 70
     0
  3
____ _ ____ _ ____ _ ____ _ ____ _ ____ _ ____
 72
    65
 73
     4
 40
0.6
 49
0.375
 74
     0
 49
-0.075
 74
     0
 49
0.075
 74
     0
 49
-0.075
 74
     0
  0
ENDTAB
  0
TABLE
  2
LAYER
  5
2
330
0
100
AcDbSymbolTable
 70
    11
  0
LAYER
  5
10
330
2
100
AcDbSymbolTableRecord
100
AcDbLayerTableRecord
  2
0
 70
     0
 62
     7
  6
CONTINUOUS
  0
LAYER
  5
5AD
330
2
100
AcDbSymbolTableRecord
100
AcDbLayerTableRecord
  2
1
 70
     0
 62
     4
  6
CONTINUOUS
  0
LAYER
  5
5AE
330
2
100
AcDbSymbolTableRecord
100
AcDbLayerTableRecord
  2
2
 70
     0
 62
     7
  6
CONTINUOUS
  0
LAYER
  5
5AF
330
2
100
AcDbSymbolTableRecord
100
AcDbLayerTableRecord
  2
DEFPOINTS
 70
     0
 62
     7
  6
CONTINUOUS
  0
LAYER
  5
5B0
330
2
100
AcDbSymbolTableRecord
100
AcDbLayerTableRecord
  2
4
 70
     0
 62
     2
  6
CENTER
  0
LAYER
  5
5B1
330
2
100
AcDbSymbolTableRecord
100
AcDbLayerTableRecord
  2
6
 70
     0
 62
     5
  6
CONTINUOUS
  0
LAYER
  5
5B2
330
2
100
AcDbSymbolTableRecord
100
AcDbLayerTableRecord
  2
CUT
 70
     0
 62
     1
  6
CONTINUOUS
  0
LAYER
  5
5B3
330
2
100
AcDbSymbolTableRecord
100
AcDbLayerTableRecord
  2
NOCUT
 70
     0
 62
     7
  6
CONTINUOUS
  0
LAYER
  5
5B4
330
2
100
AcDbSymbolTableRecord
100
AcDbLayerTableRecord
  2
SK1
 70
     0
 62
     4
  6
CONTINUOUS
  0
LAYER
  5
5B5
330
2
100
AcDbSymbolTableRecord
100
AcDbLayerTableRecord
  2
SK4
 70
     0
 62
     2
  6
CENTER
  0
LAYER
  5
1BCA
330
2
100
AcDbSymbolTableRecord
100
AcDbLayerTableRecord
  2
SK2
 70
     0
 62
     7
  6
CONTINUOUS
  0
ENDTAB
  0
TABLE
  2
STYLE
  5
3
330
0
100
AcDbSymbolTable
 70
     1
  0
STYLE
  5
11
330
3
100
AcDbSymbolTableRecord
100
AcDbTextStyleTableRecord
  2
STANDARD
 70
     0
 40
0.0
 41
0.8
 50
0.0
 71
     0
 42
0.2
  3
isocp.shx
  4

  0
ENDTAB
  0
TABLE
  2
VIEW
  5
6
330
0
100
AcDbSymbolTable
 70
     0
  0
ENDTAB
  0
TABLE
  2
UCS
  5
7
330
0
100
AcDbSymbolTable
 70
     0
  0
ENDTAB
  0
TABLE
  2
APPID
  5
9
330
0
100
AcDbSymbolTable
 70
     1
  0
APPID
  5
20C
330
9
100
AcDbSymbolTableRecord
100
AcDbRegAppTableRecord
  2
ACAD
 70
     0
  0
ENDTAB
  0
TABLE
  2
DIMSTYLE
  5
A
330
0
100
AcDbSymbolTable
 70
     2
  0
DIMSTYLE
105
20D
330
A
100
AcDbSymbolTableRecord
100
AcDbDimStyleTableRecord
  2
STANDARD
 70
     0
  3

  4

  5

  6

  7

 40
1.0
 41
2.5
 42
0.0625
 43
0.38
 44
0.18
 45
0.0
 46
0.0
 47
0.005
 48
0.005
140
3.5
141
0.09
142
0.0
143
25.4
144
1.0
145
0.0
146
1.0
147
0.09
 71
     1
 72
     0
 73
     0
 74
     0
 75
     0
 76
     0
 77
     1
 78
     8
170
     0
171
     2
172
     0
173
     0
174
     0
175
     0
176
     0
177
     0
178
     5
270
     2
271
     3
272
     3
273
     2
274
     2
340
11
275
     0
280
     0
281
     0
282
     0
283
     1
284
     8
285
     0
286
     0
287
     3
288
     0
  0
DIMSTYLE
105
5B6
102
{ACAD_REACTORS
330
D2D
330
D2E
330
D2F
330
D30
330
D31
330
1BD0
102
}
330
A
100
AcDbSymbolTableRecord
100
AcDbDimStyleTableRecord
  2
ISO-25
 70
     0
  3

  4

  5

  6

  7

 40
1.0
 41
3.5
 42
0.625
 43
3.75
 44
1.25
 45
0.0
 46
0.0
 47
0.0
 48
0.0
140
3.5
141
2.5
142
0.0
143
0.03937007874016
144
1.0
145
0.0
146
1.0
147
0.625
 71
     0
 72
     0
 73
     0
 74
     0
 75
     0
 76
     0
 77
     1
 78
     8
170
     0
171
     3
172
     1
173
     0
174
     0
175
     0
176
   256
177
   256
178
   256
270
     2
271
     2
272
     2
273
     2
274
     3
340
11
275
     0
280
     0
281
     0
282
     0
283
     0
284
     8
285
     0
286
     0
287
     3
288
     0
  0
ENDTAB
  0
TABLE
  2
BLOCK_RECORD
  5
1
330
0
100
AcDbSymbolTable
 70
     9
  0
BLOCK_RECORD
  5
1F
102
{ACAD_XDICTIONARY
360
AF0
102
}
330
1
100
AcDbSymbolTableRecord
100
AcDbBlockTableRecord
  2
*MODEL_SPACE
  0
BLOCK_RECORD
  5
1B
102
{ACAD_XDICTIONARY
360
AEE
102
}
330
1
100
AcDbSymbolTableRecord
100
AcDbBlockTableRecord
  2
*PAPER_SPACE
  0
BLOCK_RECORD
  5
EB0
330
1
100
AcDbSymbolTableRecord
100
AcDbBlockTableRecord
  2
*D0
  0
BLOCK_RECORD
  5
EBE
330
1
100
AcDbSymbolTableRecord
100
AcDbBlockTableRecord
  2
*D1
  0
BLOCK_RECORD
  5
ECC
330
1
100
AcDbSymbolTableRecord
100
AcDbBlockTableRecord
  2
*D2
  0
BLOCK_RECORD
  5
EDA
330
1
100
AcDbSymbolTableRecord
100
AcDbBlockTableRecord
  2
*D3
  0
BLOCK_RECORD
  5
EE8
330
1
100
AcDbSymbolTableRecord
100
AcDbBlockTableRecord
  2
*D4
  0
BLOCK_RECORD
  5
1BB8
330
1
100
AcDbSymbolTableRecord
100
AcDbBlockTableRecord
  2
_ARROW_FILLED
  0
BLOCK_RECORD
  5
1BBC
330
1
100
AcDbSymbolTableRecord
100
AcDbBlockTableRecord
  2
*D6
  0
BLOCK_RECORD
  5
1BD1
330
1
100
AcDbSymbolTableRecord
100
AcDbBlockTableRecord
  2
*D8
  0
ENDTAB
  0
ENDSEC
  0
SECTION
  2
BLOCKS
  0
BLOCK
  5
20
330
1F
100
AcDbEntity
  8
0
100
AcDbBlockBegin
  2
*MODEL_SPACE
 70
     0
 10
0.0
 20
0.0
 30
0.0
  3
*MODEL_SPACE
  1

  0
ENDBLK
  5
21
330
1F
100
AcDbEntity
  8
0
100
AcDbBlockEnd
  0
BLOCK
  5
1C
330
1B
100
AcDbEntity
 67
     1
  8
0
100
AcDbBlockBegin
  2
*PAPER_SPACE
 70
     0
 10
0.0
 20
0.0
 30
0.0
  3
*PAPER_SPACE
  1

  0
ENDBLK
  5
1D
330
1B
100
AcDbEntity
 67
     1
  8
0
100
AcDbBlockEnd
  0
BLOCK
  5
EBC
330
EB0
100
AcDbEntity
  8
0
100
AcDbBlockBegin
  2
*D0
 70
     1
 10
0.0
 20
0.0
 30
0.0
  3
*D0
  1

  0
LINE
  5
19AB
330
EB0
100
AcDbEntity
  8
2
100
AcDbLine
 10
10.44789156626472
 20
-6.200002241979687
 30
0.0
 11
25.43510940385711
 21
-6.20000224197969
 31
0.0
  0
LINE
  5
19AC
330
EB0
100
AcDbEntity
  8
2
100
AcDbLine
 10
10.44789156626472
 20
6.199999999999955
 30
0.0
 11
25.43510940385711
 21
6.199999999999952
 31
0.0
  0
LINE
  5
19AD
330
EB0
100
AcDbEntity
  8
2
100
AcDbLine
 10
24.1851094038571
 20
-9.700002241979687
 30
0.0
 11
24.1851094038571
 21
-13.20000224197968
 31
0.0
  0
LINE
  5
19AE
330
EB0
100
AcDbEntity
  8
2
100
AcDbLine
 10
24.18510940385711
 20
9.699999999999953
 30
0.0
 11
24.18510940385711
 21
13.19999999999994
 31
0.0
  0
LINE
  5
19AF
330
EB0
100
AcDbEntity
  8
2
100
AcDbLine
 10
24.18510940385711
 20
-6.20000224197969
 30
0.0
 11
24.18510940385711
 21
6.199999999999952
 31
0.0
  0
SOLID
  5
19B0
330
EB0
100
AcDbEntity
  8
2
100
AcDbTrace
 10
23.60177607052377
 20
-9.700002241979687
 30
0.0
 11
24.76844273719042
 21
-9.700002241979687
 31
0.0
 12
24.18510940385711
 22
-6.20000224197969
 32
0.0
 13
24.18510940385711
 23
-6.20000224197969
 33
0.0
  0
SOLID
  5
19B1
330
EB0
100
AcDbEntity
  8
2
100
AcDbTrace
 10
23.60177607052377
 20
9.699999999999953
 30
0.0
 11
24.76844273719044
 21
9.699999999999953
 31
0.0
 12
24.18510940385711
 22
6.199999999999952
 32
0.0
 13
24.18510940385711
 23
6.199999999999952
 33
0.0
  0
MTEXT
  5
19B2
330
EB0
100
AcDbEntity
  8
2
100
AcDbMText
 10
21.80976491566812
 20
-0.1120493137609483
 30
0.0
 40
3.5
 41
0.0
 71
     5
 72
     1
  1
12.4
 11
0.0000000000000001
 21
1.0
 31
0.0
1001
ACAD
1000
MTEXTBEGIN
1070
    73
1070
     1
1070
    44
1040
1.0
1070
    74
1070
     0
1000
MTEXTEND
1000
MTEXTBEGIN
1070
    73
1070
     1
1070
    44
1040
1.0
1070
    74
1070
     0
1000
MTEXTEND
1000
MTEXTBEGIN
1070
    73
1070
     1
1070
    44
1040
1.0
1070
    74
1070
     0
1000
MTEXTEND
  0
POINT
  5
19B3
330
EB0
100
AcDbEntity
  8
DEFPOINTS
 62
     0
100
AcDbPoint
 10
9.822891566264724
 20
-6.200002241979684
 30
0.0
  0
POINT
  5
19B4
330
EB0
100
AcDbEntity
  8
DEFPOINTS
 62
     0
100
AcDbPoint
 10
9.822891566264724
 20
6.199999999999955
 30
0.0
  0
POINT
  5
19B5
330
EB0
100
AcDbEntity
  8
DEFPOINTS
 62
     0
100
AcDbPoint
 10
24.18510940385711
 20
6.199999999999952
 30
0.0
  0
ENDBLK
  5
EBD
330
EB0
100
AcDbEntity
  8
0
100
AcDbBlockEnd
  0
BLOCK
  5
ECA
330
EBE
100
AcDbEntity
  8
0
100
AcDbBlockBegin
  2
*D1
 70
     1
 10
0.0
 20
0.0
 30
0.0
  3
*D1
  1

  0
LINE
  5
1C2E
330
EBE
100
AcDbEntity
  8
2
100
AcDbLine
 10
13.37571652892298
 20
2.647175037352063
 30
0.0
 11
-11.01222910308631
 21
27.03512066993359
 31
0.0
  0
LINE
  5
1C2F
330
EBE
100
AcDbEntity
  8
2
100
AcDbLine
 10
12.59988636466429
 20
-3.423007443580103
 30
0.0
 11
-11.01222910340349
 21
-27.03512291164788
 31
0.0
  0
ARC
  5
1C30
330
EBE
100
AcDbEntity
  8
2
100
AcDbCircle
 10
16.02289268722866
 20
-0.0000011210157341
 30
0.0
 40
36.98343589672039
100
AcDbArc
 50
140.4243239780634
 51
219.5756760212644
  0
SOLID
  5
1C31
330
EBE
100
AcDbEntity
  8
2
100
AcDbTrace
 10
-12.91487467032023
 20
23.95452745695763
 30
0.0
 11
-12.05180507774719
 21
23.16952937448422
 31
0.0
 12
-10.1283456266135
 22
26.15123719344004
 32
0.0
 13
-10.1283456266135
 23
26.15123719344004
 33
0.0
  0
SOLID
  5
1C32
330
EBE
100
AcDbEntity
  8
2
100
AcDbTrace
 10
-12.05180507801902
 20
-23.16953161618631
 30
0.0
 11
-12.91487467060126
 21
-23.95452969864959
 31
0.0
 12
-10.12834562692031
 22
-26.1512394351647
 32
0.0
 13
-10.12834562692031
 23
-26.1512394351647
 33
0.0
  0
MTEXT
  5
1C33
330
EBE
100
AcDbEntity
  8
2
100
AcDbMText
 10
-18.57098394500127
 20
-1.003761436758492
 30
0.0
 40
3.5
 41
0.0
 71
     5
 72
     1
  1
90°
 11
0.0290033423856021
 21
-0.9995793145771191
 31
0.0
  0
POINT
  5
1C34
330
EBE
100
AcDbEntity
  8
DEFPOINTS
 62
     0
100
AcDbPoint
 10
-19.7003631902449
 20
9.572016442663127
 30
0.0
  0
POINT
  5
1C35
330
EBE
100
AcDbEntity
  8
DEFPOINTS
 62
     0
100
AcDbPoint
 10
13.04182810290589
 20
-2.981065705338511
 30
0.0
  0
POINT
  5
1C36
330
EBE
100
AcDbEntity
  8
DEFPOINTS
 62
     0
100
AcDbPoint
 10
13.81765826715939
 20
2.205233299105286
 30
0.0
  0
POINT
  5
1C37
330
EBE
100
AcDbEntity
  8
DEFPOINTS
 62
     0
100
AcDbPoint
 10
15.26523221173083
 20
0.7576593544998797
 30
0.0
  0
POINT
  5
1C38
330
EBE
100
AcDbEntity
  8
DEFPOINTS
 62
     0
100
AcDbPoint
 10
15.26523221171224
 20
-0.7576615965321613
 30
0.0
  0
ENDBLK
  5
ECB
330
EBE
100
AcDbEntity
  8
0
100
AcDbBlockEnd
  0
BLOCK
  5
ED8
330
ECC
100
AcDbEntity
  8
0
100
AcDbBlockBegin
  2
*D2
 70
     1
 10
0.0
 20
0.0
 30
0.0
  3
*D2
  1

  0
LINE
  5
19D7
330
ECC
100
AcDbEntity
  8
2
100
AcDbLine
 10
15.49999999999841
 20
-0.6250022419798137
 30
0.0
 11
15.49999999999841
 21
-22.94801591022835
 31
0.0
  0
LINE
  5
19D8
330
ECC
100
AcDbEntity
  8
2
100
AcDbLine
 10
-0.0000043459160603
 20
-6.237998939758949
 30
0.0
 11
-0.0000043459160613
 21
-22.94801591022835
 31
0.0
  0
LINE
  5
19D9
330
ECC
100
AcDbEntity
  8
2
100
AcDbLine
 10
11.9999999999984
 20
-21.69801591022835
 30
0.0
 11
3.499995654083936
 21
-21.69801591022835
 31
0.0
  0
SOLID
  5
19DA
330
ECC
100
AcDbEntity
  8
2
100
AcDbTrace
 10
11.9999999999984
 20
-21.11468257689501
 30
0.0
 11
11.9999999999984
 21
-22.28134924356167
 31
0.0
 12
15.49999999999841
 22
-21.69801591022835
 32
0.0
 13
15.49999999999841
 23
-21.69801591022835
 33
0.0
  0
SOLID
  5
19DB
330
ECC
100
AcDbEntity
  8
2
100
AcDbTrace
 10
3.499995654083936
 20
-21.11468257689501
 30
0.0
 11
3.499995654083936
 21
-22.28134924356167
 31
0.0
 12
-0.0000043459160612
 22
-21.69801591022835
 32
0.0
 13
-0.0000043459160612
 23
-21.69801591022835
 33
0.0
  0
MTEXT
  5
19DC
330
ECC
100
AcDbEntity
  8
2
100
AcDbMText
 10
7.021684574029241
 20
-19.32301591022834
 30
0.0
 40
3.5
 41
0.0
 71
     5
 72
     1
  1
15.5
1001
ACAD
1000
MTEXTBEGIN
1070
    73
1070
     1
1070
    44
1040
1.0
1070
    74
1070
     0
1000
MTEXTEND
1000
MTEXTBEGIN
1070
    73
1070
     1
1070
    44
1040
1.0
1070
    74
1070
     0
1000
MTEXTEND
1000
MTEXTBEGIN
1070
    73
1070
     1
1070
    44
1040
1.0
1070
    74
1070
     0
1000
MTEXTEND
  0
POINT
  5
19DD
330
ECC
100
AcDbEntity
  8
DEFPOINTS
 62
     0
100
AcDbPoint
 10
15.49999999999841
 20
-0.0000022419798136
 30
0.0
  0
POINT
  5
19DE
330
ECC
100
AcDbEntity
  8
DEFPOINTS
 62
     0
100
AcDbPoint
 10
-0.0000043459160602
 20
-5.612998939758949
 30
0.0
  0
POINT
  5
19DF
330
ECC
100
AcDbEntity
  8
DEFPOINTS
 62
     0
100
AcDbPoint
 10
-0.0000043459160612
 20
-21.69801591022835
 30
0.0
  0
ENDBLK
  5
ED9
330
ECC
100
AcDbEntity
  8
0
100
AcDbBlockEnd
  0
BLOCK
  5
EE6
330
EDA
100
AcDbEntity
  8
0
100
AcDbBlockBegin
  2
*D3
 70
     1
 10
0.0
 20
0.0
 30
0.0
  3
*D3
  1

  0
LINE
  5
1A17
330
EDA
100
AcDbEntity
  8
2
100
AcDbLine
 10
9.822891566264724
 20
6.824999999999955
 30
0.0
 11
9.822891566264724
 21
18.04066354733653
 31
0.0
  0
LINE
  5
1A18
330
EDA
100
AcDbEntity
  8
2
100
AcDbLine
 10
15.49999999999835
 20
0.6249977580201863
 30
0.0
 11
15.49999999999836
 21
18.04066354733653
 31
0.0
  0
LINE
  5
1A19
330
EDA
100
AcDbEntity
  8
2
100
AcDbLine
 10
6.322891566264722
 20
16.79066354733655
 30
0.0
 11
2.822891566264722
 21
16.79066354733655
 31
0.0
  0
LINE
  5
1A1A
330
EDA
100
AcDbEntity
  8
2
100
AcDbLine
 10
18.99999999999836
 20
16.79066354733655
 30
0.0
 11
30.32999999999836
 21
16.79066354733655
 31
0.0
  0
LINE
  5
1A1B
330
EDA
100
AcDbEntity
  8
2
100
AcDbLine
 10
9.822891566264724
 20
16.79066354733655
 30
0.0
 11
15.49999999999836
 21
16.79066354733655
 31
0.0
  0
SOLID
  5
1A1C
330
EDA
100
AcDbEntity
  8
2
100
AcDbTrace
 10
6.322891566264722
 20
17.37399688066988
 30
0.0
 11
6.322891566264722
 21
16.20733021400321
 31
0.0
 12
9.822891566264724
 22
16.79066354733655
 32
0.0
 13
9.822891566264724
 23
16.79066354733655
 33
0.0
  0
SOLID
  5
1A1D
330
EDA
100
AcDbEntity
  8
2
100
AcDbTrace
 10
18.99999999999836
 20
17.37399688066988
 30
0.0
 11
18.99999999999836
 21
16.20733021400321
 31
0.0
 12
15.49999999999836
 22
16.79066354733655
 32
0.0
 13
15.49999999999836
 23
16.79066354733655
 33
0.0
  0
MTEXT
  5
1A1E
330
EDA
100
AcDbEntity
  8
2
100
AcDbMText
 10
27.74499999999836
 20
19.16566354733655
 30
0.0
 40
3.5
 41
0.0
 71
     5
 72
     1
  1
5.7
1001
ACAD
1000
MTEXTBEGIN
1070
    73
1070
     1
1070
    44
1040
1.0
1070
    74
1070
     0
1000
MTEXTEND
1000
MTEXTBEGIN
1070
    73
1070
     1
1070
    44
1040
1.0
1070
    74
1070
     0
1000
MTEXTEND
1000
MTEXTBEGIN
1070
    73
1070
     1
1070
    44
1040
1.0
1070
    74
1070
     0
1000
MTEXTEND
  0
POINT
  5
1A1F
330
EDA
100
AcDbEntity
  8
DEFPOINTS
 62
     0
100
AcDbPoint
 10
9.822891566264724
 20
6.199999999999955
 30
0.0
  0
POINT
  5
1A20
330
EDA
100
AcDbEntity
  8
DEFPOINTS
 62
     0
100
AcDbPoint
 10
15.49999999999835
 20
-0.0000022419798136
 30
0.0
  0
POINT
  5
1A21
330
EDA
100
AcDbEntity
  8
DEFPOINTS
 62
     0
100
AcDbPoint
 10
15.49999999999836
 20
16.79066354733655
 30
0.0
  0
ENDBLK
  5
EE7
330
EDA
100
AcDbEntity
  8
0
100
AcDbBlockEnd
  0
BLOCK
  5
EF4
330
EE8
100
AcDbEntity
  8
0
100
AcDbBlockBegin
  2
*D4
 70
     1
 10
0.0
 20
0.0
 30
0.0
  3
*D4
  1

  0
LINE
  5
19F8
330
EE8
100
AcDbEntity
  8
2
100
AcDbLine
 10
3.5
 20
6.909137848422492
 30
0.0
 11
3.500000000000001
 21
24.53984833848432
 31
0.0
  0
LINE
  5
19F9
330
EE8
100
AcDbEntity
  8
2
100
AcDbLine
 10
15.49999999999835
 20
0.6249977580201863
 30
0.0
 11
15.49999999999836
 21
24.53984833848432
 31
0.0
  0
LINE
  5
19FA
330
EE8
100
AcDbEntity
  8
2
100
AcDbLine
 10
7.0
 20
23.2898483384843
 30
0.0
 11
11.99999999999836
 21
23.2898483384843
 31
0.0
  0
SOLID
  5
19FB
330
EE8
100
AcDbEntity
  8
2
100
AcDbTrace
 10
7.0
 20
23.87318167181765
 30
0.0
 11
7.0
 21
22.70651500515098
 31
0.0
 12
3.500000000000001
 22
23.2898483384843
 32
0.0
 13
3.500000000000001
 23
23.2898483384843
 33
0.0
  0
SOLID
  5
19FC
330
EE8
100
AcDbEntity
  8
2
100
AcDbTrace
 10
11.99999999999836
 20
23.87318167181765
 30
0.0
 11
11.99999999999836
 21
22.70651500515098
 31
0.0
 12
15.49999999999836
 22
23.2898483384843
 32
0.0
 13
15.49999999999836
 23
23.2898483384843
 33
0.0
  0
MTEXT
  5
19FD
330
EE8
100
AcDbEntity
  8
2
100
AcDbMText
 10
9.337314229750688
 20
25.66519282667329
 30
0.0
 40
3.5
 41
0.0
 71
     5
 72
     1
  1
12
1001
ACAD
1000
MTEXTBEGIN
1070
    73
1070
     1
1070
    44
1040
1.0
1070
    74
1070
     0
1000
MTEXTEND
1000
MTEXTBEGIN
1070
    73
1070
     1
1070
    44
1040
1.0
1070
    74
1070
     0
1000
MTEXTEND
1000
MTEXTBEGIN
1070
    73
1070
     1
1070
    44
1040
1.0
1070
    74
1070
     0
1000
MTEXTEND
  0
POINT
  5
19FE
330
EE8
100
AcDbEntity
  8
DEFPOINTS
 62
     0
100
AcDbPoint
 10
3.5
 20
6.284137848422492
 30
0.0
  0
POINT
  5
19FF
330
EE8
100
AcDbEntity
  8
DEFPOINTS
 62
     0
100
AcDbPoint
 10
15.49999999999835
 20
-0.0000022419798136
 30
0.0
  0
POINT
  5
1A00
330
EE8
100
AcDbEntity
  8
DEFPOINTS
 62
     0
100
AcDbPoint
 10
15.49999999999836
 20
23.2898483384843
 30
0.0
  0
ENDBLK
  5
EF5
330
EE8
100
AcDbEntity
  8
0
100
AcDbBlockEnd
  0
BLOCK
  5
1BBA
330
1BB8
100
AcDbEntity
  8
0
100
AcDbBlockBegin
  2
_ARROW_FILLED
 70
     0
 10
0.0
 20
0.0
 30
0.0
  3
_ARROW_FILLED
  1

  0
SOLID
  5
1BB9
330
1BB8
100
AcDbEntity
  8
0
  6
BYBLOCK
 62
     0
100
AcDbTrace
 10
0.0
 20
0.0
 30
0.0
 11
-1.0
 21
0.132
 31
0.0
 12
-1.0
 22
-0.132
 32
0.0
 13
-1.0
 23
-0.132
 33
0.0
  0
ENDBLK
  5
1BBB
330
1BB8
100
AcDbEntity
  8
0
  6
BYBLOCK
 62
     0
100
AcDbBlockEnd
  0
BLOCK
  5
1BC8
330
1BBC
100
AcDbEntity
  8
0
100
AcDbBlockBegin
  2
*D6
 70
     1
 10
0.0
 20
0.0
 30
0.0
  3
*D6
  1

  0
LINE
  5
1BBD
330
1BBC
100
AcDbEntity
  8
SK2
100
AcDbLine
 10
-6.601886324057418
 20
2.650000887499999
 30
0.0
 11
-14.3152289181549
 21
2.650000887500001
 31
0.0
  0
LINE
  5
1BBE
330
1BBC
100
AcDbEntity
  8
SK2
100
AcDbLine
 10
-7.218414779224081
 20
-2.650000481916658
 30
0.0
 11
-14.3152289181549
 21
-2.650000481916657
 31
0.0
  0
LINE
  5
1BBF
330
1BBC
100
AcDbEntity
  8
SK2
100
AcDbLine
 10
-13.0652289181549
 20
6.1500008875
 30
0.0
 11
-13.0652289181549
 21
9.650000887500002
 31
0.0
  0
LINE
  5
1BC0
330
1BBC
100
AcDbEntity
  8
SK2
100
AcDbLine
 10
-13.0652289181549
 20
-6.150000481916657
 30
0.0
 11
-13.0652289181549
 21
-9.650000481916656
 31
0.0
  0
LINE
  5
1BC1
330
1BBC
100
AcDbEntity
  8
SK2
100
AcDbLine
 10
-13.0652289181549
 20
2.650000887500001
 30
0.0
 11
-13.0652289181549
 21
-2.650000481916657
 31
0.0
  0
SOLID
  5
1BC2
330
1BBC
100
AcDbEntity
  8
SK2
100
AcDbTrace
 10
-13.64856225148823
 20
6.1500008875
 30
0.0
 11
-12.48189558482156
 21
6.1500008875
 31
0.0
 12
-13.0652289181549
 22
2.650000887500001
 32
0.0
 13
-13.0652289181549
 23
2.650000887500001
 33
0.0
  0
SOLID
  5
1BC3
330
1BBC
100
AcDbEntity
  8
SK2
100
AcDbTrace
 10
-13.64856225148823
 20
-6.150000481916657
 30
0.0
 11
-12.48189558482156
 21
-6.150000481916657
 31
0.0
 12
-13.0652289181549
 22
-2.650000481916657
 32
0.0
 13
-13.0652289181549
 23
-2.650000481916657
 33
0.0
  0
MTEXT
  5
1BC4
330
1BBC
100
AcDbEntity
  8
SK2
100
AcDbMText
 10
-15.4402289181549
 20
0.0000002027916701
 30
0.0
 40
3.5
 41
0.0
 71
     5
 72
     1
  1
Ts5
 11
0.0000000000000001
 21
1.0
 31
0.0
1001
ACAD
1000
MTEXTBEGIN
1070
    73
1070
     1
1070
    44
1040
1.0
1070
    74
1070
     0
1000
MTEXTEND
  0
POINT
  5
1BC5
330
1BBC
100
AcDbEntity
  8
DEFPOINTS
 62
     0
100
AcDbPoint
 10
-5.976886324057418
 20
2.650000887499999
 30
0.0
  0
POINT
  5
1BC6
330
1BBC
100
AcDbEntity
  8
DEFPOINTS
 62
     0
100
AcDbPoint
 10
-6.593414779224081
 20
-2.650000481916659
 30
0.0
  0
POINT
  5
1BC7
330
1BBC
100
AcDbEntity
  8
DEFPOINTS
 62
     0
100
AcDbPoint
 10
-13.0652289181549
 20
-2.650000481916657
 30
0.0
  0
ENDBLK
  5
1BC9
330
1BBC
100
AcDbEntity
  8
0
100
AcDbBlockEnd
  0
BLOCK
  5
1BDD
330
1BD1
100
AcDbEntity
  8
0
100
AcDbBlockBegin
  2
*D8
 70
     1
 10
0.0
 20
0.0
 30
0.0
  3
*D8
  1

  0
LINE
  5
1C00
330
1BD1
100
AcDbEntity
  8
SK2
100
AcDbLine
 10
-6.140105976299749
 20
4.110006996850117
 30
0.0
 11
-12.66813823957627
 21
4.110006996850118
 31
0.0
  0
LINE
  5
1C01
330
1BD1
100
AcDbEntity
  8
SK2
100
AcDbLine
 10
-7.054450926799752
 20
-4.110003000849886
 30
0.0
 11
-12.66813823957628
 21
-4.110003000849885
 31
0.0
  0
LINE
  5
1C02
330
1BD1
100
AcDbEntity
  8
SK2
100
AcDbLine
 10
-11.41813823957627
 20
7.610006996850118
 30
0.0
 11
-11.41813823957627
 21
11.11000699685011
 31
0.0
  0
LINE
  5
1C03
330
1BD1
100
AcDbEntity
  8
SK2
100
AcDbLine
 10
-11.41813823957628
 20
-7.610003000849885
 30
0.0
 11
-11.41813823957628
 21
-11.11000300084988
 31
0.0
  0
LINE
  5
1C04
330
1BD1
100
AcDbEntity
  8
SK2
100
AcDbLine
 10
-11.41813823957627
 20
4.110006996850118
 30
0.0
 11
-11.41813823957628
 21
-4.110003000849885
 31
0.0
  0
SOLID
  5
1C05
330
1BD1
100
AcDbEntity
  8
SK2
100
AcDbTrace
 10
-12.00147157290961
 20
7.610006996850118
 30
0.0
 11
-10.83480490624294
 21
7.610006996850118
 31
0.0
 12
-11.41813823957627
 22
4.110006996850118
 32
0.0
 13
-11.41813823957627
 23
4.110006996850118
 33
0.0
  0
SOLID
  5
1C06
330
1BD1
100
AcDbEntity
  8
SK2
100
AcDbTrace
 10
-12.00147157290961
 20
-7.610003000849885
 30
0.0
 11
-10.83480490624294
 21
-7.610003000849885
 31
0.0
 12
-11.41813823957628
 22
-4.110003000849885
 32
0.0
 13
-11.41813823957628
 23
-4.110003000849885
 33
0.0
  0
MTEXT
  5
1C07
330
1BD1
100
AcDbEntity
  8
SK2
100
AcDbMText
 10
-13.79313823957628
 20
0.0000019980001148
 30
0.0
 40
3.5
 41
0.0
 71
     5
 72
     1
  1
Ts8
 11
0.0000000000000001
 21
1.0
 31
0.0
1001
ACAD
1000
MTEXTBEGIN
1070
    73
1070
     1
1070
    44
1040
1.0
1070
    74
1070
     0
1000
MTEXTEND
  0
POINT
  5
1C08
330
1BD1
100
AcDbEntity
  8
DEFPOINTS
 62
     0
100
AcDbPoint
 10
-5.515105976299749
 20
4.110006996850116
 30
0.0
  0
POINT
  5
1C09
330
1BD1
100
AcDbEntity
  8
DEFPOINTS
 62
     0
100
AcDbPoint
 10
-6.429450926799752
 20
-4.110003000849886
 30
0.0
  0
POINT
  5
1C0A
330
1BD1
100
AcDbEntity
  8
DEFPOINTS
 62
     0
100
AcDbPoint
 10
-11.41813823957628
 20
-4.110003000849885
 30
0.0
  0
ENDBLK
  5
1BDE
330
1BD1
100
AcDbEntity
  8
0
100
AcDbBlockEnd
  0
ENDSEC
  0
SECTION
  2
ENTITIES
  0
TEXT
  5
D2C
330
1F
100
AcDbEntity
  8
6
100
AcDbText
 10
-21.35109652912058
 20
-35.34352930287381
 30
0.0
 40
5.0
  1
45N12412T8RA45
 41
1.199999999999999
 72
     1
 11
9.373167539591321
 21
-35.34352930287381
 31
0.0
100
AcDbText
  0
DIMENSION
  5
D2D
330
1F
100
AcDbEntity
  8
2
100
AcDbDimension
  2
*D0
 10
24.18510940385711
 20
6.199999999999952
 30
0.0
 11
24.18510940385711
 21
-0.1120493137609486
 31
0.0
 70
   160
  3
ISO-25
100
AcDbAlignedDimension
 13
9.822891566264724
 23
-6.200002241979684
 33
0.0
 14
9.822891566264724
 24
6.199999999999955
 34
0.0
 50
90.0
100
AcDbRotatedDimension
  0
DIMENSION
  5
D2E
330
1F
100
AcDbEntity
  8
2
100
AcDbDimension
  2
*D1
 10
15.26523221171224
 20
-0.7576615965321613
 30
0.0
 11
-20.94498481712193
 21
-1.072644374924294
 31
0.0
 70
   162
  3
ISO-25
100
AcDb2LineAngularDimension
 13
13.81765826715939
 23
2.205233299105286
 33
0.0
 14
15.26523221173083
 24
0.7576593544998797
 34
0.0
 15
13.04182810290589
 25
-2.981065705338511
 35
0.0
 16
-19.7003631902449
 26
9.572016442663127
 36
0.0
1001
ACAD
1000
DSTYLE
1002
{
1070
   271
1070
     0
1070
   271
1070
     0
1070
   271
1070
     0
1070
   271
1070
     0
1070
   271
1070
     0
1070
   271
1070
     0
1070
   271
1070
     0
1002
}
  0
DIMENSION
  5
D2F
330
1F
100
AcDbEntity
  8
2
100
AcDbDimension
  2
*D2
 10
-0.0000043459160612
 20
-21.69801591022835
 30
0.0
 11
7.021684574029241
 21
-21.69801591022835
 31
0.0
 70
   160
  3
ISO-25
100
AcDbAlignedDimension
 13
15.49999999999841
 23
-0.0000022419798136
 33
0.0
 14
-0.0000043459160602
 24
-5.612998939758949
 34
0.0
 50
180.0
100
AcDbRotatedDimension
1001
ACAD
1000
DSTYLE
1002
{
1070
   271
1070
     2
1002
}
  0
DIMENSION
  5
D30
330
1F
100
AcDbEntity
  8
2
100
AcDbDimension
  2
*D3
 10
15.49999999999836
 20
16.79066354733655
 30
0.0
 11
27.74499999999836
 21
16.79066354733655
 31
0.0
 70
   160
  3
ISO-25
100
AcDbAlignedDimension
 13
9.822891566264724
 23
6.199999999999955
 33
0.0
 14
15.49999999999835
 24
-0.0000022419798136
 34
0.0
 50
180.0
100
AcDbRotatedDimension
1001
ACAD
1000
DSTYLE
1002
{
1070
   271
1070
     1
1002
}
  0
DIMENSION
  5
D31
330
1F
100
AcDbEntity
  8
2
100
AcDbDimension
  2
*D4
 10
15.49999999999836
 20
23.2898483384843
 30
0.0
 11
9.337314229750688
 21
23.2898483384843
 31
0.0
 70
   160
  3
ISO-25
100
AcDbAlignedDimension
 13
3.5
 23
6.284137848422492
 33
0.0
 14
15.49999999999835
 24
-0.0000022419798136
 34
0.0
 50
180.0
100
AcDbRotatedDimension
  0
LWPOLYLINE
  5
D36
330
1F
100
AcDbEntity
  8
1
100
AcDbPolyline
 90
        6
 70
     0
 43
0.0
 10
2.770139412761479
 20
6.293410495954767
 10
2.849504709989676
 20
6.013420384021128
 10
2.887522154323276
 20
5.899876457474642
 10
2.930692631697626
 20
5.788420358668027
 10
2.978976137263055
 20
5.678914895076707
 10
3.032394650392703
 20
5.571336003051631
  0
ARC
  5
D38
330
1F
100
AcDbEntity
  8
1
100
AcDbCircle
 10
1.706526366316654
 20
6.301719546199812
 30
0.0
 40
0.6930512045597347
100
AcDbArc
 50
299.3449749800142
 51
331.0629431557443
  0
LINE
  5
D3C
330
1F
100
AcDbEntity
  8
4
100
AcDbLine
 10
16.13573274510211
 20
-0.0000022419798136
 30
0.0
 11
0.0000000000002274
 21
0.0000000000000853
 31
0.0
  0
LWPOLYLINE
  5
D41
330
1F
100
AcDbEntity
  8
1
100
AcDbPolyline
 90
        7
 70
     0
 43
0.0
 10
2.69831711287749
 20
3.083359204481973
 10
2.779254763742079
 20
3.069203372848265
 10
2.856620448615189
 20
3.060849516154281
 10
2.929797056607602
 20
3.057865462309461
 10
2.999932683221482
 20
3.058863281405345
 10
3.06826748538449
 20
3.062710746592723
 10
3.134272525349758
 20
3.069290146076181
  0
LWPOLYLINE
  5
D42
330
1F
100
AcDbEntity
  8
1
100
AcDbPolyline
 90
        4
 70
     0
 43
0.0
 10
2.874964323835923
 20
-1.979004614185788
 10
2.810608568430154
 20
-1.855500835332969
 10
2.736130570936188
 20
-1.721833028146581
 10
2.656834406375193
 20
-1.586571268428021
  0
LINE
  5
D43
330
1F
100
AcDbEntity
  8
1
100
AcDbLine
 10
2.611141815732306
 20
-5.200383775442833
 30
0.0
 11
2.932505409868189
 21
-5.233741448098356
 31
0.0
  0
LINE
  5
D44
330
1F
100
AcDbEntity
  8
1
100
AcDbLine
 10
1.075598400372449
 20
4.749419339148008
 30
0.0
 11
1.075579913436512
 21
-4.343979788844305
 31
0.0
  0
LINE
  5
D45
330
1F
100
AcDbEntity
  8
1
100
AcDbLine
 10
0.0000000000002274
 20
5.613041851766716
 30
0.0
 11
0.0000000000002274
 21
-5.613041851766748
 31
0.0
  0
LINE
  5
D48
330
1F
100
AcDbEntity
  8
1
100
AcDbLine
 10
2.234678012817634
 20
-5.758277380518364
 30
0.0
 11
2.504141069733318
 21
-6.297391848216959
 31
0.0
  0
LINE
  5
D49
330
1F
100
AcDbEntity
  8
1
100
AcDbLine
 10
2.234678012817634
 20
-5.7582773805184
 30
0.0
 11
2.234678012817634
 21
-5.167226985775331
 31
0.0
  0
ARC
  5
D4A
330
1F
100
AcDbEntity
  8
1
100
AcDbCircle
 10
1.706547301402806
 20
-6.583074272733718
 30
0.0
 40
0.979393670465361
100
AcDbArc
 50
57.36791118991595
 51
82.08910784380885
  0
LINE
  5
D4D
330
1F
100
AcDbEntity
  8
1
100
AcDbLine
 10
2.235336229199309
 20
-5.159501967801523
 30
0.0
 11
2.234653298751112
 21
-5.167266605777403
 31
0.0
  0
LWPOLYLINE
  5
D4E
330
1F
100
AcDbEntity
  8
1
100
AcDbPolyline
 90
        4
 70
     0
 43
0.0
 10
1.075579913436514
 20
-4.343979788844305
 10
1.072346776757974
 20
-4.359667132585961
 10
1.070155279998425
 20
-4.374653517295502
 10
1.069031934178689
 20
-4.388906500150328
  0
LWPOLYLINE
  5
D4F
330
1F
100
AcDbEntity
  8
1
100
AcDbPolyline
 90
       14
 70
     0
 43
0.0
 10
1.069028153104837
 20
-4.388954474226473
 10
1.068897205877876
 20
-4.402559178986082
 10
1.06972040369193
 20
-4.415458985278121
 10
1.071442009293896
 20
-4.42766229044234
 10
1.07401124124751
 20
-4.43916578048186
 10
1.077371198433173
 20
-4.449994112572478
 10
1.081480461025897
 20
-4.460170354538718
 10
1.086241803822902
 20
-4.469692712055832
 10
1.091599887566544
 20
-4.478538271357987
 10
1.097387633879892
 20
-4.486791346827891
 10
1.10345588946737
 20
-4.494507651097768
 10
1.109695539826794
 20
-4.501744184009699
 10
1.115963580748335
 20
-4.508561914122488
 10
1.122212528179682
 20
-4.514999792614993
  0
LINE
  5
D50
330
1F
100
AcDbEntity
  8
1
100
AcDbLine
 10
2.231752293114499
 20
-5.147927047307875
 30
0.0
 11
2.235336229199309
 21
-5.159501967801523
 31
0.0
  0
LWPOLYLINE
  5
D51
330
1F
100
AcDbEntity
  8
1
100
AcDbPolyline
 90
        4
 70
     0
 43
0.0
 10
1.122212528179682
 20
-4.514999792614993
 10
1.128357230872564
 20
-4.521107677407306
 10
1.134367686444728
 20
-4.526910467221119
 10
1.141677727552817
 20
-4.532441260674636
  0
LWPOLYLINE
  5
D52
330
1F
100
AcDbEntity
  8
1
100
AcDbPolyline
 90
        9
 70
     0
 43
0.0
 10
1.937541308370485
 20
-4.824106891383082
 10
1.987485862001238
 20
-4.837603784507042
 10
2.036560471192558
 20
-4.859913821360928
 10
2.083227886132303
 20
-4.891157467317518
 10
2.126155595529919
 20
-4.930571389372465
 10
2.164096905058587
 20
-4.977580949773556
 10
2.195143090546879
 20
-5.030685332836683
 10
2.217920618276884
 20
-5.087762406267056
 10
2.231817433810503
 20
-5.147859314982211
  0
LINE
  5
D53
330
1F
100
AcDbEntity
  8
1
100
AcDbLine
 10
1.620859828860165
 20
-4.754716008888705
 30
0.0
 11
1.716619123472185
 21
-4.779279297251023
 31
0.0
  0
LINE
  5
D54
330
1F
100
AcDbEntity
  8
1
100
AcDbLine
 10
1.578724066049408
 20
-4.744145204420313
 30
0.0
 11
1.620859828860165
 21
-4.754716008888705
 31
0.0
  0
LWPOLYLINE
  5
D55
330
1F
100
AcDbEntity
  8
1
100
AcDbPolyline
 90
        3
 70
     0
 43
0.0
 10
1.716619123472185
 20
-4.779279297251019
 10
1.74344505292173
 20
-4.785980107255968
 10
1.771651126753058
 20
-4.792828200337273
  0
LWPOLYLINE
  5
D56
330
1F
100
AcDbEntity
  8
1
100
AcDbPolyline
 90
        3
 70
     0
 43
0.0
 10
1.771651126753058
 20
-4.792828200337273
 10
1.80135292623255
 20
-4.799682686679465
 10
1.832657170481245
 20
-4.806464072183072
  0
LWPOLYLINE
  5
D57
330
1F
100
AcDbEntity
  8
1
100
AcDbPolyline
 90
        5
 70
     0
 43
0.0
 10
1.141677727552817
 20
-4.532441260674636
 10
1.521810242354129
 20
-4.724730384140148
 10
1.539991708709683
 20
-4.732338063563111
 10
1.558951842118841
 20
-4.739334771845831
 10
1.578724066049408
 20
-4.744145204420313
  0
LWPOLYLINE
  5
D58
330
1F
100
AcDbEntity
  8
1
100
AcDbPolyline
 90
        3
 70
     0
 43
0.0
 10
1.834271863975039
 20
-4.806820847869525
 10
1.898571741122303
 20
-4.817881325869825
 10
1.937496326070649
 20
-4.824103052701746
  0
LINE
  5
D59
330
1F
100
AcDbEntity
  8
1
100
AcDbLine
 10
2.344036901118449
 20
-5.171104455974852
 30
0.0
 11
2.454109615408567
 21
-5.183587957873791
 31
0.0
  0
LINE
  5
D5A
330
1F
100
AcDbEntity
  8
1
100
AcDbLine
 10
2.233357848700125
 20
-5.159258127030422
 30
0.0
 11
2.344036901118449
 21
-5.171104455974852
 31
0.0
  0
LINE
  5
D5B
330
1F
100
AcDbEntity
  8
1
100
AcDbLine
 10
2.454109563179172
 20
-5.183602544576316
 30
0.0
 11
2.611141815732306
 21
-5.200383775442833
 31
0.0
  0
LINE
  5
D5C
330
1F
100
AcDbEntity
  8
1
100
AcDbLine
 10
-0.0000043459160602
 20
-5.612998939758949
 30
0.0
 11
1.84134838283026
 21
-5.613001181738747
 31
0.0
  0
LWPOLYLINE
  5
DC6
330
1F
100
AcDbEntity
  8
1
100
AcDbPolyline
 90
       20
 70
     0
 43
0.0
 10
2.395772087057622
 20
-1.172241074095362
 10
2.23689244760522
 20
-0.939132268277541
 10
2.098446338246032
 20
-0.7046841899122458
 10
1.981015757133773
 20
-0.472577418473168
 10
1.88285468172181
 20
-0.2439067346023226
 10
1.80287145879738
 20
-0.0201034590053483
 10
1.739684979707245
 20
0.1988504208866761
 10
1.691759566301935
 20
0.4131263260201985
 10
1.65846728509149
 20
0.6229636398592035
 10
1.638671433991716
 20
0.828866371668488
 10
1.632362651988693
 20
1.031313440881017
 10
1.638960695096175
 20
1.230919140748002
 10
1.659041518514125
 20
1.427986362812576
 10
1.692600392553664
 20
1.622758436308495
 10
1.740799135423891
 20
1.815432383192363
 10
1.804324535377713
 20
2.006027955737886
 10
1.884596958930496
 20
2.193826036053911
 10
1.983002396331949
 20
2.378076323386919
 10
2.100330764035079
 20
2.556663843618339
 10
2.237990462884253
 20
2.727621124185125
  0
LWPOLYLINE
  5
DF4
330
1F
100
AcDbEntity
  8
1
100
AcDbPolyline
 90
        4
 70
     0
 43
0.0
 10
2.656834406375193
 20
-1.586571268428021
 10
2.573051690546884
 20
-1.449934417312694
 10
2.485459368075559
 20
-1.312031115891991
 10
2.39577773966496
 20
-1.172243431947884
  0
LWPOLYLINE
  5
E0A
330
1F
100
AcDbEntity
  8
1
100
AcDbPolyline
 90
       10
 70
     0
 43
0.0
 10
2.210156008329195
 20
5.82561330193494
 10
2.210156008329128
 20
5.825613301934875
 10
2.192151292289556
 20
5.792434177594256
 10
2.174068068116049
 20
5.760560623708963
 10
2.154865098485093
 20
5.731646530195597
 10
2.134955051213887
 20
5.70506406443765
 10
2.115031242273159
 20
5.680043769324377
 10
2.094992267510749
 20
5.656499360815459
 10
2.074879916779164
 20
5.634324669572952
 10
2.054984522782064
 20
5.612617038941746
  0
ARC
  5
E0D
330
1F
100
AcDbEntity
  8
1
100
AcDbCircle
 10
1.841348295820978
 20
5.903327721806205
 30
0.0
 40
0.290331024146506
100
AcDbArc
 50
269.9991595428999
 51
314.8676764860998
  0
LINE
  5
E0E
330
1F
100
AcDbEntity
  8
1
100
AcDbLine
 10
1.84134838283026
 20
5.612996697779321
 30
0.0
 11
0.0000000000002274
 21
5.613041851766716
 31
0.0
  0
LINE
  5
E0F
330
1F
100
AcDbEntity
  8
1
100
AcDbLine
 10
1.392668189318946
 20
5.363643822999589
 30
0.0
 11
1.277157746832047
 21
5.353783018746939
 31
0.0
  0
LWPOLYLINE
  5
E10
330
1F
100
AcDbEntity
  8
1
100
AcDbPolyline
 90
        5
 70
     0
 43
0.0
 10
1.277157746832047
 20
5.353783018746939
 10
1.25458678194727
 20
5.351464277071842
 10
1.233427110124625
 20
5.348749930816317
 10
1.213678731364248
 20
5.345635311126808
 10
1.195341645665936
 20
5.342115089050532
  0
LWPOLYLINE
  5
E11
330
1F
100
AcDbEntity
  8
1
100
AcDbPolyline
 90
       19
 70
     0
 43
0.0
 10
1.195341645665936
 20
5.342115089050532
 10
1.130379815130998
 20
5.328349099313787
 10
1.074977547730493
 20
5.312512697771623
 10
1.029139939954111
 20
5.294268333357178
 10
0.9928517029305004
 20
5.274160457979799
 10
0.9662739127194159
 20
5.252862487014981
 10
0.9488825722124262
 20
5.22986496428148
 10
0.9404735652186923
 20
5.204881818133907
 10
0.9402483248061496
 20
5.177808121505591
 10
0.9480153489603814
 20
5.148388509692563
 10
0.9617493270962819
 20
5.116727898766296
 10
0.980214167932776
 20
5.083057683483287
 10
1.00085071166303
 20
5.046807318390406
 10
1.021063555938702
 20
5.007587177679101
 10
1.039725337340152
 20
4.964882506334386
 10
1.054927680569059
 20
4.918054924508838
 10
1.06641821819592
 20
4.866814416460798
 10
1.07319739667882
 20
4.810671000283433
 10
1.075598400372449
 20
4.749419339148008
  0
LWPOLYLINE
  5
E12
330
1F
100
AcDbEntity
  8
1
100
AcDbPolyline
 90
        5
 70
     0
 43
0.0
 10
2.525602970789655
 20
3.222286608456823
 10
2.567844605457599
 20
3.185475002153192
 10
2.610707613746785
 20
3.150030677218236
 10
2.654196873189759
 20
3.11598251172814
 10
2.69831711287749
 20
3.083359204481973
  0
LINE
  5
E13
330
1F
100
AcDbEntity
  8
1
100
AcDbLine
 10
2.03037863076844
 20
5.517063135419713
 30
0.0
 11
2.043556901858698
 21
5.466516608341255
 31
0.0
  0
LINE
  5
E14
330
1F
100
AcDbEntity
  8
1
100
AcDbLine
 10
2.016787187734348
 20
5.567464386130193
 30
0.0
 11
2.03037863076844
 21
5.517063135419713
 31
0.0
  0
LWPOLYLINE
  5
E15
330
1F
100
AcDbEntity
  8
1
100
AcDbPolyline
 90
        9
 70
     0
 43
0.0
 10
2.043556901858698
 20
5.466516608341255
 10
2.072221187302445
 20
5.349782293623207
 10
2.097940993247607
 20
5.233730924771139
 10
2.120439847501121
 20
5.118493636177398
 10
2.138463008703868
 20
5.006584286833684
 10
2.150804896148813
 20
4.900662907051635
 10
2.157058834774336
 20
4.799753472094509
 10
2.156688526313639
 20
4.703176666338363
 10
2.149626635240744
 20
4.610882368206191
  0
LWPOLYLINE
  5
E16
330
1F
100
AcDbEntity
  8
1
100
AcDbPolyline
 90
       13
 70
     0
 43
0.0
 10
2.09981641454486
 20
3.940684417736923
 10
2.117580192846645
 20
3.878755198729606
 10
2.138976223728441
 20
3.814730639315593
 10
2.16421536790593
 20
3.74833623528668
 10
2.19314278063255
 20
3.681238919061243
 10
2.225810322593142
 20
3.614685283495001
 10
2.261468995063403
 20
3.549811702236086
 10
2.299187032283775
 20
3.488152500609102
 10
2.339187162754964
 20
3.429450658943663
 10
2.38112722416424
 20
3.374254843117163
 10
2.425785623732423
 20
3.321631623917033
 10
2.474021392106267
 20
3.270754089864156
 10
2.525602970789655
 20
3.222286608456823
  0
LWPOLYLINE
  5
E17
330
1F
100
AcDbEntity
  8
1
100
AcDbPolyline
 90
        5
 70
     0
 43
0.0
 10
2.069802534255805
 20
4.173675003568254
 10
2.067788669438454
 20
4.120512724038616
 10
2.072056465941581
 20
4.063782567230892
 10
2.082709318849451
 20
4.00376267046354
 10
2.09981628415071
 20
3.940684418932129
  0
LWPOLYLINE
  5
E18
330
1F
100
AcDbEntity
  8
1
100
AcDbPolyline
 90
        3
 70
     0
 43
0.0
 10
2.095534583153985
 20
4.329376027498721
 10
2.081772120993034
 20
4.253010436867531
 10
2.069802534255805
 20
4.173675003568254
  0
LWPOLYLINE
  5
E19
330
1F
100
AcDbEntity
  8
1
100
AcDbPolyline
 90
        4
 70
     0
 43
0.0
 10
2.149633936480376
 20
4.610871177609678
 10
2.138347030996047
 20
4.542220042303528
 10
2.1253057040717
 20
4.472736208094407
 10
2.095534583153985
 20
4.329376027498721
  0
LWPOLYLINE
  5
E1A
330
1F
100
AcDbEntity
  8
1
100
AcDbPolyline
 90
        4
 70
     0
 43
0.0
 10
2.615305577968568
 20
3.042678947336791
 10
2.588221583184828
 20
3.030254132277498
 10
2.572757229330365
 20
3.023439715922948
 10
2.555813785309279
 20
3.016153563768746
  0
LWPOLYLINE
  5
E1B
330
1F
100
AcDbEntity
  8
1
100
AcDbPolyline
 90
        3
 70
     0
 43
0.0
 10
2.698101407497133
 20
3.083390652674759
 10
2.692430506712548
 20
3.080783089841013
 10
2.686461930751095
 20
3.077811616348856
  0
LWPOLYLINE
  5
E1C
330
1F
100
AcDbEntity
  8
1
100
AcDbPolyline
 90
        7
 70
     0
 43
0.0
 10
2.686461930751095
 20
3.077811616348856
 10
2.665362829731479
 20
3.066960225397671
 10
2.657022883148356
 20
3.062735777740662
 10
2.647921899981095
 20
3.058221726321031
 10
2.637992655019175
 20
3.053380604613053
 10
2.627146174348227
 20
3.048215442280542
 10
2.615305577968568
 20
3.042678947336791
  0
LWPOLYLINE
  5
E1D
330
1F
100
AcDbEntity
  8
1
100
AcDbPolyline
 90
        7
 70
     0
 43
0.0
 10
2.458454245419046
 20
2.94993337776779
 10
2.474382422737743
 20
2.961746021021743
 10
2.490437689956976
 20
2.973259919412083
 10
2.506623577282194
 20
2.984485485472718
 10
2.522929494456187
 20
2.99539148231895
 10
2.539344851460624
 20
3.005946673065953
 10
2.555873178141955
 20
3.016161470008754
  0
LINE
  5
E1E
330
1F
100
AcDbEntity
  8
1
100
AcDbLine
 10
2.436968633351701
 20
2.928878959176931
 30
0.0
 11
2.458388024040742
 21
2.949834863681985
 31
0.0
  0
LINE
  5
E1F
330
1F
100
AcDbEntity
  8
1
100
AcDbLine
 10
2.416005275938712
 20
2.908158951076688
 30
0.0
 11
2.436968633351701
 21
2.928878959176931
 31
0.0
  0
LINE
  5
E20
330
1F
100
AcDbEntity
  8
1
100
AcDbLine
 10
2.395504781781581
 20
2.887663229156687
 30
0.0
 11
2.416005275938712
 21
2.908158951076688
 31
0.0
  0
LINE
  5
E21
330
1F
100
AcDbEntity
  8
1
100
AcDbLine
 10
2.237990462884253
 20
2.727621124185127
 30
0.0
 11
2.395512020154603
 21
2.887670537567294
 31
0.0
  0
LWPOLYLINE
  5
E22
330
1F
100
AcDbEntity
  8
1
100
AcDbPolyline
 90
        7
 70
     0
 43
0.0
 10
2.016672630259664
 20
5.567389079226924
 10
2.007683657756396
 20
5.557032476720912
 10
1.997449869511599
 20
5.546587962099337
 10
1.985926005465434
 20
5.536154506365262
 10
1.973195581619538
 20
5.525986839223165
 10
1.959353947938698
 20
5.516346332235226
 10
1.944386017297594
 20
5.507364222698861
  0
LWPOLYLINE
  5
E23
330
1F
100
AcDbEntity
  8
1
100
AcDbPolyline
 90
        3
 70
     0
 43
0.0
 10
2.054984522782064
 20
5.612617038941746
 10
2.035704151813374
 20
5.590167190444381
 10
2.016787187734348
 20
5.567464386130191
  0
LWPOLYLINE
  5
E24
330
1F
100
AcDbEntity
  8
1
100
AcDbPolyline
 90
        9
 70
     0
 43
0.0
 10
1.937496326070649
 20
5.503701893395605
 10
1.881336967616775
 20
5.478062056634255
 10
1.820477878768438
 20
5.453941900050057
 10
1.754285890068669
 20
5.431909951512237
 10
1.68466050977003
 20
5.412334186488624
 10
1.613148304715553
 20
5.395542578824051
 10
1.540174928480285
 20
5.381743098091623
 10
1.466799203618684
 20
5.371035653869831
 10
1.392668189318946
 20
5.363643822999589
  0
LINE
  5
E25
330
1F
100
AcDbEntity
  8
1
100
AcDbLine
 10
1.944411575161718
 20
5.507381846475228
 30
0.0
 11
1.937505336657649
 21
5.503688045912348
 31
0.0
  0
LINE
  5
E26
330
1F
100
AcDbEntity
  8
1
100
AcDbLine
 10
11.47306902527801
 20
-4.120717427660783
 30
0.0
 11
12.15601449019962
 21
-3.452997408094399
 31
0.0
  0
LINE
  5
E28
330
1F
100
AcDbEntity
  8
1
100
AcDbLine
 10
3.784002735709276
 20
-5.308378237064035
 30
0.0
 11
3.784002735709276
 21
-3.069432498076192
 31
0.0
  0
LINE
  5
E2A
330
1F
100
AcDbEntity
  8
1
100
AcDbLine
 10
10.64909654200875
 20
-4.941035737659695
 30
0.0
 11
11.47306902527801
 21
-4.120717427660783
 31
0.0
  0
LINE
  5
E2D
330
1F
100
AcDbEntity
  8
1
100
AcDbLine
 10
8.240652117542262
 20
-5.551679587949839
 30
0.0
 11
5.258734881401818
 21
-5.417196013029433
 31
0.0
  0
LWPOLYLINE
  5
E32
330
1F
100
AcDbEntity
  8
1
100
AcDbPolyline
 90
        3
 70
     0
 43
0.0
 10
3.436113300011838
 20
-5.279187205835121
 10
3.696312940035083
 20
-5.300790162060661
 10
3.784002735709276
 20
-5.308378237064035
  0
LWPOLYLINE
  5
E33
330
1F
100
AcDbEntity
  8
1
100
AcDbPolyline
 90
        5
 70
     0
 43
0.0
 10
2.932505358714626
 20
-5.233757177274266
 10
3.056990693877959
 20
-5.243937327600916
 10
3.182417571857733
 20
-5.254929586018257
 10
3.30878902614208
 20
-5.266695950559955
 10
3.436113205592674
 20
-5.279187206552209
  0
LINE
  5
E34
330
1F
100
AcDbEntity
  8
1
100
AcDbLine
 10
4.733527449066301
 20
-5.375297981704044
 30
0.0
 11
5.258734881401818
 21
-5.417196013029433
 31
0.0
  0
LWPOLYLINE
  5
E35
330
1F
100
AcDbEntity
  8
1
100
AcDbPolyline
 90
        3
 70
     0
 43
0.0
 10
3.784002735709276
 20
-5.308378237064035
 10
4.243386361698581
 20
-5.33266441680007
 10
4.733527449066301
 20
-5.375297981704044
  0
LWPOLYLINE
  5
E39
330
1F
100
AcDbEntity
  8
1
100
AcDbPolyline
 90
        3
 70
     0
 43
0.0
 10
9.94219192891574
 20
-5.656974082534879
 10
10.31081786584874
 20
-5.285577308651586
 10
10.64909654200875
 20
-4.941035737659695
  0
LINE
  5
E3A
330
1F
100
AcDbEntity
  8
1
100
AcDbLine
 10
8.848865592213945
 20
-5.592387944271737
 30
0.0
 11
8.240652117542262
 21
-5.551679587949839
 31
0.0
  0
LINE
  5
E3B
330
1F
100
AcDbEntity
  8
1
100
AcDbLine
 10
9.20659287310068
 20
-5.61473167338983
 30
0.0
 11
8.84886559113838
 21
-5.592388340115726
 31
0.0
  0
LINE
  5
E3C
330
1F
100
AcDbEntity
  8
1
100
AcDbLine
 10
9.942163147171145
 20
-5.657010697972092
 30
0.0
 11
9.20659287310068
 21
-5.61473167338983
 31
0.0
  0
LWPOLYLINE
  5
E3F
330
1F
100
AcDbEntity
  8
1
100
AcDbPolyline
 90
        9
 70
     0
 43
0.0
 10
11.39152414611464
 20
-1.274425846841491
 10
11.30072706665066
 20
-1.414137709835123
 10
11.20321796746216
 20
-1.543457229638504
 10
11.10080263168577
 20
-1.660283166432708
 10
10.99084668236926
 20
-1.768405793019689
 10
10.8712076410584
 20
-1.869765838120419
 10
10.74005251620826
 20
-1.965100423708877
 10
10.59417481936776
 20
-2.055900315672376
 10
10.43479258168092
 20
-2.139666155190329
  0
LWPOLYLINE
  5
E40
330
1F
100
AcDbEntity
  8
1
100
AcDbPolyline
 90
       13
 70
     0
 43
0.0
 10
9.512884098238027
 20
4.731706288140768
 10
9.805016464707527
 20
4.704569522542697
 10
10.10182179537938
 20
4.65421036693394
 10
10.40128953034993
 20
4.579820758671761
 10
10.70758893649933
 20
4.47901576816768
 10
11.02426732001356
 20
4.348411726328646
 10
11.34975926533214
 20
4.186293928765378
 10
11.68464868313644
 20
3.990328690935955
 10
12.02621928500251
 20
3.760662572713298
 10
12.37216140868443
 20
3.498520784572606
 10
12.72322671552958
 20
3.203796162427051
 10
13.07966536893489
 20
2.877352809031373
 10
13.45035150264288
 20
2.480590562937836
  0
LWPOLYLINE
  5
E41
330
1F
100
AcDbEntity
  8
1
100
AcDbPolyline
 90
        7
 70
     0
 43
0.0
 10
10.1100241398497
 20
1.254263625640444
 10
10.27695282547091
 20
1.154968334359447
 10
10.44746796303225
 20
1.051349505856453
 10
10.62153911152009
 20
0.9434148280116046
 10
10.79929174411381
 20
0.8311412370640239
 10
10.98085172087321
 20
0.7145056688944244
 10
11.16618940573874
 20
0.5935158116222258
  0
LWPOLYLINE
  5
E42
330
1F
100
AcDbEntity
  8
1
100
AcDbPolyline
 90
        4
 70
     0
 43
0.0
 10
7.630584425991412
 20
-3.242068390725861
 10
7.245099866534923
 20
-3.247213908709483
 10
5.657925228744459
 20
-3.240996691652946
 10
5.23233920039929
 20
-3.221903845734888
  0
LINE
  5
E43
330
1F
100
AcDbEntity
  8
1
100
AcDbLine
 10
2.976349370504486
 20
-2.156382180582212
 30
0.0
 11
2.87496432383579
 21
-1.979004614185653
 31
0.0
  0
LINE
  5
E44
330
1F
100
AcDbEntity
  8
1
100
AcDbLine
 10
3.143387998290411
 20
-2.431955213438004
 30
0.0
 11
2.976349370504486
 21
-2.156382180582212
 31
0.0
  0
LWPOLYLINE
  5
E45
330
1F
100
AcDbEntity
  8
1
100
AcDbPolyline
 90
        3
 70
     0
 43
0.0
 10
3.312322885230247
 20
-2.674496708578244
 10
3.227216730967149
 20
-2.55855109027272
 10
3.143387998290411
 20
-2.431955213438004
  0
LWPOLYLINE
  5
E46
330
1F
100
AcDbEntity
  8
1
100
AcDbPolyline
 90
        4
 70
     0
 43
0.0
 10
3.58482042299606
 20
-2.950785037017866
 10
3.49049375410724
 20
-2.871195006560051
 10
3.399526191674584
 20
-2.778871018704535
 10
3.312322885230247
 20
-2.674496708578244
  0
LWPOLYLINE
  5
E47
330
1F
100
AcDbEntity
  8
1
100
AcDbPolyline
 90
        3
 70
     0
 43
0.0
 10
3.784002735709276
 20
-3.069432498076192
 10
3.682675569193536
 20
-3.01651698069777
 10
3.58482042299606
 20
-2.950785037017866
  0
LWPOLYLINE
  5
E48
330
1F
100
AcDbEntity
  8
1
100
AcDbPolyline
 90
        4
 70
     0
 43
0.0
 10
4.092606158309653
 20
-3.159609537143213
 10
3.987007171954113
 20
-3.136096515275142
 10
3.883821427583876
 20
-3.106056200576301
 10
3.784019574012783
 20
-3.069589679281
  0
LWPOLYLINE
  5
E49
330
1F
100
AcDbEntity
  8
1
100
AcDbPolyline
 90
        3
 70
     0
 43
0.0
 10
4.313456168036902
 20
-3.187736350413576
 10
4.201210484559396
 20
-3.176781804370058
 10
4.092606158309653
 20
-3.159609537143213
  0
LWPOLYLINE
  5
E4A
330
1F
100
AcDbEntity
  8
1
100
AcDbPolyline
 90
        3
 70
     0
 43
0.0
 10
4.838381365974353
 20
-3.209398798432683
 10
4.635364252328112
 20
-3.201425488595706
 10
4.313456168036902
 20
-3.187736350413576
  0
LWPOLYLINE
  5
E4B
330
1F
100
AcDbEntity
  8
1
100
AcDbPolyline
 90
        3
 70
     0
 43
0.0
 10
5.23233920039929
 20
-3.221903845734888
 10
5.037373015211966
 20
-3.21622491751908
 10
4.838381365974353
 20
-3.209398798432683
  0
LINE
  5
E4C
330
1F
100
AcDbEntity
  8
1
100
AcDbLine
 10
10.00806847261116
 20
-2.496078073598118
 30
0.0
 11
9.818342502922515
 21
-2.63361698676619
 31
0.0
  0
LINE
  5
E4D
330
1F
100
AcDbEntity
  8
1
100
AcDbLine
 10
10.18968970955367
 20
-2.342612450793311
 30
0.0
 11
10.00806847261116
 21
-2.496078073598118
 31
0.0
  0
LINE
  5
E4E
330
1F
100
AcDbEntity
  8
1
100
AcDbLine
 10
10.36212516525681
 20
-2.173728821210636
 30
0.0
 11
10.18968970955367
 21
-2.342612450793311
 31
0.0
  0
LINE
  5
E4F
330
1F
100
AcDbEntity
  8
1
100
AcDbLine
 10
9.402710322095492
 20
-2.866918566151251
 30
0.0
 11
9.172428936071428
 21
-2.963899745648251
 31
0.0
  0
LINE
  5
E50
330
1F
100
AcDbEntity
  8
1
100
AcDbLine
 10
10.43489229118657
 20
-2.139706137212458
 30
0.0
 11
10.36208497790273
 21
-2.173730372316208
 31
0.0
  0
LINE
  5
E51
330
1F
100
AcDbEntity
  8
1
100
AcDbLine
 10
9.617268654887805
 20
-2.756755299232713
 30
0.0
 11
9.402710322095492
 21
-2.866918566151251
 31
0.0
  0
LINE
  5
E52
330
1F
100
AcDbEntity
  8
1
100
AcDbLine
 10
9.818342502922515
 20
-2.63361698676619
 30
0.0
 11
9.617268654887805
 21
-2.756755299232713
 31
0.0
  0
LINE
  5
E53
330
1F
100
AcDbEntity
  8
1
100
AcDbLine
 10
9.172428936071428
 20
-2.963899745648251
 30
0.0
 11
8.923104880445361
 21
-3.048000498947391
 31
0.0
  0
LINE
  5
E54
330
1F
100
AcDbEntity
  8
1
100
AcDbLine
 10
7.994834663712722
 20
-3.221021457073669
 30
0.0
 11
7.630584425991412
 21
-3.242068390725861
 31
0.0
  0
LINE
  5
E55
330
1F
100
AcDbEntity
  8
1
100
AcDbLine
 10
8.336430274735485
 20
-3.179534427244251
 30
0.0
 11
7.994834663712722
 21
-3.221021457073669
 31
0.0
  0
LINE
  5
E56
330
1F
100
AcDbEntity
  8
1
100
AcDbLine
 10
8.655844694047285
 20
-3.119120194820293
 30
0.0
 11
8.336430274735485
 21
-3.179534427244251
 31
0.0
  0
LINE
  5
E57
330
1F
100
AcDbEntity
  8
1
100
AcDbLine
 10
8.923104880445361
 20
-3.048000498947391
 30
0.0
 11
8.655844694047285
 21
-3.119120272267892
 31
0.0
  0
LWPOLYLINE
  5
E58
330
1F
100
AcDbEntity
  8
1
100
AcDbPolyline
 90
        7
 70
     0
 43
0.0
 10
9.512883933183564
 20
4.731706297224135
 10
8.756316515495022
 20
4.772423737517077
 10
8.002658520383683
 20
4.810900760391278
 10
7.251579608742106
 20
4.847185237615502
 10
5.322222084813875
 20
4.881224843460191
 10
4.579355924559398
 20
4.91298029436725
 10
3.840773820166043
 20
4.942512264044276
  0
LWPOLYLINE
  5
E59
330
1F
100
AcDbEntity
  8
1
100
AcDbPolyline
 90
       15
 70
     0
 43
0.0
 10
8.471976434041526
 20
2.400933704846323
 10
8.203212815947901
 20
2.533608717118134
 10
7.942403867413933
 20
2.644572118926198
 10
7.691124449871871
 20
2.735531466523453
 10
7.449390696468507
 20
2.809944881231884
 10
7.217304378396197
 20
2.870705161382217
 10
6.994872171695503
 20
2.920275394928109
 10
5.600099654144003
 20
2.960858870999444
 10
5.396408799076988
 20
2.994036553740647
 10
5.201547728599788
 20
3.021168602797148
 10
5.015215500987387
 20
3.044006959967288
 10
4.837132933137737
 20
3.064390952090648
 10
4.666582652243276
 20
3.082004976279435
 10
4.502525464680757
 20
3.096779431304149
 10
4.345596463192661
 20
3.109282434249704
  0
LWPOLYLINE
  5
E5A
330
1F
100
AcDbEntity
  8
1
100
AcDbPolyline
 90
        9
 70
     0
 43
0.0
 10
3.840773820166043
 20
4.942512264044276
 10
3.767214836929438
 20
4.948694337050533
 10
3.689010198652928
 20
4.966695913409234
 10
3.603913067167613
 20
4.997054192792202
 10
3.518679656515089
 20
5.037796568021136
 10
3.440396090057245
 20
5.087151668917536
 10
3.365818397638937
 20
5.145244606641033
 10
3.293952873976308
 20
5.2115786123315
 10
3.22513253454497
 20
5.286272294648584
  0
LWPOLYLINE
  5
E5B
330
1F
100
AcDbEntity
  8
1
100
AcDbPolyline
 90
        9
 70
     0
 43
0.0
 10
4.345596463192661
 20
3.109282434249704
 10
4.230191184896779
 20
3.117470888568619
 10
4.115939087597498
 20
3.12319226518172
 10
4.003200165584956
 20
3.126585687786053
 10
3.892057682080388
 20
3.127660124300798
 10
3.782434745012421
 20
3.126329903812937
 10
3.675533266242307
 20
3.122684129794643
 10
3.572459404173776
 20
3.11674009758643
 10
3.473449168515061
 20
3.108311207924868
  0
LWPOLYLINE
  5
E5C
330
1F
100
AcDbEntity
  8
1
100
AcDbPolyline
 90
        4
 70
     0
 43
0.0
 10
3.134272537540516
 20
3.06929014595668
 10
3.208407607805586
 20
3.078631303917158
 10
3.289531692998806
 20
3.087995803398615
 10
3.473447937956906
 20
3.108312831936443
  0
LWPOLYLINE
  5
E5D
330
1F
100
AcDbEntity
  8
1
100
AcDbPolyline
 90
        7
 70
     0
 43
0.0
 10
3.032394650392703
 20
5.571336003051631
 10
3.060255974822459
 20
5.521568306885836
 10
3.089819120669273
 20
5.47257215389887
 10
3.121081644385806
 20
5.424212291822723
 10
3.154051293611831
 20
5.376872016908005
 10
3.188735758020508
 20
5.330936305112321
 10
3.22513253454497
 20
5.286272294648584
  0
LWPOLYLINE
  5
E5E
330
1F
100
AcDbEntity
  8
1
100
AcDbPolyline
 90
        7
 70
     0
 43
0.0
 10
10.11005646124138
 20
1.254295787356084
 10
9.829361797403453
 20
1.486583688194774
 10
9.551334557742713
 20
1.702664768954139
 10
9.276433606321063
 20
1.902201139614519
 10
9.004761233517195
 20
2.085028268131146
 10
8.736440991138401
 20
2.251187494012489
 10
8.471993188562944
 20
2.400957935820769
  0
LWPOLYLINE
  5
E60
330
1F
100
AcDbEntity
  8
1
100
AcDbPolyline
 90
       13
 70
     0
 43
0.0
 10
14.08530967612728
 20
1.292713326563817
 10
14.19323073930994
 20
1.141565634862721
 10
14.30333019983221
 20
0.9821399217599674
 10
14.41726686503523
 20
0.8130739466813794
 10
14.5300643125379
 20
0.6384544313504437
 10
14.63834634527803
 20
0.4607881420781414
 10
14.73897109499957
 20
0.283452705362837
 10
14.8277320747432
 20
0.1104623473291183
 10
14.90444694403286
 20
-0.0575859641117386
 10
14.96720452439332
 20
-0.2186089384847493
 10
15.01698484262355
 20
-0.3730513173570596
 10
15.05417373676535
 20
-0.5206322012278805
 10
15.07864259413788
 20
-0.6614452234235461
  0
LINE
  5
E61
330
1F
100
AcDbEntity
  8
1
100
AcDbLine
 10
9.822891566264724
 20
6.199999999999955
 30
0.0
 11
15.26523221171223
 21
0.7576593545524415
 31
0.0
  0
LWPOLYLINE
  5
E63
330
1F
100
AcDbEntity
  8
1
100
AcDbPolyline
 90
        6
 70
     0
 43
0.0
 10
14.38594847701792
 20
-1.322197062810535
 10
14.44775115339751
 20
-1.271253553108377
 10
14.51190367638933
 20
-1.22023230705921
 10
14.57735656748139
 20
-1.169665411352232
 10
14.64451608342173
 20
-1.119526112105977
 10
14.71362294615716
 20
-1.069689086613933
  0
LWPOLYLINE
  5
E64
330
1F
100
AcDbEntity
  8
1
100
AcDbPolyline
 90
        9
 70
     0
 43
0.0
 10
14.4715911793408
 20
-0.8786904304058552
 10
14.45951487228729
 20
-0.8719389791594476
 10
14.4419250120231
 20
-0.8611371241465654
 10
14.41799860678356
 20
-0.8457720592134265
 10
14.39034863823222
 20
-0.8274803895459811
 10
14.36122921936394
 20
-0.8076959079614971
 10
14.33077041655716
 20
-0.7864584136193492
 10
14.29870758249836
 20
-0.7632671126495648
 10
14.26842027151232
 20
-0.741149107992218
  0
LINE
  5
E65
330
1F
100
AcDbEntity
  8
1
100
AcDbLine
 10
13.67613582094461
 20
-1.985626790301639
 30
0.0
 11
14.23185136422356
 21
-1.45844041286368
 31
0.0
  0
LWPOLYLINE
  5
E66
330
1F
100
AcDbEntity
  8
1
100
AcDbPolyline
 90
        4
 70
     0
 43
0.0
 10
12.15601449019962
 20
-3.452997408094399
 10
13.04961925844634
 20
-2.588958603452448
 10
13.36655275173203
 20
-2.28301271275763
 10
13.67613582094461
 20
-1.985626790301638
  0
LWPOLYLINE
  5
E68
330
1F
100
AcDbEntity
  8
1
100
AcDbPolyline
 90
        7
 70
     0
 43
0.0
 10
14.23185136422356
 20
-1.45844041286368
 10
14.26074914244428
 20
-1.431870218026103
 10
14.28836601488765
 20
-1.406928698110892
 10
14.31460451850993
 20
-1.383579881046695
 10
14.33958747438462
 20
-1.361744676347072
 10
14.36341284992198
 20
-1.341313631034152
 10
14.38594284998742
 20
-1.322188173892927
  0
LINE
  5
E69
330
1F
100
AcDbEntity
  8
1
100
AcDbLine
 10
11.74325110130322
 20
-0.5662325448346476
 30
0.0
 11
11.73149604974465
 21
-0.5934712138119754
 31
0.0
  0
LINE
  5
E6A
330
1F
100
AcDbEntity
  8
1
100
AcDbLine
 10
11.73149604974465
 20
-0.5934712138119754
 30
0.0
 11
11.70864843064106
 21
-0.6472605640308941
 31
0.0
  0
LINE
  5
E6B
330
1F
100
AcDbEntity
  8
1
100
AcDbLine
 10
11.70864843064106
 20
-0.6472605640308941
 30
0.0
 11
11.68579461058114
 21
-0.7021196289637987
 31
0.0
  0
LWPOLYLINE
  5
E6C
330
1F
100
AcDbEntity
  8
1
100
AcDbPolyline
 90
        5
 70
     0
 43
0.0
 10
11.77914839064876
 20
-0.4854972148799459
 10
11.78965759430743
 20
-0.4628856032134446
 10
11.8002953826795
 20
-0.440514822494402
 10
11.81106112375332
 20
-0.4184046310920066
 10
11.8338310127249
 20
-0.369410359199939
  0
LWPOLYLINE
  5
E6D
330
1F
100
AcDbEntity
  8
1
100
AcDbPolyline
 90
        7
 70
     0
 43
0.0
 10
11.68581719471622
 20
-0.7021029205763264
 10
11.64234285913634
 20
-0.7992194370795894
 10
11.59668809524623
 20
-0.8957328774611298
 10
11.54884791197114
 20
-0.9916731609194837
 10
11.49884319055239
 20
-1.086950529621125
 10
11.44669472426596
 20
-1.181475225493896
 10
11.39239738817745
 20
-1.275277167735959
  0
LWPOLYLINE
  5
E6E
330
1F
100
AcDbEntity
  8
1
100
AcDbPolyline
 90
        3
 70
     0
 43
0.0
 10
11.77893353719321
 20
-0.4853364095286485
 10
11.76696917160285
 20
-0.5121639004819723
 10
11.74325110130322
 20
-0.5662325448346479
  0
LWPOLYLINE
  5
E6F
330
1F
100
AcDbEntity
  8
1
100
AcDbPolyline
 90
       13
 70
     0
 43
0.0
 10
14.08132308819864
 20
-0.6041559628664439
 10
13.9546897190226
 20
-0.5064739285570467
 10
13.83470312513356
 20
-0.4147580934728607
 10
13.72130288930901
 20
-0.3289035551671622
 10
13.61372992239234
 20
-0.2484077291509096
 10
13.51153157239332
 20
-0.1729121240732209
 10
13.41410251481637
 20
-0.1020916806572885
 10
13.32080151165875
 20
-0.0355763000771554
 10
13.23144339345167
 20
0.0267451791556205
 10
13.14568696609732
 20
0.0850476069609968
 10
13.06344811552587
 20
0.1394698017870452
 10
12.98451617416296
 20
0.1901958756067872
 10
12.90899698362802
 20
0.2372368814514775
  0
LINE
  5
E70
330
1F
100
AcDbEntity
  8
1
100
AcDbLine
 10
14.19972005897825
 20
-0.6915071422090684
 30
0.0
 11
14.12852365258222
 21
-0.6385466154004165
 31
0.0
  0
LINE
  5
E71
330
1F
100
AcDbEntity
  8
1
100
AcDbLine
 10
13.13036917486466
 20
-0.7645114527094418
 30
0.0
 11
12.99428305215044
 21
-0.6629745083122281
 31
0.0
  0
LWPOLYLINE
  5
E72
330
1F
100
AcDbEntity
  8
1
100
AcDbPolyline
 90
        3
 70
     0
 43
0.0
 10
14.12852365258222
 20
-0.6385466154004166
 10
14.10486305027655
 20
-0.6212117014073062
 10
14.08132308819864
 20
-0.6041559628664439
  0
LWPOLYLINE
  5
E73
330
1F
100
AcDbEntity
  8
1
100
AcDbPolyline
 90
        5
 70
     0
 43
0.0
 10
12.99428303242983
 20
-0.6629747500973063
 10
12.94018516554993
 20
-0.6238813756318736
 10
12.88787114211285
 20
-0.5869011832308093
 10
12.83730200508345
 20
-0.5519840033908721
 10
12.78843860727323
 20
-0.5190815393367949
  0
LWPOLYLINE
  5
E74
330
1F
100
AcDbEntity
  8
1
100
AcDbPolyline
 90
        3
 70
     0
 43
0.0
 10
14.26842027151232
 20
-0.741149107992218
 10
14.22295138929933
 20
-0.7085793081504113
 10
14.19972005897825
 20
-0.6915071422090684
  0
LWPOLYLINE
  5
E75
330
1F
100
AcDbEntity
  8
1
100
AcDbPolyline
 90
       14
 70
     0
 43
0.0
 10
11.54114702852055
 20
0.3627048818950014
 10
11.60960734019669
 20
0.3136488589590924
 10
11.67108057552778
 20
0.2616886605281441
 10
11.72499272518743
 20
0.2071819299720778
 10
11.77110025783719
 20
0.1501756658602809
 10
11.80893839410706
 20
0.0917240778274284
 10
11.83810585804534
 20
0.032827600742113
 10
11.85912138999708
 20
-0.0261420781744086
 10
11.87232816734258
 20
-0.0843990689137016
 10
11.87823643436534
 20
-0.1422399058525672
 10
11.87731329828814
 20
-0.1998349573416376
 10
11.86956980604729
 20
-0.2569770011546554
 10
11.85451864565006
 20
-0.3130989554718673
 10
11.8338310127249
 20
-0.369410359199939
  0
LWPOLYLINE
  5
E76
330
1F
100
AcDbEntity
  8
1
100
AcDbPolyline
 90
       17
 70
     0
 43
0.0
 10
12.90899698362802
 20
0.2372368814514775
 10
12.83927398622646
 20
0.2792685644588644
 10
12.7724363675932
 20
0.3181674646149737
 10
12.7085378103461
 20
0.3539643232828011
 10
12.64757686903323
 20
0.3866976510978767
 10
12.58954949844622
 20
0.4164115967208917
 10
12.53452193251288
 20
0.4430945982129657
 10
12.48250471643188
 20
0.4667704296309045
 10
12.43364351560297
 20
0.4873230036683713
 10
12.38798988151716
 20
0.5046405420048471
 10
12.34573260683383
 20
0.5185193043334567
 10
12.30706178014647
 20
0.5287576291258561
 10
12.27197055701407
 20
0.5351259851509253
 10
12.24065341294077
 20
0.5374802424578738
 10
12.21259523567234
 20
0.5351994827894588
 10
12.18723172302079
 20
0.5332077001363836
 10
11.94580636018706
 20
0.5086803439210119
  0
LWPOLYLINE
  5
E77
330
1F
100
AcDbEntity
  8
1
100
AcDbPolyline
 90
        5
 70
     0
 43
0.0
 10
13.74375069834979
 20
-1.205284573657774
 10
13.62989350011573
 20
-1.128418920607159
 10
13.51100353736667
 20
-1.04522772159029
 10
13.38955651880668
 20
-0.9565091932318782
 10
13.13036917486466
 20
-0.7645114527094421
  0
LWPOLYLINE
  5
E78
330
1F
100
AcDbEntity
  8
1
100
AcDbPolyline
 90
        8
 70
     0
 43
0.0
 10
12.78843860727323
 20
-0.5190815393367949
 10
12.76756076288973
 20
-0.5052267961966681
 10
12.74660762761838
 20
-0.491507483525735
 10
12.72554165963766
 20
-0.4778876116838073
 10
12.70451600498307
 20
-0.4644881320037995
 10
12.68366480201456
 20
-0.451397767292466
 10
12.66298087904974
 20
-0.4386613861880186
 10
12.64225903096863
 20
-0.4262651378601936
  0
LWPOLYLINE
  5
E79
330
1F
100
AcDbEntity
  8
1
100
AcDbPolyline
 90
        7
 70
     0
 43
0.0
 10
11.16618983863334
 20
0.5935115874950064
 10
11.21589276114318
 20
0.5615039328983415
 10
11.26571000507956
 20
0.5299158628685021
 10
11.31566295844057
 20
0.4987726695806633
 10
11.36567584162901
 20
0.4681602088424615
 10
11.41567298847028
 20
0.4381612543287628
 10
11.46567668406561
 20
0.4087981517359613
  0
LINE
  5
E7A
330
1F
100
AcDbEntity
  8
1
100
AcDbLine
 10
11.46568443266126
 20
0.4087932941629654
 30
0.0
 11
11.54114702852055
 21
0.3627048818950014
 31
0.0
  0
LWPOLYLINE
  5
E7B
330
1F
100
AcDbEntity
  8
1
100
AcDbPolyline
 90
       17
 70
     0
 43
0.0
 10
12.64225903096863
 20
-0.4262651378601936
 10
12.60382028961358
 20
-0.4036162021340385
 10
12.58600757129068
 20
-0.3933577589840465
 10
12.56801520607043
 20
-0.3834511054476821
 10
12.55009309225841
 20
-0.3739583918785066
 10
12.53222485157595
 20
-0.3648492040346702
 10
12.51444109774082
 20
-0.3561626303017432
 10
12.49713940475174
 20
-0.3480945094071867
 10
12.47919611185934
 20
-0.3401404645687221
 10
12.45904239006649
 20
-0.3315590676953397
 10
12.43860448071127
 20
-0.3233559651219604
 10
12.41917076494851
 20
-0.3162398458312709
 10
12.40079893044622
 20
-0.3102051372934518
 10
12.38374091640106
 20
-0.3054939286225902
 10
12.36861988490212
 20
-0.3020257677821093
 10
12.35623162862839
 20
-0.2998067544964354
 10
12.34623946313837
 20
-0.2987974267663241
  0
LINE
  5
E7C
330
1F
100
AcDbEntity
  8
1
100
AcDbLine
 10
11.85645082380914
 20
-0.454157704553175
 30
0.0
 11
11.77893353719321
 21
-0.4853364095286485
 31
0.0
  0
LWPOLYLINE
  5
E7D
330
1F
100
AcDbEntity
  8
1
100
AcDbPolyline
 90
        3
 70
     0
 43
0.0
 10
12.00298212447031
 20
-0.3933594908010105
 10
11.93099300585443
 20
-0.4235146165917524
 10
11.85645082380914
 20
-0.454157704553175
  0
LWPOLYLINE
  5
E7E
330
1F
100
AcDbEntity
  8
1
100
AcDbPolyline
 90
        7
 70
     0
 43
0.0
 10
14.23185136422356
 20
-1.45844041286368
 10
14.15531220622066
 20
-1.429312385945098
 10
14.07586548510256
 20
-1.394537813156535
 10
13.99474150771462
 20
-1.354332673813906
 10
13.91218466401356
 20
-1.30913859484328
 10
13.82825934710945
 20
-1.25938811274596
 10
13.74375069834979
 20
-1.205284573657774
  0
LWPOLYLINE
  5
E7F
330
1F
100
AcDbEntity
  8
1
100
AcDbPolyline
 90
        5
 70
     0
 43
0.0
 10
12.34623946313837
 20
-0.2987974267663241
 10
12.27879286478853
 20
-0.3016177020086087
 10
12.21116010281839
 20
-0.313715338854893
 10
12.142618032056
 20
-0.3364499648558334
 10
12.00298212447031
 20
-0.3933594908010105
  0
LWPOLYLINE
  5
E80
330
1F
100
AcDbEntity
  8
1
100
AcDbPolyline
 90
        5
 70
     0
 43
0.0
 10
11.94580636018706
 20
0.5086803439210119
 10
11.89766929927911
 20
0.5041961409446353
 10
11.84878517476443
 20
0.4970725333686069
 10
11.79885891086452
 20
0.4880125225504349
 10
11.74791355281538
 20
0.4771294092318707
  0
LWPOLYLINE
  5
E81
330
1F
100
AcDbEntity
  8
1
100
AcDbPolyline
 90
        4
 70
     0
 43
0.0
 10
11.74791355281538
 20
0.4771294092318707
 10
11.64092289515756
 20
0.4525095253571628
 10
11.58447611725294
 20
0.4390727848423474
 10
11.52606326598369
 20
0.4244655505408021
  0
LINE
  5
E82
330
1F
100
AcDbEntity
  8
1
100
AcDbLine
 10
11.52606326598369
 20
0.4244655505408022
 30
0.0
 11
11.46570437066609
 21
0.4087490320790784
 31
0.0
  0
LINE
  5
E85
330
1F
100
AcDbEntity
  8
1
100
AcDbLine
 10
15.49999286793837
 20
0.0941453438978637
 30
0.0
 11
15.26523221171224
 21
0.7576593545524393
 31
0.0
  0
LINE
  5
E86
330
1F
100
AcDbEntity
  8
1
100
AcDbLine
 10
15.47586506028522
 20
0.030053366012473
 30
0.0
 11
15.50000006651186
 21
0.09414246148052
 31
0.0
  0
LINE
  5
E88
330
1F
100
AcDbEntity
  8
1
100
AcDbLine
 10
15.50000006651186
 20
0.09414246148052
 30
0.0
 11
15.4999999334881
 21
-0.0941424614805534
 31
0.0
  0
LINE
  5
E89
330
1F
100
AcDbEntity
  8
1
100
AcDbLine
 10
15.37485950710177
 20
-0.1722615280443856
 30
0.0
 11
15.39922472497545
 21
-0.1314675403700629
 31
0.0
  0
LINE
  5
E8A
330
1F
100
AcDbEntity
  8
1
100
AcDbLine
 10
15.39922472497545
 20
-0.1314675403700629
 30
0.0
 11
15.42533511765392
 21
-0.0826304913947607
 31
0.0
  0
LWPOLYLINE
  5
E8B
330
1F
100
AcDbEntity
  8
1
100
AcDbPolyline
 90
        7
 70
     0
 43
0.0
 10
15.07866896149788
 20
-0.6614430119806434
 10
15.05787791579957
 20
-0.7026743367189923
 10
15.03730609002992
 20
-0.742949426642821
 10
15.01694711853692
 20
-0.7822821475219934
 10
14.99682009779862
 20
-0.8206309018081478
 10
14.97694412429296
 20
-0.8579540914756233
 10
14.95731283248779
 20
-0.8942655825329847
  0
LINE
  5
E8C
330
1F
100
AcDbEntity
  8
1
100
AcDbLine
 10
15.42533511765392
 20
-0.0826304913947607
 30
0.0
 11
15.45102416801356
 21
-0.0289113327054963
 31
0.0
  0
LINE
  5
E8D
330
1F
100
AcDbEntity
  8
1
100
AcDbLine
 10
15.45102416801356
 20
-0.0289113327054963
 30
0.0
 11
15.47586506028522
 21
0.030053366012473
 31
0.0
  0
LINE
  5
E8E
330
1F
100
AcDbEntity
  8
1
100
AcDbLine
 10
15.07864259413788
 20
-0.6614452234235461
 30
0.0
 11
15.37485950710177
 21
-0.1722615280443856
 31
0.0
  0
LWPOLYLINE
  5
E8F
330
1F
100
AcDbEntity
  8
1
100
AcDbPolyline
 90
        9
 70
     0
 43
0.0
 10
14.71362294615716
 20
-1.069689086613933
 10
14.80394259203655
 20
-1.006409088576448
 10
14.82469759574557
 20
-0.991753862270894
 10
14.84587830370507
 20
-0.9766055388202767
 10
14.8674503812415
 20
-0.9609946470842691
 10
14.88938092718081
 20
-0.944948662475131
 10
14.91167677592478
 20
-0.9284667635451146
 10
14.93433300536103
 20
-0.9115585011025959
 10
14.95735171888763
 20
-0.8942204002795975
  0
LWPOLYLINE
  5
E90
330
1F
100
AcDbEntity
  8
1
100
AcDbPolyline
 90
        7
 70
     0
 43
0.0
 10
14.7834605421474
 20
-1.020677330303543
 10
14.73142457356136
 20
-1.000927643537275
 10
14.67953675969742
 20
-0.9796492399517548
 10
14.62776359963957
 20
-0.9568783336424472
 10
14.57593720706886
 20
-0.9325050626408843
 10
14.52389156373401
 20
-0.9064249932511474
 10
14.4715911793408
 20
-0.8786904304058552
  0
LWPOLYLINE
  5
E95
330
1F
100
AcDbEntity
  8
1
100
AcDbPolyline
 90
        5
 70
     0
 43
0.0
 10
13.45035150264288
 20
2.480590562937836
 10
13.4593042678033
 20
2.439954853584658
 10
13.48005263515172
 20
2.360944286062594
 10
13.50364383952777
 20
2.284194569964272
 10
13.53007788093116
 20
2.209705705170158
  0
LWPOLYLINE
  5
E96
330
1F
100
AcDbEntity
  8
1
100
AcDbPolyline
 90
        7
 70
     0
 43
0.0
 10
13.52966307314307
 20
2.209578296873188
 10
13.59314379891467
 20
2.061281678189823
 10
13.6699319399538
 20
1.912618390968711
 10
13.76177326602597
 20
1.763613646471265
 10
13.86361860720763
 20
1.611744561613444
 10
13.97067328161356
 20
1.454717215277061
 10
14.08540547571864
 20
1.292770827903662
  0
LINE
  5
E9C
330
1F
100
AcDbEntity
  8
1
100
AcDbLine
 10
2.504141069733319
 20
6.297389606237232
 30
0.0
 11
2.313051357665935
 21
5.966387759739812
 31
0.0
  0
LINE
  5
EA8
330
1F
100
AcDbEntity
  8
1
100
AcDbLine
 10
2.504141069733319
 20
6.297389606237232
 30
0.0
 11
9.822891566264724
 21
6.199999999999955
 31
0.0
  0
TEXT
  5
EAF
330
1F
100
AcDbEntity
  8
6
100
AcDbText
 10
39.41349228665803
 20
-4.851159876397815
 30
0.0
 40
3.5
  1
Z=2
 50
90.0
100
AcDbText
  0
LWPOLYLINE
  5
FFC
330
1F
100
AcDbEntity
  8
CUT
100
AcDbPolyline
 90
        6
 70
     1
 43
0.0
 10
15.26523221171224
 20
0.757659354552438
 10
9.822891566264724
 20
6.199999999999955
 10
3.5
 20
6.284137848422492
 10
3.5
 20
-0.0000004863075259
 10
15.49999999999835
 20
-0.0000022419798136
 10
15.50000006651186
 20
0.09414246148052
  0
LWPOLYLINE
  5
10BE
330
1F
100
AcDbEntity
  8
NOCUT
100
AcDbPolyline
 90
        9
 70
     1
 43
0.0
 10
2.504141069733319
 20
6.297389606237232
 10
3.5
 20
6.284137848422492
 10
3.5
 20
-0.0000004863075259
 10
0.0000000000002274
 20
0.0000000000000853
 10
0.0000000000002274
 20
5.613041851766852
 10
1.84134838283026
 20
5.612996697779321
 42
0.1983121443529956
 10
2.046168659730206
 20
5.697559108771931
 42
0.1392037222590473
 10
2.313051357665935
 20
5.966387759739812
 10
2.504141069733324
 20
6.297389606237232
  0
LINE
  5
1404
330
1F
100
AcDbEntity
  8
1
100
AcDbLine
 10
9.822891566264724
 20
-6.200002241979687
 30
0.0
 11
15.26523221171224
 21
-0.7576615965321648
 31
0.0
  0
LINE
  5
1405
330
1F
100
AcDbEntity
  8
1
100
AcDbLine
 10
15.49999286793837
 20
-0.0941475858775921
 30
0.0
 11
15.26523221171224
 21
-0.7576615965321701
 31
0.0
  0
LINE
  5
17F0
330
1F
100
AcDbEntity
  8
1
100
AcDbLine
 10
2.504141069733318
 20
-6.297391848216959
 30
0.0
 11
9.822891566264722
 21
-6.200002241979687
 31
0.0
  0
LINE
  5
1AEF
330
1F
100
AcDbEntity
  8
SK4
100
AcDbLine
 10
0.0000000000002274
 20
0.0000000000000924
 30
0.0
 11
-9.036977284700979
 21
0.0000000000000853
 31
0.0
  0
ARC
  5
1AF0
330
1F
100
AcDbEntity
  8
SK1
100
AcDbCircle
 10
-1.59925420969975
 20
4.210017066750111
 30
0.0
 40
0.1000102025
100
AcDbArc
 50
269.7640915652003
 51
355.5312699432001
  0
LINE
  5
1AF1
330
1F
100
AcDbEntity
  8
1
100
AcDbLine
 10
-2.213229040584365
 20
0.0000000000000853
 30
0.0
 11
2.213229040584593
 21
0.0000000000000853
 31
0.0
  0
CIRCLE
  5
1AF2
330
1F
100
AcDbEntity
  8
1
100
AcDbCircle
 10
0.000000000000199
 20
0.0000000000000853
 30
0.0
 40
2.213229040584451
  0
HATCH
  5
1AF3
330
1F
100
AcDbEntity
  8
1
100
AcDbHatch
 10
0.0
 20
0.0
 30
0.0
210
0.0
220
0.0
230
1.0
  2
SOLID
 70
     1
 71
     0
 91
        2
 92
        7
 72
     1
 73
     1
 93
        3
 10
-0.0000000000000284
 20
0.0
 42
0.0
 10
2.213229040584451
 20
0.0
 42
0.4142135623730966
 10
-0.0000000000000284
 20
2.213229040584435
 42
0.0
 97
        0
 92
        7
 72
     1
 73
     1
 93
        3
 10
-0.0000000000000284
 20
-2.213229040584435
 42
0.0
 10
-0.0000000000000284
 20
0.0
 42
0.0
 10
-2.213229040584508
 20
0.0
 42
0.4142135623730953
 97
        0
 75
     0
 76
     1
 47
0.1190009775223266
 98
        2
 10
0.5584147941089839
 20
0.6909183550323519
 10
-0.9595984513896668
 20
-1.27259769228476
  0
LINE
  5
1AF4
330
1F
100
AcDbEntity
  8
SK1
100
AcDbLine
 10
-0.000007824499761
 20
4.341003678150101
 30
0.0
 11
-1.500007669899758
 21
4.262392400550096
 31
0.0
  0
ARC
  5
1AF5
330
1F
100
AcDbEntity
  8
SK1
100
AcDbCircle
 10
-1.599327078699743
 20
-4.210011975749892
 30
0.0
 40
0.1000090827
100
AcDbArc
 50
4.039132533600112
 51
90.21289997290072
  0
LINE
  5
1AF6
330
1F
100
AcDbEntity
  8
SK1
100
AcDbLine
 10
0.0000084235002476
 20
-4.340999299549904
 30
0.0
 11
-1.499991927599764
 21
-4.262397644649878
 31
0.0
  0
LWPOLYLINE
  5
1AF7
330
1F
100
AcDbEntity
  8
1
100
AcDbPolyline
 90
        3
 70
     1
 43
0.0
 10
0.000000000000199
 20
0.0000000000000853
 10
-2.21322904058428
 20
0.0000000000000853
 42
0.4142135623730966
 10
0.000000000000199
 20
-2.213229040584393
  0
LINE
  5
1AF8
330
1F
100
AcDbEntity
  8
SK1
100
AcDbLine
 10
-4.846426923799754
 20
1.647442456450106
 30
0.0
 11
-4.798138937699746
 21
1.005192789250102
 31
0.0
  0
LINE
  5
1AF9
330
1F
100
AcDbEntity
  8
SK1
100
AcDbLine
 10
-3.629662655499756
 20
1.005236896350097
 30
0.0
 11
-3.677425111199752
 21
1.647468604550111
 31
0.0
  0
LINE
  5
1AFA
330
1F
100
AcDbEntity
  8
SK1
100
AcDbLine
 10
-2.989967347699745
 20
1.3308208507501
 30
0.0
 11
-2.941837158099758
 21
0.6725682348501039
 31
0.0
  0
LWPOLYLINE
  5
1AFB
330
1F
100
AcDbEntity
  8
SK1
100
AcDbPolyline
 90
        3
 70
     0
 43
0.0
 10
-1.633727949199765
 20
-1.329086631849889
 10
-1.729730589299761
 20
0.0048112435501082
 10
-1.826319812099753
 20
1.338116403650117
  0
LINE
  5
1AFC
330
1F
100
AcDbEntity
  8
SK1
100
AcDbLine
 10
-6.671750468299761
 20
1.626659250550104
 30
0.0
 11
-6.623857747099746
 21
0.9881142080501064
 31
0.0
  0
LINE
  5
1AFD
330
1F
100
AcDbEntity
  8
SK1
100
AcDbLine
 10
-7.257220887899745
 20
0.5443091879501054
 30
0.0
 11
-7.324322854299763
 21
1.467256078050098
 31
0.0
  0
LINE
  5
1AFE
330
1F
100
AcDbEntity
  8
SK1
100
AcDbLine
 10
-5.341471934599749
 20
-0.6802731983498945
 30
0.0
 11
-5.486670879799758
 21
1.330963125450095
 31
0.0
  0
LINE
  5
1AFF
330
1F
100
AcDbEntity
  8
SK1
100
AcDbLine
 10
-7.939999999999754
 20
-3.512716674049881
 30
0.0
 11
-7.939999999999754
 21
3.266687896350104
 31
0.0
  0
LINE
  5
1B00
330
1F
100
AcDbEntity
  8
SK1
100
AcDbLine
 10
-1.499999999999756
 20
-4.262306300649881
 30
0.0
 11
-1.499999999999756
 21
4.262306313550111
 31
0.0
  0
LINE
  5
1B01
330
1F
100
AcDbEntity
  8
SK1
100
AcDbLine
 10
-7.939999999999754
 20
-3.512720684049893
 30
0.0
 11
-7.541138468499767
 21
-3.619149000949888
 31
0.0
  0
LWPOLYLINE
  5
1B02
330
1F
100
AcDbEntity
  8
SK1
100
AcDbPolyline
 90
       14
 70
     0
 43
0.0
 10
-7.541138468499767
 20
-3.619149000949888
 10
-7.55397436449975
 20
-3.612212549949886
 10
-7.579778160899762
 20
-3.577169332549899
 10
-7.605636486699764
 20
-3.514036164249886
 10
-7.631498682199747
 20
-3.423135734349896
 10
-7.657311551999753
 20
-3.305378100949893
 10
-7.68310752469975
 20
-3.161859717849905
 10
-7.708936428099759
 20
-2.993447317749896
 10
-7.734694942199751
 20
-2.802025907149881
 10
-7.760237936299744
 20
-2.5904335186499
 10
-7.785748274599752
 20
-2.359264529849894
 10
-7.811386566899741
 20
-2.108807411449888
 10
-7.83707724439975
 20
-1.84148367554988
 10
-7.862804987399753
 20
-1.559359885049884
  0
LWPOLYLINE
  5
1B03
330
1F
100
AcDbEntity
  8
SK1
100
AcDbPolyline
 90
        3
 70
     0
 43
0.0
 10
-7.862804987399753
 20
-1.559359885049884
 10
-7.914281497699746
 20
-0.9607608819498947
 10
-7.940012497999759
 20
-0.6491569151499023
  0
LINE
  5
1B04
330
1F
100
AcDbEntity
  8
SK1
100
AcDbLine
 10
-4.652364136699758
 20
-1.012708642949887
 30
0.0
 11
-4.604311814799754
 21
-1.654397098049883
 31
0.0
  0
LINE
  5
1B05
330
1F
100
AcDbEntity
  8
SK1
100
AcDbLine
 10
-4.267019375199749
 20
-4.110003000849886
 30
0.0
 11
-4.931532390099759
 21
-4.110003000849886
 31
0.0
  0
LWPOLYLINE
  5
1B06
330
1F
100
AcDbEntity
  8
SK1
100
AcDbPolyline
 90
        4
 70
     0
 43
0.0
 10
-5.880202905917934
 20
-3.702985817189446
 10
-5.876702079399748
 20
-3.697700915149893
 10
-5.863960594699745
 20
-3.682549692849903
 10
-5.845222456299749
 20
-3.665422312349888
  0
LINE
  5
1B07
330
1F
100
AcDbEntity
  8
SK1
100
AcDbLine
 10
-5.150106799121078
 20
-3.702676099724016
 30
0.0
 11
-5.08972652289975
 21
-3.893982871549893
 31
0.0
  0
LWPOLYLINE
  5
1B08
330
1F
100
AcDbEntity
  8
SK1
100
AcDbPolyline
 90
        3
 70
     0
 43
0.0
 10
-4.798138937699746
 20
1.005192789250102
 10
-4.724934207299752
 20
-0.0038919207498935
 10
-4.652364136699758
 20
-1.012708642949887
  0
LINE
  5
1B09
330
1F
100
AcDbEntity
  8
SK1
100
AcDbLine
 10
-7.074469668699747
 20
-1.959322999749884
 30
0.0
 11
-7.122300485299744
 21
-1.338089156749886
 31
0.0
  0
LINE
  5
1B0A
330
1F
100
AcDbEntity
  8
SK1
100
AcDbLine
 10
-6.481245879599753
 20
-1.01510157634989
 30
0.0
 11
-6.433188613499764
 21
-1.654375533949886
 31
0.0
  0
LINE
  5
1B0B
330
1F
100
AcDbEntity
  8
SK1
100
AcDbLine
 10
-7.122303314999754
 20
-1.338089517349884
 30
0.0
 11
-7.167163842199753
 21
-0.7228914378498958
 31
0.0
  0
LINE
  5
1B0C
330
1F
100
AcDbEntity
  8
SK1
100
AcDbLine
 10
-7.167163842199753
 20
-0.7228914378498958
 30
0.0
 11
-7.257220887899745
 21
0.5443091879501054
 31
0.0
  0
LWPOLYLINE
  5
1B0D
330
1F
100
AcDbEntity
  8
SK1
100
AcDbPolyline
 90
        3
 70
     0
 43
0.0
 10
-6.623857747099746
 20
0.9881142080501064
 10
-6.552525032899748
 20
-0.0139197002499003
 10
-6.481245879599753
 20
-1.01510157634989
  0
LINE
  5
1B0E
330
1F
100
AcDbEntity
  8
SK1
100
AcDbLine
 10
-5.293127213999753
 20
-1.338087848849879
 30
0.0
 11
-5.341471934599749
 21
-0.6802731983498945
 31
0.0
  0
LINE
  5
1B0F
330
1F
100
AcDbEntity
  8
SK1
100
AcDbLine
 10
-5.245244840699752
 20
-1.95935009064989
 30
0.0
 11
-5.293118823499766
 21
-1.338089156749886
 31
0.0
  0
LWPOLYLINE
  5
1B10
330
1F
100
AcDbEntity
  8
SK1
100
AcDbPolyline
 90
       24
 70
     0
 43
0.0
 10
-5.222708185799759
 20
-3.641573142849906
 10
-5.216954661799761
 20
-3.644494190149897
 10
-5.211419168799748
 20
-3.647520509349901
 10
-5.206117288299763
 20
-3.650629498949881
 10
-5.201065714199756
 20
-3.653795577349881
 10
-5.19627143139975
 20
-3.656997190549886
 10
-5.191749764099752
 20
-3.660205430749896
 10
-5.187484199599751
 20
-3.663412948149883
 10
-5.183461206799759
 20
-3.666611194349896
 10
-5.179683927399763
 20
-3.669778841949892
 10
-5.176150223999752
 20
-3.672898398849881
 10
-5.172858547899749
 20
-3.675951712949881
 10
-5.169807149299755
 20
-3.678920549849891
 10
-5.166990955299749
 20
-3.681789823849883
 10
-5.164406459199766
 20
-3.684543002049906
 10
-5.162044906999751
 20
-3.687169459049881
 10
-5.159899745199751
 20
-3.689656858349891
 10
-5.157960410299749
 20
-3.691998274349898
 10
-5.156218176699766
 20
-3.694185681249904
 10
-5.154661959599748
 20
-3.696215110549886
 10
-5.153283544099762
 20
-3.698080053349897
 10
-5.152067520799762
 20
-3.699785146949892
 10
-5.150999855599748
 20
-3.701335131749898
 10
-5.150071842799746
 20
-3.702728588349897
  0
LINE
  5
1B11
330
1F
100
AcDbEntity
  8
SK1
100
AcDbLine
 10
-4.931497483799744
 20
-4.110003000849886
 30
0.0
 11
-4.941953778499764
 21
-4.107359391949898
 31
0.0
  0
LWPOLYLINE
  5
1B12
330
1F
100
AcDbEntity
  8
SK1
100
AcDbPolyline
 90
        9
 70
     0
 43
0.0
 10
-5.089834320799766
 20
-3.893776707049893
 10
-5.081960385799758
 20
-3.917683621649884
 10
-5.071265192299759
 20
-3.946662365449881
 10
-5.059475168999752
 20
-3.974315979749888
 10
-5.046027366099749
 20
-4.001032797649896
 10
-5.029644335799758
 20
-4.027821502749899
 10
-5.008483315399756
 20
-4.05515485334989
 10
-4.980583617299755
 20
-4.082031004549903
 10
-4.941828124299759
 20
-4.107359072049901
  0
LINE
  5
1B13
330
1F
100
AcDbEntity
  8
SK1
100
AcDbLine
 10
-5.940097619199759
 20
-3.893606713349896
 30
0.0
 11
-5.880202905999763
 21
-3.702985817449885
 31
0.0
  0
LINE
  5
1B14
330
1F
100
AcDbEntity
  8
SK1
100
AcDbLine
 10
-6.761885590499757
 20
-4.110003000849886
 30
0.0
 11
-6.772163529599749
 21
-4.107425030349901
 31
0.0
  0
LINE
  5
1B15
330
1F
100
AcDbEntity
  8
SK1
100
AcDbLine
 10
-7.535093888199752
 20
-3.619984626549891
 30
0.0
 11
-7.541138468499767
 21
-3.619149000949888
 31
0.0
  0
LINE
  5
1B16
330
1F
100
AcDbEntity
  8
SK1
100
AcDbLine
 10
-6.980802051199744
 20
-3.70175632934989
 30
0.0
 11
-6.979949514299759
 21
-3.703052908649892
 31
0.0
  0
LWPOLYLINE
  5
1B17
330
1F
100
AcDbEntity
  8
SK1
100
AcDbPolyline
 90
        9
 70
     0
 43
0.0
 10
-6.919369653099749
 20
-3.895057936449886
 10
-6.91134369549975
 20
-3.919280930849891
 10
-6.900444510299749
 20
-3.948577205149901
 10
-6.888371542099746
 20
-3.976594980849895
 10
-6.874502570599758
 20
-4.003753399149886
 10
-6.857433633699754
 20
-4.031090291549886
 10
-6.834591885399746
 20
-4.059598118349896
 10
-6.805350299299758
 20
-4.086369824749878
 10
-6.77235572799975
 20
-4.107326731349886
  0
LINE
  5
1B18
330
1F
100
AcDbEntity
  8
SK1
100
AcDbLine
 10
-6.979973502148584
 20
-3.703016426770651
 30
0.0
 11
-6.919667898599739
 21
-3.894089742949886
 31
0.0
  0
LINE
  5
1B19
330
1F
100
AcDbEntity
  8
SK1
100
AcDbLine
 10
-6.097125248999758
 20
-4.110003000849886
 30
0.0
 11
-6.761776604599745
 21
-4.110003000849886
 31
0.0
  0
LINE
  5
1B1A
330
1F
100
AcDbEntity
  8
SK1
100
AcDbLine
 10
-5.713424979299758
 20
-3.620184965549881
 30
0.0
 11
-5.317347187599763
 21
-3.619904682949879
 31
0.0
  0
LWPOLYLINE
  5
1B1B
330
1F
100
AcDbEntity
  8
SK1
100
AcDbPolyline
 90
       36
 70
     0
 43
0.0
 10
-7.535122264899753
 20
-3.620558974649881
 10
-7.146226649599752
 20
-3.620055682449886
 10
-7.139233035399755
 20
-3.620152720849886
 10
-7.133272124099759
 20
-3.620388810549883
 10
-7.127599898199759
 20
-3.620785807149884
 10
-7.121517601199754
 20
-3.62141675894989
 10
-7.11515564369975
 20
-3.622285183349886
 10
-7.108300111799762
 20
-3.623435338049886
 10
-7.101297061699766
 20
-3.6248340812499
 10
-7.094436650799763
 20
-3.626431374449892
 10
-7.087660125199746
 20
-3.628238922449893
 10
-7.081016566499753
 20
-3.630243118349893
 10
-7.074469159999764
 20
-3.632454503949885
 10
-7.06798691159976
 20
-3.634883922549887
 10
-7.061604145199749
 20
-3.637518048549893
 10
-7.055331578399758
 20
-3.640350599149896
 10
-7.049206552499753
 20
-3.643361160449884
 10
-7.043257832199754
 20
-3.646529100649885
 10
-7.037513233099757
 20
-3.649830482149878
 10
-7.032000455899759
 20
-3.653237405849891
 10
-7.02673727689975
 20
-3.656724389849883
 10
-7.021750203299759
 20
-3.660256600349894
 10
-7.017029142799742
 20
-3.663822450249893
 10
-7.01256484759976
 20
-3.667409668549892
 10
-7.008374472799745
 20
-3.670983801849898
 10
-7.004466449099765
 20
-3.674514673149885
 10
-7.000846944999763
 20
-3.677971971549891
 10
-6.997522871799757
 20
-3.681322489349893
 10
-6.994490124999755
 20
-3.684542501049902
 10
-6.991748104499748
 20
-3.687603965749886
 10
-6.989286497399759
 20
-3.690489316449883
 10
-6.987098811099739
 20
-3.693177098549893
 10
-6.985170014799763
 20
-3.695657120849885
 10
-6.983489202999749
 20
-3.697915541449885
 10
-6.982038322899754
 20
-3.699949866149892
 10
-6.980802051199744
 20
-3.70175632934989
  0
LINE
  5
1B1C
330
1F
100
AcDbEntity
  8
SK1
100
AcDbLine
 10
-6.097153337299758
 20
-4.110003000849886
 30
0.0
 11
-6.086366867999755
 21
-4.107201983249892
 31
0.0
  0
LINE
  5
1B1D
330
1F
100
AcDbEntity
  8
SK1
100
AcDbLine
 10
-5.845222456299749
 20
-3.665422312349888
 30
0.0
 11
-5.820890780399749
 21
-3.648842384149886
 31
0.0
  0
LWPOLYLINE
  5
1B1E
330
1F
100
AcDbEntity
  8
SK1
100
AcDbPolyline
 90
        9
 70
     0
 43
0.0
 10
-6.08656447289975
 20
-4.10720146474989
 10
-6.050510161399755
 20
-4.083506961549884
 10
-6.023283925799758
 20
-4.057612998749901
 10
-6.002594605299747
 20
-4.031472098749899
 10
-5.986569492899745
 20
-4.005998864749883
 10
-5.973392018299762
 20
-3.980659167449886
 10
-5.961753754699754
 20
-3.954304314749888
 10
-5.951161612899753
 20
-3.92660736384988
 10
-5.940213460199742
 20
-3.893884129249896
  0
LWPOLYLINE
  5
1B1F
330
1F
100
AcDbEntity
  8
SK1
100
AcDbPolyline
 90
        6
 70
     0
 43
0.0
 10
-5.820890780399749
 20
-3.648842384149886
 10
-5.794682251099741
 20
-3.635999561149901
 10
-5.77259343039975
 20
-3.628385035649883
 10
-5.752287591099744
 20
-3.623666556949897
 10
-5.732246012699746
 20
-3.62097773744989
 10
-5.713424979299758
 20
-3.620184965549881
  0
LWPOLYLINE
  5
1B20
330
1F
100
AcDbEntity
  8
SK1
100
AcDbPolyline
 90
       16
 70
     0
 43
0.0
 10
-5.317365742099752
 20
-3.619924525749893
 10
-5.314437720599754
 20
-3.619938937949881
 10
-5.307630279399743
 20
-3.620105020149892
 10
-5.301323479099763
 20
-3.620445208849885
 10
-5.295101848599741
 20
-3.620978687049897
 10
-5.288405957099753
 20
-3.621772637049899
 10
-5.281538576199749
 20
-3.622812124749884
 10
-5.274588209999761
 20
-3.624089748949883
 10
-5.267638354899758
 20
-3.62559891414989
 10
-5.260799285099763
 20
-3.627317391049897
 10
-5.25407388479975
 20
-3.629241458549897
 10
-5.24750323799975
 20
-3.631354925749888
 10
-5.241076611299744
 20
-3.633654508649896
 10
-5.234787319999766
 20
-3.636135266649886
 10
-5.228660165399744
 20
-3.638779706149903
 10
-5.222708185799759
 20
-3.641573142849906
  0
LWPOLYLINE
  5
1B21
330
1F
100
AcDbEntity
  8
SK1
100
AcDbPolyline
 90
       15
 70
     0
 43
0.0
 10
-6.433188613499764
 20
-1.654375533949886
 10
-6.408961888599747
 20
-1.959400377949889
 10
-6.384658670999768
 20
-2.251089364849887
 10
-6.360358698799754
 20
-2.527404148849881
 10
-6.336132090299741
 20
-2.786411805749891
 10
-6.311981126199754
 20
-3.026384621549893
 10
-6.287937801899744
 20
-3.245712016049892
 10
-6.263983090799754
 20
-3.442859793449897
 10
-6.240119360899767
 20
-3.616457690549877
 10
-6.216314422899754
 20
-3.765352490949891
 10
-6.192559593399763
 20
-3.888542599349888
 10
-6.168786722799749
 20
-3.985171315849896
 10
-6.144924625999762
 20
-4.05457419804989
 10
-6.120973726599755
 20
-4.096278817749904
 10
-6.097153337299758
 20
-4.110003000849886
  0
LWPOLYLINE
  5
1B22
330
1F
100
AcDbEntity
  8
SK1
100
AcDbPolyline
 90
       14
 70
     0
 43
0.0
 10
-6.772163529599749
 20
-4.107425030349901
 10
-6.785565671499754
 20
-4.096265743049881
 10
-6.809224159799753
 20
-4.0545499100499
 10
-6.832880241599752
 20
-3.985137152049901
 10
-6.856838106399747
 20
-3.888498174849884
 10
-6.880954383099745
 20
-3.765296139749892
 10
-6.905212672699746
 20
-3.616384981049888
 10
-6.929536249199754
 20
-3.442768454649878
 10
-6.953849567199753
 20
-3.245602479849893
 10
-6.978132685999767
 20
-3.026261365649886
 10
-7.002340305299753
 20
-2.7862873077499
 10
-7.026472958799757
 20
-2.527288005849896
 10
-7.050503154699753
 20
-2.250988148949884
 10
-7.074469668699747
 20
-1.959322999749884
  0
LWPOLYLINE
  5
1B23
330
1F
100
AcDbEntity
  8
SK1
100
AcDbPolyline
 90
       14
 70
     0
 43
0.0
 10
-4.941953778499764
 20
-4.107359391949898
 10
-4.955355315399756
 20
-4.096273364049891
 10
-4.979573449299762
 20
-4.054561831649889
 10
-5.003854580999769
 20
-3.985149425849896
 10
-5.028185344799751
 20
-3.888507944649886
 10
-5.052535040299743
 20
-3.765302171249898
 10
-5.076879502599767
 20
-3.61638988144989
 10
-5.101185759699759
 20
-3.442774472849905
 10
-5.125414097199749
 20
-3.245611210749883
 10
-5.149560576499751
 20
-3.026274484749889
 10
-5.173601403999754
 20
-2.786306189049894
 10
-5.197556430599759
 20
-2.527312390049898
 10
-5.221408252599758
 20
-2.251016191649894
 10
-5.245244840699752
 20
-1.95935009064989
  0
LWPOLYLINE
  5
1B24
330
1F
100
AcDbEntity
  8
SK1
100
AcDbPolyline
 90
        4
 70
     0
 43
0.0
 10
-4.050226667938512
 20
-3.703137834173288
 10
-4.04763580699975
 20
-3.699143509949891
 10
-4.03640608799975
 20
-3.685328727549886
 10
-4.018802132399755
 20
-3.668498446049893
  0
LINE
  5
1B25
330
1F
100
AcDbEntity
  8
SK1
100
AcDbLine
 10
-3.413999708199753
 20
-1.959374944549906
 30
0.0
 11
-3.462143592399753
 21
-1.338089156749886
 31
0.0
  0
LINE
  5
1B26
330
1F
100
AcDbEntity
  8
SK1
100
AcDbLine
 10
-3.462148562499763
 20
-1.338087848849879
 30
0.0
 11
-3.510294115099766
 21
-0.680265098849887
 31
0.0
  0
LINE
  5
1B27
330
1F
100
AcDbEntity
  8
SK1
100
AcDbLine
 10
-3.510294115099766
 20
-0.680265098849887
 30
0.0
 11
-3.629662655499756
 21
1.005236896350097
 31
0.0
  0
LINE
  5
1B28
330
1F
100
AcDbEntity
  8
SK1
100
AcDbLine
 10
-2.84611326539975
 20
-0.6803647129498815
 30
0.0
 11
-2.792166003599744
 21
-1.411169868949881
 31
0.0
  0
LINE
  5
1B29
330
1F
100
AcDbEntity
  8
SK1
100
AcDbLine
 10
-2.941837158099758
 20
0.6725682348501039
 30
0.0
 11
-2.84611326539975
 21
-0.6803647129498815
 31
0.0
  0
LWPOLYLINE
  5
1B2A
330
1F
100
AcDbEntity
  8
SK1
100
AcDbPolyline
 90
       13
 70
     0
 43
0.0
 10
-2.532741209599747
 20
-2.654897525049888
 10
-2.521522317399755
 20
-2.693158420249899
 10
-2.508531574699758
 20
-2.728737303649892
 10
-2.493800744099756
 20
-2.761737170249899
 10
-2.477234537699743
 20
-2.792104992049899
 10
-2.458737880899759
 20
-2.819877730749892
 10
-2.438341895999768
 20
-2.844885826949904
 10
-2.416053414499741
 20
-2.867155047849903
 10
-2.391850234299766
 20
-2.886142140049896
 10
-2.365595887999759
 20
-2.901333334149896
 10
-2.337640003699746
 20
-2.912686615949891
 10
-2.308324737399757
 20
-2.919921985249898
 10
-2.27753603719975
 20
-2.923178067349892
  0
LWPOLYLINE
  5
1B2B
330
1F
100
AcDbEntity
  8
SK1
100
AcDbPolyline
 90
        4
 70
     0
 43
0.0
 10
-2.727765378299763
 20
-1.74840227064989
 10
-2.683930246999748
 20
-1.937474411249906
 10
-2.663457015799763
 20
-2.035154358149879
 10
-2.643946673999749
 20
-2.134637524349896
  0
LWPOLYLINE
  5
1B2C
330
1F
100
AcDbEntity
  8
SK1
100
AcDbPolyline
 90
        7
 70
     0
 43
0.0
 10
-2.643946673999749
 20
-2.134637524349896
 10
-2.627613828399759
 20
-2.225211475849889
 10
-2.610402359399741
 20
-2.314325265949888
 10
-2.592314081999745
 20
-2.401919238149885
 10
-2.573343551199753
 20
-2.487923017049892
 10
-2.553485322099744
 20
-2.572267830449886
 10
-2.532741209599747
 20
-2.654897525049888
  0
LWPOLYLINE
  5
1B2D
330
1F
100
AcDbEntity
  8
SK1
100
AcDbPolyline
 90
        5
 70
     0
 43
0.0
 10
-2.792166003599744
 20
-1.411169868949881
 10
-2.780910041799755
 20
-1.489109705949899
 10
-2.766424616999741
 20
-1.571410913949889
 10
-2.74822585669976
 20
-1.65810268394989
 10
-2.727765378299763
 20
-1.74840227064989
  0
LWPOLYLINE
  5
1B2E
330
1F
100
AcDbEntity
  8
SK1
100
AcDbPolyline
 90
        3
 70
     0
 43
0.0
 10
-1.657989071599756
 20
-2.125769840449875
 10
-1.654991888199759
 20
-2.017708895249894
 10
-1.650465567599765
 20
-1.911473146049899
  0
LWPOLYLINE
  5
1B2F
330
1F
100
AcDbEntity
  8
SK1
100
AcDbPolyline
 90
        6
 70
     0
 43
0.0
 10
-1.650465567599765
 20
-1.911473146049899
 10
-1.636825514699749
 20
-1.705527107549896
 10
-1.631278548999758
 20
-1.607517793649902
 10
-1.627979537799745
 20
-1.514046962549898
 10
-1.628502634299763
 20
-1.426383545249904
 10
-1.632323120799753
 20
-1.344399143549892
  0
LWPOLYLINE
  5
1B30
330
1F
100
AcDbEntity
  8
SK1
100
AcDbPolyline
 90
        7
 70
     0
 43
0.0
 10
-1.677120753999758
 20
-2.648061702649896
 10
-1.671445601199749
 20
-2.565168755649891
 10
-1.66676560149976
 20
-2.480531839949889
 10
-1.663081258799748
 20
-2.3942054320499
 10
-1.660391061399749
 20
-2.306258061549881
 10
-1.658693497699743
 20
-2.216760056849891
 10
-1.657989071599756
 20
-2.125769840449875
  0
LWPOLYLINE
  5
1B31
330
1F
100
AcDbEntity
  8
SK1
100
AcDbPolyline
 90
       15
 70
     0
 43
0.0
 10
-1.881895303199754
 20
-2.920281396649897
 10
-1.858066227999755
 20
-2.918142205449881
 10
-1.834881446499749
 20
-2.912836172549885
 10
-1.812084887899756
 20
-2.904290187149881
 10
-1.79044476419976
 20
-2.892643392649899
 10
-1.770640351599751
 20
-2.877843643249888
 10
-1.752682386099747
 20
-2.860344205449876
 10
-1.736877579399745
 20
-2.840527355949886
 10
-1.723017281099741
 20
-2.818562572049898
 10
-1.71100451309975
 20
-2.794775876049895
 10
-1.700810969499754
 20
-2.769102335649888
 10
-1.69240360189974
 20
-2.74158379504989
 10
-1.685699659999755
 20
-2.712226869649881
 10
-1.680593656499751
 20
-2.681074327149884
 10
-1.677120753999758
 20
-2.648061702649896
  0
LINE
  5
1B32
330
1F
100
AcDbEntity
  8
SK1
100
AcDbLine
 10
-2.277531419099758
 20
-2.923218531649892
 30
0.0
 11
-1.881900748399756
 21
-2.920268873249895
 31
0.0
  0
LINE
  5
1B33
330
1F
100
AcDbEntity
  8
SK1
100
AcDbLine
 10
-3.321573854199753
 20
-3.700607178349897
 30
0.0
 11
-3.320078629299756
 21
-3.702912827749897
 31
0.0
  0
LWPOLYLINE
  5
1B34
330
1F
100
AcDbEntity
  8
SK1
100
AcDbPolyline
 90
        6
 70
     0
 43
0.0
 10
-3.389454844799757
 20
-3.643350990349901
 10
-3.367438954399743
 20
-3.656344349049886
 10
-3.349974056799765
 20
-3.669664968749898
 10
-3.336704620799763
 20
-3.682215221449891
 10
-3.327543684299768
 20
-3.692632156849896
 10
-3.321573854199753
 20
-3.700607178349897
  0
LWPOLYLINE
  5
1B35
330
1F
100
AcDbEntity
  8
SK1
100
AcDbPolyline
 90
        9
 70
     0
 43
0.0
 10
-3.259190329599745
 20
-3.895946046849898
 10
-3.254922827099745
 20
-3.909029874249896
 10
-3.243853787499757
 20
-3.939958812949881
 10
-3.231724629599751
 20
-3.969224532249881
 10
-3.217984383099759
 20
-3.997246131749888
 10
-3.201351883099759
 20
-4.025110217849897
 10
-3.179996174399746
 20
-4.053316780049896
 10
-3.151831068699748
 20
-4.080970419249893
 10
-3.111725034499754
 20
-4.107432922149881
  0
LINE
  5
1B36
330
1F
100
AcDbEntity
  8
SK1
100
AcDbLine
 10
-3.320078629299756
 20
-3.702912827749897
 30
0.0
 11
-3.259813354999763
 21
-3.893896059849892
 31
0.0
  0
LINE
  5
1B37
330
1F
100
AcDbEntity
  8
SK1
100
AcDbLine
 10
-3.101594804199761
 20
-4.110003000849886
 30
0.0
 11
-3.111914619999766
 21
-4.107433398449897
 31
0.0
  0
LINE
  5
1B38
330
1F
100
AcDbEntity
  8
SK1
100
AcDbLine
 10
-1.599999999999765
 20
-4.110003000849886
 30
0.0
 11
-3.101644603299761
 21
-4.110003000849886
 31
0.0
  0
LWPOLYLINE
  5
1B39
330
1F
100
AcDbEntity
  8
SK1
100
AcDbPolyline
 90
        5
 70
     0
 43
0.0
 10
-3.487322701399746
 20
-3.619948616249898
 10
-3.472286968799748
 20
-3.620505722649895
 10
-3.443227197599767
 20
-3.624510155149891
 10
-3.415040664499755
 20
-3.632360663349897
 10
-3.389454844799757
 20
-3.643350990349901
  0
LINE
  5
1B3A
330
1F
100
AcDbEntity
  8
SK1
100
AcDbLine
 10
-3.883330015899758
 20
-3.6201350017499
 30
0.0
 11
-3.487255138899753
 21
-3.619863189849892
 31
0.0
  0
LINE
  5
1B3B
330
1F
100
AcDbEntity
  8
SK1
100
AcDbLine
 10
-4.267065576699763
 20
-4.110003000849886
 30
0.0
 11
-4.256402098899753
 21
-4.107228807149878
 31
0.0
  0
LINE
  5
1B3C
330
1F
100
AcDbEntity
  8
SK1
100
AcDbLine
 10
-4.018802132399755
 20
-3.668498446049893
 30
0.0
 11
-3.994413114499748
 21
-3.651077405149889
 31
0.0
  0
LWPOLYLINE
  5
1B3D
330
1F
100
AcDbEntity
  8
SK1
100
AcDbPolyline
 90
       10
 70
     0
 43
0.0
 10
-4.256393136799756
 20
-4.107228830449883
 10
-4.229269536099748
 20
-4.090359014549902
 10
-4.201049997299761
 20
-4.065976641449892
 10
-4.17831264249976
 20
-4.039455754549905
 10
-4.160567716299751
 20
-4.012924548649904
 10
-4.14591610019974
 20
-3.98594886334989
 10
-4.133268242199744
 20
-3.958089778349886
 10
-4.121897514099757
 20
-3.928826899549903
 10
-4.111249074599753
 20
-3.897397444049886
 10
-4.050226667899748
 20
-3.703137834049881
  0
LWPOLYLINE
  5
1B3E
330
1F
100
AcDbEntity
  8
SK1
100
AcDbPolyline
 90
        4
 70
     0
 43
0.0
 10
-3.994413114499748
 20
-3.651077405149889
 10
-3.963257910699751
 20
-3.635571570049888
 10
-3.925995074199759
 20
-3.624531753049877
 10
-3.88333156216484
 20
-3.620135002811024
  0
LWPOLYLINE
  5
1B3F
330
1F
100
AcDbEntity
  8
SK1
100
AcDbPolyline
 90
       15
 70
     0
 43
0.0
 10
-4.604311814799754
 20
-1.654397098049883
 10
-4.580217832699744
 20
-1.959425691449893
 10
-4.556069547999753
 20
-2.251097947749896
 10
-4.531876165499753
 20
-2.527391787949879
 10
-4.50763927289975
 20
-2.786386696849901
 10
-4.483378653499768
 20
-3.026353471249904
 10
-4.459100643199759
 20
-3.245684628249888
 10
-4.434847172599758
 20
-3.442839198349886
 10
-4.410663910999757
 20
-3.616443125949897
 10
-4.386545977599766
 20
-3.76534296634989
 10
-4.362509893599748
 20
-3.888536432549896
 10
-4.338537122399756
 20
-3.985167225849891
 10
-4.314637941399751
 20
-4.054571366149899
 10
-4.290742429699744
 20
-4.096277026149905
 10
-4.267065576699763
 20
-4.110003000849886
  0
LWPOLYLINE
  5
1B40
330
1F
100
AcDbEntity
  8
SK1
100
AcDbPolyline
 90
       14
 70
     0
 43
0.0
 10
-3.111914619999766
 20
-4.107433398449897
 10
-3.125476358999761
 20
-4.096270284949893
 10
-3.149716165599754
 20
-4.054556072649901
 10
-3.173978811199743
 20
-3.985141465049892
 10
-3.198191005399748
 20
-3.888499594349893
 10
-3.222349392399763
 20
-3.765295486149893
 10
-3.246418213599752
 20
-3.616387540249903
 10
-3.270421387799743
 20
-3.442778439949888
 10
-3.294360775499753
 20
-3.245622295549877
 10
-3.318266793199753
 20
-3.026292527049903
 10
-3.342164155999767
 20
-2.786329204149892
 10
-3.366071828099747
 20
-2.527338367749889
 10
-3.390014590099766
 20
-2.251043607249882
 10
-3.413999708199753
 20
-1.959374944549906
  0
LWPOLYLINE
  5
1B41
330
1F
100
AcDbEntity
  8
SK1
100
AcDbPolyline
 90
        3
 70
     0
 43
0.0
 10
-6.620062989864454
 20
3.620951139616562
 10
-7.791686479899751
 20
3.306352209450109
 10
-7.939999999999754
 20
3.26667717775011
  0
LINE
  5
1B42
330
1F
100
AcDbEntity
  8
SK1
100
AcDbLine
 10
-4.400537165286181
 20
3.618813794780231
 30
0.0
 11
-4.798562122999753
 21
3.619119342250101
 31
0.0
  0
LINE
  5
1B43
330
1F
100
AcDbEntity
  8
SK1
100
AcDbLine
 10
-4.893863053899749
 20
2.244714656550101
 30
0.0
 11
-4.846426923799754
 21
1.647442456450106
 31
0.0
  0
LINE
  5
1B44
330
1F
100
AcDbEntity
  8
SK1
100
AcDbLine
 10
-4.965113153199751
 20
3.702599619950106
 30
0.0
 11
-5.026538737799754
 21
3.897724696750102
 31
0.0
  0
LWPOLYLINE
  5
1B45
330
1F
100
AcDbEntity
  8
SK1
100
AcDbPolyline
 90
        9
 70
     0
 43
0.0
 10
-5.026538737799754
 20
3.897724696750102
 10
-5.03674865059976
 20
3.927903720250113
 10
-5.047496088899748
 20
3.955761737250098
 10
-5.059361631199749
 20
3.982292221450107
 10
-5.073107383199753
 20
4.008245888650106
 10
-5.089847305799763
 20
4.034256787050112
 10
-5.111150376499749
 20
4.060463578250106
 10
-5.138561944999763
 20
4.085685248550106
 10
-5.17133365019974
 20
4.106838005550102
  0
LWPOLYLINE
  5
1B46
330
1F
100
AcDbEntity
  8
SK1
100
AcDbPolyline
 90
       13
 70
     0
 43
0.0
 10
-5.172148405699758
 20
4.107263322550108
 10
-5.158606880599745
 20
4.095651885250105
 10
-5.13484042159976
 20
4.05331579825011
 10
-5.111032880099754
 20
3.983287472250096
 10
-5.087144407599764
 20
3.886066123150099
 10
-5.063082631299749
 20
3.762303074950109
 10
-5.038679454299766
 20
3.612808004750106
 10
-5.014122200299749
 20
3.438622521850106
 10
-4.989441742599764
 20
3.240967577950101
 10
-4.964939336299749
 20
3.021183634950105
 10
-4.941042695499745
 20
2.780770817650107
 10
-4.91740331749976
 20
2.521363554950113
 10
-4.893863053899749
 20
2.244714656550101
  0
LWPOLYLINE
  5
1B47
330
1F
100
AcDbEntity
  8
SK1
100
AcDbPolyline
 90
       34
 70
     0
 43
0.0
 10
-4.892540443599741
 20
3.641818759550118
 10
-4.895457407399759
 20
3.643267012550111
 10
-4.898375027699742
 20
3.644771545650101
 10
-4.901289103999757
 20
3.646331829350117
 10
-4.904195953599752
 20
3.647947445750104
 10
-4.907090639299766
 20
3.649617094250103
 10
-4.90996882739975
 20
3.651339580950106
 10
-4.912825142399753
 20
3.653112832050112
 10
-4.915654796399748
 20
3.654934829450112
 10
-4.918452019099758
 20
3.656802593250104
 10
-4.921209595399743
 20
3.658711715550096
 10
-4.923927644399753
 20
3.660662560850112
 10
-4.926603468699751
 20
3.662653462650111
 10
-4.929238187699749
 20
3.664685198450113
 10
-4.931834997299758
 20
3.666760299850109
 10
-4.934384472999751
 20
3.668871182650107
 10
-4.936880868999749
 20
3.671012517950103
 10
-4.939317440999756
 20
3.673177507550106
 10
-4.941688187599766
 20
3.675359315150116
 10
-4.943986609999753
 20
3.6775499330501
 10
-4.946207154499743
 20
3.67974149515011
 10
-4.948342789099752
 20
3.681923862650107
 10
-4.950387277599757
 20
3.684086752950093
 10
-4.952335020199738
 20
3.686219646550098
 10
-4.954180346399749
 20
3.688311007250106
 10
-4.955919720899755
 20
3.690350823850095
 10
-4.95754925039975
 20
3.692327893750102
 10
-4.959066562099748
 20
3.694232085550096
 10
-4.960468562599754
 20
3.696051646050108
 10
-4.961755516199744
 20
3.697778553150101
 10
-4.962925036099746
 20
3.699400747150093
 10
-4.963983275599757
 20
3.700917685950115
 10
-4.964935882399755
 20
3.702328462950091
 10
-4.965113153199751
 20
3.702599619950106
  0
LINE
  5
1B48
330
1F
100
AcDbEntity
  8
SK1
100
AcDbLine
 10
-5.182662699999766
 20
4.110006996850116
 30
0.0
 11
-5.172148405699758
 21
4.107263322550108
 31
0.0
  0
LWPOLYLINE
  5
1B49
330
1F
100
AcDbEntity
  8
SK1
100
AcDbPolyline
 90
       29
 70
     0
 43
0.0
 10
-4.814786748299766
 20
3.620727658850099
 10
-4.824140226499748
 20
3.621780232150099
 10
-4.826939829099756
 20
3.622112519750102
 10
-4.829454752099747
 20
3.622431041150106
 10
-4.831656280399753
 20
3.622731450450103
 10
-4.833710952299753
 20
3.623034932850116
 10
-4.835777494699754
 20
3.623365556950118
 10
-4.837845132899744
 20
3.623721804150106
 10
-4.839955465199748
 20
3.624111376850108
 10
-4.842108683699748
 20
3.624535625150115
 10
-4.844319624899753
 20
3.6249990799501
 10
-4.84658515939975
 20
3.625502932550104
 10
-4.848906518299754
 20
3.626049289950101
 10
-4.851284960099759
 20
3.626640352150103
 10
-4.85372152019974
 20
3.627278349750098
 10
-4.856217504199761
 20
3.62796567115012
 10
-4.858773556399754
 20
3.628704608450107
 10
-4.861391971099749
 20
3.6294980316501
 10
-4.864081531099741
 20
3.630351077850121
 10
-4.866822451299753
 20
3.631259758450113
 10
-4.869600378699742
 20
3.632221247550104
 10
-4.872408532499759
 20
3.633235295150113
 10
-4.875234885799756
 20
3.634299389050097
 10
-4.878081282899755
 20
3.635415923650113
 10
-4.880946311199749
 20
3.636586162950095
 10
-4.883827306399751
 20
3.637810853450103
 10
-4.886722114299757
 20
3.639090916750106
 10
-4.889627447199756
 20
3.6404267248501
 10
-4.892540443599741
 20
3.641818759550118
  0
LINE
  5
1B4A
330
1F
100
AcDbEntity
  8
SK1
100
AcDbLine
 10
-4.806007024199757
 20
3.61970793535012
 30
0.0
 11
-4.814786748299766
 21
3.620727658850099
 31
0.0
  0
LWPOLYLINE
  5
1B4B
330
1F
100
AcDbEntity
  8
SK1
100
AcDbPolyline
 90
       10
 70
     0
 43
0.0
 10
-4.798562122999753
 20
3.619119342250101
 10
-4.800103456999749
 20
3.619223380050114
 10
-4.800736602499752
 20
3.619241924350106
 10
-4.801237849899761
 20
3.619263066450102
 10
-4.801670434999762
 20
3.619286836150109
 10
-4.802108223399756
 20
3.619316589550108
 10
-4.802580796099745
 20
3.619354063550118
 10
-4.803284807199759
 20
3.619417706250103
 10
-4.804342161499762
 20
3.619525040950108
 10
-4.806007024199757
 20
3.61970793535012
  0
LWPOLYLINE
  5
1B4C
330
1F
100
AcDbEntity
  8
SK1
100
AcDbPolyline
 90
       27
 70
     0
 43
0.0
 10
-6.135924313099749
 20
3.6424527048501
 10
-6.139202725199749
 20
3.640853988850096
 10
-6.142528809699753
 20
3.639303526350103
 10
-6.145898994499745
 20
3.637804099250103
 10
-6.149309888099749
 20
3.636358188750092
 10
-6.152758010099758
 20
3.634968107050112
 10
-6.156239578199757
 20
3.633636074250104
 10
-6.159745503199757
 20
3.632365956550102
 10
-6.163287805599749
 20
3.631153965350108
 10
-6.166871102899746
 20
3.629999578950104
 10
-6.170509497999759
 20
3.628899018150106
 10
-6.174224985599749
 20
3.627846978250103
 10
-6.177999618399766
 20
3.626850028950101
 10
-6.181826109299762
 20
3.625910897150106
 10
-6.185693259499741
 20
3.625032674450109
 10
-6.189601962899757
 20
3.6242152891501
 10
-6.193507526299753
 20
3.623467145350118
 10
-6.197421670799754
 20
3.622784318450113
 10
-6.20117364639975
 20
3.622192590650101
 10
-6.204558318499763
 20
3.621717761850106
 10
-6.207684259699758
 20
3.6213356215501
 10
-6.210537457099746
 20
3.621039291850109
 10
-6.213285127699746
 20
3.620805670450093
 10
-6.216010020899758
 20
3.620627820350108
 10
-6.21895626529975
 20
3.62049152865012
 10
-6.222411439299762
 20
3.620390708250098
 10
-6.226331930899759
 20
3.620333156650103
  0
LWPOLYLINE
  5
1B4D
330
1F
100
AcDbEntity
  8
SK1
100
AcDbPolyline
 90
        6
 70
     0
 43
0.0
 10
-7.368708321599755
 20
2.041676852450108
 10
-7.390864230999766
 20
2.311410324750098
 10
-7.413043918399763
 20
2.56728642095011
 10
-7.435344669399754
 20
2.807778786350098
 10
-7.457886383099761
 20
3.031447519050102
 10
-7.497063635228835
 20
3.38546297542944
  0
LINE
  5
1B4E
330
1F
100
AcDbEntity
  8
SK1
100
AcDbLine
 10
-7.324322854299763
 20
1.467256078050098
 30
0.0
 11
-7.368708321599755
 21
2.041676852450108
 31
0.0
  0
LINE
  5
1B4F
330
1F
100
AcDbEntity
  8
SK1
100
AcDbLine
 10
-6.00477679919976
 20
3.894256189150111
 30
0.0
 11
-6.065446026099747
 21
3.701952780350111
 31
0.0
  0
LINE
  5
1B50
330
1F
100
AcDbEntity
  8
SK1
100
AcDbLine
 10
-6.061565712499754
 20
3.708347649450117
 30
0.0
 11
-6.061549330299754
 21
3.708381208750096
 31
0.0
  0
LWPOLYLINE
  5
1B51
330
1F
100
AcDbEntity
  8
SK1
100
AcDbPolyline
 90
       39
 70
     0
 43
0.0
 10
-6.061504194299757
 20
3.708472711550099
 10
-6.061533758899754
 20
3.708414890350111
 10
-6.061593806999751
 20
3.7082994490501
 10
-6.061686951199744
 20
3.708123480650101
 10
-6.061814310399753
 20
3.707887125950108
 10
-6.061977112199753
 20
3.707590424850109
 10
-6.062176594199755
 20
3.707233505450103
 10
-6.062414055099765
 20
3.706816495850104
 10
-6.06269081799975
 20
3.706339592750111
 10
-6.063008270999758
 20
3.705802994950103
 10
-6.06336782779975
 20
3.705206975450093
 10
-6.063770972199746
 20
3.704551811750106
 10
-6.064219214199765
 20
3.70383786205012
 10
-6.064714139699757
 20
3.703065490550101
 10
-6.065257361399758
 20
3.702235150450091
 10
-6.06585057459975
 20
3.701347301850105
 10
-6.066494991299746
 20
3.700403242150102
 10
-6.067193954199765
 20
3.699401320150113
 10
-6.067949607899749
 20
3.69834187785011
 10
-6.068767360999771
 20
3.697220899250111
 10
-6.069653238799759
 20
3.696034012250093
 10
-6.070608521799766
 20
3.694783613150106
 10
-6.071635999299757
 20
3.693470235150113
 10
-6.072737526899741
 20
3.692095787150094
 10
-6.073915408999752
 20
3.690661746450103
 10
-6.075171207699737
 20
3.689170620450097
 10
-6.076506811699757
 20
3.687624612450106
 10
-6.077923481199746
 20
3.686026732750106
 10
-6.079422788999749
 20
3.684379686150108
 10
-6.081005485499757
 20
3.682687115950115
 10
-6.082672665099764
 20
3.680952290050113
 10
-6.084424492699753
 20
3.679179424650101
 10
-6.086261476199751
 20
3.677372322350108
 10
-6.08818312049975
 20
3.675535694150113
 10
-6.090189253599745
 20
3.673673814650099
 10
-6.092278672799749
 20
3.671791775450102
 10
-6.094450461099753
 20
3.669894222550111
 10
-6.096702682799742
 20
3.667986492850118
 10
-6.099033546199747
 20
3.66607355205012
  0
LWPOLYLINE
  5
1B52
330
1F
100
AcDbEntity
  8
SK1
100
AcDbPolyline
 90
       14
 70
     0
 43
0.0
 10
-6.099033546199747
 20
3.66607355205012
 10
-6.101440655699759
 20
3.664160610950105
 10
-6.103919811599764
 20
3.6622539691501
 10
-6.106473550299752
 20
3.660354556250098
 10
-6.10910308449975
 20
3.658464396050106
 10
-6.111807797899754
 20
3.656586687750106
 10
-6.114588473299758
 20
3.654723621650105
 10
-6.117441613899755
 20
3.65288017705012
 10
-6.120364646399749
 20
3.651060445750102
 10
-6.123354719599745
 20
3.649268461250101
 10
-6.126408880499752
 20
3.647508078950096
 10
-6.129524033499762
 20
3.645782999650093
 10
-6.132696931999745
 20
3.644096768950106
 10
-6.135924313099749
 20
3.6424527048501
  0
LWPOLYLINE
  5
1B53
330
1F
100
AcDbEntity
  8
SK1
100
AcDbPolyline
 90
        9
 70
     0
 43
0.0
 10
-5.857608769399745
 20
4.107398269250111
 10
-5.894694944699748
 20
4.083118633750101
 10
-5.923059872399758
 20
4.055932575550101
 10
-5.944801447899749
 20
4.027822372750107
 10
-5.961681298099762
 20
4.000016835950105
 10
-5.975636681999745
 20
3.971933139450115
 10
-5.987956612299753
 20
3.942508403350102
 10
-5.999166406799757
 20
3.911418579350111
 10
-6.004519765799754
 20
3.894996631850105
  0
LWPOLYLINE
  5
1B54
330
1F
100
AcDbEntity
  8
SK1
100
AcDbPolyline
 90
        8
 70
     0
 43
0.0
 10
-6.857096285583232
 20
3.557304053431298
 10
-6.816358838399763
 20
3.217676671550108
 10
-6.792394366499762
 20
2.997225188650117
 10
-6.768283924599756
 20
2.756632755250108
 10
-6.744112198699752
 20
2.497492363850099
 10
-6.719946949199764
 20
2.221502077050117
 10
-6.695810724899757
 20
1.93055731355011
 10
-6.671750468299761
 20
1.626659250550104
  0
LWPOLYLINE
  5
1B55
330
1F
100
AcDbEntity
  8
SK1
100
AcDbPolyline
 90
       14
 70
     0
 43
0.0
 10
-5.534623845699753
 20
1.952795268250099
 10
-5.558473089499756
 20
2.244773404950108
 10
-5.582283689599746
 20
2.521422435550106
 10
-5.606081775699761
 20
2.780840901850111
 10
-5.629927505999757
 20
3.021259203350111
 10
-5.653894547699749
 20
3.241028799050098
 10
-5.677968503699744
 20
3.438666603650117
 10
-5.702189098499758
 20
3.612839642250108
 10
-5.726467635599759
 20
3.762327253250104
 10
-5.750733292699747
 20
3.886090192450111
 10
-5.774972171399753
 20
3.983310066950109
 10
-5.79914558039975
 20
4.053332148450108
 10
-5.823257075999762
 20
4.095660449550107
 10
-5.847552156799761
 20
4.110006996750114
  0
LINE
  5
1B56
330
1F
100
AcDbEntity
  8
SK1
100
AcDbLine
 10
-5.486670879799758
 20
1.330963125450095
 30
0.0
 11
-5.534623845699753
 21
1.952795268250099
 31
0.0
  0
LINE
  5
1B57
330
1F
100
AcDbEntity
  8
SK1
100
AcDbLine
 10
-6.226331930899759
 20
3.620333156650103
 30
0.0
 11
-6.23218553389975
 21
3.620313841250093
 31
0.0
  0
LINE
  5
1B58
330
1F
100
AcDbEntity
  8
SK1
100
AcDbLine
 10
-6.232427712299753
 20
3.620668893450113
 30
0.0
 11
-6.620062989864454
 21
3.620951139616562
 31
0.0
  0
LINE
  5
1B59
330
1F
100
AcDbEntity
  8
SK1
100
AcDbLine
 10
-5.847552156799761
 20
4.110006996750114
 30
0.0
 11
-5.857888971799766
 21
4.107398973650119
 31
0.0
  0
LINE
  5
1B5A
330
1F
100
AcDbEntity
  8
SK1
100
AcDbLine
 10
-5.182686591499758
 20
4.110006996850116
 30
0.0
 11
-5.84752536109974
 21
4.110006996850116
 31
0.0
  0
LWPOLYLINE
  5
1B5B
330
1F
100
AcDbEntity
  8
SK1
100
AcDbPolyline
 90
        4
 70
     0
 43
0.0
 10
-2.405095762756287
 20
3.703075051970859
 10
-2.41026637529974
 20
3.695737433050098
 10
-2.420550475599752
 20
3.683651845150107
 10
-2.436033299299764
 20
3.669003747750108
  0
LWPOLYLINE
  5
1B5C
330
1F
100
AcDbEntity
  8
SK1
100
AcDbPolyline
 90
        3
 70
     0
 43
0.0
 10
-4.235312881148901
 20
3.702268634194281
 10
-4.241580763599741
 20
3.693548790350119
 10
-4.254124444499749
 20
3.67943142105011
  0
LWPOLYLINE
  5
1B5D
330
1F
100
AcDbEntity
  8
SK1
100
AcDbPolyline
 90
        3
 70
     0
 43
0.0
 10
-4.254124444499749
 20
3.67943142105011
 10
-4.273637280999763
 20
3.6623952797501
 10
-4.303263769399747
 20
3.643775434850097
  0
LWPOLYLINE
  5
1B5E
330
1F
100
AcDbEntity
  8
SK1
100
AcDbPolyline
 90
        9
 70
     0
 43
0.0
 10
-4.026958717799743
 20
4.10698195235011
 10
-4.064275521099744
 20
4.082757850650096
 10
-4.093437566699761
 20
4.054817406650101
 10
-4.116033020499755
 20
4.025323210750101
 10
-4.133504869699748
 20
3.996045490750104
 10
-4.14788958689975
 20
3.966417466850116
 10
-4.160379570999763
 20
3.935770697550111
 10
-4.171716365199741
 20
3.903427056850104
 10
-4.174017713499763
 20
3.896297133450102
  0
LWPOLYLINE
  5
1B5F
330
1F
100
AcDbEntity
  8
SK1
100
AcDbPolyline
 90
        2
 70
     0
 43
0.0
 10
-4.232027649899761
 20
3.707515718550111
 10
-4.232032461099747
 20
3.707573573050096
  0
LWPOLYLINE
  5
1B60
330
1F
100
AcDbEntity
  8
SK1
100
AcDbPolyline
 90
       15
 70
     0
 43
0.0
 10
-3.677425111199752
 20
1.647468604550111
 10
-3.701551361199747
 20
1.952757201050118
 10
-3.725996932099745
 20
2.244735135550101
 10
-3.750592311199751
 20
2.521391202150097
 10
-3.775338173399759
 20
2.780838823150104
 10
-3.799861162599766
 20
3.021277711050116
 10
-3.823628093799753
 20
3.241035562650111
 10
-3.847119128499768
 20
3.4386546455501
 10
-3.870586484299763
 20
3.612812845750098
 10
-3.894180807299761
 20
3.762292141250098
 10
-3.918215445199748
 20
3.886056379750101
 10
-3.942454510399754
 20
3.983283076050113
 10
-3.966777550399754
 20
4.053315305850104
 10
-3.991151606699758
 20
4.095653149450114
 10
-4.015781219599743
 20
4.110006996750114
  0
LINE
  5
1B61
330
1F
100
AcDbEntity
  8
SK1
100
AcDbLine
 10
-2.436033299299764
 20
3.669003747750108
 30
0.0
 11
-2.457971007399761
 21
3.6529862554501
 31
0.0
  0
LWPOLYLINE
  5
1B62
330
1F
100
AcDbEntity
  8
SK1
100
AcDbPolyline
 90
        9
 70
     0
 43
0.0
 10
-2.198054673099761
 20
4.107339200450097
 10
-2.231718385999768
 20
4.08568830955012
 10
-2.26097810769974
 20
4.058470982450103
 10
-2.283695234399742
 20
4.029658644250103
 10
-2.300668753699751
 20
4.002055039250108
 10
-2.31447699929977
 20
3.974617683750095
 10
-2.32654760989976
 20
3.946204082650111
 10
-2.33747491059975
 20
3.916415679150105
 10
-2.34495333999976
 20
3.893608100550096
  0
LWPOLYLINE
  5
1B63
330
1F
100
AcDbEntity
  8
SK1
100
AcDbPolyline
 90
        4
 70
     0
 43
0.0
 10
-4.303263769399747
 20
3.643775434850097
 10
-4.338337003299756
 20
3.629379130150111
 10
-4.375804563299764
 20
3.621554646250102
 10
-4.400849182299751
 20
3.618779217250106
  0
LINE
  5
1B64
330
1F
100
AcDbEntity
  8
SK1
100
AcDbLine
 10
-3.038388400199748
 20
1.952689542150096
 30
0.0
 11
-2.989967347699745
 21
1.3308208507501
 31
0.0
  0
LINE
  5
1B65
330
1F
100
AcDbEntity
  8
SK1
100
AcDbLine
 10
-2.344713884599754
 20
3.894479344050111
 30
0.0
 11
-2.405095762699743
 21
3.703075052150096
 31
0.0
  0
LWPOLYLINE
  5
1B66
330
1F
100
AcDbEntity
  8
SK1
100
AcDbPolyline
 90
        5
 70
     0
 43
0.0
 10
-2.457971007399761
 20
3.6529862554501
 10
-2.485555879199764
 20
3.638370216450097
 10
-2.518620848899757
 20
3.627024536250103
 10
-2.552939544799754
 20
3.621155615650109
 10
-2.57222566889976
 20
3.620363508250107
  0
LINE
  5
1B67
330
1F
100
AcDbEntity
  8
SK1
100
AcDbLine
 10
-4.17465684769975
 20
3.894538570350121
 30
0.0
 11
-4.235312881099742
 21
3.702268634350103
 31
0.0
  0
LWPOLYLINE
  5
1B68
330
1F
100
AcDbEntity
  8
SK1
100
AcDbPolyline
 90
       14
 70
     0
 43
0.0
 10
-1.874242525899759
 20
1.959042132750113
 10
-1.898136214699745
 20
2.250509115650102
 10
-1.922053633199751
 20
2.526627001250089
 10
-1.946061874199754
 20
2.78550946875009
 10
-1.970166185399746
 20
3.025390133650118
 10
-1.994420420399747
 20
3.244627610450093
 10
-2.01874585399976
 20
3.441739929550107
 10
-2.043096041799755
 20
3.615396538950107
 10
-2.067427995699758
 20
3.764384762050112
 10
-2.091684527899742
 20
3.887671356550099
 10
-2.115861792699746
 20
3.984443191850118
 10
-2.139931061999745
 20
4.054050160950112
 10
-2.163909795499746
 20
4.096000229850103
 10
-2.187776686099751
 20
4.110006996750114
  0
LINE
  5
1B69
330
1F
100
AcDbEntity
  8
SK1
100
AcDbLine
 10
-1.826319812099753
 20
1.338116403650117
 30
0.0
 11
-1.874242525899759
 21
1.959042132750113
 31
0.0
  0
LWPOLYLINE
  5
1B6A
330
1F
100
AcDbEntity
  8
SK1
100
AcDbPolyline
 90
        9
 70
     0
 43
0.0
 10
-3.196730436699765
 20
3.899482649750096
 10
-3.206754147499764
 20
3.929025165650101
 10
-3.217367688399761
 20
3.956536670550106
 10
-3.229058121199754
 20
3.9827786648501
 10
-3.242269397599754
 20
4.007960139350116
 10
-3.258332208399763
 20
4.033251537650116
 10
-3.279150617199745
 20
4.059277083950106
 10
-3.306425142199756
 20
4.084936245550095
 10
-3.340069895299748
 20
4.107097845950105
  0
LINE
  5
1B6B
330
1F
100
AcDbEntity
  8
SK1
100
AcDbLine
 10
-3.134691842899754
 20
3.702603367550109
 30
0.0
 11
-3.196730436699765
 21
3.899482649750096
 31
0.0
  0
LINE
  5
1B6C
330
1F
100
AcDbEntity
  8
SK1
100
AcDbLine
 10
-3.128375428199758
 20
3.693975678050093
 30
0.0
 11
-3.134691842899754
 21
3.702603367550109
 31
0.0
  0
LWPOLYLINE
  5
1B6D
330
1F
100
AcDbEntity
  8
SK1
100
AcDbPolyline
 90
        3
 70
     0
 43
0.0
 10
-3.088382001299747
 20
3.657245889150102
 10
-3.112089182699746
 20
3.676305497350098
 10
-3.128375428199758
 20
3.693975678050093
  0
LWPOLYLINE
  5
1B6E
330
1F
100
AcDbEntity
  8
SK1
100
AcDbPolyline
 90
       14
 70
     0
 43
0.0
 10
-3.339826566699754
 20
4.107098499850109
 10
-3.326343322199746
 20
4.095648844950103
 10
-3.302184299999765
 20
4.053308882050115
 10
-3.278106851599758
 20
3.983276345950115
 10
-3.254117741499753
 20
3.886048730850106
 10
-3.230200611899745
 20
3.762281089450111
 10
-3.206356211799756
 20
3.612791939650093
 10
-3.182539984399752
 20
3.438618776050105
 10
-3.158721796099754
 20
3.240977866550108
 10
-3.134859126799768
 20
3.021204782550113
 10
-3.110899226799757
 20
2.780788850750098
 10
-3.086842652499753
 20
2.521368380650102
 10
-3.062640812499763
 20
2.244696611950118
 10
-3.038388400199748
 20
1.952689542150096
  0
LINE
  5
1B6F
330
1F
100
AcDbEntity
  8
SK1
100
AcDbLine
 10
-3.350880484299763
 20
4.110006996850116
 30
0.0
 11
-3.339826566699754
 21
4.107098499850109
 31
0.0
  0
LINE
  5
1B70
330
1F
100
AcDbEntity
  8
SK1
100
AcDbLine
 10
-2.57222566889976
 20
3.620363508250107
 30
0.0
 11
-2.968309806299756
 21
3.620634762050113
 31
0.0
  0
LWPOLYLINE
  5
1B71
330
1F
100
AcDbEntity
  8
SK1
100
AcDbPolyline
 90
        5
 70
     0
 43
0.0
 10
-2.969188366299746
 20
3.620566056250096
 10
-2.993826748099747
 20
3.622106390950108
 10
-3.023213205199751
 20
3.627706532950098
 10
-3.057066087899754
 20
3.639680445050103
 10
-3.088382001299747
 20
3.657245889150102
  0
LINE
  5
1B72
330
1F
100
AcDbEntity
  8
SK1
100
AcDbLine
 10
-2.968309806299756
 20
3.620634762050113
 30
0.0
 11
-2.969188366299746
 21
3.620566056250096
 31
0.0
  0
LINE
  5
1B73
330
1F
100
AcDbEntity
  8
SK1
100
AcDbLine
 10
-1.599999999999765
 20
4.110006996850116
 30
0.0
 11
-2.187757216099753
 21
4.110006996850116
 31
0.0
  0
LINE
  5
1B74
330
1F
100
AcDbEntity
  8
SK1
100
AcDbLine
 10
-3.350898625399748
 20
4.110006996850116
 30
0.0
 11
-4.015765062999746
 21
4.110006996850116
 31
0.0
  0
LINE
  5
1B75
330
1F
100
AcDbEntity
  8
SK1
100
AcDbLine
 10
-2.187776686099751
 20
4.110006996750114
 30
0.0
 11
-2.198169521399746
 21
4.107339490750106
 31
0.0
  0
LINE
  5
1B76
330
1F
100
AcDbEntity
  8
SK1
100
AcDbLine
 10
-4.015781219599743
 20
4.110006996750114
 30
0.0
 11
-4.026288039999753
 21
4.107391030250113
 31
0.0
  0
LINE
  5
1B77
330
1F
100
AcDbEntity
  8
1
100
AcDbLine
 10
0.000000000000199
 20
2.213229040584522
 30
0.0
 11
0.000000000000199
 21
-2.213229040584393
 31
0.0
  0
LWPOLYLINE
  5
1B78
330
1F
100
AcDbEntity
  8
1
100
AcDbPolyline
 90
        3
 70
     1
 43
0.0
 10
0.000000000000199
 20
2.213229040584522
 10
0.000000000000199
 20
0.0000000000000853
 10
2.213229040584678
 20
0.0000000000000853
 42
0.4142135623730966
  0
DIMENSION
  5
1BD0
330
1F
100
AcDbEntity
  8
SK2
100
AcDbDimension
  2
*D8
 10
-11.41813823957628
 20
-4.110003000849885
 30
0.0
 11
-11.41813823957628
 21
0.0000019980001145
 31
0.0
 70
   160
  1
Ts<>
  3
ISO-25
100
AcDbAlignedDimension
 13
-5.515105976299749
 23
4.110006996850116
 33
0.0
 14
-6.429450926799752
 24
-4.110003000849886
 34
0.0
 50
90.0
100
AcDbRotatedDimension
1001
ACAD
1000
DSTYLE
1002
{
1070
   271
1070
     0
1002
}
  0
ENDSEC
  0
SECTION
  2
OBJECTS
  0
DICTIONARY
  5
56C
330
0
100
AcDbDictionary
  3
ACAD_GROUP
350
56D
  3
ACAD_LAYOUT
350
574
  3
ACAD_MLINESTYLE
350
56E
  3
ACAD_PLOTSETTINGS
350
575
  3
ACAD_PLOTSTYLENAME
350
572
  3
ACDBHEADERROUNDTRIPXREC
350
1C0C
  3
ACDBVARIABLEDICTIONARY
350
10BC
  0
DICTIONARY
  5
AF0
330
1F
100
AcDbDictionary
280
     1
  3
ACAD_LAYOUTSELFREF
360
1C2D
  0
DICTIONARY
  5
AEE
330
1B
100
AcDbDictionary
280
     1
  3
ACAD_LAYOUTSELFREF
360
1C2C
  0
DICTIONARY
  5
56D
102
{ACAD_REACTORS
330
56C
102
}
330
56C
100
AcDbDictionary
  0
DICTIONARY
  5
574
102
{ACAD_REACTORS
330
56C
102
}
330
56C
100
AcDbDictionary
  0
DICTIONARY
  5
56E
102
{ACAD_REACTORS
330
56C
102
}
330
56C
100
AcDbDictionary
  3
STANDARD
350
56F
  0
DICTIONARY
  5
575
102
{ACAD_REACTORS
330
56C
102
}
330
56C
100
AcDbDictionary
  0
ACDBDICTIONARYWDFLT
  5
572
102
{ACAD_REACTORS
330
56C
102
}
330
56C
100
AcDbDictionary
281
     1
  3
Normal
350
573
100
AcDbDictionaryWithDefault
340
573
  0
DICTIONARY
  5
1C0C
102
{ACAD_REACTORS
330
56C
102
}
330
56C
100
AcDbDictionary
  3
CEPSNTYPE
350
1C16
  3
FINGERPRINTGUID
350
1C17
  3
HYPERLINKBASE
350
1C0F
  3
INSUNITS
350
1C15
  3
LAYOUTDICT
350
1C11
  3
LWETCUNION
350
1C14
  3
PLOTSETDICT
350
1C12
  3
PLOTSTYLNAMDICT
350
1C13
  3
PSVPSCALE
350
1C19
  3
PUCSBASE
350
1C1C
  3
PUCSORGBACK
350
1C22
  3
PUCSORGBOTTOM
350
1C1E
  3
PUCSORGFRONT
350
1C21
  3
PUCSORGLEFT
350
1C1F
  3
PUCSORGRIGHT
350
1C20
  3
PUCSORGTOP
350
1C1D
  3
PUCSORTHOREF
350
1C1A
  3
PUCSORTHOVIEW
350
1C1B
  3
STYLESHEET
350
1C10
  3
TSTACKALIGN
350
1C0D
  3
TSTACKSIZE
350
1C0E
  3
UCSBASE
350
1C25
  3
UCSORGBACK
350
1C2B
  3
UCSORGBOTTOM
350
1C27
  3
UCSORGFRONT
350
1C2A
  3
UCSORGLEFT
350
1C28
  3
UCSORGRIGHT
350
1C29
  3
UCSORGTOP
350
1C26
  3
UCSORTHOREF
350
1C23
  3
UCSORTHOVIEW
350
1C24
  3
VERSIONGUID
350
1C18
  0
DICTIONARY
  5
10BC
102
{ACAD_REACTORS
330
56C
102
}
330
56C
100
AcDbDictionary
  3
SORTENTS
350
10BD
  0
XRECORD
  5
1C2D
102
{ACAD_REACTORS
330
AF0
102
}
330
AF0
100
AcDbXrecord
340
1F
  0
XRECORD
  5
1C2C
102
{ACAD_REACTORS
330
AEE
102
}
330
AEE
100
AcDbXrecord
340
1B
  0
MLINESTYLE
  5
56F
102
{ACAD_REACTORS
330
56E
102
}
330
56E
100
AcDbMlineStyle
  2
STANDARD
 70
     0
  3

 62
   256
 51
90.0
 52
90.0
 71
     2
 49
0.5
 62
   256
  6
BYLAYER
 49
-0.5
 62
   256
  6
BYLAYER
  0
ACDBPLACEHOLDER
  5
573
102
{ACAD_REACTORS
330
572
102
}
330
572
100
AcDbPlaceHolder
280
     0
  0
XRECORD
  5
1C16
102
{ACAD_REACTORS
330
1C0C
102
}
330
1C0C
100
AcDbXrecord
 90
        0
  0
XRECORD
  5
1C17
102
{ACAD_REACTORS
330
1C0C
102
}
330
1C0C
100
AcDbXrecord
  1
{91885192-BF09-408E-931E-B83B272C8839}
  0
XRECORD
  5
1C0F
102
{ACAD_REACTORS
330
1C0C
102
}
330
1C0C
100
AcDbXrecord
  1

  0
XRECORD
  5
1C15
102
{ACAD_REACTORS
330
1C0C
102
}
330
1C0C
100
AcDbXrecord
 90
        0
  0
XRECORD
  5
1C11
102
{ACAD_REACTORS
330
1C0C
102
}
330
1C0C
100
AcDbXrecord
340
574
  0
XRECORD
  5
1C14
102
{ACAD_REACTORS
330
1C0C
102
}
330
1C0C
100
AcDbXrecord
 90
    10781
  0
XRECORD
  5
1C12
102
{ACAD_REACTORS
330
1C0C
102
}
330
1C0C
100
AcDbXrecord
340
575
  0
XRECORD
  5
1C13
102
{ACAD_REACTORS
330
1C0C
102
}
330
1C0C
100
AcDbXrecord
340
572
  0
XRECORD
  5
1C19
102
{ACAD_REACTORS
330
1C0C
102
}
330
1C0C
100
AcDbXrecord
 40
0.0
  0
XRECORD
  5
1C1C
102
{ACAD_REACTORS
330
1C0C
102
}
330
1C0C
100
AcDbXrecord
340
0
  0
XRECORD
  5
1C22
102
{ACAD_REACTORS
330
1C0C
102
}
330
1C0C
100
AcDbXrecord
 10
0.0
 20
0.0
 30
0.0
  0
XRECORD
  5
1C1E
102
{ACAD_REACTORS
330
1C0C
102
}
330
1C0C
100
AcDbXrecord
 10
0.0
 20
0.0
 30
0.0
  0
XRECORD
  5
1C21
102
{ACAD_REACTORS
330
1C0C
102
}
330
1C0C
100
AcDbXrecord
 10
0.0
 20
0.0
 30
0.0
  0
XRECORD
  5
1C1F
102
{ACAD_REACTORS
330
1C0C
102
}
330
1C0C
100
AcDbXrecord
 10
0.0
 20
0.0
 30
0.0
  0
XRECORD
  5
1C20
102
{ACAD_REACTORS
330
1C0C
102
}
330
1C0C
100
AcDbXrecord
 10
0.0
 20
0.0
 30
0.0
  0
XRECORD
  5
1C1D
102
{ACAD_REACTORS
330
1C0C
102
}
330
1C0C
100
AcDbXrecord
 10
0.0
 20
0.0
 30
0.0
  0
XRECORD
  5
1C1A
102
{ACAD_REACTORS
330
1C0C
102
}
330
1C0C
100
AcDbXrecord
340
0
  0
XRECORD
  5
1C1B
102
{ACAD_REACTORS
330
1C0C
102
}
330
1C0C
100
AcDbXrecord
 70
     0
  0
XRECORD
  5
1C10
102
{ACAD_REACTORS
330
1C0C
102
}
330
1C0C
100
AcDbXrecord
  1

  0
XRECORD
  5
1C0D
102
{ACAD_REACTORS
330
1C0C
102
}
330
1C0C
100
AcDbXrecord
 90
        1
  0
XRECORD
  5
1C0E
102
{ACAD_REACTORS
330
1C0C
102
}
330
1C0C
100
AcDbXrecord
 90
       70
  0
XRECORD
  5
1C25
102
{ACAD_REACTORS
330
1C0C
102
}
330
1C0C
100
AcDbXrecord
340
0
  0
XRECORD
  5
1C2B
102
{ACAD_REACTORS
330
1C0C
102
}
330
1C0C
100
AcDbXrecord
 10
0.0
 20
0.0
 30
0.0
  0
XRECORD
  5
1C27
102
{ACAD_REACTORS
330
1C0C
102
}
330
1C0C
100
AcDbXrecord
 10
0.0
 20
0.0
 30
0.0
  0
XRECORD
  5
1C2A
102
{ACAD_REACTORS
330
1C0C
102
}
330
1C0C
100
AcDbXrecord
 10
0.0
 20
0.0
 30
0.0
  0
XRECORD
  5
1C28
102
{ACAD_REACTORS
330
1C0C
102
}
330
1C0C
100
AcDbXrecord
 10
0.0
 20
0.0
 30
0.0
  0
XRECORD
  5
1C29
102
{ACAD_REACTORS
330
1C0C
102
}
330
1C0C
100
AcDbXrecord
 10
0.0
 20
0.0
 30
0.0
  0
XRECORD
  5
1C26
102
{ACAD_REACTORS
330
1C0C
102
}
330
1C0C
100
AcDbXrecord
 10
0.0
 20
0.0
 30
0.0
  0
XRECORD
  5
1C23
102
{ACAD_REACTORS
330
1C0C
102
}
330
1C0C
100
AcDbXrecord
340
0
  0
XRECORD
  5
1C24
102
{ACAD_REACTORS
330
1C0C
102
}
330
1C0C
100
AcDbXrecord
 70
     0
  0
XRECORD
  5
1C18
102
{ACAD_REACTORS
330
1C0C
102
}
330
1C0C
100
AcDbXrecord
  1
{986BA572-2F8F-4881-9E27-C654181F3500}
  0
DICTIONARYVAR
  5
10BD
102
{ACAD_REACTORS
330
10BC
102
}
330
10BC
100
DictionaryVariables
280
     0
  1
96
  0
ENDSEC
  0
EOF
